  0
SECTION
  2
HEADER
  9
$ACADVER
  1
AC1015
  9
$ACADMAINTVER
 70
     6
  9
$DWGCODEPAGE
  3
DOS850
  9
$INSBASE
 10
0.0
 20
0.0
 30
0.0
  9
$EXTMIN
 10
-210.0
 20
-148.5
 30
0.0
  9
$EXTMAX
 10
630.0
 20
445.5
 30
0.0
  9
$LIMMIN
 10
-210.0
 20
-148.5
  9
$LIMMAX
 10
630.0
 20
445.5
  9
$ORTHOMODE
 70
     0
  9
$REGENMODE
 70
     1
  9
$FILLMODE
 70
     1
  9
$QTEXTMODE
 70
     0
  9
$MIRRTEXT
 70
     1
  9
$LTSCALE
 40
2.0
  9
$ATTMODE
 70
     1
  9
$TEXTSIZE
 40
2.5
  9
$TRACEWID
 40
1.0
  9
$TEXTSTYLE
  7
Standard
  9
$CLAYER
  8
0
  9
$CELTYPE
  6
ByLayer
  9
$CECOLOR
 62
     7
  9
$CELTSCALE
 40
1.0
  9
$DISPSILH
 70
     0
  9
$DIMSCALE
 40
2.0
  9
$DIMASZ
 40
3.5
  9
$DIMEXO
 40
0.625
  9
$DIMDLI
 40
3.75
  9
$DIMRND
 40
0.0
  9
$DIMDLE
 40
0.0
  9
$DIMEXE
 40
1.25
  9
$DIMTP
 40
0.0
  9
$DIMTM
 40
0.0
  9
$DIMTXT
 40
3.5
  9
$DIMCEN
 40
2.5
  9
$DIMTSZ
 40
0.0
  9
$DIMTOL
 70
     0
  9
$DIMLIM
 70
     0
  9
$DIMTIH
 70
     0
  9
$DIMTOH
 70
     0
  9
$DIMSE1
 70
     0
  9
$DIMSE2
 70
     0
  9
$DIMTAD
 70
     1
  9
$DIMZIN
 70
     8
  9
$DIMBLK
  1

  9
$DIMASO
 70
     1
  9
$DIMSHO
 70
     1
  9
$DIMPOST
  1

  9
$DIMAPOST
  1

  9
$DIMALT
 70
     0
  9
$DIMALTD
 70
     3
  9
$DIMALTF
 40
0.03937
  9
$DIMLFAC
 40
1.0
  9
$DIMTOFL
 70
     1
  9
$DIMTVP
 40
0.0
  9
$DIMTIX
 70
     0
  9
$DIMSOXD
 70
     0
  9
$DIMSAH
 70
     0
  9
$DIMBLK1
  1

  9
$DIMBLK2
  1

  9
$DIMSTYLE
  2
ISO-25
  9
$DIMCLRD
 70
     0
  9
$DIMCLRE
 70
     0
  9
$DIMCLRT
 70
     0
  9
$DIMTFAC
 40
1.0
  9
$DIMGAP
 40
0.625
  9
$DIMJUST
 70
     0
  9
$DIMSD1
 70
     0
  9
$DIMSD2
 70
     0
  9
$DIMTOLJ
 70
     0
  9
$DIMTZIN
 70
     8
  9
$DIMALTZ
 70
     0
  9
$DIMALTTZ
 70
     0
  9
$DIMUPT
 70
     0
  9
$DIMDEC
 70
     2
  9
$DIMTDEC
 70
     2
  9
$DIMALTU
 70
     2
  9
$DIMALTTD
 70
     3
  9
$DIMTXSTY
  7
Standard
  9
$DIMAUNIT
 70
     0
  9
$DIMADEC
 70
     0
  9
$DIMALTRND
 40
0.0
  9
$DIMAZIN
 70
     0
  9
$DIMDSEP
 70
    44
  9
$DIMATFIT
 70
     3
  9
$DIMFRAC
 70
     0
  9
$DIMLDRBLK
  1

  9
$DIMLUNIT
 70
     2
  9
$DIMLWD
 70
    -2
  9
$DIMLWE
 70
    -2
  9
$DIMTMOVE
 70
     0
  9
$LUNITS
 70
     2
  9
$LUPREC
 70
     4
  9
$SKETCHINC
 40
1.0
  9
$FILLETRAD
 40
10.0
  9
$AUNITS
 70
     0
  9
$AUPREC
 70
     0
  9
$MENU
  1
.
  9
$ELEVATION
 40
0.0
  9
$PELEVATION
 40
0.0
  9
$THICKNESS
 40
0.0
  9
$LIMCHECK
 70
     0
  9
$CHAMFERA
 40
10.0
  9
$CHAMFERB
 40
10.0
  9
$CHAMFERC
 40
20.0
  9
$CHAMFERD
 40
0.0
  9
$SKPOLY
 70
     0
  9
$TDCREATE
 40
2453896.239086018
  9
$TDUCREATE
 40
2453896.155752685
  9
$TDUPDATE
 40
2453896.23908603
  9
$TDUUPDATE
 40
2453896.155752697
  9
$TDINDWG
 40
0.0000000116
  9
$TDUSRTIMER
 40
0.0000000116
  9
$USRTIMER
 70
     1
  9
$ANGBASE
 50
0.0
  9
$ANGDIR
 70
     0
  9
$PDMODE
 70
     0
  9
$PDSIZE
 40
0.0
  9
$PLINEWID
 40
0.0
  9
$SPLFRAME
 70
     0
  9
$SPLINETYPE
 70
     6
  9
$SPLINESEGS
 70
     8
  9
$HANDSEED
  5
264
  9
$SURFTAB1
 70
     6
  9
$SURFTAB2
 70
     6
  9
$SURFTYPE
 70
     6
  9
$SURFU
 70
     6
  9
$SURFV
 70
     6
  9
$UCSBASE
  2

  9
$UCSNAME
  2

  9
$UCSORG
 10
0.0
 20
0.0
 30
0.0
  9
$UCSXDIR
 10
1.0
 20
0.0
 30
0.0
  9
$UCSYDIR
 10
0.0
 20
1.0
 30
0.0
  9
$UCSORTHOREF
  2

  9
$UCSORTHOVIEW
 70
     0
  9
$UCSORGTOP
 10
0.0
 20
0.0
 30
0.0
  9
$UCSORGBOTTOM
 10
0.0
 20
0.0
 30
0.0
  9
$UCSORGLEFT
 10
0.0
 20
0.0
 30
0.0
  9
$UCSORGRIGHT
 10
0.0
 20
0.0
 30
0.0
  9
$UCSORGFRONT
 10
0.0
 20
0.0
 30
0.0
  9
$UCSORGBACK
 10
0.0
 20
0.0
 30
0.0
  9
$PUCSBASE
  2

  9
$PUCSNAME
  2

  9
$PUCSORG
 10
0.0
 20
0.0
 30
0.0
  9
$PUCSXDIR
 10
1.0
 20
0.0
 30
0.0
  9
$PUCSYDIR
 10
0.0
 20
1.0
 30
0.0
  9
$PUCSORTHOREF
  2

  9
$PUCSORTHOVIEW
 70
     0
  9
$PUCSORGTOP
 10
0.0
 20
0.0
 30
0.0
  9
$PUCSORGBOTTOM
 10
0.0
 20
0.0
 30
0.0
  9
$PUCSORGLEFT
 10
0.0
 20
0.0
 30
0.0
  9
$PUCSORGRIGHT
 10
0.0
 20
0.0
 30
0.0
  9
$PUCSORGFRONT
 10
0.0
 20
0.0
 30
0.0
  9
$PUCSORGBACK
 10
0.0
 20
0.0
 30
0.0
  9
$USERI1
 70
     0
  9
$USERI2
 70
     0
  9
$USERI3
 70
     0
  9
$USERI4
 70
     0
  9
$USERI5
 70
     0
  9
$USERR1
 40
0.0
  9
$USERR2
 40
0.0
  9
$USERR3
 40
0.0
  9
$USERR4
 40
0.0
  9
$USERR5
 40
0.0
  9
$WORLDVIEW
 70
     1
  9
$SHADEDGE
 70
     3
  9
$SHADEDIF
 70
    70
  9
$TILEMODE
 70
     1
  9
$MAXACTVP
 70
    64
  9
$PINSBASE
 10
0.0
 20
0.0
 30
0.0
  9
$PLIMCHECK
 70
     0
  9
$PEXTMIN
 10
-210.0
 20
-148.5
 30
0.0
  9
$PEXTMAX
 10
630.0
 20
445.5
 30
0.0
  9
$PLIMMIN
 10
-210.0
 20
-148.5
  9
$PLIMMAX
 10
630.0
 20
445.5
  9
$UNITMODE
 70
     0
  9
$VISRETAIN
 70
     1
  9
$PLINEGEN
 70
     0
  9
$PSLTSCALE
 70
     1
  9
$TREEDEPTH
 70
  3020
  9
$CMLSTYLE
  2
Standard
  9
$CMLJUST
 70
     0
  9
$CMLSCALE
 40
20.0
  9
$PROXYGRAPHICS
 70
     1
  9
$MEASUREMENT
 70
     1
  9
$CELWEIGHT
370
    -1
  9
$ENDCAPS
280
     0
  9
$JOINSTYLE
280
     0
  9
$LWDISPLAY
290
     0
  9
$INSUNITS
 70
     4
  9
$HYPERLINKBASE
  1

  9
$STYLESHEET
  1

  9
$XEDIT
290
     1
  9
$CEPSNTYPE
380
     0
  9
$PSTYLEMODE
290
     1
  9
$FINGERPRINTGUID
  2
{FAEB1C30-E019-11D5-929B-00C0DF256EC4}
  9
$VERSIONGUID
  2
{FAEB1C32-E019-11D5-929B-00C0DF256EC4}
  9
$EXTNAMES
290
     1
  9
$PSVPSCALE
 40
0.0
  9
$OLESTARTUP
290
     0
  0
ENDSEC
  0
SECTION
  2
CLASSES
  0
CLASS
  1
ACDBDICTIONARYWDFLT
  2
AcDbDictionaryWithDefault
  3
ObjectDBX Classes
 90
        0
280
     0
281
     0
  0
CLASS
  1
ACDBPLACEHOLDER
  2
AcDbPlaceHolder
  3
ObjectDBX Classes
 90
        0
280
     0
281
     0
  0
CLASS
  1
LAYOUT
  2
AcDbLayout
  3
ObjectDBX Classes
 90
        0
280
     0
281
     0
  0
ENDSEC
  0
SECTION
  2
TABLES
  0
TABLE
  2
VPORT
  5
8
330
0
100
AcDbSymbolTable
 70
     2
  0
VPORT
  5
29
330
8
100
AcDbSymbolTableRecord
100
AcDbViewportTableRecord
  2
*ACTIVE
 70
     0
 10
0.0
 20
0.0
 11
1.0
 21
1.0
 12
210.0
 22
148.5
 13
0.0
 23
0.0
 14
1.0
 24
1.0
 15
0.0
 25
0.0
 16
0.0
 26
0.0
 36
1.0
 17
0.0
 27
0.0
 37
0.0
 40
594.0
 41
1.414141
 42
50.0
 43
0.0
 44
0.0
 50
0.0
 51
0.0
 71
    16
 72
   100
 73
     1
 74
     0
 75
     0
 76
     0
 77
     0
 78
     0
281
     0
 65
     0
110
0.0
120
0.0
130
0.0
111
1.0
121
0.0
131
0.0
112
0.0
122
1.0
132
0.0
 79
     0
146
0.0
  0
ENDTAB
  0
TABLE
  2
LTYPE
  5
5
330
0
100
AcDbSymbolTable
 70
     3
  0
LTYPE
  5
14
330
5
100
AcDbSymbolTableRecord
100
AcDbLinetypeTableRecord
  2
ByBlock
 70
     0
  3

 72
    65
 73
     0
 40
0.0
  0
LTYPE
  5
15
330
5
100
AcDbSymbolTableRecord
100
AcDbLinetypeTableRecord
  2
ByLayer
 70
     0
  3

 72
    65
 73
     0
 40
0.0
  0
LTYPE
  5
16
330
5
100
AcDbSymbolTableRecord
100
AcDbLinetypeTableRecord
  2
Continuous
 70
     0
  3
Solid line
 72
    65
 73
     0
 40
0.0
  0
LTYPE
  5
2A
330
5
100
AcDbSymbolTableRecord
100
AcDbLinetypeTableRecord
  2
DASHED
 70
     0
  3
__ __ __ __ __
 72
    65
 73
     2
 40
6.25
 49
5.0
 74
     4
 75
     0
340
0
 46
1.0
 50
0.0
 44
0.0
 45
0.0
 49
-1.25
 74
     4
 75
     0
340
0
 46
1.0
 50
0.0
 44
0.0
 45
0.0
  0
LTYPE
  5
23C
330
5
100
AcDbSymbolTableRecord
100
AcDbLinetypeTableRecord
  2
DASHDOT
 70
     0
  3
__ . __ . __ . __ . __
 72
    65
 73
     4
 40
7.5
 49
5.0
 74
     4
 75
     0
340
0
 46
1.0
 50
0.0
 44
0.0
 45
0.0
 49
-1.25
 74
     4
 75
     0
340
0
 46
1.0
 50
0.0
 44
0.0
 45
0.0
 49
0.0
 74
     4
 75
     0
340
0
 46
1.0
 50
0.0
 44
0.0
 45
0.0
 49
-1.25
 74
     4
 75
     0
340
0
 46
1.0
 50
0.0
 44
0.0
 45
0.0
  0
ENDTAB
  0
TABLE
  2
LAYER
  5
2
330
0
100
AcDbSymbolTable
 70
    11
  0
LAYER
  5
10
330
2
100
AcDbSymbolTableRecord
100
AcDbLayerTableRecord
  2
0
 70
     0
 62
     7
  6
Continuous
370
    -3
390
F
  0
LAYER
  5
2B
330
2
100
AcDbSymbolTableRecord
100
AcDbLayerTableRecord
  2
LC-INFO-1-2-mm-A3-0
 70
     1
 62
     7
  6
ByBlock
370
    -3
390
F
  0
LAYER
  5
2C
330
2
100
AcDbSymbolTableRecord
100
AcDbLayerTableRecord
  2
LC-CUT-HIDDEN
 70
     0
 62
     7
  6
DASHED
370
    -3
390
F
  0
LAYER
  5
2D
330
2
100
AcDbSymbolTableRecord
100
AcDbLayerTableRecord
  2
LC-VIEWPORT
 70
     0
 62
     7
  6
ByBlock
370
    -3
390
F
  0
LAYER
  5
2E
330
2
100
AcDbSymbolTableRecord
100
AcDbLayerTableRecord
  2
LC-3D-HIDDEN
 70
     0
 62
     9
  6
DASHED
370
    -3
390
F
  0
LAYER
  5
31
330
2
100
AcDbSymbolTableRecord
100
AcDbLayerTableRecord
  2
LC-001-002-----0
 70
     0
 62
     1
  6
ByBlock
370
    -3
390
F
  0
LAYER
  5
38
330
2
100
AcDbSymbolTableRecord
100
AcDbLayerTableRecord
  2
LC-002-005-----0
 70
     0
 62
     2
  6
ByBlock
370
    -3
390
F
  0
LAYER
  5
6F
330
2
100
AcDbSymbolTableRecord
100
AcDbLayerTableRecord
  2
LC-003-002-RND-0
 70
     0
 62
     1
  6
ByBlock
370
    -3
390
F
  0
LAYER
  5
83
330
2
100
AcDbSymbolTableRecord
100
AcDbLayerTableRecord
  2
LC-004-001-----0
 70
     0
 62
     1
  6
ByBlock
370
    -3
390
F
  0
LAYER
  5
195
330
2
100
AcDbSymbolTableRecord
100
AcDbLayerTableRecord
  2
LC-005-003-----0
 70
     0
 62
     2
  6
ByBlock
370
    -3
390
F
  0
LAYER
  5
197
330
2
100
AcDbSymbolTableRecord
100
AcDbLayerTableRecord
  2
Defpoints
 70
     0
 62
     7
  6
Continuous
290
     0
370
    -3
390
F
  0
ENDTAB
  0
TABLE
  2
STYLE
  5
3
330
0
100
AcDbSymbolTable
 70
     4
  0
STYLE
  5
11
330
3
100
AcDbSymbolTableRecord
100
AcDbTextStyleTableRecord
  2
Standard
 70
     0
 40
0.0
 41
1.0
 50
0.0
 71
     0
 42
2.5
  3
txt
  4

  0
STYLE
  5
2F
330
3
100
AcDbSymbolTableRecord
100
AcDbTextStyleTableRecord
  2
LCTX15-400-0-0-Arial
 70
     0
 40
0.0
 41
0.9
 50
0.0
 71
     0
 42
3.5
  3

  4

1001
ACAD
1000
Arial
1071
 16777218
  0
STYLE
  5
30
330
3
100
AcDbSymbolTableRecord
100
AcDbTextStyleTableRecord
  2
LCTX0-400-0-0-DIN-Schrift
 70
     0
 40
0.0
 41
0.8
 50
0.0
 71
     0
 42
3.5
  3
MONOTXT
  4

  0
STYLE
  5
193
330
3
100
AcDbSymbolTableRecord
100
AcDbTextStyleTableRecord
  2
LCTX15-400-0-0pDIN-Schrift
 70
     0
 40
2.5
 41
0.8
 50
15.0
 71
     0
 42
3.5
  3
STANDARD
  4

  0
ENDTAB
  0
TABLE
  2
VIEW
  5
6
330
0
100
AcDbSymbolTable
 70
     0
  0
ENDTAB
  0
TABLE
  2
UCS
  5
7
330
0
100
AcDbSymbolTable
 70
     0
  0
ENDTAB
  0
TABLE
  2
APPID
  5
9
330
0
100
AcDbSymbolTable
 70
     1
  0
APPID
  5
12
330
9
100
AcDbSymbolTableRecord
100
AcDbRegAppTableRecord
  2
ACAD
 70
     0
  0
ENDTAB
  0
TABLE
  2
DIMSTYLE
  5
A
330
0
100
AcDbSymbolTable
 70
     2
100
AcDbDimStyleTable
  0
DIMSTYLE
105
27
330
A
100
AcDbSymbolTableRecord
100
AcDbDimStyleTableRecord
  2
ISO-25
 70
     0
 41
2.5
 42
0.625
 43
3.75
 44
1.25
 73
     0
 74
     0
 77
     1
 78
     8
140
2.5
141
2.5
143
0.03937
147
0.625
171
     3
172
     1
271
     2
272
     2
274
     3
278
    44
283
     0
284
     8
340
11
  0
DIMSTYLE
105
194
102
{ACAD_REACTORS
330
196
330
1E7
330
1F4
330
23E
330
24D
102
}
330
A
100
AcDbSymbolTableRecord
100
AcDbDimStyleTableRecord
  2
LC-DIM-L-0140-02-02
 70
     0
 40
2.0
 41
14.0
 42
0.0
 43
7.5
 44
1.8
 73
     0
 74
     0
 77
     1
 78
     8
 79
     2
140
14.0
141
0.0
146
0.71
147
1.5
176
     2
177
     2
178
     2
179
     2
271
     2
278
    44
289
     1
340
193
  0
ENDTAB
  0
TABLE
  2
BLOCK_RECORD
  5
1
330
0
100
AcDbSymbolTable
 70
    19
  0
BLOCK_RECORD
  5
1F
330
1
100
AcDbSymbolTableRecord
100
AcDbBlockTableRecord
  2
*Model_Space
340
22
  0
BLOCK_RECORD
  5
1B
330
1
100
AcDbSymbolTableRecord
100
AcDbBlockTableRecord
  2
*Paper_Space
340
1E
  0
BLOCK_RECORD
  5
23
330
1
100
AcDbSymbolTableRecord
100
AcDbBlockTableRecord
  2
*Paper_Space0
340
26
  0
BLOCK_RECORD
  5
35
330
1
100
AcDbSymbolTableRecord
100
AcDbBlockTableRecord
  2
*X11
340
0
102
{BLKREFS
331
61
102
}
  0
BLOCK_RECORD
  5
97
330
1
100
AcDbSymbolTableRecord
100
AcDbBlockTableRecord
  2
*X22
340
0
102
{BLKREFS
331
A2
102
}
  0
BLOCK_RECORD
  5
BE
330
1
100
AcDbSymbolTableRecord
100
AcDbBlockTableRecord
  2
*X33
340
0
102
{BLKREFS
331
C3
102
}
  0
BLOCK_RECORD
  5
C8
330
1
100
AcDbSymbolTableRecord
100
AcDbBlockTableRecord
  2
*X44
340
0
102
{BLKREFS
331
CF
102
}
  0
BLOCK_RECORD
  5
D2
330
1
100
AcDbSymbolTableRecord
100
AcDbBlockTableRecord
  2
*X55
340
0
102
{BLKREFS
331
D6
102
}
  0
BLOCK_RECORD
  5
D9
330
1
100
AcDbSymbolTableRecord
100
AcDbBlockTableRecord
  2
*X66
340
0
102
{BLKREFS
331
E0
102
}
  0
BLOCK_RECORD
  5
10E
330
1
100
AcDbSymbolTableRecord
100
AcDbBlockTableRecord
  2
*X77
340
0
102
{BLKREFS
331
11D
102
}
  0
BLOCK_RECORD
  5
155
330
1
100
AcDbSymbolTableRecord
100
AcDbBlockTableRecord
  2
*X88
340
0
102
{BLKREFS
331
15A
102
}
  0
BLOCK_RECORD
  5
15B
330
1
100
AcDbSymbolTableRecord
100
AcDbBlockTableRecord
  2
*X99
340
0
102
{BLKREFS
331
161
102
}
  0
BLOCK_RECORD
  5
162
330
1
100
AcDbSymbolTableRecord
100
AcDbBlockTableRecord
  2
*X1010
340
0
102
{BLKREFS
331
168
102
}
  0
BLOCK_RECORD
  5
198
330
1
100
AcDbSymbolTableRecord
100
AcDbBlockTableRecord
  2
*D11
340
0
  0
BLOCK_RECORD
  5
1A5
330
1
100
AcDbSymbolTableRecord
100
AcDbBlockTableRecord
  2
*X1112
340
0
102
{BLKREFS
331
1AC
102
}
  0
BLOCK_RECORD
  5
1B6
330
1
100
AcDbSymbolTableRecord
100
AcDbBlockTableRecord
  2
*X1213
340
0
102
{BLKREFS
331
1E5
102
}
  0
BLOCK_RECORD
  5
1E8
330
1
100
AcDbSymbolTableRecord
100
AcDbBlockTableRecord
  2
*D14
340
0
  0
BLOCK_RECORD
  5
1F5
330
1
100
AcDbSymbolTableRecord
100
AcDbBlockTableRecord
  2
*D15
340
0
  0
BLOCK_RECORD
  5
219
330
1
100
AcDbSymbolTableRecord
100
AcDbBlockTableRecord
  2
*X1316
340
0
102
{BLKREFS
331
226
102
}
  0
BLOCK_RECORD
  5
23F
330
1
100
AcDbSymbolTableRecord
100
AcDbBlockTableRecord
  2
*D17
340
0
  0
BLOCK_RECORD
  5
24E
330
1
100
AcDbSymbolTableRecord
100
AcDbBlockTableRecord
  2
*D18
340
0
  0
ENDTAB
  0
ENDSEC
  0
SECTION
  2
BLOCKS
  0
BLOCK
  5
20
330
1F
100
AcDbEntity
  8
0
100
AcDbBlockBegin
  2
*Model_Space
 70
     0
 71
     0
 10
0.0
 20
0.0
 30
0.0
  3
*Model_Space
  1

  0
ENDBLK
  5
21
330
1F
100
AcDbEntity
  8
0
100
AcDbBlockEnd
  0
BLOCK
  5
1C
330
1B
100
AcDbEntity
 67
     1
  8
0
100
AcDbBlockBegin
  2
*Paper_Space
 70
     0
 71
     0
 10
0.0
 20
0.0
 30
0.0
  3
*Paper_Space
  1

  0
ENDBLK
  5
1D
330
1B
100
AcDbEntity
 67
     1
  8
0
100
AcDbBlockEnd
  0
BLOCK
  5
24
330
23
100
AcDbEntity
  8
0
100
AcDbBlockBegin
  2
*Paper_Space0
 70
     0
 71
     0
 10
0.0
 20
0.0
 30
0.0
  3
*Paper_Space0
  1

  0
ENDBLK
  5
25
330
23
100
AcDbEntity
  8
0
100
AcDbBlockEnd
  0
BLOCK
  5
36
330
35
100
AcDbEntity
  8
0
100
AcDbBlockBegin
  2
*X11
 70
     1
 71
     0
 10
0.0
 20
0.0
 30
0.0
  3
*X11
  1

  4
*X1
  0
LINE
  5
39
330
35
100
AcDbEntity
  8
LC-002-005-----0
 62
     7
370
    25
100
AcDbLine
 10
146.353092
 20
210.028725
 30
0.0
 11
138.138832
 21
218.242986
 31
0.0
  0
LINE
  5
3A
330
35
100
AcDbEntity
  8
LC-002-005-----0
 62
     7
370
    25
100
AcDbLine
 10
146.353092
 20
207.200298
 30
0.0
 11
135.310405
 21
218.242986
 31
0.0
  0
LINE
  5
3B
330
35
100
AcDbEntity
  8
LC-002-005-----0
 62
     7
370
    25
100
AcDbLine
 10
146.353092
 20
204.371871
 30
0.0
 11
143.353092
 21
207.371871
 31
0.0
  0
LINE
  5
3C
330
35
100
AcDbEntity
  8
LC-002-005-----0
 62
     7
370
    25
100
AcDbLine
 10
137.353092
 20
213.371871
 30
0.0
 11
134.43735
 21
216.287613
 31
0.0
  0
LINE
  5
3D
330
35
100
AcDbEntity
  8
LC-002-005-----0
 62
     7
370
    25
100
AcDbLine
 10
146.353092
 20
201.543444
 30
0.0
 11
143.353092
 21
204.543444
 31
0.0
  0
LINE
  5
3E
330
35
100
AcDbEntity
  8
LC-002-005-----0
 62
     7
370
    25
100
AcDbLine
 10
137.353092
 20
210.543444
 30
0.0
 11
135.353092
 21
212.543444
 31
0.0
  0
LINE
  5
3F
330
35
100
AcDbEntity
  8
LC-002-005-----0
 62
     7
370
    25
100
AcDbLine
 10
146.353092
 20
198.715017
 30
0.0
 11
143.353092
 21
201.715017
 31
0.0
  0
LINE
  5
40
330
35
100
AcDbEntity
  8
LC-002-005-----0
 62
     7
370
    25
100
AcDbLine
 10
137.353092
 20
207.715017
 30
0.0
 11
135.353092
 21
209.715017
 31
0.0
  0
LINE
  5
41
330
35
100
AcDbEntity
  8
LC-002-005-----0
 62
     7
370
    25
100
AcDbLine
 10
146.353092
 20
195.88659
 30
0.0
 11
143.353092
 21
198.88659
 31
0.0
  0
LINE
  5
42
330
35
100
AcDbEntity
  8
LC-002-005-----0
 62
     7
370
    25
100
AcDbLine
 10
146.353092
 20
193.058163
 30
0.0
 11
143.353092
 21
196.058163
 31
0.0
  0
LINE
  5
43
330
35
100
AcDbEntity
  8
LC-002-005-----0
 62
     7
370
    25
100
AcDbLine
 10
146.353092
 20
190.229735
 30
0.0
 11
143.353092
 21
193.229735
 31
0.0
  0
LINE
  5
44
330
35
100
AcDbEntity
  8
LC-002-005-----0
 62
     7
370
    25
100
AcDbLine
 10
146.353092
 20
187.401308
 30
0.0
 11
143.353092
 21
190.401308
 31
0.0
  0
LINE
  5
45
330
35
100
AcDbEntity
  8
LC-002-005-----0
 62
     7
370
    25
100
AcDbLine
 10
146.353092
 20
184.572881
 30
0.0
 11
143.353092
 21
187.572881
 31
0.0
  0
LINE
  5
46
330
35
100
AcDbEntity
  8
LC-002-005-----0
 62
     7
370
    25
100
AcDbLine
 10
146.353092
 20
181.744454
 30
0.0
 11
143.353092
 21
184.744454
 31
0.0
  0
LINE
  5
47
330
35
100
AcDbEntity
  8
LC-002-005-----0
 62
     7
370
    25
100
AcDbLine
 10
146.353092
 20
178.916027
 30
0.0
 11
143.353092
 21
181.916027
 31
0.0
  0
LINE
  5
48
330
35
100
AcDbEntity
  8
LC-002-005-----0
 62
     7
370
    25
100
AcDbLine
 10
146.353092
 20
176.0876
 30
0.0
 11
143.353092
 21
179.0876
 31
0.0
  0
LINE
  5
49
330
35
100
AcDbEntity
  8
LC-002-005-----0
 62
     7
370
    25
100
AcDbLine
 10
146.353092
 20
173.259173
 30
0.0
 11
143.353092
 21
176.259173
 31
0.0
  0
LINE
  5
4A
330
35
100
AcDbEntity
  8
LC-002-005-----0
 62
     7
370
    25
100
AcDbLine
 10
146.353092
 20
170.430746
 30
0.0
 11
143.353092
 21
173.430746
 31
0.0
  0
LINE
  5
4B
330
35
100
AcDbEntity
  8
LC-002-005-----0
 62
     7
370
    25
100
AcDbLine
 10
146.353092
 20
167.602318
 30
0.0
 11
143.353092
 21
170.602318
 31
0.0
  0
LINE
  5
4C
330
35
100
AcDbEntity
  8
LC-002-005-----0
 62
     7
370
    25
100
AcDbLine
 10
146.353092
 20
164.773891
 30
0.0
 11
143.353092
 21
167.773891
 31
0.0
  0
LINE
  5
4D
330
35
100
AcDbEntity
  8
LC-002-005-----0
 62
     7
370
    25
100
AcDbLine
 10
146.353092
 20
161.945464
 30
0.0
 11
143.353092
 21
164.945464
 31
0.0
  0
LINE
  5
4E
330
35
100
AcDbEntity
  8
LC-002-005-----0
 62
     7
370
    25
100
AcDbLine
 10
146.353092
 20
159.117037
 30
0.0
 11
143.353092
 21
162.117037
 31
0.0
  0
LINE
  5
4F
330
35
100
AcDbEntity
  8
LC-002-005-----0
 62
     7
370
    25
100
AcDbLine
 10
146.353092
 20
156.28861
 30
0.0
 11
143.353092
 21
159.28861
 31
0.0
  0
LINE
  5
50
330
35
100
AcDbEntity
  8
LC-002-005-----0
 62
     7
370
    25
100
AcDbLine
 10
146.353092
 20
153.460183
 30
0.0
 11
143.353092
 21
156.460183
 31
0.0
  0
LINE
  5
51
330
35
100
AcDbEntity
  8
LC-002-005-----0
 62
     7
370
    25
100
AcDbLine
 10
146.353092
 20
150.631756
 30
0.0
 11
143.353092
 21
153.631756
 31
0.0
  0
LINE
  5
52
330
35
100
AcDbEntity
  8
LC-002-005-----0
 62
     7
370
    25
100
AcDbLine
 10
146.353092
 20
147.803329
 30
0.0
 11
143.353092
 21
150.803329
 31
0.0
  0
LINE
  5
53
330
35
100
AcDbEntity
  8
LC-002-005-----0
 62
     7
370
    25
100
AcDbLine
 10
146.353092
 20
144.974901
 30
0.0
 11
143.353092
 21
147.974901
 31
0.0
  0
LINE
  5
54
330
35
100
AcDbEntity
  8
LC-002-005-----0
 62
     7
370
    25
100
AcDbLine
 10
146.353092
 20
142.146474
 30
0.0
 11
143.353092
 21
145.146474
 31
0.0
  0
LINE
  5
55
330
35
100
AcDbEntity
  8
LC-002-005-----0
 62
     7
370
    25
100
AcDbLine
 10
146.353092
 20
139.318047
 30
0.0
 11
143.353092
 21
142.318047
 31
0.0
  0
LINE
  5
56
330
35
100
AcDbEntity
  8
LC-002-005-----0
 62
     7
370
    25
100
AcDbLine
 10
146.353092
 20
136.48962
 30
0.0
 11
143.353092
 21
139.48962
 31
0.0
  0
LINE
  5
57
330
35
100
AcDbEntity
  8
LC-002-005-----0
 62
     7
370
    25
100
AcDbLine
 10
146.353092
 20
133.661193
 30
0.0
 11
143.353092
 21
136.661193
 31
0.0
  0
LINE
  5
58
330
35
100
AcDbEntity
  8
LC-002-005-----0
 62
     7
370
    25
100
AcDbLine
 10
146.353092
 20
130.832766
 30
0.0
 11
143.353092
 21
133.832766
 31
0.0
  0
LINE
  5
59
330
35
100
AcDbEntity
  8
LC-002-005-----0
 62
     7
370
    25
100
AcDbLine
 10
146.353092
 20
128.004339
 30
0.0
 11
143.353092
 21
131.004339
 31
0.0
  0
LINE
  5
5A
330
35
100
AcDbEntity
  8
LC-002-005-----0
 62
     7
370
    25
100
AcDbLine
 10
146.353092
 20
125.175912
 30
0.0
 11
143.353092
 21
128.175912
 31
0.0
  0
LINE
  5
5B
330
35
100
AcDbEntity
  8
LC-002-005-----0
 62
     7
370
    25
100
AcDbLine
 10
146.353092
 20
122.347484
 30
0.0
 11
143.353092
 21
125.347484
 31
0.0
  0
LINE
  5
5C
330
35
100
AcDbEntity
  8
LC-002-005-----0
 62
     7
370
    25
100
AcDbLine
 10
146.353092
 20
119.519057
 30
0.0
 11
143.353092
 21
122.519057
 31
0.0
  0
LINE
  5
5D
330
35
100
AcDbEntity
  8
LC-002-005-----0
 62
     7
370
    25
100
AcDbLine
 10
146.353092
 20
116.69063
 30
0.0
 11
143.353092
 21
119.69063
 31
0.0
  0
LINE
  5
5E
330
35
100
AcDbEntity
  8
LC-002-005-----0
 62
     7
370
    25
100
AcDbLine
 10
146.353092
 20
113.862203
 30
0.0
 11
143.353092
 21
116.862203
 31
0.0
  0
LINE
  5
5F
330
35
100
AcDbEntity
  8
LC-002-005-----0
 62
     7
370
    25
100
AcDbLine
 10
146.353092
 20
111.033776
 30
0.0
 11
143.353092
 21
114.033776
 31
0.0
  0
LINE
  5
60
330
35
100
AcDbEntity
  8
LC-002-005-----0
 62
     7
370
    25
100
AcDbLine
 10
145.584274
 20
108.974167
 30
0.0
 11
143.353092
 21
111.205349
 31
0.0
  0
ENDBLK
  5
37
330
35
100
AcDbEntity
  8
0
100
AcDbBlockEnd
  0
BLOCK
  5
98
330
97
100
AcDbEntity
  8
0
100
AcDbBlockBegin
  2
*X22
 70
     1
 71
     0
 10
0.0
 20
0.0
 30
0.0
  3
*X22
  1

  4
*X2
  0
LINE
  5
9A
330
97
100
AcDbEntity
  8
LC-002-005-----0
 62
     7
370
    25
100
AcDbLine
 10
49.849097
 20
221.679907
 30
0.0
 11
49.286018
 21
222.242986
 31
0.0
  0
LINE
  5
9B
330
97
100
AcDbEntity
  8
LC-002-005-----0
 62
     7
370
    25
100
AcDbLine
 10
44.853092
 20
226.675912
 30
0.0
 11
41.967596
 21
229.561408
 31
0.0
  0
LINE
  5
9C
330
97
100
AcDbEntity
  8
LC-002-005-----0
 62
     7
370
    25
100
AcDbLine
 10
49.353092
 20
219.347484
 30
0.0
 11
46.457591
 21
222.242986
 31
0.0
  0
LINE
  5
9D
330
97
100
AcDbEntity
  8
LC-002-005-----0
 62
     7
370
    25
100
AcDbLine
 10
44.853092
 20
223.847484
 30
0.0
 11
41.853092
 21
226.847484
 31
0.0
  0
LINE
  5
9E
330
97
100
AcDbEntity
  8
LC-002-005-----0
 62
     7
370
    25
100
AcDbLine
 10
49.353092
 20
216.519057
 30
0.0
 11
48.153092
 21
217.719057
 31
0.0
  0
LINE
  5
9F
330
97
100
AcDbEntity
  8
LC-002-005-----0
 62
     7
370
    25
100
AcDbLine
 10
45.629164
 20
220.242986
 30
0.0
 11
41.853092
 21
224.019057
 31
0.0
  0
LINE
  5
A0
330
97
100
AcDbEntity
  8
LC-002-005-----0
 62
     7
370
    25
100
AcDbLine
 10
49.353092
 20
213.69063
 30
0.0
 11
48.153092
 21
214.89063
 31
0.0
  0
LINE
  5
A1
330
97
100
AcDbEntity
  8
LC-002-005-----0
 62
     7
370
    25
100
AcDbLine
 10
49.353092
 20
210.862203
 30
0.0
 11
47.447153
 21
212.768143
 31
0.0
  0
ENDBLK
  5
99
330
97
100
AcDbEntity
  8
0
100
AcDbBlockEnd
  0
BLOCK
  5
BF
330
BE
100
AcDbEntity
  8
0
100
AcDbBlockBegin
  2
*X33
 70
     1
 71
     0
 10
0.0
 20
0.0
 30
0.0
  3
*X33
  1

  4
*X3
  0
LINE
  5
C1
330
BE
100
AcDbEntity
  8
LC-002-005-----0
 62
     7
370
    25
100
AcDbLine
 10
50.853092
 20
226.215574
 30
0.0
 11
52.211086
 21
227.573568
 31
0.0
  0
LINE
  5
C2
330
BE
100
AcDbEntity
  8
LC-002-005-----0
 62
     7
370
    25
100
AcDbLine
 10
45.856632
 20
226.875968
 30
0.0
 11
48.22011
 21
229.239446
 31
0.0
  0
ENDBLK
  5
C0
330
BE
100
AcDbEntity
  8
0
100
AcDbBlockEnd
  0
BLOCK
  5
C9
330
C8
100
AcDbEntity
  8
0
100
AcDbBlockBegin
  2
*X44
 70
     1
 71
     0
 10
0.0
 20
0.0
 30
0.0
  3
*X44
  1

  4
*X4
  0
LINE
  5
CB
330
C8
100
AcDbEntity
  8
LC-002-005-----0
 62
     7
370
    25
100
AcDbLine
 10
64.02264
 20
225.242986
 30
0.0
 11
64.353092
 21
225.573439
 31
0.0
  0
LINE
  5
CC
330
C8
100
AcDbEntity
  8
LC-002-005-----0
 62
     7
370
    25
100
AcDbLine
 10
62.842097
 20
226.89087
 30
0.0
 11
63.990664
 21
228.039437
 31
0.0
  0
LINE
  5
CD
330
C8
100
AcDbEntity
  8
LC-002-005-----0
 62
     7
370
    25
100
AcDbLine
 10
58.365785
 20
225.242986
 30
0.0
 11
59.853092
 21
226.730293
 31
0.0
  0
LINE
  5
CE
330
C8
100
AcDbEntity
  8
LC-002-005-----0
 62
     7
370
    25
100
AcDbLine
 10
60.865785
 20
227.742986
 30
0.0
 11
62.32151
 21
229.198711
 31
0.0
  0
ENDBLK
  5
CA
330
C8
100
AcDbEntity
  8
0
100
AcDbBlockEnd
  0
BLOCK
  5
D3
330
D2
100
AcDbEntity
  8
0
100
AcDbBlockBegin
  2
*X55
 70
     1
 71
     0
 10
0.0
 20
0.0
 30
0.0
  3
*X55
  1

  4
*X5
  0
LINE
  5
D5
330
D2
100
AcDbEntity
  8
LC-002-005-----0
 62
     7
370
    25
100
AcDbLine
 10
74.633363
 20
227.368428
 30
0.0
 11
75.696578
 21
228.431642
 31
0.0
  0
ENDBLK
  5
D4
330
D2
100
AcDbEntity
  8
0
100
AcDbBlockEnd
  0
BLOCK
  5
DA
330
D9
100
AcDbEntity
  8
0
100
AcDbBlockBegin
  2
*X66
 70
     1
 71
     0
 10
0.0
 20
0.0
 30
0.0
  3
*X66
  1

  4
*X6
  0
LINE
  5
DC
330
D9
100
AcDbEntity
  8
LC-002-005-----0
 62
     7
370
    25
100
AcDbLine
 10
89.150057
 20
227.742986
 30
0.0
 11
90.650057
 21
229.242986
 31
0.0
  0
LINE
  5
DD
330
D9
100
AcDbEntity
  8
LC-002-005-----0
 62
     7
370
    25
100
AcDbLine
 10
83.821629
 20
225.242986
 30
0.0
 11
83.853092
 21
225.274449
 31
0.0
  0
LINE
  5
DE
330
D9
100
AcDbEntity
  8
LC-002-005-----0
 62
     7
370
    25
100
AcDbLine
 10
86.321629
 20
227.742986
 30
0.0
 11
87.821629
 21
229.242986
 31
0.0
  0
LINE
  5
DF
330
D9
100
AcDbEntity
  8
LC-002-005-----0
 62
     7
370
    25
100
AcDbLine
 10
82.353092
 20
226.602876
 30
0.0
 11
84.993202
 21
229.242986
 31
0.0
  0
ENDBLK
  5
DB
330
D9
100
AcDbEntity
  8
0
100
AcDbBlockEnd
  0
BLOCK
  5
10F
330
10E
100
AcDbEntity
  8
0
100
AcDbBlockBegin
  2
*X77
 70
     1
 71
     0
 10
0.0
 20
0.0
 30
0.0
  3
*X77
  1

  4
*X7
  0
LINE
  5
111
330
10E
100
AcDbEntity
  8
LC-002-005-----0
 62
     7
370
    25
100
AcDbLine
 10
140.853092
 20
226.842434
 30
0.0
 11
138.052777
 21
229.642749
 31
0.0
  0
LINE
  5
112
330
10E
100
AcDbEntity
  8
LC-002-005-----0
 62
     7
370
    25
100
AcDbLine
 10
141.853092
 20
223.014007
 30
0.0
 11
141.624113
 21
223.242986
 31
0.0
  0
LINE
  5
113
330
10E
100
AcDbEntity
  8
LC-002-005-----0
 62
     7
370
    25
100
AcDbLine
 10
140.853092
 20
224.014007
 30
0.0
 11
137.853092
 21
227.014007
 31
0.0
  0
LINE
  5
114
330
10E
100
AcDbEntity
  8
LC-002-005-----0
 62
     7
370
    25
100
AcDbLine
 10
139.795686
 20
222.242986
 30
0.0
 11
137.853092
 21
224.18558
 31
0.0
  0
LINE
  5
115
330
10E
100
AcDbEntity
  8
LC-002-005-----0
 62
     7
370
    25
100
AcDbLine
 10
138.967259
 20
220.242986
 30
0.0
 11
136.967259
 21
222.242986
 31
0.0
  0
LINE
  5
116
330
10E
100
AcDbEntity
  8
LC-002-005-----0
 62
     7
370
    25
100
AcDbLine
 10
136.138832
 20
220.242986
 30
0.0
 11
134.138832
 21
222.242986
 31
0.0
  0
LINE
  5
117
330
10E
100
AcDbEntity
  8
LC-002-005-----0
 62
     7
370
    25
100
AcDbLine
 10
134.553092
 20
219.000298
 30
0.0
 11
133.353092
 21
220.200298
 31
0.0
  0
LINE
  5
118
330
10E
100
AcDbEntity
  8
LC-002-005-----0
 62
     7
370
    25
100
AcDbLine
 10
134.553092
 20
216.171871
 30
0.0
 11
133.353092
 21
217.371871
 31
0.0
  0
LINE
  5
119
330
10E
100
AcDbEntity
  8
LC-002-005-----0
 62
     7
370
    25
100
AcDbLine
 10
135.316216
 20
212.58032
 30
0.0
 11
134.665427
 21
213.23111
 31
0.0
  0
LINE
  5
11A
330
10E
100
AcDbEntity
  8
LC-002-005-----0
 62
     7
370
    25
100
AcDbLine
 10
134.553092
 20
213.343444
 30
0.0
 11
133.353092
 21
214.543444
 31
0.0
  0
LINE
  5
11B
330
10E
100
AcDbEntity
  8
LC-002-005-----0
 62
     7
370
    25
100
AcDbLine
 10
134.644457
 20
210.423652
 30
0.0
 11
133.353092
 21
211.715017
 31
0.0
  0
LINE
  5
11C
330
10E
100
AcDbEntity
  8
LC-002-005-----0
 62
     7
370
    25
100
AcDbLine
 10
133.496696
 20
208.742986
 30
0.0
 11
133.353092
 21
208.88659
 31
0.0
  0
ENDBLK
  5
110
330
10E
100
AcDbEntity
  8
0
100
AcDbBlockEnd
  0
BLOCK
  5
156
330
155
100
AcDbEntity
  8
0
100
AcDbBlockBegin
  2
*X88
 70
     1
 71
     0
 10
0.0
 20
0.0
 30
0.0
  3
*X88
  1

  4
*X8
  0
LINE
  5
158
330
155
100
AcDbEntity
  8
LC-002-005-----0
 62
     7
370
    25
100
AcDbLine
 10
135.353092
 20
225.86276
 30
0.0
 11
136.790265
 21
227.299933
 31
0.0
  0
LINE
  5
159
330
155
100
AcDbEntity
  8
LC-002-005-----0
 62
     7
370
    25
100
AcDbLine
 10
130.353092
 20
226.519615
 30
0.0
 11
133.076463
 21
229.242986
 31
0.0
  0
ENDBLK
  5
157
330
155
100
AcDbEntity
  8
0
100
AcDbBlockEnd
  0
BLOCK
  5
15C
330
15B
100
AcDbEntity
  8
0
100
AcDbBlockBegin
  2
*X99
 70
     1
 71
     0
 10
0.0
 20
0.0
 30
0.0
  3
*X99
  1

  4
*X9
  0
LINE
  5
15E
330
15B
100
AcDbEntity
  8
LC-002-005-----0
 62
     7
370
    25
100
AcDbLine
 10
123.419609
 20
225.242986
 30
0.0
 11
124.353092
 21
226.176469
 31
0.0
  0
LINE
  5
15F
330
15B
100
AcDbEntity
  8
LC-002-005-----0
 62
     7
370
    25
100
AcDbLine
 10
122.669151
 20
227.320955
 30
0.0
 11
123.735891
 21
228.387695
 31
0.0
  0
LINE
  5
160
330
15B
100
AcDbEntity
  8
LC-002-005-----0
 62
     7
370
    25
100
AcDbLine
 10
118.353092
 20
225.833323
 30
0.0
 11
121.762755
 21
229.242986
 31
0.0
  0
ENDBLK
  5
15D
330
15B
100
AcDbEntity
  8
0
100
AcDbBlockEnd
  0
BLOCK
  5
163
330
162
100
AcDbEntity
  8
0
100
AcDbBlockBegin
  2
*X1010
 70
     1
 71
     0
 10
0.0
 20
0.0
 30
0.0
  3
*X1010
  1

  4
*X10
  0
LINE
  5
165
330
162
100
AcDbEntity
  8
LC-002-005-----0
 62
     7
370
    25
100
AcDbLine
 10
112.105901
 20
225.242986
 30
0.0
 11
112.353092
 21
225.490177
 31
0.0
  0
LINE
  5
166
330
162
100
AcDbEntity
  8
LC-002-005-----0
 62
     7
370
    25
100
AcDbLine
 10
106.449046
 20
225.242986
 30
0.0
 11
107.853092
 21
226.647032
 31
0.0
  0
LINE
  5
167
330
162
100
AcDbEntity
  8
LC-002-005-----0
 62
     7
370
    25
100
AcDbLine
 10
108.949046
 20
227.742986
 30
0.0
 11
110.390583
 21
229.184523
 31
0.0
  0
ENDBLK
  5
164
330
162
100
AcDbEntity
  8
0
100
AcDbBlockEnd
  0
BLOCK
  5
1A2
330
198
100
AcDbEntity
  8
0
100
AcDbBlockBegin
  2
*D11
 70
     1
 71
     0
 10
0.0
 20
0.0
 30
0.0
  3
*D11
  1

  0
LINE
  5
199
330
198
100
AcDbEntity
  8
LC-005-003-----0
 62
     2
370
    -2
100
AcDbLine
 10
36.353092
 20
109.742986
 30
0.0
 11
36.353092
 21
51.048
 31
0.0
  0
LINE
  5
19A
330
198
100
AcDbEntity
  8
LC-005-003-----0
 62
     2
370
    -2
100
AcDbLine
 10
146.353092
 20
109.742986
 30
0.0
 11
146.353092
 21
51.048
 31
0.0
  0
LINE
  5
19B
330
198
100
AcDbEntity
  8
LC-005-003-----0
 62
     2
370
    -2
100
AcDbLine
 10
64.353092
 20
54.648
 30
0.0
 11
118.353092
 21
54.648
 31
0.0
  0
SOLID
  5
19C
330
198
100
AcDbEntity
  8
LC-005-003-----0
 62
     2
100
AcDbTrace
 10
64.353092
 20
59.314667
 30
0.0
 11
64.353092
 21
49.981333
 31
0.0
 12
36.353092
 22
54.648
 32
0.0
 13
36.353092
 23
54.648
 33
0.0
  0
SOLID
  5
19D
330
198
100
AcDbEntity
  8
LC-005-003-----0
 62
     2
100
AcDbTrace
 10
118.353092
 20
49.981333
 30
0.0
 11
118.353092
 21
59.314667
 31
0.0
 12
146.353092
 22
54.648
 32
0.0
 13
146.353092
 23
54.648
 33
0.0
  0
MTEXT
  5
19E
330
198
100
AcDbEntity
  8
LC-005-003-----0
 62
     2
100
AcDbMText
 10
87.653531
 20
85.448
 30
0.0
 40
28.0
 41
0.0
 71
     5
 72
     1
  1
\A1;%%c110
  7
LCTX15-400-0-0pDIN-Schrift
 73
     1
 44
1.0
  0
POINT
  5
19F
330
198
100
AcDbEntity
  8
Defpoints
 62
     0
100
AcDbPoint
 10
36.353092
 20
109.742986
 30
0.0
  0
POINT
  5
1A0
330
198
100
AcDbEntity
  8
Defpoints
 62
     0
100
AcDbPoint
 10
146.353092
 20
109.742986
 30
0.0
  0
POINT
  5
1A1
330
198
100
AcDbEntity
  8
Defpoints
 62
     0
100
AcDbPoint
 10
146.353092
 20
54.648
 30
0.0
  0
ENDBLK
  5
1A3
330
198
100
AcDbEntity
  8
0
100
AcDbBlockEnd
  0
BLOCK
  5
1A6
330
1A5
100
AcDbEntity
  8
0
100
AcDbBlockBegin
  2
*X1112
 70
     1
 71
     0
 10
0.0
 20
0.0
 30
0.0
  3
*X1112
  1

  4
*X11
  0
LINE
  5
1A8
330
1A5
100
AcDbEntity
  8
LC-002-005-----0
 62
     7
370
    25
100
AcDbLine
 10
98.853092
 20
226.132313
 30
0.0
 11
100.232097
 21
227.511318
 31
0.0
  0
LINE
  5
1A9
330
1A5
100
AcDbEntity
  8
LC-002-005-----0
 62
     7
370
    25
100
AcDbLine
 10
97.635338
 20
227.742986
 30
0.0
 11
98.903814
 21
229.011462
 31
0.0
  0
LINE
  5
1AA
330
1A5
100
AcDbEntity
  8
LC-002-005-----0
 62
     7
370
    25
100
AcDbLine
 10
94.806911
 20
227.742986
 30
0.0
 11
96.306911
 21
229.242986
 31
0.0
  0
LINE
  5
1AB
330
1A5
100
AcDbEntity
  8
LC-002-005-----0
 62
     7
370
    25
100
AcDbLine
 10
91.978484
 20
227.742986
 30
0.0
 11
93.478484
 21
229.242986
 31
0.0
  0
ENDBLK
  5
1A7
330
1A5
100
AcDbEntity
  8
0
100
AcDbBlockEnd
  0
BLOCK
  5
1B7
330
1B6
100
AcDbEntity
  8
0
100
AcDbBlockBegin
  2
*X1213
 70
     1
 71
     0
 10
0.0
 20
0.0
 30
0.0
  3
*X1213
  1

  4
*X12
  0
LINE
  5
1B9
330
1B6
100
AcDbEntity
  8
LC-002-005-----0
 62
     7
370
    25
100
AcDbLine
 10
48.353092
 20
214.69063
 30
0.0
 11
44.800737
 21
218.242986
 31
0.0
  0
LINE
  5
1BA
330
1B6
100
AcDbEntity
  8
LC-002-005-----0
 62
     7
370
    25
100
AcDbLine
 10
47.353092
 20
212.862203
 30
0.0
 11
42.662701
 21
217.552594
 31
0.0
  0
LINE
  5
1BB
330
1B6
100
AcDbEntity
  8
LC-002-005-----0
 62
     7
370
    25
100
AcDbLine
 10
47.353092
 20
210.033776
 30
0.0
 11
45.353092
 21
212.033776
 31
0.0
  0
LINE
  5
1BC
330
1B6
100
AcDbEntity
  8
LC-002-005-----0
 62
     7
370
    25
100
AcDbLine
 10
43.369808
 20
214.01706
 30
0.0
 11
41.248488
 21
216.138381
 31
0.0
  0
LINE
  5
1BD
330
1B6
100
AcDbEntity
  8
LC-002-005-----0
 62
     7
370
    25
100
AcDbLine
 10
47.315456
 20
207.242986
 30
0.0
 11
45.353092
 21
209.205349
 31
0.0
  0
LINE
  5
1BE
330
1B6
100
AcDbEntity
  8
LC-002-005-----0
 62
     7
370
    25
100
AcDbLine
 10
41.955594
 20
212.602847
 30
0.0
 11
39.834274
 21
214.724167
 31
0.0
  0
LINE
  5
1BF
330
1B6
100
AcDbEntity
  8
LC-002-005-----0
 62
     7
370
    25
100
AcDbLine
 10
40.541381
 20
211.188633
 30
0.0
 11
38.42006
 21
213.309954
 31
0.0
  0
LINE
  5
1C0
330
1B6
100
AcDbEntity
  8
LC-002-005-----0
 62
     7
370
    25
100
AcDbLine
 10
39.353092
 20
209.548495
 30
0.0
 11
37.005847
 21
211.89574
 31
0.0
  0
LINE
  5
1C1
330
1B6
100
AcDbEntity
  8
LC-002-005-----0
 62
     7
370
    25
100
AcDbLine
 10
39.353092
 20
206.720067
 30
0.0
 11
36.353092
 21
209.720067
 31
0.0
  0
LINE
  5
1C2
330
1B6
100
AcDbEntity
  8
LC-002-005-----0
 62
     7
370
    25
100
AcDbLine
 10
39.353092
 20
203.89164
 30
0.0
 11
36.353092
 21
206.89164
 31
0.0
  0
LINE
  5
1C3
330
1B6
100
AcDbEntity
  8
LC-002-005-----0
 62
     7
370
    25
100
AcDbLine
 10
39.353092
 20
201.063213
 30
0.0
 11
36.353092
 21
204.063213
 31
0.0
  0
LINE
  5
1C4
330
1B6
100
AcDbEntity
  8
LC-002-005-----0
 62
     7
370
    25
100
AcDbLine
 10
39.353092
 20
198.234786
 30
0.0
 11
36.353092
 21
201.234786
 31
0.0
  0
LINE
  5
1C5
330
1B6
100
AcDbEntity
  8
LC-002-005-----0
 62
     7
370
    25
100
AcDbLine
 10
39.353092
 20
195.406359
 30
0.0
 11
36.353092
 21
198.406359
 31
0.0
  0
LINE
  5
1C6
330
1B6
100
AcDbEntity
  8
LC-002-005-----0
 62
     7
370
    25
100
AcDbLine
 10
39.353092
 20
192.577932
 30
0.0
 11
36.353092
 21
195.577932
 31
0.0
  0
LINE
  5
1C7
330
1B6
100
AcDbEntity
  8
LC-002-005-----0
 62
     7
370
    25
100
AcDbLine
 10
39.353092
 20
189.749505
 30
0.0
 11
36.353092
 21
192.749505
 31
0.0
  0
LINE
  5
1C8
330
1B6
100
AcDbEntity
  8
LC-002-005-----0
 62
     7
370
    25
100
AcDbLine
 10
39.353092
 20
186.921078
 30
0.0
 11
36.353092
 21
189.921078
 31
0.0
  0
LINE
  5
1C9
330
1B6
100
AcDbEntity
  8
LC-002-005-----0
 62
     7
370
    25
100
AcDbLine
 10
39.353092
 20
184.09265
 30
0.0
 11
36.353092
 21
187.09265
 31
0.0
  0
LINE
  5
1CA
330
1B6
100
AcDbEntity
  8
LC-002-005-----0
 62
     7
370
    25
100
AcDbLine
 10
39.353092
 20
181.264223
 30
0.0
 11
36.353092
 21
184.264223
 31
0.0
  0
LINE
  5
1CB
330
1B6
100
AcDbEntity
  8
LC-002-005-----0
 62
     7
370
    25
100
AcDbLine
 10
39.353092
 20
178.435796
 30
0.0
 11
36.353092
 21
181.435796
 31
0.0
  0
LINE
  5
1CC
330
1B6
100
AcDbEntity
  8
LC-002-005-----0
 62
     7
370
    25
100
AcDbLine
 10
39.353092
 20
175.607369
 30
0.0
 11
36.353092
 21
178.607369
 31
0.0
  0
LINE
  5
1CD
330
1B6
100
AcDbEntity
  8
LC-002-005-----0
 62
     7
370
    25
100
AcDbLine
 10
39.353092
 20
172.778942
 30
0.0
 11
36.353092
 21
175.778942
 31
0.0
  0
LINE
  5
1CE
330
1B6
100
AcDbEntity
  8
LC-002-005-----0
 62
     7
370
    25
100
AcDbLine
 10
39.353092
 20
169.950515
 30
0.0
 11
36.353092
 21
172.950515
 31
0.0
  0
LINE
  5
1CF
330
1B6
100
AcDbEntity
  8
LC-002-005-----0
 62
     7
370
    25
100
AcDbLine
 10
39.353092
 20
167.122088
 30
0.0
 11
36.353092
 21
170.122088
 31
0.0
  0
LINE
  5
1D0
330
1B6
100
AcDbEntity
  8
LC-002-005-----0
 62
     7
370
    25
100
AcDbLine
 10
39.353092
 20
164.293661
 30
0.0
 11
36.353092
 21
167.293661
 31
0.0
  0
LINE
  5
1D1
330
1B6
100
AcDbEntity
  8
LC-002-005-----0
 62
     7
370
    25
100
AcDbLine
 10
39.353092
 20
161.465233
 30
0.0
 11
36.353092
 21
164.465233
 31
0.0
  0
LINE
  5
1D2
330
1B6
100
AcDbEntity
  8
LC-002-005-----0
 62
     7
370
    25
100
AcDbLine
 10
39.353092
 20
158.636806
 30
0.0
 11
36.353092
 21
161.636806
 31
0.0
  0
LINE
  5
1D3
330
1B6
100
AcDbEntity
  8
LC-002-005-----0
 62
     7
370
    25
100
AcDbLine
 10
39.353092
 20
155.808379
 30
0.0
 11
36.353092
 21
158.808379
 31
0.0
  0
LINE
  5
1D4
330
1B6
100
AcDbEntity
  8
LC-002-005-----0
 62
     7
370
    25
100
AcDbLine
 10
39.353092
 20
152.979952
 30
0.0
 11
36.353092
 21
155.979952
 31
0.0
  0
LINE
  5
1D5
330
1B6
100
AcDbEntity
  8
LC-002-005-----0
 62
     7
370
    25
100
AcDbLine
 10
39.353092
 20
150.151525
 30
0.0
 11
36.353092
 21
153.151525
 31
0.0
  0
LINE
  5
1D6
330
1B6
100
AcDbEntity
  8
LC-002-005-----0
 62
     7
370
    25
100
AcDbLine
 10
39.353092
 20
147.323098
 30
0.0
 11
36.353092
 21
150.323098
 31
0.0
  0
LINE
  5
1D7
330
1B6
100
AcDbEntity
  8
LC-002-005-----0
 62
     7
370
    25
100
AcDbLine
 10
39.353092
 20
144.494671
 30
0.0
 11
36.353092
 21
147.494671
 31
0.0
  0
LINE
  5
1D8
330
1B6
100
AcDbEntity
  8
LC-002-005-----0
 62
     7
370
    25
100
AcDbLine
 10
39.353092
 20
141.666244
 30
0.0
 11
36.353092
 21
144.666244
 31
0.0
  0
LINE
  5
1D9
330
1B6
100
AcDbEntity
  8
LC-002-005-----0
 62
     7
370
    25
100
AcDbLine
 10
39.353092
 20
138.837816
 30
0.0
 11
36.353092
 21
141.837816
 31
0.0
  0
LINE
  5
1DA
330
1B6
100
AcDbEntity
  8
LC-002-005-----0
 62
     7
370
    25
100
AcDbLine
 10
39.353092
 20
136.009389
 30
0.0
 11
36.353092
 21
139.009389
 31
0.0
  0
LINE
  5
1DB
330
1B6
100
AcDbEntity
  8
LC-002-005-----0
 62
     7
370
    25
100
AcDbLine
 10
39.353092
 20
133.180962
 30
0.0
 11
36.353092
 21
136.180962
 31
0.0
  0
LINE
  5
1DC
330
1B6
100
AcDbEntity
  8
LC-002-005-----0
 62
     7
370
    25
100
AcDbLine
 10
39.353092
 20
130.352535
 30
0.0
 11
36.353092
 21
133.352535
 31
0.0
  0
LINE
  5
1DD
330
1B6
100
AcDbEntity
  8
LC-002-005-----0
 62
     7
370
    25
100
AcDbLine
 10
39.353092
 20
127.524108
 30
0.0
 11
36.353092
 21
130.524108
 31
0.0
  0
LINE
  5
1DE
330
1B6
100
AcDbEntity
  8
LC-002-005-----0
 62
     7
370
    25
100
AcDbLine
 10
39.353092
 20
124.695681
 30
0.0
 11
36.353092
 21
127.695681
 31
0.0
  0
LINE
  5
1DF
330
1B6
100
AcDbEntity
  8
LC-002-005-----0
 62
     7
370
    25
100
AcDbLine
 10
39.353092
 20
121.867254
 30
0.0
 11
36.353092
 21
124.867254
 31
0.0
  0
LINE
  5
1E0
330
1B6
100
AcDbEntity
  8
LC-002-005-----0
 62
     7
370
    25
100
AcDbLine
 10
39.353092
 20
119.038827
 30
0.0
 11
36.353092
 21
122.038827
 31
0.0
  0
LINE
  5
1E1
330
1B6
100
AcDbEntity
  8
LC-002-005-----0
 62
     7
370
    25
100
AcDbLine
 10
39.353092
 20
116.210399
 30
0.0
 11
36.353092
 21
119.210399
 31
0.0
  0
LINE
  5
1E2
330
1B6
100
AcDbEntity
  8
LC-002-005-----0
 62
     7
370
    25
100
AcDbLine
 10
39.353092
 20
113.381972
 30
0.0
 11
36.353092
 21
116.381972
 31
0.0
  0
LINE
  5
1E3
330
1B6
100
AcDbEntity
  8
LC-002-005-----0
 62
     7
370
    25
100
AcDbLine
 10
39.353092
 20
110.553545
 30
0.0
 11
36.353092
 21
113.553545
 31
0.0
  0
LINE
  5
1E4
330
1B6
100
AcDbEntity
  8
LC-002-005-----0
 62
     7
370
    25
100
AcDbLine
 10
38.335225
 20
108.742986
 30
0.0
 11
36.353092
 21
110.725118
 31
0.0
  0
ENDBLK
  5
1B8
330
1B6
100
AcDbEntity
  8
0
100
AcDbBlockEnd
  0
BLOCK
  5
1F2
330
1E8
100
AcDbEntity
  8
0
100
AcDbBlockBegin
  2
*D14
 70
     1
 71
     0
 10
0.0
 20
0.0
 30
0.0
  3
*D14
  1

  0
LINE
  5
1E9
330
1E8
100
AcDbEntity
  8
LC-005-003-----0
 62
     2
370
    -2
100
AcDbLine
 10
41.853092
 20
229.242986
 30
0.0
 11
41.853092
 21
278.0
 31
0.0
  0
LINE
  5
1EA
330
1E8
100
AcDbEntity
  8
LC-005-003-----0
 62
     2
370
    -2
100
AcDbLine
 10
140.853092
 20
229.242986
 30
0.0
 11
140.853092
 21
278.0
 31
0.0
  0
LINE
  5
1EB
330
1E8
100
AcDbEntity
  8
LC-005-003-----0
 62
     2
370
    -2
100
AcDbLine
 10
69.853092
 20
274.4
 30
0.0
 11
112.853092
 21
274.4
 31
0.0
  0
SOLID
  5
1EC
330
1E8
100
AcDbEntity
  8
LC-005-003-----0
 62
     2
100
AcDbTrace
 10
69.853092
 20
279.066667
 30
0.0
 11
69.853092
 21
269.733333
 31
0.0
 12
41.853092
 22
274.4
 32
0.0
 13
41.853092
 23
274.4
 33
0.0
  0
SOLID
  5
1ED
330
1E8
100
AcDbEntity
  8
LC-005-003-----0
 62
     2
100
AcDbTrace
 10
112.853092
 20
269.733333
 30
0.0
 11
112.853092
 21
279.066667
 31
0.0
 12
140.853092
 22
274.4
 32
0.0
 13
140.853092
 23
274.4
 33
0.0
  0
MTEXT
  5
1EE
330
1E8
100
AcDbEntity
  8
LC-005-003-----0
 62
     2
100
AcDbMText
 10
91.353092
 20
305.2
 30
0.0
 40
28.0
 41
0.0
 71
     5
 72
     1
  1
\A1;100
  7
LCTX15-400-0-0pDIN-Schrift
 73
     1
 44
1.0
  0
POINT
  5
1EF
330
1E8
100
AcDbEntity
  8
Defpoints
 62
     0
100
AcDbPoint
 10
41.853092
 20
229.242986
 30
0.0
  0
POINT
  5
1F0
330
1E8
100
AcDbEntity
  8
Defpoints
 62
     0
100
AcDbPoint
 10
140.853092
 20
229.242986
 30
0.0
  0
POINT
  5
1F1
330
1E8
100
AcDbEntity
  8
Defpoints
 62
     0
100
AcDbPoint
 10
140.853092
 20
274.4
 30
0.0
  0
ENDBLK
  5
1F3
330
1E8
100
AcDbEntity
  8
0
100
AcDbBlockEnd
  0
BLOCK
  5
200
330
1F5
100
AcDbEntity
  8
0
100
AcDbBlockBegin
  2
*D15
 70
     1
 71
     0
 10
0.0
 20
0.0
 30
0.0
  3
*D15
  1

  0
LINE
  5
1F6
330
1F5
100
AcDbEntity
  8
LC-005-003-----0
 62
     2
370
    -2
100
AcDbLine
 10
43.353092
 20
229.742986
 30
0.0
 11
-3.6
 21
229.742986
 31
0.0
  0
LINE
  5
1F7
330
1F5
100
AcDbEntity
  8
LC-005-003-----0
 62
     2
370
    -2
100
AcDbLine
 10
40.853092
 20
222.242986
 30
0.0
 11
-3.6
 21
222.242986
 31
0.0
  0
LINE
  5
1F8
330
1F5
100
AcDbEntity
  8
LC-005-003-----0
 62
     2
370
    -2
100
AcDbLine
 10
0.0
 20
257.742986
 30
0.0
 11
0.0
 21
285.742986
 31
0.0
  0
LINE
  5
1F9
330
1F5
100
AcDbEntity
  8
LC-005-003-----0
 62
     2
370
    -2
100
AcDbLine
 10
0.0
 20
194.242986
 30
0.0
 11
0.0
 21
152.370045
 31
0.0
  0
SOLID
  5
1FA
330
1F5
100
AcDbEntity
  8
LC-005-003-----0
 62
     2
100
AcDbTrace
 10
-4.666667
 20
257.742986
 30
0.0
 11
4.666667
 21
257.742986
 31
0.0
 12
0.0
 22
229.742986
 32
0.0
 13
0.0
 23
229.742986
 33
0.0
  0
SOLID
  5
1FB
330
1F5
100
AcDbEntity
  8
LC-005-003-----0
 62
     2
100
AcDbTrace
 10
4.666667
 20
194.242986
 30
0.0
 11
-4.666667
 21
194.242986
 31
0.0
 12
0.0
 22
222.242986
 32
0.0
 13
0.0
 23
222.242986
 33
0.0
  0
MTEXT
  5
1FC
330
1F5
100
AcDbEntity
  8
LC-005-003-----0
 62
     2
100
AcDbMText
 10
-30.8
 20
179.388
 30
0.0
 40
28.0
 41
0.0
 71
     5
 72
     1
  1
\A1;7,5
  7
LCTX15-400-0-0pDIN-Schrift
 11
6.123031769111886E-17
 21
1.0
 31
0.0
 73
     1
 44
1.0
  0
POINT
  5
1FD
330
1F5
100
AcDbEntity
  8
Defpoints
 62
     0
100
AcDbPoint
 10
43.353092
 20
229.742986
 30
0.0
  0
POINT
  5
1FE
330
1F5
100
AcDbEntity
  8
Defpoints
 62
     0
100
AcDbPoint
 10
40.853092
 20
222.242986
 30
0.0
  0
POINT
  5
1FF
330
1F5
100
AcDbEntity
  8
Defpoints
 62
     0
100
AcDbPoint
 10
0.0
 20
222.242986
 30
0.0
  0
ENDBLK
  5
201
330
1F5
100
AcDbEntity
  8
0
100
AcDbBlockEnd
  0
BLOCK
  5
21A
330
219
100
AcDbEntity
  8
0
100
AcDbBlockBegin
  2
*X1316
 70
     1
 71
     0
 10
0.0
 20
0.0
 30
0.0
  3
*X1316
  1

  4
*X13
  0
LINE
  5
21C
330
219
100
AcDbEntity
  8
LC-002-005-----0
 62
     7
370
    25
100
AcDbLine
 10
37.86076
 20
105.743011
 30
0.0
 11
39.35353
 21
107.235781
 31
0.0
  0
LINE
  5
21D
330
219
100
AcDbEntity
  8
LC-002-005-----0
 62
     7
370
    25
100
AcDbLine
 10
35.032333
 20
105.743011
 30
0.0
 11
38.032308
 21
108.742986
 31
0.0
  0
LINE
  5
21E
330
219
100
AcDbEntity
  8
LC-002-005-----0
 62
     7
370
    25
100
AcDbLine
 10
32.203906
 20
105.743011
 30
0.0
 11
36.353559
 21
109.892664
 31
0.0
  0
LINE
  5
21F
330
219
100
AcDbEntity
  8
LC-002-005-----0
 62
     7
370
    25
100
AcDbLine
 10
31.353485
 20
107.721018
 30
0.0
 11
36.353568
 21
112.7211
 31
0.0
  0
LINE
  5
220
330
219
100
AcDbEntity
  8
LC-002-005-----0
 62
     7
370
    25
100
AcDbLine
 10
31.353485
 20
110.549445
 30
0.0
 11
36.353576
 21
115.549536
 31
0.0
  0
LINE
  5
221
330
219
100
AcDbEntity
  8
LC-002-005-----0
 62
     7
370
    25
100
AcDbLine
 10
31.353485
 20
113.377872
 30
0.0
 11
33.71854
 21
115.742927
 31
0.0
  0
LINE
  5
222
330
219
100
AcDbEntity
  8
LC-002-005-----0
 62
     7
370
    25
100
AcDbLine
 10
34.353579
 20
116.377966
 30
0.0
 11
36.353585
 21
118.377972
 31
0.0
  0
LINE
  5
223
330
219
100
AcDbEntity
  8
LC-002-005-----0
 62
     7
370
    25
100
AcDbLine
 10
34.353579
 20
119.206393
 30
0.0
 11
36.353594
 21
121.206407
 31
0.0
  0
LINE
  5
224
330
219
100
AcDbEntity
  8
LC-002-005-----0
 62
     7
370
    25
100
AcDbLine
 10
34.353579
 20
122.03482
 30
0.0
 11
36.20759
 21
123.888831
 31
0.0
  0
LINE
  5
225
330
219
100
AcDbEntity
  8
LC-002-005-----0
 62
     7
370
    25
100
AcDbLine
 10
34.353579
 20
124.863247
 30
0.0
 11
34.793377
 21
125.303045
 31
0.0
  0
ENDBLK
  5
21B
330
219
100
AcDbEntity
  8
0
100
AcDbBlockEnd
  0
BLOCK
  5
24B
330
23F
100
AcDbEntity
  8
0
100
AcDbBlockBegin
  2
*D17
 70
     1
 71
     0
 10
0.0
 20
0.0
 30
0.0
  3
*D17
  1

  0
LINE
  5
240
330
23F
100
AcDbEntity
  8
LC-005-003-----0
 62
     2
370
    -2
100
AcDbLine
 10
145.353092
 20
108.742986
 30
0.0
 11
185.6
 21
108.742986
 31
0.0
  0
LINE
  5
241
330
23F
100
AcDbEntity
  8
LC-005-003-----0
 62
     2
370
    -2
100
AcDbLine
 10
143.353092
 20
122.742986
 30
0.0
 11
185.6
 21
122.742986
 31
0.0
  0
LINE
  5
242
330
23F
100
AcDbEntity
  8
LC-005-003-----0
 62
     2
370
    -2
100
AcDbLine
 10
182.0
 20
80.742986
 30
0.0
 11
182.0
 21
52.742986
 31
0.0
  0
LINE
  5
243
330
23F
100
AcDbEntity
  8
LC-005-003-----0
 62
     2
370
    -2
100
AcDbLine
 10
182.0
 20
150.742986
 30
0.0
 11
182.0
 21
178.742986
 31
0.0
  0
LINE
  5
244
330
23F
100
AcDbEntity
  8
LC-005-003-----0
 62
     2
370
    -2
100
AcDbLine
 10
182.0
 20
108.742986
 30
0.0
 11
182.0
 21
122.742986
 31
0.0
  0
SOLID
  5
245
330
23F
100
AcDbEntity
  8
LC-005-003-----0
 62
     2
100
AcDbTrace
 10
186.666667
 20
80.742986
 30
0.0
 11
177.333333
 21
80.742986
 31
0.0
 12
182.0
 22
108.742986
 32
0.0
 13
182.0
 23
108.742986
 33
0.0
  0
SOLID
  5
246
330
23F
100
AcDbEntity
  8
LC-005-003-----0
 62
     2
100
AcDbTrace
 10
177.333333
 20
150.742986
 30
0.0
 11
186.666667
 21
150.742986
 31
0.0
 12
182.0
 22
122.742986
 32
0.0
 13
182.0
 23
122.742986
 33
0.0
  0
MTEXT
  5
247
330
23F
100
AcDbEntity
  8
LC-005-003-----0
 62
     2
100
AcDbMText
 10
151.2
 20
115.742986
 30
0.0
 40
28.0
 41
0.0
 71
     5
 72
     1
  1
\A1;14
  7
LCTX15-400-0-0pDIN-Schrift
 11
6.123031769111886E-17
 21
1.0
 31
0.0
 73
     1
 44
1.0
  0
POINT
  5
248
330
23F
100
AcDbEntity
  8
Defpoints
 62
     0
100
AcDbPoint
 10
145.353092
 20
108.742986
 30
0.0
  0
POINT
  5
249
330
23F
100
AcDbEntity
  8
Defpoints
 62
     0
100
AcDbPoint
 10
143.353092
 20
122.742986
 30
0.0
  0
POINT
  5
24A
330
23F
100
AcDbEntity
  8
Defpoints
 62
     0
100
AcDbPoint
 10
182.0
 20
122.742986
 30
0.0
  0
ENDBLK
  5
24C
330
23F
100
AcDbEntity
  8
0
100
AcDbBlockEnd
  0
BLOCK
  5
258
330
24E
100
AcDbEntity
  8
0
100
AcDbBlockBegin
  2
*D18
 70
     1
 71
     0
 10
0.0
 20
0.0
 30
0.0
  3
*D18
  1

  0
LINE
  5
24F
330
24E
100
AcDbEntity
  8
LC-005-003-----0
 62
     2
370
    -2
100
AcDbLine
 10
143.353092
 20
122.742986
 30
0.0
 11
227.6
 21
122.742986
 31
0.0
  0
LINE
  5
250
330
24E
100
AcDbEntity
  8
LC-005-003-----0
 62
     2
370
    -2
100
AcDbLine
 10
139.353092
 20
229.742986
 30
0.0
 11
227.6
 21
229.742986
 31
0.0
  0
LINE
  5
251
330
24E
100
AcDbEntity
  8
LC-005-003-----0
 62
     2
370
    -2
100
AcDbLine
 10
224.0
 20
150.742986
 30
0.0
 11
224.0
 21
201.742986
 31
0.0
  0
SOLID
  5
252
330
24E
100
AcDbEntity
  8
LC-005-003-----0
 62
     2
100
AcDbTrace
 10
219.333333
 20
150.742986
 30
0.0
 11
228.666667
 21
150.742986
 31
0.0
 12
224.0
 22
122.742986
 32
0.0
 13
224.0
 23
122.742986
 33
0.0
  0
SOLID
  5
253
330
24E
100
AcDbEntity
  8
LC-005-003-----0
 62
     2
100
AcDbTrace
 10
228.666667
 20
201.742986
 30
0.0
 11
219.333333
 21
201.742986
 31
0.0
 12
224.0
 22
229.742986
 32
0.0
 13
224.0
 23
229.742986
 33
0.0
  0
MTEXT
  5
254
330
24E
100
AcDbEntity
  8
LC-005-003-----0
 62
     2
100
AcDbMText
 10
193.2
 20
176.242986
 30
0.0
 40
28.0
 41
0.0
 71
     5
 72
     1
  1
\A1;15-107
  7
LCTX15-400-0-0pDIN-Schrift
 11
6.123031769111886E-17
 21
1.0
 31
0.0
 73
     1
 44
1.0
  0
POINT
  5
255
330
24E
100
AcDbEntity
  8
Defpoints
 62
     0
100
AcDbPoint
 10
143.353092
 20
122.742986
 30
0.0
  0
POINT
  5
256
330
24E
100
AcDbEntity
  8
Defpoints
 62
     0
100
AcDbPoint
 10
139.353092
 20
229.742986
 30
0.0
  0
POINT
  5
257
330
24E
100
AcDbEntity
  8
Defpoints
 62
     0
100
AcDbPoint
 10
224.0
 20
229.742986
 30
0.0
  0
ENDBLK
  5
259
330
24E
100
AcDbEntity
  8
0
100
AcDbBlockEnd
  0
ENDSEC
  0
SECTION
  2
ENTITIES
  0
LINE
  5
32
102
{ACAD_REACTORS
330
25F
102
}
330
1F
100
AcDbEntity
  8
LC-001-002-----0
 62
     7
370
    50
100
AcDbLine
 10
137.353092
 20
213.586131
 30
0.0
 11
137.353092
 21
207.242986
 31
0.0
  0
LINE
  5
33
102
{ACAD_REACTORS
330
25F
102
}
330
1F
100
AcDbEntity
  8
LC-001-002-----0
 62
     7
370
    50
100
AcDbLine
 10
134.353092
 20
216.056116
 30
0.0
 11
135.149048
 21
218.242986
 31
0.0
  0
LINE
  5
34
330
1F
100
AcDbEntity
  8
LC-001-002-----0
 62
     7
370
    50
100
AcDbLine
 10
135.149048
 20
218.242986
 30
0.0
 11
139.353092
 21
218.242986
 31
0.0
  0
INSERT
  5
61
330
1F
100
AcDbEntity
  8
LC-002-005-----0
 62
     7
370
    25
100
AcDbBlockReference
  2
*X11
 10
0.0
 20
0.0
 30
0.0
  0
LINE
  5
62
102
{ACAD_REACTORS
330
25E
102
}
330
1F
100
AcDbEntity
  8
LC-001-002-----0
 62
     7
370
    50
100
AcDbLine
 10
44.853092
 20
222.242986
 30
0.0
 11
49.353092
 21
222.242986
 31
0.0
  0
LINE
  5
63
102
{ACAD_REACTORS
330
25E
102
}
330
1F
100
AcDbEntity
  8
LC-001-002-----0
 62
     7
370
    50
100
AcDbLine
 10
43.353092
 20
229.742986
 30
0.0
 11
43.353092
 21
229.742986
 31
0.0
  0
LINE
  5
64
102
{ACAD_REACTORS
330
25E
102
}
330
1F
100
AcDbEntity
  8
LC-001-002-----0
 62
     7
370
    50
100
AcDbLine
 10
41.853092
 20
229.242986
 30
0.0
 11
41.853092
 21
223.242986
 31
0.0
  0
LINE
  5
65
102
{ACAD_REACTORS
330
25B
102
}
330
1F
100
AcDbEntity
  8
LC-001-002-----0
 62
     7
370
    50
100
AcDbLine
 10
344.853092
 20
224.484815
 30
0.0
 11
257.853092
 21
224.484815
 31
0.0
  0
LINE
  5
66
102
{ACAD_REACTORS
330
25B
102
}
330
1F
100
AcDbEntity
  8
LC-001-002-----0
 62
     7
370
    50
100
AcDbLine
 10
251.853092
 20
218.484815
 30
0.0
 11
251.853092
 21
131.484815
 31
0.0
  0
LINE
  5
67
102
{ACAD_REACTORS
330
25B
102
}
330
1F
100
AcDbEntity
  8
LC-001-002-----0
 62
     7
370
    50
100
AcDbLine
 10
257.853092
 20
125.484815
 30
0.0
 11
344.853092
 21
125.484815
 31
0.0
  0
LINE
  5
68
102
{ACAD_REACTORS
330
25B
102
}
330
1F
100
AcDbEntity
  8
LC-001-002-----0
 62
     7
370
    50
100
AcDbLine
 10
350.853092
 20
131.484815
 30
0.0
 11
350.853092
 21
218.484815
 31
0.0
  0
LINE
  5
69
102
{ACAD_REACTORS
330
25E
102
}
330
1F
100
AcDbEntity
  8
LC-001-002-----0
 62
     7
370
    50
100
AcDbLine
 10
43.353092
 20
220.242986
 30
0.0
 11
48.153092
 21
220.242986
 31
0.0
  0
LINE
  5
6A
102
{ACAD_REACTORS
330
25E
102
}
330
1F
100
AcDbEntity
  8
LC-001-002-----0
 62
     7
370
    50
100
AcDbLine
 10
48.153092
 20
220.242986
 30
0.0
 11
48.153092
 21
213.242986
 31
0.0
  0
LINE
  5
6B
102
{ACAD_REACTORS
330
25B
102
}
330
1F
100
AcDbEntity
  8
LC-001-002-----0
 62
     7
370
    50
100
AcDbLine
 10
254.853092
 20
218.484815
 30
0.0
 11
254.853092
 21
131.484815
 31
0.0
  0
LINE
  5
6C
102
{ACAD_REACTORS
330
25B
102
}
330
1F
100
AcDbEntity
  8
LC-001-002-----0
 62
     7
370
    50
100
AcDbLine
 10
257.853092
 20
128.484815
 30
0.0
 11
344.853092
 21
128.484815
 31
0.0
  0
LINE
  5
6D
102
{ACAD_REACTORS
330
25B
102
}
330
1F
100
AcDbEntity
  8
LC-001-002-----0
 62
     7
370
    50
100
AcDbLine
 10
347.853092
 20
131.484815
 30
0.0
 11
347.853092
 21
218.484815
 31
0.0
  0
LINE
  5
6E
102
{ACAD_REACTORS
330
25B
102
}
330
1F
100
AcDbEntity
  8
LC-001-002-----0
 62
     7
370
    50
100
AcDbLine
 10
344.853092
 20
221.484815
 30
0.0
 11
257.853092
 21
221.484815
 31
0.0
  0
ARC
  5
70
102
{ACAD_REACTORS
330
25B
102
}
330
1F
100
AcDbEntity
  8
LC-003-002-RND-0
 62
     7
370
    50
100
AcDbCircle
 10
344.853092
 20
218.484815
 30
0.0
 40
3.0
100
AcDbArc
 50
0.0
 51
90.0
  0
ARC
  5
71
102
{ACAD_REACTORS
330
25B
102
}
330
1F
100
AcDbEntity
  8
LC-003-002-RND-0
 62
     7
370
    50
100
AcDbCircle
 10
344.853092
 20
131.484815
 30
0.0
 40
3.0
100
AcDbArc
 50
270.0
 51
0.0
  0
ARC
  5
72
102
{ACAD_REACTORS
330
25B
102
}
330
1F
100
AcDbEntity
  8
LC-003-002-RND-0
 62
     7
370
    50
100
AcDbCircle
 10
257.853092
 20
131.484815
 30
0.0
 40
3.0
100
AcDbArc
 50
180.0
 51
270.0
  0
ARC
  5
73
102
{ACAD_REACTORS
330
25B
102
}
330
1F
100
AcDbEntity
  8
LC-003-002-RND-0
 62
     7
370
    50
100
AcDbCircle
 10
257.853092
 20
218.484815
 30
0.0
 40
6.0
100
AcDbArc
 50
90.0
 51
180.0
  0
ARC
  5
74
102
{ACAD_REACTORS
330
25B
102
}
330
1F
100
AcDbEntity
  8
LC-003-002-RND-0
 62
     7
370
    50
100
AcDbCircle
 10
344.853092
 20
218.484815
 30
0.0
 40
6.0
100
AcDbArc
 50
0.0
 51
90.0
  0
ARC
  5
75
102
{ACAD_REACTORS
330
25B
102
}
330
1F
100
AcDbEntity
  8
LC-003-002-RND-0
 62
     7
370
    50
100
AcDbCircle
 10
344.853092
 20
131.484815
 30
0.0
 40
6.0
100
AcDbArc
 50
270.0
 51
0.0
  0
ARC
  5
76
102
{ACAD_REACTORS
330
25B
102
}
330
1F
100
AcDbEntity
  8
LC-003-002-RND-0
 62
     7
370
    50
100
AcDbCircle
 10
257.853092
 20
131.484815
 30
0.0
 40
6.0
100
AcDbArc
 50
180.0
 51
270.0
  0
ARC
  5
77
102
{ACAD_REACTORS
330
25B
102
}
330
1F
100
AcDbEntity
  8
LC-003-002-RND-0
 62
     7
370
    50
100
AcDbCircle
 10
257.853092
 20
218.484815
 30
0.0
 40
3.0
100
AcDbArc
 50
90.0
 51
180.0
  0
ARC
  5
78
102
{ACAD_REACTORS
330
25E
102
}
330
1F
100
AcDbEntity
  8
LC-001-002-----0
 62
     7
370
    50
100
AcDbCircle
 10
48.178092
 20
212.442986
 30
0.0
 40
0.8000000000009726
100
AcDbArc
 50
91.790785
 51
200.0
  0
LINE
  5
79
102
{ACAD_REACTORS
330
25E
102
}
330
1F
100
AcDbEntity
  8
LC-001-002-----0
 62
     7
370
    50
100
AcDbLine
 10
48.67344
 20
208.742986
 30
0.0
 11
91.353092
 21
208.742986
 31
0.0
  0
LINE
  5
7A
102
{ACAD_REACTORS
330
25B
102
}
330
1F
100
AcDbEntity
  8
LC-001-002-----0
 62
     7
370
    50
100
AcDbLine
 10
250.853092
 20
131.484815
 30
0.0
 11
250.853092
 21
218.484815
 31
0.0
  0
ARC
  5
7B
102
{ACAD_REACTORS
330
25B
102
}
330
1F
100
AcDbEntity
  8
LC-001-002-----0
 62
     7
370
    50
100
AcDbCircle
 10
257.853092
 20
218.484815
 30
0.0
 40
7.0
100
AcDbArc
 50
90.0
 51
180.0
  0
LINE
  5
7C
102
{ACAD_REACTORS
330
25B
102
}
330
1F
100
AcDbEntity
  8
LC-001-002-----0
 62
     7
370
    50
100
AcDbLine
 10
257.853092
 20
225.484815
 30
0.0
 11
344.853092
 21
225.484815
 31
0.0
  0
ARC
  5
7D
102
{ACAD_REACTORS
330
25B
102
}
330
1F
100
AcDbEntity
  8
LC-001-002-----0
 62
     7
370
    50
100
AcDbCircle
 10
344.853092
 20
218.484815
 30
0.0
 40
7.0
100
AcDbArc
 50
0.0
 51
90.0
  0
LINE
  5
7E
102
{ACAD_REACTORS
330
25B
102
}
330
1F
100
AcDbEntity
  8
LC-001-002-----0
 62
     7
370
    50
100
AcDbLine
 10
351.836678
 20
218.66607
 30
0.0
 11
351.836678
 21
131.66607
 31
0.0
  0
ARC
  5
7F
102
{ACAD_REACTORS
330
25B
102
}
330
1F
100
AcDbEntity
  8
LC-001-002-----0
 62
     7
370
    50
100
AcDbCircle
 10
344.853092
 20
131.484815
 30
0.0
 40
7.0
100
AcDbArc
 50
270.0
 51
0.0
  0
LINE
  5
80
102
{ACAD_REACTORS
330
25B
102
}
330
1F
100
AcDbEntity
  8
LC-001-002-----0
 62
     7
370
    50
100
AcDbLine
 10
344.853092
 20
124.484815
 30
0.0
 11
257.853092
 21
124.484815
 31
0.0
  0
ARC
  5
81
102
{ACAD_REACTORS
330
25B
102
}
330
1F
100
AcDbEntity
  8
LC-001-002-----0
 62
     7
370
    50
100
AcDbCircle
 10
257.853092
 20
131.484815
 30
0.0
 40
7.0
100
AcDbArc
 50
180.0
 51
270.0
  0
LINE
  5
82
102
{ACAD_REACTORS
330
25A
102
}
330
1F
100
AcDbEntity
  8
LC-001-002-----0
 62
     7
370
    50
100
AcDbLine
 10
137.853092
 20
222.242986
 30
0.0
 11
133.353092
 21
222.242986
 31
0.0
  0
ARC
  5
84
102
{ACAD_REACTORS
330
25E
102
}
330
1F
100
AcDbEntity
  8
LC-004-001-----0
 62
     7
370
    50
100
AcDbCircle
 10
47.653092
 20
217.742986
 30
0.0
 40
0.5
100
AcDbArc
 50
360.0
 51
90.0
  0
LINE
  5
85
102
{ACAD_REACTORS
330
25F
102
}
330
1F
100
AcDbEntity
  8
LC-001-002-----0
 62
     7
370
    50
100
AcDbLine
 10
135.353092
 20
207.242986
 30
0.0
 11
91.353092
 21
207.242986
 31
0.0
  0
LINE
  5
86
102
{ACAD_REACTORS
330
25F
102
}
330
1F
100
AcDbEntity
  8
LC-001-002-----0
 62
     7
370
    50
100
AcDbLine
 10
134.353092
 20
214.242986
 30
0.0
 11
134.353092
 21
216.056116
 31
0.0
  0
LINE
  5
87
102
{ACAD_REACTORS
330
25E
102
}
330
1F
100
AcDbEntity
  8
LC-001-002-----0
 62
     7
370
    50
100
AcDbLine
 10
44.853092
 20
229.242986
 30
0.0
 11
44.853092
 21
222.242986
 31
0.0
  0
LINE
  5
88
102
{ACAD_REACTORS
330
25E
102
}
330
1F
100
AcDbEntity
  8
LC-001-002-----0
 62
     7
370
    50
100
AcDbLine
 10
43.353092
 20
222.242986
 30
0.0
 11
40.853092
 21
222.242986
 31
0.0
  0
LINE
  5
89
102
{ACAD_REACTORS
330
25F
102
}
330
1F
100
AcDbEntity
  8
LC-001-002-----0
 62
     7
370
    50
100
AcDbLine
 10
134.353092
 20
214.242986
 30
0.0
 11
135.353092
 21
213.242986
 31
0.0
  0
LINE
  5
8A
102
{ACAD_REACTORS
330
25F
102
}
330
1F
100
AcDbEntity
  8
LC-001-002-----0
 62
     7
370
    50
100
AcDbLine
 10
135.353092
 20
213.242986
 30
0.0
 11
135.353092
 21
207.242986
 31
0.0
  0
LINE
  5
8B
102
{ACAD_REACTORS
330
25E
102
}
330
1F
100
AcDbEntity
  8
LC-001-002-----0
 62
     7
370
    50
100
AcDbLine
 10
47.426338
 20
212.16937
 30
0.0
 11
48.67344
 21
208.742986
 31
0.0
  0
LINE
  5
8C
102
{ACAD_REACTORS
330
25F
102
}
330
1F
100
AcDbEntity
  8
LC-001-002-----0
 62
     7
370
    50
100
AcDbLine
 10
145.353092
 20
108.742986
 30
0.0
 11
146.353092
 21
109.742986
 31
0.0
  0
LINE
  5
8D
102
{ACAD_REACTORS
330
25F
102
}
330
1F
100
AcDbEntity
  8
LC-001-002-----0
 62
     7
370
    50
100
AcDbLine
 10
137.353092
 20
207.242986
 30
0.0
 11
135.353092
 21
207.242986
 31
0.0
  0
LINE
  5
8E
102
{ACAD_REACTORS
330
25E
102
}
330
1F
100
AcDbEntity
  8
LC-004-001-----0
 62
     7
370
    50
100
AcDbLine
 10
46.253092
 20
218.242986
 30
0.0
 11
47.653092
 21
218.242986
 31
0.0
  0
LINE
  5
8F
102
{ACAD_REACTORS
330
25E
102
}
330
1F
100
AcDbEntity
  8
LC-001-002-----0
 62
     7
370
    50
100
AcDbLine
 10
49.353092
 20
222.242986
 30
0.0
 11
91.353092
 21
222.242986
 31
0.0
  0
LINE
  5
90
102
{ACAD_REACTORS
330
25E
102
}
330
1F
100
AcDbEntity
  8
LC-001-002-----0
 62
     7
370
    50
100
AcDbLine
 10
41.853092
 20
218.242986
 30
0.0
 11
41.853092
 21
222.242986
 31
0.0
  0
LINE
  5
91
102
{ACAD_REACTORS
330
25F
102
}
330
1F
100
AcDbEntity
  8
LC-001-002-----0
 62
     7
370
    50
100
AcDbLine
 10
143.353092
 20
210.000345
 30
0.0
 11
143.353092
 21
108.742986
 31
0.0
  0
LINE
  5
92
102
{ACAD_REACTORS
330
25E
102
}
330
1F
100
AcDbEntity
  8
LC-001-002-----0
 62
     7
370
    50
100
AcDbLine
 10
43.353092
 20
220.242986
 30
0.0
 11
43.353092
 21
222.242986
 31
0.0
  0
LINE
  5
93
102
{ACAD_REACTORS
330
25E
102
}
330
1F
100
AcDbEntity
  8
LC-001-002-----0
 62
     7
370
    50
100
AcDbLine
 10
42.353092
 20
229.742986
 30
0.0
 11
91.353092
 21
229.742986
 31
0.0
  0
LINE
  5
94
102
{ACAD_REACTORS
330
25E
102
}
330
1F
100
AcDbEntity
  8
LC-001-002-----0
 62
     7
370
    50
100
AcDbLine
 10
40.853092
 20
222.242986
 30
0.0
 11
40.853092
 21
223.242986
 31
0.0
  0
ARC
  5
95
102
{ACAD_REACTORS
330
25E
102
}
330
1F
100
AcDbEntity
  8
LC-001-002-----0
 62
     7
370
    50
100
AcDbCircle
 10
49.353092
 20
221.742986
 30
0.0
 40
0.5
100
AcDbArc
 50
270.0
 51
90.0
  0
LINE
  5
96
102
{ACAD_REACTORS
330
25E
102
}
330
1F
100
AcDbEntity
  8
LC-001-002-----0
 62
     7
370
    50
100
AcDbLine
 10
49.353092
 20
221.242986
 30
0.0
 11
91.353092
 21
221.242986
 31
0.0
  0
INSERT
  5
A2
102
{ACAD_REACTORS
330
25E
102
}
330
1F
100
AcDbEntity
  8
LC-002-005-----0
 62
     7
370
    25
100
AcDbBlockReference
  2
*X22
 10
0.0
 20
0.0
 30
0.0
  0
LINE
  5
A3
102
{ACAD_REACTORS
330
25E
102
}
330
1F
100
AcDbEntity
  8
LC-001-002-----0
 62
     7
370
    50
100
AcDbLine
 10
49.353092
 20
221.242986
 30
0.0
 11
49.353092
 21
208.742986
 31
0.0
  0
ARC
  5
A4
102
{ACAD_REACTORS
330
25E
102
}
330
1F
100
AcDbEntity
  8
LC-003-002-RND-0
 62
     7
370
    50
100
AcDbCircle
 10
44.353092
 20
229.242986
 30
0.0
 40
0.4999999999999858
100
AcDbArc
 50
360.0
 51
90.0
  0
ARC
  5
A5
102
{ACAD_REACTORS
330
25E
102
}
330
1F
100
AcDbEntity
  8
LC-003-002-RND-0
 62
     7
370
    50
100
AcDbCircle
 10
42.353092
 20
229.242986
 30
0.0
 40
0.5
100
AcDbArc
 50
90.0
 51
180.0
  0
LINE
  5
A6
102
{ACAD_REACTORS
330
25F
102
}
330
1F
100
AcDbEntity
  8
LC-001-002-----0
 62
     7
370
    50
100
AcDbLine
 10
146.353092
 20
109.742986
 30
0.0
 11
146.353092
 21
211.242986
 31
0.0
  0
LINE
  5
A7
102
{ACAD_REACTORS
330
25E
102
}
330
1F
100
AcDbEntity
  8
LC-001-002-----0
 62
     7
370
    50
100
AcDbLine
 10
47.653092
 20
218.242986
 30
0.0
 11
41.853092
 21
218.242986
 31
0.0
  0
LINE
  5
A8
102
{ACAD_REACTORS
330
25E
102
}
330
1F
100
AcDbEntity
  8
LC-001-002-----0
 62
     7
370
    50
100
AcDbLine
 10
40.853092
 20
223.242986
 30
0.0
 11
41.853092
 21
223.242986
 31
0.0
  0
LINE
  5
A9
102
{ACAD_REACTORS
330
25E
102
}
330
1F
100
AcDbEntity
  8
LC-001-002-----0
 62
     7
370
    50
100
AcDbLine
 10
44.853092
 20
224.242986
 30
0.0
 11
91.353092
 21
224.242986
 31
0.0
  0
LINE
  5
AA
102
{ACAD_REACTORS
330
25F
102
}
330
1F
100
AcDbEntity
  8
LC-001-002-----0
 62
     7
370
    50
100
AcDbLine
 10
146.353092
 20
211.242986
 30
0.0
 11
139.353092
 21
218.242986
 31
0.0
  0
LINE
  5
AB
102
{ACAD_REACTORS
330
25F
102
}
330
1F
100
AcDbEntity
  8
LC-001-002-----0
 62
     7
370
    50
100
AcDbLine
 10
139.060199
 20
214.293238
 30
0.0
 11
143.353092
 21
210.000345
 31
0.0
  0
ARC
  5
AC
102
{ACAD_REACTORS
330
25F
102
}
330
1F
100
AcDbEntity
  8
LC-003-002-RND-0
 62
     7
370
    50
100
AcDbCircle
 10
138.353092
 20
213.586131
 30
0.0
 40
1.000000000000028
100
AcDbArc
 50
45.0
 51
180.0
  0
LINE
  5
AD
102
{ACAD_REACTORS
330
25F
102
}
330
1F
100
AcDbEntity
  8
LC-001-002-----0
 62
     7
370
    50
100
AcDbLine
 10
145.353092
 20
108.742986
 30
0.0
 11
143.353092
 21
108.742986
 31
0.0
  0
ARC
  5
AE
102
{ACAD_REACTORS
330
25D
102
}
330
1F
100
AcDbEntity
  8
LC-003-002-RND-0
 62
     7
370
    50
100
AcDbCircle
 10
48.353092
 20
226.742986
 30
0.0
 40
2.5
100
AcDbArc
 50
90.0
 51
180.0
  0
ARC
  5
AF
102
{ACAD_REACTORS
330
25D
102
}
330
1F
100
AcDbEntity
  8
LC-003-002-RND-0
 62
     7
370
    50
100
AcDbCircle
 10
48.353092
 20
226.742986
 30
0.0
 40
1.0
100
AcDbArc
 50
90.0
 51
180.0
  0
ARC
  5
B0
102
{ACAD_REACTORS
330
25D
102
}
330
1F
100
AcDbEntity
  8
LC-003-002-RND-0
 62
     7
370
    50
100
AcDbCircle
 10
60.853092
 20
226.742986
 30
0.0
 40
1.0
100
AcDbArc
 50
90.0
 51
180.0
  0
ARC
  5
B1
102
{ACAD_REACTORS
330
262
102
}
330
1F
100
AcDbEntity
  8
LC-001-002-----0
 62
     7
370
    50
100
AcDbCircle
 10
301.353092
 20
174.984815
 30
0.0
 40
55.00000000011255
100
AcDbArc
 50
246.661707
 51
293.338293
  0
ARC
  5
B2
102
{ACAD_REACTORS
330
25D
102
}
330
1F
100
AcDbEntity
  8
LC-003-002-RND-0
 62
     7
370
    50
100
AcDbCircle
 10
61.853092
 20
226.742986
 30
0.0
 40
1.0
100
AcDbArc
 50
360.0
 51
90.0
  0
ARC
  5
B3
102
{ACAD_REACTORS
330
25D
102
}
330
1F
100
AcDbEntity
  8
LC-003-002-RND-0
 62
     7
370
    50
100
AcDbCircle
 10
72.853092
 20
226.742986
 30
0.0
 40
1.0
100
AcDbArc
 50
90.0
 51
180.0
  0
ARC
  5
B4
102
{ACAD_REACTORS
330
25D
102
}
330
1F
100
AcDbEntity
  8
LC-003-002-RND-0
 62
     7
370
    50
100
AcDbCircle
 10
73.853092
 20
226.742986
 30
0.0
 40
1.0
100
AcDbArc
 50
360.0
 51
90.0
  0
ARC
  5
B5
102
{ACAD_REACTORS
330
25D
102
}
330
1F
100
AcDbEntity
  8
LC-003-002-RND-0
 62
     7
370
    50
100
AcDbCircle
 10
84.853092
 20
226.742986
 30
0.0
 40
1.0
100
AcDbArc
 50
90.0
 51
180.0
  0
LINE
  5
B6
102
{ACAD_REACTORS
330
25A
102
}
330
1F
100
AcDbEntity
  8
LC-001-002-----0
 62
     7
370
    50
100
AcDbLine
 10
139.353092
 20
229.742986
 30
0.0
 11
139.353092
 21
229.742986
 31
0.0
  0
LINE
  5
B7
102
{ACAD_REACTORS
330
25A
102
}
330
1F
100
AcDbEntity
  8
LC-001-002-----0
 62
     7
370
    50
100
AcDbLine
 10
140.853092
 20
229.242986
 30
0.0
 11
140.853092
 21
223.242986
 31
0.0
  0
LINE
  5
B8
102
{ACAD_REACTORS
330
25A
102
}
330
1F
100
AcDbEntity
  8
LC-001-002-----0
 62
     7
370
    50
100
AcDbLine
 10
139.353092
 20
220.242986
 30
0.0
 11
134.553092
 21
220.242986
 31
0.0
  0
LINE
  5
B9
102
{ACAD_REACTORS
330
25A
102
}
330
1F
100
AcDbEntity
  8
LC-001-002-----0
 62
     7
370
    50
100
AcDbLine
 10
134.553092
 20
220.242986
 30
0.0
 11
134.553092
 21
213.242986
 31
0.0
  0
ARC
  5
BA
102
{ACAD_REACTORS
330
25A
102
}
330
1F
100
AcDbEntity
  8
LC-001-002-----0
 62
     7
370
    50
100
AcDbCircle
 10
134.528092
 20
212.442986
 30
0.0
 40
0.8000000000009401
100
AcDbArc
 50
340.0
 51
88.209215
  0
LINE
  5
BB
102
{ACAD_REACTORS
330
25A
102
}
330
1F
100
AcDbEntity
  8
LC-001-002-----0
 62
     7
370
    50
100
AcDbLine
 10
134.032745
 20
208.742986
 30
0.0
 11
91.353092
 21
208.742986
 31
0.0
  0
ARC
  5
BC
102
{ACAD_REACTORS
330
25A
102
}
330
1F
100
AcDbEntity
  8
LC-004-001-----0
 62
     7
370
    50
100
AcDbCircle
 10
135.053092
 20
217.742986
 30
0.0
 40
0.5
100
AcDbArc
 50
90.0
 51
180.0
  0
LINE
  5
BD
102
{ACAD_REACTORS
330
25A
102
}
330
1F
100
AcDbEntity
  8
LC-001-002-----0
 62
     7
370
    50
100
AcDbLine
 10
137.853092
 20
229.242986
 30
0.0
 11
137.853092
 21
222.242986
 31
0.0
  0
INSERT
  5
C3
102
{ACAD_REACTORS
330
25D
102
}
330
1F
100
AcDbEntity
  8
LC-002-005-----0
 62
     7
370
    25
100
AcDbBlockReference
  2
*X33
 10
0.0
 20
0.0
 30
0.0
  0
LINE
  5
C4
102
{ACAD_REACTORS
330
25A
102
}
330
1F
100
AcDbEntity
  8
LC-001-002-----0
 62
     7
370
    50
100
AcDbLine
 10
135.279847
 20
212.16937
 30
0.0
 11
134.032745
 21
208.742986
 31
0.0
  0
LINE
  5
C5
102
{ACAD_REACTORS
330
25A
102
}
330
1F
100
AcDbEntity
  8
LC-004-001-----0
 62
     7
370
    50
100
AcDbLine
 10
136.453092
 20
218.242986
 30
0.0
 11
135.053092
 21
218.242986
 31
0.0
  0
LINE
  5
C6
102
{ACAD_REACTORS
330
25A
102
}
330
1F
100
AcDbEntity
  8
LC-001-002-----0
 62
     7
370
    50
100
AcDbLine
 10
133.353092
 20
222.242986
 30
0.0
 11
91.353092
 21
222.242986
 31
0.0
  0
LINE
  5
C7
102
{ACAD_REACTORS
330
25A
102
}
330
1F
100
AcDbEntity
  8
LC-001-002-----0
 62
     7
370
    50
100
AcDbLine
 10
140.853092
 20
218.242986
 30
0.0
 11
140.853092
 21
222.242986
 31
0.0
  0
INSERT
  5
CF
102
{ACAD_REACTORS
330
25D
102
}
330
1F
100
AcDbEntity
  8
LC-002-005-----0
 62
     7
370
    25
100
AcDbBlockReference
  2
*X44
 10
0.0
 20
0.0
 30
0.0
  0
LINE
  5
D0
102
{ACAD_REACTORS
330
25A
102
}
330
1F
100
AcDbEntity
  8
LC-001-002-----0
 62
     7
370
    50
100
AcDbLine
 10
140.353092
 20
229.742986
 30
0.0
 11
91.353092
 21
229.742986
 31
0.0
  0
LINE
  5
D1
102
{ACAD_REACTORS
330
25A
102
}
330
1F
100
AcDbEntity
  8
LC-001-002-----0
 62
     7
370
    50
100
AcDbLine
 10
141.853092
 20
222.242986
 30
0.0
 11
141.853092
 21
223.242986
 31
0.0
  0
INSERT
  5
D6
102
{ACAD_REACTORS
330
25D
102
}
330
1F
100
AcDbEntity
  8
LC-002-005-----0
 62
     7
370
    25
100
AcDbBlockReference
  2
*X55
 10
0.0
 20
0.0
 30
0.0
  0
LINE
  5
D7
102
{ACAD_REACTORS
330
25D
102
}
330
1F
100
AcDbEntity
  8
LC-001-002-----0
 62
     7
370
    50
100
AcDbLine
 10
83.853092
 20
225.242986
 30
0.0
 11
82.353092
 21
225.242986
 31
0.0
  0
LINE
  5
D8
102
{ACAD_REACTORS
330
25D
102
}
330
1F
100
AcDbEntity
  8
LC-001-002-----0
 62
     7
370
    50
100
AcDbLine
 10
82.353092
 20
225.242986
 30
0.0
 11
76.353092
 21
225.242986
 31
0.0
  0
INSERT
  5
E0
102
{ACAD_REACTORS
330
25D
102
}
330
1F
100
AcDbEntity
  8
LC-002-005-----0
 62
     7
370
    25
100
AcDbBlockReference
  2
*X66
 10
0.0
 20
0.0
 30
0.0
  0
LINE
  5
E1
102
{ACAD_REACTORS
330
25D
102
}
330
1F
100
AcDbEntity
  8
LC-001-002-----0
 62
     7
370
    50
100
AcDbLine
 10
83.853092
 20
226.742986
 30
0.0
 11
83.853092
 21
225.242986
 31
0.0
  0
LINE
  5
E2
102
{ACAD_REACTORS
330
25D
102
}
330
1F
100
AcDbEntity
  8
LC-001-002-----0
 62
     7
370
    50
100
AcDbLine
 10
74.853092
 20
226.742986
 30
0.0
 11
74.853092
 21
225.242986
 31
0.0
  0
LINE
  5
E3
102
{ACAD_REACTORS
330
25D
102
}
330
1F
100
AcDbEntity
  8
LC-001-002-----0
 62
     7
370
    50
100
AcDbLine
 10
84.853092
 20
227.742986
 30
0.0
 11
91.353092
 21
227.742986
 31
0.0
  0
LINE
  5
E4
102
{ACAD_REACTORS
330
25D
102
}
330
1F
100
AcDbEntity
  8
LC-001-002-----0
 62
     7
370
    50
100
AcDbLine
 10
72.853092
 20
227.742986
 30
0.0
 11
73.853092
 21
227.742986
 31
0.0
  0
LINE
  5
E5
102
{ACAD_REACTORS
330
25D
102
}
330
1F
100
AcDbEntity
  8
LC-001-002-----0
 62
     7
370
    50
100
AcDbLine
 10
60.853092
 20
227.742986
 30
0.0
 11
61.853092
 21
227.742986
 31
0.0
  0
ARC
  5
E6
102
{ACAD_REACTORS
330
25D
102
}
330
1F
100
AcDbEntity
  8
LC-001-002-----0
 62
     7
370
    50
100
AcDbCircle
 10
84.853092
 20
226.742986
 30
0.0
 40
2.499999999997215
100
AcDbArc
 50
90.0
 51
180.0
  0
LINE
  5
E7
102
{ACAD_REACTORS
330
25D
102
}
330
1F
100
AcDbEntity
  8
LC-001-002-----0
 62
     7
370
    50
100
AcDbLine
 10
76.353092
 20
225.242986
 30
0.0
 11
74.853092
 21
225.242986
 31
0.0
  0
LINE
  5
E8
102
{ACAD_REACTORS
330
25A
102
}
330
1F
100
AcDbEntity
  8
LC-001-002-----0
 62
     7
370
    50
100
AcDbLine
 10
135.053092
 20
218.242986
 30
0.0
 11
140.853092
 21
218.242986
 31
0.0
  0
LINE
  5
E9
102
{ACAD_REACTORS
330
25D
102
}
330
1F
100
AcDbEntity
  8
LC-001-002-----0
 62
     7
370
    50
100
AcDbLine
 10
71.853092
 20
225.242986
 30
0.0
 11
70.353092
 21
225.242986
 31
0.0
  0
LINE
  5
EA
102
{ACAD_REACTORS
330
25D
102
}
330
1F
100
AcDbEntity
  8
LC-001-002-----0
 62
     7
370
    50
100
AcDbLine
 10
70.353092
 20
225.242986
 30
0.0
 11
64.353092
 21
225.242986
 31
0.0
  0
LINE
  5
EB
330
1F
100
AcDbEntity
  8
LC-001-002-----0
 62
     7
370
    50
100
AcDbLine
 10
134.353092
 20
207.242986
 30
0.0
 11
91.353092
 21
207.242986
 31
0.0
  0
LINE
  5
EC
102
{ACAD_REACTORS
330
25D
102
}
330
1F
100
AcDbEntity
  8
LC-001-002-----0
 62
     7
370
    50
100
AcDbLine
 10
64.353092
 20
225.242986
 30
0.0
 11
62.853092
 21
225.242986
 31
0.0
  0
LINE
  5
ED
102
{ACAD_REACTORS
330
25A
102
}
330
1F
100
AcDbEntity
  8
LC-001-002-----0
 62
     7
370
    50
100
AcDbLine
 10
137.853092
 20
224.242986
 30
0.0
 11
91.353092
 21
224.242986
 31
0.0
  0
LINE
  5
EE
102
{ACAD_REACTORS
330
25D
102
}
330
1F
100
AcDbEntity
  8
LC-001-002-----0
 62
     7
370
    50
100
AcDbLine
 10
59.853092
 20
225.242986
 30
0.0
 11
58.353092
 21
225.242986
 31
0.0
  0
LINE
  5
EF
102
{ACAD_REACTORS
330
25D
102
}
330
1F
100
AcDbEntity
  8
LC-001-002-----0
 62
     7
370
    50
100
AcDbLine
 10
58.353092
 20
225.242986
 30
0.0
 11
52.353092
 21
225.242986
 31
0.0
  0
LINE
  5
F0
102
{ACAD_REACTORS
330
25D
102
}
330
1F
100
AcDbEntity
  8
LC-001-002-----0
 62
     7
370
    50
100
AcDbLine
 10
52.353092
 20
225.242986
 30
0.0
 11
50.853092
 21
225.242986
 31
0.0
  0
ARC
  5
F1
102
{ACAD_REACTORS
330
25D
102
}
330
1F
100
AcDbEntity
  8
LC-003-002-RND-0
 62
     7
370
    50
100
AcDbCircle
 10
49.853092
 20
226.742986
 30
0.0
 40
1.0
100
AcDbArc
 50
360.0
 51
90.0
  0
ARC
  5
F2
102
{ACAD_REACTORS
330
25D
102
}
330
1F
100
AcDbEntity
  8
LC-003-002-RND-0
 62
     7
370
    50
100
AcDbCircle
 10
49.853092
 20
226.742986
 30
0.0
 40
2.5
100
AcDbArc
 50
0.0
 51
90.0
  0
ARC
  5
F3
102
{ACAD_REACTORS
330
25C
102
}
330
1F
100
AcDbEntity
  8
LC-003-002-RND-0
 62
     7
370
    50
100
AcDbCircle
 10
344.353092
 20
217.984815
 30
0.0
 40
2.5
100
AcDbArc
 50
0.0
 51
90.0
  0
ARC
  5
F4
102
{ACAD_REACTORS
330
25C
102
}
330
1F
100
AcDbEntity
  8
LC-003-002-RND-0
 62
     7
370
    50
100
AcDbCircle
 10
258.353092
 20
217.984815
 30
0.0
 40
2.5
100
AcDbArc
 50
90.0
 51
180.0
  0
ARC
  5
F5
102
{ACAD_REACTORS
330
25C
102
}
330
1F
100
AcDbEntity
  8
LC-003-002-RND-0
 62
     7
370
    50
100
AcDbCircle
 10
258.353092
 20
131.984815
 30
0.0
 40
2.5
100
AcDbArc
 50
180.0
 51
270.0
  0
ARC
  5
F6
102
{ACAD_REACTORS
330
25C
102
}
330
1F
100
AcDbEntity
  8
LC-003-002-RND-0
 62
     7
370
    50
100
AcDbCircle
 10
344.353092
 20
131.984815
 30
0.0
 40
2.5
100
AcDbArc
 50
270.0
 51
0.0
  0
ARC
  5
F7
102
{ACAD_REACTORS
330
25D
102
}
330
1F
100
AcDbEntity
  8
LC-003-002-RND-0
 62
     7
370
    50
100
AcDbCircle
 10
60.853092
 20
226.742986
 30
0.0
 40
2.5
100
AcDbArc
 50
90.0
 51
180.0
  0
ARC
  5
F8
102
{ACAD_REACTORS
330
25D
102
}
330
1F
100
AcDbEntity
  8
LC-003-002-RND-0
 62
     7
370
    50
100
AcDbCircle
 10
61.853092
 20
226.742986
 30
0.0
 40
2.499999999999993
100
AcDbArc
 50
0.0
 51
90.0
  0
ARC
  5
F9
102
{ACAD_REACTORS
330
25C
102
}
330
1F
100
AcDbEntity
  8
LC-001-002-----0
 62
     7
370
    50
100
AcDbCircle
 10
304.853092
 20
162.984815
 30
0.0
 40
3.0
100
AcDbArc
 50
270.0
 51
90.0
  0
ARC
  5
FA
102
{ACAD_REACTORS
330
25C
102
}
330
1F
100
AcDbEntity
  8
LC-001-002-----0
 62
     7
370
    50
100
AcDbCircle
 10
297.853092
 20
186.984815
 30
0.0
 40
3.0
100
AcDbArc
 50
90.0
 51
270.0
  0
LINE
  5
FB
102
{ACAD_REACTORS
330
25C
102
}
330
1F
100
AcDbEntity
  8
LC-001-002-----0
 62
     7
370
    50
100
AcDbLine
 10
297.853092
 20
159.984815
 30
0.0
 11
304.853092
 21
159.984815
 31
0.0
  0
LINE
  5
FC
102
{ACAD_REACTORS
330
25C
102
}
330
1F
100
AcDbEntity
  8
LC-001-002-----0
 62
     7
370
    50
100
AcDbLine
 10
304.853092
 20
189.984815
 30
0.0
 11
297.853092
 21
189.984815
 31
0.0
  0
LINE
  5
FD
102
{ACAD_REACTORS
330
25C
102
}
330
1F
100
AcDbEntity
  8
LC-001-002-----0
 62
     7
370
    50
100
AcDbLine
 10
297.853092
 20
165.984815
 30
0.0
 11
304.853092
 21
165.984815
 31
0.0
  0
ARC
  5
FE
102
{ACAD_REACTORS
330
25D
102
}
330
1F
100
AcDbEntity
  8
LC-003-002-RND-0
 62
     7
370
    50
100
AcDbCircle
 10
72.853092
 20
226.742986
 30
0.0
 40
2.5
100
AcDbArc
 50
90.0
 51
180.0
  0
ARC
  5
FF
102
{ACAD_REACTORS
330
25C
102
}
330
1F
100
AcDbEntity
  8
LC-001-002-----0
 62
     7
370
    50
100
AcDbCircle
 10
265.353092
 20
200.984815
 30
0.0
 40
3.0
100
AcDbArc
 50
0.0
 51
180.0
  0
ARC
  5
100
102
{ACAD_REACTORS
330
25C
102
}
330
1F
100
AcDbEntity
  8
LC-001-002-----0
 62
     7
370
    50
100
AcDbCircle
 10
265.353092
 20
148.984815
 30
0.0
 40
3.0
100
AcDbArc
 50
180.0
 51
0.0
  0
LINE
  5
101
102
{ACAD_REACTORS
330
25C
102
}
330
1F
100
AcDbEntity
  8
LC-001-002-----0
 62
     7
370
    50
100
AcDbLine
 10
268.353092
 20
200.984815
 30
0.0
 11
268.353092
 21
148.984815
 31
0.0
  0
LINE
  5
102
102
{ACAD_REACTORS
330
25C
102
}
330
1F
100
AcDbEntity
  8
LC-001-002-----0
 62
     7
370
    50
100
AcDbLine
 10
262.353092
 20
200.984815
 30
0.0
 11
262.353092
 21
148.984815
 31
0.0
  0
LINE
  5
103
102
{ACAD_REACTORS
330
25C
102
}
330
1F
100
AcDbEntity
  8
LC-001-002-----0
 62
     7
370
    50
100
AcDbLine
 10
304.853092
 20
183.984815
 30
0.0
 11
297.853092
 21
183.984815
 31
0.0
  0
ARC
  5
104
102
{ACAD_REACTORS
330
25D
102
}
330
1F
100
AcDbEntity
  8
LC-003-002-RND-0
 62
     7
370
    50
100
AcDbCircle
 10
73.853092
 20
226.742986
 30
0.0
 40
2.5
100
AcDbArc
 50
0.0
 51
90.0
  0
LINE
  5
105
102
{ACAD_REACTORS
330
25D
102
}
330
1F
100
AcDbEntity
  8
LC-001-002-----0
 62
     7
370
    50
100
AcDbLine
 10
45.853092
 20
226.742986
 30
0.0
 11
45.853092
 21
224.242986
 31
0.0
  0
ARC
  5
106
102
{ACAD_REACTORS
330
25C
102
}
330
1F
100
AcDbEntity
  8
LC-001-002-----0
 62
     7
370
    50
100
AcDbCircle
 10
277.353092
 20
159.984815
 30
0.0
 40
3.0
100
AcDbArc
 50
180.0
 51
0.0
  0
ARC
  5
107
102
{ACAD_REACTORS
330
25C
102
}
330
1F
100
AcDbEntity
  8
LC-001-002-----0
 62
     7
370
    50
100
AcDbCircle
 10
277.353092
 20
189.984815
 30
0.0
 40
3.0
100
AcDbArc
 50
0.0
 51
180.0
  0
LINE
  5
108
102
{ACAD_REACTORS
330
25C
102
}
330
1F
100
AcDbEntity
  8
LC-001-002-----0
 62
     7
370
    50
100
AcDbLine
 10
274.353092
 20
159.984815
 30
0.0
 11
274.353092
 21
189.984815
 31
0.0
  0
LINE
  5
109
102
{ACAD_REACTORS
330
25D
102
}
330
1F
100
AcDbEntity
  8
LC-001-002-----0
 62
     7
370
    50
100
AcDbLine
 10
45.853092
 20
224.242986
 30
0.0
 11
47.353092
 21
224.242986
 31
0.0
  0
LINE
  5
10A
102
{ACAD_REACTORS
330
25D
102
}
330
1F
100
AcDbEntity
  8
LC-001-002-----0
 62
     7
370
    50
100
AcDbLine
 10
47.353092
 20
224.242986
 30
0.0
 11
91.353092
 21
224.242986
 31
0.0
  0
ARC
  5
10B
102
{ACAD_REACTORS
330
25A
102
}
330
1F
100
AcDbEntity
  8
LC-003-002-RND-0
 62
     7
370
    50
100
AcDbCircle
 10
140.353092
 20
229.242986
 30
0.0
 40
0.5
100
AcDbArc
 50
0.0
 51
90.0
  0
ARC
  5
10C
102
{ACAD_REACTORS
330
25A
102
}
330
1F
100
AcDbEntity
  8
LC-003-002-RND-0
 62
     7
370
    50
100
AcDbCircle
 10
138.353092
 20
229.242986
 30
0.0
 40
0.5
100
AcDbArc
 50
90.0
 51
180.0
  0
LINE
  5
10D
102
{ACAD_REACTORS
330
25A
102
}
330
1F
100
AcDbEntity
  8
LC-001-002-----0
 62
     7
370
    50
100
AcDbLine
 10
133.353092
 20
221.242986
 30
0.0
 11
133.353092
 21
208.742986
 31
0.0
  0
INSERT
  5
11D
102
{ACAD_REACTORS
330
25A
102
}
330
1F
100
AcDbEntity
  8
LC-002-005-----0
 62
     7
370
    25
100
AcDbBlockReference
  2
*X77
 10
0.0
 20
0.0
 30
0.0
  0
LINE
  5
11E
102
{ACAD_REACTORS
330
25A
102
}
330
1F
100
AcDbEntity
  8
LC-001-002-----0
 62
     7
370
    50
100
AcDbLine
 10
133.353092
 20
221.242986
 30
0.0
 11
91.353092
 21
221.242986
 31
0.0
  0
ARC
  5
11F
102
{ACAD_REACTORS
330
25A
102
}
330
1F
100
AcDbEntity
  8
LC-001-002-----0
 62
     7
370
    50
100
AcDbCircle
 10
133.353092
 20
221.742986
 30
0.0
 40
0.5
100
AcDbArc
 50
90.0
 51
270.0
  0
LINE
  5
120
102
{ACAD_REACTORS
330
25A
102
}
330
1F
100
AcDbEntity
  8
LC-001-002-----0
 62
     7
370
    50
100
AcDbLine
 10
139.353092
 20
220.242986
 30
0.0
 11
139.353092
 21
222.242986
 31
0.0
  0
LINE
  5
121
102
{ACAD_REACTORS
330
25C
102
}
330
1F
100
AcDbEntity
  8
LC-001-002-----0
 62
     7
370
    50
100
AcDbLine
 10
280.353092
 20
159.984815
 30
0.0
 11
280.353092
 21
189.984815
 31
0.0
  0
LINE
  5
122
102
{ACAD_REACTORS
330
25A
102
}
330
1F
100
AcDbEntity
  8
LC-001-002-----0
 62
     7
370
    50
100
AcDbLine
 10
139.353092
 20
222.242986
 30
0.0
 11
141.853092
 21
222.242986
 31
0.0
  0
LINE
  5
123
102
{ACAD_REACTORS
330
25D
102
}
330
1F
100
AcDbEntity
  8
LC-001-002-----0
 62
     7
370
    50
100
AcDbLine
 10
91.353092
 20
229.242986
 30
0.0
 11
48.353092
 21
229.242986
 31
0.0
  0
ARC
  5
124
102
{ACAD_REACTORS
330
25C
102
}
330
1F
100
AcDbEntity
  8
LC-001-002-----0
 62
     7
370
    50
100
AcDbCircle
 10
297.853092
 20
162.984815
 30
0.0
 40
3.0
100
AcDbArc
 50
90.0
 51
270.0
  0
ARC
  5
125
102
{ACAD_REACTORS
330
25C
102
}
330
1F
100
AcDbEntity
  8
LC-001-002-----0
 62
     7
370
    50
100
AcDbCircle
 10
304.853092
 20
186.984815
 30
0.0
 40
3.0
100
AcDbArc
 50
270.0
 51
90.0
  0
LINE
  5
126
102
{ACAD_REACTORS
330
25C
102
}
330
1F
100
AcDbEntity
  8
LC-001-002-----0
 62
     7
370
    50
100
AcDbLine
 10
316.353092
 20
153.984815
 30
0.0
 11
286.353092
 21
153.984815
 31
0.0
  0
LINE
  5
127
102
{ACAD_REACTORS
330
25C
102
}
330
1F
100
AcDbEntity
  8
LC-001-002-----0
 62
     7
370
    50
100
AcDbLine
 10
322.353092
 20
189.984815
 30
0.0
 11
322.353092
 21
159.984815
 31
0.0
  0
LINE
  5
128
102
{ACAD_REACTORS
330
25C
102
}
330
1F
100
AcDbEntity
  8
LC-001-002-----0
 62
     7
370
    50
100
AcDbLine
 10
286.353092
 20
195.984815
 30
0.0
 11
316.353092
 21
195.984815
 31
0.0
  0
ARC
  5
129
102
{ACAD_REACTORS
330
25C
102
}
330
1F
100
AcDbEntity
  8
LC-001-002-----0
 62
     7
370
    50
100
AcDbCircle
 10
286.353092
 20
150.984815
 30
0.0
 40
3.0
100
AcDbArc
 50
90.0
 51
270.0
  0
LINE
  5
12A
102
{ACAD_REACTORS
330
25A
102
}
330
1F
100
AcDbEntity
  8
LC-001-002-----0
 62
     7
370
    50
100
AcDbLine
 10
141.853092
 20
223.242986
 30
0.0
 11
140.853092
 21
223.242986
 31
0.0
  0
LINE
  5
12B
102
{ACAD_REACTORS
330
25D
102
}
330
1F
100
AcDbEntity
  8
LC-001-002-----0
 62
     7
370
    50
100
AcDbLine
 10
47.353092
 20
224.242986
 30
0.0
 11
47.353092
 21
226.742986
 31
0.0
  0
ARC
  5
12C
102
{ACAD_REACTORS
330
25C
102
}
330
1F
100
AcDbEntity
  8
LC-001-002-----0
 62
     7
370
    50
100
AcDbCircle
 10
325.353092
 20
159.984815
 30
0.0
 40
3.0
100
AcDbArc
 50
180.0
 51
0.0
  0
ARC
  5
12D
102
{ACAD_REACTORS
330
25C
102
}
330
1F
100
AcDbEntity
  8
LC-001-002-----0
 62
     7
370
    50
100
AcDbCircle
 10
316.353092
 20
198.984815
 30
0.0
 40
3.0
100
AcDbArc
 50
270.0
 51
90.0
  0
LINE
  5
12E
102
{ACAD_REACTORS
330
25D
102
}
330
1F
100
AcDbEntity
  8
LC-001-002-----0
 62
     7
370
    50
100
AcDbLine
 10
48.353092
 20
227.742986
 30
0.0
 11
49.853092
 21
227.742986
 31
0.0
  0
LINE
  5
12F
102
{ACAD_REACTORS
330
25D
102
}
330
1F
100
AcDbEntity
  8
LC-001-002-----0
 62
     7
370
    50
100
AcDbLine
 10
50.853092
 20
226.742986
 30
0.0
 11
50.853092
 21
225.242986
 31
0.0
  0
LINE
  5
130
102
{ACAD_REACTORS
330
25D
102
}
330
1F
100
AcDbEntity
  8
LC-001-002-----0
 62
     7
370
    50
100
AcDbLine
 10
52.353092
 20
226.742986
 30
0.0
 11
52.353092
 21
225.242986
 31
0.0
  0
LINE
  5
131
102
{ACAD_REACTORS
330
25C
102
}
330
1F
100
AcDbEntity
  8
LC-001-002-----0
 62
     7
370
    50
100
AcDbLine
 10
316.353092
 20
147.984815
 30
0.0
 11
286.353092
 21
147.984815
 31
0.0
  0
LINE
  5
132
102
{ACAD_REACTORS
330
25C
102
}
330
1F
100
AcDbEntity
  8
LC-001-002-----0
 62
     7
370
    50
100
AcDbLine
 10
328.353092
 20
189.984815
 30
0.0
 11
328.353092
 21
159.984815
 31
0.0
  0
LINE
  5
133
102
{ACAD_REACTORS
330
25C
102
}
330
1F
100
AcDbEntity
  8
LC-001-002-----0
 62
     7
370
    50
100
AcDbLine
 10
286.353092
 20
201.984815
 30
0.0
 11
316.353092
 21
201.984815
 31
0.0
  0
ARC
  5
134
102
{ACAD_REACTORS
330
25C
102
}
330
1F
100
AcDbEntity
  8
LC-001-002-----0
 62
     7
370
    50
100
AcDbCircle
 10
316.353092
 20
150.984815
 30
0.0
 40
3.0
100
AcDbArc
 50
270.0
 51
90.0
  0
ARC
  5
135
102
{ACAD_REACTORS
330
25C
102
}
330
1F
100
AcDbEntity
  8
LC-001-002-----0
 62
     7
370
    50
100
AcDbCircle
 10
325.353092
 20
189.984815
 30
0.0
 40
3.0
100
AcDbArc
 50
0.0
 51
180.0
  0
ARC
  5
136
102
{ACAD_REACTORS
330
25C
102
}
330
1F
100
AcDbEntity
  8
LC-001-002-----0
 62
     7
370
    50
100
AcDbCircle
 10
286.353092
 20
198.984815
 30
0.0
 40
3.0
100
AcDbArc
 50
90.0
 51
270.0
  0
LINE
  5
137
102
{ACAD_REACTORS
330
25C
102
}
330
1F
100
AcDbEntity
  8
LC-001-002-----0
 62
     7
370
    50
100
AcDbLine
 10
275.353092
 20
141.984815
 30
0.0
 11
327.353092
 21
141.984815
 31
0.0
  0
LINE
  5
138
102
{ACAD_REACTORS
330
25C
102
}
330
1F
100
AcDbEntity
  8
LC-001-002-----0
 62
     7
370
    50
100
AcDbLine
 10
334.353092
 20
148.984815
 30
0.0
 11
334.353092
 21
200.984815
 31
0.0
  0
LINE
  5
139
102
{ACAD_REACTORS
330
25C
102
}
330
1F
100
AcDbEntity
  8
LC-001-002-----0
 62
     7
370
    50
100
AcDbLine
 10
327.353092
 20
207.984815
 30
0.0
 11
275.353092
 21
207.984815
 31
0.0
  0
ARC
  5
13A
102
{ACAD_REACTORS
330
25C
102
}
330
1F
100
AcDbEntity
  8
LC-001-002-----0
 62
     7
370
    50
100
AcDbCircle
 10
327.353092
 20
138.984815
 30
0.0
 40
2.999999999999943
100
AcDbArc
 50
270.0
 51
90.0
  0
ARC
  5
13B
102
{ACAD_REACTORS
330
25C
102
}
330
1F
100
AcDbEntity
  8
LC-001-002-----0
 62
     7
370
    50
100
AcDbCircle
 10
337.353092
 20
200.984815
 30
0.0
 40
3.0
100
AcDbArc
 50
0.0
 51
180.0
  0
ARC
  5
13C
102
{ACAD_REACTORS
330
25C
102
}
330
1F
100
AcDbEntity
  8
LC-001-002-----0
 62
     7
370
    50
100
AcDbCircle
 10
275.353092
 20
210.984815
 30
0.0
 40
3.0
100
AcDbArc
 50
90.0
 51
270.0
  0
LINE
  5
13D
102
{ACAD_REACTORS
330
25C
102
}
330
1F
100
AcDbEntity
  8
LC-001-002-----0
 62
     7
370
    50
100
AcDbLine
 10
275.353092
 20
135.984815
 30
0.0
 11
327.353092
 21
135.984815
 31
0.0
  0
LINE
  5
13E
102
{ACAD_REACTORS
330
25C
102
}
330
1F
100
AcDbEntity
  8
LC-001-002-----0
 62
     7
370
    50
100
AcDbLine
 10
340.353092
 20
148.984815
 30
0.0
 11
340.353092
 21
200.984815
 31
0.0
  0
LINE
  5
13F
102
{ACAD_REACTORS
330
25C
102
}
330
1F
100
AcDbEntity
  8
LC-001-002-----0
 62
     7
370
    50
100
AcDbLine
 10
327.353092
 20
213.984815
 30
0.0
 11
275.353092
 21
213.984815
 31
0.0
  0
LINE
  5
140
102
{ACAD_REACTORS
330
25D
102
}
330
1F
100
AcDbEntity
  8
LC-001-002-----0
 62
     7
370
    50
100
AcDbLine
 10
58.353092
 20
226.742986
 30
0.0
 11
58.353092
 21
225.242986
 31
0.0
  0
LINE
  5
141
102
{ACAD_REACTORS
330
25D
102
}
330
1F
100
AcDbEntity
  8
LC-001-002-----0
 62
     7
370
    50
100
AcDbLine
 10
64.353092
 20
226.742986
 30
0.0
 11
64.353092
 21
225.242986
 31
0.0
  0
LINE
  5
142
102
{ACAD_REACTORS
330
25D
102
}
330
1F
100
AcDbEntity
  8
LC-001-002-----0
 62
     7
370
    50
100
AcDbLine
 10
70.353092
 20
226.742986
 30
0.0
 11
70.353092
 21
225.242986
 31
0.0
  0
ARC
  5
143
102
{ACAD_REACTORS
330
25C
102
}
330
1F
100
AcDbEntity
  8
LC-001-002-----0
 62
     7
370
    50
100
AcDbCircle
 10
275.353092
 20
138.984815
 30
0.0
 40
3.0
100
AcDbArc
 50
90.0
 51
270.0
  0
ARC
  5
144
102
{ACAD_REACTORS
330
25C
102
}
330
1F
100
AcDbEntity
  8
LC-001-002-----0
 62
     7
370
    50
100
AcDbCircle
 10
337.353092
 20
148.984815
 30
0.0
 40
3.0
100
AcDbArc
 50
180.0
 51
0.0
  0
ARC
  5
145
102
{ACAD_REACTORS
330
25C
102
}
330
1F
100
AcDbEntity
  8
LC-001-002-----0
 62
     7
370
    50
100
AcDbCircle
 10
327.353092
 20
210.984815
 30
0.0
 40
3.0
100
AcDbArc
 50
270.0
 51
90.0
  0
LINE
  5
146
102
{ACAD_REACTORS
330
25C
102
}
330
1F
100
AcDbEntity
  8
LC-001-002-----0
 62
     7
370
    50
100
AcDbLine
 10
255.853092
 20
131.984815
 30
0.0
 11
255.853092
 21
217.984815
 31
0.0
  0
LINE
  5
147
102
{ACAD_REACTORS
330
25C
102
}
330
1F
100
AcDbEntity
  8
LC-001-002-----0
 62
     7
370
    50
100
AcDbLine
 10
258.353092
 20
220.484815
 30
0.0
 11
344.353092
 21
220.484815
 31
0.0
  0
LINE
  5
148
102
{ACAD_REACTORS
330
25C
102
}
330
1F
100
AcDbEntity
  8
LC-001-002-----0
 62
     7
370
    50
100
AcDbLine
 10
346.853092
 20
217.984815
 30
0.0
 11
346.853092
 21
131.984815
 31
0.0
  0
LINE
  5
149
102
{ACAD_REACTORS
330
25C
102
}
330
1F
100
AcDbEntity
  8
LC-001-002-----0
 62
     7
370
    50
100
AcDbLine
 10
344.353092
 20
129.484815
 30
0.0
 11
258.353092
 21
129.484815
 31
0.0
  0
LINE
  5
14A
102
{ACAD_REACTORS
330
25D
102
}
330
1F
100
AcDbEntity
  8
LC-001-002-----0
 62
     7
370
    50
100
AcDbLine
 10
76.353092
 20
226.742986
 30
0.0
 11
76.353092
 21
225.242986
 31
0.0
  0
LINE
  5
14B
102
{ACAD_REACTORS
330
25D
102
}
330
1F
100
AcDbEntity
  8
LC-001-002-----0
 62
     7
370
    50
100
AcDbLine
 10
82.353092
 20
226.742986
 30
0.0
 11
82.353092
 21
225.242986
 31
0.0
  0
LINE
  5
14C
102
{ACAD_REACTORS
330
25D
102
}
330
1F
100
AcDbEntity
  8
LC-001-002-----0
 62
     7
370
    50
100
AcDbLine
 10
59.853092
 20
226.742986
 30
0.0
 11
59.853092
 21
225.242986
 31
0.0
  0
LINE
  5
14D
102
{ACAD_REACTORS
330
25D
102
}
330
1F
100
AcDbEntity
  8
LC-001-002-----0
 62
     7
370
    50
100
AcDbLine
 10
62.853092
 20
226.742986
 30
0.0
 11
62.853092
 21
225.242986
 31
0.0
  0
ARC
  5
14E
102
{ACAD_REACTORS
330
261
102
}
330
1F
100
AcDbEntity
  8
LC-003-002-RND-0
 62
     7
370
    50
100
AcDbCircle
 10
134.353092
 20
226.742986
 30
0.0
 40
2.5
100
AcDbArc
 50
0.0
 51
90.0
  0
ARC
  5
14F
102
{ACAD_REACTORS
330
261
102
}
330
1F
100
AcDbEntity
  8
LC-003-002-RND-0
 62
     7
370
    50
100
AcDbCircle
 10
134.353092
 20
226.742986
 30
0.0
 40
1.0
100
AcDbArc
 50
0.0
 51
90.0
  0
ARC
  5
150
102
{ACAD_REACTORS
330
261
102
}
330
1F
100
AcDbEntity
  8
LC-003-002-RND-0
 62
     7
370
    50
100
AcDbCircle
 10
121.853092
 20
226.742986
 30
0.0
 40
1.0
100
AcDbArc
 50
0.0
 51
90.0
  0
ARC
  5
151
102
{ACAD_REACTORS
330
261
102
}
330
1F
100
AcDbEntity
  8
LC-003-002-RND-0
 62
     7
370
    50
100
AcDbCircle
 10
120.853092
 20
226.742986
 30
0.0
 40
1.0
100
AcDbArc
 50
90.0
 51
180.0
  0
ARC
  5
152
102
{ACAD_REACTORS
330
261
102
}
330
1F
100
AcDbEntity
  8
LC-003-002-RND-0
 62
     7
370
    50
100
AcDbCircle
 10
109.853092
 20
226.742986
 30
0.0
 40
1.0
100
AcDbArc
 50
0.0
 51
90.0
  0
ARC
  5
153
102
{ACAD_REACTORS
330
261
102
}
330
1F
100
AcDbEntity
  8
LC-003-002-RND-0
 62
     7
370
    50
100
AcDbCircle
 10
108.853092
 20
226.742986
 30
0.0
 40
1.0
100
AcDbArc
 50
90.0
 51
180.0
  0
ARC
  5
154
102
{ACAD_REACTORS
330
261
102
}
330
1F
100
AcDbEntity
  8
LC-003-002-RND-0
 62
     7
370
    50
100
AcDbCircle
 10
97.853092
 20
226.742986
 30
0.0
 40
1.0
100
AcDbArc
 50
0.0
 51
90.0
  0
INSERT
  5
15A
102
{ACAD_REACTORS
330
261
102
}
330
1F
100
AcDbEntity
  8
LC-002-005-----0
 62
     7
370
    25
100
AcDbBlockReference
  2
*X88
 10
0.0
 20
0.0
 30
0.0
  0
INSERT
  5
161
102
{ACAD_REACTORS
330
261
102
}
330
1F
100
AcDbEntity
  8
LC-002-005-----0
 62
     7
370
    25
100
AcDbBlockReference
  2
*X99
 10
0.0
 20
0.0
 30
0.0
  0
INSERT
  5
168
102
{ACAD_REACTORS
330
261
102
}
330
1F
100
AcDbEntity
  8
LC-002-005-----0
 62
     7
370
    25
100
AcDbBlockReference
  2
*X1010
 10
0.0
 20
0.0
 30
0.0
  0
LINE
  5
169
102
{ACAD_REACTORS
330
261
102
}
330
1F
100
AcDbEntity
  8
LC-001-002-----0
 62
     7
370
    50
100
AcDbLine
 10
98.853092
 20
225.242986
 30
0.0
 11
100.353092
 21
225.242986
 31
0.0
  0
LINE
  5
16A
102
{ACAD_REACTORS
330
261
102
}
330
1F
100
AcDbEntity
  8
LC-001-002-----0
 62
     7
370
    50
100
AcDbLine
 10
100.353092
 20
225.242986
 30
0.0
 11
106.353092
 21
225.242986
 31
0.0
  0
LINE
  5
16B
102
{ACAD_REACTORS
330
25D
102
}
330
1F
100
AcDbEntity
  8
LC-001-002-----0
 62
     7
370
    50
100
AcDbLine
 10
71.853092
 20
226.742986
 30
0.0
 11
71.853092
 21
225.242986
 31
0.0
  0
LINE
  5
16C
102
{ACAD_REACTORS
330
260
102
}
330
1F
100
AcDbEntity
  8
LC-001-002-----0
 62
     7
370
    50
100
AcDbLine
 10
45.353092
 20
213.586131
 30
0.0
 11
45.353092
 21
207.242986
 31
0.0
  0
LINE
  5
16D
102
{ACAD_REACTORS
330
260
102
}
330
1F
100
AcDbEntity
  8
LC-001-002-----0
 62
     7
370
    50
100
AcDbLine
 10
48.353092
 20
216.056116
 30
0.0
 11
47.557137
 21
218.242986
 31
0.0
  0
LINE
  5
16E
102
{ACAD_REACTORS
330
260
102
}
330
1F
100
AcDbEntity
  8
LC-001-002-----0
 62
     7
370
    50
100
AcDbLine
 10
39.353092
 20
210.000345
 30
0.0
 11
39.353092
 21
108.742986
 31
0.0
  0
LINE
  5
16F
102
{ACAD_REACTORS
330
260
102
}
330
1F
100
AcDbEntity
  8
LC-001-002-----0
 62
     7
370
    50
100
AcDbLine
 10
36.353092
 20
109.742986
 30
0.0
 11
36.353092
 21
211.242986
 31
0.0
  0
ARC
  5
170
102
{ACAD_REACTORS
330
261
102
}
330
1F
100
AcDbEntity
  8
LC-001-002-----0
 62
     7
370
    50
100
AcDbCircle
 10
97.853092
 20
226.742986
 30
0.0
 40
2.499999999997215
100
AcDbArc
 50
360.0
 51
90.0
  0
LINE
  5
171
102
{ACAD_REACTORS
330
261
102
}
330
1F
100
AcDbEntity
  8
LC-001-002-----0
 62
     7
370
    50
100
AcDbLine
 10
106.353092
 20
225.242986
 30
0.0
 11
107.853092
 21
225.242986
 31
0.0
  0
LINE
  5
172
102
{ACAD_REACTORS
330
261
102
}
330
1F
100
AcDbEntity
  8
LC-001-002-----0
 62
     7
370
    50
100
AcDbLine
 10
110.853092
 20
225.242986
 30
0.0
 11
112.353092
 21
225.242986
 31
0.0
  0
LINE
  5
173
102
{ACAD_REACTORS
330
261
102
}
330
1F
100
AcDbEntity
  8
LC-001-002-----0
 62
     7
370
    50
100
AcDbLine
 10
112.353092
 20
225.242986
 30
0.0
 11
118.353092
 21
225.242986
 31
0.0
  0
LINE
  5
174
102
{ACAD_REACTORS
330
261
102
}
330
1F
100
AcDbEntity
  8
LC-001-002-----0
 62
     7
370
    50
100
AcDbLine
 10
118.353092
 20
225.242986
 30
0.0
 11
119.853092
 21
225.242986
 31
0.0
  0
LINE
  5
175
102
{ACAD_REACTORS
330
261
102
}
330
1F
100
AcDbEntity
  8
LC-001-002-----0
 62
     7
370
    50
100
AcDbLine
 10
122.853092
 20
225.242986
 30
0.0
 11
124.353092
 21
225.242986
 31
0.0
  0
LINE
  5
176
102
{ACAD_REACTORS
330
261
102
}
330
1F
100
AcDbEntity
  8
LC-001-002-----0
 62
     7
370
    50
100
AcDbLine
 10
124.353092
 20
225.242986
 30
0.0
 11
130.353092
 21
225.242986
 31
0.0
  0
LINE
  5
177
102
{ACAD_REACTORS
330
261
102
}
330
1F
100
AcDbEntity
  8
LC-001-002-----0
 62
     7
370
    50
100
AcDbLine
 10
130.353092
 20
225.242986
 30
0.0
 11
131.853092
 21
225.242986
 31
0.0
  0
ARC
  5
178
102
{ACAD_REACTORS
330
261
102
}
330
1F
100
AcDbEntity
  8
LC-003-002-RND-0
 62
     7
370
    50
100
AcDbCircle
 10
132.853092
 20
226.742986
 30
0.0
 40
1.0
100
AcDbArc
 50
90.0
 51
180.0
  0
ARC
  5
179
102
{ACAD_REACTORS
330
261
102
}
330
1F
100
AcDbEntity
  8
LC-003-002-RND-0
 62
     7
370
    50
100
AcDbCircle
 10
132.853092
 20
226.742986
 30
0.0
 40
2.5
100
AcDbArc
 50
90.0
 51
180.0
  0
ARC
  5
17A
102
{ACAD_REACTORS
330
261
102
}
330
1F
100
AcDbEntity
  8
LC-003-002-RND-0
 62
     7
370
    50
100
AcDbCircle
 10
121.853092
 20
226.742986
 30
0.0
 40
2.499999999999972
100
AcDbArc
 50
360.0
 51
90.0
  0
ARC
  5
17B
102
{ACAD_REACTORS
330
261
102
}
330
1F
100
AcDbEntity
  8
LC-003-002-RND-0
 62
     7
370
    50
100
AcDbCircle
 10
120.853092
 20
226.742986
 30
0.0
 40
2.5
100
AcDbArc
 50
90.0
 51
180.0
  0
ARC
  5
17C
102
{ACAD_REACTORS
330
261
102
}
330
1F
100
AcDbEntity
  8
LC-003-002-RND-0
 62
     7
370
    50
100
AcDbCircle
 10
109.853092
 20
226.742986
 30
0.0
 40
2.5
100
AcDbArc
 50
360.0
 51
90.0
  0
ARC
  5
17D
102
{ACAD_REACTORS
330
261
102
}
330
1F
100
AcDbEntity
  8
LC-003-002-RND-0
 62
     7
370
    50
100
AcDbCircle
 10
108.853092
 20
226.742986
 30
0.0
 40
2.5
100
AcDbArc
 50
90.0
 51
180.0
  0
LINE
  5
17E
102
{ACAD_REACTORS
330
261
102
}
330
1F
100
AcDbEntity
  8
LC-001-002-----0
 62
     7
370
    50
100
AcDbLine
 10
136.853092
 20
226.742986
 30
0.0
 11
136.853092
 21
224.242986
 31
0.0
  0
LINE
  5
17F
102
{ACAD_REACTORS
330
261
102
}
330
1F
100
AcDbEntity
  8
LC-001-002-----0
 62
     7
370
    50
100
AcDbLine
 10
136.853092
 20
224.242986
 30
0.0
 11
135.353092
 21
224.242986
 31
0.0
  0
LINE
  5
180
102
{ACAD_REACTORS
330
261
102
}
330
1F
100
AcDbEntity
  8
LC-001-002-----0
 62
     7
370
    50
100
AcDbLine
 10
135.353092
 20
224.242986
 30
0.0
 11
91.353092
 21
224.242986
 31
0.0
  0
LINE
  5
181
102
{ACAD_REACTORS
330
261
102
}
330
1F
100
AcDbEntity
  8
LC-001-002-----0
 62
     7
370
    50
100
AcDbLine
 10
91.353092
 20
229.242986
 30
0.0
 11
134.353092
 21
229.242986
 31
0.0
  0
LINE
  5
182
102
{ACAD_REACTORS
330
261
102
}
330
1F
100
AcDbEntity
  8
LC-001-002-----0
 62
     7
370
    50
100
AcDbLine
 10
135.353092
 20
224.242986
 30
0.0
 11
135.353092
 21
226.742986
 31
0.0
  0
LINE
  5
183
102
{ACAD_REACTORS
330
261
102
}
330
1F
100
AcDbEntity
  8
LC-001-002-----0
 62
     7
370
    50
100
AcDbLine
 10
134.353092
 20
227.742986
 30
0.0
 11
132.853092
 21
227.742986
 31
0.0
  0
LINE
  5
184
102
{ACAD_REACTORS
330
261
102
}
330
1F
100
AcDbEntity
  8
LC-001-002-----0
 62
     7
370
    50
100
AcDbLine
 10
131.853092
 20
226.742986
 30
0.0
 11
131.853092
 21
225.242986
 31
0.0
  0
LINE
  5
185
102
{ACAD_REACTORS
330
261
102
}
330
1F
100
AcDbEntity
  8
LC-001-002-----0
 62
     7
370
    50
100
AcDbLine
 10
130.353092
 20
226.742986
 30
0.0
 11
130.353092
 21
225.242986
 31
0.0
  0
LINE
  5
186
102
{ACAD_REACTORS
330
261
102
}
330
1F
100
AcDbEntity
  8
LC-001-002-----0
 62
     7
370
    50
100
AcDbLine
 10
124.353092
 20
226.742986
 30
0.0
 11
124.353092
 21
225.242986
 31
0.0
  0
LINE
  5
187
102
{ACAD_REACTORS
330
261
102
}
330
1F
100
AcDbEntity
  8
LC-001-002-----0
 62
     7
370
    50
100
AcDbLine
 10
118.353092
 20
226.742986
 30
0.0
 11
118.353092
 21
225.242986
 31
0.0
  0
LINE
  5
188
102
{ACAD_REACTORS
330
261
102
}
330
1F
100
AcDbEntity
  8
LC-001-002-----0
 62
     7
370
    50
100
AcDbLine
 10
112.353092
 20
226.742986
 30
0.0
 11
112.353092
 21
225.242986
 31
0.0
  0
LINE
  5
189
102
{ACAD_REACTORS
330
261
102
}
330
1F
100
AcDbEntity
  8
LC-001-002-----0
 62
     7
370
    50
100
AcDbLine
 10
106.353092
 20
226.742986
 30
0.0
 11
106.353092
 21
225.242986
 31
0.0
  0
LINE
  5
18A
102
{ACAD_REACTORS
330
261
102
}
330
1F
100
AcDbEntity
  8
LC-001-002-----0
 62
     7
370
    50
100
AcDbLine
 10
100.353092
 20
226.742986
 30
0.0
 11
100.353092
 21
225.242986
 31
0.0
  0
LINE
  5
18B
102
{ACAD_REACTORS
330
261
102
}
330
1F
100
AcDbEntity
  8
LC-001-002-----0
 62
     7
370
    50
100
AcDbLine
 10
122.853092
 20
226.742986
 30
0.0
 11
122.853092
 21
225.242986
 31
0.0
  0
LINE
  5
18C
102
{ACAD_REACTORS
330
261
102
}
330
1F
100
AcDbEntity
  8
LC-001-002-----0
 62
     7
370
    50
100
AcDbLine
 10
119.853092
 20
226.742986
 30
0.0
 11
119.853092
 21
225.242986
 31
0.0
  0
LINE
  5
18D
102
{ACAD_REACTORS
330
261
102
}
330
1F
100
AcDbEntity
  8
LC-001-002-----0
 62
     7
370
    50
100
AcDbLine
 10
110.853092
 20
226.742986
 30
0.0
 11
110.853092
 21
225.242986
 31
0.0
  0
LINE
  5
18E
102
{ACAD_REACTORS
330
261
102
}
330
1F
100
AcDbEntity
  8
LC-001-002-----0
 62
     7
370
    50
100
AcDbLine
 10
107.853092
 20
226.742986
 30
0.0
 11
107.853092
 21
225.242986
 31
0.0
  0
LINE
  5
18F
102
{ACAD_REACTORS
330
261
102
}
330
1F
100
AcDbEntity
  8
LC-001-002-----0
 62
     7
370
    50
100
AcDbLine
 10
98.853092
 20
226.742986
 30
0.0
 11
98.853092
 21
225.242986
 31
0.0
  0
LINE
  5
190
102
{ACAD_REACTORS
330
261
102
}
330
1F
100
AcDbEntity
  8
LC-001-002-----0
 62
     7
370
    50
100
AcDbLine
 10
121.853092
 20
227.742986
 30
0.0
 11
120.853092
 21
227.742986
 31
0.0
  0
LINE
  5
191
102
{ACAD_REACTORS
330
261
102
}
330
1F
100
AcDbEntity
  8
LC-001-002-----0
 62
     7
370
    50
100
AcDbLine
 10
109.853092
 20
227.742986
 30
0.0
 11
108.853092
 21
227.742986
 31
0.0
  0
LINE
  5
192
102
{ACAD_REACTORS
330
261
102
}
330
1F
100
AcDbEntity
  8
LC-001-002-----0
 62
     7
370
    50
100
AcDbLine
 10
97.853092
 20
227.742986
 30
0.0
 11
91.353092
 21
227.742986
 31
0.0
  0
DIMENSION
  5
196
330
1F
100
AcDbEntity
  8
LC-005-003-----0
 62
     7
370
    25
100
AcDbDimension
  2
*D11
 10
146.353092
 20
54.648
 30
0.0
 11
87.653531
 21
85.448
 31
0.0
 70
   160
  1
%%c110
 71
     5
 42
110.0
  3
LC-DIM-L-0140-02-02
100
AcDbAlignedDimension
 13
36.353092
 23
109.742986
 33
0.0
 14
146.353092
 24
109.742986
 34
0.0
100
AcDbRotatedDimension
  0
LINE
  5
1A4
102
{ACAD_REACTORS
330
260
102
}
330
1F
100
AcDbEntity
  8
LC-001-002-----0
 62
     7
370
    50
100
AcDbLine
 10
47.353092
 20
207.242986
 30
0.0
 11
91.353092
 21
207.242986
 31
0.0
  0
INSERT
  5
1AC
102
{ACAD_REACTORS
330
261
102
}
330
1F
100
AcDbEntity
  8
LC-002-005-----0
 62
     7
370
    25
100
AcDbBlockReference
  2
*X1112
 10
0.0
 20
0.0
 30
0.0
  0
LINE
  5
1AD
102
{ACAD_REACTORS
330
260
102
}
330
1F
100
AcDbEntity
  8
LC-001-002-----0
 62
     7
370
    50
100
AcDbLine
 10
48.353092
 20
214.242986
 30
0.0
 11
48.353092
 21
216.056116
 31
0.0
  0
LINE
  5
1AE
102
{ACAD_REACTORS
330
260
102
}
330
1F
100
AcDbEntity
  8
LC-001-002-----0
 62
     7
370
    50
100
AcDbLine
 10
36.353092
 20
211.242986
 30
0.0
 11
43.353092
 21
218.242986
 31
0.0
  0
LINE
  5
1AF
102
{ACAD_REACTORS
330
260
102
}
330
1F
100
AcDbEntity
  8
LC-001-002-----0
 62
     7
370
    50
100
AcDbLine
 10
43.645986
 20
214.293238
 30
0.0
 11
39.353092
 21
210.000345
 31
0.0
  0
LINE
  5
1B0
102
{ACAD_REACTORS
330
260
102
}
330
1F
100
AcDbEntity
  8
LC-001-002-----0
 62
     7
370
    50
100
AcDbLine
 10
48.353092
 20
214.242986
 30
0.0
 11
47.353092
 21
213.242986
 31
0.0
  0
LINE
  5
1B1
102
{ACAD_REACTORS
330
260
102
}
330
1F
100
AcDbEntity
  8
LC-001-002-----0
 62
     7
370
    50
100
AcDbLine
 10
47.353092
 20
213.242986
 30
0.0
 11
47.353092
 21
207.242986
 31
0.0
  0
LINE
  5
1B2
102
{ACAD_REACTORS
330
260
102
}
330
1F
100
AcDbEntity
  8
LC-001-002-----0
 62
     7
370
    50
100
AcDbLine
 10
37.353092
 20
108.742986
 30
0.0
 11
39.353092
 21
108.742986
 31
0.0
  0
LINE
  5
1B3
102
{ACAD_REACTORS
330
260
102
}
330
1F
100
AcDbEntity
  8
LC-001-002-----0
 62
     7
370
    50
100
AcDbLine
 10
37.353092
 20
108.742986
 30
0.0
 11
36.353092
 21
109.742986
 31
0.0
  0
LINE
  5
1B4
102
{ACAD_REACTORS
330
260
102
}
330
1F
100
AcDbEntity
  8
LC-001-002-----0
 62
     7
370
    50
100
AcDbLine
 10
45.353092
 20
207.242986
 30
0.0
 11
47.353092
 21
207.242986
 31
0.0
  0
ARC
  5
1B5
102
{ACAD_REACTORS
330
260
102
}
330
1F
100
AcDbEntity
  8
LC-003-002-RND-0
 62
     7
370
    50
100
AcDbCircle
 10
44.353092
 20
213.586131
 30
0.0
 40
1.000000000000014
100
AcDbArc
 50
360.0
 51
135.0
  0
INSERT
  5
1E5
330
1F
100
AcDbEntity
  8
LC-002-005-----0
 62
     7
370
    25
100
AcDbBlockReference
  2
*X1213
 10
0.0
 20
0.0
 30
0.0
  0
LINE
  5
1E6
330
1F
100
AcDbEntity
  8
LC-001-002-----0
 62
     7
370
    50
100
AcDbLine
 10
143.353092
 20
108.742986
 30
0.0
 11
39.353092
 21
108.742986
 31
0.0
  0
DIMENSION
  5
1E7
330
1F
100
AcDbEntity
  8
LC-005-003-----0
 62
     7
370
    25
100
AcDbDimension
  2
*D14
 10
140.853092
 20
274.4
 30
0.0
 11
91.353092
 21
305.2
 31
0.0
 70
   160
  1
100
 71
     5
 42
99.0
  3
LC-DIM-L-0140-02-02
100
AcDbAlignedDimension
 13
41.853092
 23
229.242986
 33
0.0
 14
140.853092
 24
229.242986
 34
0.0
100
AcDbRotatedDimension
  0
DIMENSION
  5
1F4
330
1F
100
AcDbEntity
  8
LC-005-003-----0
 62
     7
370
    25
100
AcDbDimension
  2
*D15
 10
0.0
 20
222.242986
 30
0.0
 11
-30.8
 21
179.388
 31
0.0
 70
   160
 71
     5
 42
7.5
 53
90.0
  3
LC-DIM-L-0140-02-02
100
AcDbAlignedDimension
 13
43.353092
 23
229.742986
 33
0.0
 14
40.853092
 24
222.242986
 34
0.0
 50
90.0
100
AcDbRotatedDimension
  0
LINE
  5
202
330
1F
100
AcDbEntity
  8
LC-001-002-----0
 62
     7
370
    25
100
AcDbLine
 10
69.68333
 20
298.338
 30
0.0
 11
54.68333
 21
298.338
 31
0.0
  0
LINE
  5
203
330
1F
100
AcDbEntity
  8
LC-001-002-----0
 62
     7
370
    25
100
AcDbLine
 10
54.68333
 20
298.338
 30
0.0
 11
54.68333
 21
283.338
 31
0.0
  0
ARC
  5
204
102
{ACAD_REACTORS
330
262
102
}
330
1F
100
AcDbEntity
  8
LC-001-002-----0
 62
     7
370
    50
100
AcDbCircle
 10
301.353092
 20
174.984815
 30
0.0
 40
55.00000000011257
100
AcDbArc
 50
336.618582
 51
23.381418
  0
ARC
  5
205
102
{ACAD_REACTORS
330
262
102
}
330
1F
100
AcDbEntity
  8
LC-001-002-----0
 62
     7
370
    50
100
AcDbCircle
 10
301.353092
 20
174.984815
 30
0.0
 40
55.00000000011256
100
AcDbArc
 50
66.661707
 51
113.338293
  0
ARC
  5
206
102
{ACAD_REACTORS
330
262
102
}
330
1F
100
AcDbEntity
  8
LC-001-002-----0
 62
     7
370
    50
100
AcDbCircle
 10
301.353092
 20
174.984815
 30
0.0
 40
55.00000000011256
100
AcDbArc
 50
156.661707
 51
203.338293
  0
LINE
  5
207
102
{ACAD_REACTORS
330
263
102
}
330
1F
100
AcDbEntity
  8
LC-001-002-----0
 62
     7
370
    50
100
AcDbLine
 10
146.352583
 20
123.74282
 30
0.0
 11
146.352608
 21
115.742927
 31
0.0
  0
LINE
  5
208
102
{ACAD_REACTORS
330
263
102
}
330
1F
100
AcDbEntity
  8
LC-001-002-----0
 62
     7
370
    50
100
AcDbLine
 10
143.352655
 20
105.743011
 30
0.0
 11
151.352699
 21
105.743011
 31
0.0
  0
LINE
  5
209
102
{ACAD_REACTORS
330
263
102
}
330
1F
100
AcDbEntity
  8
LC-001-002-----0
 62
     7
370
    50
100
AcDbLine
 10
127.046383
 20
105.743011
 30
0.0
 11
127.046383
 21
108.742986
 31
0.0
  0
LINE
  5
20A
102
{ACAD_REACTORS
330
263
102
}
330
1F
100
AcDbEntity
  8
LC-001-002-----0
 62
     7
370
    50
100
AcDbLine
 10
55.659802
 20
105.743011
 30
0.0
 11
55.659802
 21
108.742986
 31
0.0
  0
LINE
  5
20B
102
{ACAD_REACTORS
330
263
102
}
330
1F
100
AcDbEntity
  8
LC-001-002-----0
 62
     7
370
    50
100
AcDbLine
 10
53.538499
 20
105.743011
 30
0.0
 11
53.538499
 21
108.742986
 31
0.0
  0
LINE
  5
20C
102
{ACAD_REACTORS
330
263
102
}
330
1F
100
AcDbEntity
  8
LC-001-002-----0
 62
     7
370
    50
100
AcDbLine
 10
151.352699
 20
105.743011
 30
0.0
 11
151.352699
 21
115.742236
 31
0.0
  0
LINE
  5
20D
102
{ACAD_REACTORS
330
263
102
}
330
1F
100
AcDbEntity
  8
LC-001-002-----0
 62
     7
370
    50
100
AcDbLine
 10
148.352606
 20
125.742842
 30
0.0
 11
148.352606
 21
115.742927
 31
0.0
  0
LINE
  5
20E
102
{ACAD_REACTORS
330
263
102
}
330
1F
100
AcDbEntity
  8
LC-001-002-----0
 62
     7
370
    50
100
AcDbLine
 10
149.852712
 20
115.742927
 30
0.0
 11
151.352699
 21
115.742927
 31
0.0
  0
LINE
  5
20F
102
{ACAD_REACTORS
330
263
102
}
330
1F
100
AcDbEntity
  8
LC-001-002-----0
 62
     7
370
    50
100
AcDbLine
 10
148.352606
 20
125.742842
 30
0.0
 11
146.352583
 21
123.74282
 31
0.0
  0
LINE
  5
210
102
{ACAD_REACTORS
330
263
102
}
330
1F
100
AcDbEntity
  8
LC-001-002-----0
 62
     7
370
    50
100
AcDbLine
 10
149.852712
 20
115.742927
 30
0.0
 11
148.352606
 21
115.742927
 31
0.0
  0
LINE
  5
211
102
{ACAD_REACTORS
330
263
102
}
330
1F
100
AcDbEntity
  8
LC-001-002-----0
 62
     7
370
    50
100
AcDbLine
 10
89.853105
 20
108.742986
 30
0.0
 11
92.85308
 21
108.742986
 31
0.0
  0
LINE
  5
212
102
{ACAD_REACTORS
330
263
102
}
330
1F
100
AcDbEntity
  8
LC-001-002-----0
 62
     7
370
    50
100
AcDbLine
 10
92.85308
 20
105.743011
 30
0.0
 11
92.85308
 21
108.742986
 31
0.0
  0
LINE
  5
213
102
{ACAD_REACTORS
330
263
102
}
330
1F
100
AcDbEntity
  8
LC-001-002-----0
 62
     7
370
    50
100
AcDbLine
 10
48.93863
 20
105.743011
 30
0.0
 11
48.93863
 21
108.742986
 31
0.0
  0
LINE
  5
214
102
{ACAD_REACTORS
330
263
102
}
330
1F
100
AcDbEntity
  8
LC-001-002-----0
 62
     7
370
    50
100
AcDbLine
 10
48.93863
 20
108.742986
 30
0.0
 11
55.659802
 21
108.742986
 31
0.0
  0
LINE
  5
215
102
{ACAD_REACTORS
330
263
102
}
330
1F
100
AcDbEntity
  8
LC-001-002-----0
 62
     7
370
    50
100
AcDbLine
 10
39.35353
 20
105.743011
 30
0.0
 11
92.85308
 21
105.743011
 31
0.0
  0
LINE
  5
216
102
{ACAD_REACTORS
330
263
102
}
330
1F
100
AcDbEntity
  8
LC-001-002-----0
 62
     7
370
    50
100
AcDbLine
 10
92.85308
 20
105.743011
 30
0.0
 11
127.046383
 21
105.743011
 31
0.0
  0
LINE
  5
217
102
{ACAD_REACTORS
330
263
102
}
330
1F
100
AcDbEntity
  8
LC-001-002-----0
 62
     7
370
    50
100
AcDbLine
 10
127.046383
 20
105.743011
 30
0.0
 11
143.331016
 21
105.743011
 31
0.0
  0
LINE
  5
218
102
{ACAD_REACTORS
330
263
102
}
330
1F
100
AcDbEntity
  8
LC-001-002-----0
 62
     7
370
    50
100
AcDbLine
 10
89.853105
 20
105.743011
 30
0.0
 11
89.853105
 21
108.742986
 31
0.0
  0
INSERT
  5
226
102
{ACAD_REACTORS
330
263
102
}
330
1F
100
AcDbEntity
  8
LC-002-005-----0
 62
     7
370
    25
100
AcDbBlockReference
  2
*X1316
 10
0.0
 20
0.0
 30
0.0
  0
LINE
  5
227
102
{ACAD_REACTORS
330
263
102
}
330
1F
100
AcDbEntity
  8
LC-001-002-----0
 62
     7
370
    50
100
AcDbLine
 10
36.353601
 20
123.74282
 30
0.0
 11
36.353556
 21
108.742986
 31
0.0
  0
LINE
  5
228
102
{ACAD_REACTORS
330
263
102
}
330
1F
100
AcDbEntity
  8
LC-001-002-----0
 62
     7
370
    50
100
AcDbLine
 10
39.35353
 20
105.743011
 30
0.0
 11
31.353485
 21
105.743011
 31
0.0
  0
LINE
  5
229
102
{ACAD_REACTORS
330
263
102
}
330
1F
100
AcDbEntity
  8
LC-001-002-----0
 62
     7
370
    50
100
AcDbLine
 10
31.353485
 20
105.743011
 30
0.0
 11
31.353485
 21
115.742236
 31
0.0
  0
LINE
  5
22A
102
{ACAD_REACTORS
330
263
102
}
330
1F
100
AcDbEntity
  8
LC-001-002-----0
 62
     7
370
    50
100
AcDbLine
 10
34.353579
 20
125.742842
 30
0.0
 11
34.353579
 21
115.742927
 31
0.0
  0
LINE
  5
22B
102
{ACAD_REACTORS
330
263
102
}
330
1F
100
AcDbEntity
  8
LC-001-002-----0
 62
     7
370
    50
100
AcDbLine
 10
32.853473
 20
115.742927
 30
0.0
 11
31.353485
 21
115.742927
 31
0.0
  0
LINE
  5
22C
102
{ACAD_REACTORS
330
263
102
}
330
1F
100
AcDbEntity
  8
LC-001-002-----0
 62
     7
370
    50
100
AcDbLine
 10
34.353579
 20
125.742842
 30
0.0
 11
36.353601
 21
123.74282
 31
0.0
  0
LINE
  5
22D
102
{ACAD_REACTORS
330
263
102
}
330
1F
100
AcDbEntity
  8
LC-001-002-----0
 62
     7
370
    50
100
AcDbLine
 10
36.353556
 20
108.742986
 30
0.0
 11
39.35353
 21
108.742986
 31
0.0
  0
LINE
  5
22E
102
{ACAD_REACTORS
330
263
102
}
330
1F
100
AcDbEntity
  8
LC-001-002-----0
 62
     7
370
    50
100
AcDbLine
 10
39.35353
 20
108.742986
 30
0.0
 11
39.35353
 21
105.743011
 31
0.0
  0
LINE
  5
22F
102
{ACAD_REACTORS
330
263
102
}
330
1F
100
AcDbEntity
  8
LC-001-002-----0
 62
     7
370
    50
100
AcDbLine
 10
32.853473
 20
115.742927
 30
0.0
 11
34.353579
 21
115.742927
 31
0.0
  0
LINE
  5
230
102
{ACAD_REACTORS
330
263
102
}
330
1F
100
AcDbEntity
  8
LC-001-002-----0
 62
     7
370
    50
100
AcDbLine
 10
146.352629
 20
108.742986
 30
0.0
 11
143.352655
 21
108.742986
 31
0.0
  0
LINE
  5
231
102
{ACAD_REACTORS
330
263
102
}
330
1F
100
AcDbEntity
  8
LC-001-002-----0
 62
     7
370
    50
100
AcDbLine
 10
143.352655
 20
108.742986
 30
0.0
 11
143.352655
 21
105.743011
 31
0.0
  0
LINE
  5
232
102
{ACAD_REACTORS
330
263
102
}
330
1F
100
AcDbEntity
  8
LC-001-002-----0
 62
     7
370
    50
100
AcDbLine
 10
146.352583
 20
123.74282
 30
0.0
 11
146.352629
 21
108.742986
 31
0.0
  0
LINE
  5
233
102
{ACAD_REACTORS
330
263
102
}
330
1F
100
AcDbEntity
  8
LC-001-002-----0
 62
     7
370
    50
100
AcDbLine
 10
148.352606
 20
125.742842
 30
0.0
 11
146.352583
 21
123.74282
 31
0.0
  0
LINE
  5
234
102
{ACAD_REACTORS
330
263
102
}
330
1F
100
AcDbEntity
  8
LC-001-002-----0
 62
     7
370
    50
100
AcDbLine
 10
148.352606
 20
125.742842
 30
0.0
 11
148.352606
 21
115.742927
 31
0.0
  0
LINE
  5
235
102
{ACAD_REACTORS
330
263
102
}
330
1F
100
AcDbEntity
  8
LC-001-002-----0
 62
     7
370
    50
100
AcDbLine
 10
151.352699
 20
105.743011
 30
0.0
 11
151.352699
 21
115.742236
 31
0.0
  0
LINE
  5
236
102
{ACAD_REACTORS
330
263
102
}
330
1F
100
AcDbEntity
  8
LC-001-002-----0
 62
     7
370
    50
100
AcDbLine
 10
143.352655
 20
105.743011
 30
0.0
 11
151.352699
 21
105.743011
 31
0.0
  0
LINE
  5
237
102
{ACAD_REACTORS
330
263
102
}
330
1F
100
AcDbEntity
  8
LC-001-002-----0
 62
     7
370
    50
100
AcDbLine
 10
133.767555
 20
105.743011
 30
0.0
 11
133.767555
 21
108.742986
 31
0.0
  0
LINE
  5
238
102
{ACAD_REACTORS
330
263
102
}
330
1F
100
AcDbEntity
  8
LC-001-002-----0
 62
     7
370
    50
100
AcDbLine
 10
133.767555
 20
108.742986
 30
0.0
 11
127.046383
 21
108.742986
 31
0.0
  0
LINE
  5
239
102
{ACAD_REACTORS
330
263
102
}
330
1F
100
AcDbEntity
  8
LC-001-002-----0
 62
     7
370
    50
100
AcDbLine
 10
129.167686
 20
105.743011
 30
0.0
 11
129.167686
 21
108.742986
 31
0.0
  0
LINE
  5
23A
330
1F
100
AcDbEntity
  8
LC-001-002-----0
 62
     7
370
    25
100
AcDbLine
 10
69.68333
 20
298.338
 30
0.0
 11
69.68333
 21
283.338
 31
0.0
  0
LINE
  5
23B
330
1F
100
AcDbEntity
  8
LC-001-002-----0
 62
     7
370
    25
100
AcDbLine
 10
69.68333
 20
283.338
 30
0.0
 11
54.68333
 21
283.338
 31
0.0
  0
LINE
  5
23D
330
1F
100
AcDbEntity
  8
LC-001-002-----0
  6
DASHDOT
 62
     7
370
    25
100
AcDbLine
 10
91.353092
 20
105.743011
 30
0.0
 11
91.353092
 21
229.742986
 31
0.0
  0
DIMENSION
  5
23E
330
1F
100
AcDbEntity
  8
LC-005-003-----0
 62
     7
370
    25
100
AcDbDimension
  2
*D17
 10
182.0
 20
122.742986
 30
0.0
 11
151.2
 21
115.742986
 31
0.0
 70
   160
 71
     5
 42
14.0
 53
90.0
  3
LC-DIM-L-0140-02-02
100
AcDbAlignedDimension
 13
145.353092
 23
108.742986
 33
0.0
 14
143.353092
 24
122.742986
 34
0.0
 50
90.0
100
AcDbRotatedDimension
  0
DIMENSION
  5
24D
330
1F
100
AcDbEntity
  8
LC-005-003-----0
 62
     7
370
    25
100
AcDbDimension
  2
*D18
 10
224.0
 20
229.742986
 30
0.0
 11
193.2
 21
176.242986
 31
0.0
 70
   160
  1
15-107
 71
     5
 42
107.0
 53
90.0
  3
LC-DIM-L-0140-02-02
100
AcDbAlignedDimension
 13
143.353092
 23
122.742986
 33
0.0
 14
139.353092
 24
229.742986
 34
0.0
 50
90.0
100
AcDbRotatedDimension
  0
ENDSEC
  0
SECTION
  2
OBJECTS
  0
DICTIONARY
  5
C
330
0
100
AcDbDictionary
281
     1
  3
ACAD_GROUP
350
D
  3
ACAD_LAYOUT
350
1A
  3
ACAD_MLINESTYLE
350
17
  3
ACAD_PLOTSETTINGS
350
19
  3
ACAD_PLOTSTYLENAME
350
E
  0
DICTIONARY
  5
D
102
{ACAD_REACTORS
330
C
102
}
330
C
100
AcDbDictionary
281
     1
  3
LCGROUP112
350
25E
  3
LCGROUP117
350
25F
  3
LCGROUP183
350
262
  3
LCGROUP287
350
25A
  3
LCGROUP370
350
25C
  3
LCGROUP388
350
25D
  3
LCGROUP435
350
261
  3
LCGROUP442
350
260
  3
LCGROUP497
350
263
  3
LCGROUP56
350
25B
  0
DICTIONARY
  5
1A
102
{ACAD_REACTORS
330
C
102
}
330
C
100
AcDbDictionary
281
     1
  3
Layout1
350
1E
  3
Layout2
350
26
  3
Model
350
22
  0
DICTIONARY
  5
17
102
{ACAD_REACTORS
330
C
102
}
330
C
100
AcDbDictionary
281
     1
  3
Standard
350
18
  0
DICTIONARY
  5
19
102
{ACAD_REACTORS
330
C
102
}
330
C
100
AcDbDictionary
281
     1
  0
ACDBDICTIONARYWDFLT
  5
E
102
{ACAD_REACTORS
330
C
102
}
330
C
100
AcDbDictionary
281
     1
  3
Normal
350
F
100
AcDbDictionaryWithDefault
340
F
  0
GROUP
  5
25E
102
{ACAD_REACTORS
330
D
102
}
330
D
100
AcDbGroup
300
Rahmen
 70
     1
 71
     1
340
62
340
63
340
64
340
69
340
6A
340
78
340
79
340
84
340
87
340
88
340
8B
340
8E
340
8F
340
90
340
92
340
93
340
94
340
95
340
96
340
A2
340
A3
340
A4
340
A5
340
A7
340
A8
340
A9
  0
GROUP
  5
25F
102
{ACAD_REACTORS
330
D
102
}
330
D
100
AcDbGroup
300
Rahmenverlõngerung
 70
     1
 71
     1
340
32
340
33
340
85
340
86
340
89
340
8A
340
8C
340
8D
340
91
340
A6
340
AA
340
AB
340
AC
340
AD
  0
GROUP
  5
262
102
{ACAD_REACTORS
330
D
102
}
330
D
100
AcDbGroup
300
verlõngerung
 70
     1
 71
     1
340
B1
340
204
340
205
340
206
  0
GROUP
  5
25A
102
{ACAD_REACTORS
330
D
102
}
330
D
100
AcDbGroup
300
Rahmen
 70
     1
 71
     1
340
82
340
B6
340
B7
340
B8
340
B9
340
BA
340
BB
340
BC
340
BD
340
C4
340
C5
340
C6
340
C7
340
D0
340
D1
340
E8
340
ED
340
10B
340
10C
340
10D
340
11D
340
11E
340
11F
340
120
340
122
340
12A
  0
GROUP
  5
25C
102
{ACAD_REACTORS
330
D
102
}
330
D
100
AcDbGroup
300
GRP370
 70
     1
 71
     1
340
F3
340
F4
340
F5
340
F6
340
F9
340
FA
340
FB
340
FC
340
FD
340
FF
340
100
340
101
340
102
340
103
340
106
340
107
340
108
340
121
340
124
340
125
340
126
340
127
340
128
340
129
340
12C
340
12D
340
131
340
132
340
133
340
134
340
135
340
136
340
137
340
138
340
139
340
13A
340
13B
340
13C
340
13D
340
13E
340
13F
340
143
340
144
340
145
340
146
340
147
340
148
340
149
  0
GROUP
  5
25D
102
{ACAD_REACTORS
330
D
102
}
330
D
100
AcDbGroup
300
rost
 70
     1
 71
     1
340
AE
340
AF
340
B0
340
B2
340
B3
340
B4
340
B5
340
C3
340
CF
340
D6
340
D7
340
D8
340
E0
340
E1
340
E2
340
E3
340
E4
340
E5
340
E6
340
E7
340
E9
340
EA
340
EC
340
EE
340
EF
340
F0
340
F1
340
F2
340
F7
340
F8
340
FE
340
104
340
105
340
109
340
10A
340
123
340
12B
340
12E
340
12F
340
130
340
140
340
141
340
142
340
14A
340
14B
340
14C
340
14D
340
16B
  0
GROUP
  5
261
102
{ACAD_REACTORS
330
D
102
}
330
D
100
AcDbGroup
300
rost
 70
     1
 71
     1
340
14E
340
14F
340
150
340
151
340
152
340
153
340
154
340
15A
340
161
340
168
340
169
340
16A
340
170
340
171
340
172
340
173
340
174
340
175
340
176
340
177
340
178
340
179
340
17A
340
17B
340
17C
340
17D
340
17E
340
17F
340
180
340
181
340
182
340
183
340
184
340
185
340
186
340
187
340
188
340
189
340
18A
340
18B
340
18C
340
18D
340
18E
340
18F
340
190
340
191
340
192
340
1AC
  0
GROUP
  5
260
102
{ACAD_REACTORS
330
D
102
}
330
D
100
AcDbGroup
300
Rahmenverlõngerung
 70
     1
 71
     1
340
16C
340
16D
340
16E
340
16F
340
1A4
340
1AD
340
1AE
340
1AF
340
1B0
340
1B1
340
1B2
340
1B3
340
1B4
340
1B5
  0
GROUP
  5
263
102
{ACAD_REACTORS
330
D
102
}
330
D
100
AcDbGroup
300
Zentrierring
 70
     1
 71
     1
340
207
340
208
340
209
340
20A
340
20B
340
20C
340
20D
340
20E
340
20F
340
210
340
211
340
212
340
213
340
214
340
215
340
216
340
217
340
218
340
226
340
227
340
228
340
229
340
22A
340
22B
340
22C
340
22D
340
22E
340
22F
340
230
340
231
340
232
340
233
340
234
340
235
340
236
340
237
340
238
340
239
  0
GROUP
  5
25B
102
{ACAD_REACTORS
330
D
102
}
330
D
100
AcDbGroup
300
GRP56
 70
     1
 71
     1
340
65
340
66
340
67
340
68
340
6B
340
6C
340
6D
340
6E
340
70
340
71
340
72
340
73
340
74
340
75
340
76
340
77
340
7A
340
7B
340
7C
340
7D
340
7E
340
7F
340
80
340
81
  0
LAYOUT
  5
1E
102
{ACAD_REACTORS
330
1A
102
}
330
1A
100
AcDbPlotSettings
  1

  2

  4

  6

 40
0.0
 41
0.0
 42
0.0
 43
0.0
 44
0.0
 45
0.0
 46
0.0
 47
0.0
 48
0.0
 49
0.0
140
0.0
141
0.0
142
1.0
143
1.0
 70
   688
 72
     0
 73
     0
 74
     5
  7

 75
    16
147
1.0
148
0.0
149
0.0
100
AcDbLayout
  1
Layout1
 70
     1
 71
     1
 10
-210.0
 20
-148.5
 11
630.0
 21
445.5
 12
0.0
 22
0.0
 32
0.0
 14
-210.0
 24
-148.5
 34
0.0
 15
630.0
 25
445.5
 35
0.0
146
0.0
 13
0.0
 23
0.0
 33
0.0
 16
1.0
 26
0.0
 36
0.0
 17
0.0
 27
1.0
 37
0.0
 76
     0
330
1B
  0
LAYOUT
  5
26
102
{ACAD_REACTORS
330
1A
102
}
330
1A
100
AcDbPlotSettings
  1

  2

  4

  6

 40
0.0
 41
0.0
 42
0.0
 43
0.0
 44
0.0
 45
0.0
 46
0.0
 47
0.0
 48
0.0
 49
0.0
140
0.0
141
0.0
142
1.0
143
1.0
 70
   688
 72
     0
 73
     0
 74
     5
  7

 75
    16
147
1.0
148
0.0
149
0.0
100
AcDbLayout
  1
Layout2
 70
     1
 71
     2
 10
0.0
 20
0.0
 11
0.0
 21
0.0
 12
0.0
 22
0.0
 32
0.0
 14
0.0
 24
0.0
 34
0.0
 15
0.0
 25
0.0
 35
0.0
146
0.0
 13
0.0
 23
0.0
 33
0.0
 16
1.0
 26
0.0
 36
0.0
 17
0.0
 27
1.0
 37
0.0
 76
     0
330
23
  0
LAYOUT
  5
22
102
{ACAD_REACTORS
330
1A
102
}
330
1A
100
AcDbPlotSettings
  1

  2

  4

  6

 40
0.0
 41
0.0
 42
0.0
 43
0.0
 44
0.0
 45
0.0
 46
0.0
 47
0.0
 48
0.0
 49
0.0
140
0.0
141
0.0
142
1.0
143
1.0
 70
  1776
 72
     0
 73
     0
 74
     0
  7

 75
     0
147
1.0
148
0.0
149
0.0
100
AcDbLayout
  1
Model
 70
     1
 71
     0
 10
-210.0
 20
-148.5
 11
630.0
 21
445.5
 12
0.0
 22
0.0
 32
0.0
 14
-210.0
 24
-148.5
 34
0.0
 15
630.0
 25
445.5
 35
0.0
146
0.0
 13
0.0
 23
0.0
 33
0.0
 16
1.0
 26
0.0
 36
0.0
 17
0.0
 27
1.0
 37
0.0
 76
     0
330
1F
  0
MLINESTYLE
  5
18
102
{ACAD_REACTORS
330
17
102
}
330
17
100
AcDbMlineStyle
  2
Standard
 70
     0
  3

 62
   256
 51
90.0
 52
90.0
 71
     2
 49
0.5
 62
   256
  6
BYLAYER
 49
-0.5
 62
   256
  6
BYLAYER
  0
ACDBPLACEHOLDER
  5
F
102
{ACAD_REACTORS
330
E
102
}
330
E
  0
ENDSEC
  0
EOF
