  0
SECTION
  2
HEADER
  9
$ACADVER
  1
AC1009
  9
$INSBASE
 10
0.0
 20
0.0
 30
0.0
  9
$EXTMIN
 10
0.0
 20
0.0
 30
0.0
  9
$EXTMAX
 10
840.0
 20
594.0
 30
0.0
  9
$LIMMIN
 10
0.0
 20
0.0
  9
$LIMMAX
 10
840.0
 20
594.0
  9
$ORTHOMODE
 70
     0
  9
$REGENMODE
 70
     1
  9
$FILLMODE
 70
     1
  9
$QTEXTMODE
 70
     0
  9
$MIRRTEXT
 70
     1
  9
$DRAGMODE
 70
     2
  9
$LTSCALE
 40
2.0
  9
$OSMODE
 70
     0
  9
$ATTMODE
 70
     1
  9
$TEXTSIZE
 40
0.2
  9
$TRACEWID
 40
0.05
  9
$TEXTSTYLE
  7
STANDARD
  9
$CLAYER
  8
0
  9
$CELTYPE
  6
BYLAYER
  9
$CECOLOR
 62
     7
  9
$DIMSCALE
 40
2.0
  9
$DIMASZ
 40
3.5
  9
$DIMEXO
 40
0.0625
  9
$DIMDLI
 40
0.38
  9
$DIMRND
 40
0.0
  9
$DIMDLE
 40
0.0
  9
$DIMEXE
 40
0.18
  9
$DIMTP
 40
0.0
  9
$DIMTM
 40
0.0
  9
$DIMTXT
 40
3.5
  9
$DIMCEN
 40
0.09
  9
$DIMTSZ
 40
0.0
  9
$DIMTOL
 70
     0
  9
$DIMLIM
 70
     0
  9
$DIMTIH
 70
     1
  9
$DIMTOH
 70
     1
  9
$DIMSE1
 70
     0
  9
$DIMSE2
 70
     0
  9
$DIMTAD
 70
     1
  9
$DIMZIN
 70
     0
  9
$DIMBLK
  1

  9
$DIMASO
 70
     1
  9
$DIMSHO
 70
     1
  9
$DIMPOST
  1

  9
$DIMAPOST
  1

  9
$DIMALT
 70
     0
  9
$DIMALTD
 70
     2
  9
$DIMALTF
 40
25.4
  9
$DIMLFAC
 40
1.0
  9
$DIMTOFL
 70
     0
  9
$DIMTVP
 40
0.0
  9
$DIMTIX
 70
     0
  9
$DIMSOXD
 70
     0
  9
$DIMSAH
 70
     0
  9
$DIMBLK1
  1

  9
$DIMBLK2
  1

  9
$DIMSTYLE
  2
STANDARD
  9
$DIMCLRD
 70
     0
  9
$DIMCLRE
 70
     0
  9
$DIMCLRT
 70
     0
  9
$DIMTFAC
 40
1.0
  9
$DIMGAP
 40
0.09
  9
$LUNITS
 70
     2
  9
$LUPREC
 70
     2
  9
$AXISMODE
 70
     0
  9
$AXISUNIT
 10
0.0
 20
0.0
  9
$SKETCHINC
 40
0.1
  9
$FILLETRAD
 40
0.0
  9
$AUNITS
 70
     0
  9
$AUPREC
 70
     0
  9
$MENU
  1
acad
  9
$ELEVATION
 40
0.0
  9
$PELEVATION
 40
0.0
  9
$THICKNESS
 40
0.0
  9
$LIMCHECK
 70
     0
  9
$BLIPMODE
 70
     1
  9
$CHAMFERA
 40
0.0
  9
$CHAMFERB
 40
0.0
  9
$SKPOLY
 70
     0
  9
$TDCREATE
 40
0.000000000
  9
$TDUPDATE
 40
0.000000000
  9
$TDINDWG
 40
0.0000000000
  9
$TDUSRTIMER
 40
0.0000000000
  9
$USRTIMER
 70
     1
  9
$ANGBASE
 50
0.0
  9
$ANGDIR
 70
     0
  9
$PDMODE
 70
     0
  9
$PDSIZE
 40
0.0
  9
$PLINEWID
 40
0.0
  9
$COORDS
 70
     0
  9
$SPLFRAME
 70
     0
  9
$SPLINETYPE
 70
     6
  9
$SPLINESEGS
 70
     8
  9
$ATTDIA
 70
     0
  9
$ATTREQ
 70
     1
  9
$HANDLING
 70
     1
  9
$HANDSEED
  5
1A6
  9
$SURFTAB1
 70
     6
  9
$SURFTAB2
 70
     6
  9
$SURFTYPE
 70
     6
  9
$SURFU
 70
     6
  9
$SURFV
 70
     6
  9
$UCSNAME
  2

  9
$UCSORG
 10
0.0
 20
0.0
 30
0.0
  9
$UCSXDIR
 10
1.0
 20
0.0
 30
0.0
  9
$UCSYDIR
 10
0.0
 20
1.0
 30
0.0
  9
$PUCSNAME
  2

  9
$PUCSORG
 10
0.0
 20
0.0
 30
0.0
  9
$PUCSXDIR
 10
1.0
 20
0.0
 30
0.0
  9
$PUCSYDIR
 10
0.0
 20
1.0
 30
0.0
  9
$USERI1
 70
     0
  9
$USERI2
 70
     0
  9
$USERI3
 70
     0
  9
$USERI4
 70
     0
  9
$USERI5
 70
     0
  9
$USERR1
 40
0.0
  9
$USERR2
 40
0.0
  9
$USERR3
 40
0.0
  9
$USERR4
 40
0.0
  9
$USERR5
 40
0.0
  9
$WORLDVIEW
 70
     1
  9
$SHADEDGE
 70
     3
  9
$SHADEDIF
 70
    70
  9
$TILEMODE
 70
     1
  9
$MAXACTVP
 70
    16
  9
$PINSBASE
 10
0.0
 20
0.0
 30
0.0
  9
$PLIMCHECK
 70
     0
  9
$PEXTMIN
 10
1.000000E+20
 20
1.000000E+20
 30
1.000000E+20
  9
$PEXTMAX
 10
-1.000000E+20
 20
-1.000000E+20
 30
-1.000000E+20
  9
$PLIMMIN
 10
0.0
 20
0.0
  9
$PLIMMAX
 10
840.0
 20
594.0
  9
$UNITMODE
 70
     0
  9
$VISRETAIN
 70
     0
  9
$PLINEGEN
 70
     1
  9
$PSLTSCALE
 70
     0
  9
$TREEDEPTH
 70
  3020
  9
$DWGCODEPAGE
  3
dos850
  0
ENDSEC
  0
SECTION
  2
TABLES
  0
TABLE
  2
VPORT
 70
     1
  0
VPORT
  2
*ACTIVE
 70
     0
 10
0.0
 20
0.0
 11
1.0
 21
1.0
 12
420.0
 22
297.0
 13
0.0
 23
0.0
 14
1.0
 24
1.0
 15
0.0
 25
0.0
 16
0.0
 26
0.0
 36
1.0
 17
0.0
 27
0.0
 37
0.0
 40
594.0
 41
1.604229
 42
50.0
 43
0.0
 44
0.0
 50
0.0
 51
0.0
 71
     0
 72
   100
 73
     1
 74
     1
 75
     0
 76
     0
 77
     0
 78
     0
  0
ENDTAB
  0
TABLE
  2
LTYPE
 70
     2
  0
LTYPE
  2
CONTINUOUS
 70
    64
  3
Solid line
 72
    65
 73
     0
 40
0.0
  0
LTYPE
  2
DASHDOT
 70
    64
  3
__ . __ . __ . __ . __
 72
    65
 73
     4
 40
7.5
 49
5.0
 49
-1.25
 49
0.0
 49
-1.25
  0
ENDTAB
  0
TABLE
  2
LAYER
 70
    10
  0
LAYER
  2
0
 70
     0
 62
     7
  6
CONTINUOUS
  0
LAYER
  2
LC-INFO-1-2-MM-A3-0
 70
     1
 62
    -1
  6
CONTINUOUS
  0
LAYER
  2
LC-003-005-----0
 70
     0
 62
     2
  6
CONTINUOUS
  0
LAYER
  2
LC-005-003-MTH-0
 70
     0
 62
     2
  6
CONTINUOUS
  0
LAYER
  2
LC-006-003-MTG-0
 70
     0
 62
     2
  6
CONTINUOUS
  0
LAYER
  2
LC-004-003-----0
 70
     0
 62
     2
  6
CONTINUOUS
  0
LAYER
  2
LC-002-000-----0
 70
     0
 62
     7
  6
CONTINUOUS
  0
LAYER
  2
LC-001-002-----0
 70
     0
 62
     1
  6
CONTINUOUS
  0
LAYER
  2
LC-007-002-RND-0
 70
     0
 62
     1
  6
CONTINUOUS
  0
LAYER
  2
LC-000
 70
     0
 62
     7
  6
CONTINUOUS
  0
ENDTAB
  0
TABLE
  2
STYLE
 70
     4
  0
STYLE
  2
STANDARD
 70
     0
 40
0.0
 41
1.0
 50
0.0
 71
     0
 42
0.0
  3
txt
  4

  0
STYLE
  2
LC-STANDARD
 70
    64
 40
0.0
 41
1.0
 50
0.0
 71
     0
 42
3.5
  3
MONOTXT
  4

  0
STYLE
  2
LC-TXTSTYLE-150-400-0-0-A2
 70
    64
 40
0.0
 41
1.0
 50
15.0
 71
     0
 42
3.5
  3
MONOTXT
  4

  0
STYLE
  2
LC-TXTSTYLE-150-400-0-0-D3
 70
    64
 40
0.0
 41
1.0
 50
15.0
 71
     0
 42
3.5
  3
LC-STANDARD
  4

  0
ENDTAB
  0
TABLE
  2
VIEW
 70
     0
  0
ENDTAB
  0
TABLE
  2
UCS
 70
     0
  0
ENDTAB
  0
TABLE
  2
APPID
 70
     1
  0
APPID
  2
ACAD
 70
     0
  0
ENDTAB
  0
TABLE
  2
DIMSTYLE
 70
     3
  0
DIMSTYLE
  2
STANDARD
 70
     0
  3

  4

  5

  6

  7

 40
1.0
 41
0.18
 42
0.0625
 43
0.38
 44
0.18
 45
0.0
 46
0.0
 47
0.0
 48
0.0
 71
     0
 72
     0
 73
     1
 74
     1
 75
     0
 76
     0
 77
     0
 78
     0
140
0.18
141
0.09
142
0.0
143
25.4
144
1.0
145
0.0
146
1.0
147
0.09
170
     0
171
     2
172
     0
173
     0
174
     0
175
     0
176
     0
177
     0
178
     0
  0
DIMSTYLE
  2
LC-STANDARD
 70
     0
  3

  4

  5

  6

  7

 40
1.0
 41
3.5
 42
0.0
 43
7.5
 44
1.8
 45
0.0
 46
0.0
 47
0.0
 48
0.0
 71
     0
 72
     0
 73
     0
 74
     0
 75
     0
 76
     0
 77
     1
 78
     8
140
3.5
141
0.0
142
0.0
143
25.4
144
1.0
145
0.0
146
0.71
147
1.5
170
     0
171
     2
172
     1
173
     0
174
     0
175
     0
176
     0
177
     0
178
     3
  0
DIMSTYLE
  2
LC-DIM-L-0140-02-02
 70
     0
  3

  4

  5

  6

  7

 40
2.0
 41
3.5
 42
0.0
 43
7.5
 44
1.8
 45
0.0
 46
0.0
 47
0.0
 48
0.0
 71
     0
 72
     0
 73
     0
 74
     0
 75
     0
 76
     0
 77
     1
 78
     8
140
14.0
141
0.0
142
0.0
143
25.4
144
1.0
145
0.0
146
0.71
147
1.5
170
     0
171
     2
172
     0
173
     0
174
     0
175
     0
176
     2
177
     2
178
     8
  0
ENDTAB
  0
ENDSEC
  0
SECTION
  2
BLOCKS
  0
BLOCK
  8
0
  5
23
  2
BLK1
 70
    64
 10
0.0
 20
0.0
 30
0.0
  3
BLK1
  0
ENDBLK
  8
0
  5
24
  0
BLOCK
  8
0
  5
26
  2
*X1
 70
    65
 10
197.84563
 20
361.009125
 30
0.0
  3
*X1
  0
LINE
  8
LC-003-005-----0
  6
CONTINUOUS
  5
28
 10
206.0639
 20
365.278379
 30
0.0
 11
204.614885
 21
366.727395
 31
0.0
  0
LINE
  8
LC-003-005-----0
  6
CONTINUOUS
  5
29
 10
206.34563
 20
362.168222
 30
0.0
 11
205.34563
 21
363.168222
 31
0.0
  0
LINE
  8
LC-003-005-----0
  6
CONTINUOUS
  5
2A
 10
202.504728
 20
366.009125
 30
0.0
 11
201.504728
 21
367.009125
 31
0.0
  0
LINE
  8
LC-003-005-----0
  6
CONTINUOUS
  5
2B
 10
199.909116
 20
365.776309
 30
0.0
 11
199.180702
 21
366.504723
 31
0.0
  0
LINE
  8
LC-003-005-----0
  6
CONTINUOUS
  5
2C
 10
198.845631
 20
364.011367
 30
0.0
 11
197.975324
 21
364.881674
 31
0.0
  0
LINE
  8
LC-003-005-----0
  6
CONTINUOUS
  5
2D
 10
198.019446
 20
362.009125
 30
0.0
 11
197.84563
 21
362.182941
 31
0.0
  0
ENDBLK
  8
0
  5
2E
  0
BLOCK
  8
0
  5
30
  2
*X2
 70
    65
 10
214.34563
 20
361.009125
 30
0.0
  3
*X2
  0
LINE
  8
LC-003-005-----0
  6
CONTINUOUS
  5
31
 10
214.34563
 20
362.653504
 30
0.0
 11
214.990009
 21
362.009125
 31
0.0
  0
LINE
  8
LC-003-005-----0
  6
CONTINUOUS
  5
32
 10
214.602912
 20
365.224649
 30
0.0
 11
215.391689
 21
364.435872
 31
0.0
  0
LINE
  8
LC-003-005-----0
  6
CONTINUOUS
  5
33
 10
215.977163
 20
366.678825
 30
0.0
 11
216.74058
 21
365.915408
 31
0.0
  0
LINE
  8
LC-003-005-----0
  6
CONTINUOUS
  5
34
 10
218.47529
 20
367.009125
 30
0.0
 11
219.479795
 21
366.004619
 31
0.0
  0
LINE
  8
LC-003-005-----0
  6
CONTINUOUS
  5
35
 10
221.341125
 20
364.14329
 30
0.0
 11
222.34563
 21
363.138785
 31
0.0
  0
ENDBLK
  8
0
  5
36
  0
BLOCK
  8
0
  5
38
  2
*X3
 70
    65
 10
230.34563
 20
361.009125
 30
0.0
  3
*X3
  0
LINE
  8
LC-003-005-----0
  6
CONTINUOUS
  5
39
 10
230.34563
 20
363.624066
 30
0.0
 11
231.34563
 21
362.624066
 31
0.0
  0
LINE
  8
LC-003-005-----0
  6
CONTINUOUS
  5
3A
 10
230.964331
 20
365.833793
 30
0.0
 11
231.680757
 21
365.117366
 31
0.0
  0
LINE
  8
LC-003-005-----0
  6
CONTINUOUS
  5
3B
 10
232.689954
 20
366.936596
 30
0.0
 11
233.617426
 21
366.009125
 31
0.0
  0
LINE
  8
LC-003-005-----0
  6
CONTINUOUS
  5
3C
 10
237.34563
 20
362.280921
 30
0.0
 11
237.617426
 21
362.009125
 31
0.0
  0
LINE
  8
LC-003-005-----0
  6
CONTINUOUS
  5
3D
 10
235.447586
 20
367.007392
 30
0.0
 11
238.343897
 21
364.111081
 31
0.0
  0
ENDBLK
  8
0
  5
3E
  0
BLOCK
  8
0
  5
40
  2
*X4
 70
    65
 10
246.34563
 20
361.009125
 30
0.0
  3
*X4
  0
LINE
  8
LC-003-005-----0
  6
CONTINUOUS
  5
41
 10
246.394091
 20
364.546168
 30
0.0
 11
247.34563
 21
363.594629
 31
0.0
  0
LINE
  8
LC-003-005-----0
  6
CONTINUOUS
  5
42
 10
247.441396
 20
366.32729
 30
0.0
 11
248.153608
 21
365.615078
 31
0.0
  0
LINE
  8
LC-003-005-----0
  6
CONTINUOUS
  5
43
 10
249.587989
 20
367.009125
 30
0.0
 11
250.587989
 21
366.009125
 31
0.0
  0
LINE
  8
LC-003-005-----0
  6
CONTINUOUS
  5
44
 10
252.416416
 20
367.009125
 30
0.0
 11
253.416416
 21
366.009125
 31
0.0
  0
LINE
  8
LC-003-005-----0
  6
CONTINUOUS
  5
45
 10
255.244843
 20
367.009125
 30
0.0
 11
256.244843
 21
366.009125
 31
0.0
  0
LINE
  8
LC-003-005-----0
  6
CONTINUOUS
  5
46
 10
258.07327
 20
367.009125
 30
0.0
 11
259.07327
 21
366.009125
 31
0.0
  0
LINE
  8
LC-003-005-----0
  6
CONTINUOUS
  5
47
 10
260.901697
 20
367.009125
 30
0.0
 11
261.901697
 21
366.009125
 31
0.0
  0
LINE
  8
LC-003-005-----0
  6
CONTINUOUS
  5
48
 10
263.730124
 20
367.009125
 30
0.0
 11
264.730124
 21
366.009125
 31
0.0
  0
ENDBLK
  8
0
  5
49
  0
BLOCK
  8
0
  5
4B
  2
*X5
 70
    65
 10
326.34563
 20
361.009125
 30
0.0
  3
*X5
  0
LINE
  8
LC-003-005-----0
  6
CONTINUOUS
  5
4C
 10
334.84563
 20
363.77587
 30
0.0
 11
333.522737
 21
365.098763
 31
0.0
  0
LINE
  8
LC-003-005-----0
  6
CONTINUOUS
  5
4D
 10
332.935268
 20
365.686232
 30
0.0
 11
331.612375
 21
367.009125
 31
0.0
  0
LINE
  8
LC-003-005-----0
  6
CONTINUOUS
  5
4E
 10
329.783948
 20
366.009125
 30
0.0
 11
328.828802
 21
366.964271
 31
0.0
  0
LINE
  8
LC-003-005-----0
  6
CONTINUOUS
  5
4F
 10
327.749878
 20
365.214768
 30
0.0
 11
327.038242
 21
365.926404
 31
0.0
  0
LINE
  8
LC-003-005-----0
  6
CONTINUOUS
  5
50
 10
327.34563
 20
362.790589
 30
0.0
 11
326.34563
 21
363.790589
 31
0.0
  0
ENDBLK
  8
0
  5
51
  0
BLOCK
  8
0
  5
53
  2
*X6
 70
    65
 10
310.34563
 20
361.009125
 30
0.0
  3
*X6
  0
LINE
  8
LC-003-005-----0
  6
CONTINUOUS
  5
54
 10
310.34563
 20
362.820026
 30
0.0
 11
311.156531
 21
362.009125
 31
0.0
  0
LINE
  8
LC-003-005-----0
  6
CONTINUOUS
  5
55
 10
310.65603
 20
365.338053
 30
0.0
 11
311.425478
 21
364.568605
 31
0.0
  0
LINE
  8
LC-003-005-----0
  6
CONTINUOUS
  5
56
 10
312.089175
 20
366.733335
 30
0.0
 11
312.870614
 21
365.951896
 31
0.0
  0
LINE
  8
LC-003-005-----0
  6
CONTINUOUS
  5
57
 10
314.641813
 20
367.009125
 30
0.0
 11
315.667957
 21
365.98298
 31
0.0
  0
LINE
  8
LC-003-005-----0
  6
CONTINUOUS
  5
58
 10
317.319485
 20
364.331452
 30
0.0
 11
318.34563
 21
363.305307
 31
0.0
  0
ENDBLK
  8
0
  5
59
  0
BLOCK
  8
0
  5
5B
  2
*X7
 70
    65
 10
294.34563
 20
361.009125
 30
0.0
  3
*X7
  0
LINE
  8
LC-003-005-----0
  6
CONTINUOUS
  5
5C
 10
294.407631
 20
364.615889
 30
0.0
 11
295.34563
 21
363.67789
 31
0.0
  0
LINE
  8
LC-003-005-----0
  6
CONTINUOUS
  5
5D
 10
295.487523
 20
366.364425
 30
0.0
 11
296.202034
 21
365.649913
 31
0.0
  0
LINE
  8
LC-003-005-----0
  6
CONTINUOUS
  5
5E
 10
297.67125
 20
367.009125
 30
0.0
 11
298.67125
 21
366.009125
 31
0.0
  0
LINE
  8
LC-003-005-----0
  6
CONTINUOUS
  5
5F
 10
301.34563
 20
363.334745
 30
0.0
 11
302.34563
 21
362.334745
 31
0.0
  0
LINE
  8
LC-003-005-----0
  6
CONTINUOUS
  5
60
 10
300.991407
 20
366.517394
 30
0.0
 11
301.853899
 21
365.654902
 31
0.0
  0
ENDBLK
  8
0
  5
61
  0
BLOCK
  8
0
  5
63
  2
*D8
 70
    65
 10
0.0
 20
0.0
 30
0.0
  3
*D8
  0
LINE
  8
LC-005-003-MTH-0
  6
CONTINUOUS
  5
65
 10
191.14563
 20
365.009125
 30
0.0
 11
191.14563
 21
416.8
 31
0.0
  0
LINE
  8
LC-005-003-MTH-0
  6
CONTINUOUS
  5
66
 10
341.54563
 20
365.009125
 30
0.0
 11
341.54563
 21
416.8
 31
0.0
  0
LINE
  8
LC-006-003-MTG-0
  6
CONTINUOUS
  5
68
 10
191.14563
 20
400.0
 30
0.0
 11
341.54563
 21
400.0
 31
0.0
  0
LINE
  8
LC-004-003-----0
  6
CONTINUOUS
  5
6A
 10
218.906086
 20
403.654733
 30
0.0
 11
191.14563
 21
400.0
 31
0.0
  0
LINE
  8
LC-004-003-----0
  6
CONTINUOUS
  5
6B
 10
191.14563
 20
400.0
 30
0.0
 11
218.906086
 21
396.345267
 31
0.0
  0
LINE
  8
LC-004-003-----0
  6
CONTINUOUS
  5
6C
 10
218.906086
 20
396.345267
 30
0.0
 11
218.906086
 21
403.654733
 31
0.0
  0
LINE
  8
LC-004-003-----0
  6
CONTINUOUS
  5
6D
 10
218.968367
 20
402.704503
 30
0.0
 11
198.42563
 21
400.0
 31
0.0
  0
LINE
  8
LC-004-003-----0
  6
CONTINUOUS
  5
6E
 10
198.42563
 20
400.0
 30
0.0
 11
218.968367
 21
397.295497
 31
0.0
  0
LINE
  8
LC-004-003-----0
  6
CONTINUOUS
  5
6F
 10
219.030649
 20
401.754272
 30
0.0
 11
205.70563
 21
400.0
 31
0.0
  0
LINE
  8
LC-004-003-----0
  6
CONTINUOUS
  5
70
 10
205.70563
 20
400.0
 30
0.0
 11
219.030649
 21
398.245728
 31
0.0
  0
LINE
  8
LC-004-003-----0
  6
CONTINUOUS
  5
71
 10
219.09293
 20
400.804041
 30
0.0
 11
212.98563
 21
400.0
 31
0.0
  0
LINE
  8
LC-004-003-----0
  6
CONTINUOUS
  5
72
 10
212.98563
 20
400.0
 30
0.0
 11
219.09293
 21
399.195959
 31
0.0
  0
LINE
  8
LC-004-003-----0
  6
CONTINUOUS
  5
73
 10
313.785174
 20
396.345267
 30
0.0
 11
341.54563
 21
400.0
 31
0.0
  0
LINE
  8
LC-004-003-----0
  6
CONTINUOUS
  5
74
 10
341.54563
 20
400.0
 30
0.0
 11
313.785174
 21
403.654733
 31
0.0
  0
LINE
  8
LC-004-003-----0
  6
CONTINUOUS
  5
75
 10
313.785174
 20
403.654733
 30
0.0
 11
313.785174
 21
396.345267
 31
0.0
  0
LINE
  8
LC-004-003-----0
  6
CONTINUOUS
  5
76
 10
313.722892
 20
397.295497
 30
0.0
 11
334.26563
 21
400.0
 31
0.0
  0
LINE
  8
LC-004-003-----0
  6
CONTINUOUS
  5
77
 10
334.26563
 20
400.0
 30
0.0
 11
313.722892
 21
402.704503
 31
0.0
  0
LINE
  8
LC-004-003-----0
  6
CONTINUOUS
  5
78
 10
313.660611
 20
398.245728
 30
0.0
 11
326.98563
 21
400.0
 31
0.0
  0
LINE
  8
LC-004-003-----0
  6
CONTINUOUS
  5
79
 10
326.98563
 20
400.0
 30
0.0
 11
313.660611
 21
401.754272
 31
0.0
  0
LINE
  8
LC-004-003-----0
  6
CONTINUOUS
  5
7A
 10
313.598329
 20
399.195959
 30
0.0
 11
319.70563
 21
400.0
 31
0.0
  0
LINE
  8
LC-004-003-----0
  6
CONTINUOUS
  5
7B
 10
319.70563
 20
400.0
 30
0.0
 11
313.598329
 21
400.804041
 31
0.0
  0
TEXT
  8
LC-004-003-----0
  6
CONTINUOUS
 62
     8
  5
7D
 10
232.754136
 20
407.827554
 30
0.0
 40
28.0
  1
Ø155
 41
0.9
 51
15.0
  7
LC-TXTSTYLE-150-400-0-0-D0
 72
     1
 11
270.851773
 21
407.827554
 31
0.0
  0
ENDBLK
  8
0
  5
7E
  0
BLOCK
  8
0
  5
80
  2
*X9
 70
    65
 10
266.34563
 20
361.009125
 30
0.0
  3
*X9
  0
LINE
  8
LC-003-005-----0
  6
CONTINUOUS
  5
81
 10
266.558551
 20
367.009125
 30
0.0
 11
267.558551
 21
366.009125
 31
0.0
  0
LINE
  8
LC-003-005-----0
  6
CONTINUOUS
  5
82
 10
269.386979
 20
367.009125
 30
0.0
 11
270.386979
 21
366.009125
 31
0.0
  0
LINE
  8
LC-003-005-----0
  6
CONTINUOUS
  5
83
 10
272.215406
 20
367.009125
 30
0.0
 11
273.215406
 21
366.009125
 31
0.0
  0
LINE
  8
LC-003-005-----0
  6
CONTINUOUS
  5
84
 10
275.043833
 20
367.009125
 30
0.0
 11
276.043833
 21
366.009125
 31
0.0
  0
LINE
  8
LC-003-005-----0
  6
CONTINUOUS
  5
85
 10
277.87226
 20
367.009125
 30
0.0
 11
278.87226
 21
366.009125
 31
0.0
  0
LINE
  8
LC-003-005-----0
  6
CONTINUOUS
  5
86
 10
280.700687
 20
367.009125
 30
0.0
 11
281.700687
 21
366.009125
 31
0.0
  0
LINE
  8
LC-003-005-----0
  6
CONTINUOUS
  5
87
 10
285.34563
 20
362.364182
 30
0.0
 11
285.700687
 21
362.009125
 31
0.0
  0
LINE
  8
LC-003-005-----0
  6
CONTINUOUS
  5
88
 10
283.535104
 20
367.003135
 30
0.0
 11
286.33964
 21
364.198598
 31
0.0
  0
ENDBLK
  8
0
  5
89
  0
BLOCK
  8
0
  5
8B
  2
*X10
 70
    65
 10
189.14563
 20
360.009125
 30
0.0
  3
*X10
  0
LINE
  8
LC-003-005-----0
  6
CONTINUOUS
  5
8C
 10
198.788778
 20
360.009125
 30
0.0
 11
198.84563
 21
360.065976
 31
0.0
  0
LINE
  8
LC-003-005-----0
  6
CONTINUOUS
  5
8D
 10
196.641814
 20
360.690588
 30
0.0
 11
197.351978
 21
361.400752
 31
0.0
  0
LINE
  8
LC-003-005-----0
  6
CONTINUOUS
  5
8E
 10
196.14563
 20
363.02283
 30
0.0
 11
197.14563
 21
364.02283
 31
0.0
  0
LINE
  8
LC-003-005-----0
  6
CONTINUOUS
  5
8F
 10
190.303497
 20
360.009125
 30
0.0
 11
192.14563
 21
361.851257
 31
0.0
  0
LINE
  8
LC-003-005-----0
  6
CONTINUOUS
  5
90
 10
195.927251
 20
365.632878
 30
0.0
 11
196.636572
 21
366.3422
 31
0.0
  0
LINE
  8
LC-003-005-----0
  6
CONTINUOUS
  5
91
 10
191.14563
 20
363.679684
 30
0.0
 11
192.14563
 21
364.679684
 31
0.0
  0
LINE
  8
LC-003-005-----0
  6
CONTINUOUS
  5
92
 10
193.47507
 20
366.009125
 30
0.0
 11
194.47507
 21
367.009125
 31
0.0
  0
ENDBLK
  8
0
  5
93
  0
BLOCK
  8
0
  5
95
  2
*X11
 70
    65
 10
332.54563
 20
360.009125
 30
0.0
  3
*X11
  0
LINE
  8
LC-003-005-----0
  6
CONTINUOUS
  5
96
 10
343.038562
 20
360.009125
 30
0.0
 11
343.54563
 21
360.516193
 31
0.0
  0
LINE
  8
LC-003-005-----0
  6
CONTINUOUS
  5
97
 10
340.830571
 20
360.629561
 30
0.0
 11
341.566658
 21
361.365648
 31
0.0
  0
LINE
  8
LC-003-005-----0
  6
CONTINUOUS
  5
98
 10
340.54563
 20
363.173047
 30
0.0
 11
341.54563
 21
364.173047
 31
0.0
  0
LINE
  8
LC-003-005-----0
  6
CONTINUOUS
  5
99
 10
334.553295
 20
360.009139
 30
0.0
 11
336.545615
 21
362.001459
 31
0.0
  0
LINE
  8
LC-003-005-----0
  6
CONTINUOUS
  5
9A
 10
340.256552
 20
365.712396
 30
0.0
 11
340.963664
 21
366.419508
 31
0.0
  0
LINE
  8
LC-003-005-----0
  6
CONTINUOUS
  5
9B
 10
335.54563
 20
363.829901
 30
0.0
 11
336.54563
 21
364.829901
 31
0.0
  0
LINE
  8
LC-003-005-----0
  6
CONTINUOUS
  5
9C
 10
337.724853
 20
366.009125
 30
0.0
 11
338.724853
 21
367.009125
 31
0.0
  0
ENDBLK
  8
0
  5
9D
  0
BLOCK
  8
0
  5
9F
  2
BLK2
 70
    64
 10
0.0
 20
0.0
 30
0.0
  3
BLK2
  0
ENDBLK
  8
0
  5
A0
  0
BLOCK
  8
0
  5
A2
  2
*D13
 70
    65
 10
0.0
 20
0.0
 30
0.0
  3
*D13
  0
LINE
  8
LC-005-003-MTH-0
  6
CONTINUOUS
  5
A3
 10
189.14563
 20
360.009125
 30
0.0
 11
143.2
 21
360.009125
 31
0.0
  0
LINE
  8
LC-005-003-MTH-0
  6
CONTINUOUS
  5
A4
 10
193.14563
 20
367.009125
 30
0.0
 11
143.2
 21
367.009125
 31
0.0
  0
LINE
  8
LC-004-003-----0
  6
CONTINUOUS
  5
A5
 10
163.654733
 20
332.248668
 30
0.0
 11
160.0
 21
360.009125
 31
0.0
  0
LINE
  8
LC-004-003-----0
  6
CONTINUOUS
  5
A6
 10
160.0
 20
360.009125
 30
0.0
 11
156.345267
 21
332.248668
 31
0.0
  0
LINE
  8
LC-004-003-----0
  6
CONTINUOUS
  5
A7
 10
156.345267
 20
332.248668
 30
0.0
 11
163.654733
 21
332.248668
 31
0.0
  0
LINE
  8
LC-004-003-----0
  6
CONTINUOUS
  5
A8
 10
162.704503
 20
332.186387
 30
0.0
 11
160.0
 21
352.729125
 31
0.0
  0
LINE
  8
LC-004-003-----0
  6
CONTINUOUS
  5
A9
 10
160.0
 20
352.729125
 30
0.0
 11
157.295497
 21
332.186387
 31
0.0
  0
LINE
  8
LC-004-003-----0
  6
CONTINUOUS
  5
AA
 10
161.754272
 20
332.124106
 30
0.0
 11
160.0
 21
345.449125
 31
0.0
  0
LINE
  8
LC-004-003-----0
  6
CONTINUOUS
  5
AB
 10
160.0
 20
345.449125
 30
0.0
 11
158.245728
 21
332.124106
 31
0.0
  0
LINE
  8
LC-004-003-----0
  6
CONTINUOUS
  5
AC
 10
160.804041
 20
332.061824
 30
0.0
 11
160.0
 21
338.169125
 31
0.0
  0
LINE
  8
LC-004-003-----0
  6
CONTINUOUS
  5
AD
 10
160.0
 20
338.169125
 30
0.0
 11
159.195959
 21
332.061824
 31
0.0
  0
LINE
  8
LC-004-003-----0
  6
CONTINUOUS
  5
AE
 10
156.345267
 20
394.769581
 30
0.0
 11
160.0
 21
367.009125
 31
0.0
  0
LINE
  8
LC-004-003-----0
  6
CONTINUOUS
  5
AF
 10
160.0
 20
367.009125
 30
0.0
 11
163.654733
 21
394.769581
 31
0.0
  0
LINE
  8
LC-004-003-----0
  6
CONTINUOUS
  5
B0
 10
163.654733
 20
394.769581
 30
0.0
 11
156.345267
 21
394.769581
 31
0.0
  0
LINE
  8
LC-004-003-----0
  6
CONTINUOUS
  5
B1
 10
157.295497
 20
394.831862
 30
0.0
 11
160.0
 21
374.289125
 31
0.0
  0
LINE
  8
LC-004-003-----0
  6
CONTINUOUS
  5
B2
 10
160.0
 20
374.289125
 30
0.0
 11
162.704503
 21
394.831862
 31
0.0
  0
LINE
  8
LC-004-003-----0
  6
CONTINUOUS
  5
B3
 10
158.245728
 20
394.894143
 30
0.0
 11
160.0
 21
381.569125
 31
0.0
  0
LINE
  8
LC-004-003-----0
  6
CONTINUOUS
  5
B4
 10
160.0
 20
381.569125
 30
0.0
 11
161.754272
 21
394.894143
 31
0.0
  0
LINE
  8
LC-004-003-----0
  6
CONTINUOUS
  5
B5
 10
159.195959
 20
394.956425
 30
0.0
 11
160.0
 21
388.849125
 31
0.0
  0
LINE
  8
LC-004-003-----0
  6
CONTINUOUS
  5
B6
 10
160.0
 20
388.849125
 30
0.0
 11
160.804041
 21
394.956425
 31
0.0
  0
LINE
  8
LC-006-003-MTG-0
  6
CONTINUOUS
  5
B7
 10
160.0
 20
320.809125
 30
0.0
 11
160.0
 21
432.771325
 31
0.0
  0
TEXT
  8
LC-004-003-----0
  6
CONTINUOUS
 62
     8
  5
B8
 10
152.172446
 20
409.437285
 30
0.0
 40
28.0
  1
7
 50
90.0
 51
15.0
  7
LC-TXTSTYLE-150-400-0-0-D0
  0
ENDBLK
  8
0
  5
B9
  0
ENDSEC
  0
SECTION
  2
ENTITIES
  0
VIEWPORT
  8
LC-000
  5
1A0
 67
     1
 68
     1
 10
420.0
 20
297.0
 30
0.0
 40
840.0
 41
594.0
 69
     1
1001
ACAD
1000
MVIEW
1002
{
1070
    16
1010
0.0
1020
0.0
1030
0.0
1010
0.0
1020
0.0
1030
1.0
1040
0.0
1040
594.0
1040
420.0
1040
297.0
1040
50.0
1040
0.0
1040
0.0
1070
     0
1070
   100
1070
     1
1070
     1
1070
     0
1070
     0
1070
     0
1070
     0
1040
0.0
1040
0.0
1040
0.0
1040
1.0
1040
1.0
1040
0.0
1040
0.0
1070
     0
1002
{
1002
}
1002
}
  0
VIEWPORT
  8
0
  5
1A1
 67
     1
 68
     1
 10
0.0
 20
0.0
 30
0.0
 40
0.0
 41
0.0
 69
     1
1001
ACAD
1000
MVIEW
1002
{
1070
    16
1010
0.0
1020
0.0
1030
0.0
1010
0.0
1020
0.0
1030
1.0
1040
0.0
1040
594.0
1040
0.0
1040
0.0
1040
50.0
1040
0.0
1040
0.0
1070
     0
1070
   100
1070
     0
1070
     1
1070
     0
1070
     0
1070
     0
1070
     0
1040
0.0
1040
0.0
1040
0.0
1040
0.5
1040
0.5
1040
0.5
1040
0.5
1070
     0
1002
{
1002
}
1002
}
  0
INSERT
  8
0
  5
BB
  2
BLK1
 10
0.0
 20
0.0
 30
0.0
  0
INSERT
  8
0
  5
BC
  2
*X1
 10
197.84563
 20
361.009125
 30
0.0
  0
INSERT
  8
0
  5
BD
  2
*X2
 10
214.34563
 20
361.009125
 30
0.0
  0
INSERT
  8
0
  5
BE
  2
*X3
 10
230.34563
 20
361.009125
 30
0.0
  0
INSERT
  8
0
  5
BF
  2
*X4
 10
246.34563
 20
361.009125
 30
0.0
  0
INSERT
  8
0
  5
C0
  2
*X5
 10
326.34563
 20
361.009125
 30
0.0
  0
INSERT
  8
0
  5
C1
  2
*X6
 10
310.34563
 20
361.009125
 30
0.0
  0
INSERT
  8
0
  5
C2
  2
*X7
 10
294.34563
 20
361.009125
 30
0.0
  0
DIMENSION
  8
0
  5
C3
  2
*D8
 10
266.503613
 20
400.0
 30
0.0
 11
266.503613
 21
400.0
 31
0.0
  1
%%c155
 13
191.14563
 23
365.009125
 33
0.0
 14
341.54563
 24
365.009125
 34
0.0
  3
LC-DIM-L-0140-02-02
  0
INSERT
  8
0
  5
C4
  2
*X9
 10
266.34563
 20
361.009125
 30
0.0
  0
INSERT
  8
0
  5
C5
  2
*X10
 10
189.14563
 20
360.009125
 30
0.0
  0
INSERT
  8
0
  5
C6
  2
*X11
 10
332.54563
 20
360.009125
 30
0.0
  0
INSERT
  8
0
  5
C7
  2
BLK2
 10
0.0
 20
0.0
 30
0.0
  0
DIMENSION
  8
0
  5
C8
  2
*D13
 10
160.0
 20
379.051544
 30
0.0
 11
160.0
 21
379.051544
 31
0.0
 13
189.14563
 23
360.009125
 33
0.0
 14
193.14563
 24
367.009125
 34
0.0
 50
90.0
  3
LC-DIM-L-0140-02-02
  0
LINE
  8
LC-001-002-----0
  6
CONTINUOUS
  5
CA
 10
343.54563
 20
361.009125
 30
0.0
 11
343.54563
 21
360.009125
 31
0.0
  0
LINE
  8
LC-001-002-----0
  6
CONTINUOUS
  5
CB
 10
343.54563
 20
361.009125
 30
0.0
 11
342.04563
 21
361.009125
 31
0.0
  0
LINE
  8
LC-001-002-----0
  6
CONTINUOUS
  5
CC
 10
343.54563
 20
360.009125
 30
0.0
 11
342.04563
 21
360.009125
 31
0.0
  0
ARC
  8
LC-001-002-----0
  6
CONTINUOUS
  5
CD
 10
342.04563
 20
361.509125
 30
0.0
 40
0.5
 50
180.0
 51
270.0
  0
ARC
  8
LC-001-002-----0
  6
CONTINUOUS
  5
CE
 10
342.04563
 20
361.509125
 30
0.0
 40
1.5
 50
180.0
 51
270.0
  0
LINE
  8
LC-001-002-----0
  6
CONTINUOUS
  5
CF
 10
340.54563
 20
365.009125
 30
0.0
 11
340.54563
 21
361.509125
 31
0.0
  0
LINE
  8
LC-001-002-----0
  6
CONTINUOUS
  5
D0
 10
341.54563
 20
365.009125
 30
0.0
 11
341.54563
 21
361.509125
 31
0.0
  0
LINE
  8
LC-001-002-----0
  6
CONTINUOUS
  5
D1
 10
191.14563
 20
365.009125
 30
0.0
 11
191.14563
 21
361.509125
 31
0.0
  0
LINE
  8
LC-001-002-----0
  6
CONTINUOUS
  5
D2
 10
189.14563
 20
361.009125
 30
0.0
 11
189.14563
 21
360.009125
 31
0.0
  0
ARC
  8
LC-001-002-----0
  6
CONTINUOUS
  5
D3
 10
190.64563
 20
361.509125
 30
0.0
 40
0.5
 50
270.0
 51
0.0
  0
LINE
  8
LC-001-002-----0
  6
CONTINUOUS
  5
D4
 10
189.14563
 20
361.009125
 30
0.0
 11
190.64563
 21
361.009125
 31
0.0
  0
LINE
  8
LC-001-002-----0
  6
CONTINUOUS
  5
D5
 10
192.14563
 20
365.009125
 30
0.0
 11
192.14563
 21
361.509125
 31
0.0
  0
ARC
  8
LC-001-002-----0
  6
CONTINUOUS
  5
D6
 10
190.64563
 20
361.509125
 30
0.0
 40
1.5
 50
270.0
 51
0.0
  0
LINE
  8
LC-001-002-----0
  6
CONTINUOUS
  5
D7
 10
189.14563
 20
360.009125
 30
0.0
 11
190.64563
 21
360.009125
 31
0.0
  0
LINE
  8
LC-001-002-----0
  6
DASHDOT
 62
     2
  5
D9
 10
266.34563
 20
367.009125
 30
0.0
 11
266.34563
 21
360.009125
 31
0.0
  0
LINE
  8
LC-001-002-----0
  6
CONTINUOUS
  5
DA
 10
195.14563
 20
366.009125
 30
0.0
 11
193.14563
 21
366.009125
 31
0.0
  0
LINE
  8
LC-001-002-----0
  6
CONTINUOUS
  5
DB
 10
337.54563
 20
366.009125
 30
0.0
 11
339.54563
 21
366.009125
 31
0.0
  0
ARC
  8
LC-001-002-----0
  6
CONTINUOUS
  5
DC
 10
193.14563
 20
365.009125
 30
0.0
 40
2.0
 50
90.0
 51
180.0
  0
ARC
  8
LC-001-002-----0
  6
CONTINUOUS
  5
DD
 10
195.14563
 20
365.009125
 30
0.0
 40
1.0
 50
0.0
 51
90.0
  0
ARC
  8
LC-001-002-----0
  6
CONTINUOUS
  5
DE
 10
193.14563
 20
365.009125
 30
0.0
 40
1.0
 50
90.0
 51
180.0
  0
ARC
  8
LC-001-002-----0
  6
CONTINUOUS
  5
DF
 10
339.54563
 20
365.009125
 30
0.0
 40
2.0
 50
0.0
 51
90.0
  0
ARC
  8
LC-001-002-----0
  6
CONTINUOUS
  5
E0
 10
337.54563
 20
365.009125
 30
0.0
 40
1.0
 50
90.0
 51
180.0
  0
ARC
  8
LC-001-002-----0
  6
CONTINUOUS
  5
E1
 10
198.14563
 20
362.009125
 30
0.0
 40
1.0
 50
180.0
 51
270.0
  0
LINE
  8
LC-001-002-----0
  6
CONTINUOUS
  5
E2
 10
196.14563
 20
365.009125
 30
0.0
 11
196.14563
 21
362.009125
 31
0.0
  0
ARC
  8
LC-001-002-----0
  6
CONTINUOUS
  5
E3
 10
195.14563
 20
365.009125
 30
0.0
 40
2.0
 50
0.0
 51
90.0
  0
ARC
  8
LC-001-002-----0
  6
CONTINUOUS
  5
E4
 10
198.14563
 20
362.009125
 30
0.0
 40
2.0
 50
180.0
 51
270.0
  0
LINE
  8
LC-001-002-----0
  6
CONTINUOUS
  5
E5
 10
197.14563
 20
365.009125
 30
0.0
 11
197.14563
 21
362.009125
 31
0.0
  0
ARC
  8
LC-001-002-----0
  6
CONTINUOUS
  5
E6
 10
339.54563
 20
365.009125
 30
0.0
 40
1.0
 50
0.0
 51
90.0
  0
ARC
  8
LC-001-002-----0
  6
CONTINUOUS
  5
E7
 10
334.54563
 20
362.009125
 30
0.0
 40
1.0
 50
270.0
 51
0.0
  0
LINE
  8
LC-001-002-----0
  6
CONTINUOUS
  5
E8
 10
336.54563
 20
365.009125
 30
0.0
 11
336.54563
 21
362.009125
 31
0.0
  0
ARC
  8
LC-001-002-----0
  6
CONTINUOUS
  5
E9
 10
337.54563
 20
365.009125
 30
0.0
 40
2.0
 50
90.0
 51
180.0
  0
ARC
  8
LC-001-002-----0
  6
CONTINUOUS
  5
EA
 10
334.54563
 20
362.009125
 30
0.0
 40
2.0
 50
270.0
 51
0.0
  0
LINE
  8
LC-001-002-----0
  6
CONTINUOUS
  5
EB
 10
335.54563
 20
365.009125
 30
0.0
 11
335.54563
 21
362.009125
 31
0.0
  0
LINE
  8
LC-001-002-----0
  6
CONTINUOUS
  5
EC
 10
285.34563
 20
362.009125
 30
0.0
 11
295.34563
 21
362.009125
 31
0.0
  0
LINE
  8
LC-001-002-----0
  6
CONTINUOUS
  5
ED
 10
247.34563
 20
362.009125
 30
0.0
 11
237.34563
 21
362.009125
 31
0.0
  0
LINE
  8
LC-001-002-----0
  6
CONTINUOUS
  5
EE
 10
231.34563
 20
362.009125
 30
0.0
 11
221.34563
 21
362.009125
 31
0.0
  0
LINE
  8
LC-001-002-----0
  6
CONTINUOUS
  5
EF
 10
215.34563
 20
362.009125
 30
0.0
 11
205.34563
 21
362.009125
 31
0.0
  0
LINE
  8
LC-001-002-----0
  6
CONTINUOUS
  5
F0
 10
195.14563
 20
367.009125
 30
0.0
 11
193.14563
 21
367.009125
 31
0.0
  0
LINE
  8
LC-001-002-----0
  6
CONTINUOUS
  5
F1
 10
197.84563
 20
364.009125
 30
0.0
 11
197.84563
 21
362.009125
 31
0.0
  0
ARC
  8
LC-001-002-----0
  6
CONTINUOUS
  5
F2
 10
200.84563
 20
364.009125
 30
0.0
 40
3.0
 50
90.0
 51
180.0
  0
ARC
  8
LC-001-002-----0
  6
CONTINUOUS
  5
F3
 10
200.84563
 20
364.009125
 30
0.0
 40
2.0
 50
90.0
 51
180.0
  0
LINE
  8
LC-001-002-----0
  6
CONTINUOUS
  5
F4
 10
198.84563
 20
364.009125
 30
0.0
 11
198.84563
 21
362.009125
 31
0.0
  0
LINE
  8
LC-001-002-----0
  6
CONTINUOUS
  5
F5
 10
205.34563
 20
362.009125
 30
0.0
 11
205.34563
 21
364.009125
 31
0.0
  0
ARC
  8
LC-001-002-----0
  6
CONTINUOUS
  5
F6
 10
203.34563
 20
364.009125
 30
0.0
 40
2.0
 50
0.0
 51
90.0
  0
LINE
  8
LC-001-002-----0
  6
CONTINUOUS
  5
F7
 10
203.34563
 20
366.009125
 30
0.0
 11
200.84563
 21
366.009125
 31
0.0
  0
LINE
  8
LC-001-002-----0
  6
CONTINUOUS
  5
F8
 10
215.34563
 20
364.009125
 30
0.0
 11
215.34563
 21
362.009125
 31
0.0
  0
ARC
  8
LC-001-002-----0
  6
CONTINUOUS
  5
F9
 10
217.34563
 20
364.009125
 30
0.0
 40
2.0
 50
90.0
 51
180.0
  0
LINE
  8
LC-001-002-----0
  6
CONTINUOUS
  5
FA
 10
219.34563
 20
366.009125
 30
0.0
 11
217.34563
 21
366.009125
 31
0.0
  0
ARC
  8
LC-001-002-----0
  6
CONTINUOUS
  5
FB
 10
219.34563
 20
364.009125
 30
0.0
 40
2.0
 50
0.0
 51
90.0
  0
LINE
  8
LC-001-002-----0
  6
CONTINUOUS
  5
FC
 10
221.34563
 20
362.009125
 30
0.0
 11
221.34563
 21
364.009125
 31
0.0
  0
LINE
  8
LC-001-002-----0
  6
CONTINUOUS
  5
FD
 10
231.34563
 20
364.009125
 30
0.0
 11
231.34563
 21
362.009125
 31
0.0
  0
ARC
  8
LC-001-002-----0
  6
CONTINUOUS
  5
FE
 10
233.34563
 20
364.009125
 30
0.0
 40
2.0
 50
90.0
 51
180.0
  0
LINE
  8
LC-001-002-----0
  6
CONTINUOUS
  5
FF
 10
237.34563
 20
362.009125
 30
0.0
 11
237.34563
 21
364.009125
 31
0.0
  0
ARC
  8
LC-001-002-----0
  6
CONTINUOUS
  5
100
 10
235.34563
 20
364.009125
 30
0.0
 40
2.0
 50
0.0
 51
90.0
  0
LINE
  8
LC-001-002-----0
  6
CONTINUOUS
  5
101
 10
233.34563
 20
366.009125
 30
0.0
 11
235.34563
 21
366.009125
 31
0.0
  0
LINE
  8
LC-001-002-----0
  6
CONTINUOUS
  5
102
 10
247.34563
 20
364.009125
 30
0.0
 11
247.34563
 21
362.009125
 31
0.0
  0
ARC
  8
LC-001-002-----0
  6
CONTINUOUS
  5
103
 10
249.34563
 20
364.009125
 30
0.0
 40
2.0
 50
90.0
 51
180.0
  0
LINE
  8
LC-001-002-----0
  6
CONTINUOUS
  5
104
 10
249.34563
 20
366.009125
 30
0.0
 11
266.34563
 21
366.009125
 31
0.0
  0
LINE
  8
LC-001-002-----0
  6
CONTINUOUS
  5
105
 10
206.34563
 20
362.009125
 30
0.0
 11
206.34563
 21
364.009125
 31
0.0
  0
ARC
  8
LC-001-002-----0
  6
CONTINUOUS
  5
106
 10
203.34563
 20
364.009125
 30
0.0
 40
3.0
 50
0.0
 51
90.0
  0
LINE
  8
LC-001-002-----0
  6
CONTINUOUS
  5
107
 10
203.34563
 20
367.009125
 30
0.0
 11
200.84563
 21
367.009125
 31
0.0
  0
LINE
  8
LC-001-002-----0
  6
CONTINUOUS
  5
108
 10
219.34563
 20
367.009125
 30
0.0
 11
226.34563
 21
367.009125
 31
0.0
  0
ARC
  8
LC-001-002-----0
  6
CONTINUOUS
  5
109
 10
217.34563
 20
364.009125
 30
0.0
 40
3.0
 50
90.0
 51
180.0
  0
LINE
  8
LC-001-002-----0
  6
CONTINUOUS
  5
10A
 10
214.34563
 20
364.009125
 30
0.0
 11
214.34563
 21
362.009125
 31
0.0
  0
LINE
  8
LC-001-002-----0
  6
CONTINUOUS
  5
10B
 10
203.34563
 20
367.009125
 30
0.0
 11
219.34563
 21
367.009125
 31
0.0
  0
ARC
  8
LC-001-002-----0
  6
CONTINUOUS
  5
10C
 10
219.34563
 20
364.009125
 30
0.0
 40
3.0
 50
0.0
 51
90.0
  0
LINE
  8
LC-001-002-----0
  6
CONTINUOUS
  5
10D
 10
222.34563
 20
362.009125
 30
0.0
 11
222.34563
 21
364.009125
 31
0.0
  0
ARC
  8
LC-001-002-----0
  6
CONTINUOUS
  5
10E
 10
233.34563
 20
364.009125
 30
0.0
 40
3.0
 50
90.0
 51
180.0
  0
LINE
  8
LC-001-002-----0
  6
CONTINUOUS
  5
10F
 10
230.34563
 20
364.009125
 30
0.0
 11
230.34563
 21
362.009125
 31
0.0
  0
ARC
  8
LC-001-002-----0
  6
CONTINUOUS
  5
110
 10
235.34563
 20
364.009125
 30
0.0
 40
3.0
 50
0.0
 51
90.0
  0
LINE
  8
LC-001-002-----0
  6
CONTINUOUS
  5
111
 10
238.34563
 20
362.009125
 30
0.0
 11
238.34563
 21
364.009125
 31
0.0
  0
LINE
  8
LC-001-002-----0
  6
CONTINUOUS
  5
112
 10
226.34563
 20
367.009125
 30
0.0
 11
266.34563
 21
367.009125
 31
0.0
  0
ARC
  8
LC-001-002-----0
  6
CONTINUOUS
  5
113
 10
249.34563
 20
364.009125
 30
0.0
 40
3.0
 50
90.0
 51
180.0
  0
LINE
  8
LC-001-002-----0
  6
CONTINUOUS
  5
114
 10
246.34563
 20
364.009125
 30
0.0
 11
246.34563
 21
362.009125
 31
0.0
  0
LINE
  8
LC-001-002-----0
  6
CONTINUOUS
  5
115
 10
198.84563
 20
362.009125
 30
0.0
 11
197.84563
 21
362.009125
 31
0.0
  0
LINE
  8
LC-001-002-----0
  6
CONTINUOUS
  5
116
 10
301.34563
 20
362.009125
 30
0.0
 11
311.34563
 21
362.009125
 31
0.0
  0
LINE
  8
LC-001-002-----0
  6
CONTINUOUS
  5
117
 10
317.34563
 20
362.009125
 30
0.0
 11
327.34563
 21
362.009125
 31
0.0
  0
LINE
  8
LC-001-002-----0
  6
CONTINUOUS
  5
118
 10
337.54563
 20
367.009125
 30
0.0
 11
339.54563
 21
367.009125
 31
0.0
  0
LINE
  8
LC-001-002-----0
  6
CONTINUOUS
  5
119
 10
334.84563
 20
364.009125
 30
0.0
 11
334.84563
 21
362.009125
 31
0.0
  0
ARC
  8
LC-001-002-----0
  6
CONTINUOUS
  5
11A
 10
331.84563
 20
364.009125
 30
0.0
 40
3.0
 50
0.0
 51
90.0
  0
ARC
  8
LC-001-002-----0
  6
CONTINUOUS
  5
11B
 10
331.84563
 20
364.009125
 30
0.0
 40
2.0
 50
0.0
 51
90.0
  0
LINE
  8
LC-001-002-----0
  6
CONTINUOUS
  5
11C
 10
333.84563
 20
364.009125
 30
0.0
 11
333.84563
 21
362.009125
 31
0.0
  0
LINE
  8
LC-001-002-----0
  6
CONTINUOUS
  5
11D
 10
327.34563
 20
362.009125
 30
0.0
 11
327.34563
 21
364.009125
 31
0.0
  0
ARC
  8
LC-001-002-----0
  6
CONTINUOUS
  5
11E
 10
329.34563
 20
364.009125
 30
0.0
 40
2.0
 50
90.0
 51
180.0
  0
LINE
  8
LC-001-002-----0
  6
CONTINUOUS
  5
11F
 10
329.34563
 20
366.009125
 30
0.0
 11
331.84563
 21
366.009125
 31
0.0
  0
LINE
  8
LC-001-002-----0
  6
CONTINUOUS
  5
120
 10
317.34563
 20
364.009125
 30
0.0
 11
317.34563
 21
362.009125
 31
0.0
  0
ARC
  8
LC-001-002-----0
  6
CONTINUOUS
  5
121
 10
315.34563
 20
364.009125
 30
0.0
 40
2.0
 50
0.0
 51
90.0
  0
LINE
  8
LC-001-002-----0
  6
CONTINUOUS
  5
122
 10
313.34563
 20
366.009125
 30
0.0
 11
315.34563
 21
366.009125
 31
0.0
  0
ARC
  8
LC-001-002-----0
  6
CONTINUOUS
  5
123
 10
313.34563
 20
364.009125
 30
0.0
 40
2.0
 50
90.0
 51
180.0
  0
LINE
  8
LC-001-002-----0
  6
CONTINUOUS
  5
124
 10
311.34563
 20
362.009125
 30
0.0
 11
311.34563
 21
364.009125
 31
0.0
  0
LINE
  8
LC-001-002-----0
  6
CONTINUOUS
  5
125
 10
301.34563
 20
364.009125
 30
0.0
 11
301.34563
 21
362.009125
 31
0.0
  0
ARC
  8
LC-001-002-----0
  6
CONTINUOUS
  5
126
 10
299.34563
 20
364.009125
 30
0.0
 40
2.0
 50
0.0
 51
90.0
  0
LINE
  8
LC-001-002-----0
  6
CONTINUOUS
  5
127
 10
295.34563
 20
362.009125
 30
0.0
 11
295.34563
 21
364.009125
 31
0.0
  0
ARC
  8
LC-001-002-----0
  6
CONTINUOUS
  5
128
 10
297.34563
 20
364.009125
 30
0.0
 40
2.0
 50
90.0
 51
180.0
  0
LINE
  8
LC-001-002-----0
  6
CONTINUOUS
  5
129
 10
299.34563
 20
366.009125
 30
0.0
 11
297.34563
 21
366.009125
 31
0.0
  0
LINE
  8
LC-001-002-----0
  6
CONTINUOUS
  5
12A
 10
285.34563
 20
364.009125
 30
0.0
 11
285.34563
 21
362.009125
 31
0.0
  0
ARC
  8
LC-001-002-----0
  6
CONTINUOUS
  5
12B
 10
283.34563
 20
364.009125
 30
0.0
 40
2.0
 50
0.0
 51
90.0
  0
LINE
  8
LC-001-002-----0
  6
CONTINUOUS
  5
12C
 10
283.34563
 20
366.009125
 30
0.0
 11
266.34563
 21
366.009125
 31
0.0
  0
LINE
  8
LC-001-002-----0
  6
CONTINUOUS
  5
12D
 10
326.34563
 20
362.009125
 30
0.0
 11
326.34563
 21
364.009125
 31
0.0
  0
ARC
  8
LC-001-002-----0
  6
CONTINUOUS
  5
12E
 10
329.34563
 20
364.009125
 30
0.0
 40
3.0
 50
90.0
 51
180.0
  0
LINE
  8
LC-001-002-----0
  6
CONTINUOUS
  5
12F
 10
329.34563
 20
367.009125
 30
0.0
 11
331.84563
 21
367.009125
 31
0.0
  0
LINE
  8
LC-001-002-----0
  6
CONTINUOUS
  5
130
 10
313.34563
 20
367.009125
 30
0.0
 11
306.34563
 21
367.009125
 31
0.0
  0
ARC
  8
LC-001-002-----0
  6
CONTINUOUS
  5
131
 10
315.34563
 20
364.009125
 30
0.0
 40
3.0
 50
0.0
 51
90.0
  0
LINE
  8
LC-001-002-----0
  6
CONTINUOUS
  5
132
 10
318.34563
 20
364.009125
 30
0.0
 11
318.34563
 21
362.009125
 31
0.0
  0
LINE
  8
LC-001-002-----0
  6
CONTINUOUS
  5
133
 10
329.34563
 20
367.009125
 30
0.0
 11
313.34563
 21
367.009125
 31
0.0
  0
ARC
  8
LC-001-002-----0
  6
CONTINUOUS
  5
134
 10
313.34563
 20
364.009125
 30
0.0
 40
3.0
 50
90.0
 51
180.0
  0
LINE
  8
LC-001-002-----0
  6
CONTINUOUS
  5
135
 10
310.34563
 20
362.009125
 30
0.0
 11
310.34563
 21
364.009125
 31
0.0
  0
ARC
  8
LC-001-002-----0
  6
CONTINUOUS
  5
136
 10
299.34563
 20
364.009125
 30
0.0
 40
3.0
 50
0.0
 51
90.0
  0
LINE
  8
LC-001-002-----0
  6
CONTINUOUS
  5
137
 10
302.34563
 20
364.009125
 30
0.0
 11
302.34563
 21
362.009125
 31
0.0
  0
ARC
  8
LC-001-002-----0
  6
CONTINUOUS
  5
138
 10
297.34563
 20
364.009125
 30
0.0
 40
3.0
 50
90.0
 51
180.0
  0
LINE
  8
LC-001-002-----0
  6
CONTINUOUS
  5
139
 10
294.34563
 20
362.009125
 30
0.0
 11
294.34563
 21
364.009125
 31
0.0
  0
LINE
  8
LC-001-002-----0
  6
CONTINUOUS
  5
13A
 10
306.34563
 20
367.009125
 30
0.0
 11
266.34563
 21
367.009125
 31
0.0
  0
ARC
  8
LC-001-002-----0
  6
CONTINUOUS
  5
13B
 10
283.34563
 20
364.009125
 30
0.0
 40
3.0
 50
0.0
 51
90.0
  0
LINE
  8
LC-001-002-----0
  6
CONTINUOUS
  5
13C
 10
286.34563
 20
364.009125
 30
0.0
 11
286.34563
 21
362.009125
 31
0.0
  0
LINE
  8
LC-001-002-----0
  6
CONTINUOUS
  5
13D
 10
333.84563
 20
362.009125
 30
0.0
 11
334.84563
 21
362.009125
 31
0.0
  0
LINE
  8
LC-001-002-----0
  6
CONTINUOUS
  5
13E
 10
198.14563
 20
360.009125
 30
0.0
 11
198.84563
 21
360.009125
 31
0.0
  0
LINE
  8
LC-001-002-----0
  6
CONTINUOUS
  5
13F
 10
198.14563
 20
361.009125
 30
0.0
 11
198.84563
 21
361.009125
 31
0.0
  0
LINE
  8
LC-001-002-----0
  6
CONTINUOUS
  5
140
 10
334.54563
 20
360.009125
 30
0.0
 11
333.84563
 21
360.009125
 31
0.0
  0
LINE
  8
LC-001-002-----0
  6
CONTINUOUS
  5
141
 10
334.54563
 20
361.009125
 30
0.0
 11
333.84563
 21
361.009125
 31
0.0
  0
LINE
  8
LC-001-002-----0
  6
CONTINUOUS
  5
142
 10
198.84563
 20
361.009125
 30
0.0
 11
198.84563
 21
360.009125
 31
0.0
  0
LINE
  8
LC-001-002-----0
  6
CONTINUOUS
  5
143
 10
333.84563
 20
361.009125
 30
0.0
 11
333.84563
 21
360.009125
 31
0.0
  0
LINE
  8
LC-001-002-----0
  6
CONTINUOUS
  5
144
 10
198.84563
 20
360.009125
 30
0.0
 11
334.54563
 21
360.009125
 31
0.0
  0
LINE
  8
LC-001-002-----0
  6
CONTINUOUS
  5
145
 10
198.432183
 20
361.009125
 30
0.0
 11
333.84563
 21
361.009125
 31
0.0
  0
CIRCLE
  8
LC-001-002-----0
  6
CONTINUOUS
  5
146
 10
508.04563
 20
361.416909
 30
0.0
 40
77.5
  0
CIRCLE
  8
LC-001-002-----0
  6
CONTINUOUS
  5
147
 10
508.04563
 20
361.416909
 30
0.0
 40
79.0
  0
CIRCLE
  8
LC-001-002-----0
  6
CONTINUOUS
  5
148
 10
508.04563
 20
361.416909
 30
0.0
 40
72.5
  0
LINE
  8
LC-001-002-----0
  6
CONTINUOUS
  5
149
 10
483.387974
 20
368.916909
 30
0.0
 11
483.387974
 21
368.916909
 31
0.0
  0
ARC
  8
LC-007-002-RND-0
  6
CONTINUOUS
  5
14B
 10
450.080123
 20
372.416909
 30
0.0
 40
3.5
 50
270.0
 51
349.254861
  0
LINE
  8
LC-001-002-----0
  6
CONTINUOUS
  5
14C
 10
500.54563
 20
386.074565
 30
0.0
 11
500.54563
 21
386.074565
 31
0.0
  0
ARC
  8
LC-001-002-----0
  6
CONTINUOUS
  5
14D
 10
508.04563
 20
361.416909
 30
0.0
 40
23.5
 50
114.042076
 51
155.957924
  0
ARC
  8
LC-001-002-----0
  6
CONTINUOUS
  5
14E
 10
508.04563
 20
361.416909
 30
0.0
 40
30.5
 50
114.042076
 51
155.957924
  0
ARC
  8
LC-007-002-RND-0
  6
CONTINUOUS
  5
14F
 10
483.387974
 20
372.416909
 30
0.0
 40
3.5
 50
155.957924
 51
270.0
  0
ARC
  8
LC-007-002-RND-0
  6
CONTINUOUS
  5
150
 10
483.387974
 20
372.416909
 30
0.0
 40
3.5
 50
270.0
 51
335.957924
  0
ARC
  8
LC-007-002-RND-0
  6
CONTINUOUS
  5
151
 10
497.04563
 20
386.074565
 30
0.0
 40
3.5
 50
0.0
 51
114.042076
  0
ARC
  8
LC-007-002-RND-0
  6
CONTINUOUS
  5
152
 10
497.04563
 20
386.074565
 30
0.0
 40
3.5
 50
294.042076
 51
0.0
  0
LINE
  8
LC-001-002-----0
  6
CONTINUOUS
  5
153
 10
450.080123
 20
368.916909
 30
0.0
 11
450.080123
 21
368.916909
 31
0.0
  0
LINE
  8
LC-001-002-----0
  6
CONTINUOUS
  5
154
 10
500.54563
 20
402.986129
 30
0.0
 11
500.54563
 21
402.986129
 31
0.0
  0
ARC
  8
LC-001-002-----0
  6
CONTINUOUS
  5
155
 10
508.04563
 20
361.416909
 30
0.0
 40
39.5
 50
104.821821
 51
165.178179
  0
ARC
  8
LC-001-002-----0
  6
CONTINUOUS
  5
156
 10
508.04563
 20
361.416909
 30
0.0
 40
46.5
 50
104.821821
 51
165.178179
  0
ARC
  8
LC-007-002-RND-0
  6
CONTINUOUS
  5
157
 10
466.47641
 20
372.416909
 30
0.0
 40
3.5
 50
165.178179
 51
270.0
  0
ARC
  8
LC-007-002-RND-0
  6
CONTINUOUS
  5
158
 10
466.47641
 20
372.416909
 30
0.0
 40
3.5
 50
270.0
 51
345.178179
  0
ARC
  8
LC-007-002-RND-0
  6
CONTINUOUS
  5
159
 10
497.04563
 20
402.986129
 30
0.0
 40
3.5
 50
284.821821
 51
0.0
  0
ARC
  8
LC-007-002-RND-0
  6
CONTINUOUS
  5
15A
 10
497.04563
 20
402.986129
 30
0.0
 40
3.5
 50
0.0
 51
104.821821
  0
LINE
  8
LC-001-002-----0
  6
CONTINUOUS
  5
15B
 10
500.54563
 20
419.382416
 30
0.0
 11
500.54563
 21
419.382416
 31
0.0
  0
ARC
  8
LC-001-002-----0
  6
CONTINUOUS
  5
15C
 10
508.04563
 20
361.416909
 30
0.0
 40
55.5
 50
100.745139
 51
169.254861
  0
ARC
  8
LC-001-002-----0
  6
CONTINUOUS
  5
15D
 10
508.04563
 20
361.416909
 30
0.0
 40
62.5
 50
100.745139
 51
169.254861
  0
ARC
  8
LC-007-002-RND-0
  6
CONTINUOUS
  5
15E
 10
450.080123
 20
372.416909
 30
0.0
 40
3.5
 50
169.254861
 51
270.0
  0
ARC
  8
LC-007-002-RND-0
  6
CONTINUOUS
  5
15F
 10
497.04563
 20
419.382416
 30
0.0
 40
3.5
 50
280.745139
 51
0.0
  0
ARC
  8
LC-007-002-RND-0
  6
CONTINUOUS
  5
160
 10
497.04563
 20
419.382416
 30
0.0
 40
3.5
 50
0.0
 51
100.745139
  0
LINE
  8
LC-001-002-----0
  6
CONTINUOUS
  5
161
 10
532.703286
 20
368.916909
 30
0.0
 11
532.703286
 21
368.916909
 31
0.0
  0
ARC
  8
LC-007-002-RND-0
  6
CONTINUOUS
  5
162
 10
566.011137
 20
372.416909
 30
0.0
 40
3.5
 50
190.745139
 51
270.0
  0
LINE
  8
LC-001-002-----0
  6
CONTINUOUS
  5
163
 10
515.54563
 20
386.074565
 30
0.0
 11
515.54563
 21
386.074565
 31
0.0
  0
ARC
  8
LC-001-002-----0
  6
CONTINUOUS
  5
164
 10
508.04563
 20
361.416909
 30
0.0
 40
23.5
 50
24.042076
 51
65.957924
  0
ARC
  8
LC-001-002-----0
  6
CONTINUOUS
  5
165
 10
508.04563
 20
361.416909
 30
0.0
 40
30.5
 50
24.042076
 51
65.957924
  0
ARC
  8
LC-007-002-RND-0
  6
CONTINUOUS
  5
166
 10
532.703286
 20
372.416909
 30
0.0
 40
3.5
 50
270.0
 51
24.042076
  0
ARC
  8
LC-007-002-RND-0
  6
CONTINUOUS
  5
167
 10
532.703286
 20
372.416909
 30
0.0
 40
3.5
 50
204.042076
 51
270.0
  0
ARC
  8
LC-007-002-RND-0
  6
CONTINUOUS
  5
168
 10
519.04563
 20
386.074565
 30
0.0
 40
3.5
 50
65.957924
 51
180.0
  0
ARC
  8
LC-007-002-RND-0
  6
CONTINUOUS
  5
169
 10
519.04563
 20
386.074565
 30
0.0
 40
3.5
 50
180.0
 51
245.957924
  0
LINE
  8
LC-001-002-----0
  6
CONTINUOUS
  5
16A
 10
566.011137
 20
368.916909
 30
0.0
 11
566.011137
 21
368.916909
 31
0.0
  0
ARC
  8
LC-001-002-----0
  6
CONTINUOUS
  5
16B
 10
508.04563
 20
361.416909
 30
0.0
 40
39.5
 50
14.821821
 51
75.178179
  0
ARC
  8
LC-001-002-----0
  6
CONTINUOUS
  5
16C
 10
508.04563
 20
361.416909
 30
0.0
 40
46.5
 50
14.821821
 51
75.178179
  0
ARC
  8
LC-007-002-RND-0
  6
CONTINUOUS
  5
16D
 10
549.614849
 20
372.416909
 30
0.0
 40
3.5
 50
270.0
 51
14.821821
  0
ARC
  8
LC-007-002-RND-0
  6
CONTINUOUS
  5
16E
 10
549.614849
 20
372.416909
 30
0.0
 40
3.5
 50
194.821821
 51
270.0
  0
ARC
  8
LC-001-002-----0
  6
CONTINUOUS
  5
16F
 10
508.04563
 20
361.416909
 30
0.0
 40
55.5
 50
10.745139
 51
79.254861
  0
ARC
  8
LC-001-002-----0
  6
CONTINUOUS
  5
170
 10
508.04563
 20
361.416909
 30
0.0
 40
62.5
 50
10.745139
 51
79.254861
  0
ARC
  8
LC-007-002-RND-0
  6
CONTINUOUS
  5
171
 10
566.011137
 20
372.416909
 30
0.0
 40
3.5
 50
270.0
 51
10.745139
  0
ARC
  8
LC-007-002-RND-0
  6
CONTINUOUS
  5
172
 10
519.04563
 20
402.986129
 30
0.0
 40
3.5
 50
180.0
 51
255.178179
  0
ARC
  8
LC-007-002-RND-0
  6
CONTINUOUS
  5
173
 10
519.04563
 20
402.986129
 30
0.0
 40
3.5
 50
75.178179
 51
180.0
  0
ARC
  8
LC-007-002-RND-0
  6
CONTINUOUS
  5
174
 10
519.04563
 20
419.382416
 30
0.0
 40
3.5
 50
180.0
 51
259.254861
  0
ARC
  8
LC-007-002-RND-0
  6
CONTINUOUS
  5
175
 10
519.04563
 20
419.382416
 30
0.0
 40
3.5
 50
79.254861
 51
180.0
  0
LINE
  8
LC-001-002-----0
  6
CONTINUOUS
  5
176
 10
483.387974
 20
353.916909
 30
0.0
 11
483.387974
 21
353.916909
 31
0.0
  0
ARC
  8
LC-007-002-RND-0
  6
CONTINUOUS
  5
177
 10
450.080123
 20
350.416909
 30
0.0
 40
3.5
 50
10.745139
 51
90.0
  0
ARC
  8
LC-001-002-----0
  6
CONTINUOUS
  5
178
 10
508.04563
 20
361.416909
 30
0.0
 40
23.5
 50
204.042076
 51
245.957924
  0
ARC
  8
LC-001-002-----0
  6
CONTINUOUS
  5
179
 10
508.04563
 20
361.416909
 30
0.0
 40
30.5
 50
204.042076
 51
245.957924
  0
ARC
  8
LC-007-002-RND-0
  6
CONTINUOUS
  5
17A
 10
483.387974
 20
350.416909
 30
0.0
 40
3.5
 50
90.0
 51
204.042076
  0
ARC
  8
LC-007-002-RND-0
  6
CONTINUOUS
  5
17B
 10
483.387974
 20
350.416909
 30
0.0
 40
3.5
 50
24.042076
 51
90.0
  0
LINE
  8
LC-001-002-----0
  6
CONTINUOUS
  5
17C
 10
450.080123
 20
353.916909
 30
0.0
 11
450.080123
 21
353.916909
 31
0.0
  0
ARC
  8
LC-001-002-----0
  6
CONTINUOUS
  5
17D
 10
508.04563
 20
361.416909
 30
0.0
 40
39.5
 50
194.821821
 51
255.178179
  0
ARC
  8
LC-001-002-----0
  6
CONTINUOUS
  5
17E
 10
508.04563
 20
361.416909
 30
0.0
 40
46.5
 50
194.821821
 51
255.178179
  0
ARC
  8
LC-007-002-RND-0
  6
CONTINUOUS
  5
17F
 10
466.47641
 20
350.416909
 30
0.0
 40
3.5
 50
90.0
 51
194.821821
  0
ARC
  8
LC-007-002-RND-0
  6
CONTINUOUS
  5
180
 10
466.47641
 20
350.416909
 30
0.0
 40
3.5
 50
14.821821
 51
90.0
  0
ARC
  8
LC-001-002-----0
  6
CONTINUOUS
  5
181
 10
508.04563
 20
361.416909
 30
0.0
 40
55.5
 50
190.745139
 51
259.254861
  0
ARC
  8
LC-001-002-----0
  6
CONTINUOUS
  5
182
 10
508.04563
 20
361.416909
 30
0.0
 40
62.5
 50
190.745139
 51
259.254861
  0
ARC
  8
LC-007-002-RND-0
  6
CONTINUOUS
  5
183
 10
450.080123
 20
350.416909
 30
0.0
 40
3.5
 50
90.0
 51
190.745139
  0
LINE
  8
LC-001-002-----0
  6
CONTINUOUS
  5
184
 10
532.703286
 20
353.916909
 30
0.0
 11
532.703286
 21
353.916909
 31
0.0
  0
ARC
  8
LC-007-002-RND-0
  6
CONTINUOUS
  5
185
 10
566.011137
 20
350.416909
 30
0.0
 40
3.5
 50
90.0
 51
169.254861
  0
LINE
  8
LC-001-002-----0
  6
CONTINUOUS
  5
186
 10
515.54563
 20
336.759253
 30
0.0
 11
515.54563
 21
336.759253
 31
0.0
  0
ARC
  8
LC-001-002-----0
  6
CONTINUOUS
  5
187
 10
508.04563
 20
361.416909
 30
0.0
 40
23.5
 50
294.042076
 51
335.957924
  0
ARC
  8
LC-001-002-----0
  6
CONTINUOUS
  5
188
 10
508.04563
 20
361.416909
 30
0.0
 40
30.5
 50
294.042076
 51
335.957924
  0
ARC
  8
LC-007-002-RND-0
  6
CONTINUOUS
  5
189
 10
532.703286
 20
350.416909
 30
0.0
 40
3.5
 50
335.957924
 51
90.0
  0
ARC
  8
LC-007-002-RND-0
  6
CONTINUOUS
  5
18A
 10
532.703286
 20
350.416909
 30
0.0
 40
3.5
 50
90.0
 51
155.957924
  0
ARC
  8
LC-007-002-RND-0
  6
CONTINUOUS
  5
18B
 10
519.04563
 20
336.759253
 30
0.0
 40
3.5
 50
180.0
 51
294.042076
  0
ARC
  8
LC-007-002-RND-0
  6
CONTINUOUS
  5
18C
 10
519.04563
 20
336.759253
 30
0.0
 40
3.5
 50
114.042076
 51
180.0
  0
LINE
  8
LC-001-002-----0
  6
CONTINUOUS
  5
18D
 10
566.011137
 20
353.916909
 30
0.0
 11
566.011137
 21
353.916909
 31
0.0
  0
ARC
  8
LC-001-002-----0
  6
CONTINUOUS
  5
18E
 10
508.04563
 20
361.416909
 30
0.0
 40
39.5
 50
284.821821
 51
345.178179
  0
ARC
  8
LC-001-002-----0
  6
CONTINUOUS
  5
18F
 10
508.04563
 20
361.416909
 30
0.0
 40
46.5
 50
284.821821
 51
345.178179
  0
ARC
  8
LC-007-002-RND-0
  6
CONTINUOUS
  5
190
 10
549.614849
 20
350.416909
 30
0.0
 40
3.5
 50
345.178179
 51
90.0
  0
ARC
  8
LC-007-002-RND-0
  6
CONTINUOUS
  5
191
 10
549.614849
 20
350.416909
 30
0.0
 40
3.5
 50
90.0
 51
165.178179
  0
ARC
  8
LC-001-002-----0
  6
CONTINUOUS
  5
192
 10
508.04563
 20
361.416909
 30
0.0
 40
55.5
 50
280.745139
 51
349.254861
  0
ARC
  8
LC-001-002-----0
  6
CONTINUOUS
  5
193
 10
508.04563
 20
361.416909
 30
0.0
 40
62.5
 50
280.745139
 51
349.254861
  0
ARC
  8
LC-007-002-RND-0
  6
CONTINUOUS
  5
194
 10
566.011137
 20
350.416909
 30
0.0
 40
3.5
 50
349.254861
 51
90.0
  0
ARC
  8
LC-007-002-RND-0
  6
CONTINUOUS
  5
195
 10
497.04563
 20
336.759253
 30
0.0
 40
3.5
 50
245.957924
 51
0.0
  0
ARC
  8
LC-007-002-RND-0
  6
CONTINUOUS
  5
196
 10
497.04563
 20
336.759253
 30
0.0
 40
3.5
 50
0.0
 51
65.957924
  0
ARC
  8
LC-007-002-RND-0
  6
CONTINUOUS
  5
197
 10
497.04563
 20
319.84769
 30
0.0
 40
3.5
 50
0.0
 51
75.178179
  0
ARC
  8
LC-007-002-RND-0
  6
CONTINUOUS
  5
198
 10
497.04563
 20
319.84769
 30
0.0
 40
3.5
 50
255.178179
 51
0.0
  0
ARC
  8
LC-007-002-RND-0
  6
CONTINUOUS
  5
199
 10
497.04563
 20
303.451402
 30
0.0
 40
3.5
 50
0.0
 51
79.254861
  0
ARC
  8
LC-007-002-RND-0
  6
CONTINUOUS
  5
19A
 10
497.04563
 20
303.451402
 30
0.0
 40
3.5
 50
259.254861
 51
0.0
  0
ARC
  8
LC-007-002-RND-0
  6
CONTINUOUS
  5
19B
 10
519.04563
 20
319.84769
 30
0.0
 40
3.5
 50
104.821821
 51
180.0
  0
ARC
  8
LC-007-002-RND-0
  6
CONTINUOUS
  5
19C
 10
519.04563
 20
319.84769
 30
0.0
 40
3.5
 50
180.0
 51
284.821821
  0
ARC
  8
LC-007-002-RND-0
  6
CONTINUOUS
  5
19D
 10
519.04563
 20
303.451402
 30
0.0
 40
3.5
 50
100.745139
 51
180.0
  0
ARC
  8
LC-007-002-RND-0
  6
CONTINUOUS
  5
19E
 10
519.04563
 20
303.451402
 30
0.0
 40
3.5
 50
180.0
 51
280.745139
  0
ENDSEC
  0
EOF
