  0
SECTION
  2
HEADER
  9
$ACADVER
  1
AC1015
  9
$ACADMAINTVER
 70
     6
  9
$DWGCODEPAGE
  3
ANSI_1252
  9
$INSBASE
 10
0.0
 20
0.0
 30
0.0
  9
$EXTMIN
 10
-282.457552
 20
-226.26346
 30
0.0
  9
$EXTMAX
 10
557.542448
 20
367.73654
 30
0.0
  9
$LIMMIN
 10
-282.457552
 20
-226.26346
  9
$LIMMAX
 10
557.542448
 20
367.73654
  9
$ORTHOMODE
 70
     0
  9
$REGENMODE
 70
     1
  9
$FILLMODE
 70
     1
  9
$QTEXTMODE
 70
     0
  9
$MIRRTEXT
 70
     1
  9
$LTSCALE
 40
2.0
  9
$ATTMODE
 70
     1
  9
$TEXTSIZE
 40
2.5
  9
$TRACEWID
 40
1.0
  9
$TEXTSTYLE
  7
Standard
  9
$CLAYER
  8
0
  9
$CELTYPE
  6
ByLayer
  9
$CECOLOR
 62
     7
  9
$CELTSCALE
 40
1.0
  9
$DISPSILH
 70
     0
  9
$DIMSCALE
 40
2.0
  9
$DIMASZ
 40
3.5
  9
$DIMEXO
 40
0.625
  9
$DIMDLI
 40
3.75
  9
$DIMRND
 40
0.0
  9
$DIMDLE
 40
0.0
  9
$DIMEXE
 40
1.25
  9
$DIMTP
 40
0.0
  9
$DIMTM
 40
0.0
  9
$DIMTXT
 40
3.5
  9
$DIMCEN
 40
2.5
  9
$DIMTSZ
 40
0.0
  9
$DIMTOL
 70
     0
  9
$DIMLIM
 70
     0
  9
$DIMTIH
 70
     0
  9
$DIMTOH
 70
     0
  9
$DIMSE1
 70
     0
  9
$DIMSE2
 70
     0
  9
$DIMTAD
 70
     1
  9
$DIMZIN
 70
     8
  9
$DIMBLK
  1

  9
$DIMASO
 70
     1
  9
$DIMSHO
 70
     1
  9
$DIMPOST
  1

  9
$DIMAPOST
  1

  9
$DIMALT
 70
     0
  9
$DIMALTD
 70
     3
  9
$DIMALTF
 40
0.03937
  9
$DIMLFAC
 40
1.0
  9
$DIMTOFL
 70
     1
  9
$DIMTVP
 40
0.0
  9
$DIMTIX
 70
     0
  9
$DIMSOXD
 70
     0
  9
$DIMSAH
 70
     0
  9
$DIMBLK1
  1

  9
$DIMBLK2
  1

  9
$DIMSTYLE
  2
ISO-25
  9
$DIMCLRD
 70
     0
  9
$DIMCLRE
 70
     0
  9
$DIMCLRT
 70
     0
  9
$DIMTFAC
 40
1.0
  9
$DIMGAP
 40
0.625
  9
$DIMJUST
 70
     0
  9
$DIMSD1
 70
     0
  9
$DIMSD2
 70
     0
  9
$DIMTOLJ
 70
     0
  9
$DIMTZIN
 70
     8
  9
$DIMALTZ
 70
     0
  9
$DIMALTTZ
 70
     0
  9
$DIMUPT
 70
     0
  9
$DIMDEC
 70
     2
  9
$DIMTDEC
 70
     2
  9
$DIMALTU
 70
     2
  9
$DIMALTTD
 70
     3
  9
$DIMTXSTY
  7
Standard
  9
$DIMAUNIT
 70
     0
  9
$DIMADEC
 70
     0
  9
$DIMALTRND
 40
0.0
  9
$DIMAZIN
 70
     0
  9
$DIMDSEP
 70
    44
  9
$DIMATFIT
 70
     3
  9
$DIMFRAC
 70
     0
  9
$DIMLDRBLK
  1

  9
$DIMLUNIT
 70
     2
  9
$DIMLWD
 70
    -2
  9
$DIMLWE
 70
    -2
  9
$DIMTMOVE
 70
     0
  9
$LUNITS
 70
     2
  9
$LUPREC
 70
     4
  9
$SKETCHINC
 40
1.0
  9
$FILLETRAD
 40
10.0
  9
$AUNITS
 70
     0
  9
$AUPREC
 70
     0
  9
$MENU
  1
.
  9
$ELEVATION
 40
0.0
  9
$PELEVATION
 40
0.0
  9
$THICKNESS
 40
0.0
  9
$LIMCHECK
 70
     0
  9
$CHAMFERA
 40
10.0
  9
$CHAMFERB
 40
10.0
  9
$CHAMFERC
 40
20.0
  9
$CHAMFERD
 40
0.0
  9
$SKPOLY
 70
     0
  9
$TDCREATE
 40
2455513.264796389
  9
$TDUCREATE
 40
2455513.223129722
  9
$TDUPDATE
 40
2455513.2647964
  9
$TDUUPDATE
 40
2455513.223129734
  9
$TDINDWG
 40
0.0000000116
  9
$TDUSRTIMER
 40
0.0000000116
  9
$USRTIMER
 70
     1
  9
$ANGBASE
 50
0.0
  9
$ANGDIR
 70
     0
  9
$PDMODE
 70
     0
  9
$PDSIZE
 40
0.0
  9
$PLINEWID
 40
0.0
  9
$SPLFRAME
 70
     0
  9
$SPLINETYPE
 70
     6
  9
$SPLINESEGS
 70
     8
  9
$HANDSEED
  5
47B
  9
$SURFTAB1
 70
     6
  9
$SURFTAB2
 70
     6
  9
$SURFTYPE
 70
     6
  9
$SURFU
 70
     6
  9
$SURFV
 70
     6
  9
$UCSBASE
  2

  9
$UCSNAME
  2

  9
$UCSORG
 10
0.0
 20
0.0
 30
0.0
  9
$UCSXDIR
 10
1.0
 20
0.0
 30
0.0
  9
$UCSYDIR
 10
0.0
 20
1.0
 30
0.0
  9
$UCSORTHOREF
  2

  9
$UCSORTHOVIEW
 70
     0
  9
$UCSORGTOP
 10
0.0
 20
0.0
 30
0.0
  9
$UCSORGBOTTOM
 10
0.0
 20
0.0
 30
0.0
  9
$UCSORGLEFT
 10
0.0
 20
0.0
 30
0.0
  9
$UCSORGRIGHT
 10
0.0
 20
0.0
 30
0.0
  9
$UCSORGFRONT
 10
0.0
 20
0.0
 30
0.0
  9
$UCSORGBACK
 10
0.0
 20
0.0
 30
0.0
  9
$PUCSBASE
  2

  9
$PUCSNAME
  2

  9
$PUCSORG
 10
0.0
 20
0.0
 30
0.0
  9
$PUCSXDIR
 10
1.0
 20
0.0
 30
0.0
  9
$PUCSYDIR
 10
0.0
 20
1.0
 30
0.0
  9
$PUCSORTHOREF
  2

  9
$PUCSORTHOVIEW
 70
     0
  9
$PUCSORGTOP
 10
0.0
 20
0.0
 30
0.0
  9
$PUCSORGBOTTOM
 10
0.0
 20
0.0
 30
0.0
  9
$PUCSORGLEFT
 10
0.0
 20
0.0
 30
0.0
  9
$PUCSORGRIGHT
 10
0.0
 20
0.0
 30
0.0
  9
$PUCSORGFRONT
 10
0.0
 20
0.0
 30
0.0
  9
$PUCSORGBACK
 10
0.0
 20
0.0
 30
0.0
  9
$USERI1
 70
     0
  9
$USERI2
 70
     0
  9
$USERI3
 70
     0
  9
$USERI4
 70
     0
  9
$USERI5
 70
     0
  9
$USERR1
 40
0.0
  9
$USERR2
 40
0.0
  9
$USERR3
 40
0.0
  9
$USERR4
 40
0.0
  9
$USERR5
 40
0.0
  9
$WORLDVIEW
 70
     1
  9
$SHADEDGE
 70
     3
  9
$SHADEDIF
 70
    70
  9
$TILEMODE
 70
     1
  9
$MAXACTVP
 70
    64
  9
$PINSBASE
 10
0.0
 20
0.0
 30
0.0
  9
$PLIMCHECK
 70
     0
  9
$PEXTMIN
 10
-282.457552
 20
-226.26346
 30
0.0
  9
$PEXTMAX
 10
557.542448
 20
367.73654
 30
0.0
  9
$PLIMMIN
 10
-282.457552
 20
-226.26346
  9
$PLIMMAX
 10
557.542448
 20
367.73654
  9
$UNITMODE
 70
     0
  9
$VISRETAIN
 70
     1
  9
$PLINEGEN
 70
     0
  9
$PSLTSCALE
 70
     1
  9
$TREEDEPTH
 70
  3020
  9
$CMLSTYLE
  2
Standard
  9
$CMLJUST
 70
     0
  9
$CMLSCALE
 40
20.0
  9
$PROXYGRAPHICS
 70
     1
  9
$MEASUREMENT
 70
     1
  9
$CELWEIGHT
370
    -1
  9
$ENDCAPS
280
     0
  9
$JOINSTYLE
280
     0
  9
$LWDISPLAY
290
     0
  9
$INSUNITS
 70
     4
  9
$HYPERLINKBASE
  1

  9
$STYLESHEET
  1

  9
$XEDIT
290
     1
  9
$CEPSNTYPE
380
     0
  9
$PSTYLEMODE
290
     1
  9
$FINGERPRINTGUID
  2
{FAEB1C30-E019-11D5-929B-00C0DF256EC4}
  9
$VERSIONGUID
  2
{FAEB1C32-E019-11D5-929B-00C0DF256EC4}
  9
$EXTNAMES
290
     1
  9
$PSVPSCALE
 40
0.0
  9
$OLESTARTUP
290
     0
  0
ENDSEC
  0
SECTION
  2
CLASSES
  0
CLASS
  1
ACDBDICTIONARYWDFLT
  2
AcDbDictionaryWithDefault
  3
ObjectDBX Classes
 90
        0
280
     0
281
     0
  0
CLASS
  1
ACDBPLACEHOLDER
  2
AcDbPlaceHolder
  3
ObjectDBX Classes
 90
        0
280
     0
281
     0
  0
CLASS
  1
LAYOUT
  2
AcDbLayout
  3
ObjectDBX Classes
 90
        0
280
     0
281
     0
  0
ENDSEC
  0
SECTION
  2
TABLES
  0
TABLE
  2
VPORT
  5
8
330
0
100
AcDbSymbolTable
 70
     2
  0
VPORT
  5
29
330
8
100
AcDbSymbolTableRecord
100
AcDbViewportTableRecord
  2
*ACTIVE
 70
     0
 10
0.0
 20
0.0
 11
1.0
 21
1.0
 12
137.542448
 22
70.73654
 13
0.0
 23
0.0
 14
1.0
 24
1.0
 15
0.0
 25
0.0
 16
0.0
 26
0.0
 36
1.0
 17
0.0
 27
0.0
 37
0.0
 40
594.0
 41
1.414141
 42
50.0
 43
0.0
 44
0.0
 50
0.0
 51
0.0
 71
    16
 72
   100
 73
     1
 74
     0
 75
     0
 76
     0
 77
     0
 78
     0
281
     0
 65
     0
110
0.0
120
0.0
130
0.0
111
1.0
121
0.0
131
0.0
112
0.0
122
1.0
132
0.0
 79
     0
146
0.0
  0
ENDTAB
  0
TABLE
  2
LTYPE
  5
5
330
0
100
AcDbSymbolTable
 70
     3
  0
LTYPE
  5
14
330
5
100
AcDbSymbolTableRecord
100
AcDbLinetypeTableRecord
  2
ByBlock
 70
     0
  3

 72
    65
 73
     0
 40
0.0
  0
LTYPE
  5
15
330
5
100
AcDbSymbolTableRecord
100
AcDbLinetypeTableRecord
  2
ByLayer
 70
     0
  3

 72
    65
 73
     0
 40
0.0
  0
LTYPE
  5
16
330
5
100
AcDbSymbolTableRecord
100
AcDbLinetypeTableRecord
  2
Continuous
 70
     0
  3
Solid line
 72
    65
 73
     0
 40
0.0
  0
LTYPE
  5
2A
330
5
100
AcDbSymbolTableRecord
100
AcDbLinetypeTableRecord
  2
DASHED
 70
     0
  3
__ __ __ __ __
 72
    65
 73
     2
 40
6.25
 49
5.0
 74
     4
 75
     0
340
0
 46
1.0
 50
0.0
 44
0.0
 45
0.0
 49
-1.25
 74
     4
 75
     0
340
0
 46
1.0
 50
0.0
 44
0.0
 45
0.0
  0
LTYPE
  5
3E5
330
5
100
AcDbSymbolTableRecord
100
AcDbLinetypeTableRecord
  2
DASHDOT
 70
     0
  3
__ . __ . __ . __ . __
 72
    65
 73
     4
 40
7.5
 49
5.0
 74
     4
 75
     0
340
0
 46
1.0
 50
0.0
 44
0.0
 45
0.0
 49
-1.25
 74
     4
 75
     0
340
0
 46
1.0
 50
0.0
 44
0.0
 45
0.0
 49
0.0
 74
     4
 75
     0
340
0
 46
1.0
 50
0.0
 44
0.0
 45
0.0
 49
-1.25
 74
     4
 75
     0
340
0
 46
1.0
 50
0.0
 44
0.0
 45
0.0
  0
ENDTAB
  0
TABLE
  2
LAYER
  5
2
330
0
100
AcDbSymbolTable
 70
     8
  0
LAYER
  5
10
330
2
100
AcDbSymbolTableRecord
100
AcDbLayerTableRecord
  2
0
 70
     0
 62
     7
  6
Continuous
370
    -3
390
F
  0
LAYER
  5
2B
330
2
100
AcDbSymbolTableRecord
100
AcDbLayerTableRecord
  2
LC-INFO-1-2-mm-A3-0
 70
     1
 62
     7
  6
ByBlock
370
    -3
390
F
  0
LAYER
  5
2C
330
2
100
AcDbSymbolTableRecord
100
AcDbLayerTableRecord
  2
LC-CUT-HIDDEN
 70
     0
 62
     7
  6
DASHED
370
    -3
390
F
  0
LAYER
  5
2D
330
2
100
AcDbSymbolTableRecord
100
AcDbLayerTableRecord
  2
LC-VIEWPORT
 70
     0
 62
     7
  6
ByBlock
370
    -3
390
F
  0
LAYER
  5
2E
330
2
100
AcDbSymbolTableRecord
100
AcDbLayerTableRecord
  2
LC-3D-HIDDEN
 70
     0
 62
     9
  6
DASHED
370
    -3
390
F
  0
LAYER
  5
30
330
2
100
AcDbSymbolTableRecord
100
AcDbLayerTableRecord
  2
LC-001-100-D00-0
 70
     0
 62
     1
  6
ByBlock
370
    -3
390
F
  0
LAYER
  5
442
330
2
100
AcDbSymbolTableRecord
100
AcDbLayerTableRecord
  2
LC-002-003-----0
 70
     0
 62
     2
  6
ByBlock
370
    -3
390
F
  0
LAYER
  5
444
330
2
100
AcDbSymbolTableRecord
100
AcDbLayerTableRecord
  2
Defpoints
 70
     0
 62
     7
  6
Continuous
290
     0
370
    -3
390
F
  0
ENDTAB
  0
TABLE
  2
STYLE
  5
3
330
0
100
AcDbSymbolTable
 70
     3
  0
STYLE
  5
11
330
3
100
AcDbSymbolTableRecord
100
AcDbTextStyleTableRecord
  2
Standard
 70
     0
 40
0.0
 41
1.0
 50
0.0
 71
     0
 42
2.5
  3
txt
  4

  0
STYLE
  5
2F
330
3
100
AcDbSymbolTableRecord
100
AcDbTextStyleTableRecord
  2
LCTX15-400-0-0-Arial
 70
     0
 40
0.0
 41
0.8
 50
0.0
 71
     0
 42
3.5
  3

  4

1001
ACAD
1000
Arial
1071
 16777218
  0
STYLE
  5
440
330
3
100
AcDbSymbolTableRecord
100
AcDbTextStyleTableRecord
  2
LCTX15-400-0-0pDIN-Schrift
 70
     0
 40
2.5
 41
0.8
 50
15.0
 71
     0
 42
3.5
  3
STANDARD
  4

  0
ENDTAB
  0
TABLE
  2
VIEW
  5
6
330
0
100
AcDbSymbolTable
 70
     0
  0
ENDTAB
  0
TABLE
  2
UCS
  5
7
330
0
100
AcDbSymbolTable
 70
     0
  0
ENDTAB
  0
TABLE
  2
APPID
  5
9
330
0
100
AcDbSymbolTable
 70
     1
  0
APPID
  5
12
330
9
100
AcDbSymbolTableRecord
100
AcDbRegAppTableRecord
  2
ACAD
 70
     0
  0
ENDTAB
  0
TABLE
  2
DIMSTYLE
  5
A
330
0
100
AcDbSymbolTable
 70
     2
100
AcDbDimStyleTable
  0
DIMSTYLE
105
27
330
A
100
AcDbSymbolTableRecord
100
AcDbDimStyleTableRecord
  2
ISO-25
 70
     0
 41
2.5
 42
0.625
 43
3.75
 44
1.25
 73
     0
 74
     0
 77
     1
 78
     8
140
2.5
141
2.5
143
0.03937
147
0.625
171
     3
172
     1
271
     2
272
     2
274
     3
278
    44
283
     0
284
     8
340
11
  0
DIMSTYLE
105
441
102
{ACAD_REACTORS
330
443
330
451
330
45E
330
46D
102
}
330
A
100
AcDbSymbolTableRecord
100
AcDbDimStyleTableRecord
  2
LC-DIM-L-0140-02-02
 70
     0
 40
2.0
 41
14.0
 42
0.0
 43
7.5
 44
1.8
 73
     0
 74
     0
 77
     1
 78
     8
 79
     2
140
14.0
141
0.0
146
0.71
147
1.5
176
     2
177
     2
178
     2
179
     2
271
     2
278
    44
289
     1
340
440
  0
ENDTAB
  0
TABLE
  2
BLOCK_RECORD
  5
1
330
0
100
AcDbSymbolTable
 70
    41
  0
BLOCK_RECORD
  5
1F
330
1
100
AcDbSymbolTableRecord
100
AcDbBlockTableRecord
  2
*Model_Space
340
22
  0
BLOCK_RECORD
  5
1B
330
1
100
AcDbSymbolTableRecord
100
AcDbBlockTableRecord
  2
*Paper_Space
340
1E
  0
BLOCK_RECORD
  5
23
330
1
100
AcDbSymbolTableRecord
100
AcDbBlockTableRecord
  2
*Paper_Space0
340
26
  0
BLOCK_RECORD
  5
131
330
1
100
AcDbSymbolTableRecord
100
AcDbBlockTableRecord
  2
POLY1
340
0
102
{BLKREFS
331
142
102
}
  0
BLOCK_RECORD
  5
143
330
1
100
AcDbSymbolTableRecord
100
AcDbBlockTableRecord
  2
POLY2
340
0
102
{BLKREFS
331
154
102
}
  0
BLOCK_RECORD
  5
155
330
1
100
AcDbSymbolTableRecord
100
AcDbBlockTableRecord
  2
POLY3
340
0
102
{BLKREFS
331
166
102
}
  0
BLOCK_RECORD
  5
167
330
1
100
AcDbSymbolTableRecord
100
AcDbBlockTableRecord
  2
POLY4
340
0
102
{BLKREFS
331
178
102
}
  0
BLOCK_RECORD
  5
179
330
1
100
AcDbSymbolTableRecord
100
AcDbBlockTableRecord
  2
POLY5
340
0
102
{BLKREFS
331
18A
102
}
  0
BLOCK_RECORD
  5
18B
330
1
100
AcDbSymbolTableRecord
100
AcDbBlockTableRecord
  2
POLY6
340
0
102
{BLKREFS
331
19C
102
}
  0
BLOCK_RECORD
  5
19D
330
1
100
AcDbSymbolTableRecord
100
AcDbBlockTableRecord
  2
POLY7
340
0
102
{BLKREFS
331
1AE
102
}
  0
BLOCK_RECORD
  5
1AF
330
1
100
AcDbSymbolTableRecord
100
AcDbBlockTableRecord
  2
POLY8
340
0
102
{BLKREFS
331
1C0
102
}
  0
BLOCK_RECORD
  5
1C1
330
1
100
AcDbSymbolTableRecord
100
AcDbBlockTableRecord
  2
POLY9
340
0
102
{BLKREFS
331
1D2
102
}
  0
BLOCK_RECORD
  5
1D3
330
1
100
AcDbSymbolTableRecord
100
AcDbBlockTableRecord
  2
POLY10
340
0
102
{BLKREFS
331
1E4
102
}
  0
BLOCK_RECORD
  5
1E5
330
1
100
AcDbSymbolTableRecord
100
AcDbBlockTableRecord
  2
POLY11
340
0
102
{BLKREFS
331
1F6
102
}
  0
BLOCK_RECORD
  5
1F7
330
1
100
AcDbSymbolTableRecord
100
AcDbBlockTableRecord
  2
POLY12
340
0
102
{BLKREFS
331
208
102
}
  0
BLOCK_RECORD
  5
209
330
1
100
AcDbSymbolTableRecord
100
AcDbBlockTableRecord
  2
POLY13
340
0
102
{BLKREFS
331
21A
102
}
  0
BLOCK_RECORD
  5
21B
330
1
100
AcDbSymbolTableRecord
100
AcDbBlockTableRecord
  2
POLY14
340
0
102
{BLKREFS
331
22C
102
}
  0
BLOCK_RECORD
  5
22D
330
1
100
AcDbSymbolTableRecord
100
AcDbBlockTableRecord
  2
POLY15
340
0
102
{BLKREFS
331
23E
102
}
  0
BLOCK_RECORD
  5
23F
330
1
100
AcDbSymbolTableRecord
100
AcDbBlockTableRecord
  2
POLY16
340
0
102
{BLKREFS
331
250
102
}
  0
BLOCK_RECORD
  5
26B
330
1
100
AcDbSymbolTableRecord
100
AcDbBlockTableRecord
  2
POLY17
340
0
102
{BLKREFS
331
27C
102
}
  0
BLOCK_RECORD
  5
27F
330
1
100
AcDbSymbolTableRecord
100
AcDbBlockTableRecord
  2
KLON1
340
0
102
{BLKREFS
331
284
102
}
  0
BLOCK_RECORD
  5
28A
330
1
100
AcDbSymbolTableRecord
100
AcDbBlockTableRecord
  2
KLON2
340
0
102
{BLKREFS
331
28F
102
}
  0
BLOCK_RECORD
  5
295
330
1
100
AcDbSymbolTableRecord
100
AcDbBlockTableRecord
  2
KLON3
340
0
102
{BLKREFS
331
29A
102
}
  0
BLOCK_RECORD
  5
29E
330
1
100
AcDbSymbolTableRecord
100
AcDbBlockTableRecord
  2
KLON4
340
0
102
{BLKREFS
331
2A3
102
}
  0
BLOCK_RECORD
  5
2A4
330
1
100
AcDbSymbolTableRecord
100
AcDbBlockTableRecord
  2
KLON5
340
0
102
{BLKREFS
331
2A9
102
}
  0
BLOCK_RECORD
  5
2AA
330
1
100
AcDbSymbolTableRecord
100
AcDbBlockTableRecord
  2
KLON6
340
0
102
{BLKREFS
331
2AF
102
}
  0
BLOCK_RECORD
  5
2B0
330
1
100
AcDbSymbolTableRecord
100
AcDbBlockTableRecord
  2
POLY18
340
0
102
{BLKREFS
331
2C7
102
}
  0
BLOCK_RECORD
  5
338
330
1
100
AcDbSymbolTableRecord
100
AcDbBlockTableRecord
  2
POLY19
340
0
102
{BLKREFS
331
349
102
}
  0
BLOCK_RECORD
  5
34F
330
1
100
AcDbSymbolTableRecord
100
AcDbBlockTableRecord
  2
POLY20
340
0
102
{BLKREFS
331
360
102
}
  0
BLOCK_RECORD
  5
361
330
1
100
AcDbSymbolTableRecord
100
AcDbBlockTableRecord
  2
POLY21
340
0
102
{BLKREFS
331
36C
102
}
  0
BLOCK_RECORD
  5
371
330
1
100
AcDbSymbolTableRecord
100
AcDbBlockTableRecord
  2
POLY22
340
0
102
{BLKREFS
331
382
102
}
  0
BLOCK_RECORD
  5
383
330
1
100
AcDbSymbolTableRecord
100
AcDbBlockTableRecord
  2
POLY23
340
0
102
{BLKREFS
331
38E
102
}
  0
BLOCK_RECORD
  5
3AB
330
1
100
AcDbSymbolTableRecord
100
AcDbBlockTableRecord
  2
KLON7
340
0
102
{BLKREFS
331
3B3
102
}
  0
BLOCK_RECORD
  5
3B4
330
1
100
AcDbSymbolTableRecord
100
AcDbBlockTableRecord
  2
KLON8
340
0
102
{BLKREFS
331
3BD
102
}
  0
BLOCK_RECORD
  5
3BE
330
1
100
AcDbSymbolTableRecord
100
AcDbBlockTableRecord
  2
KLON9
340
0
102
{BLKREFS
331
3C3
102
}
  0
BLOCK_RECORD
  5
3C4
330
1
100
AcDbSymbolTableRecord
100
AcDbBlockTableRecord
  2
KLON10
340
0
102
{BLKREFS
331
3CC
102
}
  0
BLOCK_RECORD
  5
3CD
330
1
100
AcDbSymbolTableRecord
100
AcDbBlockTableRecord
  2
KLON11
340
0
102
{BLKREFS
331
3D4
102
}
  0
BLOCK_RECORD
  5
3D5
330
1
100
AcDbSymbolTableRecord
100
AcDbBlockTableRecord
  2
KLON12
340
0
102
{BLKREFS
331
3DA
102
}
  0
BLOCK_RECORD
  5
3DD
330
1
100
AcDbSymbolTableRecord
100
AcDbBlockTableRecord
  2
KLON13
340
0
102
{BLKREFS
331
3E2
102
}
  0
BLOCK_RECORD
  5
445
330
1
100
AcDbSymbolTableRecord
100
AcDbBlockTableRecord
  2
*D37
340
0
  0
BLOCK_RECORD
  5
452
330
1
100
AcDbSymbolTableRecord
100
AcDbBlockTableRecord
  2
*D38
340
0
  0
BLOCK_RECORD
  5
45F
330
1
100
AcDbSymbolTableRecord
100
AcDbBlockTableRecord
  2
*D39
340
0
  0
BLOCK_RECORD
  5
46E
330
1
100
AcDbSymbolTableRecord
100
AcDbBlockTableRecord
  2
*D40
340
0
  0
ENDTAB
  0
ENDSEC
  0
SECTION
  2
BLOCKS
  0
BLOCK
  5
20
330
1F
100
AcDbEntity
  8
0
100
AcDbBlockBegin
  2
*Model_Space
 70
     0
 71
     0
 10
0.0
 20
0.0
 30
0.0
  3
*Model_Space
  1

  0
ENDBLK
  5
21
330
1F
100
AcDbEntity
  8
0
100
AcDbBlockEnd
  0
BLOCK
  5
1C
330
1B
100
AcDbEntity
 67
     1
  8
0
100
AcDbBlockBegin
  2
*Paper_Space
 70
     0
 71
     0
 10
0.0
 20
0.0
 30
0.0
  3
*Paper_Space
  1

  0
ENDBLK
  5
1D
330
1B
100
AcDbEntity
 67
     1
  8
0
100
AcDbBlockEnd
  0
BLOCK
  5
24
330
23
100
AcDbEntity
  8
0
100
AcDbBlockBegin
  2
*Paper_Space0
 70
     0
 71
     0
 10
0.0
 20
0.0
 30
0.0
  3
*Paper_Space0
  1

  0
ENDBLK
  5
25
330
23
100
AcDbEntity
  8
0
100
AcDbBlockEnd
  0
BLOCK
  5
132
330
131
100
AcDbEntity
  8
0
100
AcDbBlockBegin
  2
POLY1
 70
     0
 71
     0
 10
0.0
 20
0.0
 30
0.0
  3
POLY1
  1

  4
POLY1
  0
LINE
  5
134
330
131
100
AcDbEntity
  8
LC-001-100-D00-0
 62
     7
370
    50
100
AcDbLine
 10
353.860412
 20
64.859242
 30
0.0
 11
353.860412
 21
64.859242
 31
0.0
  0
LINE
  5
135
330
131
100
AcDbEntity
  8
LC-001-100-D00-0
 62
     7
370
    50
100
AcDbLine
 10
353.860412
 20
64.859242
 30
0.0
 11
353.865918
 21
64.85917
 31
0.0
  0
LINE
  5
136
330
131
100
AcDbEntity
  8
LC-001-100-D00-0
 62
     7
370
    50
100
AcDbLine
 10
353.865918
 20
64.85917
 30
0.0
 11
353.865918
 21
64.85917
 31
0.0
  0
LINE
  5
137
330
131
100
AcDbEntity
  8
LC-001-100-D00-0
 62
     7
370
    50
100
AcDbLine
 10
353.865918
 20
64.85917
 30
0.0
 11
353.876932
 21
64.859028
 31
0.0
  0
LINE
  5
138
330
131
100
AcDbEntity
  8
LC-001-100-D00-0
 62
     7
370
    50
100
AcDbLine
 10
353.876932
 20
64.859028
 30
0.0
 11
353.876932
 21
64.859028
 31
0.0
  0
LINE
  5
139
330
131
100
AcDbEntity
  8
LC-001-100-D00-0
 62
     7
370
    50
100
AcDbLine
 10
353.876932
 20
64.859028
 30
0.0
 11
353.962485
 21
64.862454
 31
0.0
  0
LINE
  5
13A
330
131
100
AcDbEntity
  8
LC-001-100-D00-0
 62
     7
370
    50
100
AcDbLine
 10
353.962485
 20
64.862454
 30
0.0
 11
353.962485
 21
64.862454
 31
0.0
  0
LINE
  5
13B
330
131
100
AcDbEntity
  8
LC-001-100-D00-0
 62
     7
370
    50
100
AcDbLine
 10
353.962485
 20
64.862454
 30
0.0
 11
354.085526
 21
64.881832
 31
0.0
  0
LINE
  5
13C
330
131
100
AcDbEntity
  8
LC-001-100-D00-0
 62
     7
370
    50
100
AcDbLine
 10
354.085526
 20
64.881832
 30
0.0
 11
354.085526
 21
64.881832
 31
0.0
  0
LINE
  5
13D
330
131
100
AcDbEntity
  8
LC-001-100-D00-0
 62
     7
370
    50
100
AcDbLine
 10
354.085526
 20
64.881832
 30
0.0
 11
354.227505
 21
64.923876
 31
0.0
  0
LINE
  5
13E
330
131
100
AcDbEntity
  8
LC-001-100-D00-0
 62
     7
370
    50
100
AcDbLine
 10
354.227505
 20
64.923876
 30
0.0
 11
354.227505
 21
64.923876
 31
0.0
  0
LINE
  5
13F
330
131
100
AcDbEntity
  8
LC-001-100-D00-0
 62
     7
370
    50
100
AcDbLine
 10
354.227505
 20
64.923876
 30
0.0
 11
354.317553
 21
64.97086
 31
0.0
  0
LINE
  5
140
330
131
100
AcDbEntity
  8
LC-001-100-D00-0
 62
     7
370
    50
100
AcDbLine
 10
354.317553
 20
64.97086
 30
0.0
 11
354.317553
 21
64.97086
 31
0.0
  0
LINE
  5
141
330
131
100
AcDbEntity
  8
LC-001-100-D00-0
 62
     7
370
    50
100
AcDbLine
 10
354.317553
 20
64.97086
 30
0.0
 11
354.360405
 21
64.993218
 31
0.0
  0
ENDBLK
  5
133
330
131
100
AcDbEntity
  8
0
100
AcDbBlockEnd
  0
BLOCK
  5
144
330
143
100
AcDbEntity
  8
0
100
AcDbBlockBegin
  2
POLY2
 70
     0
 71
     0
 10
0.0
 20
0.0
 30
0.0
  3
POLY2
  1

  4
POLY2
  0
LINE
  5
146
330
143
100
AcDbEntity
  8
LC-001-100-D00-0
 62
     7
370
    50
100
AcDbLine
 10
354.360405
 20
79.725266
 30
0.0
 11
354.360405
 21
79.725266
 31
0.0
  0
LINE
  5
147
330
143
100
AcDbEntity
  8
LC-001-100-D00-0
 62
     7
370
    50
100
AcDbLine
 10
354.360405
 20
79.725266
 30
0.0
 11
354.310747
 21
79.750752
 31
0.0
  0
LINE
  5
148
330
143
100
AcDbEntity
  8
LC-001-100-D00-0
 62
     7
370
    50
100
AcDbLine
 10
354.310747
 20
79.750752
 30
0.0
 11
354.310747
 21
79.750752
 31
0.0
  0
LINE
  5
149
330
143
100
AcDbEntity
  8
LC-001-100-D00-0
 62
     7
370
    50
100
AcDbLine
 10
354.310747
 20
79.750752
 30
0.0
 11
354.21127
 21
79.801805
 31
0.0
  0
LINE
  5
14A
330
143
100
AcDbEntity
  8
LC-001-100-D00-0
 62
     7
370
    50
100
AcDbLine
 10
354.21127
 20
79.801805
 30
0.0
 11
354.21127
 21
79.801805
 31
0.0
  0
LINE
  5
14B
330
143
100
AcDbEntity
  8
LC-001-100-D00-0
 62
     7
370
    50
100
AcDbLine
 10
354.21127
 20
79.801805
 30
0.0
 11
354.0647
 21
79.840894
 31
0.0
  0
LINE
  5
14C
330
143
100
AcDbEntity
  8
LC-001-100-D00-0
 62
     7
370
    50
100
AcDbLine
 10
354.0647
 20
79.840894
 30
0.0
 11
354.0647
 21
79.840894
 31
0.0
  0
LINE
  5
14D
330
143
100
AcDbEntity
  8
LC-001-100-D00-0
 62
     7
370
    50
100
AcDbLine
 10
354.0647
 20
79.840894
 30
0.0
 11
353.94977
 21
79.856858
 31
0.0
  0
LINE
  5
14E
330
143
100
AcDbEntity
  8
LC-001-100-D00-0
 62
     7
370
    50
100
AcDbLine
 10
353.94977
 20
79.856858
 30
0.0
 11
353.94977
 21
79.856858
 31
0.0
  0
LINE
  5
14F
330
143
100
AcDbEntity
  8
LC-001-100-D00-0
 62
     7
370
    50
100
AcDbLine
 10
353.94977
 20
79.856858
 30
0.0
 11
353.874511
 21
79.859393
 31
0.0
  0
LINE
  5
150
330
143
100
AcDbEntity
  8
LC-001-100-D00-0
 62
     7
370
    50
100
AcDbLine
 10
353.874511
 20
79.859393
 30
0.0
 11
353.874511
 21
79.859393
 31
0.0
  0
LINE
  5
151
330
143
100
AcDbEntity
  8
LC-001-100-D00-0
 62
     7
370
    50
100
AcDbLine
 10
353.874511
 20
79.859393
 30
0.0
 11
353.865056
 21
79.859292
 31
0.0
  0
LINE
  5
152
330
143
100
AcDbEntity
  8
LC-001-100-D00-0
 62
     7
370
    50
100
AcDbLine
 10
353.865056
 20
79.859292
 30
0.0
 11
353.865056
 21
79.859292
 31
0.0
  0
LINE
  5
153
330
143
100
AcDbEntity
  8
LC-001-100-D00-0
 62
     7
370
    50
100
AcDbLine
 10
353.865056
 20
79.859292
 30
0.0
 11
353.860412
 21
79.859242
 31
0.0
  0
ENDBLK
  5
145
330
143
100
AcDbEntity
  8
0
100
AcDbBlockEnd
  0
BLOCK
  5
156
330
155
100
AcDbEntity
  8
0
100
AcDbBlockBegin
  2
POLY3
 70
     0
 71
     0
 10
0.0
 20
0.0
 30
0.0
  3
POLY3
  1

  4
POLY3
  0
LINE
  5
158
330
155
100
AcDbEntity
  8
LC-001-100-D00-0
 62
     7
370
    50
100
AcDbLine
 10
247.360412
 20
186.359238
 30
0.0
 11
247.360412
 21
186.359238
 31
0.0
  0
LINE
  5
159
330
155
100
AcDbEntity
  8
LC-001-100-D00-0
 62
     7
370
    50
100
AcDbLine
 10
247.360412
 20
186.359238
 30
0.0
 11
247.360487
 21
186.36474
 31
0.0
  0
LINE
  5
15A
330
155
100
AcDbEntity
  8
LC-001-100-D00-0
 62
     7
370
    50
100
AcDbLine
 10
247.360487
 20
186.36474
 30
0.0
 11
247.360487
 21
186.36474
 31
0.0
  0
LINE
  5
15B
330
155
100
AcDbEntity
  8
LC-001-100-D00-0
 62
     7
370
    50
100
AcDbLine
 10
247.360487
 20
186.36474
 30
0.0
 11
247.360636
 21
186.375744
 31
0.0
  0
LINE
  5
15C
330
155
100
AcDbEntity
  8
LC-001-100-D00-0
 62
     7
370
    50
100
AcDbLine
 10
247.360636
 20
186.375744
 30
0.0
 11
247.360636
 21
186.375744
 31
0.0
  0
LINE
  5
15D
330
155
100
AcDbEntity
  8
LC-001-100-D00-0
 62
     7
370
    50
100
AcDbLine
 10
247.360636
 20
186.375744
 30
0.0
 11
247.357202
 21
186.461331
 31
0.0
  0
LINE
  5
15E
330
155
100
AcDbEntity
  8
LC-001-100-D00-0
 62
     7
370
    50
100
AcDbLine
 10
247.357202
 20
186.461331
 30
0.0
 11
247.357202
 21
186.461331
 31
0.0
  0
LINE
  5
15F
330
155
100
AcDbEntity
  8
LC-001-100-D00-0
 62
     7
370
    50
100
AcDbLine
 10
247.357202
 20
186.461331
 30
0.0
 11
247.337828
 21
186.584355
 31
0.0
  0
LINE
  5
160
330
155
100
AcDbEntity
  8
LC-001-100-D00-0
 62
     7
370
    50
100
AcDbLine
 10
247.337828
 20
186.584355
 30
0.0
 11
247.337828
 21
186.584355
 31
0.0
  0
LINE
  5
161
330
155
100
AcDbEntity
  8
LC-001-100-D00-0
 62
     7
370
    50
100
AcDbLine
 10
247.337828
 20
186.584355
 30
0.0
 11
247.295768
 21
186.726335
 31
0.0
  0
LINE
  5
162
330
155
100
AcDbEntity
  8
LC-001-100-D00-0
 62
     7
370
    50
100
AcDbLine
 10
247.295768
 20
186.726335
 30
0.0
 11
247.295768
 21
186.726335
 31
0.0
  0
LINE
  5
163
330
155
100
AcDbEntity
  8
LC-001-100-D00-0
 62
     7
370
    50
100
AcDbLine
 10
247.295768
 20
186.726335
 30
0.0
 11
247.24879
 21
186.816387
 31
0.0
  0
LINE
  5
164
330
155
100
AcDbEntity
  8
LC-001-100-D00-0
 62
     7
370
    50
100
AcDbLine
 10
247.24879
 20
186.816387
 30
0.0
 11
247.24879
 21
186.816387
 31
0.0
  0
LINE
  5
165
330
155
100
AcDbEntity
  8
LC-001-100-D00-0
 62
     7
370
    50
100
AcDbLine
 10
247.24879
 20
186.816387
 30
0.0
 11
247.226436
 21
186.859239
 31
0.0
  0
ENDBLK
  5
157
330
155
100
AcDbEntity
  8
0
100
AcDbBlockEnd
  0
BLOCK
  5
168
330
167
100
AcDbEntity
  8
0
100
AcDbBlockBegin
  2
POLY4
 70
     0
 71
     0
 10
0.0
 20
0.0
 30
0.0
  3
POLY4
  1

  4
POLY4
  0
LINE
  5
16A
330
167
100
AcDbEntity
  8
LC-001-100-D00-0
 62
     7
370
    50
100
AcDbLine
 10
232.494388
 20
186.859239
 30
0.0
 11
232.494388
 21
186.859239
 31
0.0
  0
LINE
  5
16B
330
167
100
AcDbEntity
  8
LC-001-100-D00-0
 62
     7
370
    50
100
AcDbLine
 10
232.494388
 20
186.859239
 30
0.0
 11
232.468906
 21
186.809583
 31
0.0
  0
LINE
  5
16C
330
167
100
AcDbEntity
  8
LC-001-100-D00-0
 62
     7
370
    50
100
AcDbLine
 10
232.468906
 20
186.809583
 30
0.0
 11
232.468906
 21
186.809583
 31
0.0
  0
LINE
  5
16D
330
167
100
AcDbEntity
  8
LC-001-100-D00-0
 62
     7
370
    50
100
AcDbLine
 10
232.468906
 20
186.809583
 30
0.0
 11
232.417859
 21
186.710106
 31
0.0
  0
LINE
  5
16E
330
167
100
AcDbEntity
  8
LC-001-100-D00-0
 62
     7
370
    50
100
AcDbLine
 10
232.417859
 20
186.710106
 30
0.0
 11
232.417859
 21
186.710106
 31
0.0
  0
LINE
  5
16F
330
167
100
AcDbEntity
  8
LC-001-100-D00-0
 62
     7
370
    50
100
AcDbLine
 10
232.417859
 20
186.710106
 30
0.0
 11
232.378752
 21
186.563544
 31
0.0
  0
LINE
  5
170
330
167
100
AcDbEntity
  8
LC-001-100-D00-0
 62
     7
370
    50
100
AcDbLine
 10
232.378752
 20
186.563544
 30
0.0
 11
232.378752
 21
186.563544
 31
0.0
  0
LINE
  5
171
330
167
100
AcDbEntity
  8
LC-001-100-D00-0
 62
     7
370
    50
100
AcDbLine
 10
232.378752
 20
186.563544
 30
0.0
 11
232.362791
 21
186.448601
 31
0.0
  0
LINE
  5
172
330
167
100
AcDbEntity
  8
LC-001-100-D00-0
 62
     7
370
    50
100
AcDbLine
 10
232.362791
 20
186.448601
 30
0.0
 11
232.362791
 21
186.448601
 31
0.0
  0
LINE
  5
173
330
167
100
AcDbEntity
  8
LC-001-100-D00-0
 62
     7
370
    50
100
AcDbLine
 10
232.362791
 20
186.448601
 30
0.0
 11
232.360262
 21
186.373359
 31
0.0
  0
LINE
  5
174
330
167
100
AcDbEntity
  8
LC-001-100-D00-0
 62
     7
370
    50
100
AcDbLine
 10
232.360262
 20
186.373359
 30
0.0
 11
232.360262
 21
186.373359
 31
0.0
  0
LINE
  5
175
330
167
100
AcDbEntity
  8
LC-001-100-D00-0
 62
     7
370
    50
100
AcDbLine
 10
232.360262
 20
186.373359
 30
0.0
 11
232.360362
 21
186.363889
 31
0.0
  0
LINE
  5
176
330
167
100
AcDbEntity
  8
LC-001-100-D00-0
 62
     7
370
    50
100
AcDbLine
 10
232.360362
 20
186.363889
 30
0.0
 11
232.360362
 21
186.363889
 31
0.0
  0
LINE
  5
177
330
167
100
AcDbEntity
  8
LC-001-100-D00-0
 62
     7
370
    50
100
AcDbLine
 10
232.360362
 20
186.363889
 30
0.0
 11
232.360411
 21
186.359238
 31
0.0
  0
ENDBLK
  5
169
330
167
100
AcDbEntity
  8
0
100
AcDbBlockEnd
  0
BLOCK
  5
17A
330
179
100
AcDbEntity
  8
0
100
AcDbBlockBegin
  2
POLY5
 70
     0
 71
     0
 10
0.0
 20
0.0
 30
0.0
  3
POLY5
  1

  4
POLY5
  0
LINE
  5
17C
330
179
100
AcDbEntity
  8
LC-001-100-D00-0
 62
     7
370
    50
100
AcDbLine
 10
327.360425
 20
186.359238
 30
0.0
 11
327.360425
 21
186.359238
 31
0.0
  0
LINE
  5
17D
330
179
100
AcDbEntity
  8
LC-001-100-D00-0
 62
     7
370
    50
100
AcDbLine
 10
327.360425
 20
186.359238
 30
0.0
 11
327.360488
 21
186.36474
 31
0.0
  0
LINE
  5
17E
330
179
100
AcDbEntity
  8
LC-001-100-D00-0
 62
     7
370
    50
100
AcDbLine
 10
327.360488
 20
186.36474
 30
0.0
 11
327.360488
 21
186.36474
 31
0.0
  0
LINE
  5
17F
330
179
100
AcDbEntity
  8
LC-001-100-D00-0
 62
     7
370
    50
100
AcDbLine
 10
327.360488
 20
186.36474
 30
0.0
 11
327.360613
 21
186.375744
 31
0.0
  0
LINE
  5
180
330
179
100
AcDbEntity
  8
LC-001-100-D00-0
 62
     7
370
    50
100
AcDbLine
 10
327.360613
 20
186.375744
 30
0.0
 11
327.360613
 21
186.375744
 31
0.0
  0
LINE
  5
181
330
179
100
AcDbEntity
  8
LC-001-100-D00-0
 62
     7
370
    50
100
AcDbLine
 10
327.360613
 20
186.375744
 30
0.0
 11
327.357182
 21
186.46133
 31
0.0
  0
LINE
  5
182
330
179
100
AcDbEntity
  8
LC-001-100-D00-0
 62
     7
370
    50
100
AcDbLine
 10
327.357182
 20
186.46133
 30
0.0
 11
327.357182
 21
186.46133
 31
0.0
  0
LINE
  5
183
330
179
100
AcDbEntity
  8
LC-001-100-D00-0
 62
     7
370
    50
100
AcDbLine
 10
327.357182
 20
186.46133
 30
0.0
 11
327.33783
 21
186.584356
 31
0.0
  0
LINE
  5
184
330
179
100
AcDbEntity
  8
LC-001-100-D00-0
 62
     7
370
    50
100
AcDbLine
 10
327.33783
 20
186.584356
 30
0.0
 11
327.33783
 21
186.584356
 31
0.0
  0
LINE
  5
185
330
179
100
AcDbEntity
  8
LC-001-100-D00-0
 62
     7
370
    50
100
AcDbLine
 10
327.33783
 20
186.584356
 30
0.0
 11
327.295765
 21
186.726334
 31
0.0
  0
LINE
  5
186
330
179
100
AcDbEntity
  8
LC-001-100-D00-0
 62
     7
370
    50
100
AcDbLine
 10
327.295765
 20
186.726334
 30
0.0
 11
327.295765
 21
186.726334
 31
0.0
  0
LINE
  5
187
330
179
100
AcDbEntity
  8
LC-001-100-D00-0
 62
     7
370
    50
100
AcDbLine
 10
327.295765
 20
186.726334
 30
0.0
 11
327.248788
 21
186.816387
 31
0.0
  0
LINE
  5
188
330
179
100
AcDbEntity
  8
LC-001-100-D00-0
 62
     7
370
    50
100
AcDbLine
 10
327.248788
 20
186.816387
 30
0.0
 11
327.248788
 21
186.816387
 31
0.0
  0
LINE
  5
189
330
179
100
AcDbEntity
  8
LC-001-100-D00-0
 62
     7
370
    50
100
AcDbLine
 10
327.248788
 20
186.816387
 30
0.0
 11
327.226434
 21
186.859239
 31
0.0
  0
ENDBLK
  5
17B
330
179
100
AcDbEntity
  8
0
100
AcDbBlockEnd
  0
BLOCK
  5
18C
330
18B
100
AcDbEntity
  8
0
100
AcDbBlockBegin
  2
POLY6
 70
     0
 71
     0
 10
0.0
 20
0.0
 30
0.0
  3
POLY6
  1

  4
POLY6
  0
LINE
  5
18E
330
18B
100
AcDbEntity
  8
LC-001-100-D00-0
 62
     7
370
    50
100
AcDbLine
 10
312.494401
 20
186.859239
 30
0.0
 11
312.494401
 21
186.859239
 31
0.0
  0
LINE
  5
18F
330
18B
100
AcDbEntity
  8
LC-001-100-D00-0
 62
     7
370
    50
100
AcDbLine
 10
312.494401
 20
186.859239
 30
0.0
 11
312.468913
 21
186.809583
 31
0.0
  0
LINE
  5
190
330
18B
100
AcDbEntity
  8
LC-001-100-D00-0
 62
     7
370
    50
100
AcDbLine
 10
312.468913
 20
186.809583
 30
0.0
 11
312.468913
 21
186.809583
 31
0.0
  0
LINE
  5
191
330
18B
100
AcDbEntity
  8
LC-001-100-D00-0
 62
     7
370
    50
100
AcDbLine
 10
312.468913
 20
186.809583
 30
0.0
 11
312.417854
 21
186.71011
 31
0.0
  0
LINE
  5
192
330
18B
100
AcDbEntity
  8
LC-001-100-D00-0
 62
     7
370
    50
100
AcDbLine
 10
312.417854
 20
186.71011
 30
0.0
 11
312.417854
 21
186.71011
 31
0.0
  0
LINE
  5
193
330
18B
100
AcDbEntity
  8
LC-001-100-D00-0
 62
     7
370
    50
100
AcDbLine
 10
312.417854
 20
186.71011
 30
0.0
 11
312.378753
 21
186.563544
 31
0.0
  0
LINE
  5
194
330
18B
100
AcDbEntity
  8
LC-001-100-D00-0
 62
     7
370
    50
100
AcDbLine
 10
312.378753
 20
186.563544
 30
0.0
 11
312.378753
 21
186.563544
 31
0.0
  0
LINE
  5
195
330
18B
100
AcDbEntity
  8
LC-001-100-D00-0
 62
     7
370
    50
100
AcDbLine
 10
312.378753
 20
186.563544
 30
0.0
 11
312.362783
 21
186.448602
 31
0.0
  0
LINE
  5
196
330
18B
100
AcDbEntity
  8
LC-001-100-D00-0
 62
     7
370
    50
100
AcDbLine
 10
312.362783
 20
186.448602
 30
0.0
 11
312.362783
 21
186.448602
 31
0.0
  0
LINE
  5
197
330
18B
100
AcDbEntity
  8
LC-001-100-D00-0
 62
     7
370
    50
100
AcDbLine
 10
312.362783
 20
186.448602
 30
0.0
 11
312.360284
 21
186.373358
 31
0.0
  0
LINE
  5
198
330
18B
100
AcDbEntity
  8
LC-001-100-D00-0
 62
     7
370
    50
100
AcDbLine
 10
312.360284
 20
186.373358
 30
0.0
 11
312.360284
 21
186.373358
 31
0.0
  0
LINE
  5
199
330
18B
100
AcDbEntity
  8
LC-001-100-D00-0
 62
     7
370
    50
100
AcDbLine
 10
312.360284
 20
186.373358
 30
0.0
 11
312.360368
 21
186.363889
 31
0.0
  0
LINE
  5
19A
330
18B
100
AcDbEntity
  8
LC-001-100-D00-0
 62
     7
370
    50
100
AcDbLine
 10
312.360368
 20
186.363889
 30
0.0
 11
312.360368
 21
186.363889
 31
0.0
  0
LINE
  5
19B
330
18B
100
AcDbEntity
  8
LC-001-100-D00-0
 62
     7
370
    50
100
AcDbLine
 10
312.360368
 20
186.363889
 30
0.0
 11
312.360409
 21
186.359238
 31
0.0
  0
ENDBLK
  5
18D
330
18B
100
AcDbEntity
  8
0
100
AcDbBlockEnd
  0
BLOCK
  5
19E
330
19D
100
AcDbEntity
  8
0
100
AcDbBlockBegin
  2
POLY7
 70
     0
 71
     0
 10
0.0
 20
0.0
 30
0.0
  3
POLY7
  1

  4
POLY7
  0
LINE
  5
1A0
330
19D
100
AcDbEntity
  8
LC-001-100-D00-0
 62
     7
370
    50
100
AcDbLine
 10
205.86041
 20
159.85924
 30
0.0
 11
205.86041
 21
159.85924
 31
0.0
  0
LINE
  5
1A1
330
19D
100
AcDbEntity
  8
LC-001-100-D00-0
 62
     7
370
    50
100
AcDbLine
 10
205.86041
 20
159.85924
 30
0.0
 11
205.854912
 21
159.859314
 31
0.0
  0
LINE
  5
1A2
330
19D
100
AcDbEntity
  8
LC-001-100-D00-0
 62
     7
370
    50
100
AcDbLine
 10
205.854912
 20
159.859314
 30
0.0
 11
205.854912
 21
159.859314
 31
0.0
  0
LINE
  5
1A3
330
19D
100
AcDbEntity
  8
LC-001-100-D00-0
 62
     7
370
    50
100
AcDbLine
 10
205.854912
 20
159.859314
 30
0.0
 11
205.843915
 21
159.85946
 31
0.0
  0
LINE
  5
1A4
330
19D
100
AcDbEntity
  8
LC-001-100-D00-0
 62
     7
370
    50
100
AcDbLine
 10
205.843915
 20
159.85946
 30
0.0
 11
205.843915
 21
159.85946
 31
0.0
  0
LINE
  5
1A5
330
19D
100
AcDbEntity
  8
LC-001-100-D00-0
 62
     7
370
    50
100
AcDbLine
 10
205.843915
 20
159.85946
 30
0.0
 11
205.758315
 21
159.856026
 31
0.0
  0
LINE
  5
1A6
330
19D
100
AcDbEntity
  8
LC-001-100-D00-0
 62
     7
370
    50
100
AcDbLine
 10
205.758315
 20
159.856026
 30
0.0
 11
205.758315
 21
159.856026
 31
0.0
  0
LINE
  5
1A7
330
19D
100
AcDbEntity
  8
LC-001-100-D00-0
 62
     7
370
    50
100
AcDbLine
 10
205.758315
 20
159.856026
 30
0.0
 11
205.635296
 21
159.836656
 31
0.0
  0
LINE
  5
1A8
330
19D
100
AcDbEntity
  8
LC-001-100-D00-0
 62
     7
370
    50
100
AcDbLine
 10
205.635296
 20
159.836656
 30
0.0
 11
205.635296
 21
159.836656
 31
0.0
  0
LINE
  5
1A9
330
19D
100
AcDbEntity
  8
LC-001-100-D00-0
 62
     7
370
    50
100
AcDbLine
 10
205.635296
 20
159.836656
 30
0.0
 11
205.493317
 21
159.794605
 31
0.0
  0
LINE
  5
1AA
330
19D
100
AcDbEntity
  8
LC-001-100-D00-0
 62
     7
370
    50
100
AcDbLine
 10
205.493317
 20
159.794605
 30
0.0
 11
205.493317
 21
159.794605
 31
0.0
  0
LINE
  5
1AB
330
19D
100
AcDbEntity
  8
LC-001-100-D00-0
 62
     7
370
    50
100
AcDbLine
 10
205.493317
 20
159.794605
 30
0.0
 11
205.403268
 21
159.747624
 31
0.0
  0
LINE
  5
1AC
330
19D
100
AcDbEntity
  8
LC-001-100-D00-0
 62
     7
370
    50
100
AcDbLine
 10
205.403268
 20
159.747624
 30
0.0
 11
205.403268
 21
159.747624
 31
0.0
  0
LINE
  5
1AD
330
19D
100
AcDbEntity
  8
LC-001-100-D00-0
 62
     7
370
    50
100
AcDbLine
 10
205.403268
 20
159.747624
 30
0.0
 11
205.360416
 21
159.725268
 31
0.0
  0
ENDBLK
  5
19F
330
19D
100
AcDbEntity
  8
0
100
AcDbBlockEnd
  0
BLOCK
  5
1B0
330
1AF
100
AcDbEntity
  8
0
100
AcDbBlockBegin
  2
POLY8
 70
     0
 71
     0
 10
0.0
 20
0.0
 30
0.0
  3
POLY8
  1

  4
POLY8
  0
LINE
  5
1B2
330
1AF
100
AcDbEntity
  8
LC-001-100-D00-0
 62
     7
370
    50
100
AcDbLine
 10
205.360416
 20
144.993216
 30
0.0
 11
205.360416
 21
144.993216
 31
0.0
  0
LINE
  5
1B3
330
1AF
100
AcDbEntity
  8
LC-001-100-D00-0
 62
     7
370
    50
100
AcDbLine
 10
205.360416
 20
144.993216
 30
0.0
 11
205.41007
 21
144.967732
 31
0.0
  0
LINE
  5
1B4
330
1AF
100
AcDbEntity
  8
LC-001-100-D00-0
 62
     7
370
    50
100
AcDbLine
 10
205.41007
 20
144.967732
 30
0.0
 11
205.41007
 21
144.967732
 31
0.0
  0
LINE
  5
1B5
330
1AF
100
AcDbEntity
  8
LC-001-100-D00-0
 62
     7
370
    50
100
AcDbLine
 10
205.41007
 20
144.967732
 30
0.0
 11
205.509541
 21
144.916678
 31
0.0
  0
LINE
  5
1B6
330
1AF
100
AcDbEntity
  8
LC-001-100-D00-0
 62
     7
370
    50
100
AcDbLine
 10
205.509541
 20
144.916678
 30
0.0
 11
205.509541
 21
144.916678
 31
0.0
  0
LINE
  5
1B7
330
1AF
100
AcDbEntity
  8
LC-001-100-D00-0
 62
     7
370
    50
100
AcDbLine
 10
205.509541
 20
144.916678
 30
0.0
 11
205.656105
 21
144.877591
 31
0.0
  0
LINE
  5
1B8
330
1AF
100
AcDbEntity
  8
LC-001-100-D00-0
 62
     7
370
    50
100
AcDbLine
 10
205.656105
 20
144.877591
 30
0.0
 11
205.656105
 21
144.877591
 31
0.0
  0
LINE
  5
1B9
330
1AF
100
AcDbEntity
  8
LC-001-100-D00-0
 62
     7
370
    50
100
AcDbLine
 10
205.656105
 20
144.877591
 30
0.0
 11
205.771056
 21
144.861629
 31
0.0
  0
LINE
  5
1BA
330
1AF
100
AcDbEntity
  8
LC-001-100-D00-0
 62
     7
370
    50
100
AcDbLine
 10
205.771056
 20
144.861629
 30
0.0
 11
205.771056
 21
144.861629
 31
0.0
  0
LINE
  5
1BB
330
1AF
100
AcDbEntity
  8
LC-001-100-D00-0
 62
     7
370
    50
100
AcDbLine
 10
205.771056
 20
144.861629
 30
0.0
 11
205.846287
 21
144.859088
 31
0.0
  0
LINE
  5
1BC
330
1AF
100
AcDbEntity
  8
LC-001-100-D00-0
 62
     7
370
    50
100
AcDbLine
 10
205.846287
 20
144.859088
 30
0.0
 11
205.846287
 21
144.859088
 31
0.0
  0
LINE
  5
1BD
330
1AF
100
AcDbEntity
  8
LC-001-100-D00-0
 62
     7
370
    50
100
AcDbLine
 10
205.846287
 20
144.859088
 30
0.0
 11
205.855758
 21
144.85919
 31
0.0
  0
LINE
  5
1BE
330
1AF
100
AcDbEntity
  8
LC-001-100-D00-0
 62
     7
370
    50
100
AcDbLine
 10
205.855758
 20
144.85919
 30
0.0
 11
205.855758
 21
144.85919
 31
0.0
  0
LINE
  5
1BF
330
1AF
100
AcDbEntity
  8
LC-001-100-D00-0
 62
     7
370
    50
100
AcDbLine
 10
205.855758
 20
144.85919
 30
0.0
 11
205.86041
 21
144.85924
 31
0.0
  0
ENDBLK
  5
1B1
330
1AF
100
AcDbEntity
  8
0
100
AcDbBlockEnd
  0
BLOCK
  5
1C2
330
1C1
100
AcDbEntity
  8
0
100
AcDbBlockBegin
  2
POLY9
 70
     0
 71
     0
 10
0.0
 20
0.0
 30
0.0
  3
POLY9
  1

  4
POLY9
  0
LINE
  5
1C4
330
1C1
100
AcDbEntity
  8
LC-001-100-D00-0
 62
     7
370
    50
100
AcDbLine
 10
353.860412
 20
144.85924
 30
0.0
 11
353.860412
 21
144.85924
 31
0.0
  0
LINE
  5
1C5
330
1C1
100
AcDbEntity
  8
LC-001-100-D00-0
 62
     7
370
    50
100
AcDbLine
 10
353.860412
 20
144.85924
 30
0.0
 11
353.865918
 21
144.859168
 31
0.0
  0
LINE
  5
1C6
330
1C1
100
AcDbEntity
  8
LC-001-100-D00-0
 62
     7
370
    50
100
AcDbLine
 10
353.865918
 20
144.859168
 30
0.0
 11
353.865918
 21
144.859168
 31
0.0
  0
LINE
  5
1C7
330
1C1
100
AcDbEntity
  8
LC-001-100-D00-0
 62
     7
370
    50
100
AcDbLine
 10
353.865918
 20
144.859168
 30
0.0
 11
353.876932
 21
144.859024
 31
0.0
  0
LINE
  5
1C8
330
1C1
100
AcDbEntity
  8
LC-001-100-D00-0
 62
     7
370
    50
100
AcDbLine
 10
353.876932
 20
144.859024
 30
0.0
 11
353.876932
 21
144.859024
 31
0.0
  0
LINE
  5
1C9
330
1C1
100
AcDbEntity
  8
LC-001-100-D00-0
 62
     7
370
    50
100
AcDbLine
 10
353.876932
 20
144.859024
 30
0.0
 11
353.962485
 21
144.862459
 31
0.0
  0
LINE
  5
1CA
330
1C1
100
AcDbEntity
  8
LC-001-100-D00-0
 62
     7
370
    50
100
AcDbLine
 10
353.962485
 20
144.862459
 30
0.0
 11
353.962485
 21
144.862459
 31
0.0
  0
LINE
  5
1CB
330
1C1
100
AcDbEntity
  8
LC-001-100-D00-0
 62
     7
370
    50
100
AcDbLine
 10
353.962485
 20
144.862459
 30
0.0
 11
354.085527
 21
144.881827
 31
0.0
  0
LINE
  5
1CC
330
1C1
100
AcDbEntity
  8
LC-001-100-D00-0
 62
     7
370
    50
100
AcDbLine
 10
354.085527
 20
144.881827
 30
0.0
 11
354.085527
 21
144.881827
 31
0.0
  0
LINE
  5
1CD
330
1C1
100
AcDbEntity
  8
LC-001-100-D00-0
 62
     7
370
    50
100
AcDbLine
 10
354.085527
 20
144.881827
 30
0.0
 11
354.227503
 21
144.92388
 31
0.0
  0
LINE
  5
1CE
330
1C1
100
AcDbEntity
  8
LC-001-100-D00-0
 62
     7
370
    50
100
AcDbLine
 10
354.227503
 20
144.92388
 30
0.0
 11
354.227503
 21
144.92388
 31
0.0
  0
LINE
  5
1CF
330
1C1
100
AcDbEntity
  8
LC-001-100-D00-0
 62
     7
370
    50
100
AcDbLine
 10
354.227503
 20
144.92388
 30
0.0
 11
354.317553
 21
144.97086
 31
0.0
  0
LINE
  5
1D0
330
1C1
100
AcDbEntity
  8
LC-001-100-D00-0
 62
     7
370
    50
100
AcDbLine
 10
354.317553
 20
144.97086
 30
0.0
 11
354.317553
 21
144.97086
 31
0.0
  0
LINE
  5
1D1
330
1C1
100
AcDbEntity
  8
LC-001-100-D00-0
 62
     7
370
    50
100
AcDbLine
 10
354.317553
 20
144.97086
 30
0.0
 11
354.360405
 21
144.993216
 31
0.0
  0
ENDBLK
  5
1C3
330
1C1
100
AcDbEntity
  8
0
100
AcDbBlockEnd
  0
BLOCK
  5
1D4
330
1D3
100
AcDbEntity
  8
0
100
AcDbBlockBegin
  2
POLY10
 70
     0
 71
     0
 10
0.0
 20
0.0
 30
0.0
  3
POLY10
  1

  4
POLY10
  0
LINE
  5
1D6
330
1D3
100
AcDbEntity
  8
LC-001-100-D00-0
 62
     7
370
    50
100
AcDbLine
 10
354.360405
 20
159.725268
 30
0.0
 11
354.360405
 21
159.725268
 31
0.0
  0
LINE
  5
1D7
330
1D3
100
AcDbEntity
  8
LC-001-100-D00-0
 62
     7
370
    50
100
AcDbLine
 10
354.360405
 20
159.725268
 30
0.0
 11
354.310747
 21
159.750752
 31
0.0
  0
LINE
  5
1D8
330
1D3
100
AcDbEntity
  8
LC-001-100-D00-0
 62
     7
370
    50
100
AcDbLine
 10
354.310747
 20
159.750752
 30
0.0
 11
354.310747
 21
159.750752
 31
0.0
  0
LINE
  5
1D9
330
1D3
100
AcDbEntity
  8
LC-001-100-D00-0
 62
     7
370
    50
100
AcDbLine
 10
354.310747
 20
159.750752
 30
0.0
 11
354.211269
 21
159.801803
 31
0.0
  0
LINE
  5
1DA
330
1D3
100
AcDbEntity
  8
LC-001-100-D00-0
 62
     7
370
    50
100
AcDbLine
 10
354.211269
 20
159.801803
 30
0.0
 11
354.211269
 21
159.801803
 31
0.0
  0
LINE
  5
1DB
330
1D3
100
AcDbEntity
  8
LC-001-100-D00-0
 62
     7
370
    50
100
AcDbLine
 10
354.211269
 20
159.801803
 30
0.0
 11
354.0647
 21
159.840892
 31
0.0
  0
LINE
  5
1DC
330
1D3
100
AcDbEntity
  8
LC-001-100-D00-0
 62
     7
370
    50
100
AcDbLine
 10
354.0647
 20
159.840892
 30
0.0
 11
354.0647
 21
159.840892
 31
0.0
  0
LINE
  5
1DD
330
1D3
100
AcDbEntity
  8
LC-001-100-D00-0
 62
     7
370
    50
100
AcDbLine
 10
354.0647
 20
159.840892
 30
0.0
 11
353.94977
 21
159.856856
 31
0.0
  0
LINE
  5
1DE
330
1D3
100
AcDbEntity
  8
LC-001-100-D00-0
 62
     7
370
    50
100
AcDbLine
 10
353.94977
 20
159.856856
 30
0.0
 11
353.94977
 21
159.856856
 31
0.0
  0
LINE
  5
1DF
330
1D3
100
AcDbEntity
  8
LC-001-100-D00-0
 62
     7
370
    50
100
AcDbLine
 10
353.94977
 20
159.856856
 30
0.0
 11
353.874511
 21
159.859391
 31
0.0
  0
LINE
  5
1E0
330
1D3
100
AcDbEntity
  8
LC-001-100-D00-0
 62
     7
370
    50
100
AcDbLine
 10
353.874511
 20
159.859391
 30
0.0
 11
353.874511
 21
159.859391
 31
0.0
  0
LINE
  5
1E1
330
1D3
100
AcDbEntity
  8
LC-001-100-D00-0
 62
     7
370
    50
100
AcDbLine
 10
353.874511
 20
159.859391
 30
0.0
 11
353.865056
 21
159.85929
 31
0.0
  0
LINE
  5
1E2
330
1D3
100
AcDbEntity
  8
LC-001-100-D00-0
 62
     7
370
    50
100
AcDbLine
 10
353.865056
 20
159.85929
 30
0.0
 11
353.865056
 21
159.85929
 31
0.0
  0
LINE
  5
1E3
330
1D3
100
AcDbEntity
  8
LC-001-100-D00-0
 62
     7
370
    50
100
AcDbLine
 10
353.865056
 20
159.85929
 30
0.0
 11
353.860412
 21
159.85924
 31
0.0
  0
ENDBLK
  5
1D5
330
1D3
100
AcDbEntity
  8
0
100
AcDbBlockEnd
  0
BLOCK
  5
1E6
330
1E5
100
AcDbEntity
  8
0
100
AcDbBlockBegin
  2
POLY11
 70
     0
 71
     0
 10
0.0
 20
0.0
 30
0.0
  3
POLY11
  1

  4
POLY11
  0
LINE
  5
1E8
330
1E5
100
AcDbEntity
  8
LC-001-100-D00-0
 62
     7
370
    50
100
AcDbLine
 10
205.360416
 20
64.993218
 30
0.0
 11
205.360416
 21
64.993218
 31
0.0
  0
LINE
  5
1E9
330
1E5
100
AcDbEntity
  8
LC-001-100-D00-0
 62
     7
370
    50
100
AcDbLine
 10
205.360416
 20
64.993218
 30
0.0
 11
205.41007
 21
64.967732
 31
0.0
  0
LINE
  5
1EA
330
1E5
100
AcDbEntity
  8
LC-001-100-D00-0
 62
     7
370
    50
100
AcDbLine
 10
205.41007
 20
64.967732
 30
0.0
 11
205.41007
 21
64.967732
 31
0.0
  0
LINE
  5
1EB
330
1E5
100
AcDbEntity
  8
LC-001-100-D00-0
 62
     7
370
    50
100
AcDbLine
 10
205.41007
 20
64.967732
 30
0.0
 11
205.509541
 21
64.916676
 31
0.0
  0
LINE
  5
1EC
330
1E5
100
AcDbEntity
  8
LC-001-100-D00-0
 62
     7
370
    50
100
AcDbLine
 10
205.509541
 20
64.916676
 30
0.0
 11
205.509541
 21
64.916676
 31
0.0
  0
LINE
  5
1ED
330
1E5
100
AcDbEntity
  8
LC-001-100-D00-0
 62
     7
370
    50
100
AcDbLine
 10
205.509541
 20
64.916676
 30
0.0
 11
205.656105
 21
64.877589
 31
0.0
  0
LINE
  5
1EE
330
1E5
100
AcDbEntity
  8
LC-001-100-D00-0
 62
     7
370
    50
100
AcDbLine
 10
205.656105
 20
64.877589
 30
0.0
 11
205.656105
 21
64.877589
 31
0.0
  0
LINE
  5
1EF
330
1E5
100
AcDbEntity
  8
LC-001-100-D00-0
 62
     7
370
    50
100
AcDbLine
 10
205.656105
 20
64.877589
 30
0.0
 11
205.771056
 21
64.861626
 31
0.0
  0
LINE
  5
1F0
330
1E5
100
AcDbEntity
  8
LC-001-100-D00-0
 62
     7
370
    50
100
AcDbLine
 10
205.771056
 20
64.861626
 30
0.0
 11
205.771056
 21
64.861626
 31
0.0
  0
LINE
  5
1F1
330
1E5
100
AcDbEntity
  8
LC-001-100-D00-0
 62
     7
370
    50
100
AcDbLine
 10
205.771056
 20
64.861626
 30
0.0
 11
205.846287
 21
64.859091
 31
0.0
  0
LINE
  5
1F2
330
1E5
100
AcDbEntity
  8
LC-001-100-D00-0
 62
     7
370
    50
100
AcDbLine
 10
205.846287
 20
64.859091
 30
0.0
 11
205.846287
 21
64.859091
 31
0.0
  0
LINE
  5
1F3
330
1E5
100
AcDbEntity
  8
LC-001-100-D00-0
 62
     7
370
    50
100
AcDbLine
 10
205.846287
 20
64.859091
 30
0.0
 11
205.855758
 21
64.859192
 31
0.0
  0
LINE
  5
1F4
330
1E5
100
AcDbEntity
  8
LC-001-100-D00-0
 62
     7
370
    50
100
AcDbLine
 10
205.855758
 20
64.859192
 30
0.0
 11
205.855758
 21
64.859192
 31
0.0
  0
LINE
  5
1F5
330
1E5
100
AcDbEntity
  8
LC-001-100-D00-0
 62
     7
370
    50
100
AcDbLine
 10
205.855758
 20
64.859192
 30
0.0
 11
205.86041
 21
64.859242
 31
0.0
  0
ENDBLK
  5
1E7
330
1E5
100
AcDbEntity
  8
0
100
AcDbBlockEnd
  0
BLOCK
  5
1F8
330
1F7
100
AcDbEntity
  8
0
100
AcDbBlockBegin
  2
POLY12
 70
     0
 71
     0
 10
0.0
 20
0.0
 30
0.0
  3
POLY12
  1

  4
POLY12
  0
LINE
  5
1FA
330
1F7
100
AcDbEntity
  8
LC-001-100-D00-0
 62
     7
370
    50
100
AcDbLine
 10
205.86041
 20
79.859242
 30
0.0
 11
205.86041
 21
79.859242
 31
0.0
  0
LINE
  5
1FB
330
1F7
100
AcDbEntity
  8
LC-001-100-D00-0
 62
     7
370
    50
100
AcDbLine
 10
205.86041
 20
79.859242
 30
0.0
 11
205.854912
 21
79.859313
 31
0.0
  0
LINE
  5
1FC
330
1F7
100
AcDbEntity
  8
LC-001-100-D00-0
 62
     7
370
    50
100
AcDbLine
 10
205.854912
 20
79.859313
 30
0.0
 11
205.854912
 21
79.859313
 31
0.0
  0
LINE
  5
1FD
330
1F7
100
AcDbEntity
  8
LC-001-100-D00-0
 62
     7
370
    50
100
AcDbLine
 10
205.854912
 20
79.859313
 30
0.0
 11
205.843915
 21
79.859456
 31
0.0
  0
LINE
  5
1FE
330
1F7
100
AcDbEntity
  8
LC-001-100-D00-0
 62
     7
370
    50
100
AcDbLine
 10
205.843915
 20
79.859456
 30
0.0
 11
205.843915
 21
79.859456
 31
0.0
  0
LINE
  5
1FF
330
1F7
100
AcDbEntity
  8
LC-001-100-D00-0
 62
     7
370
    50
100
AcDbLine
 10
205.843915
 20
79.859456
 30
0.0
 11
205.758315
 21
79.856031
 31
0.0
  0
LINE
  5
200
330
1F7
100
AcDbEntity
  8
LC-001-100-D00-0
 62
     7
370
    50
100
AcDbLine
 10
205.758315
 20
79.856031
 30
0.0
 11
205.758315
 21
79.856031
 31
0.0
  0
LINE
  5
201
330
1F7
100
AcDbEntity
  8
LC-001-100-D00-0
 62
     7
370
    50
100
AcDbLine
 10
205.758315
 20
79.856031
 30
0.0
 11
205.635296
 21
79.836652
 31
0.0
  0
LINE
  5
202
330
1F7
100
AcDbEntity
  8
LC-001-100-D00-0
 62
     7
370
    50
100
AcDbLine
 10
205.635296
 20
79.836652
 30
0.0
 11
205.635296
 21
79.836652
 31
0.0
  0
LINE
  5
203
330
1F7
100
AcDbEntity
  8
LC-001-100-D00-0
 62
     7
370
    50
100
AcDbLine
 10
205.635296
 20
79.836652
 30
0.0
 11
205.493317
 21
79.794603
 31
0.0
  0
LINE
  5
204
330
1F7
100
AcDbEntity
  8
LC-001-100-D00-0
 62
     7
370
    50
100
AcDbLine
 10
205.493317
 20
79.794603
 30
0.0
 11
205.493317
 21
79.794603
 31
0.0
  0
LINE
  5
205
330
1F7
100
AcDbEntity
  8
LC-001-100-D00-0
 62
     7
370
    50
100
AcDbLine
 10
205.493317
 20
79.794603
 30
0.0
 11
205.403268
 21
79.747622
 31
0.0
  0
LINE
  5
206
330
1F7
100
AcDbEntity
  8
LC-001-100-D00-0
 62
     7
370
    50
100
AcDbLine
 10
205.403268
 20
79.747622
 30
0.0
 11
205.403268
 21
79.747622
 31
0.0
  0
LINE
  5
207
330
1F7
100
AcDbEntity
  8
LC-001-100-D00-0
 62
     7
370
    50
100
AcDbLine
 10
205.403268
 20
79.747622
 30
0.0
 11
205.360416
 21
79.725266
 31
0.0
  0
ENDBLK
  5
1F9
330
1F7
100
AcDbEntity
  8
0
100
AcDbBlockEnd
  0
BLOCK
  5
20A
330
209
100
AcDbEntity
  8
0
100
AcDbBlockBegin
  2
POLY13
 70
     0
 71
     0
 10
0.0
 20
0.0
 30
0.0
  3
POLY13
  1

  4
POLY13
  0
LINE
  5
20C
330
209
100
AcDbEntity
  8
LC-001-100-D00-0
 62
     7
370
    50
100
AcDbLine
 10
232.360411
 20
38.359244
 30
0.0
 11
232.360411
 21
38.359244
 31
0.0
  0
LINE
  5
20D
330
209
100
AcDbEntity
  8
LC-001-100-D00-0
 62
     7
370
    50
100
AcDbLine
 10
232.360411
 20
38.359244
 30
0.0
 11
232.360337
 21
38.353746
 31
0.0
  0
LINE
  5
20E
330
209
100
AcDbEntity
  8
LC-001-100-D00-0
 62
     7
370
    50
100
AcDbLine
 10
232.360337
 20
38.353746
 30
0.0
 11
232.360337
 21
38.353746
 31
0.0
  0
LINE
  5
20F
330
209
100
AcDbEntity
  8
LC-001-100-D00-0
 62
     7
370
    50
100
AcDbLine
 10
232.360337
 20
38.353746
 30
0.0
 11
232.360187
 21
38.342749
 31
0.0
  0
LINE
  5
210
330
209
100
AcDbEntity
  8
LC-001-100-D00-0
 62
     7
370
    50
100
AcDbLine
 10
232.360187
 20
38.342749
 30
0.0
 11
232.360187
 21
38.342749
 31
0.0
  0
LINE
  5
211
330
209
100
AcDbEntity
  8
LC-001-100-D00-0
 62
     7
370
    50
100
AcDbLine
 10
232.360187
 20
38.342749
 30
0.0
 11
232.363621
 21
38.257149
 31
0.0
  0
LINE
  5
212
330
209
100
AcDbEntity
  8
LC-001-100-D00-0
 62
     7
370
    50
100
AcDbLine
 10
232.363621
 20
38.257149
 30
0.0
 11
232.363621
 21
38.257149
 31
0.0
  0
LINE
  5
213
330
209
100
AcDbEntity
  8
LC-001-100-D00-0
 62
     7
370
    50
100
AcDbLine
 10
232.363621
 20
38.257149
 30
0.0
 11
232.382995
 21
38.134128
 31
0.0
  0
LINE
  5
214
330
209
100
AcDbEntity
  8
LC-001-100-D00-0
 62
     7
370
    50
100
AcDbLine
 10
232.382995
 20
38.134128
 30
0.0
 11
232.382995
 21
38.134128
 31
0.0
  0
LINE
  5
215
330
209
100
AcDbEntity
  8
LC-001-100-D00-0
 62
     7
370
    50
100
AcDbLine
 10
232.382995
 20
38.134128
 30
0.0
 11
232.425055
 21
37.992147
 31
0.0
  0
LINE
  5
216
330
209
100
AcDbEntity
  8
LC-001-100-D00-0
 62
     7
370
    50
100
AcDbLine
 10
232.425055
 20
37.992147
 30
0.0
 11
232.425055
 21
37.992147
 31
0.0
  0
LINE
  5
217
330
209
100
AcDbEntity
  8
LC-001-100-D00-0
 62
     7
370
    50
100
AcDbLine
 10
232.425055
 20
37.992147
 30
0.0
 11
232.472033
 21
37.902095
 31
0.0
  0
LINE
  5
218
330
209
100
AcDbEntity
  8
LC-001-100-D00-0
 62
     7
370
    50
100
AcDbLine
 10
232.472033
 20
37.902095
 30
0.0
 11
232.472033
 21
37.902095
 31
0.0
  0
LINE
  5
219
330
209
100
AcDbEntity
  8
LC-001-100-D00-0
 62
     7
370
    50
100
AcDbLine
 10
232.472033
 20
37.902095
 30
0.0
 11
232.494388
 21
37.859243
 31
0.0
  0
ENDBLK
  5
20B
330
209
100
AcDbEntity
  8
0
100
AcDbBlockEnd
  0
BLOCK
  5
21C
330
21B
100
AcDbEntity
  8
0
100
AcDbBlockBegin
  2
POLY14
 70
     0
 71
     0
 10
0.0
 20
0.0
 30
0.0
  3
POLY14
  1

  4
POLY14
  0
LINE
  5
21E
330
21B
100
AcDbEntity
  8
LC-001-100-D00-0
 62
     7
370
    50
100
AcDbLine
 10
247.226436
 20
37.859243
 30
0.0
 11
247.226436
 21
37.859243
 31
0.0
  0
LINE
  5
21F
330
21B
100
AcDbEntity
  8
LC-001-100-D00-0
 62
     7
370
    50
100
AcDbLine
 10
247.226436
 20
37.859243
 30
0.0
 11
247.251917
 21
37.9089
 31
0.0
  0
LINE
  5
220
330
21B
100
AcDbEntity
  8
LC-001-100-D00-0
 62
     7
370
    50
100
AcDbLine
 10
247.251917
 20
37.9089
 30
0.0
 11
247.251917
 21
37.9089
 31
0.0
  0
LINE
  5
221
330
21B
100
AcDbEntity
  8
LC-001-100-D00-0
 62
     7
370
    50
100
AcDbLine
 10
247.251917
 20
37.9089
 30
0.0
 11
247.302964
 21
38.008376
 31
0.0
  0
LINE
  5
222
330
21B
100
AcDbEntity
  8
LC-001-100-D00-0
 62
     7
370
    50
100
AcDbLine
 10
247.302964
 20
38.008376
 30
0.0
 11
247.302964
 21
38.008376
 31
0.0
  0
LINE
  5
223
330
21B
100
AcDbEntity
  8
LC-001-100-D00-0
 62
     7
370
    50
100
AcDbLine
 10
247.302964
 20
38.008376
 30
0.0
 11
247.342072
 21
38.154937
 31
0.0
  0
LINE
  5
224
330
21B
100
AcDbEntity
  8
LC-001-100-D00-0
 62
     7
370
    50
100
AcDbLine
 10
247.342072
 20
38.154937
 30
0.0
 11
247.342072
 21
38.154937
 31
0.0
  0
LINE
  5
225
330
21B
100
AcDbEntity
  8
LC-001-100-D00-0
 62
     7
370
    50
100
AcDbLine
 10
247.342072
 20
38.154937
 30
0.0
 11
247.358031
 21
38.26989
 31
0.0
  0
LINE
  5
226
330
21B
100
AcDbEntity
  8
LC-001-100-D00-0
 62
     7
370
    50
100
AcDbLine
 10
247.358031
 20
38.26989
 30
0.0
 11
247.358031
 21
38.26989
 31
0.0
  0
LINE
  5
227
330
21B
100
AcDbEntity
  8
LC-001-100-D00-0
 62
     7
370
    50
100
AcDbLine
 10
247.358031
 20
38.26989
 30
0.0
 11
247.360562
 21
38.345121
 31
0.0
  0
LINE
  5
228
330
21B
100
AcDbEntity
  8
LC-001-100-D00-0
 62
     7
370
    50
100
AcDbLine
 10
247.360562
 20
38.345121
 30
0.0
 11
247.360562
 21
38.345121
 31
0.0
  0
LINE
  5
229
330
21B
100
AcDbEntity
  8
LC-001-100-D00-0
 62
     7
370
    50
100
AcDbLine
 10
247.360562
 20
38.345121
 30
0.0
 11
247.360461
 21
38.354592
 31
0.0
  0
LINE
  5
22A
330
21B
100
AcDbEntity
  8
LC-001-100-D00-0
 62
     7
370
    50
100
AcDbLine
 10
247.360461
 20
38.354592
 30
0.0
 11
247.360461
 21
38.354592
 31
0.0
  0
LINE
  5
22B
330
21B
100
AcDbEntity
  8
LC-001-100-D00-0
 62
     7
370
    50
100
AcDbLine
 10
247.360461
 20
38.354592
 30
0.0
 11
247.360412
 21
38.359244
 31
0.0
  0
ENDBLK
  5
21D
330
21B
100
AcDbEntity
  8
0
100
AcDbBlockEnd
  0
BLOCK
  5
22E
330
22D
100
AcDbEntity
  8
0
100
AcDbBlockBegin
  2
POLY15
 70
     0
 71
     0
 10
0.0
 20
0.0
 30
0.0
  3
POLY15
  1

  4
POLY15
  0
LINE
  5
230
330
22D
100
AcDbEntity
  8
LC-001-100-D00-0
 62
     7
370
    50
100
AcDbLine
 10
312.360409
 20
38.359244
 30
0.0
 11
312.360409
 21
38.359244
 31
0.0
  0
LINE
  5
231
330
22D
100
AcDbEntity
  8
LC-001-100-D00-0
 62
     7
370
    50
100
AcDbLine
 10
312.360409
 20
38.359244
 30
0.0
 11
312.360335
 21
38.353746
 31
0.0
  0
LINE
  5
232
330
22D
100
AcDbEntity
  8
LC-001-100-D00-0
 62
     7
370
    50
100
AcDbLine
 10
312.360335
 20
38.353746
 30
0.0
 11
312.360335
 21
38.353746
 31
0.0
  0
LINE
  5
233
330
22D
100
AcDbEntity
  8
LC-001-100-D00-0
 62
     7
370
    50
100
AcDbLine
 10
312.360335
 20
38.353746
 30
0.0
 11
312.360187
 21
38.34275
 31
0.0
  0
LINE
  5
234
330
22D
100
AcDbEntity
  8
LC-001-100-D00-0
 62
     7
370
    50
100
AcDbLine
 10
312.360187
 20
38.34275
 30
0.0
 11
312.360187
 21
38.34275
 31
0.0
  0
LINE
  5
235
330
22D
100
AcDbEntity
  8
LC-001-100-D00-0
 62
     7
370
    50
100
AcDbLine
 10
312.360187
 20
38.34275
 30
0.0
 11
312.363611
 21
38.257147
 31
0.0
  0
LINE
  5
236
330
22D
100
AcDbEntity
  8
LC-001-100-D00-0
 62
     7
370
    50
100
AcDbLine
 10
312.363611
 20
38.257147
 30
0.0
 11
312.363611
 21
38.257147
 31
0.0
  0
LINE
  5
237
330
22D
100
AcDbEntity
  8
LC-001-100-D00-0
 62
     7
370
    50
100
AcDbLine
 10
312.363611
 20
38.257147
 30
0.0
 11
312.383025
 21
38.134135
 31
0.0
  0
LINE
  5
238
330
22D
100
AcDbEntity
  8
LC-001-100-D00-0
 62
     7
370
    50
100
AcDbLine
 10
312.383025
 20
38.134135
 30
0.0
 11
312.383025
 21
38.134135
 31
0.0
  0
LINE
  5
239
330
22D
100
AcDbEntity
  8
LC-001-100-D00-0
 62
     7
370
    50
100
AcDbLine
 10
312.383025
 20
38.134135
 30
0.0
 11
312.425025
 21
37.992135
 31
0.0
  0
LINE
  5
23A
330
22D
100
AcDbEntity
  8
LC-001-100-D00-0
 62
     7
370
    50
100
AcDbLine
 10
312.425025
 20
37.992135
 30
0.0
 11
312.425025
 21
37.992135
 31
0.0
  0
LINE
  5
23B
330
22D
100
AcDbEntity
  8
LC-001-100-D00-0
 62
     7
370
    50
100
AcDbLine
 10
312.425025
 20
37.992135
 30
0.0
 11
312.472031
 21
37.902093
 31
0.0
  0
LINE
  5
23C
330
22D
100
AcDbEntity
  8
LC-001-100-D00-0
 62
     7
370
    50
100
AcDbLine
 10
312.472031
 20
37.902093
 30
0.0
 11
312.472031
 21
37.902093
 31
0.0
  0
LINE
  5
23D
330
22D
100
AcDbEntity
  8
LC-001-100-D00-0
 62
     7
370
    50
100
AcDbLine
 10
312.472031
 20
37.902093
 30
0.0
 11
312.494401
 21
37.859243
 31
0.0
  0
ENDBLK
  5
22F
330
22D
100
AcDbEntity
  8
0
100
AcDbBlockEnd
  0
BLOCK
  5
240
330
23F
100
AcDbEntity
  8
0
100
AcDbBlockBegin
  2
POLY16
 70
     0
 71
     0
 10
0.0
 20
0.0
 30
0.0
  3
POLY16
  1

  4
POLY16
  0
LINE
  5
242
330
23F
100
AcDbEntity
  8
LC-001-100-D00-0
 62
     7
370
    50
100
AcDbLine
 10
327.226434
 20
37.859243
 30
0.0
 11
327.226434
 21
37.859243
 31
0.0
  0
LINE
  5
243
330
23F
100
AcDbEntity
  8
LC-001-100-D00-0
 62
     7
370
    50
100
AcDbLine
 10
327.226434
 20
37.859243
 30
0.0
 11
327.251925
 21
37.908898
 31
0.0
  0
LINE
  5
244
330
23F
100
AcDbEntity
  8
LC-001-100-D00-0
 62
     7
370
    50
100
AcDbLine
 10
327.251925
 20
37.908898
 30
0.0
 11
327.251925
 21
37.908898
 31
0.0
  0
LINE
  5
245
330
23F
100
AcDbEntity
  8
LC-001-100-D00-0
 62
     7
370
    50
100
AcDbLine
 10
327.251925
 20
37.908898
 30
0.0
 11
327.302988
 21
38.008369
 31
0.0
  0
LINE
  5
246
330
23F
100
AcDbEntity
  8
LC-001-100-D00-0
 62
     7
370
    50
100
AcDbLine
 10
327.302988
 20
38.008369
 30
0.0
 11
327.302988
 21
38.008369
 31
0.0
  0
LINE
  5
247
330
23F
100
AcDbEntity
  8
LC-001-100-D00-0
 62
     7
370
    50
100
AcDbLine
 10
327.302988
 20
38.008369
 30
0.0
 11
327.342046
 21
38.154942
 31
0.0
  0
LINE
  5
248
330
23F
100
AcDbEntity
  8
LC-001-100-D00-0
 62
     7
370
    50
100
AcDbLine
 10
327.342046
 20
38.154942
 30
0.0
 11
327.342046
 21
38.154942
 31
0.0
  0
LINE
  5
249
330
23F
100
AcDbEntity
  8
LC-001-100-D00-0
 62
     7
370
    50
100
AcDbLine
 10
327.342046
 20
38.154942
 30
0.0
 11
327.358013
 21
38.269889
 31
0.0
  0
LINE
  5
24A
330
23F
100
AcDbEntity
  8
LC-001-100-D00-0
 62
     7
370
    50
100
AcDbLine
 10
327.358013
 20
38.269889
 30
0.0
 11
327.358013
 21
38.269889
 31
0.0
  0
LINE
  5
24B
330
23F
100
AcDbEntity
  8
LC-001-100-D00-0
 62
     7
370
    50
100
AcDbLine
 10
327.358013
 20
38.269889
 30
0.0
 11
327.36056
 21
38.345122
 31
0.0
  0
LINE
  5
24C
330
23F
100
AcDbEntity
  8
LC-001-100-D00-0
 62
     7
370
    50
100
AcDbLine
 10
327.36056
 20
38.345122
 30
0.0
 11
327.36056
 21
38.345122
 31
0.0
  0
LINE
  5
24D
330
23F
100
AcDbEntity
  8
LC-001-100-D00-0
 62
     7
370
    50
100
AcDbLine
 10
327.36056
 20
38.345122
 30
0.0
 11
327.360469
 21
38.354592
 31
0.0
  0
LINE
  5
24E
330
23F
100
AcDbEntity
  8
LC-001-100-D00-0
 62
     7
370
    50
100
AcDbLine
 10
327.360469
 20
38.354592
 30
0.0
 11
327.360469
 21
38.354592
 31
0.0
  0
LINE
  5
24F
330
23F
100
AcDbEntity
  8
LC-001-100-D00-0
 62
     7
370
    50
100
AcDbLine
 10
327.360469
 20
38.354592
 30
0.0
 11
327.360425
 21
38.359244
 31
0.0
  0
ENDBLK
  5
241
330
23F
100
AcDbEntity
  8
0
100
AcDbBlockEnd
  0
BLOCK
  5
26C
330
26B
100
AcDbEntity
  8
0
100
AcDbBlockBegin
  2
POLY17
 70
     0
 71
     0
 10
0.0
 20
0.0
 30
0.0
  3
POLY17
  1

  4
POLY17
  0
LINE
  5
26E
330
26B
100
AcDbEntity
  8
LC-001-100-D00-0
 62
     7
370
    50
100
AcDbLine
 10
348.860416
 20
130.001521
 30
0.0
 11
348.860416
 21
130.001521
 31
0.0
  0
LINE
  5
26F
330
26B
100
AcDbEntity
  8
LC-001-100-D00-0
 62
     7
370
    50
100
AcDbLine
 10
348.860416
 20
130.001521
 30
0.0
 11
348.951445
 21
127.461513
 31
0.0
  0
LINE
  5
270
330
26B
100
AcDbEntity
  8
LC-001-100-D00-0
 62
     7
370
    50
100
AcDbLine
 10
348.951445
 20
127.461513
 30
0.0
 11
348.951445
 21
127.461513
 31
0.0
  0
LINE
  5
271
330
26B
100
AcDbEntity
  8
LC-001-100-D00-0
 62
     7
370
    50
100
AcDbLine
 10
348.951445
 20
127.461513
 30
0.0
 11
349.133503
 21
122.381435
 31
0.0
  0
LINE
  5
272
330
26B
100
AcDbEntity
  8
LC-001-100-D00-0
 62
     7
370
    50
100
AcDbLine
 10
349.133503
 20
122.381435
 30
0.0
 11
349.133503
 21
122.381435
 31
0.0
  0
LINE
  5
273
330
26B
100
AcDbEntity
  8
LC-001-100-D00-0
 62
     7
370
    50
100
AcDbLine
 10
349.133503
 20
122.381435
 30
0.0
 11
349.208083
 21
116.514255
 31
0.0
  0
LINE
  5
274
330
26B
100
AcDbEntity
  8
LC-001-100-D00-0
 62
     7
370
    50
100
AcDbLine
 10
349.208083
 20
116.514255
 30
0.0
 11
349.208083
 21
116.514255
 31
0.0
  0
LINE
  5
275
330
26B
100
AcDbEntity
  8
LC-001-100-D00-0
 62
     7
370
    50
100
AcDbLine
 10
349.208083
 20
116.514255
 30
0.0
 11
349.227277
 21
109.5695
 31
0.0
  0
LINE
  5
276
330
26B
100
AcDbEntity
  8
LC-001-100-D00-0
 62
     7
370
    50
100
AcDbLine
 10
349.227277
 20
109.5695
 30
0.0
 11
349.227277
 21
109.5695
 31
0.0
  0
LINE
  5
277
330
26B
100
AcDbEntity
  8
LC-001-100-D00-0
 62
     7
370
    50
100
AcDbLine
 10
349.227277
 20
109.5695
 30
0.0
 11
349.156021
 21
102.887504
 31
0.0
  0
LINE
  5
278
330
26B
100
AcDbEntity
  8
LC-001-100-D00-0
 62
     7
370
    50
100
AcDbLine
 10
349.156021
 20
102.887504
 30
0.0
 11
349.156021
 21
102.887504
 31
0.0
  0
LINE
  5
279
330
26B
100
AcDbEntity
  8
LC-001-100-D00-0
 62
     7
370
    50
100
AcDbLine
 10
349.156021
 20
102.887504
 30
0.0
 11
348.9428
 21
96.994067
 31
0.0
  0
LINE
  5
27A
330
26B
100
AcDbEntity
  8
LC-001-100-D00-0
 62
     7
370
    50
100
AcDbLine
 10
348.9428
 20
96.994067
 30
0.0
 11
348.9428
 21
96.994067
 31
0.0
  0
LINE
  5
27B
330
26B
100
AcDbEntity
  8
LC-001-100-D00-0
 62
     7
370
    50
100
AcDbLine
 10
348.9428
 20
96.994067
 30
0.0
 11
348.860416
 21
94.716963
 31
0.0
  0
ENDBLK
  5
26D
330
26B
100
AcDbEntity
  8
0
100
AcDbBlockEnd
  0
BLOCK
  5
280
330
27F
100
AcDbEntity
  8
0
100
AcDbBlockBegin
  2
KLON1
 70
     0
 71
     0
 10
0.0
 20
0.0
 30
0.0
  3
KLON1
  1

  4
KLON1
  0
LINE
  5
282
330
27F
100
AcDbEntity
  8
LC-001-100-D00-0
 62
     7
370
    15
100
AcDbLine
 10
335.860405
 20
149.186541
 30
0.0
 11
334.015552
 21
151.473873
 31
0.0
  0
LINE
  5
283
330
27F
100
AcDbEntity
  8
LC-001-100-D00-0
 62
     7
370
    15
100
AcDbLine
 10
334.015552
 20
151.473873
 30
0.0
 11
332.356635
 21
153.351151
 31
0.0
  0
ENDBLK
  5
281
330
27F
100
AcDbEntity
  8
0
100
AcDbBlockEnd
  0
BLOCK
  5
28B
330
28A
100
AcDbEntity
  8
0
100
AcDbBlockBegin
  2
KLON2
 70
     0
 71
     0
 10
0.0
 20
0.0
 30
0.0
  3
KLON2
  1

  4
KLON2
  0
LINE
  5
28D
330
28A
100
AcDbEntity
  8
LC-001-100-D00-0
 62
     7
370
    15
100
AcDbLine
 10
332.356635
 20
71.367335
 30
0.0
 11
334.015552
 21
73.244609
 31
0.0
  0
LINE
  5
28E
330
28A
100
AcDbEntity
  8
LC-001-100-D00-0
 62
     7
370
    15
100
AcDbLine
 10
334.015552
 20
73.244609
 30
0.0
 11
335.860405
 21
75.531941
 31
0.0
  0
ENDBLK
  5
28C
330
28A
100
AcDbEntity
  8
0
100
AcDbBlockEnd
  0
BLOCK
  5
296
330
295
100
AcDbEntity
  8
0
100
AcDbBlockBegin
  2
KLON3
 70
     0
 71
     0
 10
0.0
 20
0.0
 30
0.0
  3
KLON3
  1

  4
KLON3
  0
LINE
  5
298
330
295
100
AcDbEntity
  8
LC-001-100-D00-0
 62
     8
370
    15
100
AcDbLine
 10
319.754544
 20
57.450097
 30
0.0
 11
319.558088
 21
57.33645
 31
0.0
  0
LINE
  5
299
330
295
100
AcDbEntity
  8
LC-001-100-D00-0
 62
     8
370
    15
100
AcDbLine
 10
319.558088
 20
57.33645
 30
0.0
 11
317.994926
 21
56.465052
 31
0.0
  0
ENDBLK
  5
297
330
295
100
AcDbEntity
  8
0
100
AcDbBlockEnd
  0
BLOCK
  5
29F
330
29E
100
AcDbEntity
  8
0
100
AcDbBlockBegin
  2
KLON4
 70
     0
 71
     0
 10
0.0
 20
0.0
 30
0.0
  3
KLON4
  1

  4
KLON4
  0
LINE
  5
2A1
330
29E
100
AcDbEntity
  8
LC-001-100-D00-0
 62
     8
370
    15
100
AcDbLine
 10
317.994926
 20
168.25343
 30
0.0
 11
319.558088
 21
167.382036
 31
0.0
  0
LINE
  5
2A2
330
29E
100
AcDbEntity
  8
LC-001-100-D00-0
 62
     8
370
    15
100
AcDbLine
 10
319.558088
 20
167.382036
 30
0.0
 11
319.754544
 21
167.268385
 31
0.0
  0
ENDBLK
  5
2A0
330
29E
100
AcDbEntity
  8
0
100
AcDbBlockEnd
  0
BLOCK
  5
2A5
330
2A4
100
AcDbEntity
  8
0
100
AcDbBlockBegin
  2
KLON5
 70
     0
 71
     0
 10
0.0
 20
0.0
 30
0.0
  3
KLON5
  1

  4
KLON5
  0
LINE
  5
2A7
330
2A4
100
AcDbEntity
  8
LC-001-100-D00-0
 62
     8
370
    15
100
AcDbLine
 10
348.860416
 20
103.445889
 30
0.0
 11
349.255208
 21
106.780188
 31
0.0
  0
LINE
  5
2A8
330
2A4
100
AcDbEntity
  8
LC-001-100-D00-0
 62
     8
370
    15
100
AcDbLine
 10
349.255208
 20
106.780188
 30
0.0
 11
349.36041
 21
108.093347
 31
0.0
  0
ENDBLK
  5
2A6
330
2A4
100
AcDbEntity
  8
0
100
AcDbBlockEnd
  0
BLOCK
  5
2AB
330
2AA
100
AcDbEntity
  8
0
100
AcDbBlockBegin
  2
KLON6
 70
     0
 71
     0
 10
0.0
 20
0.0
 30
0.0
  3
KLON6
  1

  4
KLON6
  0
LINE
  5
2AD
330
2AA
100
AcDbEntity
  8
LC-001-100-D00-0
 62
     8
370
    15
100
AcDbLine
 10
349.36041
 20
116.625136
 30
0.0
 11
349.255208
 21
117.938296
 31
0.0
  0
LINE
  5
2AE
330
2AA
100
AcDbEntity
  8
LC-001-100-D00-0
 62
     8
370
    15
100
AcDbLine
 10
349.255208
 20
117.938296
 30
0.0
 11
348.860416
 21
121.272594
 31
0.0
  0
ENDBLK
  5
2AC
330
2AA
100
AcDbEntity
  8
0
100
AcDbBlockEnd
  0
BLOCK
  5
2B1
330
2B0
100
AcDbEntity
  8
0
100
AcDbBlockBegin
  2
POLY18
 70
     0
 71
     0
 10
0.0
 20
0.0
 30
0.0
  3
POLY18
  1

  4
POLY18
  0
LINE
  5
2B3
330
2B0
100
AcDbEntity
  8
LC-001-100-D00-0
 62
     7
370
    50
100
AcDbLine
 10
102.680889
 20
131.886754
 30
0.0
 11
102.680889
 21
131.886754
 31
0.0
  0
LINE
  5
2B4
330
2B0
100
AcDbEntity
  8
LC-001-100-D00-0
 62
     7
370
    50
100
AcDbLine
 10
102.680889
 20
131.886754
 30
0.0
 11
102.688724
 21
131.898173
 31
0.0
  0
LINE
  5
2B5
330
2B0
100
AcDbEntity
  8
LC-001-100-D00-0
 62
     7
370
    50
100
AcDbLine
 10
102.688724
 20
131.898173
 30
0.0
 11
102.688724
 21
131.898173
 31
0.0
  0
LINE
  5
2B6
330
2B0
100
AcDbEntity
  8
LC-001-100-D00-0
 62
     7
370
    50
100
AcDbLine
 10
102.688724
 20
131.898173
 30
0.0
 11
102.71461
 21
131.9359
 31
0.0
  0
LINE
  5
2B7
330
2B0
100
AcDbEntity
  8
LC-001-100-D00-0
 62
     7
370
    50
100
AcDbLine
 10
102.71461
 20
131.9359
 30
0.0
 11
102.71461
 21
131.9359
 31
0.0
  0
LINE
  5
2B8
330
2B0
100
AcDbEntity
  8
LC-001-100-D00-0
 62
     7
370
    50
100
AcDbLine
 10
102.71461
 20
131.9359
 30
0.0
 11
102.752448
 21
131.983507
 31
0.0
  0
LINE
  5
2B9
330
2B0
100
AcDbEntity
  8
LC-001-100-D00-0
 62
     7
370
    50
100
AcDbLine
 10
102.752448
 20
131.983507
 30
0.0
 11
102.752448
 21
131.983507
 31
0.0
  0
LINE
  5
2BA
330
2B0
100
AcDbEntity
  8
LC-001-100-D00-0
 62
     7
370
    50
100
AcDbLine
 10
102.752448
 20
131.983507
 30
0.0
 11
102.780977
 21
132.019051
 31
0.0
  0
LINE
  5
2BB
330
2B0
100
AcDbEntity
  8
LC-001-100-D00-0
 62
     7
370
    50
100
AcDbLine
 10
102.780977
 20
132.019051
 30
0.0
 11
102.780977
 21
132.019051
 31
0.0
  0
LINE
  5
2BC
330
2B0
100
AcDbEntity
  8
LC-001-100-D00-0
 62
     7
370
    50
100
AcDbLine
 10
102.780977
 20
132.019051
 30
0.0
 11
102.793319
 21
132.034116
 31
0.0
  0
LINE
  5
2BD
330
2B0
100
AcDbEntity
  8
LC-001-100-D00-0
 62
     7
370
    50
100
AcDbLine
 10
102.793319
 20
132.034116
 30
0.0
 11
102.793319
 21
132.034116
 31
0.0
  0
LINE
  5
2BE
330
2B0
100
AcDbEntity
  8
LC-001-100-D00-0
 62
     7
370
    50
100
AcDbLine
 10
102.793319
 20
132.034116
 30
0.0
 11
102.803802
 21
132.046831
 31
0.0
  0
LINE
  5
2BF
330
2B0
100
AcDbEntity
  8
LC-001-100-D00-0
 62
     7
370
    50
100
AcDbLine
 10
102.803802
 20
132.046831
 30
0.0
 11
102.803802
 21
132.046831
 31
0.0
  0
LINE
  5
2C0
330
2B0
100
AcDbEntity
  8
LC-001-100-D00-0
 62
     7
370
    50
100
AcDbLine
 10
102.803802
 20
132.046831
 30
0.0
 11
102.817256
 21
132.062858
 31
0.0
  0
LINE
  5
2C1
330
2B0
100
AcDbEntity
  8
LC-001-100-D00-0
 62
     7
370
    50
100
AcDbLine
 10
102.817256
 20
132.062858
 30
0.0
 11
102.817256
 21
132.062858
 31
0.0
  0
LINE
  5
2C2
330
2B0
100
AcDbEntity
  8
LC-001-100-D00-0
 62
     7
370
    50
100
AcDbLine
 10
102.817256
 20
132.062858
 30
0.0
 11
102.83166
 21
132.079874
 31
0.0
  0
LINE
  5
2C3
330
2B0
100
AcDbEntity
  8
LC-001-100-D00-0
 62
     7
370
    50
100
AcDbLine
 10
102.83166
 20
132.079874
 30
0.0
 11
102.83166
 21
132.079874
 31
0.0
  0
LINE
  5
2C4
330
2B0
100
AcDbEntity
  8
LC-001-100-D00-0
 62
     7
370
    50
100
AcDbLine
 10
102.83166
 20
132.079874
 30
0.0
 11
102.84078
 21
132.09024
 31
0.0
  0
LINE
  5
2C5
330
2B0
100
AcDbEntity
  8
LC-001-100-D00-0
 62
     7
370
    50
100
AcDbLine
 10
102.84078
 20
132.09024
 30
0.0
 11
102.84078
 21
132.09024
 31
0.0
  0
LINE
  5
2C6
330
2B0
100
AcDbEntity
  8
LC-001-100-D00-0
 62
     7
370
    50
100
AcDbLine
 10
102.84078
 20
132.09024
 30
0.0
 11
102.84659
 21
132.096844
 31
0.0
  0
ENDBLK
  5
2B2
330
2B0
100
AcDbEntity
  8
0
100
AcDbBlockEnd
  0
BLOCK
  5
339
330
338
100
AcDbEntity
  8
0
100
AcDbBlockBegin
  2
POLY19
 70
     0
 71
     0
 10
0.0
 20
0.0
 30
0.0
  3
POLY19
  1

  4
POLY19
  0
LINE
  5
33B
330
338
100
AcDbEntity
  8
LC-001-100-D00-0
 62
     7
370
    50
100
AcDbLine
 10
102.110413
 20
130.128558
 30
0.0
 11
102.110413
 21
130.128558
 31
0.0
  0
LINE
  5
33C
330
338
100
AcDbEntity
  8
LC-001-100-D00-0
 62
     7
370
    50
100
AcDbLine
 10
102.110413
 20
130.128558
 30
0.0
 11
102.101791
 21
130.119311
 31
0.0
  0
LINE
  5
33D
330
338
100
AcDbEntity
  8
LC-001-100-D00-0
 62
     7
370
    50
100
AcDbLine
 10
102.101791
 20
130.119311
 30
0.0
 11
102.101791
 21
130.119311
 31
0.0
  0
LINE
  5
33E
330
338
100
AcDbEntity
  8
LC-001-100-D00-0
 62
     7
370
    50
100
AcDbLine
 10
102.101791
 20
130.119311
 30
0.0
 11
102.079327
 21
130.095219
 31
0.0
  0
LINE
  5
33F
330
338
100
AcDbEntity
  8
LC-001-100-D00-0
 62
     7
370
    50
100
AcDbLine
 10
102.079327
 20
130.095219
 30
0.0
 11
102.079327
 21
130.095219
 31
0.0
  0
LINE
  5
340
330
338
100
AcDbEntity
  8
LC-001-100-D00-0
 62
     7
370
    50
100
AcDbLine
 10
102.079327
 20
130.095219
 30
0.0
 11
101.853386
 21
129.862812
 31
0.0
  0
LINE
  5
341
330
338
100
AcDbEntity
  8
LC-001-100-D00-0
 62
     7
370
    50
100
AcDbLine
 10
101.853386
 20
129.862812
 30
0.0
 11
101.853386
 21
129.862812
 31
0.0
  0
LINE
  5
342
330
338
100
AcDbEntity
  8
LC-001-100-D00-0
 62
     7
370
    50
100
AcDbLine
 10
101.853386
 20
129.862812
 30
0.0
 11
101.382185
 21
129.518286
 31
0.0
  0
LINE
  5
343
330
338
100
AcDbEntity
  8
LC-001-100-D00-0
 62
     7
370
    50
100
AcDbLine
 10
101.382185
 20
129.518286
 30
0.0
 11
101.382185
 21
129.518286
 31
0.0
  0
LINE
  5
344
330
338
100
AcDbEntity
  8
LC-001-100-D00-0
 62
     7
370
    50
100
AcDbLine
 10
101.382185
 20
129.518286
 30
0.0
 11
100.69877
 21
129.170691
 31
0.0
  0
LINE
  5
345
330
338
100
AcDbEntity
  8
LC-001-100-D00-0
 62
     7
370
    50
100
AcDbLine
 10
100.69877
 20
129.170691
 30
0.0
 11
100.69877
 21
129.170691
 31
0.0
  0
LINE
  5
346
330
338
100
AcDbEntity
  8
LC-001-100-D00-0
 62
     7
370
    50
100
AcDbLine
 10
100.69877
 20
129.170691
 30
0.0
 11
100.051871
 21
129.108922
 31
0.0
  0
LINE
  5
347
330
338
100
AcDbEntity
  8
LC-001-100-D00-0
 62
     7
370
    50
100
AcDbLine
 10
100.051871
 20
129.108922
 30
0.0
 11
100.051871
 21
129.108922
 31
0.0
  0
LINE
  5
348
330
338
100
AcDbEntity
  8
LC-001-100-D00-0
 62
     7
370
    50
100
AcDbLine
 10
100.051871
 20
129.108922
 30
0.0
 11
99.728522
 21
129.078048
 31
0.0
  0
ENDBLK
  5
33A
330
338
100
AcDbEntity
  8
0
100
AcDbBlockEnd
  0
BLOCK
  5
350
330
34F
100
AcDbEntity
  8
0
100
AcDbBlockBegin
  2
POLY20
 70
     0
 71
     0
 10
0.0
 20
0.0
 30
0.0
  3
POLY20
  1

  4
POLY20
  0
LINE
  5
352
330
34F
100
AcDbEntity
  8
LC-001-100-D00-0
 62
     7
370
    50
100
AcDbLine
 10
107.610402
 20
133.178048
 30
0.0
 11
107.610402
 21
133.178048
 31
0.0
  0
LINE
  5
353
330
34F
100
AcDbEntity
  8
LC-001-100-D00-0
 62
     7
370
    50
100
AcDbLine
 10
107.610402
 20
133.178048
 30
0.0
 11
107.615909
 21
133.121965
 31
0.0
  0
LINE
  5
354
330
34F
100
AcDbEntity
  8
LC-001-100-D00-0
 62
     7
370
    50
100
AcDbLine
 10
107.615909
 20
133.121965
 30
0.0
 11
107.615909
 21
133.121965
 31
0.0
  0
LINE
  5
355
330
34F
100
AcDbEntity
  8
LC-001-100-D00-0
 62
     7
370
    50
100
AcDbLine
 10
107.615909
 20
133.121965
 30
0.0
 11
107.626922
 21
133.009789
 31
0.0
  0
LINE
  5
356
330
34F
100
AcDbEntity
  8
LC-001-100-D00-0
 62
     7
370
    50
100
AcDbLine
 10
107.626922
 20
133.009789
 30
0.0
 11
107.626922
 21
133.009789
 31
0.0
  0
LINE
  5
357
330
34F
100
AcDbEntity
  8
LC-001-100-D00-0
 62
     7
370
    50
100
AcDbLine
 10
107.626922
 20
133.009789
 30
0.0
 11
107.712475
 21
132.86069
 31
0.0
  0
LINE
  5
358
330
34F
100
AcDbEntity
  8
LC-001-100-D00-0
 62
     7
370
    50
100
AcDbLine
 10
107.712475
 20
132.86069
 30
0.0
 11
107.712475
 21
132.86069
 31
0.0
  0
LINE
  5
359
330
34F
100
AcDbEntity
  8
LC-001-100-D00-0
 62
     7
370
    50
100
AcDbLine
 10
107.712475
 20
132.86069
 30
0.0
 11
107.835517
 21
132.750258
 31
0.0
  0
LINE
  5
35A
330
34F
100
AcDbEntity
  8
LC-001-100-D00-0
 62
     7
370
    50
100
AcDbLine
 10
107.835517
 20
132.750258
 30
0.0
 11
107.835517
 21
132.750258
 31
0.0
  0
LINE
  5
35B
330
34F
100
AcDbEntity
  8
LC-001-100-D00-0
 62
     7
370
    50
100
AcDbLine
 10
107.835517
 20
132.750258
 30
0.0
 11
107.977494
 21
132.687549
 31
0.0
  0
LINE
  5
35C
330
34F
100
AcDbEntity
  8
LC-001-100-D00-0
 62
     7
370
    50
100
AcDbLine
 10
107.977494
 20
132.687549
 30
0.0
 11
107.977494
 21
132.687549
 31
0.0
  0
LINE
  5
35D
330
34F
100
AcDbEntity
  8
LC-001-100-D00-0
 62
     7
370
    50
100
AcDbLine
 10
107.977494
 20
132.687549
 30
0.0
 11
108.067544
 21
132.681111
 31
0.0
  0
LINE
  5
35E
330
34F
100
AcDbEntity
  8
LC-001-100-D00-0
 62
     7
370
    50
100
AcDbLine
 10
108.067544
 20
132.681111
 30
0.0
 11
108.067544
 21
132.681111
 31
0.0
  0
LINE
  5
35F
330
34F
100
AcDbEntity
  8
LC-001-100-D00-0
 62
     7
370
    50
100
AcDbLine
 10
108.067544
 20
132.681111
 30
0.0
 11
108.110396
 21
132.678048
 31
0.0
  0
ENDBLK
  5
351
330
34F
100
AcDbEntity
  8
0
100
AcDbBlockEnd
  0
BLOCK
  5
362
330
361
100
AcDbEntity
  8
0
100
AcDbBlockBegin
  2
POLY21
 70
     0
 71
     0
 10
0.0
 20
0.0
 30
0.0
  3
POLY21
  1

  4
POLY21
  0
LINE
  5
364
330
361
100
AcDbEntity
  8
LC-001-100-D00-0
 62
     7
370
    50
100
AcDbLine
 10
108.110396
 20
131.678048
 30
0.0
 11
108.110396
 21
131.678048
 31
0.0
  0
LINE
  5
365
330
361
100
AcDbEntity
  8
LC-001-100-D00-0
 62
     7
370
    50
100
AcDbLine
 10
108.110396
 20
131.678048
 30
0.0
 11
108.021647
 21
131.681604
 31
0.0
  0
LINE
  5
366
330
361
100
AcDbEntity
  8
LC-001-100-D00-0
 62
     7
370
    50
100
AcDbLine
 10
108.021647
 20
131.681604
 30
0.0
 11
108.021647
 21
131.681604
 31
0.0
  0
LINE
  5
367
330
361
100
AcDbEntity
  8
LC-001-100-D00-0
 62
     7
370
    50
100
AcDbLine
 10
108.021647
 20
131.681604
 30
0.0
 11
107.859388
 21
131.688107
 31
0.0
  0
LINE
  5
368
330
361
100
AcDbEntity
  8
LC-001-100-D00-0
 62
     7
370
    50
100
AcDbLine
 10
107.859388
 20
131.688107
 30
0.0
 11
107.859388
 21
131.688107
 31
0.0
  0
LINE
  5
369
330
361
100
AcDbEntity
  8
LC-001-100-D00-0
 62
     7
370
    50
100
AcDbLine
 10
107.859388
 20
131.688107
 30
0.0
 11
107.688034
 21
131.740223
 31
0.0
  0
LINE
  5
36A
330
361
100
AcDbEntity
  8
LC-001-100-D00-0
 62
     7
370
    50
100
AcDbLine
 10
107.688034
 20
131.740223
 30
0.0
 11
107.688034
 21
131.740223
 31
0.0
  0
LINE
  5
36B
330
361
100
AcDbEntity
  8
LC-001-100-D00-0
 62
     7
370
    50
100
AcDbLine
 10
107.688034
 20
131.740223
 30
0.0
 11
107.610402
 21
131.763834
 31
0.0
  0
ENDBLK
  5
363
330
361
100
AcDbEntity
  8
0
100
AcDbBlockEnd
  0
BLOCK
  5
372
330
371
100
AcDbEntity
  8
0
100
AcDbBlockBegin
  2
POLY22
 70
     0
 71
     0
 10
0.0
 20
0.0
 30
0.0
  3
POLY22
  1

  4
POLY22
  0
LINE
  5
374
330
371
100
AcDbEntity
  8
LC-001-100-D00-0
 62
     7
370
    50
100
AcDbLine
 10
-40.889593
 20
132.678048
 30
0.0
 11
-40.889593
 21
132.678048
 31
0.0
  0
LINE
  5
375
330
371
100
AcDbEntity
  8
LC-001-100-D00-0
 62
     7
370
    50
100
AcDbLine
 10
-40.889593
 20
132.678048
 30
0.0
 11
-40.83994
 21
132.682122
 31
0.0
  0
LINE
  5
376
330
371
100
AcDbEntity
  8
LC-001-100-D00-0
 62
     7
370
    50
100
AcDbLine
 10
-40.83994
 20
132.682122
 30
0.0
 11
-40.83994
 21
132.682122
 31
0.0
  0
LINE
  5
377
330
371
100
AcDbEntity
  8
LC-001-100-D00-0
 62
     7
370
    50
100
AcDbLine
 10
-40.83994
 20
132.682122
 30
0.0
 11
-40.740468
 21
132.690283
 31
0.0
  0
LINE
  5
378
330
371
100
AcDbEntity
  8
LC-001-100-D00-0
 62
     7
370
    50
100
AcDbLine
 10
-40.740468
 20
132.690283
 30
0.0
 11
-40.740468
 21
132.690283
 31
0.0
  0
LINE
  5
379
330
371
100
AcDbEntity
  8
LC-001-100-D00-0
 62
     7
370
    50
100
AcDbLine
 10
-40.740468
 20
132.690283
 30
0.0
 11
-40.593905
 21
132.764278
 31
0.0
  0
LINE
  5
37A
330
371
100
AcDbEntity
  8
LC-001-100-D00-0
 62
     7
370
    50
100
AcDbLine
 10
-40.593905
 20
132.764278
 30
0.0
 11
-40.593905
 21
132.764278
 31
0.0
  0
LINE
  5
37B
330
371
100
AcDbEntity
  8
LC-001-100-D00-0
 62
     7
370
    50
100
AcDbLine
 10
-40.593905
 20
132.764278
 30
0.0
 11
-40.478954
 21
132.878889
 31
0.0
  0
LINE
  5
37C
330
371
100
AcDbEntity
  8
LC-001-100-D00-0
 62
     7
370
    50
100
AcDbLine
 10
-40.478954
 20
132.878889
 30
0.0
 11
-40.478954
 21
132.878889
 31
0.0
  0
LINE
  5
37D
330
371
100
AcDbEntity
  8
LC-001-100-D00-0
 62
     7
370
    50
100
AcDbLine
 10
-40.478954
 20
132.878889
 30
0.0
 11
-40.403722
 21
133.021465
 31
0.0
  0
LINE
  5
37E
330
371
100
AcDbEntity
  8
LC-001-100-D00-0
 62
     7
370
    50
100
AcDbLine
 10
-40.403722
 20
133.021465
 30
0.0
 11
-40.403722
 21
133.021465
 31
0.0
  0
LINE
  5
37F
330
371
100
AcDbEntity
  8
LC-001-100-D00-0
 62
     7
370
    50
100
AcDbLine
 10
-40.403722
 20
133.021465
 30
0.0
 11
-40.394252
 21
133.126471
 31
0.0
  0
LINE
  5
380
330
371
100
AcDbEntity
  8
LC-001-100-D00-0
 62
     7
370
    50
100
AcDbLine
 10
-40.394252
 20
133.126471
 30
0.0
 11
-40.394252
 21
133.126471
 31
0.0
  0
LINE
  5
381
330
371
100
AcDbEntity
  8
LC-001-100-D00-0
 62
     7
370
    50
100
AcDbLine
 10
-40.394252
 20
133.126471
 30
0.0
 11
-40.3896
 21
133.178048
 31
0.0
  0
ENDBLK
  5
373
330
371
100
AcDbEntity
  8
0
100
AcDbBlockEnd
  0
BLOCK
  5
384
330
383
100
AcDbEntity
  8
0
100
AcDbBlockBegin
  2
POLY23
 70
     0
 71
     0
 10
0.0
 20
0.0
 30
0.0
  3
POLY23
  1

  4
POLY23
  0
LINE
  5
386
330
383
100
AcDbEntity
  8
LC-001-100-D00-0
 62
     7
370
    50
100
AcDbLine
 10
-40.3896
 20
131.763834
 30
0.0
 11
-40.3896
 21
131.763834
 31
0.0
  0
LINE
  5
387
330
383
100
AcDbEntity
  8
LC-001-100-D00-0
 62
     7
370
    50
100
AcDbLine
 10
-40.3896
 20
131.763834
 30
0.0
 11
-40.483833
 21
131.736151
 31
0.0
  0
LINE
  5
388
330
383
100
AcDbEntity
  8
LC-001-100-D00-0
 62
     7
370
    50
100
AcDbLine
 10
-40.483833
 20
131.736151
 30
0.0
 11
-40.483833
 21
131.736151
 31
0.0
  0
LINE
  5
389
330
383
100
AcDbEntity
  8
LC-001-100-D00-0
 62
     7
370
    50
100
AcDbLine
 10
-40.483833
 20
131.736151
 30
0.0
 11
-40.656111
 21
131.685539
 31
0.0
  0
LINE
  5
38A
330
383
100
AcDbEntity
  8
LC-001-100-D00-0
 62
     7
370
    50
100
AcDbLine
 10
-40.656111
 20
131.685539
 30
0.0
 11
-40.656111
 21
131.685539
 31
0.0
  0
LINE
  5
38B
330
383
100
AcDbEntity
  8
LC-001-100-D00-0
 62
     7
370
    50
100
AcDbLine
 10
-40.656111
 20
131.685539
 30
0.0
 11
-40.816799
 21
131.680384
 31
0.0
  0
LINE
  5
38C
330
383
100
AcDbEntity
  8
LC-001-100-D00-0
 62
     7
370
    50
100
AcDbLine
 10
-40.816799
 20
131.680384
 30
0.0
 11
-40.816799
 21
131.680384
 31
0.0
  0
LINE
  5
38D
330
383
100
AcDbEntity
  8
LC-001-100-D00-0
 62
     7
370
    50
100
AcDbLine
 10
-40.816799
 20
131.680384
 30
0.0
 11
-40.889593
 21
131.678048
 31
0.0
  0
ENDBLK
  5
385
330
383
100
AcDbEntity
  8
0
100
AcDbBlockEnd
  0
BLOCK
  5
3AC
330
3AB
100
AcDbEntity
  8
0
100
AcDbBlockBegin
  2
KLON7
 70
     0
 71
     0
 10
0.0
 20
0.0
 30
0.0
  3
KLON7
  1

  4
KLON7
  0
LINE
  5
3AE
330
3AB
100
AcDbEntity
  8
LC-001-100-D00-0
 62
     7
370
    25
100
AcDbLine
 10
-22.639598
 20
87.765479
 30
0.0
 11
-20.139598
 21
90.265479
 31
0.0
  0
LINE
  5
3AF
330
3AB
100
AcDbEntity
  8
LC-001-100-D00-0
 62
     7
370
    25
100
AcDbLine
 10
-22.639598
 20
96.745735
 30
0.0
 11
-20.139598
 21
99.245735
 31
0.0
  0
LINE
  5
3B0
330
3AB
100
AcDbEntity
  8
LC-001-100-D00-0
 62
     7
370
    25
100
AcDbLine
 10
-22.639598
 20
105.725991
 30
0.0
 11
-20.139598
 21
108.225991
 31
0.0
  0
LINE
  5
3B1
330
3AB
100
AcDbEntity
  8
LC-001-100-D00-0
 62
     7
370
    25
100
AcDbLine
 10
-22.639598
 20
114.706248
 30
0.0
 11
-20.139598
 21
117.206248
 31
0.0
  0
LINE
  5
3B2
330
3AB
100
AcDbEntity
  8
LC-001-100-D00-0
 62
     7
370
    25
100
AcDbLine
 10
-22.639598
 20
123.686504
 30
0.0
 11
-20.639598
 21
125.686504
 31
0.0
  0
ENDBLK
  5
3AD
330
3AB
100
AcDbEntity
  8
0
100
AcDbBlockEnd
  0
BLOCK
  5
3B5
330
3B4
100
AcDbEntity
  8
0
100
AcDbBlockBegin
  2
KLON8
 70
     0
 71
     0
 10
0.0
 20
0.0
 30
0.0
  3
KLON8
  1

  4
KLON8
  0
LINE
  5
3B7
330
3B4
100
AcDbEntity
  8
LC-001-100-D00-0
 62
     7
370
    25
100
AcDbLine
 10
103.360402
 20
88.041894
 30
0.0
 11
105.860402
 21
90.541894
 31
0.0
  0
LINE
  5
3B8
330
3B4
100
AcDbEntity
  8
LC-001-100-D00-0
 62
     7
370
    25
100
AcDbLine
 10
103.360402
 20
97.02215
 30
0.0
 11
105.860402
 21
99.52215
 31
0.0
  0
LINE
  5
3B9
330
3B4
100
AcDbEntity
  8
LC-001-100-D00-0
 62
     7
370
    25
100
AcDbLine
 10
103.360402
 20
106.002406
 30
0.0
 11
105.860402
 21
108.502406
 31
0.0
  0
LINE
  5
3BA
330
3B4
100
AcDbEntity
  8
LC-001-100-D00-0
 62
     7
370
    25
100
AcDbLine
 10
103.360402
 20
114.982662
 30
0.0
 11
105.860402
 21
117.482662
 31
0.0
  0
LINE
  5
3BB
330
3B4
100
AcDbEntity
  8
LC-001-100-D00-0
 62
     7
370
    25
100
AcDbLine
 10
103.360402
 20
123.962918
 30
0.0
 11
103.475532
 21
124.078048
 31
0.0
  0
LINE
  5
3BC
330
3B4
100
AcDbEntity
  8
LC-001-100-D00-0
 62
     7
370
    25
100
AcDbLine
 10
103.860402
 20
124.462918
 30
0.0
 11
105.860402
 21
126.462918
 31
0.0
  0
ENDBLK
  5
3B6
330
3B4
100
AcDbEntity
  8
0
100
AcDbBlockEnd
  0
BLOCK
  5
3BF
330
3BE
100
AcDbEntity
  8
0
100
AcDbBlockBegin
  2
KLON9
 70
     0
 71
     0
 10
0.0
 20
0.0
 30
0.0
  3
KLON9
  1

  4
KLON9
  0
LINE
  5
3C1
330
3BE
100
AcDbEntity
  8
LC-001-100-D00-0
 62
     7
370
    25
100
AcDbLine
 10
103.110402
 20
132.693174
 30
0.0
 11
104.110402
 21
133.693174
 31
0.0
  0
LINE
  5
3C2
330
3BE
100
AcDbEntity
  8
LC-001-100-D00-0
 62
     7
370
    25
100
AcDbLine
 10
106.41552
 20
135.998292
 30
0.0
 11
107.132149
 21
136.71492
 31
0.0
  0
ENDBLK
  5
3C0
330
3BE
100
AcDbEntity
  8
0
100
AcDbBlockEnd
  0
BLOCK
  5
3C5
330
3C4
100
AcDbEntity
  8
0
100
AcDbBlockBegin
  2
KLON10
 70
     0
 71
     0
 10
0.0
 20
0.0
 30
0.0
  3
KLON10
  1

  4
KLON10
  0
LINE
  5
3C7
330
3C4
100
AcDbEntity
  8
LC-001-100-D00-0
 62
     7
370
    25
100
AcDbLine
 10
-20.321607
 20
126.004495
 30
0.0
 11
-18.889598
 21
127.436504
 31
0.0
  0
LINE
  5
3C8
330
3C4
100
AcDbEntity
  8
LC-001-100-D00-0
 62
     7
370
    25
100
AcDbLine
 10
-24.228309
 20
131.078048
 30
0.0
 11
-23.228309
 21
132.078048
 31
0.0
  0
LINE
  5
3C9
330
3C4
100
AcDbEntity
  8
LC-001-100-D00-0
 62
     7
370
    25
100
AcDbLine
 10
-33.208566
 20
131.078048
 30
0.0
 11
-32.208566
 21
132.078048
 31
0.0
  0
LINE
  5
3CA
330
3C4
100
AcDbEntity
  8
LC-001-100-D00-0
 62
     7
370
    25
100
AcDbLine
 10
-40.088822
 20
133.178048
 30
0.0
 11
-39.389598
 21
133.877272
 31
0.0
  0
LINE
  5
3CB
330
3C4
100
AcDbEntity
  8
LC-001-100-D00-0
 62
     7
370
    25
100
AcDbLine
 10
-37.161046
 20
136.105824
 30
0.0
 11
-36.45139
 21
136.81548
 31
0.0
  0
ENDBLK
  5
3C6
330
3C4
100
AcDbEntity
  8
0
100
AcDbBlockEnd
  0
BLOCK
  5
3CE
330
3CD
100
AcDbEntity
  8
0
100
AcDbBlockBegin
  2
KLON11
 70
     0
 71
     0
 10
0.0
 20
0.0
 30
0.0
  3
KLON11
  1

  4
KLON11
  0
LINE
  5
3D0
330
3CD
100
AcDbEntity
  8
LC-001-100-D00-0
 62
     7
370
    25
100
AcDbLine
 10
48.486105
 20
131.950413
 30
0.0
 11
49.110402
 21
132.574711
 31
0.0
  0
LINE
  5
3D1
330
3CD
100
AcDbEntity
  8
LC-001-100-D00-0
 62
     7
370
    25
100
AcDbLine
 10
39.505848
 20
131.950413
 30
0.0
 11
44.505848
 21
136.950413
 31
0.0
  0
LINE
  5
3D2
330
3CD
100
AcDbEntity
  8
LC-001-100-D00-0
 62
     7
370
    25
100
AcDbLine
 10
30.525592
 20
131.950413
 30
0.0
 11
35.275592
 21
136.700413
 31
0.0
  0
LINE
  5
3D3
330
3CD
100
AcDbEntity
  8
LC-001-100-D00-0
 62
     7
370
    25
100
AcDbLine
 10
21.545336
 20
131.950413
 30
0.0
 11
26.545336
 21
136.950413
 31
0.0
  0
ENDBLK
  5
3CF
330
3CD
100
AcDbEntity
  8
0
100
AcDbBlockEnd
  0
BLOCK
  5
3D6
330
3D5
100
AcDbEntity
  8
0
100
AcDbBlockBegin
  2
KLON12
 70
     0
 71
     0
 10
0.0
 20
0.0
 30
0.0
  3
KLON12
  1

  4
KLON12
  0
LINE
  5
3D8
330
3D5
100
AcDbEntity
  8
LC-001-100-D00-0
 62
     7
370
    25
100
AcDbLine
 10
-23.355944
 20
131.950413
 30
0.0
 11
-22.389598
 21
132.91676
 31
0.0
  0
LINE
  5
3D9
330
3D5
100
AcDbEntity
  8
LC-001-100-D00-0
 62
     7
370
    25
100
AcDbLine
 10
-32.336201
 20
131.950413
 30
0.0
 11
-27.336201
 21
136.950413
 31
0.0
  0
ENDBLK
  5
3D7
330
3D5
100
AcDbEntity
  8
0
100
AcDbBlockEnd
  0
BLOCK
  5
3DE
330
3DD
100
AcDbEntity
  8
0
100
AcDbBlockBegin
  2
KLON13
 70
     0
 71
     0
 10
0.0
 20
0.0
 30
0.0
  3
KLON13
  1

  4
KLON13
  0
LINE
  5
3E0
330
3DD
100
AcDbEntity
  8
LC-001-100-D00-0
 62
     7
370
    25
100
AcDbLine
 10
102.367641
 20
131.950413
 30
0.0
 11
102.610402
 21
132.193174
 31
0.0
  0
LINE
  5
3E1
330
3DD
100
AcDbEntity
  8
LC-001-100-D00-0
 62
     7
370
    25
100
AcDbLine
 10
93.387385
 20
131.950413
 30
0.0
 11
98.387385
 21
136.950413
 31
0.0
  0
ENDBLK
  5
3DF
330
3DD
100
AcDbEntity
  8
0
100
AcDbBlockEnd
  0
BLOCK
  5
44F
330
445
100
AcDbEntity
  8
0
100
AcDbBlockBegin
  2
*D37
 70
     1
 71
     0
 10
0.0
 20
0.0
 30
0.0
  3
*D37
  1

  0
LINE
  5
446
330
445
100
AcDbEntity
  8
LC-002-003-----0
 62
     2
370
    -2
100
AcDbLine
 10
-40.3896
 20
135.328048
 30
0.0
 11
-40.3896
 21
165.231511
 31
0.0
  0
LINE
  5
447
330
445
100
AcDbEntity
  8
LC-002-003-----0
 62
     2
370
    -2
100
AcDbLine
 10
107.610402
 20
135.328048
 30
0.0
 11
107.610402
 21
165.231511
 31
0.0
  0
LINE
  5
448
330
445
100
AcDbEntity
  8
LC-002-003-----0
 62
     2
370
    -2
100
AcDbLine
 10
-12.3896
 20
161.631511
 30
0.0
 11
79.610402
 21
161.631511
 31
0.0
  0
SOLID
  5
449
330
445
100
AcDbEntity
  8
LC-002-003-----0
 62
     2
100
AcDbTrace
 10
-12.3896
 20
166.298177
 30
0.0
 11
-12.3896
 21
156.964844
 31
0.0
 12
-40.3896
 22
161.631511
 32
0.0
 13
-40.3896
 23
161.631511
 33
0.0
  0
SOLID
  5
44A
330
445
100
AcDbEntity
  8
LC-002-003-----0
 62
     2
100
AcDbTrace
 10
79.610402
 20
156.964844
 30
0.0
 11
79.610402
 21
166.298177
 31
0.0
 12
107.610402
 22
161.631511
 32
0.0
 13
107.610402
 23
161.631511
 33
0.0
  0
MTEXT
  5
44B
330
445
100
AcDbEntity
  8
LC-002-003-----0
 62
     2
100
AcDbMText
 10
35.131964
 20
192.431511
 30
0.0
 40
28.0
 41
0.0
 71
     5
 72
     1
  1
\A1;150
  7
LCTX15-400-0-0pDIN-Schrift
 73
     1
 44
1.0
  0
POINT
  5
44C
330
445
100
AcDbEntity
  8
Defpoints
 62
     0
100
AcDbPoint
 10
-40.3896
 20
135.328048
 30
0.0
  0
POINT
  5
44D
330
445
100
AcDbEntity
  8
Defpoints
 62
     0
100
AcDbPoint
 10
107.610402
 20
135.328048
 30
0.0
  0
POINT
  5
44E
330
445
100
AcDbEntity
  8
Defpoints
 62
     0
100
AcDbPoint
 10
107.610402
 20
161.631511
 30
0.0
  0
ENDBLK
  5
450
330
445
100
AcDbEntity
  8
0
100
AcDbBlockEnd
  0
BLOCK
  5
45C
330
452
100
AcDbEntity
  8
0
100
AcDbBlockBegin
  2
*D38
 70
     1
 71
     0
 10
0.0
 20
0.0
 30
0.0
  3
*D38
  1

  0
LINE
  5
453
330
452
100
AcDbEntity
  8
LC-002-003-----0
 62
     2
370
    -2
100
AcDbLine
 10
-22.639598
 20
87.765479
 30
0.0
 11
-22.639598
 21
28.52654
 31
0.0
  0
LINE
  5
454
330
452
100
AcDbEntity
  8
LC-002-003-----0
 62
     2
370
    -2
100
AcDbLine
 10
105.86041
 20
86.078048
 30
0.0
 11
105.86041
 21
28.52654
 31
0.0
  0
LINE
  5
455
330
452
100
AcDbEntity
  8
LC-002-003-----0
 62
     2
370
    -2
100
AcDbLine
 10
5.360402
 20
32.12654
 30
0.0
 11
77.86041
 21
32.12654
 31
0.0
  0
SOLID
  5
456
330
452
100
AcDbEntity
  8
LC-002-003-----0
 62
     2
100
AcDbTrace
 10
5.360402
 20
36.793206
 30
0.0
 11
5.360402
 21
27.459873
 31
0.0
 12
-22.639598
 22
32.12654
 32
0.0
 13
-22.639598
 23
32.12654
 33
0.0
  0
SOLID
  5
457
330
452
100
AcDbEntity
  8
LC-002-003-----0
 62
     2
100
AcDbTrace
 10
77.86041
 20
27.459873
 30
0.0
 11
77.86041
 21
36.793206
 31
0.0
 12
105.86041
 22
32.12654
 32
0.0
 13
105.86041
 23
32.12654
 33
0.0
  0
MTEXT
  5
458
330
452
100
AcDbEntity
  8
LC-002-003-----0
 62
     2
100
AcDbMText
 10
38.508696
 20
62.92654
 30
0.0
 40
28.0
 41
0.0
 71
     5
 72
     1
  1
%%c\A1;128,5
  7
LCTX15-400-0-0pDIN-Schrift
 73
     1
 44
1.0
  0
POINT
  5
459
330
452
100
AcDbEntity
  8
Defpoints
 62
     0
100
AcDbPoint
 10
-22.639598
 20
87.765479
 30
0.0
  0
POINT
  5
45A
330
452
100
AcDbEntity
  8
Defpoints
 62
     0
100
AcDbPoint
 10
105.86041
 20
86.078048
 30
0.0
  0
POINT
  5
45B
330
452
100
AcDbEntity
  8
Defpoints
 62
     0
100
AcDbPoint
 10
105.86041
 20
32.12654
 30
0.0
  0
ENDBLK
  5
45D
330
452
100
AcDbEntity
  8
0
100
AcDbBlockEnd
  0
BLOCK
  5
46B
330
45F
100
AcDbEntity
  8
0
100
AcDbBlockBegin
  2
*D39
 70
     1
 71
     0
 10
0.0
 20
0.0
 30
0.0
  3
*D39
  1

  0
LINE
  5
460
330
45F
100
AcDbEntity
  8
LC-002-003-----0
 62
     2
370
    -2
100
AcDbLine
 10
105.360416
 20
137.578048
 30
0.0
 11
169.894182
 21
137.578048
 31
0.0
  0
LINE
  5
461
330
45F
100
AcDbEntity
  8
LC-002-003-----0
 62
     2
370
    -2
100
AcDbLine
 10
105.86041
 20
86.078048
 30
0.0
 11
169.894182
 21
86.078048
 31
0.0
  0
LINE
  5
462
330
45F
100
AcDbEntity
  8
LC-002-003-----0
 62
     2
370
    -2
100
AcDbLine
 10
166.294182
 20
165.578048
 30
0.0
 11
166.294182
 21
193.578048
 31
0.0
  0
LINE
  5
463
330
45F
100
AcDbEntity
  8
LC-002-003-----0
 62
     2
370
    -2
100
AcDbLine
 10
166.294182
 20
58.078048
 30
0.0
 11
166.294182
 21
30.078048
 31
0.0
  0
LINE
  5
464
330
45F
100
AcDbEntity
  8
LC-002-003-----0
 62
     2
370
    -2
100
AcDbLine
 10
166.294182
 20
137.578048
 30
0.0
 11
166.294182
 21
86.078048
 31
0.0
  0
SOLID
  5
465
330
45F
100
AcDbEntity
  8
LC-002-003-----0
 62
     2
100
AcDbTrace
 10
161.627516
 20
165.578048
 30
0.0
 11
170.960849
 21
165.578048
 31
0.0
 12
166.294182
 22
137.578048
 32
0.0
 13
166.294182
 23
137.578048
 33
0.0
  0
SOLID
  5
466
330
45F
100
AcDbEntity
  8
LC-002-003-----0
 62
     2
100
AcDbTrace
 10
170.960849
 20
58.078048
 30
0.0
 11
161.627516
 21
58.078048
 31
0.0
 12
166.294182
 22
86.078048
 32
0.0
 13
166.294182
 23
86.078048
 33
0.0
  0
MTEXT
  5
467
330
45F
100
AcDbEntity
  8
LC-002-003-----0
 62
     2
100
AcDbMText
 10
135.494182
 20
119.44454
 30
0.0
 40
28.0
 41
0.0
 71
     5
 72
     1
  1
\A1;51,5
  7
LCTX15-400-0-0pDIN-Schrift
 11
6.123031769111886E-17
 21
1.0
 31
0.0
 73
     1
 44
1.0
  0
POINT
  5
468
330
45F
100
AcDbEntity
  8
Defpoints
 62
     0
100
AcDbPoint
 10
105.360416
 20
137.578048
 30
0.0
  0
POINT
  5
469
330
45F
100
AcDbEntity
  8
Defpoints
 62
     0
100
AcDbPoint
 10
105.86041
 20
86.078048
 30
0.0
  0
POINT
  5
46A
330
45F
100
AcDbEntity
  8
Defpoints
 62
     0
100
AcDbPoint
 10
166.294182
 20
86.078048
 30
0.0
  0
ENDBLK
  5
46C
330
45F
100
AcDbEntity
  8
0
100
AcDbBlockEnd
  0
BLOCK
  5
479
330
46E
100
AcDbEntity
  8
0
100
AcDbBlockBegin
  2
*D40
 70
     1
 71
     0
 10
0.0
 20
0.0
 30
0.0
  3
*D40
  1

  0
LINE
  5
46F
330
46E
100
AcDbEntity
  8
LC-002-003-----0
 62
     2
370
    -2
100
AcDbLine
 10
-38.139599
 20
137.578048
 30
0.0
 11
-69.449451
 21
137.578048
 31
0.0
  0
LINE
  5
470
330
46E
100
AcDbEntity
  8
LC-002-003-----0
 62
     2
370
    -2
100
AcDbLine
 10
-41.389602
 20
131.678048
 30
0.0
 11
-69.449451
 21
131.678048
 31
0.0
  0
LINE
  5
471
330
46E
100
AcDbEntity
  8
LC-002-003-----0
 62
     2
370
    -2
100
AcDbLine
 10
-65.849451
 20
165.578048
 30
0.0
 11
-65.849451
 21
193.578048
 31
0.0
  0
LINE
  5
472
330
46E
100
AcDbEntity
  8
LC-002-003-----0
 62
     2
370
    -2
100
AcDbLine
 10
-65.849451
 20
103.678048
 30
0.0
 11
-65.849451
 21
113.244381
 31
0.0
  0
SOLID
  5
473
330
46E
100
AcDbEntity
  8
LC-002-003-----0
 62
     2
100
AcDbTrace
 10
-70.516118
 20
165.578048
 30
0.0
 11
-61.182785
 21
165.578048
 31
0.0
 12
-65.849451
 22
137.578048
 32
0.0
 13
-65.849451
 23
137.578048
 33
0.0
  0
SOLID
  5
474
330
46E
100
AcDbEntity
  8
LC-002-003-----0
 62
     2
100
AcDbTrace
 10
-61.182785
 20
103.678048
 30
0.0
 11
-70.516118
 21
103.678048
 31
0.0
 12
-65.849451
 22
131.678048
 32
0.0
 13
-65.849451
 23
131.678048
 33
0.0
  0
MTEXT
  5
475
330
46E
100
AcDbEntity
  8
LC-002-003-----0
 62
     2
100
AcDbMText
 10
-96.649451
 20
124.79054
 30
0.0
 40
28.0
 41
0.0
 71
     5
 72
     1
  1
\A1;6
  7
LCTX15-400-0-0pDIN-Schrift
 11
6.123031769111886E-17
 21
1.0
 31
0.0
 73
     1
 44
1.0
  0
POINT
  5
476
330
46E
100
AcDbEntity
  8
Defpoints
 62
     0
100
AcDbPoint
 10
-38.139599
 20
137.578048
 30
0.0
  0
POINT
  5
477
330
46E
100
AcDbEntity
  8
Defpoints
 62
     0
100
AcDbPoint
 10
-41.389602
 20
131.678048
 30
0.0
  0
POINT
  5
478
330
46E
100
AcDbEntity
  8
Defpoints
 62
     0
100
AcDbPoint
 10
-65.849451
 20
131.678048
 30
0.0
  0
ENDBLK
  5
47A
330
46E
100
AcDbEntity
  8
0
100
AcDbBlockEnd
  0
ENDSEC
  0
SECTION
  2
ENTITIES
  0
ARC
  5
31
330
1F
100
AcDbEntity
  8
LC-001-100-D00-0
 62
     7
370
    50
100
AcDbCircle
 10
213.860412
 20
178.359242
 30
0.0
 40
3.0
100
AcDbArc
 50
90.0
 51
180.0
  0
ARC
  5
32
330
1F
100
AcDbEntity
  8
LC-001-100-D00-0
 62
     7
370
    50
100
AcDbCircle
 10
345.860412
 20
178.359242
 30
0.0
 40
3.0
100
AcDbArc
 50
0.0
 51
90.0
  0
LINE
  5
33
330
1F
100
AcDbEntity
  8
LC-001-100-D00-0
 62
     7
370
    50
100
AcDbLine
 10
213.860411
 20
181.359243
 30
0.0
 11
345.860425
 21
181.359243
 31
0.0
  0
LINE
  5
34
330
1F
100
AcDbEntity
  8
LC-001-100-D00-0
 62
     7
370
    50
100
AcDbLine
 10
288.342882
 20
99.987778
 30
0.0
 11
289.357412
 21
98.973262
 31
0.0
  0
LINE
  5
35
330
1F
100
AcDbEntity
  8
LC-001-100-D00-0
 62
     7
370
    50
100
AcDbLine
 10
290.479276
 20
100.095135
 30
0.0
 11
289.357412
 21
98.973262
 31
0.0
  0
ARC
  5
36
330
1F
100
AcDbEntity
  8
LC-001-100-D00-0
 62
     7
370
    50
100
AcDbCircle
 10
289.70148
 20
100.872932
 30
0.0
 40
1.099971125000044
100
AcDbArc
 50
315.0
 51
356.229305
  0
ARC
  5
37
330
1F
100
AcDbEntity
  8
LC-001-100-D00-0
 62
     7
370
    50
100
AcDbCircle
 10
290.726732
 20
101.898184
 30
0.0
 40
1.099971561457326
100
AcDbArc
 50
273.770686
 51
315.000058
  0
LINE
  5
38
330
1F
100
AcDbEntity
  8
LC-001-100-D00-0
 62
     7
370
    50
100
AcDbLine
 10
292.468596
 20
102.084454
 30
0.0
 11
291.504536
 21
101.120388
 31
0.0
  0
ARC
  5
39
330
1F
100
AcDbEntity
  8
LC-001-100-D00-0
 62
     7
370
    50
100
AcDbCircle
 10
291.690796
 20
102.86225
 30
0.0
 40
1.099970728884976
100
AcDbArc
 50
315.000058
 51
45.0
  0
LINE
  5
3A
330
1F
100
AcDbEntity
  8
LC-001-100-D00-0
 62
     7
370
    50
100
AcDbLine
 10
290.202845
 20
105.905797
 30
0.0
 11
292.468596
 21
103.640046
 31
0.0
  0
LINE
  5
3B
330
1F
100
AcDbEntity
  8
LC-001-100-D00-0
 62
     7
370
    50
100
AcDbLine
 10
290.202845
 20
105.905797
 30
0.0
 11
286.31385
 21
102.016811
 31
0.0
  0
LINE
  5
3C
330
1F
100
AcDbEntity
  8
LC-001-100-D00-0
 62
     7
370
    50
100
AcDbLine
 10
286.31385
 20
102.016811
 30
0.0
 11
287.328366
 21
101.002294
 31
0.0
  0
LINE
  5
3D
330
1F
100
AcDbEntity
  8
LC-001-100-D00-0
 62
     7
370
    50
100
AcDbLine
 10
287.328366
 20
101.002294
 30
0.0
 11
288.342882
 21
102.016811
 31
0.0
  0
LINE
  5
3E
330
1F
100
AcDbEntity
  8
LC-001-100-D00-0
 62
     7
370
    50
100
AcDbLine
 10
288.342882
 20
102.016811
 30
0.0
 11
289.188314
 21
101.17138
 31
0.0
  0
ARC
  5
3F
330
1F
100
AcDbEntity
  8
LC-001-100-D00-0
 62
     7
370
    50
100
AcDbCircle
 10
289.019233
 20
101.002294
 30
0.0
 40
0.2391235000000627
100
AcDbArc
 50
315.0
 51
45.0
  0
LINE
  5
40
330
1F
100
AcDbEntity
  8
LC-001-100-D00-0
 62
     7
370
    50
100
AcDbLine
 10
288.342882
 20
99.987778
 30
0.0
 11
289.188314
 21
100.833209
 31
0.0
  0
LINE
  5
41
330
1F
100
AcDbEntity
  8
LC-001-100-D00-0
 62
     7
370
    50
100
AcDbLine
 10
281.748537
 20
106.582133
 30
0.0
 11
282.763053
 21
105.567617
 31
0.0
  0
LINE
  5
42
330
1F
100
AcDbEntity
  8
LC-001-100-D00-0
 62
     7
370
    50
100
AcDbLine
 10
285.874236
 20
108.678805
 30
0.0
 11
282.763053
 21
105.567617
 31
0.0
  0
ARC
  5
43
330
1F
100
AcDbEntity
  8
LC-001-100-D00-0
 62
     7
370
    50
100
AcDbCircle
 10
285.096442
 20
109.456602
 30
0.0
 40
1.099971191669134
100
AcDbArc
 50
315.0
 51
45.0
  0
LINE
  5
44
330
1F
100
AcDbEntity
  8
LC-001-100-D00-0
 62
     7
370
    50
100
AcDbLine
 10
284.913722
 20
111.194918
 30
0.0
 11
285.874236
 21
110.234399
 31
0.0
  0
ARC
  5
45
330
1F
100
AcDbEntity
  8
LC-001-100-D00-0
 62
     7
370
    50
100
AcDbCircle
 10
284.135923
 20
110.417121
 30
0.0
 40
1.099971191669054
100
AcDbArc
 50
45.0
 51
89.415318
  0
ARC
  5
46
330
1F
100
AcDbEntity
  8
LC-001-100-D00-0
 62
     7
370
    50
100
AcDbCircle
 10
283.047233
 20
111.505811
 30
0.0
 40
1.099971687453178
100
AcDbArc
 50
0.584658
 51
45.0
  0
LINE
  5
47
330
1F
100
AcDbEntity
  8
LC-001-100-D00-0
 62
     7
370
    50
100
AcDbLine
 10
282.864515
 20
113.244127
 30
0.0
 11
283.825029
 21
112.283608
 31
0.0
  0
ARC
  5
48
330
1F
100
AcDbEntity
  8
LC-001-100-D00-0
 62
     7
370
    50
100
AcDbCircle
 10
282.086715
 20
112.46633
 30
0.0
 40
1.099971125000024
100
AcDbArc
 50
45.0
 51
135.0
  0
LINE
  5
49
330
1F
100
AcDbEntity
  8
LC-001-100-D00-0
 62
     7
370
    50
100
AcDbLine
 10
281.308923
 20
113.244127
 30
0.0
 11
278.197724
 21
110.132938
 31
0.0
  0
LINE
  5
4A
330
1F
100
AcDbEntity
  8
LC-001-100-D00-0
 62
     7
370
    50
100
AcDbLine
 10
278.197724
 20
110.132938
 30
0.0
 11
279.21224
 21
109.118422
 31
0.0
  0
LINE
  5
4B
330
1F
100
AcDbEntity
  8
LC-001-100-D00-0
 62
     7
370
    50
100
AcDbLine
 10
281.973991
 20
111.880169
 30
0.0
 11
279.21224
 21
109.118422
 31
0.0
  0
ARC
  5
4C
330
1F
100
AcDbEntity
  8
LC-001-100-D00-0
 62
     7
370
    50
100
AcDbCircle
 10
282.086716
 20
111.767445
 30
0.0
 40
0.159416124999973
100
AcDbArc
 50
45.0
 51
135.0
  0
LINE
  5
4D
330
1F
100
AcDbEntity
  8
LC-001-100-D00-0
 62
     7
370
    50
100
AcDbLine
 10
282.199446
 20
111.880169
 30
0.0
 11
282.706696
 21
111.372911
 31
0.0
  0
ARC
  5
4E
330
1F
100
AcDbEntity
  8
LC-001-100-D00-0
 62
     7
370
    50
100
AcDbCircle
 10
282.593973
 20
111.260187
 30
0.0
 40
0.159416124999953
100
AcDbArc
 50
315.0
 51
45.0
  0
LINE
  5
4F
330
1F
100
AcDbEntity
  8
LC-001-100-D00-0
 62
     7
370
    50
100
AcDbLine
 10
282.706696
 20
111.147463
 30
0.0
 11
279.944945
 21
108.385716
 31
0.0
  0
LINE
  5
50
330
1F
100
AcDbEntity
  8
LC-001-100-D00-0
 62
     7
370
    50
100
AcDbLine
 10
279.944945
 20
108.385716
 30
0.0
 11
281.015832
 21
107.314838
 31
0.0
  0
LINE
  5
51
330
1F
100
AcDbEntity
  8
LC-001-100-D00-0
 62
     7
370
    50
100
AcDbLine
 10
283.777568
 20
110.076585
 30
0.0
 11
281.015832
 21
107.314838
 31
0.0
  0
ARC
  5
52
330
1F
100
AcDbEntity
  8
LC-001-100-D00-0
 62
     7
370
    50
100
AcDbCircle
 10
283.890299
 20
109.963862
 30
0.0
 40
0.159415437500026
100
AcDbArc
 50
45.0
 51
135.0
  0
LINE
  5
53
330
1F
100
AcDbEntity
  8
LC-001-100-D00-0
 62
     7
370
    50
100
AcDbLine
 10
284.003023
 20
110.076585
 30
0.0
 11
284.510288
 21
109.569327
 31
0.0
  0
ARC
  5
54
330
1F
100
AcDbEntity
  8
LC-001-100-D00-0
 62
     7
370
    50
100
AcDbCircle
 10
284.397558
 20
109.456604
 30
0.0
 40
0.1594147500000185
100
AcDbArc
 50
315.0
 51
45.0
  0
LINE
  5
55
330
1F
100
AcDbEntity
  8
LC-001-100-D00-0
 62
     7
370
    50
100
AcDbLine
 10
284.510288
 20
109.34388
 30
0.0
 11
281.748537
 21
106.582133
 31
0.0
  0
LINE
  5
56
330
1F
100
AcDbEntity
  8
LC-001-100-D00-0
 62
     7
370
    50
100
AcDbLine
 10
273.3506
 20
114.98007
 30
0.0
 11
275.605071
 21
112.725591
 31
0.0
  0
LINE
  5
57
330
1F
100
AcDbEntity
  8
LC-001-100-D00-0
 62
     7
370
    50
100
AcDbLine
 10
276.619587
 20
113.740107
 30
0.0
 11
275.605071
 21
112.725591
 31
0.0
  0
LINE
  5
58
330
1F
100
AcDbEntity
  8
LC-001-100-D00-0
 62
     7
370
    50
100
AcDbLine
 10
275.379632
 20
114.98007
 30
0.0
 11
276.619587
 21
113.740107
 31
0.0
  0
LINE
  5
59
330
1F
100
AcDbEntity
  8
LC-001-100-D00-0
 62
     7
370
    50
100
AcDbLine
 10
278.254095
 20
117.85454
 30
0.0
 11
275.379632
 21
114.98007
 31
0.0
  0
LINE
  5
5A
330
1F
100
AcDbEntity
  8
LC-001-100-D00-0
 62
     7
370
    50
100
AcDbLine
 10
277.23958
 20
118.869056
 30
0.0
 11
278.254095
 21
117.85454
 31
0.0
  0
LINE
  5
5B
330
1F
100
AcDbEntity
  8
LC-001-100-D00-0
 62
     7
370
    50
100
AcDbLine
 10
277.23958
 20
118.869056
 30
0.0
 11
273.3506
 21
114.98007
 31
0.0
  0
LINE
  5
5C
330
1F
100
AcDbEntity
  8
LC-001-100-D00-0
 62
     7
370
    50
100
AcDbLine
 10
270.363424
 20
125.745221
 30
0.0
 11
272.363473
 21
123.745171
 31
0.0
  0
LINE
  5
5D
330
1F
100
AcDbEntity
  8
LC-001-100-D00-0
 62
     7
370
    50
100
AcDbLine
 10
270.363424
 20
125.745221
 30
0.0
 11
266.474429
 21
121.856231
 31
0.0
  0
LINE
  5
5E
330
1F
100
AcDbEntity
  8
LC-001-100-D00-0
 62
     7
370
    50
100
AcDbLine
 10
266.474429
 20
121.856231
 30
0.0
 11
268.474478
 21
119.856184
 31
0.0
  0
ARC
  5
5F
330
1F
100
AcDbEntity
  8
LC-001-100-D00-0
 62
     7
370
    50
100
AcDbCircle
 10
269.25228
 20
120.633981
 30
0.0
 40
1.099971125000064
100
AcDbArc
 50
225.0
 51
315.0
  0
LINE
  5
60
330
1F
100
AcDbEntity
  8
LC-001-100-D00-0
 62
     7
370
    50
100
AcDbLine
 10
272.363473
 20
122.189576
 30
0.0
 11
270.03007
 21
119.856184
 31
0.0
  0
ARC
  5
61
330
1F
100
AcDbEntity
  8
LC-001-100-D00-0
 62
     7
370
    50
100
AcDbCircle
 10
271.585671
 20
122.967374
 30
0.0
 40
1.099971812500071
100
AcDbArc
 50
315.0
 51
45.0
  0
CIRCLE
  5
62
330
1F
100
AcDbEntity
  8
LC-001-100-D00-0
 62
     7
370
    50
100
AcDbCircle
 10
220.860412
 20
171.359242
 30
0.0
 40
5.5
  0
LINE
  5
63
330
1F
100
AcDbEntity
  8
LC-001-100-D00-0
 62
     7
370
    50
100
AcDbLine
 10
242.610413
 20
56.359243
 30
0.0
 11
317.110423
 21
56.359243
 31
0.0
  0
ARC
  5
64
330
1F
100
AcDbEntity
  8
LC-001-100-D00-0
 62
     7
370
    50
100
AcDbCircle
 10
317.110412
 20
60.109242
 30
0.0
 40
3.75
100
AcDbArc
 50
270.0
 51
90.0
  0
LINE
  5
65
330
1F
100
AcDbEntity
  8
LC-001-100-D00-0
 62
     7
370
    50
100
AcDbLine
 10
317.110423
 20
63.859243
 30
0.0
 11
242.610413
 21
63.859243
 31
0.0
  0
ARC
  5
66
330
1F
100
AcDbEntity
  8
LC-001-100-D00-0
 62
     7
370
    50
100
AcDbCircle
 10
242.610412
 20
60.109242
 30
0.0
 40
3.75
100
AcDbArc
 50
90.0
 51
270.0
  0
LINE
  5
67
330
1F
100
AcDbEntity
  8
LC-001-100-D00-0
 62
     7
370
    50
100
AcDbLine
 10
223.860416
 20
149.609242
 30
0.0
 11
223.860416
 21
75.10924
 31
0.0
  0
ARC
  5
68
330
1F
100
AcDbEntity
  8
LC-001-100-D00-0
 62
     7
370
    50
100
AcDbCircle
 10
227.610412
 20
75.109242
 30
0.0
 40
3.75
100
AcDbArc
 50
180.0
 51
0.0
  0
LINE
  5
69
330
1F
100
AcDbEntity
  8
LC-001-100-D00-0
 62
     7
370
    50
100
AcDbLine
 10
231.360409
 20
75.10924
 30
0.0
 11
231.360409
 21
149.609242
 31
0.0
  0
ARC
  5
6A
330
1F
100
AcDbEntity
  8
LC-001-100-D00-0
 62
     7
370
    50
100
AcDbCircle
 10
227.610412
 20
149.609242
 30
0.0
 40
3.75
100
AcDbArc
 50
0.0
 51
180.0
  0
LINE
  5
6B
330
1F
100
AcDbEntity
  8
LC-001-100-D00-0
 62
     7
370
    50
100
AcDbLine
 10
317.110423
 20
168.359243
 30
0.0
 11
242.610413
 21
168.359243
 31
0.0
  0
ARC
  5
6C
330
1F
100
AcDbEntity
  8
LC-001-100-D00-0
 62
     7
370
    50
100
AcDbCircle
 10
242.610412
 20
164.609242
 30
0.0
 40
3.750000000000028
100
AcDbArc
 50
90.0
 51
270.0
  0
LINE
  5
6D
330
1F
100
AcDbEntity
  8
LC-001-100-D00-0
 62
     7
370
    50
100
AcDbLine
 10
242.610413
 20
160.859242
 30
0.0
 11
317.110423
 21
160.859242
 31
0.0
  0
ARC
  5
6E
330
1F
100
AcDbEntity
  8
LC-001-100-D00-0
 62
     7
370
    50
100
AcDbCircle
 10
317.110412
 20
164.609242
 30
0.0
 40
3.75
100
AcDbArc
 50
270.0
 51
90.0
  0
LINE
  5
6F
330
1F
100
AcDbEntity
  8
LC-001-100-D00-0
 62
     7
370
    50
100
AcDbLine
 10
258.710418
 20
72.859243
 30
0.0
 11
301.010404
 21
72.859243
 31
0.0
  0
ARC
  5
70
330
1F
100
AcDbEntity
  8
LC-001-100-D00-0
 62
     7
370
    50
100
AcDbCircle
 10
301.010412
 20
76.609242
 30
0.0
 40
3.750000000000014
100
AcDbArc
 50
270.0
 51
90.0
  0
LINE
  5
71
330
1F
100
AcDbEntity
  8
LC-001-100-D00-0
 62
     7
370
    50
100
AcDbLine
 10
301.010404
 20
80.359243
 30
0.0
 11
258.710418
 21
80.359243
 31
0.0
  0
ARC
  5
72
330
1F
100
AcDbEntity
  8
LC-001-100-D00-0
 62
     7
370
    50
100
AcDbCircle
 10
258.710412
 20
76.609242
 30
0.0
 40
3.75
100
AcDbArc
 50
90.0
 51
270.0
  0
LINE
  5
73
330
1F
100
AcDbEntity
  8
LC-001-100-D00-0
 62
     7
370
    50
100
AcDbLine
 10
240.360413
 20
133.509241
 30
0.0
 11
240.360413
 21
91.209242
 31
0.0
  0
ARC
  5
74
330
1F
100
AcDbEntity
  8
LC-001-100-D00-0
 62
     7
370
    50
100
AcDbCircle
 10
244.110412
 20
91.209242
 30
0.0
 40
3.75
100
AcDbArc
 50
180.0
 51
0.0
  0
LINE
  5
75
330
1F
100
AcDbEntity
  8
LC-001-100-D00-0
 62
     7
370
    50
100
AcDbLine
 10
247.860405
 20
91.209242
 30
0.0
 11
247.860405
 21
133.509241
 31
0.0
  0
ARC
  5
76
330
1F
100
AcDbEntity
  8
LC-001-100-D00-0
 62
     7
370
    50
100
AcDbCircle
 10
244.110412
 20
133.509242
 30
0.0
 40
3.75
100
AcDbArc
 50
0.0
 51
180.0
  0
LINE
  5
77
330
1F
100
AcDbEntity
  8
LC-001-100-D00-0
 62
     7
370
    50
100
AcDbLine
 10
301.010404
 20
151.859243
 30
0.0
 11
258.710418
 21
151.859243
 31
0.0
  0
ARC
  5
78
330
1F
100
AcDbEntity
  8
LC-001-100-D00-0
 62
     7
370
    50
100
AcDbCircle
 10
258.710412
 20
148.109242
 30
0.0
 40
3.75
100
AcDbArc
 50
90.0
 51
270.0
  0
LINE
  5
79
330
1F
100
AcDbEntity
  8
LC-001-100-D00-0
 62
     7
370
    50
100
AcDbLine
 10
258.710418
 20
144.359243
 30
0.0
 11
301.010404
 21
144.359243
 31
0.0
  0
ARC
  5
7A
330
1F
100
AcDbEntity
  8
LC-001-100-D00-0
 62
     7
370
    50
100
AcDbCircle
 10
301.010412
 20
148.109242
 30
0.0
 40
3.75
100
AcDbArc
 50
270.0
 51
90.0
  0
LINE
  5
7B
330
1F
100
AcDbEntity
  8
LC-001-100-D00-0
 62
     7
370
    50
100
AcDbLine
 10
274.810407
 20
89.359241
 30
0.0
 11
284.910414
 21
89.359241
 31
0.0
  0
ARC
  5
7C
330
1F
100
AcDbEntity
  8
LC-001-100-D00-0
 62
     7
370
    50
100
AcDbCircle
 10
284.910412
 20
93.109242
 30
0.0
 40
3.75
100
AcDbArc
 50
270.0
 51
90.0
  0
LINE
  5
7D
330
1F
100
AcDbEntity
  8
LC-001-100-D00-0
 62
     7
370
    50
100
AcDbLine
 10
284.910414
 20
96.859241
 30
0.0
 11
274.810407
 21
96.859241
 31
0.0
  0
ARC
  5
7E
330
1F
100
AcDbEntity
  8
LC-001-100-D00-0
 62
     7
370
    50
100
AcDbCircle
 10
274.810412
 20
93.109242
 30
0.0
 40
3.75
100
AcDbArc
 50
90.0
 51
270.0
  0
LINE
  5
7F
330
1F
100
AcDbEntity
  8
LC-001-100-D00-0
 62
     7
370
    50
100
AcDbLine
 10
256.860409
 20
117.409242
 30
0.0
 11
256.860409
 21
107.309242
 31
0.0
  0
ARC
  5
80
330
1F
100
AcDbEntity
  8
LC-001-100-D00-0
 62
     7
370
    50
100
AcDbCircle
 10
260.610412
 20
107.309242
 30
0.0
 40
3.75
100
AcDbArc
 50
180.0
 51
0.0
  0
LINE
  5
81
330
1F
100
AcDbEntity
  8
LC-001-100-D00-0
 62
     7
370
    50
100
AcDbLine
 10
264.360417
 20
107.309242
 30
0.0
 11
264.360417
 21
117.409242
 31
0.0
  0
ARC
  5
82
330
1F
100
AcDbEntity
  8
LC-001-100-D00-0
 62
     7
370
    50
100
AcDbCircle
 10
260.610412
 20
117.409242
 30
0.0
 40
3.75
100
AcDbArc
 50
0.0
 51
180.0
  0
LINE
  5
83
330
1F
100
AcDbEntity
  8
LC-001-100-D00-0
 62
     7
370
    50
100
AcDbLine
 10
284.910414
 20
135.359241
 30
0.0
 11
274.810407
 21
135.359241
 31
0.0
  0
ARC
  5
84
330
1F
100
AcDbEntity
  8
LC-001-100-D00-0
 62
     7
370
    50
100
AcDbCircle
 10
274.810412
 20
131.609242
 30
0.0
 40
3.75
100
AcDbArc
 50
90.0
 51
270.0
  0
LINE
  5
85
330
1F
100
AcDbEntity
  8
LC-001-100-D00-0
 62
     7
370
    50
100
AcDbLine
 10
274.810407
 20
127.859242
 30
0.0
 11
284.910414
 21
127.859242
 31
0.0
  0
ARC
  5
86
330
1F
100
AcDbEntity
  8
LC-001-100-D00-0
 62
     7
370
    50
100
AcDbCircle
 10
284.910412
 20
131.609242
 30
0.0
 40
3.75
100
AcDbArc
 50
270.0
 51
90.0
  0
CIRCLE
  5
87
330
1F
100
AcDbEntity
  8
LC-001-100-D00-0
 62
     7
370
    50
100
AcDbCircle
 10
338.860412
 20
53.359242
 30
0.0
 40
5.5
  0
LINE
  5
88
330
1F
100
AcDbEntity
  8
LC-001-100-D00-0
 62
     7
370
    50
100
AcDbLine
 10
335.860405
 20
75.10924
 30
0.0
 11
335.860405
 21
149.609242
 31
0.0
  0
ARC
  5
89
330
1F
100
AcDbEntity
  8
LC-001-100-D00-0
 62
     7
370
    50
100
AcDbCircle
 10
332.110412
 20
149.609242
 30
0.0
 40
3.75
100
AcDbArc
 50
0.0
 51
180.0
  0
LINE
  5
8A
330
1F
100
AcDbEntity
  8
LC-001-100-D00-0
 62
     7
370
    50
100
AcDbLine
 10
328.360412
 20
149.609242
 30
0.0
 11
328.360412
 21
75.10924
 31
0.0
  0
ARC
  5
8B
330
1F
100
AcDbEntity
  8
LC-001-100-D00-0
 62
     7
370
    50
100
AcDbCircle
 10
332.110412
 20
75.109242
 30
0.0
 40
3.750000000000114
100
AcDbArc
 50
180.0
 51
360.0
  0
LINE
  5
8C
330
1F
100
AcDbEntity
  8
LC-001-100-D00-0
 62
     7
370
    50
100
AcDbLine
 10
319.360409
 20
91.209242
 30
0.0
 11
319.360409
 21
133.509241
 31
0.0
  0
ARC
  5
8D
330
1F
100
AcDbEntity
  8
LC-001-100-D00-0
 62
     7
370
    50
100
AcDbCircle
 10
315.610412
 20
133.509242
 30
0.0
 40
3.75
100
AcDbArc
 50
0.0
 51
180.0
  0
LINE
  5
8E
330
1F
100
AcDbEntity
  8
LC-001-100-D00-0
 62
     7
370
    50
100
AcDbLine
 10
311.860416
 20
133.509241
 30
0.0
 11
311.860416
 21
91.209242
 31
0.0
  0
ARC
  5
8F
330
1F
100
AcDbEntity
  8
LC-001-100-D00-0
 62
     7
370
    50
100
AcDbCircle
 10
315.610412
 20
91.209242
 30
0.0
 40
3.750000000000114
100
AcDbArc
 50
180.0
 51
360.0
  0
LINE
  5
90
330
1F
100
AcDbEntity
  8
LC-001-100-D00-0
 62
     7
370
    50
100
AcDbLine
 10
302.860413
 20
107.309242
 30
0.0
 11
302.860413
 21
117.409242
 31
0.0
  0
ARC
  5
91
330
1F
100
AcDbEntity
  8
LC-001-100-D00-0
 62
     7
370
    50
100
AcDbCircle
 10
299.110412
 20
117.409242
 30
0.0
 40
3.75
100
AcDbArc
 50
0.0
 51
180.0
  0
LINE
  5
92
330
1F
100
AcDbEntity
  8
LC-001-100-D00-0
 62
     7
370
    50
100
AcDbLine
 10
295.36042
 20
117.409242
 30
0.0
 11
295.36042
 21
107.309242
 31
0.0
  0
ARC
  5
93
330
1F
100
AcDbEntity
  8
LC-001-100-D00-0
 62
     7
370
    50
100
AcDbCircle
 10
299.110412
 20
107.309242
 30
0.0
 40
3.750000000000114
100
AcDbArc
 50
180.0
 51
0.0
  0
LINE
  5
94
330
1F
100
AcDbEntity
  8
LC-001-100-D00-0
 62
     7
370
    50
100
AcDbLine
 10
274.410207
 20
121.698427
 30
0.0
 11
275.898162
 21
120.210474
 31
0.0
  0
ARC
  5
95
330
1F
100
AcDbEntity
  8
LC-001-100-D00-0
 62
     7
370
    50
100
AcDbCircle
 10
273.632414
 20
120.920631
 30
0.0
 40
1.099971124999984
100
AcDbArc
 50
45.0
 51
135.0
  0
LINE
  5
96
330
1F
100
AcDbEntity
  8
LC-001-100-D00-0
 62
     7
370
    50
100
AcDbLine
 10
272.854615
 20
121.698427
 30
0.0
 11
269.743431
 21
118.587239
 31
0.0
  0
LINE
  5
97
330
1F
100
AcDbEntity
  8
LC-001-100-D00-0
 62
     7
370
    50
100
AcDbLine
 10
269.743431
 20
118.587239
 30
0.0
 11
270.757947
 21
117.572722
 31
0.0
  0
LINE
  5
98
330
1F
100
AcDbEntity
  8
LC-001-100-D00-0
 62
     7
370
    50
100
AcDbLine
 10
270.757947
 20
117.572722
 30
0.0
 11
271.88519
 21
118.699971
 31
0.0
  0
LINE
  5
99
330
1F
100
AcDbEntity
  8
LC-001-100-D00-0
 62
     7
370
    50
100
AcDbLine
 10
271.88519
 20
118.699971
 30
0.0
 11
272.899706
 21
117.685454
 31
0.0
  0
LINE
  5
9A
330
1F
100
AcDbEntity
  8
LC-001-100-D00-0
 62
     7
370
    50
100
AcDbLine
 10
271.772463
 20
116.558206
 30
0.0
 11
272.899706
 21
117.685454
 31
0.0
  0
LINE
  5
9B
330
1F
100
AcDbEntity
  8
LC-001-100-D00-0
 62
     7
370
    50
100
AcDbLine
 10
271.772463
 20
116.558206
 30
0.0
 11
272.786978
 21
115.54369
 31
0.0
  0
LINE
  5
9C
330
1F
100
AcDbEntity
  8
LC-001-100-D00-0
 62
     7
370
    50
100
AcDbLine
 10
275.898162
 20
118.65488
 30
0.0
 11
272.786978
 21
115.54369
 31
0.0
  0
ARC
  5
9D
330
1F
100
AcDbEntity
  8
LC-001-100-D00-0
 62
     7
370
    50
100
AcDbCircle
 10
275.120369
 20
119.432676
 30
0.0
 40
1.099971124999963
100
AcDbArc
 50
315.0
 51
45.0
  0
LINE
  5
9E
330
1F
100
AcDbEntity
  8
LC-001-100-D00-0
 62
     7
370
    50
100
AcDbLine
 10
275.77417
 20
112.556505
 30
0.0
 11
278.028641
 21
110.302024
 31
0.0
  0
LINE
  5
9F
330
1F
100
AcDbEntity
  8
LC-001-100-D00-0
 62
     7
370
    50
100
AcDbLine
 10
279.043156
 20
111.31654
 30
0.0
 11
278.028641
 21
110.302024
 31
0.0
  0
LINE
  5
A0
330
1F
100
AcDbEntity
  8
LC-001-100-D00-0
 62
     7
370
    50
100
AcDbLine
 10
277.803201
 20
112.556505
 30
0.0
 11
279.043156
 21
111.31654
 31
0.0
  0
LINE
  5
A1
330
1F
100
AcDbEntity
  8
LC-001-100-D00-0
 62
     7
370
    50
100
AcDbLine
 10
280.677665
 20
115.430975
 30
0.0
 11
277.803201
 21
112.556505
 31
0.0
  0
LINE
  5
A2
330
1F
100
AcDbEntity
  8
LC-001-100-D00-0
 62
     7
370
    50
100
AcDbLine
 10
279.663149
 20
116.445491
 30
0.0
 11
280.677665
 21
115.430975
 31
0.0
  0
LINE
  5
A3
330
1F
100
AcDbEntity
  8
LC-001-100-D00-0
 62
     7
370
    50
100
AcDbLine
 10
279.663149
 20
116.445491
 30
0.0
 11
275.77417
 21
112.556505
 31
0.0
  0
LINE
  5
A4
330
1F
100
AcDbEntity
  8
LC-001-100-D00-0
 62
     7
370
    50
100
AcDbLine
 10
288.117442
 20
105.060358
 30
0.0
 11
286.652032
 21
106.525771
 31
0.0
  0
LINE
  5
A5
330
1F
100
AcDbEntity
  8
LC-001-100-D00-0
 62
     7
370
    50
100
AcDbLine
 10
287.102926
 20
106.976667
 30
0.0
 11
286.652032
 21
106.525771
 31
0.0
  0
LINE
  5
A6
330
1F
100
AcDbEntity
  8
LC-001-100-D00-0
 62
     7
370
    50
100
AcDbLine
 10
287.102926
 20
106.976667
 30
0.0
 11
288.568336
 21
105.511254
 31
0.0
  0
LINE
  5
A7
330
1F
100
AcDbEntity
  8
LC-001-100-D00-0
 62
     7
370
    50
100
AcDbLine
 10
289.582867
 20
106.525778
 30
0.0
 11
288.568336
 21
105.511254
 31
0.0
  0
LINE
  5
A8
330
1F
100
AcDbEntity
  8
LC-001-100-D00-0
 62
     7
370
    50
100
AcDbLine
 10
287.102926
 20
109.005707
 30
0.0
 11
289.582867
 21
106.525778
 31
0.0
  0
LINE
  5
A9
330
1F
100
AcDbEntity
  8
LC-001-100-D00-0
 62
     7
370
    50
100
AcDbLine
 10
287.102926
 20
109.005707
 30
0.0
 11
283.213947
 21
105.116721
 31
0.0
  0
LINE
  5
AA
330
1F
100
AcDbEntity
  8
LC-001-100-D00-0
 62
     7
370
    50
100
AcDbLine
 10
283.213947
 20
105.116721
 30
0.0
 11
285.693873
 21
102.636791
 31
0.0
  0
LINE
  5
AB
330
1F
100
AcDbEntity
  8
LC-001-100-D00-0
 62
     7
370
    50
100
AcDbLine
 10
285.693873
 20
102.636791
 30
0.0
 11
286.708388
 21
103.651308
 31
0.0
  0
LINE
  5
AC
330
1F
100
AcDbEntity
  8
LC-001-100-D00-0
 62
     7
370
    50
100
AcDbLine
 10
285.242978
 20
105.116721
 30
0.0
 11
286.708388
 21
103.651308
 31
0.0
  0
LINE
  5
AD
330
1F
100
AcDbEntity
  8
LC-001-100-D00-0
 62
     7
370
    50
100
AcDbLine
 10
285.242978
 20
105.116721
 30
0.0
 11
285.689462
 21
105.5632
 31
0.0
  0
LINE
  5
AE
330
1F
100
AcDbEntity
  8
LC-001-100-D00-0
 62
     7
370
    50
100
AcDbLine
 10
287.154872
 20
104.097788
 30
0.0
 11
285.689462
 21
105.5632
 31
0.0
  0
LINE
  5
AF
330
1F
100
AcDbEntity
  8
LC-001-100-D00-0
 62
     7
370
    50
100
AcDbLine
 10
287.154872
 20
104.097788
 30
0.0
 11
288.117442
 21
105.060358
 31
0.0
  0
LINE
  5
B0
330
1F
100
AcDbEntity
  8
LC-001-100-D00-0
 62
     7
370
    50
100
AcDbLine
 10
210.860405
 20
46.359245
 30
0.0
 11
210.860405
 21
178.359244
 31
0.0
  0
LINE
  5
B1
330
1F
100
AcDbEntity
  8
LC-001-100-D00-0
 62
     7
370
    50
100
AcDbLine
 10
348.860416
 20
178.359244
 30
0.0
 11
348.860416
 21
46.359245
 31
0.0
  0
LINE
  5
B2
330
1F
100
AcDbEntity
  8
LC-001-100-D00-0
 62
     7
370
    50
100
AcDbLine
 10
268.115375
 20
121.799874
 30
0.0
 11
270.385954
 21
124.070458
 31
0.0
  0
LINE
  5
B3
330
1F
100
AcDbEntity
  8
LC-001-100-D00-0
 62
     7
370
    50
100
AcDbLine
 10
270.385954
 20
124.070458
 30
0.0
 11
271.184686
 21
123.27172
 31
0.0
  0
ARC
  5
B4
330
1F
100
AcDbEntity
  8
LC-001-100-D00-0
 62
     7
370
    50
100
AcDbCircle
 10
270.790159
 20
122.877186
 30
0.0
 40
0.5579557500000691
100
AcDbArc
 50
315.0
 51
45.0
  0
LINE
  5
B5
330
1F
100
AcDbEntity
  8
LC-001-100-D00-0
 62
     7
370
    50
100
AcDbLine
 10
271.184686
 20
122.482651
 30
0.0
 11
269.703183
 21
121.001135
 31
0.0
  0
ARC
  5
B6
330
1F
100
AcDbEntity
  8
LC-001-100-D00-0
 62
     7
370
    50
100
AcDbCircle
 10
269.308642
 20
121.395669
 30
0.0
 40
0.5579557499999687
100
AcDbArc
 50
225.0
 51
315.0
  0
LINE
  5
B7
330
1F
100
AcDbEntity
  8
LC-001-100-D00-0
 62
     7
370
    50
100
AcDbLine
 10
268.914107
 20
121.001135
 30
0.0
 11
268.115375
 21
121.799874
 31
0.0
  0
ARC
  5
B8
330
1F
100
AcDbEntity
  8
LC-001-100-D00-0
 62
     7
370
    50
100
AcDbCircle
 10
274.302319
 20
119.432676
 30
0.0
 40
0.5579557500000691
100
AcDbArc
 50
315.0
 51
45.0
  0
LINE
  5
B9
330
1F
100
AcDbEntity
  8
LC-001-100-D00-0
 62
     7
370
    50
100
AcDbLine
 10
274.696845
 20
119.038142
 30
0.0
 11
273.921076
 21
118.262363
 31
0.0
  0
LINE
  5
BA
330
1F
100
AcDbEntity
  8
LC-001-100-D00-0
 62
     7
370
    50
100
AcDbLine
 10
273.921076
 20
118.262363
 30
0.0
 11
272.462103
 21
119.721334
 31
0.0
  0
LINE
  5
BB
330
1F
100
AcDbEntity
  8
LC-001-100-D00-0
 62
     7
370
    50
100
AcDbLine
 10
272.462103
 20
119.721334
 30
0.0
 11
273.237888
 21
120.497114
 31
0.0
  0
LINE
  5
BC
330
1F
100
AcDbEntity
  8
LC-001-100-D00-0
 62
     7
370
    50
100
AcDbLine
 10
274.026949
 20
120.497114
 30
0.0
 11
274.696845
 21
119.827211
 31
0.0
  0
ARC
  5
BD
330
1F
100
AcDbEntity
  8
LC-001-100-D00-0
 62
     7
370
    50
100
AcDbCircle
 10
273.632414
 20
120.10258
 30
0.0
 40
0.5579557499999888
100
AcDbArc
 50
45.0
 51
135.0
  0
LINE
  5
BE
330
1F
100
AcDbEntity
  8
LC-001-100-D00-0
 62
     7
370
    50
100
AcDbLine
 10
289.025668
 20
103.14405
 30
0.0
 11
290.20283
 21
104.321212
 31
0.0
  0
LINE
  5
BF
330
1F
100
AcDbEntity
  8
LC-001-100-D00-0
 62
     7
370
    50
100
AcDbLine
 10
290.20283
 20
104.321212
 30
0.0
 11
291.267279
 21
103.256774
 31
0.0
  0
ARC
  5
C0
330
1F
100
AcDbEntity
  8
LC-001-100-D00-0
 62
     7
370
    50
100
AcDbCircle
 10
290.872739
 20
102.86224
 30
0.0
 40
0.5579550625000014
100
AcDbArc
 50
315.0
 51
45.0
  0
LINE
  5
C1
330
1F
100
AcDbEntity
  8
LC-001-100-D00-0
 62
     7
370
    50
100
AcDbLine
 10
291.267279
 20
102.467707
 30
0.0
 11
290.879179
 21
102.079613
 31
0.0
  0
ARC
  5
C2
330
1F
100
AcDbEntity
  8
LC-001-100-D00-0
 62
     7
370
    50
100
AcDbCircle
 10
290.484645
 20
102.474147
 30
0.0
 40
0.5579557500000892
100
AcDbArc
 50
225.0
 51
315.0
  0
LINE
  5
C3
330
1F
100
AcDbEntity
  8
LC-001-100-D00-0
 62
     7
370
    50
100
AcDbLine
 10
290.090117
 20
102.079613
 30
0.0
 11
289.025668
 21
103.14405
 31
0.0
  0
ARC
  5
C4
330
1F
100
AcDbEntity
  8
LC-001-100-D00-0
 62
     7
370
    50
100
AcDbCircle
 10
213.860412
 20
46.359242
 30
0.0
 40
3.0
100
AcDbArc
 50
180.0
 51
270.0
  0
ARC
  5
C5
330
1F
100
AcDbEntity
  8
LC-001-100-D00-0
 62
     7
370
    50
100
AcDbCircle
 10
345.860412
 20
46.359242
 30
0.0
 40
3.0
100
AcDbArc
 50
270.0
 51
0.0
  0
LINE
  5
C6
330
1F
100
AcDbEntity
  8
LC-001-100-D00-0
 62
     7
370
    50
100
AcDbLine
 10
345.860425
 20
43.359239
 30
0.0
 11
213.860411
 21
43.359239
 31
0.0
  0
CIRCLE
  5
C7
330
1F
100
AcDbEntity
  8
LC-001-100-D00-0
 62
     7
370
    50
100
AcDbCircle
 10
220.860412
 20
171.359242
 30
0.0
 40
5.375
  0
ELLIPSE
  5
C8
330
1F
100
AcDbEntity
  8
LC-001-100-D00-0
 62
     7
370
    50
100
AcDbEllipse
 10
221.543516
 20
168.926137
 30
0.0
 11
0.7287600456170653
 21
-0.7287600456170652
 31
0.0
210
0.0
220
0.0
230
1.0
 40
0.970288
 41
5.512866274278729
 42
7.053504340080614
  0
LINE
  5
C9
330
1F
100
AcDbEntity
  8
LC-001-100-D00-0
 62
     7
370
    50
100
AcDbLine
 10
222.558949
 20
169.66071
 30
0.0
 11
222.558949
 21
168.895517
 31
0.0
  0
LINE
  5
CA
330
1F
100
AcDbEntity
  8
LC-001-100-D00-0
 62
     7
370
    50
100
AcDbLine
 10
223.324139
 20
169.66071
 30
0.0
 11
222.558949
 21
169.66071
 31
0.0
  0
ELLIPSE
  5
CB
330
1F
100
AcDbEntity
  8
LC-001-100-D00-0
 62
     7
370
    50
100
AcDbEllipse
 10
223.293516
 20
170.676137
 30
0.0
 11
0.7287600456083493
 21
-0.7287600456083492
 31
0.0
210
0.0
220
0.0
230
1.0
 40
0.970288
 41
5.512866274278916
 42
7.053504340080481
  0
LINE
  5
CC
330
1F
100
AcDbEntity
  8
LC-001-100-D00-0
 62
     7
370
    50
100
AcDbLine
 10
224.308941
 20
172.072966
 30
0.0
 11
224.308941
 21
170.64552
 31
0.0
  0
ELLIPSE
  5
CD
330
1F
100
AcDbEntity
  8
LC-001-100-D00-0
 62
     7
370
    50
100
AcDbEllipse
 10
223.293516
 20
172.042346
 30
0.0
 11
-0.7287600456213952
 21
-0.7287600456213953
 31
0.0
210
0.0
220
0.0
230
1.0
 40
0.970288
 41
5.512866274278773
 42
7.053504340080149
  0
LINE
  5
CE
330
1F
100
AcDbEntity
  8
LC-001-100-D00-0
 62
     7
370
    50
100
AcDbLine
 10
222.558949
 20
173.057773
 30
0.0
 11
223.324139
 21
173.057773
 31
0.0
  0
LINE
  5
CF
330
1F
100
AcDbEntity
  8
LC-001-100-D00-0
 62
     7
370
    50
100
AcDbLine
 10
222.558949
 20
173.822966
 30
0.0
 11
222.558949
 21
173.057773
 31
0.0
  0
ELLIPSE
  5
D0
330
1F
100
AcDbEntity
  8
LC-001-100-D00-0
 62
     7
370
    50
100
AcDbEllipse
 10
221.543516
 20
173.792346
 30
0.0
 11
-0.7287600455910029
 21
-0.7287600455910029
 31
0.0
210
0.0
220
0.0
230
1.0
 40
0.970288
 41
5.512866274278688
 42
7.053504340080316
  0
LINE
  5
D1
330
1F
100
AcDbEntity
  8
LC-001-100-D00-0
 62
     7
370
    50
100
AcDbLine
 10
220.146689
 20
174.807772
 30
0.0
 11
221.574131
 21
174.807772
 31
0.0
  0
ELLIPSE
  5
D2
330
1F
100
AcDbEntity
  8
LC-001-100-D00-0
 62
     7
370
    50
100
AcDbEllipse
 10
220.177308
 20
173.792346
 30
0.0
 11
0.7287600456040341
 21
-0.728760045604034
 31
0.0
210
0.0
220
0.0
230
1.0
 40
0.970288
 41
2.371273620688689
 42
3.911911686490557
  0
LINE
  5
D3
330
1F
100
AcDbEntity
  8
LC-001-100-D00-0
 62
     7
370
    50
100
AcDbLine
 10
219.161887
 20
173.057773
 30
0.0
 11
219.161887
 21
173.822966
 31
0.0
  0
LINE
  5
D4
330
1F
100
AcDbEntity
  8
LC-001-100-D00-0
 62
     7
370
    50
100
AcDbLine
 10
218.396682
 20
173.057773
 30
0.0
 11
219.161887
 21
173.057773
 31
0.0
  0
ELLIPSE
  5
D5
330
1F
100
AcDbEntity
  8
LC-001-100-D00-0
 62
     7
370
    50
100
AcDbEllipse
 10
218.427308
 20
172.042346
 30
0.0
 11
0.7287600455910029
 21
-0.7287600455910029
 31
0.0
210
0.0
220
0.0
230
1.0
 40
0.970288
 41
2.371273620688655
 42
3.911911686490458
  0
LINE
  5
D6
330
1F
100
AcDbEntity
  8
LC-001-100-D00-0
 62
     7
370
    50
100
AcDbLine
 10
217.411879
 20
170.64552
 30
0.0
 11
217.411879
 21
172.072966
 31
0.0
  0
ELLIPSE
  5
D7
330
1F
100
AcDbEntity
  8
LC-001-100-D00-0
 62
     7
370
    50
100
AcDbEllipse
 10
218.427308
 20
170.676137
 30
0.0
 11
-0.7287600456300819
 21
-0.728760045630082
 31
0.0
210
0.0
220
0.0
230
1.0
 40
0.970288
 41
2.371273620688846
 42
3.911911686490937
  0
LINE
  5
D8
330
1F
100
AcDbEntity
  8
LC-001-100-D00-0
 62
     7
370
    50
100
AcDbLine
 10
219.161887
 20
169.66071
 30
0.0
 11
218.396682
 21
169.66071
 31
0.0
  0
LINE
  5
D9
330
1F
100
AcDbEntity
  8
LC-001-100-D00-0
 62
     7
370
    50
100
AcDbLine
 10
219.161887
 20
168.895517
 30
0.0
 11
219.161887
 21
169.66071
 31
0.0
  0
ELLIPSE
  5
DA
330
1F
100
AcDbEntity
  8
LC-001-100-D00-0
 62
     7
370
    50
100
AcDbEllipse
 10
220.177308
 20
168.926137
 30
0.0
 11
-0.7287600456474862
 21
-0.7287600456474863
 31
0.0
210
0.0
220
0.0
230
1.0
 40
0.970288
 41
2.371273620688762
 42
3.911911686490627
  0
LINE
  5
DB
330
1F
100
AcDbEntity
  8
LC-001-100-D00-0
 62
     7
370
    50
100
AcDbLine
 10
221.574131
 20
167.91071
 30
0.0
 11
220.146689
 21
167.91071
 31
0.0
  0
ELLIPSE
  5
DC
330
1F
100
AcDbEntity
  8
LC-001-100-D00-0
 62
     7
370
    50
100
AcDbEllipse
 10
220.177308
 20
173.792346
 30
0.0
 11
0.3857116012138099
 21
-0.3857116012138098
 31
0.0
210
0.0
220
0.0
230
1.0
 40
0.916626
 41
2.371273620688567
 42
3.911911686490516
  0
ELLIPSE
  5
DD
330
1F
100
AcDbEntity
  8
LC-001-100-D00-0
 62
     7
370
    50
100
AcDbEllipse
 10
221.543516
 20
173.792346
 30
0.0
 11
-0.3857116013149796
 21
-0.3857116013149797
 31
0.0
210
0.0
220
0.0
230
1.0
 40
0.916626
 41
5.51286627427834
 42
7.053504340080996
  0
LINE
  5
DE
330
1F
100
AcDbEntity
  8
LC-001-100-D00-0
 62
     7
370
    50
100
AcDbLine
 10
221.574131
 20
174.315367
 30
0.0
 11
220.146689
 21
174.315367
 31
0.0
  0
LINE
  5
DF
330
1F
100
AcDbEntity
  8
LC-001-100-D00-0
 62
     7
370
    50
100
AcDbLine
 10
222.06654
 20
173.057773
 30
0.0
 11
222.06654
 21
173.822966
 31
0.0
  0
LINE
  5
E0
330
1F
100
AcDbEntity
  8
LC-001-100-D00-0
 62
     7
370
    50
100
AcDbLine
 10
219.654281
 20
173.822966
 30
0.0
 11
219.654281
 21
173.057773
 31
0.0
  0
ELLIPSE
  5
E1
330
1F
100
AcDbEntity
  8
LC-001-100-D00-0
 62
     7
370
    50
100
AcDbEllipse
 10
223.293516
 20
172.042346
 30
0.0
 11
-0.3857116012965874
 21
-0.3857116012965875
 31
0.0
210
0.0
220
0.0
230
1.0
 40
0.916626
 41
5.512866274278546
 42
7.053504340080961
  0
LINE
  5
E2
330
1F
100
AcDbEntity
  8
LC-001-100-D00-0
 62
     7
370
    50
100
AcDbLine
 10
219.161887
 20
172.565367
 30
0.0
 11
218.396682
 21
172.565367
 31
0.0
  0
ARC
  5
E3
330
1F
100
AcDbEntity
  8
LC-001-100-D00-0
 62
     7
370
    50
100
AcDbCircle
 10
219.14408
 20
173.075568
 30
0.0
 40
0.5105107211806611
100
AcDbArc
 50
271.998871
 51
358.002429
  0
ELLIPSE
  5
E4
330
1F
100
AcDbEntity
  8
LC-001-100-D00-0
 62
     7
370
    50
100
AcDbEllipse
 10
218.427308
 20
172.042346
 30
0.0
 11
0.3857116012046138
 21
-0.3857116012046137
 31
0.0
210
0.0
220
0.0
230
0.9999999999999999
 40
0.916626
 41
2.371273620688429
 42
3.911911686490609
  0
ARC
  5
E5
330
1F
100
AcDbEntity
  8
LC-001-100-D00-0
 62
     7
370
    50
100
AcDbCircle
 10
222.576739
 20
173.075567
 30
0.0
 40
0.5105095901086505
100
AcDbArc
 50
181.997511
 51
268.002923
  0
LINE
  5
E6
330
1F
100
AcDbEntity
  8
LC-001-100-D00-0
 62
     7
370
    50
100
AcDbLine
 10
223.324139
 20
172.565367
 30
0.0
 11
222.558949
 21
172.565367
 31
0.0
  0
LINE
  5
E7
330
1F
100
AcDbEntity
  8
LC-001-100-D00-0
 62
     7
370
    50
100
AcDbLine
 10
217.904288
 20
172.072966
 30
0.0
 11
217.904288
 21
170.64552
 31
0.0
  0
LINE
  5
E8
330
1F
100
AcDbEntity
  8
LC-001-100-D00-0
 62
     7
370
    50
100
AcDbLine
 10
223.816532
 20
170.64552
 30
0.0
 11
223.816532
 21
172.072966
 31
0.0
  0
ELLIPSE
  5
E9
330
1F
100
AcDbEntity
  8
LC-001-100-D00-0
 62
     7
370
    50
100
AcDbEllipse
 10
223.293516
 20
170.676137
 30
0.0
 11
0.3857116012965875
 21
-0.3857116012965874
 31
0.0
210
0.0
220
0.0
230
1.0
 40
0.916626
 41
5.512866274278379
 42
7.053504340080525
  0
ELLIPSE
  5
EA
330
1F
100
AcDbEntity
  8
LC-001-100-D00-0
 62
     7
370
    50
100
AcDbEllipse
 10
218.427308
 20
170.676137
 30
0.0
 11
-0.3857116012873914
 21
-0.3857116012873914
 31
0.0
210
0.0
220
0.0
230
1.0
 40
0.916626
 41
2.371273620689303
 42
3.911911686490171
  0
ARC
  5
EB
330
1F
100
AcDbEntity
  8
LC-001-100-D00-0
 62
     7
370
    50
100
AcDbCircle
 10
219.144082
 20
169.642918
 30
0.0
 40
0.5105083250401151
100
AcDbArc
 50
1.99732
 51
88.00138
  0
ARC
  5
EC
330
1F
100
AcDbEntity
  8
LC-001-100-D00-0
 62
     7
370
    50
100
AcDbCircle
 10
222.576737
 20
169.642918
 30
0.0
 40
0.5105071940992295
100
AcDbArc
 50
91.996827
 51
178.00274
  0
LINE
  5
ED
330
1F
100
AcDbEntity
  8
LC-001-100-D00-0
 62
     7
370
    50
100
AcDbLine
 10
218.396682
 20
170.153115
 30
0.0
 11
219.161887
 21
170.153115
 31
0.0
  0
LINE
  5
EE
330
1F
100
AcDbEntity
  8
LC-001-100-D00-0
 62
     7
370
    50
100
AcDbLine
 10
222.558949
 20
170.153115
 30
0.0
 11
223.324139
 21
170.153115
 31
0.0
  0
LINE
  5
EF
330
1F
100
AcDbEntity
  8
LC-001-100-D00-0
 62
     7
370
    50
100
AcDbLine
 10
222.06654
 20
168.895517
 30
0.0
 11
222.06654
 21
169.66071
 31
0.0
  0
LINE
  5
F0
330
1F
100
AcDbEntity
  8
LC-001-100-D00-0
 62
     7
370
    50
100
AcDbLine
 10
219.654281
 20
169.66071
 30
0.0
 11
219.654281
 21
168.895517
 31
0.0
  0
ELLIPSE
  5
F1
330
1F
100
AcDbEntity
  8
LC-001-100-D00-0
 62
     7
370
    50
100
AcDbEllipse
 10
220.177308
 20
168.926137
 30
0.0
 11
-0.3857116012689992
 21
-0.3857116012689993
 31
0.0
210
0.0
220
0.0
230
1.0
 40
0.916626
 41
2.371273620688928
 42
3.911911686490492
  0
ELLIPSE
  5
F2
330
1F
100
AcDbEntity
  8
LC-001-100-D00-0
 62
     7
370
    50
100
AcDbEllipse
 10
221.543516
 20
168.926137
 30
0.0
 11
0.3857116012965875
 21
-0.3857116012965874
 31
0.0
210
0.0
220
0.0
230
1.0
 40
0.916626
 41
5.512866274278394
 42
7.053504340080288
  0
LINE
  5
F3
330
1F
100
AcDbEntity
  8
LC-001-100-D00-0
 62
     7
370
    50
100
AcDbLine
 10
220.146689
 20
168.403115
 30
0.0
 11
221.574131
 21
168.403115
 31
0.0
  0
ARC
  5
F4
330
1F
100
AcDbEntity
  8
LC-001-100-D00-0
 62
     7
370
    50
100
AcDbCircle
 10
221.17306
 20
173.421887
 30
0.0
 40
0.5105182421130919
100
AcDbArc
 50
1.998835
 51
88.002032
  0
ARC
  5
F5
330
1F
100
AcDbEntity
  8
LC-001-100-D00-0
 62
     7
370
    50
100
AcDbCircle
 10
220.547761
 20
173.421887
 30
0.0
 40
0.5105182421130863
100
AcDbArc
 50
91.997968
 51
178.001165
  0
ELLIPSE
  5
F6
330
1F
100
AcDbEntity
  8
LC-001-100-D00-0
 62
     7
370
    50
100
AcDbEllipse
 10
219.514535
 20
172.705118
 30
0.0
 11
0.3857116011494346
 21
-0.3857116011494345
 31
0.0
210
0.0
220
0.0
230
1.0
 40
0.916626
 41
5.512866274278919
 42
7.053504340080737
  0
ELLIPSE
  5
F7
330
1F
100
AcDbEntity
  8
LC-001-100-D00-0
 62
     7
370
    50
100
AcDbEllipse
 10
222.206289
 20
172.705118
 30
0.0
 11
-0.3857116012413825
 21
-0.3857116012413826
 31
0.0
210
0.0
220
0.0
230
1.0
 40
0.916626
 41
2.371273620689049
 42
3.911911686491028
  0
ARC
  5
F8
330
1F
100
AcDbEntity
  8
LC-001-100-D00-0
 62
     7
370
    50
100
AcDbCircle
 10
222.923074
 20
171.671909
 30
0.0
 40
0.5104953431753729
100
AcDbArc
 50
1.99638
 51
88.002753
  0
ARC
  5
F9
330
1F
100
AcDbEntity
  8
LC-001-100-D00-0
 62
     7
370
    50
100
AcDbCircle
 10
218.797753
 20
171.671902
 30
0.0
 40
0.5105026000657852
100
AcDbArc
 50
91.998007
 51
178.00286
  0
ARC
  5
FA
330
1F
100
AcDbEntity
  8
LC-001-100-D00-0
 62
     7
370
    50
100
AcDbCircle
 10
218.797757
 20
171.046584
 30
0.0
 40
0.5105065109597078
100
AcDbArc
 50
181.99713
 51
268.001569
  0
ARC
  5
FB
330
1F
100
AcDbEntity
  8
LC-001-100-D00-0
 62
     7
370
    50
100
AcDbCircle
 10
222.92307
 20
171.046577
 30
0.0
 40
0.5104992534654729
100
AcDbArc
 50
271.997671
 51
358.003629
  0
ELLIPSE
  5
FC
330
1F
100
AcDbEntity
  8
LC-001-100-D00-0
 62
     7
370
    50
100
AcDbEllipse
 10
222.206289
 20
170.013365
 30
0.0
 11
0.3857116012046111
 21
-0.3857116012046111
 31
0.0
210
0.0
220
0.0
230
1.0
 40
0.916626
 41
2.37127362068874
 42
3.911911686490516
  0
ELLIPSE
  5
FD
330
1F
100
AcDbEntity
  8
LC-001-100-D00-0
 62
     7
370
    50
100
AcDbEllipse
 10
219.514535
 20
170.013365
 30
0.0
 11
-0.3857116012597747
 21
-0.3857116012597747
 31
0.0
210
0.0
220
0.0
230
1.0
 40
0.916626
 41
5.512866274278589
 42
7.053504340080417
  0
ARC
  5
FE
330
1F
100
AcDbEntity
  8
LC-001-100-D00-0
 62
     7
370
    50
100
AcDbCircle
 10
220.547765
 20
169.2966
 30
0.0
 40
0.5105224352624448
100
AcDbArc
 50
181.999274
 51
268.001593
  0
ARC
  5
FF
330
1F
100
AcDbEntity
  8
LC-001-100-D00-0
 62
     7
370
    50
100
AcDbCircle
 10
221.173056
 20
169.2966
 30
0.0
 40
0.5105224352625176
100
AcDbArc
 50
271.998407
 51
358.000726
  0
LINE
  5
100
330
1F
100
AcDbEntity
  8
LC-001-100-D00-0
 62
     7
370
    50
100
AcDbLine
 10
220.529962
 20
173.932094
 30
0.0
 11
221.190858
 21
173.932094
 31
0.0
  0
LINE
  5
101
330
1F
100
AcDbEntity
  8
LC-001-100-D00-0
 62
     7
370
    50
100
AcDbLine
 10
221.683267
 20
173.439693
 30
0.0
 11
221.683267
 21
172.6745
 31
0.0
  0
LINE
  5
102
330
1F
100
AcDbEntity
  8
LC-001-100-D00-0
 62
     7
370
    50
100
AcDbLine
 10
220.037553
 20
172.6745
 30
0.0
 11
220.037553
 21
173.439693
 31
0.0
  0
LINE
  5
103
330
1F
100
AcDbEntity
  8
LC-001-100-D00-0
 62
     7
370
    50
100
AcDbLine
 10
218.779955
 20
172.182095
 30
0.0
 11
219.545159
 21
172.182095
 31
0.0
  0
LINE
  5
104
330
1F
100
AcDbEntity
  8
LC-001-100-D00-0
 62
     7
370
    50
100
AcDbLine
 10
222.175676
 20
172.182095
 30
0.0
 11
222.940866
 21
172.182095
 31
0.0
  0
LINE
  5
105
330
1F
100
AcDbEntity
  8
LC-001-100-D00-0
 62
     7
370
    50
100
AcDbLine
 10
223.43326
 20
171.689693
 30
0.0
 11
223.43326
 21
171.028793
 31
0.0
  0
LINE
  5
106
330
1F
100
AcDbEntity
  8
LC-001-100-D00-0
 62
     7
370
    50
100
AcDbLine
 10
218.287561
 20
171.028793
 30
0.0
 11
218.287561
 21
171.689693
 31
0.0
  0
LINE
  5
107
330
1F
100
AcDbEntity
  8
LC-001-100-D00-0
 62
     7
370
    50
100
AcDbLine
 10
222.940866
 20
170.536388
 30
0.0
 11
222.175676
 21
170.536388
 31
0.0
  0
LINE
  5
108
330
1F
100
AcDbEntity
  8
LC-001-100-D00-0
 62
     7
370
    50
100
AcDbLine
 10
219.545159
 20
170.536388
 30
0.0
 11
218.779955
 21
170.536388
 31
0.0
  0
LINE
  5
109
330
1F
100
AcDbEntity
  8
LC-001-100-D00-0
 62
     7
370
    50
100
AcDbLine
 10
221.683267
 20
170.043983
 30
0.0
 11
221.683267
 21
169.27879
 31
0.0
  0
LINE
  5
10A
330
1F
100
AcDbEntity
  8
LC-001-100-D00-0
 62
     7
370
    50
100
AcDbLine
 10
220.037553
 20
169.27879
 30
0.0
 11
220.037553
 21
170.043983
 31
0.0
  0
LINE
  5
10B
330
1F
100
AcDbEntity
  8
LC-001-100-D00-0
 62
     7
370
    50
100
AcDbLine
 10
221.190858
 20
168.786388
 30
0.0
 11
220.529962
 21
168.786388
 31
0.0
  0
LINE
  5
10C
330
1F
100
AcDbEntity
  8
LC-001-100-D00-0
 62
     7
370
    50
100
AcDbLine
 10
221.190858
 20
173.932094
 30
0.0
 11
221.190858
 21
173.439693
 31
0.0
  0
LINE
  5
10D
330
1F
100
AcDbEntity
  8
LC-001-100-D00-0
 62
     7
370
    50
100
AcDbLine
 10
220.529962
 20
173.932094
 30
0.0
 11
220.529962
 21
173.439693
 31
0.0
  0
LINE
  5
10E
330
1F
100
AcDbEntity
  8
LC-001-100-D00-0
 62
     7
370
    50
100
AcDbLine
 10
220.529962
 20
173.439693
 30
0.0
 11
220.529962
 21
172.6745
 31
0.0
  0
LINE
  5
10F
330
1F
100
AcDbEntity
  8
LC-001-100-D00-0
 62
     7
370
    50
100
AcDbLine
 10
221.190858
 20
172.6745
 30
0.0
 11
221.190858
 21
173.439693
 31
0.0
  0
ELLIPSE
  5
110
330
1F
100
AcDbEntity
  8
LC-001-100-D00-0
 62
     7
370
    50
100
AcDbEllipse
 10
219.514535
 20
172.705118
 30
0.0
 11
0.7287600456387703
 21
-0.7287600456387702
 31
0.0
210
0.0
220
0.0
230
1.0
 40
0.970288
 41
5.512866274278974
 42
7.053504340080649
  0
ELLIPSE
  5
111
330
1F
100
AcDbEntity
  8
LC-001-100-D00-0
 62
     7
370
    50
100
AcDbEllipse
 10
222.206289
 20
172.705118
 30
0.0
 11
-0.7287600455953465
 21
-0.7287600455953466
 31
0.0
210
0.0
220
0.0
230
1.0
 40
0.970288
 41
2.371273620688688
 42
3.911911686491066
  0
LINE
  5
112
330
1F
100
AcDbEntity
  8
LC-001-100-D00-0
 62
     7
370
    50
100
AcDbLine
 10
219.545159
 20
171.689693
 30
0.0
 11
218.779955
 21
171.689693
 31
0.0
  0
LINE
  5
113
330
1F
100
AcDbEntity
  8
LC-001-100-D00-0
 62
     7
370
    50
100
AcDbLine
 10
223.43326
 20
171.689693
 30
0.0
 11
222.940866
 21
171.689693
 31
0.0
  0
LINE
  5
114
330
1F
100
AcDbEntity
  8
LC-001-100-D00-0
 62
     7
370
    50
100
AcDbLine
 10
218.779955
 20
171.689693
 30
0.0
 11
218.287561
 21
171.689693
 31
0.0
  0
LINE
  5
115
330
1F
100
AcDbEntity
  8
LC-001-100-D00-0
 62
     7
370
    50
100
AcDbLine
 10
222.940866
 20
171.689693
 30
0.0
 11
222.175676
 21
171.689693
 31
0.0
  0
LINE
  5
116
330
1F
100
AcDbEntity
  8
LC-001-100-D00-0
 62
     7
370
    50
100
AcDbLine
 10
218.779955
 20
171.028793
 30
0.0
 11
218.287561
 21
171.028793
 31
0.0
  0
LINE
  5
117
330
1F
100
AcDbEntity
  8
LC-001-100-D00-0
 62
     7
370
    50
100
AcDbLine
 10
223.43326
 20
171.028793
 30
0.0
 11
222.940866
 21
171.028793
 31
0.0
  0
LINE
  5
118
330
1F
100
AcDbEntity
  8
LC-001-100-D00-0
 62
     7
370
    50
100
AcDbLine
 10
222.175676
 20
171.028793
 30
0.0
 11
222.940866
 21
171.028793
 31
0.0
  0
ELLIPSE
  5
119
330
1F
100
AcDbEntity
  8
LC-001-100-D00-0
 62
     7
370
    50
100
AcDbEllipse
 10
219.514535
 20
170.013365
 30
0.0
 11
-0.7287600456213804
 21
-0.7287600456213808
 31
0.0
210
0.0
220
0.0
230
1.0
 40
0.970288
 41
5.512866274278907
 42
7.053504340080405
  0
LINE
  5
11A
330
1F
100
AcDbEntity
  8
LC-001-100-D00-0
 62
     7
370
    50
100
AcDbLine
 10
218.779955
 20
171.028793
 30
0.0
 11
219.545159
 21
171.028793
 31
0.0
  0
ELLIPSE
  5
11B
330
1F
100
AcDbEntity
  8
LC-001-100-D00-0
 62
     7
370
    50
100
AcDbEllipse
 10
222.206289
 20
170.013365
 30
0.0
 11
0.7287600455866591
 21
-0.728760045586659
 31
0.0
210
0.0
220
0.0
230
1.0
 40
0.970288
 41
2.371273620688597
 42
3.911911686490539
  0
LINE
  5
11C
330
1F
100
AcDbEntity
  8
LC-001-100-D00-0
 62
     7
370
    50
100
AcDbLine
 10
220.529962
 20
170.043983
 30
0.0
 11
220.529962
 21
169.27879
 31
0.0
  0
LINE
  5
11D
330
1F
100
AcDbEntity
  8
LC-001-100-D00-0
 62
     7
370
    50
100
AcDbLine
 10
221.190858
 20
169.27879
 30
0.0
 11
221.190858
 21
170.043983
 31
0.0
  0
LINE
  5
11E
330
1F
100
AcDbEntity
  8
LC-001-100-D00-0
 62
     7
370
    50
100
AcDbLine
 10
221.190858
 20
169.27879
 30
0.0
 11
221.190858
 21
168.786388
 31
0.0
  0
LINE
  5
11F
330
1F
100
AcDbEntity
  8
LC-001-100-D00-0
 62
     7
370
    50
100
AcDbLine
 10
220.529962
 20
169.27879
 30
0.0
 11
220.529962
 21
168.786388
 31
0.0
  0
CIRCLE
  5
120
330
1F
100
AcDbEntity
  8
LC-001-100-D00-0
 62
     7
370
    50
100
AcDbCircle
 10
338.860412
 20
53.359242
 30
0.0
 40
5.375
  0
ARC
  5
121
330
1F
100
AcDbEntity
  8
LC-001-100-D00-0
 62
     7
370
    50
100
AcDbCircle
 10
213.360412
 20
178.859242
 30
0.0
 40
3.000000000000028
100
AcDbArc
 50
90.0
 51
180.0
  0
ARC
  5
122
330
1F
100
AcDbEntity
  8
LC-001-100-D00-0
 62
     7
370
    50
100
AcDbCircle
 10
213.360412
 20
178.859242
 30
0.0
 40
7.500000000000028
100
AcDbArc
 50
90.0
 51
180.0
  0
ARC
  5
123
330
1F
100
AcDbEntity
  8
LC-001-100-D00-0
 62
     7
370
    50
100
AcDbCircle
 10
346.360412
 20
178.859242
 30
0.0
 40
3.0
100
AcDbArc
 50
0.0
 51
90.0
  0
ARC
  5
124
330
1F
100
AcDbEntity
  8
LC-001-100-D00-0
 62
     7
370
    50
100
AcDbCircle
 10
346.360412
 20
178.859242
 30
0.0
 40
7.5
100
AcDbArc
 50
0.0
 51
90.0
  0
LINE
  5
125
330
1F
100
AcDbEntity
  8
LC-001-100-D00-0
 62
     7
370
    50
100
AcDbLine
 10
346.360419
 20
181.859244
 30
0.0
 11
213.360417
 21
181.859244
 31
0.0
  0
LINE
  5
126
330
1F
100
AcDbEntity
  8
LC-001-100-D00-0
 62
     7
370
    50
100
AcDbLine
 10
346.360419
 20
186.359238
 30
0.0
 11
213.360417
 21
186.359238
 31
0.0
  0
LINE
  5
127
330
1F
100
AcDbEntity
  8
LC-001-100-D00-0
 62
     7
370
    50
100
AcDbLine
 10
353.860412
 20
178.859238
 30
0.0
 11
353.860412
 21
45.859244
 31
0.0
  0
LINE
  5
128
330
1F
100
AcDbEntity
  8
LC-001-100-D00-0
 62
     7
370
    50
100
AcDbLine
 10
349.36041
 20
178.859238
 30
0.0
 11
349.36041
 21
45.859244
 31
0.0
  0
LINE
  5
129
330
1F
100
AcDbEntity
  8
LC-001-100-D00-0
 62
     7
370
    50
100
AcDbLine
 10
210.360411
 20
178.859238
 30
0.0
 11
210.360411
 21
45.859244
 31
0.0
  0
LINE
  5
12A
330
1F
100
AcDbEntity
  8
LC-001-100-D00-0
 62
     7
370
    50
100
AcDbLine
 10
205.86041
 20
178.859238
 30
0.0
 11
205.86041
 21
45.859244
 31
0.0
  0
ARC
  5
12B
330
1F
100
AcDbEntity
  8
LC-001-100-D00-0
 62
     7
370
    50
100
AcDbCircle
 10
213.360412
 20
45.859242
 30
0.0
 40
3.0
100
AcDbArc
 50
180.0
 51
270.0
  0
ARC
  5
12C
330
1F
100
AcDbEntity
  8
LC-001-100-D00-0
 62
     7
370
    50
100
AcDbCircle
 10
213.360412
 20
45.859242
 30
0.0
 40
7.5
100
AcDbArc
 50
180.0
 51
270.0
  0
ARC
  5
12D
330
1F
100
AcDbEntity
  8
LC-001-100-D00-0
 62
     7
370
    50
100
AcDbCircle
 10
346.360412
 20
45.859242
 30
0.0
 40
3.000000000000057
100
AcDbArc
 50
270.0
 51
0.0
  0
ARC
  5
12E
330
1F
100
AcDbEntity
  8
LC-001-100-D00-0
 62
     7
370
    50
100
AcDbCircle
 10
346.360412
 20
45.859242
 30
0.0
 40
7.500000000000057
100
AcDbArc
 50
270.0
 51
0.0
  0
LINE
  5
12F
330
1F
100
AcDbEntity
  8
LC-001-100-D00-0
 62
     7
370
    50
100
AcDbLine
 10
213.360417
 20
42.859238
 30
0.0
 11
346.360419
 21
42.859238
 31
0.0
  0
LINE
  5
130
330
1F
100
AcDbEntity
  8
LC-001-100-D00-0
 62
     7
370
    50
100
AcDbLine
 10
213.360417
 20
38.359244
 30
0.0
 11
346.360419
 21
38.359244
 31
0.0
  0
INSERT
  5
142
330
1F
100
AcDbEntity
  8
LC-001-100-D00-0
 62
     7
370
    50
100
AcDbBlockReference
  2
POLY1
 10
0.0
 20
0.0
 30
0.0
  0
INSERT
  5
154
330
1F
100
AcDbEntity
  8
LC-001-100-D00-0
 62
     7
370
    50
100
AcDbBlockReference
  2
POLY2
 10
0.0
 20
0.0
 30
0.0
  0
INSERT
  5
166
330
1F
100
AcDbEntity
  8
LC-001-100-D00-0
 62
     7
370
    50
100
AcDbBlockReference
  2
POLY3
 10
0.0
 20
0.0
 30
0.0
  0
INSERT
  5
178
330
1F
100
AcDbEntity
  8
LC-001-100-D00-0
 62
     7
370
    50
100
AcDbBlockReference
  2
POLY4
 10
0.0
 20
0.0
 30
0.0
  0
INSERT
  5
18A
330
1F
100
AcDbEntity
  8
LC-001-100-D00-0
 62
     7
370
    50
100
AcDbBlockReference
  2
POLY5
 10
0.0
 20
0.0
 30
0.0
  0
INSERT
  5
19C
330
1F
100
AcDbEntity
  8
LC-001-100-D00-0
 62
     7
370
    50
100
AcDbBlockReference
  2
POLY6
 10
0.0
 20
0.0
 30
0.0
  0
INSERT
  5
1AE
330
1F
100
AcDbEntity
  8
LC-001-100-D00-0
 62
     7
370
    50
100
AcDbBlockReference
  2
POLY7
 10
0.0
 20
0.0
 30
0.0
  0
INSERT
  5
1C0
330
1F
100
AcDbEntity
  8
LC-001-100-D00-0
 62
     7
370
    50
100
AcDbBlockReference
  2
POLY8
 10
0.0
 20
0.0
 30
0.0
  0
INSERT
  5
1D2
330
1F
100
AcDbEntity
  8
LC-001-100-D00-0
 62
     7
370
    50
100
AcDbBlockReference
  2
POLY9
 10
0.0
 20
0.0
 30
0.0
  0
INSERT
  5
1E4
330
1F
100
AcDbEntity
  8
LC-001-100-D00-0
 62
     7
370
    50
100
AcDbBlockReference
  2
POLY10
 10
0.0
 20
0.0
 30
0.0
  0
INSERT
  5
1F6
330
1F
100
AcDbEntity
  8
LC-001-100-D00-0
 62
     7
370
    50
100
AcDbBlockReference
  2
POLY11
 10
0.0
 20
0.0
 30
0.0
  0
INSERT
  5
208
330
1F
100
AcDbEntity
  8
LC-001-100-D00-0
 62
     7
370
    50
100
AcDbBlockReference
  2
POLY12
 10
0.0
 20
0.0
 30
0.0
  0
INSERT
  5
21A
330
1F
100
AcDbEntity
  8
LC-001-100-D00-0
 62
     7
370
    50
100
AcDbBlockReference
  2
POLY13
 10
0.0
 20
0.0
 30
0.0
  0
INSERT
  5
22C
330
1F
100
AcDbEntity
  8
LC-001-100-D00-0
 62
     7
370
    50
100
AcDbBlockReference
  2
POLY14
 10
0.0
 20
0.0
 30
0.0
  0
INSERT
  5
23E
330
1F
100
AcDbEntity
  8
LC-001-100-D00-0
 62
     7
370
    50
100
AcDbBlockReference
  2
POLY15
 10
0.0
 20
0.0
 30
0.0
  0
INSERT
  5
250
330
1F
100
AcDbEntity
  8
LC-001-100-D00-0
 62
     7
370
    50
100
AcDbBlockReference
  2
POLY16
 10
0.0
 20
0.0
 30
0.0
  0
LINE
  5
251
330
1F
100
AcDbEntity
  8
LC-001-100-D00-0
 62
     7
370
    50
100
AcDbLine
 10
233.360413
 20
187.35924
 30
0.0
 11
246.36041
 21
187.35924
 31
0.0
  0
ARC
  5
252
330
1F
100
AcDbEntity
  8
LC-001-100-D00-0
 62
     7
370
    50
100
AcDbCircle
 10
246.360412
 20
186.359242
 30
0.0
 40
0.9999999999999836
100
AcDbArc
 50
30.0
 51
90.0
  0
ARC
  5
253
330
1F
100
AcDbEntity
  8
LC-001-100-D00-0
 62
     7
370
    50
100
AcDbCircle
 10
233.360412
 20
186.359242
 30
0.0
 40
1.0
100
AcDbArc
 50
90.0
 51
150.0
  0
LINE
  5
254
330
1F
100
AcDbEntity
  8
LC-001-100-D00-0
 62
     7
370
    50
100
AcDbLine
 10
326.360408
 20
187.35924
 30
0.0
 11
313.360426
 21
187.35924
 31
0.0
  0
ARC
  5
255
330
1F
100
AcDbEntity
  8
LC-001-100-D00-0
 62
     7
370
    50
100
AcDbCircle
 10
326.360412
 20
186.359242
 30
0.0
 40
0.9999999999999836
100
AcDbArc
 50
30.0
 51
90.0
  0
ARC
  5
256
330
1F
100
AcDbEntity
  8
LC-001-100-D00-0
 62
     7
370
    50
100
AcDbCircle
 10
313.360412
 20
186.359242
 30
0.0
 40
1.0
100
AcDbArc
 50
90.0
 51
150.0
  0
LINE
  5
257
330
1F
100
AcDbEntity
  8
LC-001-100-D00-0
 62
     7
370
    50
100
AcDbLine
 10
204.860408
 20
158.859242
 30
0.0
 11
204.860408
 21
145.859242
 31
0.0
  0
ARC
  5
258
330
1F
100
AcDbEntity
  8
LC-001-100-D00-0
 62
     7
370
    50
100
AcDbCircle
 10
205.860412
 20
158.859242
 30
0.0
 40
1.000000000000008
100
AcDbArc
 50
120.0
 51
180.0
  0
ARC
  5
259
330
1F
100
AcDbEntity
  8
LC-001-100-D00-0
 62
     7
370
    50
100
AcDbCircle
 10
205.860412
 20
145.859242
 30
0.0
 40
1.0
100
AcDbArc
 50
180.0
 51
240.0
  0
LINE
  5
25A
330
1F
100
AcDbEntity
  8
LC-001-100-D00-0
 62
     7
370
    50
100
AcDbLine
 10
354.860399
 20
158.859242
 30
0.0
 11
354.860399
 21
145.859242
 31
0.0
  0
ARC
  5
25B
330
1F
100
AcDbEntity
  8
LC-001-100-D00-0
 62
     7
370
    50
100
AcDbCircle
 10
353.860412
 20
145.859242
 30
0.0
 40
1.000000000000008
100
AcDbArc
 50
300.0
 51
0.0
  0
ARC
  5
25C
330
1F
100
AcDbEntity
  8
LC-001-100-D00-0
 62
     7
370
    50
100
AcDbCircle
 10
353.860412
 20
158.859242
 30
0.0
 40
1.0
100
AcDbArc
 50
0.0
 51
60.0
  0
LINE
  5
25D
330
1F
100
AcDbEntity
  8
LC-001-100-D00-0
 62
     7
370
    50
100
AcDbLine
 10
204.860408
 20
65.85924
 30
0.0
 11
204.860408
 21
78.85924
 31
0.0
  0
ARC
  5
25E
330
1F
100
AcDbEntity
  8
LC-001-100-D00-0
 62
     7
370
    50
100
AcDbCircle
 10
205.860412
 20
78.859242
 30
0.0
 40
0.9999999999999836
100
AcDbArc
 50
120.0
 51
180.0
  0
ARC
  5
25F
330
1F
100
AcDbEntity
  8
LC-001-100-D00-0
 62
     7
370
    50
100
AcDbCircle
 10
205.860412
 20
65.859242
 30
0.0
 40
1.0
100
AcDbArc
 50
180.0
 51
240.0
  0
LINE
  5
260
330
1F
100
AcDbEntity
  8
LC-001-100-D00-0
 62
     7
370
    50
100
AcDbLine
 10
354.860399
 20
65.85924
 30
0.0
 11
354.860399
 21
78.85924
 31
0.0
  0
ARC
  5
261
330
1F
100
AcDbEntity
  8
LC-001-100-D00-0
 62
     7
370
    50
100
AcDbCircle
 10
353.860412
 20
65.859242
 30
0.0
 40
1.000000000000008
100
AcDbArc
 50
300.0
 51
0.0
  0
ARC
  5
262
330
1F
100
AcDbEntity
  8
LC-001-100-D00-0
 62
     7
370
    50
100
AcDbCircle
 10
353.860412
 20
78.859242
 30
0.0
 40
1.0
100
AcDbArc
 50
0.0
 51
60.0
  0
LINE
  5
263
330
1F
100
AcDbEntity
  8
LC-001-100-D00-0
 62
     7
370
    50
100
AcDbLine
 10
233.360413
 20
37.359242
 30
0.0
 11
246.36041
 21
37.359242
 31
0.0
  0
ARC
  5
264
330
1F
100
AcDbEntity
  8
LC-001-100-D00-0
 62
     7
370
    50
100
AcDbCircle
 10
233.360412
 20
38.359242
 30
0.0
 40
0.9999999999999836
100
AcDbArc
 50
210.0
 51
270.0
  0
ARC
  5
265
330
1F
100
AcDbEntity
  8
LC-001-100-D00-0
 62
     7
370
    50
100
AcDbCircle
 10
246.360412
 20
38.359242
 30
0.0
 40
1.000000000000014
100
AcDbArc
 50
270.0
 51
330.0
  0
LINE
  5
266
330
1F
100
AcDbEntity
  8
LC-001-100-D00-0
 62
     7
370
    50
100
AcDbLine
 10
326.360408
 20
37.359242
 30
0.0
 11
313.360426
 21
37.359242
 31
0.0
  0
ARC
  5
267
330
1F
100
AcDbEntity
  8
LC-001-100-D00-0
 62
     7
370
    50
100
AcDbCircle
 10
313.360412
 20
38.359242
 30
0.0
 40
0.9999999999999836
100
AcDbArc
 50
210.0
 51
270.0
  0
ARC
  5
268
330
1F
100
AcDbEntity
  8
LC-001-100-D00-0
 62
     7
370
    50
100
AcDbCircle
 10
326.360412
 20
38.359242
 30
0.0
 40
1.000000000000014
100
AcDbArc
 50
270.0
 51
330.0
  0
ARC
  5
269
330
1F
100
AcDbEntity
  8
LC-001-100-D00-0
 62
     7
370
    50
100
AcDbCircle
 10
346.360412
 20
178.859242
 30
0.0
 40
2.5
100
AcDbArc
 50
0.0
 51
90.0
  0
ARC
  5
26A
330
1F
100
AcDbEntity
  8
LC-001-100-D00-0
 62
     7
370
    50
100
AcDbCircle
 10
213.360412
 20
178.859242
 30
0.0
 40
2.500000000000028
100
AcDbArc
 50
90.0
 51
180.0
  0
INSERT
  5
27C
330
1F
100
AcDbEntity
  8
LC-001-100-D00-0
 62
     7
370
    50
100
AcDbBlockReference
  2
POLY17
 10
0.0
 20
0.0
 30
0.0
  0
ARC
  5
27D
330
1F
100
AcDbEntity
  8
LC-001-100-D00-0
 62
     7
370
    50
100
AcDbCircle
 10
213.360412
 20
45.859242
 30
0.0
 40
2.5
100
AcDbArc
 50
180.0
 51
270.0
  0
ARC
  5
27E
330
1F
100
AcDbEntity
  8
LC-001-100-D00-0
 62
     7
370
    50
100
AcDbCircle
 10
346.360412
 20
45.859242
 30
0.0
 40
2.500000000000028
100
AcDbArc
 50
270.0
 51
0.0
  0
INSERT
  5
284
330
1F
100
AcDbEntity
  8
LC-001-100-D00-0
 62
     7
370
    50
100
AcDbBlockReference
  2
KLON1
 10
0.0
 20
0.0
 30
0.0
  0
ARC
  5
285
330
1F
100
AcDbEntity
  8
LC-001-100-D00-0
 62
     7
370
    50
100
AcDbCircle
 10
287.860412
 20
112.359242
 30
0.0
 40
60.5
100
AcDbArc
 50
57.238355
 51
67.762007
  0
ARC
  5
286
330
1F
100
AcDbEntity
  8
LC-001-100-D00-0
 62
     7
370
    50
100
AcDbCircle
 10
287.860412
 20
112.359242
 30
0.0
 40
60.5
100
AcDbArc
 50
112.237993
 51
126.711767
  0
ARC
  5
287
330
1F
100
AcDbEntity
  8
LC-001-100-D00-0
 62
     7
370
    50
100
AcDbCircle
 10
287.860412
 20
112.359242
 30
0.0
 40
60.50000000000004
100
AcDbArc
 50
159.048637
 51
200.951363
  0
ARC
  5
288
330
1F
100
AcDbEntity
  8
LC-001-100-D00-0
 62
     7
370
    50
100
AcDbCircle
 10
287.860412
 20
112.359242
 30
0.0
 40
60.50000000000001
100
AcDbArc
 50
233.288233
 51
247.762007
  0
ARC
  5
289
330
1F
100
AcDbEntity
  8
LC-001-100-D00-0
 62
     7
370
    50
100
AcDbCircle
 10
287.860412
 20
112.359242
 30
0.0
 40
60.50000000000001
100
AcDbArc
 50
292.237993
 51
302.761645
  0
INSERT
  5
28F
330
1F
100
AcDbEntity
  8
LC-001-100-D00-0
 62
     7
370
    50
100
AcDbBlockReference
  2
KLON2
 10
0.0
 20
0.0
 30
0.0
  0
LINE
  5
290
330
1F
100
AcDbEntity
  8
LC-001-100-D00-0
 62
     7
370
    50
100
AcDbLine
 10
346.360419
 20
181.359243
 30
0.0
 11
345.860425
 21
181.359243
 31
0.0
  0
LINE
  5
291
330
1F
100
AcDbEntity
  8
LC-001-100-D00-0
 62
     7
370
    50
100
AcDbLine
 10
348.860416
 20
45.859244
 30
0.0
 11
348.860416
 21
46.359245
 31
0.0
  0
LINE
  5
292
330
1F
100
AcDbEntity
  8
LC-001-100-D00-0
 62
     7
370
    50
100
AcDbLine
 10
210.860405
 20
46.359245
 30
0.0
 11
210.860405
 21
45.859244
 31
0.0
  0
LINE
  5
293
330
1F
100
AcDbEntity
  8
LC-001-100-D00-0
 62
     7
370
    50
100
AcDbLine
 10
213.360417
 20
43.359239
 30
0.0
 11
213.860411
 21
43.359239
 31
0.0
  0
LINE
  5
294
330
1F
100
AcDbEntity
  8
LC-001-100-D00-0
 62
     7
370
    50
100
AcDbLine
 10
345.860425
 20
43.359239
 30
0.0
 11
346.360419
 21
43.359239
 31
0.0
  0
INSERT
  5
29A
330
1F
100
AcDbEntity
  8
LC-001-100-D00-0
 62
     7
370
    50
100
AcDbBlockReference
  2
KLON3
 10
0.0
 20
0.0
 30
0.0
  0
ARC
  5
29B
330
1F
100
AcDbEntity
  8
LC-001-100-D00-0
 62
     7
370
    50
100
AcDbCircle
 10
287.860412
 20
112.359242
 30
0.0
 40
63.50000000000003
100
AcDbArc
 50
229.798535
 51
241.871172
  0
ARC
  5
29C
330
1F
100
AcDbEntity
  8
LC-001-100-D00-0
 62
     7
370
    50
100
AcDbCircle
 10
287.860412
 20
112.359242
 30
0.0
 40
63.50000000000006
100
AcDbArc
 50
152.843579
 51
207.156421
  0
ARC
  5
29D
330
1F
100
AcDbEntity
  8
LC-001-100-D00-0
 62
     7
370
    50
100
AcDbCircle
 10
287.860412
 20
112.359242
 30
0.0
 40
63.50000000000001
100
AcDbArc
 50
118.128828
 51
130.201465
  0
INSERT
  5
2A3
330
1F
100
AcDbEntity
  8
LC-001-100-D00-0
 62
     7
370
    50
100
AcDbBlockReference
  2
KLON4
 10
0.0
 20
0.0
 30
0.0
  0
INSERT
  5
2A9
330
1F
100
AcDbEntity
  8
LC-001-100-D00-0
 62
     7
370
    50
100
AcDbBlockReference
  2
KLON5
 10
0.0
 20
0.0
 30
0.0
  0
INSERT
  5
2AF
330
1F
100
AcDbEntity
  8
LC-001-100-D00-0
 62
     7
370
    50
100
AcDbBlockReference
  2
KLON6
 10
0.0
 20
0.0
 30
0.0
  0
INSERT
  5
2C7
330
1F
100
AcDbEntity
  8
LC-001-100-D00-0
 62
     7
370
    50
100
AcDbBlockReference
  2
POLY18
 10
0.0
 20
0.0
 30
0.0
  0
ARC
  5
2C8
330
1F
100
AcDbEntity
  8
LC-001-100-D00-0
 62
     7
370
    50
100
AcDbCircle
 10
-32.989598
 20
131.078048
 30
0.0
 40
0.4000000000000341
100
AcDbArc
 50
180.0
 51
270.0
  0
ARC
  5
2C9
330
1F
100
AcDbEntity
  8
LC-001-100-D00-0
 62
     7
370
    50
100
AcDbCircle
 10
-30.189598
 20
129.428048
 30
0.0
 40
1.25
100
AcDbArc
 50
0.0
 51
90.0
  0
LINE
  5
2CA
330
1F
100
AcDbEntity
  8
LC-001-100-D00-0
 62
     7
370
    50
100
AcDbLine
 10
-28.939592
 20
129.428048
 30
0.0
 11
-28.939592
 21
128.178048
 31
0.0
  0
LINE
  5
2CB
330
1F
100
AcDbEntity
  8
LC-001-100-D00-0
 62
     7
370
    50
100
AcDbLine
 10
-32.889592
 20
137.578048
 30
0.0
 11
-38.139599
 21
137.578048
 31
0.0
  0
LINE
  5
2CC
330
1F
100
AcDbEntity
  8
LC-001-100-D00-0
 62
     7
370
    50
100
AcDbLine
 10
105.360416
 20
137.578048
 30
0.0
 11
100.110409
 21
137.578048
 31
0.0
  0
LINE
  5
2CD
330
1F
100
AcDbEntity
  8
LC-001-100-D00-0
 62
     7
370
    50
100
AcDbLine
 10
100.110409
 20
137.578048
 30
0.0
 11
-32.889592
 21
137.578048
 31
0.0
  0
LINE
  5
2CE
330
1F
100
AcDbEntity
  8
LC-001-100-D00-0
 62
     7
370
    50
100
AcDbLine
 10
-20.014601
 20
136.950413
 30
0.0
 11
-20.014601
 21
137.078048
 31
0.0
  0
LINE
  5
2CF
330
1F
100
AcDbEntity
  8
LC-001-100-D00-0
 62
     7
370
    50
100
AcDbLine
 10
-30.764597
 20
137.078048
 30
0.0
 11
-30.764597
 21
136.950413
 31
0.0
  0
LINE
  5
2D0
330
1F
100
AcDbEntity
  8
LC-001-100-D00-0
 62
     7
370
    50
100
AcDbLine
 10
29.721422
 20
136.700413
 30
0.0
 11
29.721422
 21
136.950413
 31
0.0
  0
LINE
  5
2D1
330
1F
100
AcDbEntity
  8
LC-001-100-D00-0
 62
     7
370
    50
100
AcDbLine
 10
29.721422
 20
136.700413
 30
0.0
 11
31.750453
 21
136.700413
 31
0.0
  0
LINE
  5
2D2
330
1F
100
AcDbEntity
  8
LC-001-100-D00-0
 62
     7
370
    50
100
AcDbLine
 10
31.750453
 20
136.700413
 30
0.0
 11
31.750453
 21
136.950413
 31
0.0
  0
LINE
  5
2D3
330
1F
100
AcDbEntity
  8
LC-001-100-D00-0
 62
     7
370
    50
100
AcDbLine
 10
34.174023
 20
136.700413
 30
0.0
 11
34.174023
 21
136.950413
 31
0.0
  0
LINE
  5
2D4
330
1F
100
AcDbEntity
  8
LC-001-100-D00-0
 62
     7
370
    50
100
AcDbLine
 10
34.174023
 20
136.700413
 30
0.0
 11
37.499381
 21
136.700413
 31
0.0
  0
LINE
  5
2D5
330
1F
100
AcDbEntity
  8
LC-001-100-D00-0
 62
     7
370
    50
100
AcDbLine
 10
37.499381
 20
136.700413
 30
0.0
 11
37.499381
 21
136.950413
 31
0.0
  0
LINE
  5
2D6
330
1F
100
AcDbEntity
  8
LC-001-100-D00-0
 62
     7
370
    50
100
AcDbLine
 10
49.11041
 20
131.950413
 30
0.0
 11
49.11041
 21
136.950413
 31
0.0
  0
LINE
  5
2D7
330
1F
100
AcDbEntity
  8
LC-001-100-D00-0
 62
     7
370
    50
100
AcDbLine
 10
18.110407
 20
136.950413
 30
0.0
 11
18.110407
 21
131.950413
 31
0.0
  0
LINE
  5
2D8
330
1F
100
AcDbEntity
  8
LC-001-100-D00-0
 62
     7
370
    50
100
AcDbLine
 10
37.499381
 20
136.950413
 30
0.0
 11
49.11041
 21
136.950413
 31
0.0
  0
LINE
  5
2D9
330
1F
100
AcDbEntity
  8
LC-001-100-D00-0
 62
     7
370
    50
100
AcDbLine
 10
31.750453
 20
136.950413
 30
0.0
 11
34.174023
 21
136.950413
 31
0.0
  0
LINE
  5
2DA
330
1F
100
AcDbEntity
  8
LC-001-100-D00-0
 62
     7
370
    50
100
AcDbLine
 10
18.110407
 20
136.950413
 30
0.0
 11
29.721422
 21
136.950413
 31
0.0
  0
LINE
  5
2DB
330
1F
100
AcDbEntity
  8
LC-001-100-D00-0
 62
     7
370
    50
100
AcDbLine
 10
18.110407
 20
131.950413
 30
0.0
 11
49.11041
 21
131.950413
 31
0.0
  0
LINE
  5
2DC
330
1F
100
AcDbEntity
  8
LC-001-100-D00-0
 62
     7
370
    50
100
AcDbLine
 10
-22.389593
 20
131.950413
 30
0.0
 11
-22.389593
 21
136.950413
 31
0.0
  0
LINE
  5
2DD
330
1F
100
AcDbEntity
  8
LC-001-100-D00-0
 62
     7
370
    50
100
AcDbLine
 10
-35.389605
 20
135.950413
 30
0.0
 11
-35.389605
 21
131.950413
 31
0.0
  0
ARC
  5
2DE
330
1F
100
AcDbEntity
  8
LC-001-100-D00-0
 62
     7
370
    50
100
AcDbCircle
 10
-34.389598
 20
135.950413
 30
0.0
 40
1.0
100
AcDbArc
 50
90.0
 51
180.0
  0
LINE
  5
2DF
330
1F
100
AcDbEntity
  8
LC-001-100-D00-0
 62
     7
370
    50
100
AcDbLine
 10
-34.389603
 20
136.950413
 30
0.0
 11
-22.389593
 21
136.950413
 31
0.0
  0
LINE
  5
2E0
330
1F
100
AcDbEntity
  8
LC-001-100-D00-0
 62
     7
370
    50
100
AcDbLine
 10
-35.389605
 20
131.950413
 30
0.0
 11
-22.389593
 21
131.950413
 31
0.0
  0
LINE
  5
2E1
330
1F
100
AcDbEntity
  8
LC-001-100-D00-0
 62
     7
370
    50
100
AcDbLine
 10
89.610395
 20
136.950413
 30
0.0
 11
89.610395
 21
131.950413
 31
0.0
  0
ARC
  5
2E2
330
1F
100
AcDbEntity
  8
LC-001-100-D00-0
 62
     7
370
    50
100
AcDbCircle
 10
101.610402
 20
135.950413
 30
0.0
 40
1.0
100
AcDbArc
 50
0.0
 51
90.0
  0
LINE
  5
2E3
330
1F
100
AcDbEntity
  8
LC-001-100-D00-0
 62
     7
370
    50
100
AcDbLine
 10
102.610407
 20
131.950413
 30
0.0
 11
102.610407
 21
135.950413
 31
0.0
  0
LINE
  5
2E4
330
1F
100
AcDbEntity
  8
LC-001-100-D00-0
 62
     7
370
    50
100
AcDbLine
 10
89.610395
 20
136.950413
 30
0.0
 11
101.61039
 21
136.950413
 31
0.0
  0
LINE
  5
2E5
330
1F
100
AcDbEntity
  8
LC-001-100-D00-0
 62
     7
370
    50
100
AcDbLine
 10
89.610395
 20
131.950413
 30
0.0
 11
102.610407
 21
131.950413
 31
0.0
  0
LINE
  5
2E6
330
1F
100
AcDbEntity
  8
LC-001-100-D00-0
 62
     7
370
    50
100
AcDbLine
 10
1.610396
 20
136.950413
 30
0.0
 11
1.610396
 21
131.950413
 31
0.0
  0
LINE
  5
2E7
330
1F
100
AcDbEntity
  8
LC-001-100-D00-0
 62
     7
370
    50
100
AcDbLine
 10
10.610399
 20
131.950413
 30
0.0
 11
10.610399
 21
136.950413
 31
0.0
  0
LINE
  5
2E8
330
1F
100
AcDbEntity
  8
LC-001-100-D00-0
 62
     7
370
    50
100
AcDbLine
 10
1.610396
 20
136.950413
 30
0.0
 11
10.610399
 21
136.950413
 31
0.0
  0
LINE
  5
2E9
330
1F
100
AcDbEntity
  8
LC-001-100-D00-0
 62
     7
370
    50
100
AcDbLine
 10
1.610396
 20
131.950413
 30
0.0
 11
10.610399
 21
131.950413
 31
0.0
  0
LINE
  5
2EA
330
1F
100
AcDbEntity
  8
LC-001-100-D00-0
 62
     7
370
    50
100
AcDbLine
 10
-14.8896
 20
136.950413
 30
0.0
 11
-14.8896
 21
131.950413
 31
0.0
  0
LINE
  5
2EB
330
1F
100
AcDbEntity
  8
LC-001-100-D00-0
 62
     7
370
    50
100
AcDbLine
 10
-5.889597
 20
131.950413
 30
0.0
 11
-5.889597
 21
136.950413
 31
0.0
  0
LINE
  5
2EC
330
1F
100
AcDbEntity
  8
LC-001-100-D00-0
 62
     7
370
    50
100
AcDbLine
 10
-14.8896
 20
136.950413
 30
0.0
 11
-5.889597
 21
136.950413
 31
0.0
  0
LINE
  5
2ED
330
1F
100
AcDbEntity
  8
LC-001-100-D00-0
 62
     7
370
    50
100
AcDbLine
 10
-14.8896
 20
131.950413
 30
0.0
 11
-5.889597
 21
131.950413
 31
0.0
  0
LINE
  5
2EE
330
1F
100
AcDbEntity
  8
LC-001-100-D00-0
 62
     7
370
    50
100
AcDbLine
 10
82.110403
 20
131.950413
 30
0.0
 11
82.110403
 21
136.950413
 31
0.0
  0
LINE
  5
2EF
330
1F
100
AcDbEntity
  8
LC-001-100-D00-0
 62
     7
370
    50
100
AcDbLine
 10
73.110399
 20
136.950413
 30
0.0
 11
73.110399
 21
131.950413
 31
0.0
  0
LINE
  5
2F0
330
1F
100
AcDbEntity
  8
LC-001-100-D00-0
 62
     7
370
    50
100
AcDbLine
 10
73.110399
 20
136.950413
 30
0.0
 11
82.110403
 21
136.950413
 31
0.0
  0
LINE
  5
2F1
330
1F
100
AcDbEntity
  8
LC-001-100-D00-0
 62
     7
370
    50
100
AcDbLine
 10
73.110399
 20
131.950413
 30
0.0
 11
82.110403
 21
131.950413
 31
0.0
  0
LINE
  5
2F2
330
1F
100
AcDbEntity
  8
LC-001-100-D00-0
 62
     7
370
    50
100
AcDbLine
 10
65.610406
 20
131.950413
 30
0.0
 11
65.610406
 21
136.950413
 31
0.0
  0
LINE
  5
2F3
330
1F
100
AcDbEntity
  8
LC-001-100-D00-0
 62
     7
370
    50
100
AcDbLine
 10
56.610403
 20
136.950413
 30
0.0
 11
56.610403
 21
131.950413
 31
0.0
  0
LINE
  5
2F4
330
1F
100
AcDbEntity
  8
LC-001-100-D00-0
 62
     7
370
    50
100
AcDbLine
 10
56.610403
 20
136.950413
 30
0.0
 11
65.610406
 21
136.950413
 31
0.0
  0
LINE
  5
2F5
330
1F
100
AcDbEntity
  8
LC-001-100-D00-0
 62
     7
370
    50
100
AcDbLine
 10
56.610403
 20
131.950413
 30
0.0
 11
65.610406
 21
131.950413
 31
0.0
  0
LINE
  5
2F6
330
1F
100
AcDbEntity
  8
LC-001-100-D00-0
 62
     7
370
    50
100
AcDbLine
 10
31.553192
 20
136.700413
 30
0.0
 11
31.553192
 21
136.950413
 31
0.0
  0
LINE
  5
2F7
330
1F
100
AcDbEntity
  8
LC-001-100-D00-0
 62
     7
370
    50
100
AcDbLine
 10
31.553192
 20
136.950413
 30
0.0
 11
31.750453
 21
136.950413
 31
0.0
  0
LINE
  5
2F8
330
1F
100
AcDbEntity
  8
LC-001-100-D00-0
 62
     7
370
    50
100
AcDbLine
 10
35.058913
 20
136.700413
 30
0.0
 11
35.058913
 21
136.950413
 31
0.0
  0
LINE
  5
2F9
330
1F
100
AcDbEntity
  8
LC-001-100-D00-0
 62
     7
370
    50
100
AcDbLine
 10
35.058913
 20
136.950413
 30
0.0
 11
34.174023
 21
136.950413
 31
0.0
  0
LINE
  5
2FA
330
1F
100
AcDbEntity
  8
LC-001-100-D00-0
 62
     7
370
    50
100
AcDbLine
 10
36.614505
 20
136.700413
 30
0.0
 11
36.614505
 21
136.950413
 31
0.0
  0
LINE
  5
2FB
330
1F
100
AcDbEntity
  8
LC-001-100-D00-0
 62
     7
370
    50
100
AcDbLine
 10
36.614505
 20
136.950413
 30
0.0
 11
37.499381
 21
136.950413
 31
0.0
  0
LINE
  5
2FC
330
1F
100
AcDbEntity
  8
LC-001-100-D00-0
 62
     7
370
    50
100
AcDbLine
 10
31.553192
 20
136.950413
 30
0.0
 11
29.721422
 21
136.950413
 31
0.0
  0
LINE
  5
2FD
330
1F
100
AcDbEntity
  8
LC-001-100-D00-0
 62
     7
370
    50
100
AcDbLine
 10
36.614505
 20
136.950413
 30
0.0
 11
35.058913
 21
136.950413
 31
0.0
  0
LINE
  5
2FE
330
1F
100
AcDbEntity
  8
LC-001-100-D00-0
 62
     7
370
    50
100
AcDbLine
 10
18.110407
 20
136.950413
 30
0.0
 11
10.610399
 21
136.950413
 31
0.0
  0
LINE
  5
2FF
330
1F
100
AcDbEntity
  8
LC-001-100-D00-0
 62
     7
370
    50
100
AcDbLine
 10
10.610399
 20
131.950413
 30
0.0
 11
18.110407
 21
131.950413
 31
0.0
  0
LINE
  5
300
330
1F
100
AcDbEntity
  8
LC-001-100-D00-0
 62
     7
370
    50
100
AcDbLine
 10
56.610403
 20
136.950413
 30
0.0
 11
49.11041
 21
136.950413
 31
0.0
  0
LINE
  5
301
330
1F
100
AcDbEntity
  8
LC-001-100-D00-0
 62
     7
370
    50
100
AcDbLine
 10
49.11041
 20
131.950413
 30
0.0
 11
56.610403
 21
131.950413
 31
0.0
  0
LINE
  5
302
330
1F
100
AcDbEntity
  8
LC-001-100-D00-0
 62
     7
370
    50
100
AcDbLine
 10
1.610396
 20
136.950413
 30
0.0
 11
-5.889597
 21
136.950413
 31
0.0
  0
LINE
  5
303
330
1F
100
AcDbEntity
  8
LC-001-100-D00-0
 62
     7
370
    50
100
AcDbLine
 10
-5.889597
 20
131.950413
 30
0.0
 11
1.610396
 21
131.950413
 31
0.0
  0
LINE
  5
304
330
1F
100
AcDbEntity
  8
LC-001-100-D00-0
 62
     7
370
    50
100
AcDbLine
 10
73.110399
 20
136.950413
 30
0.0
 11
65.610406
 21
136.950413
 31
0.0
  0
LINE
  5
305
330
1F
100
AcDbEntity
  8
LC-001-100-D00-0
 62
     7
370
    50
100
AcDbLine
 10
65.610406
 20
131.950413
 30
0.0
 11
73.110399
 21
131.950413
 31
0.0
  0
LINE
  5
306
330
1F
100
AcDbEntity
  8
LC-001-100-D00-0
 62
     7
370
    50
100
AcDbLine
 10
-14.8896
 20
136.950413
 30
0.0
 11
-22.389593
 21
136.950413
 31
0.0
  0
LINE
  5
307
330
1F
100
AcDbEntity
  8
LC-001-100-D00-0
 62
     7
370
    50
100
AcDbLine
 10
89.610395
 20
136.950413
 30
0.0
 11
82.110403
 21
136.950413
 31
0.0
  0
LINE
  5
308
330
1F
100
AcDbEntity
  8
LC-001-100-D00-0
 62
     7
370
    50
100
AcDbLine
 10
82.110403
 20
131.950413
 30
0.0
 11
89.610395
 21
131.950413
 31
0.0
  0
LINE
  5
309
330
1F
100
AcDbEntity
  8
LC-001-100-D00-0
 62
     7
370
    50
100
AcDbLine
 10
-18.889594
 20
126.378048
 30
0.0
 11
-18.889594
 21
129.078048
 31
0.0
  0
ARC
  5
30A
330
1F
100
AcDbEntity
  8
LC-001-100-D00-0
 62
     7
370
    50
100
AcDbCircle
 10
-19.189598
 20
126.378048
 30
0.0
 40
0.3000000000000114
100
AcDbArc
 50
270.0
 51
0.0
  0
LINE
  5
30B
330
1F
100
AcDbEntity
  8
LC-001-100-D00-0
 62
     7
370
    50
100
AcDbLine
 10
-19.189599
 20
126.078048
 30
0.0
 11
-19.252526
 21
126.078048
 31
0.0
  0
LINE
  5
30C
330
1F
100
AcDbEntity
  8
LC-001-100-D00-0
 62
     7
370
    50
100
AcDbLine
 10
-19.252526
 20
126.078048
 30
0.0
 11
-18.889594
 21
125.299743
 31
0.0
  0
LINE
  5
30D
330
1F
100
AcDbEntity
  8
LC-001-100-D00-0
 62
     7
370
    50
100
AcDbLine
 10
-18.889594
 20
124.078048
 30
0.0
 11
-18.889594
 21
125.299743
 31
0.0
  0
LINE
  5
30E
330
1F
100
AcDbEntity
  8
LC-001-100-D00-0
 62
     7
370
    50
100
AcDbLine
 10
-18.889594
 20
124.078048
 30
0.0
 11
-19.889596
 21
124.078048
 31
0.0
  0
LINE
  5
30F
330
1F
100
AcDbEntity
  8
LC-001-100-D00-0
 62
     7
370
    50
100
AcDbLine
 10
-19.889596
 20
124.078048
 30
0.0
 11
-19.889596
 21
125.078048
 31
0.0
  0
LINE
  5
310
330
1F
100
AcDbEntity
  8
LC-001-100-D00-0
 62
     7
370
    50
100
AcDbLine
 10
-19.889596
 20
125.078048
 30
0.0
 11
-20.49053
 21
126.366739
 31
0.0
  0
ARC
  5
311
330
1F
100
AcDbEntity
  8
LC-001-100-D00-0
 62
     7
370
    50
100
AcDbCircle
 10
-20.03737
 20
126.578048
 30
0.0
 40
0.5000000000000568
100
AcDbArc
 50
90.0
 51
205.0
  0
LINE
  5
312
330
1F
100
AcDbEntity
  8
LC-001-100-D00-0
 62
     7
370
    50
100
AcDbLine
 10
-20.03737
 20
127.078048
 30
0.0
 11
-19.889596
 21
127.078048
 31
0.0
  0
LINE
  5
313
330
1F
100
AcDbEntity
  8
LC-001-100-D00-0
 62
     7
370
    50
100
AcDbLine
 10
-19.889596
 20
127.078048
 30
0.0
 11
-19.889596
 21
129.078048
 31
0.0
  0
ARC
  5
314
330
1F
100
AcDbEntity
  8
LC-001-100-D00-0
 62
     7
370
    50
100
AcDbCircle
 10
-21.889598
 20
129.078048
 30
0.0
 40
2.0
100
AcDbArc
 50
0.0
 51
90.0
  0
LINE
  5
315
330
1F
100
AcDbEntity
  8
LC-001-100-D00-0
 62
     7
370
    50
100
AcDbLine
 10
-21.8896
 20
131.078048
 30
0.0
 11
-35.389605
 21
131.078048
 31
0.0
  0
ARC
  5
316
330
1F
100
AcDbEntity
  8
LC-001-100-D00-0
 62
     7
370
    50
100
AcDbCircle
 10
-35.389598
 20
132.578048
 30
0.0
 40
1.5
100
AcDbArc
 50
180.0
 51
270.0
  0
LINE
  5
317
330
1F
100
AcDbEntity
  8
LC-001-100-D00-0
 62
     7
370
    50
100
AcDbLine
 10
-36.8896
 20
132.578048
 30
0.0
 11
-36.8896
 21
135.328048
 31
0.0
  0
ARC
  5
318
330
1F
100
AcDbEntity
  8
LC-001-100-D00-0
 62
     7
370
    50
100
AcDbCircle
 10
-38.139598
 20
135.328048
 30
0.0
 40
1.250000000000028
100
AcDbArc
 50
0.0
 51
180.0
  0
LINE
  5
319
330
1F
100
AcDbEntity
  8
LC-001-100-D00-0
 62
     7
370
    50
100
AcDbLine
 10
-39.389598
 20
135.328048
 30
0.0
 11
-39.389598
 21
133.178048
 31
0.0
  0
LINE
  5
31A
330
1F
100
AcDbEntity
  8
LC-001-100-D00-0
 62
     7
370
    50
100
AcDbLine
 10
-40.3896
 20
133.178048
 30
0.0
 11
-40.3896
 21
135.328048
 31
0.0
  0
ARC
  5
31B
330
1F
100
AcDbEntity
  8
LC-001-100-D00-0
 62
     7
370
    50
100
AcDbCircle
 10
-38.139598
 20
135.328048
 30
0.0
 40
2.250000000000028
100
AcDbArc
 50
0.0
 51
180.0
  0
LINE
  5
31C
330
1F
100
AcDbEntity
  8
LC-001-100-D00-0
 62
     7
370
    50
100
AcDbLine
 10
-35.889598
 20
135.328048
 30
0.0
 11
-35.889598
 21
132.578048
 31
0.0
  0
ARC
  5
31D
330
1F
100
AcDbEntity
  8
LC-001-100-D00-0
 62
     7
370
    50
100
AcDbCircle
 10
-35.389598
 20
132.578048
 30
0.0
 40
0.5
100
AcDbArc
 50
180.0
 51
270.0
  0
LINE
  5
31E
330
1F
100
AcDbEntity
  8
LC-001-100-D00-0
 62
     7
370
    50
100
AcDbLine
 10
-21.8896
 20
132.078048
 30
0.0
 11
-35.389605
 21
132.078048
 31
0.0
  0
ARC
  5
31F
330
1F
100
AcDbEntity
  8
LC-001-100-D00-0
 62
     7
370
    50
100
AcDbCircle
 10
-21.889598
 20
129.078048
 30
0.0
 40
3.0
100
AcDbArc
 50
0.0
 51
90.0
  0
ARC
  5
320
330
1F
100
AcDbEntity
  8
LC-001-100-D00-0
 62
     7
370
    50
100
AcDbCircle
 10
103.258175
 20
126.578048
 30
0.0
 40
0.5000000000000823
100
AcDbArc
 50
335.0
 51
90.0
  0
LINE
  5
321
330
1F
100
AcDbEntity
  8
LC-001-100-D00-0
 62
     7
370
    50
100
AcDbLine
 10
103.711334
 20
126.366739
 30
0.0
 11
103.1104
 21
125.078048
 31
0.0
  0
ARC
  5
322
330
1F
100
AcDbEntity
  8
LC-001-100-D00-0
 62
     7
370
    50
100
AcDbCircle
 10
102.610402
 20
132.578048
 30
0.0
 40
0.5000000000000089
100
AcDbArc
 50
315.584691
 51
0.0
  0
LINE
  5
323
330
1F
100
AcDbEntity
  8
LC-001-100-D00-0
 62
     7
370
    50
100
AcDbLine
 10
103.1104
 20
135.328048
 30
0.0
 11
103.1104
 21
132.578048
 31
0.0
  0
ARC
  5
324
330
1F
100
AcDbEntity
  8
LC-001-100-D00-0
 62
     7
370
    50
100
AcDbCircle
 10
105.360402
 20
135.328048
 30
0.0
 40
2.25
100
AcDbArc
 50
0.0
 51
180.0
  0
LINE
  5
325
330
1F
100
AcDbEntity
  8
LC-001-100-D00-0
 62
     7
370
    50
100
AcDbLine
 10
107.610402
 20
133.178048
 30
0.0
 11
107.610402
 21
135.328048
 31
0.0
  0
LINE
  5
326
330
1F
100
AcDbEntity
  8
LC-001-100-D00-0
 62
     7
370
    50
100
AcDbLine
 10
106.610415
 20
135.328048
 30
0.0
 11
106.610415
 21
133.178048
 31
0.0
  0
ARC
  5
327
330
1F
100
AcDbEntity
  8
LC-001-100-D00-0
 62
     7
370
    50
100
AcDbCircle
 10
105.360402
 20
135.328048
 30
0.0
 40
1.25
100
AcDbArc
 50
0.0
 51
180.0
  0
LINE
  5
328
330
1F
100
AcDbEntity
  8
LC-001-100-D00-0
 62
     7
370
    50
100
AcDbLine
 10
104.110388
 20
132.578048
 30
0.0
 11
104.110388
 21
135.328048
 31
0.0
  0
ARC
  5
329
330
1F
100
AcDbEntity
  8
LC-001-100-D00-0
 62
     7
370
    50
100
AcDbCircle
 10
102.610402
 20
132.578048
 30
0.0
 40
1.500000000000026
100
AcDbArc
 50
315.584691
 51
0.0
  0
ARC
  5
32A
330
1F
100
AcDbEntity
  8
LC-001-100-D00-0
 62
     7
370
    50
100
AcDbCircle
 10
105.110402
 20
130.128558
 30
0.0
 40
1.999999999999995
100
AcDbArc
 50
135.584691
 51
180.0
  0
LINE
  5
32B
330
1F
100
AcDbEntity
  8
LC-001-100-D00-0
 62
     7
370
    50
100
AcDbLine
 10
103.1104
 20
130.128558
 30
0.0
 11
103.1104
 21
127.078048
 31
0.0
  0
LINE
  5
32C
330
1F
100
AcDbEntity
  8
LC-001-100-D00-0
 62
     7
370
    50
100
AcDbLine
 10
103.1104
 20
127.078048
 30
0.0
 11
103.25816
 21
127.078048
 31
0.0
  0
LINE
  5
32D
330
1F
100
AcDbEntity
  8
LC-001-100-D00-0
 62
     7
370
    50
100
AcDbLine
 10
103.1104
 20
125.078048
 30
0.0
 11
103.1104
 21
124.078048
 31
0.0
  0
LINE
  5
32E
330
1F
100
AcDbEntity
  8
LC-001-100-D00-0
 62
     7
370
    50
100
AcDbLine
 10
103.1104
 20
124.078048
 30
0.0
 11
102.110413
 21
124.078048
 31
0.0
  0
LINE
  5
32F
330
1F
100
AcDbEntity
  8
LC-001-100-D00-0
 62
     7
370
    50
100
AcDbLine
 10
102.110413
 20
125.299743
 30
0.0
 11
102.110413
 21
124.078048
 31
0.0
  0
LINE
  5
330
330
1F
100
AcDbEntity
  8
LC-001-100-D00-0
 62
     7
370
    50
100
AcDbLine
 10
102.110413
 20
125.299743
 30
0.0
 11
102.473346
 21
126.078048
 31
0.0
  0
LINE
  5
331
330
1F
100
AcDbEntity
  8
LC-001-100-D00-0
 62
     7
370
    50
100
AcDbLine
 10
102.473346
 20
126.078048
 30
0.0
 11
102.410403
 21
126.078048
 31
0.0
  0
ARC
  5
332
330
1F
100
AcDbEntity
  8
LC-001-100-D00-0
 62
     7
370
    50
100
AcDbCircle
 10
102.410402
 20
126.378048
 30
0.0
 40
0.2999999999999545
100
AcDbArc
 50
180.0
 51
270.0
  0
LINE
  5
333
330
1F
100
AcDbEntity
  8
LC-001-100-D00-0
 62
     7
370
    50
100
AcDbLine
 10
102.110413
 20
130.128558
 30
0.0
 11
102.110413
 21
126.378048
 31
0.0
  0
ARC
  5
334
330
1F
100
AcDbEntity
  8
LC-001-100-D00-0
 62
     7
370
    50
100
AcDbCircle
 10
105.110402
 20
130.128558
 30
0.0
 40
3.000000000000012
100
AcDbArc
 50
135.584691
 51
180.0
  0
LINE
  5
335
330
1F
100
AcDbEntity
  8
LC-001-100-D00-0
 62
     7
370
    50
100
AcDbLine
 10
99.728522
 20
129.078048
 30
0.0
 11
-18.889594
 21
129.078048
 31
0.0
  0
LINE
  5
336
330
1F
100
AcDbEntity
  8
LC-001-100-D00-0
 62
     7
370
    50
100
AcDbLine
 10
-21.8896
 20
132.078048
 30
0.0
 11
-14.8896
 21
132.078048
 31
0.0
  0
LINE
  5
337
330
1F
100
AcDbEntity
  8
LC-001-100-D00-0
 62
     7
370
    50
100
AcDbLine
 10
102.110413
 20
124.078048
 30
0.0
 11
-18.889594
 21
124.078048
 31
0.0
  0
INSERT
  5
349
330
1F
100
AcDbEntity
  8
LC-001-100-D00-0
 62
     7
370
    50
100
AcDbBlockReference
  2
POLY19
 10
0.0
 20
0.0
 30
0.0
  0
LINE
  5
34A
330
1F
100
AcDbEntity
  8
LC-001-100-D00-0
 62
     7
370
    50
100
AcDbLine
 10
103.68183
 20
131.528267
 30
0.0
 11
103.680906
 21
131.527358
 31
0.0
  0
ARC
  5
34B
330
1F
100
AcDbEntity
  8
LC-001-100-D00-0
 62
     7
370
    50
100
AcDbCircle
 10
108.110402
 20
133.178048
 30
0.0
 40
1.5
100
AcDbArc
 50
180.0
 51
250.528779
  0
LINE
  5
34C
330
1F
100
AcDbEntity
  8
LC-001-100-D00-0
 62
     7
370
    50
100
AcDbLine
 10
108.110396
 20
132.678048
 30
0.0
 11
108.610389
 21
132.678048
 31
0.0
  0
LINE
  5
34D
330
1F
100
AcDbEntity
  8
LC-001-100-D00-0
 62
     7
370
    50
100
AcDbLine
 10
108.610389
 20
132.678048
 30
0.0
 11
108.610389
 21
131.678048
 31
0.0
  0
LINE
  5
34E
330
1F
100
AcDbEntity
  8
LC-001-100-D00-0
 62
     7
370
    50
100
AcDbLine
 10
108.610389
 20
131.678048
 30
0.0
 11
108.110396
 21
131.678048
 31
0.0
  0
INSERT
  5
360
330
1F
100
AcDbEntity
  8
LC-001-100-D00-0
 62
     7
370
    50
100
AcDbBlockReference
  2
POLY20
 10
0.0
 20
0.0
 30
0.0
  0
INSERT
  5
36C
330
1F
100
AcDbEntity
  8
LC-001-100-D00-0
 62
     7
370
    50
100
AcDbBlockReference
  2
POLY21
 10
0.0
 20
0.0
 30
0.0
  0
ARC
  5
36D
330
1F
100
AcDbEntity
  8
LC-001-100-D00-0
 62
     7
370
    50
100
AcDbCircle
 10
-40.889598
 20
133.178048
 30
0.0
 40
1.500000000000033
100
AcDbArc
 50
289.471221
 51
0.0
  0
LINE
  5
36E
330
1F
100
AcDbEntity
  8
LC-001-100-D00-0
 62
     7
370
    50
100
AcDbLine
 10
-40.889593
 20
131.678048
 30
0.0
 11
-41.389602
 21
131.678048
 31
0.0
  0
LINE
  5
36F
330
1F
100
AcDbEntity
  8
LC-001-100-D00-0
 62
     7
370
    50
100
AcDbLine
 10
-41.389602
 20
131.678048
 30
0.0
 11
-41.389602
 21
132.678048
 31
0.0
  0
LINE
  5
370
330
1F
100
AcDbEntity
  8
LC-001-100-D00-0
 62
     7
370
    50
100
AcDbLine
 10
-41.389602
 20
132.678048
 30
0.0
 11
-40.889593
 21
132.678048
 31
0.0
  0
INSERT
  5
382
330
1F
100
AcDbEntity
  8
LC-001-100-D00-0
 62
     7
370
    50
100
AcDbBlockReference
  2
POLY22
 10
0.0
 20
0.0
 30
0.0
  0
INSERT
  5
38E
330
1F
100
AcDbEntity
  8
LC-001-100-D00-0
 62
     7
370
    50
100
AcDbBlockReference
  2
POLY23
 10
0.0
 20
0.0
 30
0.0
  0
LINE
  5
38F
330
1F
100
AcDbEntity
  8
LC-001-100-D00-0
 62
     7
370
    50
100
AcDbLine
 10
-25.389599
 20
130.678048
 30
0.0
 11
-32.989594
 21
130.678048
 31
0.0
  0
LINE
  5
390
330
1F
100
AcDbEntity
  8
LC-001-100-D00-0
 62
     7
370
    50
100
AcDbLine
 10
-22.639605
 20
130.678048
 30
0.0
 11
-25.389599
 21
130.678048
 31
0.0
  0
LINE
  5
391
330
1F
100
AcDbEntity
  8
LC-001-100-D00-0
 62
     7
370
    50
100
AcDbLine
 10
-25.389599
 20
128.178048
 30
0.0
 11
-28.939592
 21
128.178048
 31
0.0
  0
LINE
  5
392
330
1F
100
AcDbEntity
  8
LC-001-100-D00-0
 62
     7
370
    50
100
AcDbLine
 10
-22.639605
 20
128.178048
 30
0.0
 11
-25.389599
 21
128.178048
 31
0.0
  0
LINE
  5
393
330
1F
100
AcDbEntity
  8
LC-001-100-D00-0
 62
     7
370
    50
100
AcDbLine
 10
-20.639601
 20
127.078048
 30
0.0
 11
-20.139592
 21
127.578048
 31
0.0
  0
LINE
  5
394
330
1F
100
AcDbEntity
  8
LC-001-100-D00-0
 62
     7
370
    50
100
AcDbLine
 10
-20.639601
 20
127.078048
 30
0.0
 11
-20.639601
 21
124.078048
 31
0.0
  0
LINE
  5
395
330
1F
100
AcDbEntity
  8
LC-001-100-D00-0
 62
     7
370
    50
100
AcDbLine
 10
-20.139592
 20
124.078048
 30
0.0
 11
-20.139592
 21
86.078048
 31
0.0
  0
LINE
  5
396
330
1F
100
AcDbEntity
  8
LC-001-100-D00-0
 62
     7
370
    50
100
AcDbLine
 10
-22.639605
 20
86.078048
 30
0.0
 11
-20.139592
 21
86.078048
 31
0.0
  0
LINE
  5
397
330
1F
100
AcDbEntity
  8
LC-001-100-D00-0
 62
     7
370
    50
100
AcDbLine
 10
-22.639605
 20
131.078048
 30
0.0
 11
-22.639605
 21
86.078048
 31
0.0
  0
ARC
  5
398
330
1F
100
AcDbEntity
  8
LC-001-100-D00-0
 62
     7
370
    50
100
AcDbCircle
 10
-21.639598
 20
129.578048
 30
0.0
 40
1.5
100
AcDbArc
 50
0.0
 51
90.0
  0
LINE
  5
399
330
1F
100
AcDbEntity
  8
LC-001-100-D00-0
 62
     7
370
    50
100
AcDbLine
 10
-20.139592
 20
129.578048
 30
0.0
 11
-20.139592
 21
127.578048
 31
0.0
  0
LINE
  5
39A
330
1F
100
AcDbEntity
  8
LC-001-100-D00-0
 62
     7
370
    50
100
AcDbLine
 10
-20.639601
 20
124.078048
 30
0.0
 11
-20.139592
 21
124.078048
 31
0.0
  0
LINE
  5
39B
330
1F
100
AcDbEntity
  8
LC-001-100-D00-0
 62
     7
370
    50
100
AcDbLine
 10
-21.639603
 20
131.078048
 30
0.0
 11
-22.639605
 21
131.078048
 31
0.0
  0
ARC
  5
39C
330
1F
100
AcDbEntity
  8
LC-001-100-D00-0
 62
     7
370
    50
100
AcDbCircle
 10
104.860402
 20
129.578048
 30
0.0
 40
1.5
100
AcDbArc
 50
90.0
 51
180.0
  0
LINE
  5
39D
330
1F
100
AcDbEntity
  8
LC-001-100-D00-0
 62
     7
370
    50
100
AcDbLine
 10
105.86041
 20
86.078048
 30
0.0
 11
105.86041
 21
131.078048
 31
0.0
  0
LINE
  5
39E
330
1F
100
AcDbEntity
  8
LC-001-100-D00-0
 62
     7
370
    50
100
AcDbLine
 10
103.360412
 20
86.078048
 30
0.0
 11
105.86041
 21
86.078048
 31
0.0
  0
LINE
  5
39F
330
1F
100
AcDbEntity
  8
LC-001-100-D00-0
 62
     7
370
    50
100
AcDbLine
 10
103.360412
 20
86.078048
 30
0.0
 11
103.360412
 21
124.078048
 31
0.0
  0
LINE
  5
3A0
330
1F
100
AcDbEntity
  8
LC-001-100-D00-0
 62
     7
370
    50
100
AcDbLine
 10
103.860406
 20
124.078048
 30
0.0
 11
103.860406
 21
127.078048
 31
0.0
  0
LINE
  5
3A1
330
1F
100
AcDbEntity
  8
LC-001-100-D00-0
 62
     7
370
    50
100
AcDbLine
 10
103.360412
 20
127.578048
 30
0.0
 11
103.860406
 21
127.078048
 31
0.0
  0
LINE
  5
3A2
330
1F
100
AcDbEntity
  8
LC-001-100-D00-0
 62
     7
370
    50
100
AcDbLine
 10
103.360412
 20
127.578048
 30
0.0
 11
103.360412
 21
129.578048
 31
0.0
  0
LINE
  5
3A3
330
1F
100
AcDbEntity
  8
LC-001-100-D00-0
 62
     7
370
    50
100
AcDbLine
 10
103.360412
 20
124.078048
 30
0.0
 11
103.860406
 21
124.078048
 31
0.0
  0
LINE
  5
3A4
330
1F
100
AcDbEntity
  8
LC-001-100-D00-0
 62
     7
370
    50
100
AcDbLine
 10
105.86041
 20
131.078048
 30
0.0
 11
104.860393
 21
131.078048
 31
0.0
  0
LINE
  5
3A5
330
1F
100
AcDbEntity
  8
LC-001-100-D00-0
 62
     7
370
    50
100
AcDbLine
 10
-20.139592
 20
86.078048
 30
0.0
 11
103.360412
 21
86.078048
 31
0.0
  0
LINE
  5
3A6
330
1F
100
AcDbEntity
  8
LC-001-100-D00-0
 62
     7
370
    50
100
AcDbLine
 10
-20.139592
 20
124.078048
 30
0.0
 11
-19.889596
 21
124.078048
 31
0.0
  0
LINE
  5
3A7
330
1F
100
AcDbEntity
  8
LC-001-100-D00-0
 62
     7
370
    50
100
AcDbLine
 10
103.1104
 20
124.078048
 30
0.0
 11
103.360412
 21
124.078048
 31
0.0
  0
LINE
  5
3A8
330
1F
100
AcDbEntity
  8
LC-001-100-D00-0
 62
     7
370
    50
100
AcDbLine
 10
103.410301
 20
131.078048
 30
0.0
 11
104.860393
 21
131.078048
 31
0.0
  0
LINE
  5
3A9
330
1F
100
AcDbEntity
  8
LC-001-100-D00-0
 62
     7
370
    50
100
AcDbLine
 10
-25.389599
 20
137.078048
 30
0.0
 11
-30.764597
 21
137.078048
 31
0.0
  0
LINE
  5
3AA
330
1F
100
AcDbEntity
  8
LC-001-100-D00-0
 62
     7
370
    50
100
AcDbLine
 10
-20.014601
 20
137.078048
 30
0.0
 11
-25.389599
 21
137.078048
 31
0.0
  0
INSERT
  5
3B3
330
1F
100
AcDbEntity
  8
LC-001-100-D00-0
 62
     7
370
    25
100
AcDbBlockReference
  2
KLON7
 10
0.0
 20
0.0
 30
0.0
  0
INSERT
  5
3BD
330
1F
100
AcDbEntity
  8
LC-001-100-D00-0
 62
     7
370
    25
100
AcDbBlockReference
  2
KLON8
 10
0.0
 20
0.0
 30
0.0
  0
INSERT
  5
3C3
330
1F
100
AcDbEntity
  8
LC-001-100-D00-0
 62
     7
370
    25
100
AcDbBlockReference
  2
KLON9
 10
0.0
 20
0.0
 30
0.0
  0
INSERT
  5
3CC
330
1F
100
AcDbEntity
  8
LC-001-100-D00-0
 62
     7
370
    25
100
AcDbBlockReference
  2
KLON10
 10
0.0
 20
0.0
 30
0.0
  0
INSERT
  5
3D4
330
1F
100
AcDbEntity
  8
LC-001-100-D00-0
 62
     7
370
    25
100
AcDbBlockReference
  2
KLON11
 10
0.0
 20
0.0
 30
0.0
  0
INSERT
  5
3DA
330
1F
100
AcDbEntity
  8
LC-001-100-D00-0
 62
     7
370
    25
100
AcDbBlockReference
  2
KLON12
 10
0.0
 20
0.0
 30
0.0
  0
LINE
  5
3DB
330
1F
100
AcDbEntity
  8
LC-001-100-D00-0
 62
     7
370
    25
100
AcDbLine
 10
-14.375688
 20
131.950413
 30
0.0
 11
-9.375688
 21
136.950413
 31
0.0
  0
LINE
  5
3DC
330
1F
100
AcDbEntity
  8
LC-001-100-D00-0
 62
     7
370
    25
100
AcDbLine
 10
3.584824
 20
131.950413
 30
0.0
 11
8.584824
 21
136.950413
 31
0.0
  0
INSERT
  5
3E2
330
1F
100
AcDbEntity
  8
LC-001-100-D00-0
 62
     7
370
    25
100
AcDbBlockReference
  2
KLON13
 10
0.0
 20
0.0
 30
0.0
  0
LINE
  5
3E3
330
1F
100
AcDbEntity
  8
LC-001-100-D00-0
 62
     7
370
    25
100
AcDbLine
 10
75.426873
 20
131.950413
 30
0.0
 11
80.426873
 21
136.950413
 31
0.0
  0
LINE
  5
3E4
330
1F
100
AcDbEntity
  8
LC-001-100-D00-0
 62
     7
370
    25
100
AcDbLine
 10
57.466361
 20
131.950413
 30
0.0
 11
62.466361
 21
136.950413
 31
0.0
  0
LINE
  5
3E6
330
1F
100
AcDbEntity
  8
LC-001-100-D00-0
  6
DASHDOT
 62
     7
370
    25
100
AcDbLine
 10
41.610402
 20
82.078048
 30
0.0
 11
41.610402
 21
128.078048
 31
0.0
  0
LINE
  5
3E7
330
1F
100
AcDbEntity
  8
LC-001-100-D00-0
  6
DASHDOT
 62
     7
370
    25
100
AcDbLine
 10
33.610402
 20
127.763834
 30
0.0
 11
33.610402
 21
139.328048
 31
0.0
  0
ELLIPSE
  5
3E8
330
1F
100
AcDbEntity
  8
LC-001-100-D00-0
 62
     7
370
    50
100
AcDbEllipse
 10
339.543516
 20
50.926137
 30
0.0
 11
0.7287600455910029
 21
-0.7287600455910029
 31
0.0
210
0.0
220
0.0
230
1.0
 40
0.970288
 41
5.512866274279035
 42
7.053504340080542
  0
LINE
  5
3E9
330
1F
100
AcDbEntity
  8
LC-001-100-D00-0
 62
     7
370
    50
100
AcDbLine
 10
340.558949
 20
51.66071
 30
0.0
 11
340.558949
 21
50.895517
 31
0.0
  0
LINE
  5
3EA
330
1F
100
AcDbEntity
  8
LC-001-100-D00-0
 62
     7
370
    50
100
AcDbLine
 10
341.324139
 20
51.66071
 30
0.0
 11
340.558949
 21
51.66071
 31
0.0
  0
ELLIPSE
  5
3EB
330
1F
100
AcDbEntity
  8
LC-001-100-D00-0
 62
     7
370
    50
100
AcDbEllipse
 10
341.293516
 20
52.676137
 30
0.0
 11
0.7287600456083493
 21
-0.7287600456083492
 31
0.0
210
0.0
220
0.0
230
1.0
 40
0.970288
 41
5.51286627427872
 42
7.053504340080564
  0
LINE
  5
3EC
330
1F
100
AcDbEntity
  8
LC-001-100-D00-0
 62
     7
370
    50
100
AcDbLine
 10
342.308941
 20
54.072966
 30
0.0
 11
342.308941
 21
52.64552
 31
0.0
  0
ELLIPSE
  5
3ED
330
1F
100
AcDbEntity
  8
LC-001-100-D00-0
 62
     7
370
    50
100
AcDbEllipse
 10
341.293516
 20
54.042346
 30
0.0
 11
-0.7287600456083639
 21
-0.7287600456083641
 31
0.0
210
0.0
220
0.0
230
1.0
 40
0.970288
 41
5.51286627427872
 42
7.053504340080117
  0
LINE
  5
3EE
330
1F
100
AcDbEntity
  8
LC-001-100-D00-0
 62
     7
370
    50
100
AcDbLine
 10
340.558949
 20
55.057773
 30
0.0
 11
341.324139
 21
55.057773
 31
0.0
  0
LINE
  5
3EF
330
1F
100
AcDbEntity
  8
LC-001-100-D00-0
 62
     7
370
    50
100
AcDbLine
 10
340.558949
 20
55.822966
 30
0.0
 11
340.558949
 21
55.057773
 31
0.0
  0
ELLIPSE
  5
3F0
330
1F
100
AcDbEntity
  8
LC-001-100-D00-0
 62
     7
370
    50
100
AcDbEllipse
 10
339.543516
 20
55.792346
 30
0.0
 11
-0.7287600455736277
 21
-0.7287600455736278
 31
0.0
210
0.0
220
0.0
230
1.0
 40
0.970288
 41
5.512866274278565
 42
7.05350434008007
  0
LINE
  5
3F1
330
1F
100
AcDbEntity
  8
LC-001-100-D00-0
 62
     7
370
    50
100
AcDbLine
 10
338.146689
 20
56.807772
 30
0.0
 11
339.574131
 21
56.807772
 31
0.0
  0
ELLIPSE
  5
3F2
330
1F
100
AcDbEntity
  8
LC-001-100-D00-0
 62
     7
370
    50
100
AcDbEllipse
 10
338.177308
 20
55.792346
 30
0.0
 11
0.7287600456257528
 21
-0.7287600456257527
 31
0.0
210
0.0
220
0.0
230
1.0
 40
0.970288
 41
2.371273620688879
 42
3.911911686490643
  0
LINE
  5
3F3
330
1F
100
AcDbEntity
  8
LC-001-100-D00-0
 62
     7
370
    50
100
AcDbLine
 10
337.161887
 20
55.057773
 30
0.0
 11
337.161887
 21
55.822966
 31
0.0
  0
LINE
  5
3F4
330
1F
100
AcDbEntity
  8
LC-001-100-D00-0
 62
     7
370
    50
100
AcDbLine
 10
336.396682
 20
55.057773
 30
0.0
 11
337.161887
 21
55.057773
 31
0.0
  0
ELLIPSE
  5
3F5
330
1F
100
AcDbEntity
  8
LC-001-100-D00-0
 62
     7
370
    50
100
AcDbEllipse
 10
336.427308
 20
54.042346
 30
0.0
 11
0.7287600455996904
 21
-0.7287600455996903
 31
0.0
210
0.0
220
0.0
230
1.0
 40
0.970288
 41
2.371273620688622
 42
3.911911686490613
  0
LINE
  5
3F6
330
1F
100
AcDbEntity
  8
LC-001-100-D00-0
 62
     7
370
    50
100
AcDbLine
 10
335.411879
 20
52.64552
 30
0.0
 11
335.411879
 21
54.072966
 31
0.0
  0
ELLIPSE
  5
3F7
330
1F
100
AcDbEntity
  8
LC-001-100-D00-0
 62
     7
370
    50
100
AcDbEllipse
 10
336.427308
 20
52.676137
 30
0.0
 11
-0.7287600456604881
 21
-0.7287600456604882
 31
0.0
210
0.0
220
0.0
230
1.0
 40
0.970288
 41
2.371273620688785
 42
3.911911686490912
  0
LINE
  5
3F8
330
1F
100
AcDbEntity
  8
LC-001-100-D00-0
 62
     7
370
    50
100
AcDbLine
 10
337.161887
 20
51.66071
 30
0.0
 11
336.396682
 21
51.66071
 31
0.0
  0
LINE
  5
3F9
330
1F
100
AcDbEntity
  8
LC-001-100-D00-0
 62
     7
370
    50
100
AcDbLine
 10
337.161887
 20
50.895517
 30
0.0
 11
337.161887
 21
51.66071
 31
0.0
  0
ELLIPSE
  5
3FA
330
1F
100
AcDbEntity
  8
LC-001-100-D00-0
 62
     7
370
    50
100
AcDbEllipse
 10
338.177308
 20
50.926137
 30
0.0
 11
-0.7287600456518301
 21
-0.7287600456518302
 31
0.0
210
0.0
220
0.0
230
1.0
 40
0.970288
 41
2.371273620688792
 42
3.911911686490667
  0
LINE
  5
3FB
330
1F
100
AcDbEntity
  8
LC-001-100-D00-0
 62
     7
370
    50
100
AcDbLine
 10
339.574131
 20
49.91071
 30
0.0
 11
338.146689
 21
49.91071
 31
0.0
  0
ELLIPSE
  5
3FC
330
1F
100
AcDbEntity
  8
LC-001-100-D00-0
 62
     7
370
    50
100
AcDbEllipse
 10
338.177308
 20
55.792346
 30
0.0
 11
0.3857116012046138
 21
-0.3857116012046137
 31
0.0
210
0.0
220
0.0
230
0.9999999999999999
 40
0.916626
 41
2.371273620688606
 42
3.911911686490483
  0
ELLIPSE
  5
3FD
330
1F
100
AcDbEntity
  8
LC-001-100-D00-0
 62
     7
370
    50
100
AcDbEllipse
 10
339.543516
 20
55.792346
 30
0.0
 11
-0.3857116014069404
 21
-0.3857116014069404
 31
0.0
210
0.0
220
0.0
230
0.9999999999999999
 40
0.916626
 41
5.512866274278428
 42
7.05350434008122
  0
LINE
  5
3FE
330
1F
100
AcDbEntity
  8
LC-001-100-D00-0
 62
     7
370
    50
100
AcDbLine
 10
339.574131
 20
56.315367
 30
0.0
 11
338.146689
 21
56.315367
 31
0.0
  0
LINE
  5
3FF
330
1F
100
AcDbEntity
  8
LC-001-100-D00-0
 62
     7
370
    50
100
AcDbLine
 10
340.06654
 20
55.057773
 30
0.0
 11
340.06654
 21
55.822966
 31
0.0
  0
LINE
  5
400
330
1F
100
AcDbEntity
  8
LC-001-100-D00-0
 62
     7
370
    50
100
AcDbLine
 10
337.654281
 20
55.822966
 30
0.0
 11
337.654281
 21
55.057773
 31
0.0
  0
ELLIPSE
  5
401
330
1F
100
AcDbEntity
  8
LC-001-100-D00-0
 62
     7
370
    50
100
AcDbEllipse
 10
341.293516
 20
54.042346
 30
0.0
 11
-0.38571160136096
 21
-0.3857116013609601
 31
0.0
210
0.0
220
0.0
230
1.0
 40
0.916626
 41
5.5128662742786
 42
7.053504340080927
  0
LINE
  5
402
330
1F
100
AcDbEntity
  8
LC-001-100-D00-0
 62
     7
370
    50
100
AcDbLine
 10
337.161887
 20
54.565367
 30
0.0
 11
336.396682
 21
54.565367
 31
0.0
  0
ARC
  5
403
330
1F
100
AcDbEntity
  8
LC-001-100-D00-0
 62
     7
370
    50
100
AcDbCircle
 10
337.14408
 20
55.075568
 30
0.0
 40
0.5105107211806631
100
AcDbArc
 50
271.998871
 51
358.002429
  0
ELLIPSE
  5
404
330
1F
100
AcDbEntity
  8
LC-001-100-D00-0
 62
     7
370
    50
100
AcDbEllipse
 10
336.427308
 20
54.042346
 30
0.0
 11
0.3857116011862216
 21
-0.3857116011862216
 31
0.0
210
0.0
220
0.0
230
1.0
 40
0.916626
 41
2.371273620688429
 42
3.911911686490459
  0
ARC
  5
405
330
1F
100
AcDbEntity
  8
LC-001-100-D00-0
 62
     7
370
    50
100
AcDbCircle
 10
340.576739
 20
55.075567
 30
0.0
 40
0.5105095901085937
100
AcDbArc
 50
181.997511
 51
268.002923
  0
LINE
  5
406
330
1F
100
AcDbEntity
  8
LC-001-100-D00-0
 62
     7
370
    50
100
AcDbLine
 10
341.324139
 20
54.565367
 30
0.0
 11
340.558949
 21
54.565367
 31
0.0
  0
LINE
  5
407
330
1F
100
AcDbEntity
  8
LC-001-100-D00-0
 62
     7
370
    50
100
AcDbLine
 10
335.904288
 20
54.072966
 30
0.0
 11
335.904288
 21
52.64552
 31
0.0
  0
LINE
  5
408
330
1F
100
AcDbEntity
  8
LC-001-100-D00-0
 62
     7
370
    50
100
AcDbLine
 10
341.816532
 20
52.64552
 30
0.0
 11
341.816532
 21
54.072966
 31
0.0
  0
ELLIPSE
  5
409
330
1F
100
AcDbEntity
  8
LC-001-100-D00-0
 62
     7
370
    50
100
AcDbEllipse
 10
341.293516
 20
52.676137
 30
0.0
 11
0.385711601351764
 21
-0.385711601351764
 31
0.0
210
0.0
220
0.0
230
1.0
 40
0.916626
 41
5.512866274278429
 42
7.053504340080707
  0
ELLIPSE
  5
40A
330
1F
100
AcDbEntity
  8
LC-001-100-D00-0
 62
     7
370
    50
100
AcDbEllipse
 10
336.427308
 20
52.676137
 30
0.0
 11
-0.3857116013425678
 21
-0.385711601342568
 31
0.0
210
0.0
220
0.0
230
1.0
 40
0.916626
 41
2.371273620688958
 42
3.91191168649095
  0
ARC
  5
40B
330
1F
100
AcDbEntity
  8
LC-001-100-D00-0
 62
     7
370
    50
100
AcDbCircle
 10
337.144082
 20
51.642918
 30
0.0
 40
0.5105083250401151
100
AcDbArc
 50
1.99732
 51
88.00138
  0
ARC
  5
40C
330
1F
100
AcDbEntity
  8
LC-001-100-D00-0
 62
     7
370
    50
100
AcDbCircle
 10
340.576737
 20
51.642918
 30
0.0
 40
0.5105071940992315
100
AcDbArc
 50
91.996827
 51
178.00274
  0
LINE
  5
40D
330
1F
100
AcDbEntity
  8
LC-001-100-D00-0
 62
     7
370
    50
100
AcDbLine
 10
336.396682
 20
52.153115
 30
0.0
 11
337.161887
 21
52.153115
 31
0.0
  0
LINE
  5
40E
330
1F
100
AcDbEntity
  8
LC-001-100-D00-0
 62
     7
370
    50
100
AcDbLine
 10
340.558949
 20
52.153115
 30
0.0
 11
341.324139
 21
52.153115
 31
0.0
  0
LINE
  5
40F
330
1F
100
AcDbEntity
  8
LC-001-100-D00-0
 62
     7
370
    50
100
AcDbLine
 10
340.06654
 20
50.895517
 30
0.0
 11
340.06654
 21
51.66071
 31
0.0
  0
LINE
  5
410
330
1F
100
AcDbEntity
  8
LC-001-100-D00-0
 62
     7
370
    50
100
AcDbLine
 10
337.654281
 20
51.66071
 30
0.0
 11
337.654281
 21
50.895517
 31
0.0
  0
ELLIPSE
  5
411
330
1F
100
AcDbEntity
  8
LC-001-100-D00-0
 62
     7
370
    50
100
AcDbEllipse
 10
338.177308
 20
50.926137
 30
0.0
 11
-0.3857116013057836
 21
-0.3857116013057836
 31
0.0
210
0.0
220
0.0
230
1.0
 40
0.916626
 41
2.371273620688802
 42
3.911911686490967
  0
ELLIPSE
  5
412
330
1F
100
AcDbEntity
  8
LC-001-100-D00-0
 62
     7
370
    50
100
AcDbEllipse
 10
339.543516
 20
50.926137
 30
0.0
 11
0.3857116013149797
 21
-0.3857116013149796
 31
0.0
210
0.0
220
0.0
230
1.0
 40
0.916626
 41
5.512866274278505
 42
7.053504340080453
  0
LINE
  5
413
330
1F
100
AcDbEntity
  8
LC-001-100-D00-0
 62
     7
370
    50
100
AcDbLine
 10
338.146689
 20
50.403115
 30
0.0
 11
339.574131
 21
50.403115
 31
0.0
  0
ARC
  5
414
330
1F
100
AcDbEntity
  8
LC-001-100-D00-0
 62
     7
370
    50
100
AcDbCircle
 10
339.17306
 20
55.421887
 30
0.0
 40
0.5105182421131488
100
AcDbArc
 50
1.998835
 51
88.002032
  0
ARC
  5
415
330
1F
100
AcDbEntity
  8
LC-001-100-D00-0
 62
     7
370
    50
100
AcDbCircle
 10
338.547761
 20
55.421887
 30
0.0
 40
0.5105182421130902
100
AcDbArc
 50
91.997968
 51
178.001165
  0
ELLIPSE
  5
416
330
1F
100
AcDbEntity
  8
LC-001-100-D00-0
 62
     7
370
    50
100
AcDbEllipse
 10
337.514535
 20
54.705118
 30
0.0
 11
0.3857116011310425
 21
-0.3857116011310424
 31
0.0
210
0.0
220
0.0
230
1.0
 40
0.916626
 41
5.512866274278672
 42
7.053504340080684
  0
ELLIPSE
  5
417
330
1F
100
AcDbEntity
  8
LC-001-100-D00-0
 62
     7
370
    50
100
AcDbEllipse
 10
340.206289
 20
54.705118
 30
0.0
 11
-0.3857116012413825
 21
-0.3857116012413826
 31
0.0
210
0.0
220
0.0
230
1.0
 40
0.916626
 41
2.371273620688936
 42
3.911911686490647
  0
ARC
  5
418
330
1F
100
AcDbEntity
  8
LC-001-100-D00-0
 62
     7
370
    50
100
AcDbCircle
 10
340.923074
 20
53.671909
 30
0.0
 40
0.5104953431754297
100
AcDbArc
 50
1.99638
 51
88.002753
  0
ARC
  5
419
330
1F
100
AcDbEntity
  8
LC-001-100-D00-0
 62
     7
370
    50
100
AcDbCircle
 10
336.797753
 20
53.671902
 30
0.0
 40
0.5105026000657892
100
AcDbArc
 50
91.998007
 51
178.00286
  0
ARC
  5
41A
330
1F
100
AcDbEntity
  8
LC-001-100-D00-0
 62
     7
370
    50
100
AcDbCircle
 10
336.797757
 20
53.046584
 30
0.0
 40
0.5105065109596509
100
AcDbArc
 50
181.99713
 51
268.001569
  0
ARC
  5
41B
330
1F
100
AcDbEntity
  8
LC-001-100-D00-0
 62
     7
370
    50
100
AcDbCircle
 10
340.92307
 20
53.046577
 30
0.0
 40
0.5104992534654689
100
AcDbArc
 50
271.997671
 51
358.003629
  0
ELLIPSE
  5
41C
330
1F
100
AcDbEntity
  8
LC-001-100-D00-0
 62
     7
370
    50
100
AcDbEllipse
 10
340.206289
 20
52.013365
 30
0.0
 11
0.3857116011862189
 21
-0.3857116011862189
 31
0.0
210
0.0
220
0.0
230
1.0
 40
0.916626
 41
2.371273620688434
 42
3.911911686490698
  0
ELLIPSE
  5
41D
330
1F
100
AcDbEntity
  8
LC-001-100-D00-0
 62
     7
370
    50
100
AcDbEllipse
 10
337.514535
 20
52.013365
 30
0.0
 11
-0.3857116013057551
 21
-0.3857116013057551
 31
0.0
210
0.0
220
0.0
230
1.0
 40
0.916626
 41
5.512866274278603
 42
7.053504340080808
  0
ARC
  5
41E
330
1F
100
AcDbEntity
  8
LC-001-100-D00-0
 62
     7
370
    50
100
AcDbCircle
 10
338.547765
 20
51.2966
 30
0.0
 40
0.5105224352624448
100
AcDbArc
 50
181.999274
 51
268.001593
  0
ARC
  5
41F
330
1F
100
AcDbEntity
  8
LC-001-100-D00-0
 62
     7
370
    50
100
AcDbCircle
 10
339.173056
 20
51.2966
 30
0.0
 40
0.5105224352625176
100
AcDbArc
 50
271.998407
 51
358.000726
  0
LINE
  5
420
330
1F
100
AcDbEntity
  8
LC-001-100-D00-0
 62
     7
370
    50
100
AcDbLine
 10
338.529962
 20
55.932094
 30
0.0
 11
339.190858
 21
55.932094
 31
0.0
  0
LINE
  5
421
330
1F
100
AcDbEntity
  8
LC-001-100-D00-0
 62
     7
370
    50
100
AcDbLine
 10
339.683267
 20
55.439693
 30
0.0
 11
339.683267
 21
54.6745
 31
0.0
  0
LINE
  5
422
330
1F
100
AcDbEntity
  8
LC-001-100-D00-0
 62
     7
370
    50
100
AcDbLine
 10
338.037553
 20
54.6745
 30
0.0
 11
338.037553
 21
55.439693
 31
0.0
  0
LINE
  5
423
330
1F
100
AcDbEntity
  8
LC-001-100-D00-0
 62
     7
370
    50
100
AcDbLine
 10
336.779955
 20
54.182095
 30
0.0
 11
337.545159
 21
54.182095
 31
0.0
  0
LINE
  5
424
330
1F
100
AcDbEntity
  8
LC-001-100-D00-0
 62
     7
370
    50
100
AcDbLine
 10
340.175676
 20
54.182095
 30
0.0
 11
340.940866
 21
54.182095
 31
0.0
  0
LINE
  5
425
330
1F
100
AcDbEntity
  8
LC-001-100-D00-0
 62
     7
370
    50
100
AcDbLine
 10
341.43326
 20
53.689693
 30
0.0
 11
341.43326
 21
53.028793
 31
0.0
  0
LINE
  5
426
330
1F
100
AcDbEntity
  8
LC-001-100-D00-0
 62
     7
370
    50
100
AcDbLine
 10
336.287561
 20
53.028793
 30
0.0
 11
336.287561
 21
53.689693
 31
0.0
  0
LINE
  5
427
330
1F
100
AcDbEntity
  8
LC-001-100-D00-0
 62
     7
370
    50
100
AcDbLine
 10
340.940866
 20
52.536388
 30
0.0
 11
340.175676
 21
52.536388
 31
0.0
  0
LINE
  5
428
330
1F
100
AcDbEntity
  8
LC-001-100-D00-0
 62
     7
370
    50
100
AcDbLine
 10
337.545159
 20
52.536388
 30
0.0
 11
336.779955
 21
52.536388
 31
0.0
  0
LINE
  5
429
330
1F
100
AcDbEntity
  8
LC-001-100-D00-0
 62
     7
370
    50
100
AcDbLine
 10
339.683267
 20
52.043983
 30
0.0
 11
339.683267
 21
51.27879
 31
0.0
  0
LINE
  5
42A
330
1F
100
AcDbEntity
  8
LC-001-100-D00-0
 62
     7
370
    50
100
AcDbLine
 10
338.037553
 20
51.27879
 30
0.0
 11
338.037553
 21
52.043983
 31
0.0
  0
LINE
  5
42B
330
1F
100
AcDbEntity
  8
LC-001-100-D00-0
 62
     7
370
    50
100
AcDbLine
 10
339.190858
 20
50.786388
 30
0.0
 11
338.529962
 21
50.786388
 31
0.0
  0
LINE
  5
42C
330
1F
100
AcDbEntity
  8
LC-001-100-D00-0
 62
     7
370
    50
100
AcDbLine
 10
339.190858
 20
55.932094
 30
0.0
 11
339.190858
 21
55.439693
 31
0.0
  0
LINE
  5
42D
330
1F
100
AcDbEntity
  8
LC-001-100-D00-0
 62
     7
370
    50
100
AcDbLine
 10
338.529962
 20
55.932094
 30
0.0
 11
338.529962
 21
55.439693
 31
0.0
  0
LINE
  5
42E
330
1F
100
AcDbEntity
  8
LC-001-100-D00-0
 62
     7
370
    50
100
AcDbLine
 10
338.529962
 20
55.439693
 30
0.0
 11
338.529962
 21
54.6745
 31
0.0
  0
LINE
  5
42F
330
1F
100
AcDbEntity
  8
LC-001-100-D00-0
 62
     7
370
    50
100
AcDbLine
 10
339.190858
 20
54.6745
 30
0.0
 11
339.190858
 21
55.439693
 31
0.0
  0
ELLIPSE
  5
430
330
1F
100
AcDbEntity
  8
LC-001-100-D00-0
 62
     7
370
    50
100
AcDbEllipse
 10
337.514535
 20
54.705118
 30
0.0
 11
0.7287600456344267
 21
-0.7287600456344263
 31
0.0
210
0.0
220
0.0
230
1.0
 40
0.970288
 41
5.512866274278849
 42
7.0535043400806
  0
ELLIPSE
  5
431
330
1F
100
AcDbEntity
  8
LC-001-100-D00-0
 62
     7
370
    50
100
AcDbEllipse
 10
340.206289
 20
54.705118
 30
0.0
 11
-0.7287600455910029
 21
-0.7287600455910029
 31
0.0
210
0.0
220
0.0
230
1.0
 40
0.970288
 41
2.37127362068885
 42
3.911911686491107
  0
LINE
  5
432
330
1F
100
AcDbEntity
  8
LC-001-100-D00-0
 62
     7
370
    50
100
AcDbLine
 10
337.545159
 20
53.689693
 30
0.0
 11
336.779955
 21
53.689693
 31
0.0
  0
LINE
  5
433
330
1F
100
AcDbEntity
  8
LC-001-100-D00-0
 62
     7
370
    50
100
AcDbLine
 10
341.43326
 20
53.689693
 30
0.0
 11
340.940866
 21
53.689693
 31
0.0
  0
LINE
  5
434
330
1F
100
AcDbEntity
  8
LC-001-100-D00-0
 62
     7
370
    50
100
AcDbLine
 10
336.779955
 20
53.689693
 30
0.0
 11
336.287561
 21
53.689693
 31
0.0
  0
LINE
  5
435
330
1F
100
AcDbEntity
  8
LC-001-100-D00-0
 62
     7
370
    50
100
AcDbLine
 10
340.940866
 20
53.689693
 30
0.0
 11
340.175676
 21
53.689693
 31
0.0
  0
LINE
  5
436
330
1F
100
AcDbEntity
  8
LC-001-100-D00-0
 62
     7
370
    50
100
AcDbLine
 10
336.779955
 20
53.028793
 30
0.0
 11
336.287561
 21
53.028793
 31
0.0
  0
LINE
  5
437
330
1F
100
AcDbEntity
  8
LC-001-100-D00-0
 62
     7
370
    50
100
AcDbLine
 10
341.43326
 20
53.028793
 30
0.0
 11
340.940866
 21
53.028793
 31
0.0
  0
LINE
  5
438
330
1F
100
AcDbEntity
  8
LC-001-100-D00-0
 62
     7
370
    50
100
AcDbLine
 10
340.175676
 20
53.028793
 30
0.0
 11
340.940866
 21
53.028793
 31
0.0
  0
ELLIPSE
  5
439
330
1F
100
AcDbEntity
  8
LC-001-100-D00-0
 62
     7
370
    50
100
AcDbEllipse
 10
337.514535
 20
52.013365
 30
0.0
 11
-0.7287600456170368
 21
-0.7287600456170369
 31
0.0
210
0.0
220
0.0
230
1.0
 40
0.970288
 41
5.512866274278805
 42
7.053504340080195
  0
LINE
  5
43A
330
1F
100
AcDbEntity
  8
LC-001-100-D00-0
 62
     7
370
    50
100
AcDbLine
 10
336.779955
 20
53.028793
 30
0.0
 11
337.545159
 21
53.028793
 31
0.0
  0
ELLIPSE
  5
43B
330
1F
100
AcDbEntity
  8
LC-001-100-D00-0
 62
     7
370
    50
100
AcDbEllipse
 10
340.206289
 20
52.013365
 30
0.0
 11
0.7287600456083777
 21
-0.7287600456083776
 31
0.0
210
0.0
220
0.0
230
1.0
 40
0.970288
 41
2.37127362068859
 42
3.911911686490659
  0
LINE
  5
43C
330
1F
100
AcDbEntity
  8
LC-001-100-D00-0
 62
     7
370
    50
100
AcDbLine
 10
338.529962
 20
52.043983
 30
0.0
 11
338.529962
 21
51.27879
 31
0.0
  0
LINE
  5
43D
330
1F
100
AcDbEntity
  8
LC-001-100-D00-0
 62
     7
370
    50
100
AcDbLine
 10
339.190858
 20
51.27879
 30
0.0
 11
339.190858
 21
52.043983
 31
0.0
  0
LINE
  5
43E
330
1F
100
AcDbEntity
  8
LC-001-100-D00-0
 62
     7
370
    50
100
AcDbLine
 10
339.190858
 20
51.27879
 30
0.0
 11
339.190858
 21
50.786388
 31
0.0
  0
LINE
  5
43F
330
1F
100
AcDbEntity
  8
LC-001-100-D00-0
 62
     7
370
    50
100
AcDbLine
 10
338.529962
 20
51.27879
 30
0.0
 11
338.529962
 21
50.786388
 31
0.0
  0
DIMENSION
  5
443
330
1F
100
AcDbEntity
  8
LC-002-003-----0
 62
     7
370
    25
100
AcDbDimension
  2
*D37
 10
107.610402
 20
161.631511
 30
0.0
 11
35.131964
 21
192.431511
 31
0.0
 70
   160
  1
150
 71
     5
 42
148.000002
  3
LC-DIM-L-0140-02-02
100
AcDbAlignedDimension
 13
-40.3896
 23
135.328048
 33
0.0
 14
107.610402
 24
135.328048
 34
0.0
100
AcDbRotatedDimension
  0
DIMENSION
  5
451
330
1F
100
AcDbEntity
  8
LC-002-003-----0
 62
     7
370
    25
100
AcDbDimension
  2
*D38
 10
105.86041
 20
32.12654
 30
0.0
 11
38.508696
 21
62.92654
 31
0.0
 70
   160
  1
%%c<>
 71
     5
 42
128.500007
  3
LC-DIM-L-0140-02-02
100
AcDbAlignedDimension
 13
-22.639598
 23
87.765479
 33
0.0
 14
105.86041
 24
86.078048
 34
0.0
100
AcDbRotatedDimension
  0
DIMENSION
  5
45E
330
1F
100
AcDbEntity
  8
LC-002-003-----0
 62
     7
370
    25
100
AcDbDimension
  2
*D39
 10
166.294182
 20
86.078048
 30
0.0
 11
135.494182
 21
119.44454
 31
0.0
 70
   160
 71
     5
 42
51.5
 53
90.0
  3
LC-DIM-L-0140-02-02
100
AcDbAlignedDimension
 13
105.360416
 23
137.578048
 33
0.0
 14
105.86041
 24
86.078048
 34
0.0
 50
90.0
100
AcDbRotatedDimension
  0
DIMENSION
  5
46D
330
1F
100
AcDbEntity
  8
LC-002-003-----0
 62
     7
370
    25
100
AcDbDimension
  2
*D40
 10
-65.849451
 20
131.678048
 30
0.0
 11
-96.649451
 21
124.79054
 31
0.0
 70
   160
  1
6
 71
     5
 42
5.9
 53
90.0
  3
LC-DIM-L-0140-02-02
100
AcDbAlignedDimension
 13
-38.139599
 23
137.578048
 33
0.0
 14
-41.389602
 24
131.678048
 34
0.0
 50
90.0
100
AcDbRotatedDimension
  0
ENDSEC
  0
SECTION
  2
OBJECTS
  0
DICTIONARY
  5
C
330
0
100
AcDbDictionary
281
     1
  3
ACAD_GROUP
350
D
  3
ACAD_LAYOUT
350
1A
  3
ACAD_MLINESTYLE
350
17
  3
ACAD_PLOTSETTINGS
350
19
  3
ACAD_PLOTSTYLENAME
350
E
  0
DICTIONARY
  5
D
102
{ACAD_REACTORS
330
C
102
}
330
C
100
AcDbDictionary
281
     1
  0
DICTIONARY
  5
1A
102
{ACAD_REACTORS
330
C
102
}
330
C
100
AcDbDictionary
281
     1
  3
Layout1
350
1E
  3
Layout2
350
26
  3
Model
350
22
  0
DICTIONARY
  5
17
102
{ACAD_REACTORS
330
C
102
}
330
C
100
AcDbDictionary
281
     1
  3
Standard
350
18
  0
DICTIONARY
  5
19
102
{ACAD_REACTORS
330
C
102
}
330
C
100
AcDbDictionary
281
     1
  0
ACDBDICTIONARYWDFLT
  5
E
102
{ACAD_REACTORS
330
C
102
}
330
C
100
AcDbDictionary
281
     1
  3
Normal
350
F
100
AcDbDictionaryWithDefault
340
F
  0
LAYOUT
  5
1E
102
{ACAD_REACTORS
330
1A
102
}
330
1A
100
AcDbPlotSettings
  1

  2

  4

  6

 40
0.0
 41
0.0
 42
0.0
 43
0.0
 44
0.0
 45
0.0
 46
0.0
 47
0.0
 48
0.0
 49
0.0
140
0.0
141
0.0
142
1.0
143
1.0
 70
   688
 72
     0
 73
     0
 74
     5
  7

 75
    16
147
1.0
148
0.0
149
0.0
100
AcDbLayout
  1
Layout1
 70
     1
 71
     1
 10
-282.457552
 20
-226.26346
 11
557.542448
 21
367.73654
 12
0.0
 22
0.0
 32
0.0
 14
-282.457552
 24
-226.26346
 34
0.0
 15
557.542448
 25
367.73654
 35
0.0
146
0.0
 13
0.0
 23
0.0
 33
0.0
 16
1.0
 26
0.0
 36
0.0
 17
0.0
 27
1.0
 37
0.0
 76
     0
330
1B
  0
LAYOUT
  5
26
102
{ACAD_REACTORS
330
1A
102
}
330
1A
100
AcDbPlotSettings
  1

  2

  4

  6

 40
0.0
 41
0.0
 42
0.0
 43
0.0
 44
0.0
 45
0.0
 46
0.0
 47
0.0
 48
0.0
 49
0.0
140
0.0
141
0.0
142
1.0
143
1.0
 70
   688
 72
     0
 73
     0
 74
     5
  7

 75
    16
147
1.0
148
0.0
149
0.0
100
AcDbLayout
  1
Layout2
 70
     1
 71
     2
 10
0.0
 20
0.0
 11
0.0
 21
0.0
 12
0.0
 22
0.0
 32
0.0
 14
0.0
 24
0.0
 34
0.0
 15
0.0
 25
0.0
 35
0.0
146
0.0
 13
0.0
 23
0.0
 33
0.0
 16
1.0
 26
0.0
 36
0.0
 17
0.0
 27
1.0
 37
0.0
 76
     0
330
23
  0
LAYOUT
  5
22
102
{ACAD_REACTORS
330
1A
102
}
330
1A
100
AcDbPlotSettings
  1

  2

  4

  6

 40
0.0
 41
0.0
 42
0.0
 43
0.0
 44
0.0
 45
0.0
 46
0.0
 47
0.0
 48
0.0
 49
0.0
140
0.0
141
0.0
142
1.0
143
1.0
 70
  1776
 72
     0
 73
     0
 74
     0
  7

 75
     0
147
1.0
148
0.0
149
0.0
100
AcDbLayout
  1
Model
 70
     1
 71
     0
 10
-282.457552
 20
-226.26346
 11
557.542448
 21
367.73654
 12
0.0
 22
0.0
 32
0.0
 14
-282.457552
 24
-226.26346
 34
0.0
 15
557.542448
 25
367.73654
 35
0.0
146
0.0
 13
0.0
 23
0.0
 33
0.0
 16
1.0
 26
0.0
 36
0.0
 17
0.0
 27
1.0
 37
0.0
 76
     0
330
1F
  0
MLINESTYLE
  5
18
102
{ACAD_REACTORS
330
17
102
}
330
17
100
AcDbMlineStyle
  2
Standard
 70
     0
  3

 62
   256
 51
90.0
 52
90.0
 71
     2
 49
0.5
 62
   256
  6
BYLAYER
 49
-0.5
 62
   256
  6
BYLAYER
  0
ACDBPLACEHOLDER
  5
F
102
{ACAD_REACTORS
330
E
102
}
330
E
  0
ENDSEC
  0
EOF
