  0
SECTION
  2
HEADER
  9
$ACADVER
  1
AC1009
  9
$INSBASE
 10
-286.325665
 20
5854.158748
 30
0.0
  9
$EXTMIN
 10
-286.325665
 20
5854.158748
 30
0.0
  9
$EXTMAX
 10
553.674335
 20
6448.158748
 30
0.0
  9
$LIMMIN
 10
-286.325665
 20
5854.158748
  9
$LIMMAX
 10
553.674335
 20
6448.158748
  9
$ORTHOMODE
 70
     0
  9
$REGENMODE
 70
     1
  9
$FILLMODE
 70
     1
  9
$QTEXTMODE
 70
     0
  9
$MIRRTEXT
 70
     1
  9
$DRAGMODE
 70
     2
  9
$LTSCALE
 40
2.0
  9
$OSMODE
 70
     0
  9
$ATTMODE
 70
     1
  9
$TEXTSIZE
 40
0.2
  9
$TRACEWID
 40
0.05
  9
$TEXTSTYLE
  7
STANDARD
  9
$CLAYER
  8
0
  9
$CELTYPE
  6
BYLAYER
  9
$CECOLOR
 62
     7
  9
$DIMSCALE
 40
2.0
  9
$DIMASZ
 40
3.5
  9
$DIMEXO
 40
0.0625
  9
$DIMDLI
 40
0.38
  9
$DIMRND
 40
0.0
  9
$DIMDLE
 40
0.0
  9
$DIMEXE
 40
0.18
  9
$DIMTP
 40
0.0
  9
$DIMTM
 40
0.0
  9
$DIMTXT
 40
3.5
  9
$DIMCEN
 40
0.09
  9
$DIMTSZ
 40
0.0
  9
$DIMTOL
 70
     0
  9
$DIMLIM
 70
     0
  9
$DIMTIH
 70
     1
  9
$DIMTOH
 70
     1
  9
$DIMSE1
 70
     0
  9
$DIMSE2
 70
     0
  9
$DIMTAD
 70
     1
  9
$DIMZIN
 70
     0
  9
$DIMBLK
  1

  9
$DIMASO
 70
     1
  9
$DIMSHO
 70
     1
  9
$DIMPOST
  1

  9
$DIMAPOST
  1

  9
$DIMALT
 70
     0
  9
$DIMALTD
 70
     2
  9
$DIMALTF
 40
25.4
  9
$DIMLFAC
 40
1.0
  9
$DIMTOFL
 70
     0
  9
$DIMTVP
 40
0.0
  9
$DIMTIX
 70
     0
  9
$DIMSOXD
 70
     0
  9
$DIMSAH
 70
     0
  9
$DIMBLK1
  1

  9
$DIMBLK2
  1

  9
$DIMSTYLE
  2
STANDARD
  9
$DIMCLRD
 70
     0
  9
$DIMCLRE
 70
     0
  9
$DIMCLRT
 70
     0
  9
$DIMTFAC
 40
1.0
  9
$DIMGAP
 40
0.09
  9
$LUNITS
 70
     2
  9
$LUPREC
 70
     2
  9
$AXISMODE
 70
     0
  9
$AXISUNIT
 10
0.0
 20
0.0
  9
$SKETCHINC
 40
0.1
  9
$FILLETRAD
 40
0.0
  9
$AUNITS
 70
     0
  9
$AUPREC
 70
     0
  9
$MENU
  1
acad
  9
$ELEVATION
 40
0.0
  9
$PELEVATION
 40
0.0
  9
$THICKNESS
 40
0.0
  9
$LIMCHECK
 70
     0
  9
$BLIPMODE
 70
     1
  9
$CHAMFERA
 40
0.0
  9
$CHAMFERB
 40
0.0
  9
$SKPOLY
 70
     0
  9
$TDCREATE
 40
0.000000000
  9
$TDUPDATE
 40
0.000000000
  9
$TDINDWG
 40
0.0000000000
  9
$TDUSRTIMER
 40
0.0000000000
  9
$USRTIMER
 70
     1
  9
$ANGBASE
 50
0.0
  9
$ANGDIR
 70
     0
  9
$PDMODE
 70
     0
  9
$PDSIZE
 40
0.0
  9
$PLINEWID
 40
0.0
  9
$COORDS
 70
     0
  9
$SPLFRAME
 70
     0
  9
$SPLINETYPE
 70
     6
  9
$SPLINESEGS
 70
     8
  9
$ATTDIA
 70
     0
  9
$ATTREQ
 70
     1
  9
$HANDLING
 70
     1
  9
$HANDSEED
  5
336
  9
$SURFTAB1
 70
     6
  9
$SURFTAB2
 70
     6
  9
$SURFTYPE
 70
     6
  9
$SURFU
 70
     6
  9
$SURFV
 70
     6
  9
$UCSNAME
  2

  9
$UCSORG
 10
0.0
 20
0.0
 30
0.0
  9
$UCSXDIR
 10
1.0
 20
0.0
 30
0.0
  9
$UCSYDIR
 10
0.0
 20
1.0
 30
0.0
  9
$PUCSNAME
  2

  9
$PUCSORG
 10
0.0
 20
0.0
 30
0.0
  9
$PUCSXDIR
 10
1.0
 20
0.0
 30
0.0
  9
$PUCSYDIR
 10
0.0
 20
1.0
 30
0.0
  9
$USERI1
 70
     0
  9
$USERI2
 70
     0
  9
$USERI3
 70
     0
  9
$USERI4
 70
     0
  9
$USERI5
 70
     0
  9
$USERR1
 40
0.0
  9
$USERR2
 40
0.0
  9
$USERR3
 40
0.0
  9
$USERR4
 40
0.0
  9
$USERR5
 40
0.0
  9
$WORLDVIEW
 70
     1
  9
$SHADEDGE
 70
     3
  9
$SHADEDIF
 70
    70
  9
$TILEMODE
 70
     1
  9
$MAXACTVP
 70
    16
  9
$PINSBASE
 10
0.0
 20
0.0
 30
0.0
  9
$PLIMCHECK
 70
     0
  9
$PEXTMIN
 10
1.000000E+20
 20
1.000000E+20
 30
1.000000E+20
  9
$PEXTMAX
 10
-1.000000E+20
 20
-1.000000E+20
 30
-1.000000E+20
  9
$PLIMMIN
 10
-286.325665
 20
5854.158748
  9
$PLIMMAX
 10
553.674335
 20
6448.158748
  9
$UNITMODE
 70
     0
  9
$VISRETAIN
 70
     0
  9
$PLINEGEN
 70
     1
  9
$PSLTSCALE
 70
     0
  9
$TREEDEPTH
 70
  3020
  9
$DWGCODEPAGE
  3
dos850
  0
ENDSEC
  0
SECTION
  2
TABLES
  0
TABLE
  2
VPORT
 70
     1
  0
VPORT
  2
*ACTIVE
 70
     0
 10
0.0
 20
0.0
 11
1.0
 21
1.0
 12
420.0
 22
297.0
 13
0.0
 23
0.0
 14
1.0
 24
1.0
 15
0.0
 25
0.0
 16
0.0
 26
0.0
 36
1.0
 17
-286.325665
 27
5854.158748
 37
0.0
 40
594.0
 41
1.604229
 42
50.0
 43
0.0
 44
0.0
 50
0.0
 51
0.0
 71
     0
 72
   100
 73
     1
 74
     1
 75
     0
 76
     0
 77
     0
 78
     0
  0
ENDTAB
  0
TABLE
  2
LTYPE
 70
     2
  0
LTYPE
  2
CONTINUOUS
 70
    64
  3
Solid line
 72
    65
 73
     0
 40
0.0
  0
LTYPE
  2
DASHDOT
 70
    64
  3
__ . __ . __ . __ . __
 72
    65
 73
     4
 40
7.5
 49
5.0
 49
-1.25
 49
0.0
 49
-1.25
  0
ENDTAB
  0
TABLE
  2
LAYER
 70
    11
  0
LAYER
  2
0
 70
     0
 62
     7
  6
CONTINUOUS
  0
LAYER
  2
LC-INFO-1-2-MM-A3-0
 70
     1
 62
    -1
  6
CONTINUOUS
  0
LAYER
  2
LC-002-003-MTH-0
 70
     0
 62
     2
  6
CONTINUOUS
  0
LAYER
  2
LC-003-003-MTG-0
 70
     0
 62
     2
  6
CONTINUOUS
  0
LAYER
  2
LC-001-003-----0
 70
     0
 62
     2
  6
CONTINUOUS
  0
LAYER
  2
LC-007-005-----0
 70
     0
 62
     2
  6
CONTINUOUS
  0
LAYER
  2
LC-004-000-----0
 70
     0
 62
     7
  6
CONTINUOUS
  0
LAYER
  2
LC-008-000-----0
 70
     0
 62
     7
  6
CONTINUOUS
  0
LAYER
  2
LC-005-002-----0
 70
     0
 62
     2
  6
CONTINUOUS
  0
LAYER
  2
LC-006-002-RND-0
 70
     0
 62
     1
  6
CONTINUOUS
  0
LAYER
  2
LC-000
 70
     0
 62
     7
  6
CONTINUOUS
  0
ENDTAB
  0
TABLE
  2
STYLE
 70
     3
  0
STYLE
  2
STANDARD
 70
     0
 40
0.0
 41
1.0
 50
0.0
 71
     0
 42
0.0
  3
txt
  4

  0
STYLE
  2
LC-TXTSTYLE-150-400-0-0-A1
 70
    64
 40
0.0
 41
1.0
 50
15.0
 71
     0
 42
3.5
  3
Arial
  4

  0
STYLE
  2
LC-STANDARD
 70
    64
 40
0.0
 41
1.0
 50
0.0
 71
     0
 42
3.5
  3
MONOTXT
  4

  0
ENDTAB
  0
TABLE
  2
VIEW
 70
     0
  0
ENDTAB
  0
TABLE
  2
UCS
 70
     0
  0
ENDTAB
  0
TABLE
  2
APPID
 70
     1
  0
APPID
  2
ACAD
 70
     0
  0
ENDTAB
  0
TABLE
  2
DIMSTYLE
 70
     3
  0
DIMSTYLE
  2
STANDARD
 70
     0
  3

  4

  5

  6

  7

 40
1.0
 41
0.18
 42
0.0625
 43
0.38
 44
0.18
 45
0.0
 46
0.0
 47
0.0
 48
0.0
 71
     0
 72
     0
 73
     1
 74
     1
 75
     0
 76
     0
 77
     0
 78
     0
140
0.18
141
0.09
142
0.0
143
25.4
144
1.0
145
0.0
146
1.0
147
0.09
170
     0
171
     2
172
     0
173
     0
174
     0
175
     0
176
     0
177
     0
178
     0
  0
DIMSTYLE
  2
LC-STANDARD
 70
     0
  3

  4

  5

  6

  7

 40
1.0
 41
3.5
 42
0.0
 43
7.5
 44
1.8
 45
0.0
 46
0.0
 47
0.0
 48
0.0
 71
     0
 72
     0
 73
     0
 74
     0
 75
     0
 76
     0
 77
     1
 78
     8
140
3.5
141
0.0
142
0.0
143
25.4
144
1.0
145
0.0
146
0.71
147
1.5
170
     0
171
     2
172
     1
173
     0
174
     0
175
     0
176
     0
177
     0
178
     3
  0
DIMSTYLE
  2
LC-DIM-L-0140-02-02
 70
     0
  3

  4

  5

  6

  7

 40
2.0
 41
3.5
 42
0.0
 43
7.5
 44
1.8
 45
0.0
 46
0.0
 47
0.0
 48
0.0
 71
     0
 72
     0
 73
     0
 74
     0
 75
     0
 76
     0
 77
     1
 78
     8
140
14.0
141
0.0
142
0.0
143
25.4
144
1.0
145
0.0
146
0.71
147
1.5
170
     0
171
     2
172
     0
173
     0
174
     0
175
     0
176
     2
177
     2
178
     8
  0
ENDTAB
  0
ENDSEC
  0
SECTION
  2
BLOCKS
  0
BLOCK
  8
0
  5
23
  2
*D0
 70
    65
 10
0.0
 20
0.0
 30
0.0
  3
*D0
  0
LINE
  8
LC-002-003-MTH-0
  6
CONTINUOUS
  5
25
 10
-66.10433
 20
6027.418
 30
0.0
 11
-66.10433
 21
5941.6
 31
0.0
  0
LINE
  8
LC-002-003-MTH-0
  6
CONTINUOUS
  5
26
 10
78.89567
 20
6027.418
 30
0.0
 11
78.89567
 21
5941.6
 31
0.0
  0
LINE
  8
LC-003-003-MTG-0
  6
CONTINUOUS
  5
28
 10
-66.10433
 20
5958.4
 30
0.0
 11
78.89567
 21
5958.4
 31
0.0
  0
LINE
  8
LC-001-003-----0
  6
CONTINUOUS
  5
2A
 10
-38.343874
 20
5962.054733
 30
0.0
 11
-66.10433
 21
5958.4
 31
0.0
  0
LINE
  8
LC-001-003-----0
  6
CONTINUOUS
  5
2B
 10
-66.10433
 20
5958.4
 30
0.0
 11
-38.343874
 21
5954.745267
 31
0.0
  0
LINE
  8
LC-001-003-----0
  6
CONTINUOUS
  5
2C
 10
-38.343874
 20
5954.745267
 30
0.0
 11
-38.343874
 21
5962.054733
 31
0.0
  0
LINE
  8
LC-001-003-----0
  6
CONTINUOUS
  5
2D
 10
-38.281592
 20
5961.104503
 30
0.0
 11
-58.82433
 21
5958.4
 31
0.0
  0
LINE
  8
LC-001-003-----0
  6
CONTINUOUS
  5
2E
 10
-58.82433
 20
5958.4
 30
0.0
 11
-38.281592
 21
5955.695497
 31
0.0
  0
LINE
  8
LC-001-003-----0
  6
CONTINUOUS
  5
2F
 10
-38.219311
 20
5960.154272
 30
0.0
 11
-51.54433
 21
5958.4
 31
0.0
  0
LINE
  8
LC-001-003-----0
  6
CONTINUOUS
  5
30
 10
-51.54433
 20
5958.4
 30
0.0
 11
-38.219311
 21
5956.645728
 31
0.0
  0
LINE
  8
LC-001-003-----0
  6
CONTINUOUS
  5
31
 10
-38.15703
 20
5959.204041
 30
0.0
 11
-44.26433
 21
5958.4
 31
0.0
  0
LINE
  8
LC-001-003-----0
  6
CONTINUOUS
  5
32
 10
-44.26433
 20
5958.4
 30
0.0
 11
-38.15703
 21
5957.595959
 31
0.0
  0
LINE
  8
LC-001-003-----0
  6
CONTINUOUS
  5
33
 10
51.135214
 20
5954.745267
 30
0.0
 11
78.89567
 21
5958.4
 31
0.0
  0
LINE
  8
LC-001-003-----0
  6
CONTINUOUS
  5
34
 10
78.89567
 20
5958.4
 30
0.0
 11
51.135214
 21
5962.054733
 31
0.0
  0
LINE
  8
LC-001-003-----0
  6
CONTINUOUS
  5
35
 10
51.135214
 20
5962.054733
 30
0.0
 11
51.135214
 21
5954.745267
 31
0.0
  0
LINE
  8
LC-001-003-----0
  6
CONTINUOUS
  5
36
 10
51.072933
 20
5955.695497
 30
0.0
 11
71.61567
 21
5958.4
 31
0.0
  0
LINE
  8
LC-001-003-----0
  6
CONTINUOUS
  5
37
 10
71.61567
 20
5958.4
 30
0.0
 11
51.072933
 21
5961.104503
 31
0.0
  0
LINE
  8
LC-001-003-----0
  6
CONTINUOUS
  5
38
 10
51.010651
 20
5956.645728
 30
0.0
 11
64.33567
 21
5958.4
 31
0.0
  0
LINE
  8
LC-001-003-----0
  6
CONTINUOUS
  5
39
 10
64.33567
 20
5958.4
 30
0.0
 11
51.010651
 21
5960.154272
 31
0.0
  0
LINE
  8
LC-001-003-----0
  6
CONTINUOUS
  5
3A
 10
50.94837
 20
5957.595959
 30
0.0
 11
57.05567
 21
5958.4
 31
0.0
  0
LINE
  8
LC-001-003-----0
  6
CONTINUOUS
  5
3B
 10
57.05567
 20
5958.4
 30
0.0
 11
50.94837
 21
5959.204041
 31
0.0
  0
TEXT
  8
LC-001-003-----0
  6
CONTINUOUS
 62
     8
  5
3C
 10
-27.52762
 20
5966.227554
 30
0.0
 40
28.0
  1
Ø145
 41
0.9
 51
15.0
  7
LC-TXTSTYLE-150-400-0-0-A0
 72
     1
 11
10.74383
 21
5966.227554
 31
0.0
  0
ENDBLK
  8
0
  5
3D
  0
BLOCK
  8
0
  5
3F
  2
*D1
 70
    65
 10
0.0
 20
0.0
 30
0.0
  3
*D1
  0
LINE
  8
LC-002-003-MTH-0
  6
CONTINUOUS
  5
40
 10
-69.10433
 20
6221.418
 30
0.0
 11
-69.10433
 21
6260.8
 31
0.0
  0
LINE
  8
LC-002-003-MTH-0
  6
CONTINUOUS
  5
41
 10
81.89567
 20
6219.893208
 30
0.0
 11
81.89567
 21
6260.8
 31
0.0
  0
LINE
  8
LC-003-003-MTG-0
  6
CONTINUOUS
  5
42
 10
-69.10433
 20
6244.0
 30
0.0
 11
81.89567
 21
6244.0
 31
0.0
  0
LINE
  8
LC-001-003-----0
  6
CONTINUOUS
  5
43
 10
-41.343874
 20
6247.654733
 30
0.0
 11
-69.10433
 21
6244.0
 31
0.0
  0
LINE
  8
LC-001-003-----0
  6
CONTINUOUS
  5
44
 10
-69.10433
 20
6244.0
 30
0.0
 11
-41.343874
 21
6240.345267
 31
0.0
  0
LINE
  8
LC-001-003-----0
  6
CONTINUOUS
  5
45
 10
-41.343874
 20
6240.345267
 30
0.0
 11
-41.343874
 21
6247.654733
 31
0.0
  0
LINE
  8
LC-001-003-----0
  6
CONTINUOUS
  5
46
 10
-41.281592
 20
6246.704503
 30
0.0
 11
-61.82433
 21
6244.0
 31
0.0
  0
LINE
  8
LC-001-003-----0
  6
CONTINUOUS
  5
47
 10
-61.82433
 20
6244.0
 30
0.0
 11
-41.281592
 21
6241.295497
 31
0.0
  0
LINE
  8
LC-001-003-----0
  6
CONTINUOUS
  5
48
 10
-41.219311
 20
6245.754272
 30
0.0
 11
-54.54433
 21
6244.0
 31
0.0
  0
LINE
  8
LC-001-003-----0
  6
CONTINUOUS
  5
49
 10
-54.54433
 20
6244.0
 30
0.0
 11
-41.219311
 21
6242.245728
 31
0.0
  0
LINE
  8
LC-001-003-----0
  6
CONTINUOUS
  5
4A
 10
-41.15703
 20
6244.804041
 30
0.0
 11
-47.26433
 21
6244.0
 31
0.0
  0
LINE
  8
LC-001-003-----0
  6
CONTINUOUS
  5
4B
 10
-47.26433
 20
6244.0
 30
0.0
 11
-41.15703
 21
6243.195959
 31
0.0
  0
LINE
  8
LC-001-003-----0
  6
CONTINUOUS
  5
4C
 10
54.135214
 20
6240.345267
 30
0.0
 11
81.89567
 21
6244.0
 31
0.0
  0
LINE
  8
LC-001-003-----0
  6
CONTINUOUS
  5
4D
 10
81.89567
 20
6244.0
 30
0.0
 11
54.135214
 21
6247.654733
 31
0.0
  0
LINE
  8
LC-001-003-----0
  6
CONTINUOUS
  5
4E
 10
54.135214
 20
6247.654733
 30
0.0
 11
54.135214
 21
6240.345267
 31
0.0
  0
LINE
  8
LC-001-003-----0
  6
CONTINUOUS
  5
4F
 10
54.072933
 20
6241.295497
 30
0.0
 11
74.61567
 21
6244.0
 31
0.0
  0
LINE
  8
LC-001-003-----0
  6
CONTINUOUS
  5
50
 10
74.61567
 20
6244.0
 30
0.0
 11
54.072933
 21
6246.704503
 31
0.0
  0
LINE
  8
LC-001-003-----0
  6
CONTINUOUS
  5
51
 10
54.010651
 20
6242.245728
 30
0.0
 11
67.33567
 21
6244.0
 31
0.0
  0
LINE
  8
LC-001-003-----0
  6
CONTINUOUS
  5
52
 10
67.33567
 20
6244.0
 30
0.0
 11
54.010651
 21
6245.754272
 31
0.0
  0
LINE
  8
LC-001-003-----0
  6
CONTINUOUS
  5
53
 10
53.94837
 20
6243.195959
 30
0.0
 11
60.05567
 21
6244.0
 31
0.0
  0
LINE
  8
LC-001-003-----0
  6
CONTINUOUS
  5
54
 10
60.05567
 20
6244.0
 30
0.0
 11
53.94837
 21
6244.804041
 31
0.0
  0
TEXT
  8
LC-001-003-----0
  6
CONTINUOUS
 62
     8
  5
55
 10
-15.65947
 20
6251.827554
 30
0.0
 40
28.0
  1
150
 41
0.9
 51
15.0
  7
LC-TXTSTYLE-150-400-0-0-A0
 72
     1
 11
10.74383
 21
6251.827554
 31
0.0
  0
ENDBLK
  8
0
  5
56
  0
BLOCK
  8
0
  5
58
  2
*D2
 70
    65
 10
0.0
 20
0.0
 30
0.0
  3
*D2
  0
LINE
  8
LC-002-003-MTH-0
  6
CONTINUOUS
  5
59
 10
-70.10433
 20
6208.918
 30
0.0
 11
-100.8
 21
6208.918
 31
0.0
  0
LINE
  8
LC-002-003-MTH-0
  6
CONTINUOUS
  5
5A
 10
-65.079538
 20
6223.918
 30
0.0
 11
-100.8
 21
6223.918
 31
0.0
  0
LINE
  8
LC-001-003-----0
  6
CONTINUOUS
  5
5B
 10
-80.345267
 20
6181.157544
 30
0.0
 11
-84.0
 21
6208.918
 31
0.0
  0
LINE
  8
LC-001-003-----0
  6
CONTINUOUS
  5
5C
 10
-84.0
 20
6208.918
 30
0.0
 11
-87.654733
 21
6181.157544
 31
0.0
  0
LINE
  8
LC-001-003-----0
  6
CONTINUOUS
  5
5D
 10
-87.654733
 20
6181.157544
 30
0.0
 11
-80.345267
 21
6181.157544
 31
0.0
  0
LINE
  8
LC-001-003-----0
  6
CONTINUOUS
  5
5E
 10
-81.295497
 20
6181.095262
 30
0.0
 11
-84.0
 21
6201.638
 31
0.0
  0
LINE
  8
LC-001-003-----0
  6
CONTINUOUS
  5
5F
 10
-84.0
 20
6201.638
 30
0.0
 11
-86.704503
 21
6181.095262
 31
0.0
  0
LINE
  8
LC-001-003-----0
  6
CONTINUOUS
  5
60
 10
-82.245728
 20
6181.032981
 30
0.0
 11
-84.0
 21
6194.358
 31
0.0
  0
LINE
  8
LC-001-003-----0
  6
CONTINUOUS
  5
61
 10
-84.0
 20
6194.358
 30
0.0
 11
-85.754272
 21
6181.032981
 31
0.0
  0
LINE
  8
LC-001-003-----0
  6
CONTINUOUS
  5
62
 10
-83.195959
 20
6180.9707
 30
0.0
 11
-84.0
 21
6187.078
 31
0.0
  0
LINE
  8
LC-001-003-----0
  6
CONTINUOUS
  5
63
 10
-84.0
 20
6187.078
 30
0.0
 11
-84.804041
 21
6180.9707
 31
0.0
  0
LINE
  8
LC-001-003-----0
  6
CONTINUOUS
  5
64
 10
-87.654733
 20
6251.678456
 30
0.0
 11
-84.0
 21
6223.918
 31
0.0
  0
LINE
  8
LC-001-003-----0
  6
CONTINUOUS
  5
65
 10
-84.0
 20
6223.918
 30
0.0
 11
-80.345267
 21
6251.678456
 31
0.0
  0
LINE
  8
LC-001-003-----0
  6
CONTINUOUS
  5
66
 10
-80.345267
 20
6251.678456
 30
0.0
 11
-87.654733
 21
6251.678456
 31
0.0
  0
LINE
  8
LC-001-003-----0
  6
CONTINUOUS
  5
67
 10
-86.704503
 20
6251.740738
 30
0.0
 11
-84.0
 21
6231.198
 31
0.0
  0
LINE
  8
LC-001-003-----0
  6
CONTINUOUS
  5
68
 10
-84.0
 20
6231.198
 30
0.0
 11
-81.295497
 21
6251.740738
 31
0.0
  0
LINE
  8
LC-001-003-----0
  6
CONTINUOUS
  5
69
 10
-85.754272
 20
6251.803019
 30
0.0
 11
-84.0
 21
6238.478
 31
0.0
  0
LINE
  8
LC-001-003-----0
  6
CONTINUOUS
  5
6A
 10
-84.0
 20
6238.478
 30
0.0
 11
-82.245728
 21
6251.803019
 31
0.0
  0
LINE
  8
LC-001-003-----0
  6
CONTINUOUS
  5
6B
 10
-84.804041
 20
6251.8653
 30
0.0
 11
-84.0
 21
6245.758
 31
0.0
  0
LINE
  8
LC-001-003-----0
  6
CONTINUOUS
  5
6C
 10
-84.0
 20
6245.758
 30
0.0
 11
-83.195959
 21
6251.8653
 31
0.0
  0
LINE
  8
LC-003-003-MTG-0
  6
CONTINUOUS
  5
6D
 10
-84.0
 20
6125.5536
 30
0.0
 11
-84.0
 21
6263.118
 31
0.0
  0
TEXT
  8
LC-001-003-----0
  6
CONTINUOUS
 62
     8
  5
6E
 10
-91.827554
 20
6139.98176
 30
0.0
 40
28.0
  1
15
 50
90.0
 41
0.9
 51
15.0
  7
LC-TXTSTYLE-150-400-0-0-A0
 72
     2
 11
-91.827554
 21
6175.18616
 31
0.0
  0
ENDBLK
  8
0
  5
6F
  0
BLOCK
  8
0
  5
71
  2
BLK1
 70
    64
 10
0.0
 20
0.0
 30
0.0
  3
BLK1
  0
ENDBLK
  8
0
  5
72
  0
BLOCK
  8
0
  5
74
  2
BLK2
 70
    64
 10
0.0
 20
0.0
 30
0.0
  3
BLK2
  0
ENDBLK
  8
0
  5
75
  0
BLOCK
  8
0
  5
77
  2
BLK3
 70
    64
 10
0.0
 20
0.0
 30
0.0
  3
BLK3
  0
ENDBLK
  8
0
  5
78
  0
BLOCK
  8
0
  5
7A
  2
BLK4
 70
    64
 10
0.0
 20
0.0
 30
0.0
  3
BLK4
  0
ENDBLK
  8
0
  5
7B
  0
BLOCK
  8
0
  5
7D
  2
*X7
 70
    65
 10
-62.58233
 20
6218.918
 30
0.0
  3
*X7
  0
LINE
  8
LC-007-005-----0
  6
CONTINUOUS
  5
7F
 10
73.87367
 20
6220.045812
 30
0.0
 11
75.370558
 21
6221.5427
 31
0.0
  0
LINE
  8
LC-007-005-----0
  6
CONTINUOUS
  5
80
 10
73.31485
 20
6222.315419
 30
0.0
 11
74.398537
 21
6223.399106
 31
0.0
  0
LINE
  8
LC-007-005-----0
  6
CONTINUOUS
  5
81
 10
70.589004
 20
6222.418
 30
0.0
 11
72.089004
 21
6223.918
 31
0.0
  0
LINE
  8
LC-007-005-----0
  6
CONTINUOUS
  5
82
 10
65.87367
 20
6220.531094
 30
0.0
 11
69.260577
 21
6223.918
 31
0.0
  0
LINE
  8
LC-007-005-----0
  6
CONTINUOUS
  5
83
 10
57.37367
 20
6220.516375
 30
0.0
 11
58.81477
 21
6221.957475
 31
0.0
  0
LINE
  8
LC-007-005-----0
  6
CONTINUOUS
  5
84
 10
56.444366
 20
6222.415498
 30
0.0
 11
57.616217
 21
6223.587349
 31
0.0
  0
LINE
  8
LC-007-005-----0
  6
CONTINUOUS
  5
85
 10
51.118441
 20
6219.918
 30
0.0
 11
51.37367
 21
6220.173229
 31
0.0
  0
LINE
  8
LC-007-005-----0
  6
CONTINUOUS
  5
86
 10
53.618441
 20
6222.418
 30
0.0
 11
55.118441
 21
6223.918
 31
0.0
  0
LINE
  8
LC-007-005-----0
  6
CONTINUOUS
  5
87
 10
49.875119
 20
6221.503105
 30
0.0
 11
52.288565
 21
6223.916551
 31
0.0
  0
LINE
  8
LC-007-005-----0
  6
CONTINUOUS
  5
88
 10
42.63316
 20
6219.918
 30
0.0
 11
42.87367
 21
6220.158511
 31
0.0
  0
LINE
  8
LC-007-005-----0
  6
CONTINUOUS
  5
89
 10
41.371443
 20
6221.48471
 30
0.0
 11
42.544569
 21
6222.657837
 31
0.0
  0
LINE
  8
LC-007-005-----0
  6
CONTINUOUS
  5
8A
 10
39.476305
 20
6222.418
 30
0.0
 11
40.916632
 21
6223.858326
 31
0.0
  0
LINE
  8
LC-007-005-----0
  6
CONTINUOUS
  5
8B
 10
34.147878
 20
6219.918
 30
0.0
 11
35.37367
 21
6221.143792
 31
0.0
  0
LINE
  8
LC-007-005-----0
  6
CONTINUOUS
  5
8C
 10
36.647878
 20
6222.418
 30
0.0
 11
38.147878
 21
6223.918
 31
0.0
  0
LINE
  8
LC-007-005-----0
  6
CONTINUOUS
  5
8D
 10
25.662597
 20
6219.918
 30
0.0
 11
26.87367
 21
6221.129073
 31
0.0
  0
LINE
  8
LC-007-005-----0
  6
CONTINUOUS
  5
8E
 10
25.060751
 20
6222.144581
 30
0.0
 11
26.121577
 21
6223.205407
 31
0.0
  0
LINE
  8
LC-007-005-----0
  6
CONTINUOUS
  5
8F
 10
22.505743
 20
6222.418
 30
0.0
 11
24.005743
 21
6223.918
 31
0.0
  0
LINE
  8
LC-007-005-----0
  6
CONTINUOUS
  5
90
 10
19.677315
 20
6222.418
 30
0.0
 11
21.177315
 21
6223.918
 31
0.0
  0
LINE
  8
LC-007-005-----0
  6
CONTINUOUS
  5
91
 10
16.848888
 20
6222.418
 30
0.0
 11
18.348888
 21
6223.918
 31
0.0
  0
LINE
  8
LC-007-005-----0
  6
CONTINUOUS
  5
92
 10
14.020461
 20
6222.418
 30
0.0
 11
15.520461
 21
6223.918
 31
0.0
  0
LINE
  8
LC-007-005-----0
  6
CONTINUOUS
  5
93
 10
11.192034
 20
6222.418
 30
0.0
 11
12.692034
 21
6223.918
 31
0.0
  0
LINE
  8
LC-007-005-----0
  6
CONTINUOUS
  5
94
 10
8.363607
 20
6222.418
 30
0.0
 11
9.863607
 21
6223.918
 31
0.0
  0
LINE
  8
LC-007-005-----0
  6
CONTINUOUS
  5
95
 10
5.53518
 20
6222.418
 30
0.0
 11
7.03518
 21
6223.918
 31
0.0
  0
LINE
  8
LC-007-005-----0
  6
CONTINUOUS
  5
96
 10
2.706753
 20
6222.418
 30
0.0
 11
4.206753
 21
6223.918
 31
0.0
  0
LINE
  8
LC-007-005-----0
  6
CONTINUOUS
  5
97
 10
-0.121674
 20
6222.418
 30
0.0
 11
1.378326
 21
6223.918
 31
0.0
  0
LINE
  8
LC-007-005-----0
  6
CONTINUOUS
  5
98
 10
-2.950102
 20
6222.418
 30
0.0
 11
-1.450102
 21
6223.918
 31
0.0
  0
LINE
  8
LC-007-005-----0
  6
CONTINUOUS
  5
99
 10
-5.778529
 20
6222.418
 30
0.0
 11
-4.278529
 21
6223.918
 31
0.0
  0
LINE
  8
LC-007-005-----0
  6
CONTINUOUS
  5
9A
 10
-8.606956
 20
6222.418
 30
0.0
 11
-7.106956
 21
6223.918
 31
0.0
  0
LINE
  8
LC-007-005-----0
  6
CONTINUOUS
  5
9B
 10
-13.935383
 20
6219.918
 30
0.0
 11
-12.58233
 21
6221.271053
 31
0.0
  0
LINE
  8
LC-007-005-----0
  6
CONTINUOUS
  5
9C
 10
-11.435383
 20
6222.418
 30
0.0
 11
-9.935383
 21
6223.918
 31
0.0
  0
LINE
  8
LC-007-005-----0
  6
CONTINUOUS
  5
9D
 10
-22.420664
 20
6219.918
 30
0.0
 11
-21.08233
 21
6221.256334
 31
0.0
  0
LINE
  8
LC-007-005-----0
  6
CONTINUOUS
  5
9E
 10
-22.963537
 20
6222.203554
 30
0.0
 11
-21.899911
 21
6223.26718
 31
0.0
  0
LINE
  8
LC-007-005-----0
  6
CONTINUOUS
  5
9F
 10
-25.577519
 20
6222.418
 30
0.0
 11
-24.077519
 21
6223.918
 31
0.0
  0
LINE
  8
LC-007-005-----0
  6
CONTINUOUS
  5
A0
 10
-30.08233
 20
6220.741616
 30
0.0
 11
-26.905946
 21
6223.918
 31
0.0
  0
LINE
  8
LC-007-005-----0
  6
CONTINUOUS
  5
A1
 10
-38.58233
 20
6220.726897
 30
0.0
 11
-37.184347
 21
6222.12488
 31
0.0
  0
LINE
  8
LC-007-005-----0
  6
CONTINUOUS
  5
A2
 10
-39.719654
 20
6222.418
 30
0.0
 11
-38.477187
 21
6223.660467
 31
0.0
  0
LINE
  8
LC-007-005-----0
  6
CONTINUOUS
  5
A3
 10
-45.048081
 20
6219.918
 30
0.0
 11
-44.58233
 21
6220.383751
 31
0.0
  0
LINE
  8
LC-007-005-----0
  6
CONTINUOUS
  5
A4
 10
-42.548081
 20
6222.418
 30
0.0
 11
-41.048081
 21
6223.918
 31
0.0
  0
LINE
  8
LC-007-005-----0
  6
CONTINUOUS
  5
A5
 10
-46.062536
 20
6221.731973
 30
0.0
 11
-43.896303
 21
6223.898206
 31
0.0
  0
LINE
  8
LC-007-005-----0
  6
CONTINUOUS
  5
A6
 10
-53.533363
 20
6219.918
 30
0.0
 11
-53.08233
 21
6220.369033
 31
0.0
  0
LINE
  8
LC-007-005-----0
  6
CONTINUOUS
  5
A7
 10
-54.613615
 20
6221.666175
 30
0.0
 11
-53.491394
 21
6222.788396
 31
0.0
  0
LINE
  8
LC-007-005-----0
  6
CONTINUOUS
  5
A8
 10
-56.690217
 20
6222.418
 30
0.0
 11
-55.217047
 21
6223.89117
 31
0.0
  0
LINE
  8
LC-007-005-----0
  6
CONTINUOUS
  5
A9
 10
-62.58233
 20
6219.354314
 30
0.0
 11
-61.08233
 21
6220.854314
 31
0.0
  0
LINE
  8
LC-007-005-----0
  6
CONTINUOUS
  5
AA
 10
-59.518644
 20
6222.418
 30
0.0
 11
-58.018644
 21
6223.918
 31
0.0
  0
LINE
  8
LC-007-005-----0
  6
CONTINUOUS
  5
AB
 10
-62.393203
 20
6222.371868
 30
0.0
 11
-61.036198
 21
6223.728873
 31
0.0
  0
ENDBLK
  8
0
  5
AC
  0
BLOCK
  8
0
  5
AE
  2
BLK5
 70
    64
 10
0.0
 20
0.0
 30
0.0
  3
BLK5
  0
ENDBLK
  8
0
  5
AF
  0
BLOCK
  8
0
  5
B1
  2
BLK6
 70
    64
 10
0.0
 20
0.0
 30
0.0
  3
BLK6
  0
ENDBLK
  8
0
  5
B2
  0
BLOCK
  8
0
  5
B4
  2
BLK7
 70
    64
 10
0.0
 20
0.0
 30
0.0
  3
BLK7
  0
ENDBLK
  8
0
  5
B5
  0
BLOCK
  8
0
  5
B7
  2
BLK8
 70
    64
 10
0.0
 20
0.0
 30
0.0
  3
BLK8
  0
ENDBLK
  8
0
  5
B8
  0
BLOCK
  8
0
  5
BA
  2
BLK9
 70
    64
 10
0.0
 20
0.0
 30
0.0
  3
BLK9
  0
ENDBLK
  8
0
  5
BB
  0
BLOCK
  8
0
  5
BD
  2
BLK10
 70
    64
 10
0.0
 20
0.0
 30
0.0
  3
BLK10
  0
ENDBLK
  8
0
  5
BE
  0
BLOCK
  8
0
  5
C0
  2
BLK11
 70
    64
 10
0.0
 20
0.0
 30
0.0
  3
BLK11
  0
ENDBLK
  8
0
  5
C1
  0
BLOCK
  8
0
  5
C3
  2
*X15
 70
    65
 10
-72.10433
 20
6018.417995
 30
0.0
  3
*X15
  0
LINE
  8
LC-007-005-----0
  6
CONTINUOUS
  5
C4
 10
-72.10433
 20
6023.115
 30
0.0
 11
-69.10433
 21
6020.115
 31
0.0
  0
LINE
  8
LC-007-005-----0
  6
CONTINUOUS
  5
C5
 10
-72.10433
 20
6025.943427
 30
0.0
 11
-69.10433
 21
6022.943427
 31
0.0
  0
LINE
  8
LC-007-005-----0
  6
CONTINUOUS
  5
C6
 10
-72.10433
 20
6028.771855
 30
0.0
 11
-69.10433
 21
6025.771855
 31
0.0
  0
LINE
  8
LC-007-005-----0
  6
CONTINUOUS
  5
C7
 10
-72.10433
 20
6031.600282
 30
0.0
 11
-69.10433
 21
6028.600282
 31
0.0
  0
LINE
  8
LC-007-005-----0
  6
CONTINUOUS
  5
C8
 10
-72.10433
 20
6034.428709
 30
0.0
 11
-69.10433
 21
6031.428709
 31
0.0
  0
LINE
  8
LC-007-005-----0
  6
CONTINUOUS
  5
C9
 10
-71.764347
 20
6036.917153
 30
0.0
 11
-69.10433
 21
6034.257136
 31
0.0
  0
ENDBLK
  8
0
  5
CA
  0
BLOCK
  8
0
  5
CC
  2
*X16
 70
    65
 10
81.89567
 20
6018.417995
 30
0.0
  3
*X16
  0
LINE
  8
LC-007-005-----0
  6
CONTINUOUS
  5
CD
 10
81.89567
 20
6019.021638
 30
0.0
 11
82.154374
 21
6018.762934
 31
0.0
  0
LINE
  8
LC-007-005-----0
  6
CONTINUOUS
  5
CE
 10
81.89567
 20
6021.850065
 30
0.0
 11
83.366556
 21
6020.379179
 31
0.0
  0
LINE
  8
LC-007-005-----0
  6
CONTINUOUS
  5
CF
 10
81.89567
 20
6024.678492
 30
0.0
 11
84.578738
 21
6021.995424
 31
0.0
  0
LINE
  8
LC-007-005-----0
  6
CONTINUOUS
  5
D0
 10
81.89567
 20
6027.506919
 30
0.0
 11
84.89567
 21
6024.506919
 31
0.0
  0
LINE
  8
LC-007-005-----0
  6
CONTINUOUS
  5
D1
 10
81.89567
 20
6030.335346
 30
0.0
 11
84.89567
 21
6027.335346
 31
0.0
  0
LINE
  8
LC-007-005-----0
  6
CONTINUOUS
  5
D2
 10
81.89567
 20
6033.163774
 30
0.0
 11
84.89567
 21
6030.163774
 31
0.0
  0
LINE
  8
LC-007-005-----0
  6
CONTINUOUS
  5
D3
 10
81.89567
 20
6035.992201
 30
0.0
 11
84.89567
 21
6032.992201
 31
0.0
  0
LINE
  8
LC-007-005-----0
  6
CONTINUOUS
  5
D4
 10
83.799145
 20
6036.917153
 30
0.0
 11
84.89567
 21
6035.820628
 31
0.0
  0
ENDBLK
  8
0
  5
D5
  0
BLOCK
  8
0
  5
D7
  2
BLK12
 70
    64
 10
0.0
 20
0.0
 30
0.0
  3
BLK12
  0
ENDBLK
  8
0
  5
D8
  0
BLOCK
  8
0
  5
DA
  2
BLK13
 70
    64
 10
0.0
 20
0.0
 30
0.0
  3
BLK13
  0
ENDBLK
  8
0
  5
DB
  0
BLOCK
  8
0
  5
DD
  2
BLK14
 70
    64
 10
0.0
 20
0.0
 30
0.0
  3
BLK14
  0
ENDBLK
  8
0
  5
DE
  0
BLOCK
  8
0
  5
E0
  2
*D20
 70
    65
 10
0.0
 20
0.0
 30
0.0
  3
*D20
  0
LINE
  8
LC-002-003-MTH-0
  6
CONTINUOUS
  5
E1
 10
75.89567
 20
6021.418
 30
0.0
 11
128.8
 21
6021.418
 31
0.0
  0
LINE
  8
LC-002-003-MTH-0
  6
CONTINUOUS
  5
E2
 10
78.89567
 20
6047.418
 30
0.0
 11
128.8
 21
6047.418
 31
0.0
  0
LINE
  8
LC-001-003-----0
  6
CONTINUOUS
  5
E3
 10
115.654733
 20
5993.657544
 30
0.0
 11
112.0
 21
6021.418
 31
0.0
  0
LINE
  8
LC-001-003-----0
  6
CONTINUOUS
  5
E4
 10
112.0
 20
6021.418
 30
0.0
 11
108.345267
 21
5993.657544
 31
0.0
  0
LINE
  8
LC-001-003-----0
  6
CONTINUOUS
  5
E5
 10
108.345267
 20
5993.657544
 30
0.0
 11
115.654733
 21
5993.657544
 31
0.0
  0
LINE
  8
LC-001-003-----0
  6
CONTINUOUS
  5
E6
 10
114.704503
 20
5993.595262
 30
0.0
 11
112.0
 21
6014.138
 31
0.0
  0
LINE
  8
LC-001-003-----0
  6
CONTINUOUS
  5
E7
 10
112.0
 20
6014.138
 30
0.0
 11
109.295497
 21
5993.595262
 31
0.0
  0
LINE
  8
LC-001-003-----0
  6
CONTINUOUS
  5
E8
 10
113.754272
 20
5993.532981
 30
0.0
 11
112.0
 21
6006.858
 31
0.0
  0
LINE
  8
LC-001-003-----0
  6
CONTINUOUS
  5
E9
 10
112.0
 20
6006.858
 30
0.0
 11
110.245728
 21
5993.532981
 31
0.0
  0
LINE
  8
LC-001-003-----0
  6
CONTINUOUS
  5
EA
 10
112.804041
 20
5993.4707
 30
0.0
 11
112.0
 21
5999.578
 31
0.0
  0
LINE
  8
LC-001-003-----0
  6
CONTINUOUS
  5
EB
 10
112.0
 20
5999.578
 30
0.0
 11
111.195959
 21
5993.4707
 31
0.0
  0
LINE
  8
LC-001-003-----0
  6
CONTINUOUS
  5
EC
 10
108.345267
 20
6075.178456
 30
0.0
 11
112.0
 21
6047.418
 31
0.0
  0
LINE
  8
LC-001-003-----0
  6
CONTINUOUS
  5
ED
 10
112.0
 20
6047.418
 30
0.0
 11
115.654733
 21
6075.178456
 31
0.0
  0
LINE
  8
LC-001-003-----0
  6
CONTINUOUS
  5
EE
 10
115.654733
 20
6075.178456
 30
0.0
 11
108.345267
 21
6075.178456
 31
0.0
  0
LINE
  8
LC-001-003-----0
  6
CONTINUOUS
  5
EF
 10
109.295497
 20
6075.240738
 30
0.0
 11
112.0
 21
6054.698
 31
0.0
  0
LINE
  8
LC-001-003-----0
  6
CONTINUOUS
  5
F0
 10
112.0
 20
6054.698
 30
0.0
 11
114.704503
 21
6075.240738
 31
0.0
  0
LINE
  8
LC-001-003-----0
  6
CONTINUOUS
  5
F1
 10
110.245728
 20
6075.303019
 30
0.0
 11
112.0
 21
6061.978
 31
0.0
  0
LINE
  8
LC-001-003-----0
  6
CONTINUOUS
  5
F2
 10
112.0
 20
6061.978
 30
0.0
 11
113.754272
 21
6075.303019
 31
0.0
  0
LINE
  8
LC-001-003-----0
  6
CONTINUOUS
  5
F3
 10
111.195959
 20
6075.3653
 30
0.0
 11
112.0
 21
6069.258
 31
0.0
  0
LINE
  8
LC-001-003-----0
  6
CONTINUOUS
  5
F4
 10
112.0
 20
6069.258
 30
0.0
 11
112.804041
 21
6075.3653
 31
0.0
  0
LINE
  8
LC-003-003-MTG-0
  6
CONTINUOUS
  5
F5
 10
112.0
 20
5982.218
 30
0.0
 11
112.0
 21
6130.7824
 31
0.0
  0
TEXT
  8
LC-001-003-----0
  6
CONTINUOUS
 62
     8
  5
F6
 10
109.772446
 20
6089.84616
 30
0.0
 40
28.0
  1
23
 50
90.0
 41
0.9
 51
15.0
  7
LC-TXTSTYLE-150-400-0-0-A0
  0
ENDBLK
  8
0
  5
F7
  0
BLOCK
  8
0
  5
F9
  2
*D21
 70
    65
 10
0.0
 20
0.0
 30
0.0
  3
*D21
  0
LINE
  8
LC-002-003-MTH-0
  6
CONTINUOUS
  5
FA
 10
90.82567
 20
6047.418
 30
0.0
 11
173.6
 21
6047.418
 31
0.0
  0
LINE
  8
LC-002-003-MTH-0
  6
CONTINUOUS
  5
FB
 10
89.800878
 20
6223.918
 30
0.0
 11
173.6
 21
6223.918
 31
0.0
  0
LINE
  8
LC-003-003-MTG-0
  6
CONTINUOUS
  5
FC
 10
156.8
 20
6047.418
 30
0.0
 11
156.8
 21
6223.918
 31
0.0
  0
LINE
  8
LC-001-003-----0
  6
CONTINUOUS
  5
FD
 10
153.145267
 20
6075.178456
 30
0.0
 11
156.8
 21
6047.418
 31
0.0
  0
LINE
  8
LC-001-003-----0
  6
CONTINUOUS
  5
FE
 10
156.8
 20
6047.418
 30
0.0
 11
160.454733
 21
6075.178456
 31
0.0
  0
LINE
  8
LC-001-003-----0
  6
CONTINUOUS
  5
FF
 10
160.454733
 20
6075.178456
 30
0.0
 11
153.145267
 21
6075.178456
 31
0.0
  0
LINE
  8
LC-001-003-----0
  6
CONTINUOUS
  5
100
 10
154.095497
 20
6075.240738
 30
0.0
 11
156.8
 21
6054.698
 31
0.0
  0
LINE
  8
LC-001-003-----0
  6
CONTINUOUS
  5
101
 10
156.8
 20
6054.698
 30
0.0
 11
159.504503
 21
6075.240738
 31
0.0
  0
LINE
  8
LC-001-003-----0
  6
CONTINUOUS
  5
102
 10
155.045728
 20
6075.303019
 30
0.0
 11
156.8
 21
6061.978
 31
0.0
  0
LINE
  8
LC-001-003-----0
  6
CONTINUOUS
  5
103
 10
156.8
 20
6061.978
 30
0.0
 11
158.554272
 21
6075.303019
 31
0.0
  0
LINE
  8
LC-001-003-----0
  6
CONTINUOUS
  5
104
 10
155.995959
 20
6075.3653
 30
0.0
 11
156.8
 21
6069.258
 31
0.0
  0
LINE
  8
LC-001-003-----0
  6
CONTINUOUS
  5
105
 10
156.8
 20
6069.258
 30
0.0
 11
157.604041
 21
6075.3653
 31
0.0
  0
LINE
  8
LC-001-003-----0
  6
CONTINUOUS
  5
106
 10
160.454733
 20
6196.157544
 30
0.0
 11
156.8
 21
6223.918
 31
0.0
  0
LINE
  8
LC-001-003-----0
  6
CONTINUOUS
  5
107
 10
156.8
 20
6223.918
 30
0.0
 11
153.145267
 21
6196.157544
 31
0.0
  0
LINE
  8
LC-001-003-----0
  6
CONTINUOUS
  5
108
 10
153.145267
 20
6196.157544
 30
0.0
 11
160.454733
 21
6196.157544
 31
0.0
  0
LINE
  8
LC-001-003-----0
  6
CONTINUOUS
  5
109
 10
159.504503
 20
6196.095262
 30
0.0
 11
156.8
 21
6216.638
 31
0.0
  0
LINE
  8
LC-001-003-----0
  6
CONTINUOUS
  5
10A
 10
156.8
 20
6216.638
 30
0.0
 11
154.095497
 21
6196.095262
 31
0.0
  0
LINE
  8
LC-001-003-----0
  6
CONTINUOUS
  5
10B
 10
158.554272
 20
6196.032981
 30
0.0
 11
156.8
 21
6209.358
 31
0.0
  0
LINE
  8
LC-001-003-----0
  6
CONTINUOUS
  5
10C
 10
156.8
 20
6209.358
 30
0.0
 11
155.045728
 21
6196.032981
 31
0.0
  0
LINE
  8
LC-001-003-----0
  6
CONTINUOUS
  5
10D
 10
157.604041
 20
6195.9707
 30
0.0
 11
156.8
 21
6202.078
 31
0.0
  0
LINE
  8
LC-001-003-----0
  6
CONTINUOUS
  5
10E
 10
156.8
 20
6202.078
 30
0.0
 11
155.995959
 21
6195.9707
 31
0.0
  0
TEXT
  8
LC-001-003-----0
  6
CONTINUOUS
 62
     8
  5
10F
 10
148.972446
 20
6089.84616
 30
0.0
 40
28.0
  1
30-180
 50
90.0
 41
0.9
 51
15.0
  7
LC-TXTSTYLE-150-400-0-0-A0
  0
ENDBLK
  8
0
  5
110
  0
BLOCK
  8
0
  5
112
  2
*X22
 70
    65
 10
-63.10433
 20
6021.418
 30
0.0
  3
*X22
  0
LINE
  8
LC-007-005-----0
  6
CONTINUOUS
  5
113
 10
2.525079
 20
6021.418
 30
0.0
 11
6.39567
 21
6025.288592
 31
0.0
  0
LINE
  8
LC-007-005-----0
  6
CONTINUOUS
  5
114
 10
-3.131776
 20
6021.418
 30
0.0
 11
6.39567
 21
6030.945446
 31
0.0
  0
LINE
  8
LC-007-005-----0
  6
CONTINUOUS
  5
115
 10
-8.78863
 20
6021.418
 30
0.0
 11
6.39567
 21
6036.6023
 31
0.0
  0
LINE
  8
LC-007-005-----0
  6
CONTINUOUS
  5
116
 10
-14.445484
 20
6021.418
 30
0.0
 11
6.39567
 21
6042.259154
 31
0.0
  0
LINE
  8
LC-007-005-----0
  6
CONTINUOUS
  5
117
 10
-20.102338
 20
6021.418
 30
0.0
 11
5.897662
 21
6047.418
 31
0.0
  0
LINE
  8
LC-007-005-----0
  6
CONTINUOUS
  5
118
 10
-25.759193
 20
6021.418
 30
0.0
 11
0.240807
 21
6047.418
 31
0.0
  0
LINE
  8
LC-007-005-----0
  6
CONTINUOUS
  5
119
 10
-31.416047
 20
6021.418
 30
0.0
 11
-5.416047
 21
6047.418
 31
0.0
  0
LINE
  8
LC-007-005-----0
  6
CONTINUOUS
  5
11A
 10
-37.072901
 20
6021.418
 30
0.0
 11
-11.072901
 21
6047.418
 31
0.0
  0
LINE
  8
LC-007-005-----0
  6
CONTINUOUS
  5
11B
 10
-42.729755
 20
6021.418
 30
0.0
 11
-16.729755
 21
6047.418
 31
0.0
  0
LINE
  8
LC-007-005-----0
  6
CONTINUOUS
  5
11C
 10
-48.38661
 20
6021.418
 30
0.0
 11
-22.38661
 21
6047.418
 31
0.0
  0
LINE
  8
LC-007-005-----0
  6
CONTINUOUS
  5
11D
 10
-54.043464
 20
6021.418
 30
0.0
 11
-28.043464
 21
6047.418
 31
0.0
  0
LINE
  8
LC-007-005-----0
  6
CONTINUOUS
  5
11E
 10
-59.700318
 20
6021.418
 30
0.0
 11
-33.700318
 21
6047.418
 31
0.0
  0
LINE
  8
LC-007-005-----0
  6
CONTINUOUS
  5
11F
 10
-63.10433
 20
6023.670843
 30
0.0
 11
-39.357172
 21
6047.418
 31
0.0
  0
LINE
  8
LC-007-005-----0
  6
CONTINUOUS
  5
120
 10
-63.10433
 20
6029.327697
 30
0.0
 11
-45.014027
 21
6047.418
 31
0.0
  0
LINE
  8
LC-007-005-----0
  6
CONTINUOUS
  5
121
 10
-63.10433
 20
6034.984551
 30
0.0
 11
-50.670881
 21
6047.418
 31
0.0
  0
LINE
  8
LC-007-005-----0
  6
CONTINUOUS
  5
122
 10
-63.10433
 20
6040.641405
 30
0.0
 11
-56.327735
 21
6047.418
 31
0.0
  0
LINE
  8
LC-007-005-----0
  6
CONTINUOUS
  5
123
 10
-63.10433
 20
6046.29826
 30
0.0
 11
-61.984589
 21
6047.418
 31
0.0
  0
LINE
  8
LC-007-005-----0
  6
CONTINUOUS
  5
124
 10
6.39567
 20
6046.438377
 30
0.0
 11
5.416047
 21
6047.418
 31
0.0
  0
LINE
  8
LC-007-005-----0
  6
CONTINUOUS
  5
125
 10
6.39567
 20
6040.781523
 30
0.0
 11
-0.240807
 21
6047.418
 31
0.0
  0
LINE
  8
LC-007-005-----0
  6
CONTINUOUS
  5
126
 10
6.39567
 20
6035.124668
 30
0.0
 11
-5.897662
 21
6047.418
 31
0.0
  0
LINE
  8
LC-007-005-----0
  6
CONTINUOUS
  5
127
 10
6.39567
 20
6029.467814
 30
0.0
 11
-11.554516
 21
6047.418
 31
0.0
  0
LINE
  8
LC-007-005-----0
  6
CONTINUOUS
  5
128
 10
6.39567
 20
6023.81096
 30
0.0
 11
-17.21137
 21
6047.418
 31
0.0
  0
LINE
  8
LC-007-005-----0
  6
CONTINUOUS
  5
129
 10
3.131776
 20
6021.418
 30
0.0
 11
-22.868224
 21
6047.418
 31
0.0
  0
LINE
  8
LC-007-005-----0
  6
CONTINUOUS
  5
12A
 10
-2.525079
 20
6021.418
 30
0.0
 11
-28.525079
 21
6047.418
 31
0.0
  0
LINE
  8
LC-007-005-----0
  6
CONTINUOUS
  5
12B
 10
-8.181933
 20
6021.418
 30
0.0
 11
-34.181933
 21
6047.418
 31
0.0
  0
LINE
  8
LC-007-005-----0
  6
CONTINUOUS
  5
12C
 10
-13.838787
 20
6021.418
 30
0.0
 11
-39.838787
 21
6047.418
 31
0.0
  0
LINE
  8
LC-007-005-----0
  6
CONTINUOUS
  5
12D
 10
-19.495641
 20
6021.418
 30
0.0
 11
-45.495641
 21
6047.418
 31
0.0
  0
LINE
  8
LC-007-005-----0
  6
CONTINUOUS
  5
12E
 10
-25.152496
 20
6021.418
 30
0.0
 11
-51.152496
 21
6047.418
 31
0.0
  0
LINE
  8
LC-007-005-----0
  6
CONTINUOUS
  5
12F
 10
-30.80935
 20
6021.418
 30
0.0
 11
-56.80935
 21
6047.418
 31
0.0
  0
LINE
  8
LC-007-005-----0
  6
CONTINUOUS
  5
130
 10
-36.466204
 20
6021.418
 30
0.0
 11
-62.466204
 21
6047.418
 31
0.0
  0
LINE
  8
LC-007-005-----0
  6
CONTINUOUS
  5
131
 10
-42.123058
 20
6021.418
 30
0.0
 11
-63.10433
 21
6042.399272
 31
0.0
  0
LINE
  8
LC-007-005-----0
  6
CONTINUOUS
  5
132
 10
-47.779913
 20
6021.418
 30
0.0
 11
-63.10433
 21
6036.742417
 31
0.0
  0
LINE
  8
LC-007-005-----0
  6
CONTINUOUS
  5
133
 10
-53.436767
 20
6021.418
 30
0.0
 11
-63.10433
 21
6031.085563
 31
0.0
  0
LINE
  8
LC-007-005-----0
  6
CONTINUOUS
  5
134
 10
-59.093621
 20
6021.418
 30
0.0
 11
-63.10433
 21
6025.428709
 31
0.0
  0
ENDBLK
  8
0
  5
135
  0
BLOCK
  8
0
  5
137
  2
*X23
 70
    65
 10
6.39567
 20
6021.418
 30
0.0
  3
*X23
  0
LINE
  8
LC-007-005-----0
  6
CONTINUOUS
  5
138
 10
70.40733
 20
6021.418
 30
0.0
 11
75.89567
 21
6026.906341
 31
0.0
  0
LINE
  8
LC-007-005-----0
  6
CONTINUOUS
  5
139
 10
64.750475
 20
6021.418
 30
0.0
 11
75.89567
 21
6032.563195
 31
0.0
  0
LINE
  8
LC-007-005-----0
  6
CONTINUOUS
  5
13A
 10
59.093621
 20
6021.418
 30
0.0
 11
75.89567
 21
6038.220049
 31
0.0
  0
LINE
  8
LC-007-005-----0
  6
CONTINUOUS
  5
13B
 10
53.436767
 20
6021.418
 30
0.0
 11
75.89567
 21
6043.876903
 31
0.0
  0
LINE
  8
LC-007-005-----0
  6
CONTINUOUS
  5
13C
 10
47.779913
 20
6021.418
 30
0.0
 11
73.779913
 21
6047.418
 31
0.0
  0
LINE
  8
LC-007-005-----0
  6
CONTINUOUS
  5
13D
 10
42.123058
 20
6021.418
 30
0.0
 11
68.123058
 21
6047.418
 31
0.0
  0
LINE
  8
LC-007-005-----0
  6
CONTINUOUS
  5
13E
 10
36.466204
 20
6021.418
 30
0.0
 11
62.466204
 21
6047.418
 31
0.0
  0
LINE
  8
LC-007-005-----0
  6
CONTINUOUS
  5
13F
 10
30.80935
 20
6021.418
 30
0.0
 11
56.80935
 21
6047.418
 31
0.0
  0
LINE
  8
LC-007-005-----0
  6
CONTINUOUS
  5
140
 10
25.152496
 20
6021.418
 30
0.0
 11
51.152496
 21
6047.418
 31
0.0
  0
LINE
  8
LC-007-005-----0
  6
CONTINUOUS
  5
141
 10
19.495641
 20
6021.418
 30
0.0
 11
45.495641
 21
6047.418
 31
0.0
  0
LINE
  8
LC-007-005-----0
  6
CONTINUOUS
  5
142
 10
13.838787
 20
6021.418
 30
0.0
 11
39.838787
 21
6047.418
 31
0.0
  0
LINE
  8
LC-007-005-----0
  6
CONTINUOUS
  5
143
 10
8.181933
 20
6021.418
 30
0.0
 11
34.181933
 21
6047.418
 31
0.0
  0
LINE
  8
LC-007-005-----0
  6
CONTINUOUS
  5
144
 10
6.39567
 20
6025.288592
 30
0.0
 11
28.525079
 21
6047.418
 31
0.0
  0
LINE
  8
LC-007-005-----0
  6
CONTINUOUS
  5
145
 10
6.39567
 20
6030.945446
 30
0.0
 11
22.868224
 21
6047.418
 31
0.0
  0
LINE
  8
LC-007-005-----0
  6
CONTINUOUS
  5
146
 10
6.39567
 20
6036.6023
 30
0.0
 11
17.21137
 21
6047.418
 31
0.0
  0
LINE
  8
LC-007-005-----0
  6
CONTINUOUS
  5
147
 10
6.39567
 20
6042.259154
 30
0.0
 11
11.554516
 21
6047.418
 31
0.0
  0
LINE
  8
LC-007-005-----0
  6
CONTINUOUS
  5
148
 10
75.89567
 20
6044.820628
 30
0.0
 11
73.298298
 21
6047.418
 31
0.0
  0
LINE
  8
LC-007-005-----0
  6
CONTINUOUS
  5
149
 10
75.89567
 20
6039.163774
 30
0.0
 11
67.641444
 21
6047.418
 31
0.0
  0
LINE
  8
LC-007-005-----0
  6
CONTINUOUS
  5
14A
 10
75.89567
 20
6033.506919
 30
0.0
 11
61.984589
 21
6047.418
 31
0.0
  0
LINE
  8
LC-007-005-----0
  6
CONTINUOUS
  5
14B
 10
75.89567
 20
6027.850065
 30
0.0
 11
56.327735
 21
6047.418
 31
0.0
  0
LINE
  8
LC-007-005-----0
  6
CONTINUOUS
  5
14C
 10
75.89567
 20
6022.193211
 30
0.0
 11
50.670881
 21
6047.418
 31
0.0
  0
LINE
  8
LC-007-005-----0
  6
CONTINUOUS
  5
14D
 10
71.014027
 20
6021.418
 30
0.0
 11
45.014027
 21
6047.418
 31
0.0
  0
LINE
  8
LC-007-005-----0
  6
CONTINUOUS
  5
14E
 10
65.357172
 20
6021.418
 30
0.0
 11
39.357172
 21
6047.418
 31
0.0
  0
LINE
  8
LC-007-005-----0
  6
CONTINUOUS
  5
14F
 10
59.700318
 20
6021.418
 30
0.0
 11
33.700318
 21
6047.418
 31
0.0
  0
LINE
  8
LC-007-005-----0
  6
CONTINUOUS
  5
150
 10
54.043464
 20
6021.418
 30
0.0
 11
28.043464
 21
6047.418
 31
0.0
  0
LINE
  8
LC-007-005-----0
  6
CONTINUOUS
  5
151
 10
48.38661
 20
6021.418
 30
0.0
 11
22.38661
 21
6047.418
 31
0.0
  0
LINE
  8
LC-007-005-----0
  6
CONTINUOUS
  5
152
 10
42.729755
 20
6021.418
 30
0.0
 11
16.729755
 21
6047.418
 31
0.0
  0
LINE
  8
LC-007-005-----0
  6
CONTINUOUS
  5
153
 10
37.072901
 20
6021.418
 30
0.0
 11
11.072901
 21
6047.418
 31
0.0
  0
LINE
  8
LC-007-005-----0
  6
CONTINUOUS
  5
154
 10
31.416047
 20
6021.418
 30
0.0
 11
6.39567
 21
6046.438377
 31
0.0
  0
LINE
  8
LC-007-005-----0
  6
CONTINUOUS
  5
155
 10
25.759193
 20
6021.418
 30
0.0
 11
6.39567
 21
6040.781523
 31
0.0
  0
LINE
  8
LC-007-005-----0
  6
CONTINUOUS
  5
156
 10
20.102338
 20
6021.418
 30
0.0
 11
6.39567
 21
6035.124668
 31
0.0
  0
LINE
  8
LC-007-005-----0
  6
CONTINUOUS
  5
157
 10
14.445484
 20
6021.418
 30
0.0
 11
6.39567
 21
6029.467814
 31
0.0
  0
LINE
  8
LC-007-005-----0
  6
CONTINUOUS
  5
158
 10
8.78863
 20
6021.418
 30
0.0
 11
6.39567
 21
6023.81096
 31
0.0
  0
ENDBLK
  8
0
  5
159
  0
ENDSEC
  0
SECTION
  2
ENTITIES
  0
VIEWPORT
  8
LC-000
  5
324
 67
     1
 68
     1
 10
420.0
 20
297.0
 30
0.0
 40
840.0
 41
594.0
 69
     1
1001
ACAD
1000
MVIEW
1002
{
1070
    16
1010
0.0
1020
0.0
1030
0.0
1010
0.0
1020
0.0
1030
1.0
1040
0.0
1040
594.0
1040
420.0
1040
297.0
1040
50.0
1040
0.0
1040
0.0
1070
     0
1070
   100
1070
     1
1070
     1
1070
     0
1070
     0
1070
     0
1070
     0
1040
0.0
1040
0.0
1040
0.0
1040
1.0
1040
1.0
1040
0.0
1040
0.0
1070
     0
1002
{
1002
}
1002
}
  0
VIEWPORT
  8
0
  5
325
 67
     1
 68
     1
 10
0.0
 20
0.0
 30
0.0
 40
0.0
 41
0.0
 69
     1
1001
ACAD
1000
MVIEW
1002
{
1070
    16
1010
0.0
1020
0.0
1030
0.0
1010
0.0
1020
0.0
1030
1.0
1040
0.0
1040
594.0
1040
0.0
1040
0.0
1040
50.0
1040
0.0
1040
0.0
1070
     0
1070
   100
1070
     0
1070
     1
1070
     0
1070
     0
1070
     0
1070
     0
1040
0.0
1040
0.0
1040
0.0
1040
0.5
1040
0.5
1040
0.5
1040
0.5
1070
     0
1002
{
1002
}
1002
}
  0
DIMENSION
  8
LC-001-003-----0
  6
CONTINUOUS
  5
15A
  2
*D0
 10
6.39567
 20
5958.4
 30
0.0
 11
6.39567
 21
5958.4
 31
0.0
  1
%%c<>
 13
-66.10433
 23
6027.418
 33
0.0
 14
78.89567
 24
6027.418
 34
0.0
  3
LC-DIM-L-0140-02-02
  0
DIMENSION
  8
LC-001-003-----0
  6
CONTINUOUS
  5
15B
  2
*D1
 10
6.39567
 20
6244.0
 30
0.0
 11
6.39567
 21
6244.0
 31
0.0
  1
150
 13
-69.10433
 23
6221.418
 33
0.0
 14
81.89567
 24
6219.893208
 34
0.0
  3
LC-DIM-L-0140-02-02
  0
DIMENSION
  8
LC-001-003-----0
  6
CONTINUOUS
  5
15C
  2
*D2
 10
-84.0
 20
6192.144748
 30
0.0
 11
-84.0
 21
6192.144748
 31
0.0
 13
-65.079538
 23
6223.918
 33
0.0
 14
-70.10433
 24
6208.918
 34
0.0
 50
90.0
  3
LC-DIM-L-0140-02-02
  0
INSERT
  8
LC-004-000-----0
  5
15E
  2
BLK1
 10
0.0
 20
0.0
 30
0.0
  0
INSERT
  8
LC-004-000-----0
  5
15F
  2
BLK2
 10
0.0
 20
0.0
 30
0.0
  0
INSERT
  8
LC-008-000-----0
  5
161
  2
BLK3
 10
0.0
 20
0.0
 30
0.0
  0
INSERT
  8
LC-008-000-----0
  5
162
  2
BLK4
 10
0.0
 20
0.0
 30
0.0
  0
INSERT
  8
LC-007-005-----0
  6
CONTINUOUS
  5
163
  2
*X7
 10
-62.58233
 20
6218.918
 30
0.0
  0
INSERT
  8
LC-004-000-----0
  5
164
  2
BLK5
 10
0.0
 20
0.0
 30
0.0
  0
INSERT
  8
LC-004-000-----0
  5
165
  2
BLK6
 10
0.0
 20
0.0
 30
0.0
  0
INSERT
  8
LC-004-000-----0
  5
166
  2
BLK7
 10
0.0
 20
0.0
 30
0.0
  0
INSERT
  8
LC-004-000-----0
  5
167
  2
BLK8
 10
0.0
 20
0.0
 30
0.0
  0
INSERT
  8
LC-004-000-----0
  5
168
  2
BLK9
 10
0.0
 20
0.0
 30
0.0
  0
INSERT
  8
LC-004-000-----0
  5
169
  2
BLK10
 10
0.0
 20
0.0
 30
0.0
  0
INSERT
  8
LC-004-000-----0
  5
16A
  2
BLK11
 10
0.0
 20
0.0
 30
0.0
  0
INSERT
  8
LC-007-005-----0
  6
CONTINUOUS
  5
16B
  2
*X15
 10
-72.10433
 20
6018.417995
 30
0.0
  0
INSERT
  8
LC-007-005-----0
  6
CONTINUOUS
  5
16C
  2
*X16
 10
81.89567
 20
6018.417995
 30
0.0
  0
INSERT
  8
LC-004-000-----0
  5
16D
  2
BLK12
 10
0.0
 20
0.0
 30
0.0
  0
INSERT
  8
LC-004-000-----0
  5
16E
  2
BLK13
 10
0.0
 20
0.0
 30
0.0
  0
INSERT
  8
LC-004-000-----0
  5
16F
  2
BLK14
 10
0.0
 20
0.0
 30
0.0
  0
DIMENSION
  8
LC-001-003-----0
  6
CONTINUOUS
  5
170
  2
*D20
 10
112.0
 20
6034.418
 30
0.0
 11
112.0
 21
6034.418
 31
0.0
  1
23
 13
75.89567
 23
6021.418
 33
0.0
 14
78.89567
 24
6047.418
 34
0.0
 50
90.0
  3
LC-DIM-L-0140-02-02
  0
DIMENSION
  8
LC-001-003-----0
  6
CONTINUOUS
  5
171
  2
*D21
 10
156.8
 20
6119.082748
 30
0.0
 11
156.8
 21
6119.082748
 31
0.0
  1
30-180
 13
90.82567
 23
6047.418
 33
0.0
 14
89.800878
 24
6223.918
 34
0.0
 50
90.0
  3
LC-DIM-L-0140-02-02
  0
INSERT
  8
LC-007-005-----0
  6
CONTINUOUS
  5
172
  2
*X22
 10
-63.10433
 20
6021.418
 30
0.0
  0
INSERT
  8
LC-007-005-----0
  6
CONTINUOUS
  5
173
  2
*X23
 10
6.39567
 20
6021.418
 30
0.0
  0
LINE
  8
LC-005-002-----0
  6
CONTINUOUS
  5
175
 10
-33.45104
 20
6251.365623
 30
0.0
 11
-18.45104
 21
6251.365623
 31
0.0
  0
LINE
  8
LC-005-002-----0
  6
CONTINUOUS
  5
176
 10
-18.45104
 20
6251.365623
 30
0.0
 11
-18.45104
 21
6266.365623
 31
0.0
  0
LINE
  8
LC-005-002-----0
  6
CONTINUOUS
  5
177
 10
-33.45104
 20
6266.365623
 30
0.0
 11
-18.45104
 21
6266.365623
 31
0.0
  0
LINE
  8
LC-005-002-----0
  6
CONTINUOUS
  5
178
 10
-33.45104
 20
6251.365623
 30
0.0
 11
-33.45104
 21
6266.365623
 31
0.0
  0
LINE
  8
LC-005-002-----0
  6
DASHDOT
  5
17A
 10
6.39567
 20
6223.918
 30
0.0
 11
6.39567
 21
6021.418
 31
0.0
  0
ARC
  8
LC-006-002-RND-0
  6
CONTINUOUS
  5
17C
 10
-29.845427
 20
6216.418
 30
0.0
 40
1.5
 50
90.0
 51
180.0
  0
ARC
  8
LC-006-002-RND-0
  6
CONTINUOUS
  5
17D
 10
42.636767
 20
6216.418
 30
0.0
 40
1.5
 50
0.0
 51
90.0
  0
LINE
  8
LC-007-005-----0
  6
CONTINUOUS
  5
17E
 10
76.243461
 20
6202.918
 30
0.0
 11
75.89567
 21
6203.265791
 31
0.0
  0
LINE
  8
LC-007-005-----0
  6
CONTINUOUS
  5
17F
 10
76.89567
 20
6205.094218
 30
0.0
 11
75.89567
 21
6206.094218
 31
0.0
  0
LINE
  8
LC-007-005-----0
  6
CONTINUOUS
  5
180
 10
76.89567
 20
6207.922645
 30
0.0
 11
75.89567
 21
6208.922645
 31
0.0
  0
LINE
  8
LC-007-005-----0
  6
CONTINUOUS
  5
181
 10
76.89567
 20
6210.751073
 30
0.0
 11
75.89567
 21
6211.751073
 31
0.0
  0
LINE
  8
LC-007-005-----0
  6
CONTINUOUS
  5
182
 10
76.89567
 20
6213.5795
 30
0.0
 11
75.89567
 21
6214.5795
 31
0.0
  0
LINE
  8
LC-007-005-----0
  6
CONTINUOUS
  5
183
 10
76.89567
 20
6216.407927
 30
0.0
 11
75.89567
 21
6217.407927
 31
0.0
  0
LINE
  8
LC-007-005-----0
  6
CONTINUOUS
  5
184
 10
81.89567
 20
6214.236354
 30
0.0
 11
80.89567
 21
6215.236354
 31
0.0
  0
LINE
  8
LC-007-005-----0
  6
CONTINUOUS
  5
185
 10
76.89567
 20
6219.236354
 30
0.0
 11
75.89567
 21
6220.236354
 31
0.0
  0
LINE
  8
LC-007-005-----0
  6
CONTINUOUS
  5
186
 10
81.89567
 20
6217.064781
 30
0.0
 11
80.89567
 21
6218.064781
 31
0.0
  0
LINE
  8
LC-005-002-----0
  6
CONTINUOUS
 62
     1
  5
187
 10
78.89567
 20
6197.418
 30
0.0
 11
78.89567
 21
6027.418
 31
0.0
  0
LINE
  8
LC-005-002-----0
  6
CONTINUOUS
 62
     1
  5
188
 10
75.89567
 20
6202.918
 30
0.0
 11
75.89567
 21
6021.418
 31
0.0
  0
LINE
  8
LC-005-002-----0
  6
CONTINUOUS
 62
     1
  5
189
 10
78.89567
 20
6021.418
 30
0.0
 11
6.39567
 21
6021.418
 31
0.0
  0
LINE
  8
LC-007-005-----0
  6
CONTINUOUS
  5
18A
 10
-63.452121
 20
6202.918
 30
0.0
 11
-63.10433
 21
6203.265791
 31
0.0
  0
LINE
  8
LC-007-005-----0
  6
CONTINUOUS
  5
18B
 10
-64.10433
 20
6205.094218
 30
0.0
 11
-63.10433
 21
6206.094218
 31
0.0
  0
LINE
  8
LC-007-005-----0
  6
CONTINUOUS
  5
18C
 10
-64.10433
 20
6207.922645
 30
0.0
 11
-63.10433
 21
6208.922645
 31
0.0
  0
LINE
  8
LC-007-005-----0
  6
CONTINUOUS
  5
18D
 10
-64.10433
 20
6210.751073
 30
0.0
 11
-63.10433
 21
6211.751073
 31
0.0
  0
LINE
  8
LC-007-005-----0
  6
CONTINUOUS
  5
18E
 10
-64.10433
 20
6213.5795
 30
0.0
 11
-63.10433
 21
6214.5795
 31
0.0
  0
LINE
  8
LC-007-005-----0
  6
CONTINUOUS
  5
18F
 10
-64.10433
 20
6216.407927
 30
0.0
 11
-63.10433
 21
6217.407927
 31
0.0
  0
LINE
  8
LC-007-005-----0
  6
CONTINUOUS
  5
190
 10
-69.10433
 20
6214.236354
 30
0.0
 11
-68.10433
 21
6215.236354
 31
0.0
  0
LINE
  8
LC-007-005-----0
  6
CONTINUOUS
  5
191
 10
-64.10433
 20
6219.236354
 30
0.0
 11
-63.10433
 21
6220.236354
 31
0.0
  0
LINE
  8
LC-007-005-----0
  6
CONTINUOUS
  5
192
 10
-69.10433
 20
6217.064781
 30
0.0
 11
-68.10433
 21
6218.064781
 31
0.0
  0
LINE
  8
LC-005-002-----0
  6
CONTINUOUS
 62
     1
  5
193
 10
-66.10433
 20
6197.418
 30
0.0
 11
-66.10433
 21
6027.418
 31
0.0
  0
LINE
  8
LC-005-002-----0
  6
CONTINUOUS
 62
     1
  5
194
 10
-63.10433
 20
6202.918
 30
0.0
 11
-63.10433
 21
6021.418
 31
0.0
  0
LINE
  8
LC-005-002-----0
  6
CONTINUOUS
 62
     1
  5
195
 10
-64.496635
 20
6021.418
 30
0.0
 11
6.39567
 21
6021.418
 31
0.0
  0
LINE
  8
LC-005-002-----0
  6
CONTINUOUS
 62
     1
  5
196
 10
-66.10433
 20
6027.418
 30
0.0
 11
-64.496635
 21
6021.418
 31
0.0
  0
LINE
  8
LC-007-005-----0
  6
CONTINUOUS
  5
197
 10
-64.206636
 20
6221.962475
 30
0.0
 11
-63.462202
 21
6222.706909
 31
0.0
  0
LINE
  8
LC-007-005-----0
  6
CONTINUOUS
  5
198
 10
-69.10433
 20
6219.893208
 30
0.0
 11
-68.10433
 21
6220.893208
 31
0.0
  0
LINE
  8
LC-007-005-----0
  6
CONTINUOUS
  5
199
 10
-66.079538
 20
6222.918
 30
0.0
 11
-65.12577
 21
6223.871769
 31
0.0
  0
LINE
  8
LC-005-002-----0
  6
CONTINUOUS
 62
     1
  5
19A
 10
78.89567
 20
6027.418
 30
0.0
 11
77.287975
 21
6021.418
 31
0.0
  0
LINE
  8
LC-005-002-----0
  6
CONTINUOUS
 62
     1
  5
19B
 10
-66.10433
 20
6222.918
 30
0.0
 11
-66.10433
 21
6222.918
 31
0.0
  0
LINE
  8
LC-005-002-----0
  6
CONTINUOUS
 62
     1
  5
19C
 10
-69.10433
 20
6212.418
 30
0.0
 11
-68.10433
 21
6212.418
 31
0.0
  0
LINE
  8
LC-005-002-----0
  6
CONTINUOUS
 62
     1
  5
19D
 10
-68.10433
 20
6221.418
 30
0.0
 11
-68.10433
 21
6212.418
 31
0.0
  0
LINE
  8
LC-005-002-----0
  6
CONTINUOUS
 62
     1
  5
19E
 10
-69.10433
 20
6213.918
 30
0.0
 11
-69.10433
 21
6212.418
 31
0.0
  0
LINE
  8
LC-005-002-----0
  6
CONTINUOUS
 62
     1
  5
19F
 10
-70.10433
 20
6213.918
 30
0.0
 11
-69.10433
 21
6213.918
 31
0.0
  0
LINE
  8
LC-005-002-----0
  6
CONTINUOUS
 62
     1
  5
1A0
 10
-70.10433
 20
6213.918
 30
0.0
 11
-70.10433
 21
6208.918
 31
0.0
  0
LINE
  8
LC-005-002-----0
  6
CONTINUOUS
 62
     1
  5
1A1
 10
-70.10433
 20
6208.918
 30
0.0
 11
-66.10433
 21
6208.918
 31
0.0
  0
LINE
  8
LC-007-005-----0
  6
CONTINUOUS
  5
1A2
 10
80.89567
 20
6221.170643
 30
0.0
 11
79.148313
 21
6222.918
 31
0.0
  0
LINE
  8
LC-007-005-----0
  6
CONTINUOUS
  5
1A3
 10
80.89567
 20
6217.635109
 30
0.0
 11
76.909507
 21
6221.621272
 31
0.0
  0
LINE
  8
LC-007-005-----0
  6
CONTINUOUS
  5
1A4
 10
76.997977
 20
6221.962475
 30
0.0
 11
76.253542
 21
6222.706909
 31
0.0
  0
ARC
  8
LC-006-002-RND-0
  6
CONTINUOUS
  5
1A5
 10
-65.60433
 20
6221.418
 30
0.0
 40
1.5
 50
0.0
 51
90.0
  0
LINE
  8
LC-007-005-----0
  6
CONTINUOUS
  5
1A6
 10
81.89567
 20
6219.893208
 30
0.0
 11
80.89567
 21
6220.893208
 31
0.0
  0
ARC
  8
LC-006-002-RND-0
  6
CONTINUOUS
  5
1A7
 10
-66.60433
 20
6221.418
 30
0.0
 40
1.5
 50
90.0
 51
180.0
  0
LINE
  8
LC-007-005-----0
  6
CONTINUOUS
  5
1A8
 10
78.870878
 20
6222.918
 30
0.0
 11
77.91711
 21
6223.871769
 31
0.0
  0
CIRCLE
  8
LC-005-002-----0
  6
CONTINUOUS
 62
     1
  5
1A9
 10
195.39567
 20
6063.668
 30
0.0
 40
4.5
  0
LINE
  8
LC-005-002-----0
  6
CONTINUOUS
 62
     1
  5
1AA
 10
192.89567
 20
6063.168002
 30
0.0
 11
192.89567
 21
6064.168002
 31
0.0
  0
LINE
  8
LC-005-002-----0
  6
CONTINUOUS
 62
     1
  5
1AB
 10
192.89567
 20
6064.168002
 30
0.0
 11
194.89567
 21
6064.168
 31
0.0
  0
LINE
  8
LC-005-002-----0
  6
CONTINUOUS
 62
     1
  5
1AC
 10
197.89567
 20
6064.167998
 30
0.0
 11
197.89567
 21
6063.167998
 31
0.0
  0
LINE
  8
LC-005-002-----0
  6
CONTINUOUS
 62
     1
  5
1AD
 10
197.89567
 20
6063.167998
 30
0.0
 11
195.89567
 21
6063.168
 31
0.0
  0
LINE
  8
LC-005-002-----0
  6
CONTINUOUS
 62
     1
  5
1AE
 10
194.895668
 20
6061.168
 30
0.0
 11
195.895668
 21
6061.168
 31
0.0
  0
LINE
  8
LC-005-002-----0
  6
CONTINUOUS
 62
     1
  5
1AF
 10
195.895668
 20
6061.168
 30
0.0
 11
195.89567
 21
6063.168
 31
0.0
  0
LINE
  8
LC-005-002-----0
  6
CONTINUOUS
 62
     1
  5
1B0
 10
195.895672
 20
6066.168
 30
0.0
 11
194.895672
 21
6066.168
 31
0.0
  0
LINE
  8
LC-005-002-----0
  6
CONTINUOUS
 62
     1
  5
1B1
 10
194.895672
 20
6066.168
 30
0.0
 11
194.89567
 21
6064.168
 31
0.0
  0
LINE
  8
LC-005-002-----0
  6
CONTINUOUS
 62
     1
  5
1B2
 10
194.89567
 20
6063.168
 30
0.0
 11
194.895668
 21
6061.168
 31
0.0
  0
LINE
  8
LC-005-002-----0
  6
CONTINUOUS
 62
     1
  5
1B3
 10
194.89567
 20
6063.168
 30
0.0
 11
192.89567
 21
6063.168002
 31
0.0
  0
LINE
  8
LC-005-002-----0
  6
CONTINUOUS
 62
     1
  5
1B4
 10
195.89567
 20
6064.168
 30
0.0
 11
197.89567
 21
6064.167998
 31
0.0
  0
LINE
  8
LC-005-002-----0
  6
CONTINUOUS
 62
     1
  5
1B5
 10
195.89567
 20
6064.168
 30
0.0
 11
195.895672
 21
6066.168
 31
0.0
  0
CIRCLE
  8
LC-005-002-----0
  6
CONTINUOUS
 62
     1
  5
1B6
 10
313.39567
 20
6181.668
 30
0.0
 40
4.5
  0
LINE
  8
LC-005-002-----0
  6
CONTINUOUS
 62
     1
  5
1B7
 10
313.895668
 20
6184.168
 30
0.0
 11
312.895668
 21
6184.168
 31
0.0
  0
LINE
  8
LC-005-002-----0
  6
CONTINUOUS
 62
     1
  5
1B8
 10
312.895668
 20
6184.168
 30
0.0
 11
312.89567
 21
6182.168
 31
0.0
  0
LINE
  8
LC-005-002-----0
  6
CONTINUOUS
 62
     1
  5
1B9
 10
312.895672
 20
6179.168
 30
0.0
 11
313.895672
 21
6179.168
 31
0.0
  0
LINE
  8
LC-005-002-----0
  6
CONTINUOUS
 62
     1
  5
1BA
 10
313.895672
 20
6179.168
 30
0.0
 11
313.89567
 21
6181.168
 31
0.0
  0
LINE
  8
LC-005-002-----0
  6
CONTINUOUS
 62
     1
  5
1BB
 10
315.89567
 20
6182.168002
 30
0.0
 11
315.89567
 21
6181.168002
 31
0.0
  0
LINE
  8
LC-005-002-----0
  6
CONTINUOUS
 62
     1
  5
1BC
 10
315.89567
 20
6181.168002
 30
0.0
 11
313.89567
 21
6181.168
 31
0.0
  0
LINE
  8
LC-005-002-----0
  6
CONTINUOUS
 62
     1
  5
1BD
 10
310.89567
 20
6181.167998
 30
0.0
 11
310.89567
 21
6182.167998
 31
0.0
  0
LINE
  8
LC-005-002-----0
  6
CONTINUOUS
 62
     1
  5
1BE
 10
78.89567
 20
6222.918
 30
0.0
 11
78.89567
 21
6222.918
 31
0.0
  0
LINE
  8
LC-005-002-----0
  6
CONTINUOUS
 62
     1
  5
1BF
 10
81.89567
 20
6212.418
 30
0.0
 11
80.89567
 21
6212.418
 31
0.0
  0
LINE
  8
LC-005-002-----0
  6
CONTINUOUS
 62
     1
  5
1C0
 10
80.89567
 20
6221.418
 30
0.0
 11
80.89567
 21
6212.418
 31
0.0
  0
LINE
  8
LC-005-002-----0
  6
CONTINUOUS
 62
     1
  5
1C1
 10
81.89567
 20
6213.918
 30
0.0
 11
81.89567
 21
6212.418
 31
0.0
  0
LINE
  8
LC-005-002-----0
  6
CONTINUOUS
 62
     1
  5
1C2
 10
82.89567
 20
6213.918
 30
0.0
 11
81.89567
 21
6213.918
 31
0.0
  0
LINE
  8
LC-005-002-----0
  6
CONTINUOUS
 62
     1
  5
1C3
 10
82.89567
 20
6213.918
 30
0.0
 11
82.89567
 21
6208.918
 31
0.0
  0
LINE
  8
LC-005-002-----0
  6
CONTINUOUS
 62
     1
  5
1C4
 10
82.89567
 20
6208.918
 30
0.0
 11
78.89567
 21
6208.918
 31
0.0
  0
LINE
  8
LC-007-005-----0
  6
CONTINUOUS
  5
1C5
 10
82.89567
 20
6212.099575
 30
0.0
 11
81.89567
 21
6213.099575
 31
0.0
  0
LINE
  8
LC-007-005-----0
  6
CONTINUOUS
  5
1C6
 10
80.89567
 20
6214.099575
 30
0.0
 11
76.89567
 21
6218.099575
 31
0.0
  0
ARC
  8
LC-006-002-RND-0
  6
CONTINUOUS
  5
1C7
 10
78.39567
 20
6221.418
 30
0.0
 40
1.5
 50
90.0
 51
180.0
  0
LINE
  8
LC-005-002-----0
  6
CONTINUOUS
 62
     1
  5
1C8
 10
310.89567
 20
6182.167998
 30
0.0
 11
312.89567
 21
6182.168
 31
0.0
  0
LINE
  8
LC-005-002-----0
  6
CONTINUOUS
 62
     1
  5
1C9
 10
-63.10433
 20
6202.918
 30
0.0
 11
-63.10433
 21
6202.918
 31
0.0
  0
LINE
  8
LC-005-002-----0
  6
CONTINUOUS
 62
     1
  5
1CA
 10
-66.10433
 20
6208.918
 30
0.0
 11
-66.10433
 21
6197.418
 31
0.0
  0
ARC
  8
LC-006-002-RND-0
  6
CONTINUOUS
  5
1CB
 10
79.39567
 20
6221.418
 30
0.0
 40
1.5
 50
0.0
 51
90.0
  0
LINE
  8
LC-005-002-----0
  6
CONTINUOUS
 62
     1
  5
1CC
 10
75.89567
 20
6202.918
 30
0.0
 11
75.89567
 21
6202.918
 31
0.0
  0
LINE
  8
LC-005-002-----0
  6
CONTINUOUS
 62
     1
  5
1CD
 10
313.89567
 20
6182.168
 30
0.0
 11
315.89567
 21
6182.168002
 31
0.0
  0
LINE
  8
LC-005-002-----0
  6
CONTINUOUS
 62
     1
  5
1CE
 10
-69.10433
 20
6212.418
 30
0.0
 11
-69.10433
 21
6221.418
 31
0.0
  0
LINE
  8
LC-005-002-----0
  6
CONTINUOUS
 62
     1
  5
1CF
 10
-65.60433
 20
6223.918
 30
0.0
 11
6.39567
 21
6223.918
 31
0.0
  0
LINE
  8
LC-005-002-----0
  6
CONTINUOUS
 62
     1
  5
1D0
 10
78.89567
 20
6208.860344
 30
0.0
 11
78.89567
 21
6197.418
 31
0.0
  0
LINE
  8
LC-005-002-----0
  6
CONTINUOUS
 62
     1
  5
1D1
 10
-66.60433
 20
6222.918
 30
0.0
 11
-65.60433
 21
6222.918
 31
0.0
  0
LINE
  8
LC-005-002-----0
  6
CONTINUOUS
 62
     1
  5
1D2
 10
313.89567
 20
6182.168
 30
0.0
 11
313.895668
 21
6184.168
 31
0.0
  0
LINE
  8
LC-005-002-----0
  6
CONTINUOUS
 62
     1
  5
1D3
 10
81.89567
 20
6212.418
 30
0.0
 11
81.89567
 21
6221.418
 31
0.0
  0
LINE
  8
LC-005-002-----0
  6
CONTINUOUS
 62
     1
  5
1D4
 10
312.89567
 20
6181.168
 30
0.0
 11
312.895672
 21
6179.168
 31
0.0
  0
LINE
  8
LC-005-002-----0
  6
CONTINUOUS
 62
     1
  5
1D5
 10
-68.10433
 20
6212.418
 30
0.0
 11
-68.10433
 21
6221.418
 31
0.0
  0
LINE
  8
LC-005-002-----0
  6
CONTINUOUS
 62
     1
  5
1D6
 10
-69.10433
 20
6212.418
 30
0.0
 11
-68.10433
 21
6212.418
 31
0.0
  0
LINE
  8
LC-005-002-----0
  6
CONTINUOUS
 62
     1
  5
1D7
 10
-62.10433
 20
6217.918
 30
0.0
 11
6.39567
 21
6217.918
 31
0.0
  0
LINE
  8
LC-005-002-----0
  6
CONTINUOUS
 62
     1
  5
1D8
 10
-63.10433
 20
6202.918
 30
0.0
 11
-63.10433
 21
6221.418
 31
0.0
  0
LINE
  8
LC-005-002-----0
  6
CONTINUOUS
 62
     1
  5
1D9
 10
-64.10433
 20
6202.918
 30
0.0
 11
-64.10433
 21
6221.418
 31
0.0
  0
LINE
  8
LC-005-002-----0
  6
CONTINUOUS
 62
     1
  5
1DA
 10
-64.10433
 20
6202.918
 30
0.0
 11
-63.10433
 21
6202.918
 31
0.0
  0
LINE
  8
LC-005-002-----0
  6
CONTINUOUS
 62
     1
  5
1DB
 10
-63.10433
 20
6202.918
 30
0.0
 11
6.39567
 21
6202.918
 31
0.0
  0
LINE
  8
LC-005-002-----0
  6
CONTINUOUS
 62
     1
  5
1DC
 10
312.89567
 20
6181.168
 30
0.0
 11
310.89567
 21
6181.167998
 31
0.0
  0
LINE
  8
LC-005-002-----0
  6
CONTINUOUS
 62
     1
  5
1DD
 10
-31.345427
 20
6216.418
 30
0.0
 11
-31.345427
 21
6215.918
 31
0.0
  0
ARC
  8
LC-006-002-RND-0
  6
CONTINUOUS
  5
1DE
 10
-66.60433
 20
6221.418
 30
0.0
 40
1.5
 50
90.0
 51
180.0
  0
ARC
  8
LC-006-002-RND-0
  6
CONTINUOUS
  5
1DF
 10
-65.60433
 20
6221.418
 30
0.0
 40
1.5
 50
0.0
 51
90.0
  0
ARC
  8
LC-006-002-RND-0
  6
CONTINUOUS
  5
1E0
 10
-66.60433
 20
6221.418
 30
0.0
 40
2.5
 50
90.0
 51
180.0
  0
ARC
  8
LC-006-002-RND-0
  6
CONTINUOUS
  5
1E1
 10
-65.60433
 20
6221.418
 30
0.0
 40
2.5
 50
0.0
 51
90.0
  0
LINE
  8
LC-005-002-----0
  6
CONTINUOUS
 62
     1
  5
1E2
 10
-52.558631
 20
6215.918
 30
0.0
 11
-52.558631
 21
6216.418
 31
0.0
  0
LINE
  8
LC-005-002-----0
  6
CONTINUOUS
 62
     1
  5
1E3
 10
-31.345427
 20
6215.918
 30
0.0
 11
-52.558631
 21
6215.918
 31
0.0
  0
LINE
  8
LC-005-002-----0
  6
CONTINUOUS
 62
     1
  5
1E4
 10
78.39567
 20
6223.918
 30
0.0
 11
6.39567
 21
6223.918
 31
0.0
  0
LINE
  8
LC-005-002-----0
  6
CONTINUOUS
 62
     1
  5
1E5
 10
79.39567
 20
6222.918
 30
0.0
 11
78.39567
 21
6222.918
 31
0.0
  0
LINE
  8
LC-005-002-----0
  6
CONTINUOUS
 62
     1
  5
1E6
 10
80.89567
 20
6212.418
 30
0.0
 11
80.89567
 21
6221.418
 31
0.0
  0
LINE
  8
LC-005-002-----0
  6
CONTINUOUS
 62
     1
  5
1E7
 10
81.89567
 20
6212.418
 30
0.0
 11
80.89567
 21
6212.418
 31
0.0
  0
LINE
  8
LC-005-002-----0
  6
CONTINUOUS
 62
     1
  5
1E8
 10
74.89567
 20
6217.918
 30
0.0
 11
6.39567
 21
6217.918
 31
0.0
  0
LINE
  8
LC-005-002-----0
  6
CONTINUOUS
 62
     1
  5
1E9
 10
75.89567
 20
6202.918
 30
0.0
 11
75.89567
 21
6221.418
 31
0.0
  0
LINE
  8
LC-005-002-----0
  6
CONTINUOUS
 62
     1
  5
1EA
 10
76.89567
 20
6202.918
 30
0.0
 11
76.89567
 21
6221.418
 31
0.0
  0
LINE
  8
LC-005-002-----0
  6
CONTINUOUS
 62
     1
  5
1EB
 10
76.89567
 20
6202.918
 30
0.0
 11
75.89567
 21
6202.918
 31
0.0
  0
LINE
  8
LC-005-002-----0
  6
CONTINUOUS
 62
     1
  5
1EC
 10
75.89567
 20
6202.918
 30
0.0
 11
6.39567
 21
6202.918
 31
0.0
  0
LINE
  8
LC-005-002-----0
  6
CONTINUOUS
 62
     1
  5
1ED
 10
44.136767
 20
6216.418
 30
0.0
 11
44.136767
 21
6215.918
 31
0.0
  0
LINE
  8
LC-005-002-----0
  6
CONTINUOUS
 62
     1
  5
1EE
 10
-66.60433
 20
6223.918
 30
0.0
 11
-65.60433
 21
6223.918
 31
0.0
  0
ARC
  8
LC-006-002-RND-0
  6
CONTINUOUS
  5
1EF
 10
79.39567
 20
6221.418
 30
0.0
 40
1.5
 50
0.0
 51
90.0
  0
ARC
  8
LC-006-002-RND-0
  6
CONTINUOUS
  5
1F0
 10
78.39567
 20
6221.418
 30
0.0
 40
1.5
 50
90.0
 51
180.0
  0
ARC
  8
LC-006-002-RND-0
  6
CONTINUOUS
  5
1F1
 10
-62.10433
 20
6218.918
 30
0.0
 40
1.0
 50
180.0
 51
270.0
  0
ARC
  8
LC-006-002-RND-0
  6
CONTINUOUS
  5
1F2
 10
79.39567
 20
6221.418
 30
0.0
 40
2.5
 50
0.0
 51
90.0
  0
ARC
  8
LC-006-002-RND-0
  6
CONTINUOUS
  5
1F3
 10
78.39567
 20
6221.418
 30
0.0
 40
2.5
 50
90.0
 51
180.0
  0
LINE
  8
LC-005-002-----0
  6
CONTINUOUS
 62
     1
  5
1F4
 10
65.349971
 20
6215.918
 30
0.0
 11
65.349971
 21
6216.418
 31
0.0
  0
ARC
  8
LC-006-002-RND-0
  6
CONTINUOUS
  5
1F5
 10
-54.058631
 20
6216.418
 30
0.0
 40
1.5
 50
0.0
 51
90.0
  0
LINE
  8
LC-005-002-----0
  6
CONTINUOUS
 62
     1
  5
1F6
 10
44.136767
 20
6215.918
 30
0.0
 11
65.349971
 21
6215.918
 31
0.0
  0
LINE
  8
LC-005-002-----0
  6
CONTINUOUS
 62
     1
  5
1F7
 10
79.39567
 20
6223.918
 30
0.0
 11
78.39567
 21
6223.918
 31
0.0
  0
ARC
  8
LC-006-002-RND-0
  6
CONTINUOUS
  5
1F8
 10
74.89567
 20
6218.918
 30
0.0
 40
1.0
 50
270.0
 51
0.0
  0
ARC
  8
LC-006-002-RND-0
  6
CONTINUOUS
  5
1F9
 10
66.849971
 20
6216.418
 30
0.0
 40
1.5
 50
90.0
 51
180.0
  0
LINE
  8
LC-005-002-----0
  6
CONTINUOUS
 62
     1
  5
1FA
 10
76.89567
 20
6202.918
 30
0.0
 11
76.89567
 21
6221.418
 31
0.0
  0
LINE
  8
LC-005-002-----0
  6
CONTINUOUS
 62
     1
  5
1FB
 10
76.89567
 20
6202.918
 30
0.0
 11
75.89567
 21
6202.918
 31
0.0
  0
LINE
  8
LC-005-002-----0
  6
CONTINUOUS
 62
     1
  5
1FC
 10
6.39567
 20
6202.918
 30
0.0
 11
75.89567
 21
6202.918
 31
0.0
  0
LINE
  8
LC-005-002-----0
  6
CONTINUOUS
 62
     1
  5
1FD
 10
-64.10433
 20
6202.918
 30
0.0
 11
-64.10433
 21
6221.418
 31
0.0
  0
LINE
  8
LC-005-002-----0
  6
CONTINUOUS
 62
     1
  5
1FE
 10
-64.10433
 20
6202.918
 30
0.0
 11
-63.10433
 21
6202.918
 31
0.0
  0
LINE
  8
LC-005-002-----0
  6
CONTINUOUS
 62
     1
  5
1FF
 10
6.39567
 20
6202.918
 30
0.0
 11
-63.10433
 21
6202.918
 31
0.0
  0
ARC
  8
LC-006-002-RND-0
  6
CONTINUOUS
  5
200
 10
-55.58233
 20
6221.418
 30
0.0
 40
2.5
 50
0.0
 51
90.0
  0
ARC
  8
LC-006-002-RND-0
  6
CONTINUOUS
  5
201
 10
-43.58233
 20
6221.418
 30
0.0
 40
2.5
 50
90.0
 51
180.0
  0
ARC
  8
LC-006-002-RND-0
  6
CONTINUOUS
  5
202
 10
-39.58233
 20
6221.418
 30
0.0
 40
2.5
 50
0.0
 51
90.0
  0
ARC
  8
LC-006-002-RND-0
  6
CONTINUOUS
  5
203
 10
-27.58233
 20
6221.418
 30
0.0
 40
2.5
 50
90.0
 51
180.0
  0
ARC
  8
LC-006-002-RND-0
  6
CONTINUOUS
  5
204
 10
-23.58233
 20
6221.418
 30
0.0
 40
2.5
 50
0.0
 51
90.0
  0
ARC
  8
LC-006-002-RND-0
  6
CONTINUOUS
  5
205
 10
-11.58233
 20
6221.418
 30
0.0
 40
2.5
 50
90.0
 51
180.0
  0
ARC
  8
LC-006-002-RND-0
  6
CONTINUOUS
  5
206
 10
-60.08233
 20
6221.418
 30
0.0
 40
2.5
 50
90.0
 51
180.0
  0
ARC
  8
LC-006-002-RND-0
  6
CONTINUOUS
  5
207
 10
24.37367
 20
6221.418
 30
0.0
 40
2.5
 50
0.0
 51
90.0
  0
ARC
  8
LC-006-002-RND-0
  6
CONTINUOUS
  5
208
 10
36.37367
 20
6221.418
 30
0.0
 40
2.5
 50
90.0
 51
180.0
  0
ARC
  8
LC-006-002-RND-0
  6
CONTINUOUS
  5
209
 10
40.37367
 20
6221.418
 30
0.0
 40
2.5
 50
0.0
 51
90.0
  0
ARC
  8
LC-006-002-RND-0
  6
CONTINUOUS
  5
20A
 10
52.37367
 20
6221.418
 30
0.0
 40
2.5
 50
90.0
 51
180.0
  0
ARC
  8
LC-006-002-RND-0
  6
CONTINUOUS
  5
20B
 10
56.37367
 20
6221.418
 30
0.0
 40
2.5
 50
0.0
 51
90.0
  0
ARC
  8
LC-006-002-RND-0
  6
CONTINUOUS
  5
20C
 10
68.37367
 20
6221.418
 30
0.0
 40
2.5
 50
90.0
 51
180.0
  0
ARC
  8
LC-006-002-RND-0
  6
CONTINUOUS
  5
20D
 10
72.87367
 20
6221.418
 30
0.0
 40
2.5
 50
0.0
 51
90.0
  0
LINE
  8
LC-005-002-----0
  6
CONTINUOUS
 62
     1
  5
20E
 10
-55.58233
 20
6223.918
 30
0.0
 11
-43.58233
 21
6223.918
 31
0.0
  0
LINE
  8
LC-005-002-----0
  6
CONTINUOUS
 62
     1
  5
20F
 10
-39.58233
 20
6223.918
 30
0.0
 11
-27.58233
 21
6223.918
 31
0.0
  0
LINE
  8
LC-005-002-----0
  6
CONTINUOUS
 62
     1
  5
210
 10
73.87367
 20
6218.918
 30
0.0
 11
73.87367
 21
6221.418
 31
0.0
  0
ARC
  8
LC-005-002-----0
  6
CONTINUOUS
 62
     1
  5
211
 10
72.87367
 20
6221.418
 30
0.0
 40
1.0
 50
0.0
 51
90.0
  0
LINE
  8
LC-005-002-----0
  6
CONTINUOUS
 62
     1
  5
212
 10
72.87367
 20
6222.418
 30
0.0
 11
68.37367
 21
6222.418
 31
0.0
  0
ARC
  8
LC-005-002-----0
  6
CONTINUOUS
 62
     1
  5
213
 10
68.37367
 20
6221.418
 30
0.0
 40
1.0
 50
90.0
 51
180.0
  0
LINE
  8
LC-005-002-----0
  6
CONTINUOUS
 62
     1
  5
214
 10
67.37367
 20
6221.418
 30
0.0
 11
67.37367
 21
6219.918
 31
0.0
  0
LINE
  8
LC-005-002-----0
  6
CONTINUOUS
 62
     1
  5
215
 10
-62.58233
 20
6218.918
 30
0.0
 11
-62.58233
 21
6221.418
 31
0.0
  0
LINE
  8
LC-005-002-----0
  6
CONTINUOUS
 62
     1
  5
216
 10
-60.08233
 20
6223.918
 30
0.0
 11
-55.58233
 21
6223.918
 31
0.0
  0
LINE
  8
LC-005-002-----0
  6
CONTINUOUS
 62
     1
  5
217
 10
-53.08233
 20
6221.418
 30
0.0
 11
-53.08233
 21
6219.918
 31
0.0
  0
LINE
  8
LC-005-002-----0
  6
CONTINUOUS
 62
     1
  5
218
 10
-54.58233
 20
6219.918
 30
0.0
 11
-44.58233
 21
6219.918
 31
0.0
  0
LINE
  8
LC-005-002-----0
  6
CONTINUOUS
 62
     1
  5
219
 10
-46.08233
 20
6219.918
 30
0.0
 11
-46.08233
 21
6221.418
 31
0.0
  0
LINE
  8
LC-005-002-----0
  6
CONTINUOUS
 62
     1
  5
21A
 10
-43.58233
 20
6223.918
 30
0.0
 11
-39.58233
 21
6223.918
 31
0.0
  0
LINE
  8
LC-005-002-----0
  6
CONTINUOUS
 62
     1
  5
21B
 10
-37.08233
 20
6221.418
 30
0.0
 11
-37.08233
 21
6219.918
 31
0.0
  0
LINE
  8
LC-005-002-----0
  6
CONTINUOUS
 62
     1
  5
21C
 10
-38.58233
 20
6219.918
 30
0.0
 11
-28.58233
 21
6219.918
 31
0.0
  0
LINE
  8
LC-005-002-----0
  6
CONTINUOUS
 62
     1
  5
21D
 10
-30.08233
 20
6219.918
 30
0.0
 11
-30.08233
 21
6221.418
 31
0.0
  0
LINE
  8
LC-005-002-----0
  6
CONTINUOUS
 62
     1
  5
21E
 10
-27.58233
 20
6223.918
 30
0.0
 11
-23.58233
 21
6223.918
 31
0.0
  0
LINE
  8
LC-005-002-----0
  6
CONTINUOUS
 62
     1
  5
21F
 10
-21.08233
 20
6221.418
 30
0.0
 11
-21.08233
 21
6219.918
 31
0.0
  0
LINE
  8
LC-005-002-----0
  6
CONTINUOUS
 62
     1
  5
220
 10
-22.58233
 20
6219.918
 30
0.0
 11
-12.58233
 21
6219.918
 31
0.0
  0
LINE
  8
LC-005-002-----0
  6
CONTINUOUS
 62
     1
  5
221
 10
-14.08233
 20
6219.918
 30
0.0
 11
-14.08233
 21
6221.418
 31
0.0
  0
LINE
  8
LC-005-002-----0
  6
CONTINUOUS
 62
     1
  5
222
 10
-11.58233
 20
6223.918
 30
0.0
 11
6.39567
 21
6223.918
 31
0.0
  0
LINE
  8
LC-005-002-----0
  6
CONTINUOUS
 62
     1
  5
223
 10
-61.08233
 20
6218.918
 30
0.0
 11
73.87367
 21
6218.918
 31
0.0
  0
LINE
  8
LC-005-002-----0
  6
CONTINUOUS
 62
     1
  5
224
 10
75.37367
 20
6218.918
 30
0.0
 11
75.37367
 21
6221.418
 31
0.0
  0
LINE
  8
LC-005-002-----0
  6
CONTINUOUS
 62
     1
  5
225
 10
72.87367
 20
6223.918
 30
0.0
 11
68.37367
 21
6223.918
 31
0.0
  0
LINE
  8
LC-005-002-----0
  6
CONTINUOUS
 62
     1
  5
226
 10
65.87367
 20
6221.418
 30
0.0
 11
65.87367
 21
6219.918
 31
0.0
  0
LINE
  8
LC-005-002-----0
  6
CONTINUOUS
 62
     1
  5
227
 10
67.37367
 20
6219.918
 30
0.0
 11
57.37367
 21
6219.918
 31
0.0
  0
LINE
  8
LC-005-002-----0
  6
CONTINUOUS
 62
     1
  5
228
 10
58.87367
 20
6219.918
 30
0.0
 11
58.87367
 21
6221.418
 31
0.0
  0
LINE
  8
LC-005-002-----0
  6
CONTINUOUS
 62
     1
  5
229
 10
56.37367
 20
6223.918
 30
0.0
 11
52.37367
 21
6223.918
 31
0.0
  0
LINE
  8
LC-005-002-----0
  6
CONTINUOUS
 62
     1
  5
22A
 10
49.87367
 20
6221.418
 30
0.0
 11
49.87367
 21
6219.918
 31
0.0
  0
LINE
  8
LC-005-002-----0
  6
CONTINUOUS
 62
     1
  5
22B
 10
51.37367
 20
6219.918
 30
0.0
 11
41.37367
 21
6219.918
 31
0.0
  0
LINE
  8
LC-005-002-----0
  6
CONTINUOUS
 62
     1
  5
22C
 10
42.87367
 20
6219.918
 30
0.0
 11
42.87367
 21
6221.418
 31
0.0
  0
LINE
  8
LC-005-002-----0
  6
CONTINUOUS
 62
     1
  5
22D
 10
40.37367
 20
6223.918
 30
0.0
 11
36.37367
 21
6223.918
 31
0.0
  0
LINE
  8
LC-005-002-----0
  6
CONTINUOUS
 62
     1
  5
22E
 10
33.87367
 20
6221.418
 30
0.0
 11
33.87367
 21
6219.918
 31
0.0
  0
LINE
  8
LC-005-002-----0
  6
CONTINUOUS
 62
     1
  5
22F
 10
35.37367
 20
6219.918
 30
0.0
 11
25.37367
 21
6219.918
 31
0.0
  0
LINE
  8
LC-005-002-----0
  6
CONTINUOUS
 62
     1
  5
230
 10
26.87367
 20
6219.918
 30
0.0
 11
26.87367
 21
6221.418
 31
0.0
  0
LINE
  8
LC-005-002-----0
  6
CONTINUOUS
 62
     1
  5
231
 10
24.37367
 20
6223.918
 30
0.0
 11
6.39567
 21
6223.918
 31
0.0
  0
LINE
  8
LC-005-002-----0
  6
CONTINUOUS
 62
     1
  5
232
 10
24.37367
 20
6223.918
 30
0.0
 11
36.37367
 21
6223.918
 31
0.0
  0
LINE
  8
LC-005-002-----0
  6
CONTINUOUS
 62
     1
  5
233
 10
57.37367
 20
6219.918
 30
0.0
 11
57.37367
 21
6221.418
 31
0.0
  0
ARC
  8
LC-005-002-----0
  6
CONTINUOUS
 62
     1
  5
234
 10
56.37367
 20
6221.418
 30
0.0
 40
1.0
 50
0.0
 51
90.0
  0
LINE
  8
LC-005-002-----0
  6
CONTINUOUS
 62
     1
  5
235
 10
56.37367
 20
6222.418
 30
0.0
 11
52.37367
 21
6222.418
 31
0.0
  0
ARC
  8
LC-005-002-----0
  6
CONTINUOUS
 62
     1
  5
236
 10
52.37367
 20
6221.418
 30
0.0
 40
1.0
 50
90.0
 51
180.0
  0
LINE
  8
LC-005-002-----0
  6
CONTINUOUS
 62
     1
  5
237
 10
51.37367
 20
6221.418
 30
0.0
 11
51.37367
 21
6219.918
 31
0.0
  0
LINE
  8
LC-005-002-----0
  6
CONTINUOUS
 62
     1
  5
238
 10
40.37367
 20
6223.918
 30
0.0
 11
52.37367
 21
6223.918
 31
0.0
  0
LINE
  8
LC-005-002-----0
  6
CONTINUOUS
 62
     1
  5
239
 10
41.37367
 20
6219.918
 30
0.0
 11
41.37367
 21
6221.418
 31
0.0
  0
ARC
  8
LC-005-002-----0
  6
CONTINUOUS
 62
     1
  5
23A
 10
40.37367
 20
6221.418
 30
0.0
 40
1.0
 50
0.0
 51
90.0
  0
LINE
  8
LC-005-002-----0
  6
CONTINUOUS
 62
     1
  5
23B
 10
40.37367
 20
6222.418
 30
0.0
 11
36.37367
 21
6222.418
 31
0.0
  0
ARC
  8
LC-005-002-----0
  6
CONTINUOUS
 62
     1
  5
23C
 10
36.37367
 20
6221.418
 30
0.0
 40
1.0
 50
90.0
 51
180.0
  0
LINE
  8
LC-005-002-----0
  6
CONTINUOUS
 62
     1
  5
23D
 10
35.37367
 20
6221.418
 30
0.0
 11
35.37367
 21
6219.918
 31
0.0
  0
LINE
  8
LC-005-002-----0
  6
CONTINUOUS
 62
     1
  5
23E
 10
56.37367
 20
6223.918
 30
0.0
 11
68.37367
 21
6223.918
 31
0.0
  0
LINE
  8
LC-005-002-----0
  6
CONTINUOUS
 62
     1
  5
23F
 10
25.37367
 20
6219.918
 30
0.0
 11
25.37367
 21
6221.418
 31
0.0
  0
ARC
  8
LC-005-002-----0
  6
CONTINUOUS
 62
     1
  5
240
 10
24.37367
 20
6221.418
 30
0.0
 40
1.0
 50
0.0
 51
90.0
  0
LINE
  8
LC-005-002-----0
  6
CONTINUOUS
 62
     1
  5
241
 10
24.37367
 20
6222.418
 30
0.0
 11
6.39567
 21
6222.418
 31
0.0
  0
LINE
  8
LC-005-002-----0
  6
CONTINUOUS
 62
     1
  5
242
 10
6.39567
 20
6222.418
 30
0.0
 11
-11.58233
 21
6222.418
 31
0.0
  0
ARC
  8
LC-005-002-----0
  6
CONTINUOUS
 62
     1
  5
243
 10
-11.58233
 20
6221.418
 30
0.0
 40
1.0
 50
90.0
 51
180.0
  0
LINE
  8
LC-005-002-----0
  6
CONTINUOUS
 62
     1
  5
244
 10
-12.58233
 20
6221.418
 30
0.0
 11
-12.58233
 21
6219.918
 31
0.0
  0
LINE
  8
LC-005-002-----0
  6
CONTINUOUS
 62
     1
  5
245
 10
-62.58233
 20
6218.918
 30
0.0
 11
-61.08233
 21
6218.918
 31
0.0
  0
LINE
  8
LC-005-002-----0
  6
CONTINUOUS
 62
     1
  5
246
 10
-22.58233
 20
6219.918
 30
0.0
 11
-22.58233
 21
6221.418
 31
0.0
  0
ARC
  8
LC-005-002-----0
  6
CONTINUOUS
 62
     1
  5
247
 10
-23.58233
 20
6221.418
 30
0.0
 40
1.0
 50
0.0
 51
90.0
  0
LINE
  8
LC-005-002-----0
  6
CONTINUOUS
 62
     1
  5
248
 10
-23.58233
 20
6222.418
 30
0.0
 11
-27.58233
 21
6222.418
 31
0.0
  0
ARC
  8
LC-005-002-----0
  6
CONTINUOUS
 62
     1
  5
249
 10
-27.58233
 20
6221.418
 30
0.0
 40
1.0
 50
90.0
 51
180.0
  0
LINE
  8
LC-005-002-----0
  6
CONTINUOUS
 62
     1
  5
24A
 10
-28.58233
 20
6221.418
 30
0.0
 11
-28.58233
 21
6219.918
 31
0.0
  0
LINE
  8
LC-005-002-----0
  6
CONTINUOUS
 62
     1
  5
24B
 10
73.87367
 20
6218.918
 30
0.0
 11
75.37367
 21
6218.918
 31
0.0
  0
LINE
  8
LC-005-002-----0
  6
CONTINUOUS
 62
     1
  5
24C
 10
-38.58233
 20
6219.918
 30
0.0
 11
-38.58233
 21
6221.418
 31
0.0
  0
ARC
  8
LC-005-002-----0
  6
CONTINUOUS
 62
     1
  5
24D
 10
-39.58233
 20
6221.418
 30
0.0
 40
1.0
 50
0.0
 51
90.0
  0
LINE
  8
LC-005-002-----0
  6
CONTINUOUS
 62
     1
  5
24E
 10
-39.58233
 20
6222.418
 30
0.0
 11
-43.58233
 21
6222.418
 31
0.0
  0
ARC
  8
LC-005-002-----0
  6
CONTINUOUS
 62
     1
  5
24F
 10
-43.58233
 20
6221.418
 30
0.0
 40
1.0
 50
90.0
 51
180.0
  0
LINE
  8
LC-005-002-----0
  6
CONTINUOUS
 62
     1
  5
250
 10
-44.58233
 20
6221.418
 30
0.0
 11
-44.58233
 21
6219.918
 31
0.0
  0
LINE
  8
LC-005-002-----0
  6
CONTINUOUS
 62
     1
  5
251
 10
-54.58233
 20
6219.918
 30
0.0
 11
-54.58233
 21
6221.418
 31
0.0
  0
ARC
  8
LC-005-002-----0
  6
CONTINUOUS
 62
     1
  5
252
 10
-55.58233
 20
6221.418
 30
0.0
 40
1.0
 50
0.0
 51
90.0
  0
LINE
  8
LC-005-002-----0
  6
CONTINUOUS
 62
     1
  5
253
 10
-55.58233
 20
6222.418
 30
0.0
 11
-60.08233
 21
6222.418
 31
0.0
  0
ARC
  8
LC-005-002-----0
  6
CONTINUOUS
 62
     1
  5
254
 10
-60.08233
 20
6221.418
 30
0.0
 40
1.0
 50
90.0
 51
180.0
  0
LINE
  8
LC-005-002-----0
  6
CONTINUOUS
 62
     1
  5
255
 10
-61.08233
 20
6221.418
 30
0.0
 11
-61.08233
 21
6218.918
 31
0.0
  0
LINE
  8
LC-005-002-----0
  6
CONTINUOUS
 62
     1
  5
256
 10
-23.58233
 20
6223.918
 30
0.0
 11
-11.58233
 21
6223.918
 31
0.0
  0
LINE
  8
LC-007-005-----0
  6
CONTINUOUS
  5
257
 10
82.541711
 20
6208.918
 30
0.0
 11
76.89567
 21
6214.564041
 31
0.0
  0
LINE
  8
LC-007-005-----0
  6
CONTINUOUS
  5
258
 10
78.89567
 20
6209.028507
 30
0.0
 11
76.89567
 21
6211.028507
 31
0.0
  0
LINE
  8
LC-007-005-----0
  6
CONTINUOUS
  5
259
 10
78.89567
 20
6205.492973
 30
0.0
 11
76.89567
 21
6207.492973
 31
0.0
  0
LINE
  8
LC-007-005-----0
  6
CONTINUOUS
  5
25A
 10
78.89567
 20
6201.95744
 30
0.0
 11
76.89567
 21
6203.95744
 31
0.0
  0
LINE
  8
LC-007-005-----0
  6
CONTINUOUS
  5
25B
 10
78.89567
 20
6198.421906
 30
0.0
 11
75.89567
 21
6201.421906
 31
0.0
  0
LINE
  8
LC-007-005-----0
  6
CONTINUOUS
  5
25C
 10
78.89567
 20
6194.886372
 30
0.0
 11
75.89567
 21
6197.886372
 31
0.0
  0
LINE
  8
LC-007-005-----0
  6
CONTINUOUS
  5
25D
 10
78.89567
 20
6191.350838
 30
0.0
 11
75.89567
 21
6194.350838
 31
0.0
  0
LINE
  8
LC-007-005-----0
  6
CONTINUOUS
  5
25E
 10
78.89567
 20
6187.815304
 30
0.0
 11
75.89567
 21
6190.815304
 31
0.0
  0
LINE
  8
LC-007-005-----0
  6
CONTINUOUS
  5
25F
 10
78.89567
 20
6184.27977
 30
0.0
 11
75.89567
 21
6187.27977
 31
0.0
  0
LINE
  8
LC-007-005-----0
  6
CONTINUOUS
  5
260
 10
78.89567
 20
6180.744236
 30
0.0
 11
75.89567
 21
6183.744236
 31
0.0
  0
LINE
  8
LC-007-005-----0
  6
CONTINUOUS
  5
261
 10
78.89567
 20
6177.208702
 30
0.0
 11
75.89567
 21
6180.208702
 31
0.0
  0
LINE
  8
LC-007-005-----0
  6
CONTINUOUS
  5
262
 10
78.89567
 20
6173.673168
 30
0.0
 11
75.89567
 21
6176.673168
 31
0.0
  0
LINE
  8
LC-007-005-----0
  6
CONTINUOUS
  5
263
 10
78.89567
 20
6170.137634
 30
0.0
 11
75.89567
 21
6173.137634
 31
0.0
  0
LINE
  8
LC-007-005-----0
  6
CONTINUOUS
  5
264
 10
78.89567
 20
6166.602101
 30
0.0
 11
75.89567
 21
6169.602101
 31
0.0
  0
LINE
  8
LC-007-005-----0
  6
CONTINUOUS
  5
265
 10
78.89567
 20
6163.066567
 30
0.0
 11
75.89567
 21
6166.066567
 31
0.0
  0
LINE
  8
LC-007-005-----0
  6
CONTINUOUS
  5
266
 10
78.89567
 20
6159.531033
 30
0.0
 11
75.89567
 21
6162.531033
 31
0.0
  0
LINE
  8
LC-007-005-----0
  6
CONTINUOUS
  5
267
 10
78.89567
 20
6155.995499
 30
0.0
 11
75.89567
 21
6158.995499
 31
0.0
  0
LINE
  8
LC-007-005-----0
  6
CONTINUOUS
  5
268
 10
78.89567
 20
6152.459965
 30
0.0
 11
75.89567
 21
6155.459965
 31
0.0
  0
LINE
  8
LC-007-005-----0
  6
CONTINUOUS
  5
269
 10
78.89567
 20
6148.924431
 30
0.0
 11
75.89567
 21
6151.924431
 31
0.0
  0
LINE
  8
LC-007-005-----0
  6
CONTINUOUS
  5
26A
 10
78.89567
 20
6145.388897
 30
0.0
 11
75.89567
 21
6148.388897
 31
0.0
  0
LINE
  8
LC-007-005-----0
  6
CONTINUOUS
  5
26B
 10
78.89567
 20
6141.853363
 30
0.0
 11
75.89567
 21
6144.853363
 31
0.0
  0
LINE
  8
LC-007-005-----0
  6
CONTINUOUS
  5
26C
 10
78.89567
 20
6138.317829
 30
0.0
 11
75.89567
 21
6141.317829
 31
0.0
  0
LINE
  8
LC-007-005-----0
  6
CONTINUOUS
  5
26D
 10
78.89567
 20
6134.782295
 30
0.0
 11
75.89567
 21
6137.782295
 31
0.0
  0
LINE
  8
LC-007-005-----0
  6
CONTINUOUS
  5
26E
 10
78.89567
 20
6131.246761
 30
0.0
 11
75.89567
 21
6134.246761
 31
0.0
  0
LINE
  8
LC-007-005-----0
  6
CONTINUOUS
  5
26F
 10
78.89567
 20
6127.711228
 30
0.0
 11
75.89567
 21
6130.711228
 31
0.0
  0
LINE
  8
LC-007-005-----0
  6
CONTINUOUS
  5
270
 10
78.89567
 20
6124.175694
 30
0.0
 11
75.89567
 21
6127.175694
 31
0.0
  0
LINE
  8
LC-007-005-----0
  6
CONTINUOUS
  5
271
 10
78.89567
 20
6120.64016
 30
0.0
 11
75.89567
 21
6123.64016
 31
0.0
  0
LINE
  8
LC-007-005-----0
  6
CONTINUOUS
  5
272
 10
78.89567
 20
6117.104626
 30
0.0
 11
75.89567
 21
6120.104626
 31
0.0
  0
LINE
  8
LC-007-005-----0
  6
CONTINUOUS
  5
273
 10
78.89567
 20
6113.569092
 30
0.0
 11
75.89567
 21
6116.569092
 31
0.0
  0
LINE
  8
LC-007-005-----0
  6
CONTINUOUS
  5
274
 10
78.89567
 20
6110.033558
 30
0.0
 11
75.89567
 21
6113.033558
 31
0.0
  0
LINE
  8
LC-007-005-----0
  6
CONTINUOUS
  5
275
 10
78.89567
 20
6106.498024
 30
0.0
 11
75.89567
 21
6109.498024
 31
0.0
  0
LINE
  8
LC-007-005-----0
  6
CONTINUOUS
  5
276
 10
78.89567
 20
6102.96249
 30
0.0
 11
75.89567
 21
6105.96249
 31
0.0
  0
LINE
  8
LC-007-005-----0
  6
CONTINUOUS
  5
277
 10
78.89567
 20
6099.426956
 30
0.0
 11
75.89567
 21
6102.426956
 31
0.0
  0
LINE
  8
LC-007-005-----0
  6
CONTINUOUS
  5
278
 10
78.89567
 20
6095.891422
 30
0.0
 11
75.89567
 21
6098.891422
 31
0.0
  0
LINE
  8
LC-007-005-----0
  6
CONTINUOUS
  5
279
 10
78.89567
 20
6092.355888
 30
0.0
 11
75.89567
 21
6095.355888
 31
0.0
  0
LINE
  8
LC-007-005-----0
  6
CONTINUOUS
  5
27A
 10
78.89567
 20
6088.820355
 30
0.0
 11
75.89567
 21
6091.820355
 31
0.0
  0
LINE
  8
LC-007-005-----0
  6
CONTINUOUS
  5
27B
 10
78.89567
 20
6085.284821
 30
0.0
 11
75.89567
 21
6088.284821
 31
0.0
  0
LINE
  8
LC-007-005-----0
  6
CONTINUOUS
  5
27C
 10
78.89567
 20
6081.749287
 30
0.0
 11
75.89567
 21
6084.749287
 31
0.0
  0
LINE
  8
LC-007-005-----0
  6
CONTINUOUS
  5
27D
 10
78.89567
 20
6078.213753
 30
0.0
 11
75.89567
 21
6081.213753
 31
0.0
  0
LINE
  8
LC-007-005-----0
  6
CONTINUOUS
  5
27E
 10
78.89567
 20
6074.678219
 30
0.0
 11
75.89567
 21
6077.678219
 31
0.0
  0
LINE
  8
LC-007-005-----0
  6
CONTINUOUS
  5
27F
 10
78.89567
 20
6071.142685
 30
0.0
 11
75.89567
 21
6074.142685
 31
0.0
  0
LINE
  8
LC-007-005-----0
  6
CONTINUOUS
  5
280
 10
78.89567
 20
6067.607151
 30
0.0
 11
75.89567
 21
6070.607151
 31
0.0
  0
LINE
  8
LC-007-005-----0
  6
CONTINUOUS
  5
281
 10
78.89567
 20
6064.071617
 30
0.0
 11
75.89567
 21
6067.071617
 31
0.0
  0
LINE
  8
LC-005-002-----0
  6
CONTINUOUS
 62
     1
  5
282
 10
245.89567
 20
6143.146
 30
0.0
 11
262.89567
 21
6143.146
 31
0.0
  0
LINE
  8
LC-007-005-----0
  6
CONTINUOUS
  5
283
 10
78.89567
 20
6060.536083
 30
0.0
 11
75.89567
 21
6063.536083
 31
0.0
  0
LINE
  8
LC-007-005-----0
  6
CONTINUOUS
  5
284
 10
78.89567
 20
6057.000549
 30
0.0
 11
75.89567
 21
6060.000549
 31
0.0
  0
LINE
  8
LC-007-005-----0
  6
CONTINUOUS
  5
285
 10
78.89567
 20
6053.465016
 30
0.0
 11
75.89567
 21
6056.465016
 31
0.0
  0
LINE
  8
LC-007-005-----0
  6
CONTINUOUS
  5
286
 10
78.89567
 20
6049.929482
 30
0.0
 11
75.89567
 21
6052.929482
 31
0.0
  0
ARC
  8
LC-006-002-RND-0
  6
CONTINUOUS
  5
287
 10
189.20767
 20
6187.856
 30
0.0
 40
3.79
 50
90.0
 51
180.0
  0
ARC
  8
LC-006-002-RND-0
  6
CONTINUOUS
  5
288
 10
189.20767
 20
6057.48
 30
0.0
 40
3.79
 50
180.0
 51
270.0
  0
LINE
  8
LC-007-005-----0
  6
CONTINUOUS
  5
289
 10
78.89567
 20
6046.393948
 30
0.0
 11
75.89567
 21
6049.393948
 31
0.0
  0
LINE
  8
LC-007-005-----0
  6
CONTINUOUS
  5
28A
 10
78.89567
 20
6042.858414
 30
0.0
 11
75.89567
 21
6045.858414
 31
0.0
  0
LINE
  8
LC-007-005-----0
  6
CONTINUOUS
  5
28B
 10
78.89567
 20
6039.32288
 30
0.0
 11
75.89567
 21
6042.32288
 31
0.0
  0
ARC
  8
LC-006-002-RND-0
  6
CONTINUOUS
  5
28C
 10
319.58367
 20
6057.48
 30
0.0
 40
3.79
 50
270.0
 51
0.0
  0
LINE
  8
LC-007-005-----0
  6
CONTINUOUS
  5
28D
 10
78.89567
 20
6035.787346
 30
0.0
 11
75.89567
 21
6038.787346
 31
0.0
  0
LINE
  8
LC-007-005-----0
  6
CONTINUOUS
  5
28E
 10
78.89567
 20
6032.251812
 30
0.0
 11
75.89567
 21
6035.251812
 31
0.0
  0
LINE
  8
LC-007-005-----0
  6
CONTINUOUS
  5
28F
 10
78.89567
 20
6028.716278
 30
0.0
 11
75.89567
 21
6031.716278
 31
0.0
  0
ARC
  8
LC-006-002-RND-0
  6
CONTINUOUS
  5
290
 10
319.58367
 20
6187.856
 30
0.0
 40
3.79
 50
0.0
 51
90.0
  0
LINE
  8
LC-007-005-----0
  6
CONTINUOUS
  5
291
 10
78.422882
 20
6025.653532
 30
0.0
 11
75.89567
 21
6028.180744
 31
0.0
  0
LINE
  8
LC-007-005-----0
  6
CONTINUOUS
  5
292
 10
77.675736
 20
6022.865144
 30
0.0
 11
75.89567
 21
6024.64521
 31
0.0
  0
LINE
  8
LC-007-005-----0
  6
CONTINUOUS
  5
293
 10
-64.10433
 20
6221.213753
 30
0.0
 11
-65.808577
 21
6222.918
 31
0.0
  0
LINE
  8
LC-007-005-----0
  6
CONTINUOUS
  5
294
 10
-64.10433
 20
6217.678219
 30
0.0
 11
-68.08488
 21
6221.65877
 31
0.0
  0
LINE
  8
LC-007-005-----0
  6
CONTINUOUS
  5
295
 10
-64.10433
 20
6214.142685
 30
0.0
 11
-68.10433
 21
6218.142685
 31
0.0
  0
LINE
  8
LC-007-005-----0
  6
CONTINUOUS
  5
296
 10
-64.10433
 20
6210.607151
 30
0.0
 11
-68.10433
 21
6214.607151
 31
0.0
  0
LINE
  8
LC-007-005-----0
  6
CONTINUOUS
  5
297
 10
-64.10433
 20
6207.071617
 30
0.0
 11
-70.10433
 21
6213.071617
 31
0.0
  0
LINE
  8
LC-007-005-----0
  6
CONTINUOUS
  5
298
 10
-63.10433
 20
6202.536083
 30
0.0
 11
-63.486247
 21
6202.918
 31
0.0
  0
LINE
  8
LC-007-005-----0
  6
CONTINUOUS
  5
299
 10
-64.10433
 20
6203.536083
 30
0.0
 11
-66.10433
 21
6205.536083
 31
0.0
  0
LINE
  8
LC-005-002-----0
  6
CONTINUOUS
 62
     1
  5
29A
 10
-72.107117
 20
6022.421716
 30
0.0
 11
-72.107117
 21
6036.917153
 31
0.0
  0
LINE
  8
LC-007-005-----0
  6
CONTINUOUS
  5
29B
 10
-69.486247
 20
6208.918
 30
0.0
 11
-70.10433
 21
6209.536083
 31
0.0
  0
LINE
  8
LC-007-005-----0
  6
CONTINUOUS
  5
29C
 10
-63.10433
 20
6199.000549
 30
0.0
 11
-66.10433
 21
6202.000549
 31
0.0
  0
LINE
  8
LC-007-005-----0
  6
CONTINUOUS
  5
29D
 10
-63.10433
 20
6195.465016
 30
0.0
 11
-66.10433
 21
6198.465016
 31
0.0
  0
LINE
  8
LC-007-005-----0
  6
CONTINUOUS
  5
29E
 10
-63.10433
 20
6191.929482
 30
0.0
 11
-66.10433
 21
6194.929482
 31
0.0
  0
LINE
  8
LC-007-005-----0
  6
CONTINUOUS
  5
29F
 10
-63.10433
 20
6188.393948
 30
0.0
 11
-66.10433
 21
6191.393948
 31
0.0
  0
LINE
  8
LC-007-005-----0
  6
CONTINUOUS
  5
2A0
 10
-63.10433
 20
6184.858414
 30
0.0
 11
-66.10433
 21
6187.858414
 31
0.0
  0
LINE
  8
LC-007-005-----0
  6
CONTINUOUS
  5
2A1
 10
-63.10433
 20
6181.32288
 30
0.0
 11
-66.10433
 21
6184.32288
 31
0.0
  0
LINE
  8
LC-007-005-----0
  6
CONTINUOUS
  5
2A2
 10
-63.10433
 20
6177.787346
 30
0.0
 11
-66.10433
 21
6180.787346
 31
0.0
  0
LINE
  8
LC-007-005-----0
  6
CONTINUOUS
  5
2A3
 10
-63.10433
 20
6174.251812
 30
0.0
 11
-66.10433
 21
6177.251812
 31
0.0
  0
LINE
  8
LC-007-005-----0
  6
CONTINUOUS
  5
2A4
 10
-63.10433
 20
6170.716278
 30
0.0
 11
-66.10433
 21
6173.716278
 31
0.0
  0
ARC
  8
LC-005-002-----0
  6
CONTINUOUS
 62
     1
  5
2A5
 10
294.89567
 20
6066.69
 30
0.0
 40
3.5
 50
270.0
 51
90.0
  0
ARC
  8
LC-005-002-----0
  6
CONTINUOUS
 62
     1
  5
2A6
 10
213.89567
 20
6066.69
 30
0.0
 40
3.5
 50
90.0
 51
270.0
  0
LINE
  8
LC-005-002-----0
  6
CONTINUOUS
 62
     1
  5
2A7
 10
294.89567
 20
6063.19
 30
0.0
 11
213.89567
 21
6063.19
 31
0.0
  0
LINE
  8
LC-005-002-----0
  6
CONTINUOUS
 62
     1
  5
2A8
 10
294.89567
 20
6070.19
 30
0.0
 11
213.89567
 21
6070.19
 31
0.0
  0
ARC
  8
LC-005-002-----0
  6
CONTINUOUS
 62
     1
  5
2A9
 10
278.89567
 20
6082.69
 30
0.0
 40
3.5
 50
270.0
 51
90.0
  0
ARC
  8
LC-005-002-----0
  6
CONTINUOUS
 62
     1
  5
2AA
 10
229.89567
 20
6082.69
 30
0.0
 40
3.5
 50
90.0
 51
270.0
  0
LINE
  8
LC-005-002-----0
  6
CONTINUOUS
 62
     1
  5
2AB
 10
278.89567
 20
6079.19
 30
0.0
 11
229.89567
 21
6079.19
 31
0.0
  0
LINE
  8
LC-005-002-----0
  6
CONTINUOUS
 62
     1
  5
2AC
 10
278.89567
 20
6086.19
 30
0.0
 11
229.89567
 21
6086.19
 31
0.0
  0
ARC
  8
LC-005-002-----0
  6
CONTINUOUS
 62
     1
  5
2AD
 10
262.89567
 20
6098.69
 30
0.0
 40
3.5
 50
270.0
 51
90.0
  0
ARC
  8
LC-005-002-----0
  6
CONTINUOUS
 62
     1
  5
2AE
 10
245.89567
 20
6098.69
 30
0.0
 40
3.5
 50
90.0
 51
270.0
  0
LINE
  8
LC-007-005-----0
  6
CONTINUOUS
  5
2AF
 10
-63.10433
 20
6167.180744
 30
0.0
 11
-66.10433
 21
6170.180744
 31
0.0
  0
LINE
  8
LC-007-005-----0
  6
CONTINUOUS
  5
2B0
 10
-63.10433
 20
6163.64521
 30
0.0
 11
-66.10433
 21
6166.64521
 31
0.0
  0
LINE
  8
LC-007-005-----0
  6
CONTINUOUS
  5
2B1
 10
-63.10433
 20
6160.109676
 30
0.0
 11
-66.10433
 21
6163.109676
 31
0.0
  0
LINE
  8
LC-007-005-----0
  6
CONTINUOUS
  5
2B2
 10
-63.10433
 20
6156.574143
 30
0.0
 11
-66.10433
 21
6159.574143
 31
0.0
  0
LINE
  8
LC-007-005-----0
  6
CONTINUOUS
  5
2B3
 10
-63.10433
 20
6153.038609
 30
0.0
 11
-66.10433
 21
6156.038609
 31
0.0
  0
LINE
  8
LC-007-005-----0
  6
CONTINUOUS
  5
2B4
 10
-63.10433
 20
6149.503075
 30
0.0
 11
-66.10433
 21
6152.503075
 31
0.0
  0
LINE
  8
LC-007-005-----0
  6
CONTINUOUS
  5
2B5
 10
-63.10433
 20
6145.967541
 30
0.0
 11
-66.10433
 21
6148.967541
 31
0.0
  0
LINE
  8
LC-007-005-----0
  6
CONTINUOUS
  5
2B6
 10
-63.10433
 20
6142.432007
 30
0.0
 11
-66.10433
 21
6145.432007
 31
0.0
  0
LINE
  8
LC-007-005-----0
  6
CONTINUOUS
  5
2B7
 10
-63.10433
 20
6138.896473
 30
0.0
 11
-66.10433
 21
6141.896473
 31
0.0
  0
LINE
  8
LC-007-005-----0
  6
CONTINUOUS
  5
2B8
 10
-63.10433
 20
6135.360939
 30
0.0
 11
-66.10433
 21
6138.360939
 31
0.0
  0
LINE
  8
LC-007-005-----0
  6
CONTINUOUS
  5
2B9
 10
-63.10433
 20
6131.825405
 30
0.0
 11
-66.10433
 21
6134.825405
 31
0.0
  0
LINE
  8
LC-007-005-----0
  6
CONTINUOUS
  5
2BA
 10
-63.10433
 20
6128.289871
 30
0.0
 11
-66.10433
 21
6131.289871
 31
0.0
  0
LINE
  8
LC-007-005-----0
  6
CONTINUOUS
  5
2BB
 10
-63.10433
 20
6124.754337
 30
0.0
 11
-66.10433
 21
6127.754337
 31
0.0
  0
LINE
  8
LC-007-005-----0
  6
CONTINUOUS
  5
2BC
 10
-63.10433
 20
6121.218803
 30
0.0
 11
-66.10433
 21
6124.218803
 31
0.0
  0
LINE
  8
LC-007-005-----0
  6
CONTINUOUS
  5
2BD
 10
-63.10433
 20
6117.68327
 30
0.0
 11
-66.10433
 21
6120.68327
 31
0.0
  0
LINE
  8
LC-007-005-----0
  6
CONTINUOUS
  5
2BE
 10
-63.10433
 20
6114.147736
 30
0.0
 11
-66.10433
 21
6117.147736
 31
0.0
  0
LINE
  8
LC-007-005-----0
  6
CONTINUOUS
  5
2BF
 10
-63.10433
 20
6110.612202
 30
0.0
 11
-66.10433
 21
6113.612202
 31
0.0
  0
LINE
  8
LC-007-005-----0
  6
CONTINUOUS
  5
2C0
 10
-63.10433
 20
6107.076668
 30
0.0
 11
-66.10433
 21
6110.076668
 31
0.0
  0
LINE
  8
LC-007-005-----0
  6
CONTINUOUS
  5
2C1
 10
-63.10433
 20
6103.541134
 30
0.0
 11
-66.10433
 21
6106.541134
 31
0.0
  0
LINE
  8
LC-007-005-----0
  6
CONTINUOUS
  5
2C2
 10
-63.10433
 20
6100.0056
 30
0.0
 11
-66.10433
 21
6103.0056
 31
0.0
  0
LINE
  8
LC-007-005-----0
  6
CONTINUOUS
  5
2C3
 10
-63.10433
 20
6096.470066
 30
0.0
 11
-66.10433
 21
6099.470066
 31
0.0
  0
LINE
  8
LC-007-005-----0
  6
CONTINUOUS
  5
2C4
 10
-63.10433
 20
6092.934532
 30
0.0
 11
-66.10433
 21
6095.934532
 31
0.0
  0
LINE
  8
LC-007-005-----0
  6
CONTINUOUS
  5
2C5
 10
-63.10433
 20
6089.398998
 30
0.0
 11
-66.10433
 21
6092.398998
 31
0.0
  0
LINE
  8
LC-007-005-----0
  6
CONTINUOUS
  5
2C6
 10
-63.10433
 20
6085.863464
 30
0.0
 11
-66.10433
 21
6088.863464
 31
0.0
  0
LINE
  8
LC-007-005-----0
  6
CONTINUOUS
  5
2C7
 10
-63.10433
 20
6082.327931
 30
0.0
 11
-66.10433
 21
6085.327931
 31
0.0
  0
LINE
  8
LC-007-005-----0
  6
CONTINUOUS
  5
2C8
 10
-63.10433
 20
6078.792397
 30
0.0
 11
-66.10433
 21
6081.792397
 31
0.0
  0
LINE
  8
LC-007-005-----0
  6
CONTINUOUS
  5
2C9
 10
-63.10433
 20
6075.256863
 30
0.0
 11
-66.10433
 21
6078.256863
 31
0.0
  0
LINE
  8
LC-007-005-----0
  6
CONTINUOUS
  5
2CA
 10
-63.10433
 20
6071.721329
 30
0.0
 11
-66.10433
 21
6074.721329
 31
0.0
  0
LINE
  8
LC-007-005-----0
  6
CONTINUOUS
  5
2CB
 10
-63.10433
 20
6068.185795
 30
0.0
 11
-66.10433
 21
6071.185795
 31
0.0
  0
LINE
  8
LC-007-005-----0
  6
CONTINUOUS
  5
2CC
 10
-63.10433
 20
6064.650261
 30
0.0
 11
-66.10433
 21
6067.650261
 31
0.0
  0
LINE
  8
LC-007-005-----0
  6
CONTINUOUS
  5
2CD
 10
-63.10433
 20
6061.114727
 30
0.0
 11
-66.10433
 21
6064.114727
 31
0.0
  0
LINE
  8
LC-007-005-----0
  6
CONTINUOUS
  5
2CE
 10
-63.10433
 20
6057.579193
 30
0.0
 11
-66.10433
 21
6060.579193
 31
0.0
  0
LINE
  8
LC-007-005-----0
  6
CONTINUOUS
  5
2CF
 10
-63.10433
 20
6054.043659
 30
0.0
 11
-66.10433
 21
6057.043659
 31
0.0
  0
LINE
  8
LC-007-005-----0
  6
CONTINUOUS
  5
2D0
 10
-63.10433
 20
6050.508125
 30
0.0
 11
-66.10433
 21
6053.508125
 31
0.0
  0
LINE
  8
LC-007-005-----0
  6
CONTINUOUS
  5
2D1
 10
-63.10433
 20
6046.972591
 30
0.0
 11
-66.10433
 21
6049.972591
 31
0.0
  0
LINE
  8
LC-007-005-----0
  6
CONTINUOUS
  5
2D2
 10
-63.10433
 20
6043.437058
 30
0.0
 11
-66.10433
 21
6046.437058
 31
0.0
  0
LINE
  8
LC-007-005-----0
  6
CONTINUOUS
  5
2D3
 10
-63.10433
 20
6039.901524
 30
0.0
 11
-66.10433
 21
6042.901524
 31
0.0
  0
LINE
  8
LC-007-005-----0
  6
CONTINUOUS
  5
2D4
 10
-63.10433
 20
6036.36599
 30
0.0
 11
-66.10433
 21
6039.36599
 31
0.0
  0
LINE
  8
LC-007-005-----0
  6
CONTINUOUS
  5
2D5
 10
-63.10433
 20
6032.830456
 30
0.0
 11
-66.10433
 21
6035.830456
 31
0.0
  0
LINE
  8
LC-007-005-----0
  6
CONTINUOUS
  5
2D6
 10
-63.10433
 20
6029.294922
 30
0.0
 11
-66.10433
 21
6032.294922
 31
0.0
  0
LINE
  8
LC-007-005-----0
  6
CONTINUOUS
  5
2D7
 10
-63.10433
 20
6025.759388
 30
0.0
 11
-66.10433
 21
6028.759388
 31
0.0
  0
LINE
  8
LC-007-005-----0
  6
CONTINUOUS
  5
2D8
 10
-63.10433
 20
6022.223854
 30
0.0
 11
-65.301217
 21
6024.420741
 31
0.0
  0
LINE
  8
LC-005-002-----0
  6
CONTINUOUS
 62
     1
  5
2D9
 10
-69.10433
 20
6018.417995
 30
0.0
 11
81.89567
 21
6018.417995
 31
0.0
  0
LINE
  8
LC-005-002-----0
  6
CONTINUOUS
 62
     1
  5
2DA
 10
-69.10433
 20
6036.917153
 30
0.0
 11
-72.10433
 21
6036.917153
 31
0.0
  0
LINE
  8
LC-005-002-----0
  6
CONTINUOUS
 62
     1
  5
2DB
 10
-69.10433
 20
6018.418
 30
0.0
 11
-69.10433
 21
6036.917153
 31
0.0
  0
ARC
  8
LC-006-002-RND-0
  6
CONTINUOUS
  5
2DC
 10
-69.10433
 20
6033.917153
 30
0.0
 40
3.0
 50
0.0
 51
90.0
  0
LINE
  8
LC-005-002-----0
  6
CONTINUOUS
 62
     1
  5
2DD
 10
-72.10433
 20
6022.418
 30
0.0
 11
-69.10433
 21
6018.417995
 31
0.0
  0
LINE
  8
LC-005-002-----0
  6
CONTINUOUS
 62
     1
  5
2DE
 10
-62.10433
 20
6021.418
 30
0.0
 11
-62.10433
 21
6018.418
 31
0.0
  0
LINE
  8
LC-005-002-----0
  6
CONTINUOUS
 62
     1
  5
2DF
 10
74.89567
 20
6021.418
 30
0.0
 11
-66.10433
 21
6021.418
 31
0.0
  0
LINE
  8
LC-005-002-----0
  6
CONTINUOUS
 62
     1
  5
2E0
 10
-66.10433
 20
6033.917153
 30
0.0
 11
-66.10433
 21
6021.418
 31
0.0
  0
LINE
  8
LC-005-002-----0
  6
CONTINUOUS
 62
     1
  5
2E1
 10
84.898457
 20
6022.421716
 30
0.0
 11
84.898457
 21
6036.917153
 31
0.0
  0
LINE
  8
LC-005-002-----0
  6
CONTINUOUS
 62
     1
  5
2E2
 10
81.89567
 20
6036.917153
 30
0.0
 11
84.89567
 21
6036.917153
 31
0.0
  0
LINE
  8
LC-005-002-----0
  6
CONTINUOUS
 62
     1
  5
2E3
 10
81.89567
 20
6018.418
 30
0.0
 11
81.89567
 21
6036.917153
 31
0.0
  0
LINE
  8
LC-005-002-----0
  6
CONTINUOUS
 62
     1
  5
2E4
 10
84.89567
 20
6022.418
 30
0.0
 11
81.89567
 21
6018.417995
 31
0.0
  0
ARC
  8
LC-006-002-RND-0
  6
CONTINUOUS
  5
2E5
 10
81.89567
 20
6033.917153
 30
0.0
 40
3.0
 50
90.0
 51
180.0
  0
LINE
  8
LC-005-002-----0
  6
CONTINUOUS
 62
     1
  5
2E6
 10
78.89567
 20
6033.917153
 30
0.0
 11
78.89567
 21
6021.418
 31
0.0
  0
LINE
  8
LC-005-002-----0
  6
CONTINUOUS
 62
     1
  5
2E7
 10
74.89567
 20
6021.418
 30
0.0
 11
74.89567
 21
6018.418
 31
0.0
  0
LINE
  8
LC-005-002-----0
  6
CONTINUOUS
 62
     1
  5
2E8
 10
262.89567
 20
6095.19
 30
0.0
 11
245.89567
 21
6095.19
 31
0.0
  0
LINE
  8
LC-005-002-----0
  6
CONTINUOUS
 62
     1
  5
2E9
 10
262.89567
 20
6102.19
 30
0.0
 11
245.89567
 21
6102.19
 31
0.0
  0
ARC
  8
LC-005-002-----0
  6
CONTINUOUS
 62
     1
  5
2EA
 10
310.37367
 20
6163.168
 30
0.0
 40
3.5
 50
0.0
 51
180.0
  0
ARC
  8
LC-005-002-----0
  6
CONTINUOUS
 62
     1
  5
2EB
 10
310.37367
 20
6082.168
 30
0.0
 40
3.5
 50
180.0
 51
0.0
  0
ARC
  8
LC-005-002-----0
  6
CONTINUOUS
 62
     1
  5
2EC
 10
198.41767
 20
6082.168
 30
0.0
 40
3.5
 50
180.0
 51
0.0
  0
ARC
  8
LC-005-002-----0
  6
CONTINUOUS
 62
     1
  5
2ED
 10
198.41767
 20
6163.168
 30
0.0
 40
3.5
 50
0.0
 51
180.0
  0
LINE
  8
LC-005-002-----0
  6
CONTINUOUS
 62
     1
  5
2EE
 10
194.91767
 20
6082.168
 30
0.0
 11
194.91767
 21
6163.168
 31
0.0
  0
LINE
  8
LC-005-002-----0
  6
CONTINUOUS
 62
     1
  5
2EF
 10
201.91767
 20
6082.168
 30
0.0
 11
201.91767
 21
6163.168
 31
0.0
  0
LINE
  8
LC-005-002-----0
  6
CONTINUOUS
 62
     1
  5
2F0
 10
313.87367
 20
6163.168
 30
0.0
 11
313.87367
 21
6082.168
 31
0.0
  0
LINE
  8
LC-005-002-----0
  6
CONTINUOUS
 62
     1
  5
2F1
 10
306.87367
 20
6163.168
 30
0.0
 11
306.87367
 21
6082.168
 31
0.0
  0
ARC
  8
LC-005-002-----0
  6
CONTINUOUS
 62
     1
  5
2F2
 10
214.41767
 20
6098.168
 30
0.0
 40
3.5
 50
180.0
 51
0.0
  0
ARC
  8
LC-005-002-----0
  6
CONTINUOUS
 62
     1
  5
2F3
 10
214.41767
 20
6147.168
 30
0.0
 40
3.5
 50
0.0
 51
180.0
  0
LINE
  8
LC-005-002-----0
  6
CONTINUOUS
 62
     1
  5
2F4
 10
210.91767
 20
6098.168
 30
0.0
 11
210.91767
 21
6147.168
 31
0.0
  0
LINE
  8
LC-005-002-----0
  6
CONTINUOUS
 62
     1
  5
2F5
 10
217.91767
 20
6098.168
 30
0.0
 11
217.91767
 21
6147.168
 31
0.0
  0
ARC
  8
LC-005-002-----0
  6
CONTINUOUS
 62
     1
  5
2F6
 10
294.37367
 20
6147.168
 30
0.0
 40
3.5
 50
0.0
 51
180.0
  0
ARC
  8
LC-005-002-----0
  6
CONTINUOUS
 62
     1
  5
2F7
 10
294.37367
 20
6098.168
 30
0.0
 40
3.5
 50
180.0
 51
0.0
  0
LINE
  8
LC-005-002-----0
  6
CONTINUOUS
 62
     1
  5
2F8
 10
297.87367
 20
6147.168
 30
0.0
 11
297.87367
 21
6098.168
 31
0.0
  0
LINE
  8
LC-005-002-----0
  6
CONTINUOUS
 62
     1
  5
2F9
 10
290.87367
 20
6147.168
 30
0.0
 11
290.87367
 21
6098.168
 31
0.0
  0
ARC
  8
LC-005-002-----0
  6
CONTINUOUS
 62
     1
  5
2FA
 10
230.41767
 20
6114.168
 30
0.0
 40
3.5
 50
180.0
 51
0.0
  0
ARC
  8
LC-005-002-----0
  6
CONTINUOUS
 62
     1
  5
2FB
 10
230.41767
 20
6131.168
 30
0.0
 40
3.5
 50
0.0
 51
180.0
  0
LINE
  8
LC-005-002-----0
  6
CONTINUOUS
 62
     1
  5
2FC
 10
226.91767
 20
6114.168
 30
0.0
 11
226.91767
 21
6131.168
 31
0.0
  0
LINE
  8
LC-005-002-----0
  6
CONTINUOUS
 62
     1
  5
2FD
 10
319.58367
 20
6053.69
 30
0.0
 11
189.20767
 21
6053.69
 31
0.0
  0
LINE
  8
LC-005-002-----0
  6
CONTINUOUS
 62
     1
  5
2FE
 10
185.41767
 20
6057.48
 30
0.0
 11
185.41767
 21
6187.856
 31
0.0
  0
LINE
  8
LC-005-002-----0
  6
CONTINUOUS
 62
     1
  5
2FF
 10
189.20767
 20
6191.646
 30
0.0
 11
319.58367
 21
6191.646
 31
0.0
  0
LINE
  8
LC-005-002-----0
  6
CONTINUOUS
 62
     1
  5
300
 10
323.37367
 20
6187.856
 30
0.0
 11
323.37367
 21
6057.48
 31
0.0
  0
LINE
  8
LC-005-002-----0
  6
CONTINUOUS
 62
     1
  5
301
 10
233.91767
 20
6114.168
 30
0.0
 11
233.91767
 21
6131.168
 31
0.0
  0
ARC
  8
LC-005-002-----0
  6
CONTINUOUS
 62
     1
  5
302
 10
278.37367
 20
6131.168
 30
0.0
 40
3.5
 50
0.0
 51
180.0
  0
ARC
  8
LC-005-002-----0
  6
CONTINUOUS
 62
     1
  5
303
 10
278.37367
 20
6114.168
 30
0.0
 40
3.5
 50
180.0
 51
0.0
  0
LINE
  8
LC-005-002-----0
  6
CONTINUOUS
 62
     1
  5
304
 10
281.87367
 20
6131.168
 30
0.0
 11
281.87367
 21
6114.168
 31
0.0
  0
LINE
  8
LC-005-002-----0
  6
CONTINUOUS
 62
     1
  5
305
 10
274.87367
 20
6131.168
 30
0.0
 11
274.87367
 21
6114.168
 31
0.0
  0
ARC
  8
LC-005-002-----0
  6
CONTINUOUS
 62
     1
  5
306
 10
213.89567
 20
6178.646
 30
0.0
 40
3.5
 50
90.0
 51
270.0
  0
ARC
  8
LC-005-002-----0
  6
CONTINUOUS
 62
     1
  5
307
 10
294.89567
 20
6178.646
 30
0.0
 40
3.5
 50
270.0
 51
90.0
  0
LINE
  8
LC-005-002-----0
  6
CONTINUOUS
 62
     1
  5
308
 10
213.89567
 20
6182.146
 30
0.0
 11
294.89567
 21
6182.146
 31
0.0
  0
LINE
  8
LC-005-002-----0
  6
CONTINUOUS
 62
     1
  5
309
 10
213.89567
 20
6175.146
 30
0.0
 11
294.89567
 21
6175.146
 31
0.0
  0
ARC
  8
LC-005-002-----0
  6
CONTINUOUS
 62
     1
  5
30A
 10
229.89567
 20
6162.646
 30
0.0
 40
3.5
 50
90.0
 51
270.0
  0
ARC
  8
LC-005-002-----0
  6
CONTINUOUS
 62
     1
  5
30B
 10
278.89567
 20
6162.646
 30
0.0
 40
3.5
 50
270.0
 51
90.0
  0
LINE
  8
LC-005-002-----0
  6
CONTINUOUS
 62
     1
  5
30C
 10
229.89567
 20
6166.146
 30
0.0
 11
278.89567
 21
6166.146
 31
0.0
  0
LINE
  8
LC-005-002-----0
  6
CONTINUOUS
 62
     1
  5
30D
 10
229.89567
 20
6159.146
 30
0.0
 11
278.89567
 21
6159.146
 31
0.0
  0
ARC
  8
LC-005-002-----0
  6
CONTINUOUS
 62
     1
  5
30E
 10
245.89567
 20
6146.646
 30
0.0
 40
3.5
 50
90.0
 51
270.0
  0
ARC
  8
LC-005-002-----0
  6
CONTINUOUS
 62
     1
  5
30F
 10
262.89567
 20
6146.646
 30
0.0
 40
3.5
 50
270.0
 51
90.0
  0
LINE
  8
LC-005-002-----0
  6
CONTINUOUS
 62
     1
  5
310
 10
245.89567
 20
6150.146
 30
0.0
 11
262.89567
 21
6150.146
 31
0.0
  0
ARC
  8
LC-006-002-RND-0
  6
CONTINUOUS
  5
311
 10
187.89567
 20
6189.168
 30
0.0
 40
3.0
 50
90.0
 51
180.0
  0
ARC
  8
LC-006-002-RND-0
  6
CONTINUOUS
  5
312
 10
187.89567
 20
6056.168
 30
0.0
 40
3.0
 50
180.0
 51
270.0
  0
ARC
  8
LC-006-002-RND-0
  6
CONTINUOUS
  5
313
 10
320.89567
 20
6056.168
 30
0.0
 40
3.0
 50
270.0
 51
0.0
  0
ARC
  8
LC-006-002-RND-0
  6
CONTINUOUS
  5
314
 10
320.89567
 20
6189.168
 30
0.0
 40
3.0
 50
0.0
 51
90.0
  0
LINE
  8
LC-005-002-----0
  6
CONTINUOUS
 62
     1
  5
315
 10
178.89567
 20
6195.168
 30
0.0
 11
178.89567
 21
6050.168
 31
0.0
  0
LINE
  8
LC-005-002-----0
  6
CONTINUOUS
 62
     1
  5
316
 10
326.89567
 20
6198.168
 30
0.0
 11
181.89567
 21
6198.168
 31
0.0
  0
LINE
  8
LC-005-002-----0
  6
CONTINUOUS
 62
     1
  5
317
 10
184.89567
 20
6189.168
 30
0.0
 11
184.89567
 21
6056.168
 31
0.0
  0
LINE
  8
LC-005-002-----0
  6
CONTINUOUS
 62
     1
  5
318
 10
187.89567
 20
6053.168
 30
0.0
 11
320.89567
 21
6053.168
 31
0.0
  0
LINE
  8
LC-005-002-----0
  6
CONTINUOUS
 62
     1
  5
319
 10
323.89567
 20
6056.168
 30
0.0
 11
323.89567
 21
6189.168
 31
0.0
  0
LINE
  8
LC-005-002-----0
  6
CONTINUOUS
 62
     1
  5
31A
 10
320.89567
 20
6192.168
 30
0.0
 11
187.89567
 21
6192.168
 31
0.0
  0
ARC
  8
LC-006-002-RND-0
  6
CONTINUOUS
  5
31B
 10
326.89567
 20
6195.168
 30
0.0
 40
3.0
 50
0.0
 51
90.0
  0
ARC
  8
LC-006-002-RND-0
  6
CONTINUOUS
  5
31C
 10
181.89567
 20
6195.168
 30
0.0
 40
3.0
 50
90.0
 51
180.0
  0
ARC
  8
LC-006-002-RND-0
  6
CONTINUOUS
  5
31D
 10
181.89567
 20
6050.168
 30
0.0
 40
3.0
 50
180.0
 51
270.0
  0
ARC
  8
LC-006-002-RND-0
  6
CONTINUOUS
  5
31E
 10
326.89567
 20
6050.168
 30
0.0
 40
3.0
 50
270.0
 51
0.0
  0
LINE
  8
LC-005-002-----0
  6
CONTINUOUS
  5
31F
 10
-63.10433
 20
6047.418
 30
0.0
 11
75.89567
 21
6047.418
 31
0.0
  0
LINE
  8
LC-005-002-----0
  6
CONTINUOUS
 62
     1
  5
320
 10
329.89567
 20
6195.168
 30
0.0
 11
329.89567
 21
6050.168
 31
0.0
  0
LINE
  8
LC-005-002-----0
  6
CONTINUOUS
 62
     1
  5
321
 10
326.89567
 20
6047.168
 30
0.0
 11
181.89567
 21
6047.168
 31
0.0
  0
LINE
  8
LC-005-002-----0
  6
CONTINUOUS
  5
322
 10
89.800878
 20
6223.918
 30
0.0
 11
79.39567
 21
6223.918
 31
0.0
  0
ENDSEC
  0
EOF
