  0
SECTION
  2
HEADER
  9
$ACADVER
  1
AC1015
  9
$ACADMAINTVER
 70
     6
  9
$DWGCODEPAGE
  3
DOS850
  9
$INSBASE
 10
-109.159416
 20
89.664
 30
0.0
  9
$EXTMIN
 10
-319.159416
 20
-58.836
 30
0.0
  9
$EXTMAX
 10
520.840584
 20
535.164
 30
0.0
  9
$LIMMIN
 10
-319.159416
 20
-58.836
  9
$LIMMAX
 10
520.840584
 20
535.164
  9
$ORTHOMODE
 70
     0
  9
$REGENMODE
 70
     1
  9
$FILLMODE
 70
     1
  9
$QTEXTMODE
 70
     0
  9
$MIRRTEXT
 70
     1
  9
$LTSCALE
 40
2.0
  9
$ATTMODE
 70
     1
  9
$TEXTSIZE
 40
2.5
  9
$TRACEWID
 40
1.0
  9
$TEXTSTYLE
  7
Standard
  9
$CLAYER
  8
0
  9
$CELTYPE
  6
ByLayer
  9
$CECOLOR
 62
     7
  9
$CELTSCALE
 40
1.0
  9
$DISPSILH
 70
     0
  9
$DIMSCALE
 40
2.0
  9
$DIMASZ
 40
3.5
  9
$DIMEXO
 40
0.625
  9
$DIMDLI
 40
3.75
  9
$DIMRND
 40
0.0
  9
$DIMDLE
 40
0.0
  9
$DIMEXE
 40
1.25
  9
$DIMTP
 40
0.0
  9
$DIMTM
 40
0.0
  9
$DIMTXT
 40
3.5
  9
$DIMCEN
 40
2.5
  9
$DIMTSZ
 40
0.0
  9
$DIMTOL
 70
     0
  9
$DIMLIM
 70
     0
  9
$DIMTIH
 70
     0
  9
$DIMTOH
 70
     0
  9
$DIMSE1
 70
     0
  9
$DIMSE2
 70
     0
  9
$DIMTAD
 70
     1
  9
$DIMZIN
 70
     8
  9
$DIMBLK
  1

  9
$DIMASO
 70
     1
  9
$DIMSHO
 70
     1
  9
$DIMPOST
  1

  9
$DIMAPOST
  1

  9
$DIMALT
 70
     0
  9
$DIMALTD
 70
     3
  9
$DIMALTF
 40
0.03937
  9
$DIMLFAC
 40
1.0
  9
$DIMTOFL
 70
     1
  9
$DIMTVP
 40
0.0
  9
$DIMTIX
 70
     0
  9
$DIMSOXD
 70
     0
  9
$DIMSAH
 70
     0
  9
$DIMBLK1
  1

  9
$DIMBLK2
  1

  9
$DIMSTYLE
  2
ISO-25
  9
$DIMCLRD
 70
     0
  9
$DIMCLRE
 70
     0
  9
$DIMCLRT
 70
     0
  9
$DIMTFAC
 40
1.0
  9
$DIMGAP
 40
0.625
  9
$DIMJUST
 70
     0
  9
$DIMSD1
 70
     0
  9
$DIMSD2
 70
     0
  9
$DIMTOLJ
 70
     0
  9
$DIMTZIN
 70
     8
  9
$DIMALTZ
 70
     0
  9
$DIMALTTZ
 70
     0
  9
$DIMUPT
 70
     0
  9
$DIMDEC
 70
     2
  9
$DIMTDEC
 70
     2
  9
$DIMALTU
 70
     2
  9
$DIMALTTD
 70
     3
  9
$DIMTXSTY
  7
Standard
  9
$DIMAUNIT
 70
     0
  9
$DIMADEC
 70
     0
  9
$DIMALTRND
 40
0.0
  9
$DIMAZIN
 70
     0
  9
$DIMDSEP
 70
    44
  9
$DIMATFIT
 70
     3
  9
$DIMFRAC
 70
     0
  9
$DIMLDRBLK
  1

  9
$DIMLUNIT
 70
     2
  9
$DIMLWD
 70
    -2
  9
$DIMLWE
 70
    -2
  9
$DIMTMOVE
 70
     0
  9
$LUNITS
 70
     2
  9
$LUPREC
 70
     4
  9
$SKETCHINC
 40
1.0
  9
$FILLETRAD
 40
10.0
  9
$AUNITS
 70
     0
  9
$AUPREC
 70
     0
  9
$MENU
  1
.
  9
$ELEVATION
 40
0.0
  9
$PELEVATION
 40
0.0
  9
$THICKNESS
 40
0.0
  9
$LIMCHECK
 70
     0
  9
$CHAMFERA
 40
10.0
  9
$CHAMFERB
 40
10.0
  9
$CHAMFERC
 40
20.0
  9
$CHAMFERD
 40
0.0
  9
$SKPOLY
 70
     0
  9
$TDCREATE
 40
2453663.388549236
  9
$TDUCREATE
 40
2453663.305215903
  9
$TDUPDATE
 40
2453663.388549248
  9
$TDUUPDATE
 40
2453663.305215914
  9
$TDINDWG
 40
0.0000000116
  9
$TDUSRTIMER
 40
0.0000000116
  9
$USRTIMER
 70
     1
  9
$ANGBASE
 50
0.0
  9
$ANGDIR
 70
     0
  9
$PDMODE
 70
     0
  9
$PDSIZE
 40
0.0
  9
$PLINEWID
 40
0.0
  9
$SPLFRAME
 70
     0
  9
$SPLINETYPE
 70
     6
  9
$SPLINESEGS
 70
     8
  9
$HANDSEED
  5
C5
  9
$SURFTAB1
 70
     6
  9
$SURFTAB2
 70
     6
  9
$SURFTYPE
 70
     6
  9
$SURFU
 70
     6
  9
$SURFV
 70
     6
  9
$UCSBASE
  2

  9
$UCSNAME
  2

  9
$UCSORG
 10
0.0
 20
0.0
 30
0.0
  9
$UCSXDIR
 10
1.0
 20
0.0
 30
0.0
  9
$UCSYDIR
 10
0.0
 20
1.0
 30
0.0
  9
$UCSORTHOREF
  2

  9
$UCSORTHOVIEW
 70
     0
  9
$UCSORGTOP
 10
0.0
 20
0.0
 30
0.0
  9
$UCSORGBOTTOM
 10
0.0
 20
0.0
 30
0.0
  9
$UCSORGLEFT
 10
0.0
 20
0.0
 30
0.0
  9
$UCSORGRIGHT
 10
0.0
 20
0.0
 30
0.0
  9
$UCSORGFRONT
 10
0.0
 20
0.0
 30
0.0
  9
$UCSORGBACK
 10
0.0
 20
0.0
 30
0.0
  9
$PUCSBASE
  2

  9
$PUCSNAME
  2

  9
$PUCSORG
 10
0.0
 20
0.0
 30
0.0
  9
$PUCSXDIR
 10
1.0
 20
0.0
 30
0.0
  9
$PUCSYDIR
 10
0.0
 20
1.0
 30
0.0
  9
$PUCSORTHOREF
  2

  9
$PUCSORTHOVIEW
 70
     0
  9
$PUCSORGTOP
 10
0.0
 20
0.0
 30
0.0
  9
$PUCSORGBOTTOM
 10
0.0
 20
0.0
 30
0.0
  9
$PUCSORGLEFT
 10
0.0
 20
0.0
 30
0.0
  9
$PUCSORGRIGHT
 10
0.0
 20
0.0
 30
0.0
  9
$PUCSORGFRONT
 10
0.0
 20
0.0
 30
0.0
  9
$PUCSORGBACK
 10
0.0
 20
0.0
 30
0.0
  9
$USERI1
 70
     0
  9
$USERI2
 70
     0
  9
$USERI3
 70
     0
  9
$USERI4
 70
     0
  9
$USERI5
 70
     0
  9
$USERR1
 40
0.0
  9
$USERR2
 40
0.0
  9
$USERR3
 40
0.0
  9
$USERR4
 40
0.0
  9
$USERR5
 40
0.0
  9
$WORLDVIEW
 70
     1
  9
$SHADEDGE
 70
     3
  9
$SHADEDIF
 70
    70
  9
$TILEMODE
 70
     1
  9
$MAXACTVP
 70
    64
  9
$PINSBASE
 10
0.0
 20
0.0
 30
0.0
  9
$PLIMCHECK
 70
     0
  9
$PEXTMIN
 10
-319.159416
 20
-58.836
 30
0.0
  9
$PEXTMAX
 10
520.840584
 20
535.164
 30
0.0
  9
$PLIMMIN
 10
-319.159416
 20
-58.836
  9
$PLIMMAX
 10
520.840584
 20
535.164
  9
$UNITMODE
 70
     0
  9
$VISRETAIN
 70
     1
  9
$PLINEGEN
 70
     0
  9
$PSLTSCALE
 70
     1
  9
$TREEDEPTH
 70
  3020
  9
$CMLSTYLE
  2
Standard
  9
$CMLJUST
 70
     0
  9
$CMLSCALE
 40
20.0
  9
$PROXYGRAPHICS
 70
     1
  9
$MEASUREMENT
 70
     1
  9
$CELWEIGHT
370
    -1
  9
$ENDCAPS
280
     0
  9
$JOINSTYLE
280
     0
  9
$LWDISPLAY
290
     0
  9
$INSUNITS
 70
     4
  9
$HYPERLINKBASE
  1

  9
$STYLESHEET
  1

  9
$XEDIT
290
     1
  9
$CEPSNTYPE
380
     0
  9
$PSTYLEMODE
290
     1
  9
$FINGERPRINTGUID
  2
{FAEB1C30-E019-11D5-929B-00C0DF256EC4}
  9
$VERSIONGUID
  2
{FAEB1C32-E019-11D5-929B-00C0DF256EC4}
  9
$EXTNAMES
290
     1
  9
$PSVPSCALE
 40
0.0
  9
$OLESTARTUP
290
     0
  0
ENDSEC
  0
SECTION
  2
CLASSES
  0
CLASS
  1
ACDBDICTIONARYWDFLT
  2
AcDbDictionaryWithDefault
  3
ObjectDBX Classes
 90
        0
280
     0
281
     0
  0
CLASS
  1
ACDBPLACEHOLDER
  2
AcDbPlaceHolder
  3
ObjectDBX Classes
 90
        0
280
     0
281
     0
  0
CLASS
  1
LAYOUT
  2
AcDbLayout
  3
ObjectDBX Classes
 90
        0
280
     0
281
     0
  0
ENDSEC
  0
SECTION
  2
TABLES
  0
TABLE
  2
VPORT
  5
8
330
0
100
AcDbSymbolTable
 70
     2
  0
VPORT
  5
29
330
8
100
AcDbSymbolTableRecord
100
AcDbViewportTableRecord
  2
*ACTIVE
 70
     0
 10
0.0
 20
0.0
 11
1.0
 21
1.0
 12
100.840584
 22
238.164
 13
0.0
 23
0.0
 14
1.0
 24
1.0
 15
0.0
 25
0.0
 16
0.0
 26
0.0
 36
1.0
 17
0.0
 27
0.0
 37
0.0
 40
594.0
 41
1.414141
 42
50.0
 43
0.0
 44
0.0
 50
0.0
 51
0.0
 71
    16
 72
   100
 73
     1
 74
     0
 75
     0
 76
     0
 77
     0
 78
     0
281
     0
 65
     0
110
0.0
120
0.0
130
0.0
111
1.0
121
0.0
131
0.0
112
0.0
122
1.0
132
0.0
 79
     0
146
0.0
  0
ENDTAB
  0
TABLE
  2
LTYPE
  5
5
330
0
100
AcDbSymbolTable
 70
     3
  0
LTYPE
  5
14
330
5
100
AcDbSymbolTableRecord
100
AcDbLinetypeTableRecord
  2
ByBlock
 70
     0
  3

 72
    65
 73
     0
 40
0.0
  0
LTYPE
  5
15
330
5
100
AcDbSymbolTableRecord
100
AcDbLinetypeTableRecord
  2
ByLayer
 70
     0
  3

 72
    65
 73
     0
 40
0.0
  0
LTYPE
  5
16
330
5
100
AcDbSymbolTableRecord
100
AcDbLinetypeTableRecord
  2
Continuous
 70
     0
  3
Solid line
 72
    65
 73
     0
 40
0.0
  0
LTYPE
  5
2A
330
5
100
AcDbSymbolTableRecord
100
AcDbLinetypeTableRecord
  2
DASHED
 70
     0
  3
__ __ __ __ __
 72
    65
 73
     2
 40
6.25
 49
5.0
 74
     4
 75
     0
340
0
 46
1.0
 50
0.0
 44
0.0
 45
0.0
 49
-1.25
 74
     4
 75
     0
340
0
 46
1.0
 50
0.0
 44
0.0
 45
0.0
  0
LTYPE
  5
31
330
5
100
AcDbSymbolTableRecord
100
AcDbLinetypeTableRecord
  2
DASHDOT
 70
     0
  3
__ . __ . __ . __ . __
 72
    65
 73
     4
 40
7.5
 49
5.0
 74
     4
 75
     0
340
0
 46
1.0
 50
0.0
 44
0.0
 45
0.0
 49
-1.25
 74
     4
 75
     0
340
0
 46
1.0
 50
0.0
 44
0.0
 45
0.0
 49
0.0
 74
     4
 75
     0
340
0
 46
1.0
 50
0.0
 44
0.0
 45
0.0
 49
-1.25
 74
     4
 75
     0
340
0
 46
1.0
 50
0.0
 44
0.0
 45
0.0
  0
ENDTAB
  0
TABLE
  2
LAYER
  5
2
330
0
100
AcDbSymbolTable
 70
    10
  0
LAYER
  5
10
330
2
100
AcDbSymbolTableRecord
100
AcDbLayerTableRecord
  2
0
 70
     0
 62
     7
  6
Continuous
370
    -3
390
F
  0
LAYER
  5
2B
330
2
100
AcDbSymbolTableRecord
100
AcDbLayerTableRecord
  2
LC-INFO-1-2-mm-A3-0
 70
     1
 62
     7
  6
ByBlock
370
    -3
390
F
  0
LAYER
  5
2C
330
2
100
AcDbSymbolTableRecord
100
AcDbLayerTableRecord
  2
LC-CUT-HIDDEN
 70
     0
 62
     7
  6
DASHED
370
    -3
390
F
  0
LAYER
  5
2D
330
2
100
AcDbSymbolTableRecord
100
AcDbLayerTableRecord
  2
LC-VIEWPORT
 70
     0
 62
     7
  6
ByBlock
370
    -3
390
F
  0
LAYER
  5
2E
330
2
100
AcDbSymbolTableRecord
100
AcDbLayerTableRecord
  2
LC-3D-HIDDEN
 70
     0
 62
     9
  6
DASHED
370
    -3
390
F
  0
LAYER
  5
32
330
2
100
AcDbSymbolTableRecord
100
AcDbLayerTableRecord
  2
LC-001-002-----0
 70
     0
 62
     2
  6
DASHDOT
370
    -3
390
F
  0
LAYER
  5
34
330
2
100
AcDbSymbolTableRecord
100
AcDbLayerTableRecord
  2
LC-002-002-RND-0
 70
     0
 62
     1
  6
ByBlock
370
    -3
390
F
  0
LAYER
  5
8E
330
2
100
AcDbSymbolTableRecord
100
AcDbLayerTableRecord
  2
LC-003-005-----0
 70
     0
 62
     2
  6
ByBlock
370
    -3
390
F
  0
LAYER
  5
A6
330
2
100
AcDbSymbolTableRecord
100
AcDbLayerTableRecord
  2
LC-004-003-----0
 70
     0
 62
     2
  6
ByBlock
370
    -3
390
F
  0
LAYER
  5
A8
330
2
100
AcDbSymbolTableRecord
100
AcDbLayerTableRecord
  2
Defpoints
 70
     0
 62
     7
  6
Continuous
290
     0
370
    -3
390
F
  0
ENDTAB
  0
TABLE
  2
STYLE
  5
3
330
0
100
AcDbSymbolTable
 70
     3
  0
STYLE
  5
11
330
3
100
AcDbSymbolTableRecord
100
AcDbTextStyleTableRecord
  2
Standard
 70
     0
 40
0.0
 41
1.0
 50
0.0
 71
     0
 42
2.5
  3
txt
  4

  0
STYLE
  5
2F
330
3
100
AcDbSymbolTableRecord
100
AcDbTextStyleTableRecord
  2
LCTX15-400-0-0pDIN-Schrift
 70
     0
 40
0.0
 41
0.8
 50
15.0
 71
     0
 42
3.5
  3
TXT
  4

  0
STYLE
  5
30
330
3
100
AcDbSymbolTableRecord
100
AcDbTextStyleTableRecord
  2
LCTX15-400-0-0-Arial
 70
     0
 40
0.0
 41
0.9
 50
0.0
 71
     0
 42
3.5
  3

  4

1001
ACAD
1000
Arial
1071
 16777218
  0
ENDTAB
  0
TABLE
  2
VIEW
  5
6
330
0
100
AcDbSymbolTable
 70
     0
  0
ENDTAB
  0
TABLE
  2
UCS
  5
7
330
0
100
AcDbSymbolTable
 70
     0
  0
ENDTAB
  0
TABLE
  2
APPID
  5
9
330
0
100
AcDbSymbolTable
 70
     1
  0
APPID
  5
12
330
9
100
AcDbSymbolTableRecord
100
AcDbRegAppTableRecord
  2
ACAD
 70
     0
  0
ENDTAB
  0
TABLE
  2
DIMSTYLE
  5
A
330
0
100
AcDbSymbolTable
 70
     2
100
AcDbDimStyleTable
  0
DIMSTYLE
105
27
330
A
100
AcDbSymbolTableRecord
100
AcDbDimStyleTableRecord
  2
ISO-25
 70
     0
 41
2.5
 42
0.625
 43
3.75
 44
1.25
 73
     0
 74
     0
 77
     1
 78
     8
140
2.5
141
2.5
143
0.03937
147
0.625
171
     3
172
     1
271
     2
272
     2
274
     3
278
    44
283
     0
284
     8
340
11
  0
DIMSTYLE
105
A5
102
{ACAD_REACTORS
330
A7
330
B5
102
}
330
A
100
AcDbSymbolTableRecord
100
AcDbDimStyleTableRecord
  2
LC-DIM-L-0140-02-02
 70
     0
 40
2.0
 41
14.0
 42
0.0
 43
7.5
 44
1.8
 73
     0
 74
     0
 77
     1
 78
     8
 79
     2
140
14.0
141
0.0
146
0.71
147
1.5
176
     2
177
     2
178
     2
179
     2
271
     2
278
    44
289
     1
340
2F
  0
ENDTAB
  0
TABLE
  2
BLOCK_RECORD
  5
1
330
0
100
AcDbSymbolTable
 70
     5
  0
BLOCK_RECORD
  5
1F
330
1
100
AcDbSymbolTableRecord
100
AcDbBlockTableRecord
  2
*Model_Space
340
22
  0
BLOCK_RECORD
  5
1B
330
1
100
AcDbSymbolTableRecord
100
AcDbBlockTableRecord
  2
*Paper_Space
340
1E
  0
BLOCK_RECORD
  5
23
330
1
100
AcDbSymbolTableRecord
100
AcDbBlockTableRecord
  2
*Paper_Space0
340
26
  0
BLOCK_RECORD
  5
8B
330
1
100
AcDbSymbolTableRecord
100
AcDbBlockTableRecord
  2
*X11
340
0
102
{BLKREFS
331
96
102
}
  0
BLOCK_RECORD
  5
97
330
1
100
AcDbSymbolTableRecord
100
AcDbBlockTableRecord
  2
*X22
340
0
102
{BLKREFS
331
A4
102
}
  0
BLOCK_RECORD
  5
A9
330
1
100
AcDbSymbolTableRecord
100
AcDbBlockTableRecord
  2
*D3
340
0
  0
BLOCK_RECORD
  5
B6
330
1
100
AcDbSymbolTableRecord
100
AcDbBlockTableRecord
  2
*D4
340
0
  0
ENDTAB
  0
ENDSEC
  0
SECTION
  2
BLOCKS
  0
BLOCK
  5
20
330
1F
100
AcDbEntity
  8
0
100
AcDbBlockBegin
  2
*Model_Space
 70
     0
 71
     0
 10
0.0
 20
0.0
 30
0.0
  3
*Model_Space
  1

  0
ENDBLK
  5
21
330
1F
100
AcDbEntity
  8
0
100
AcDbBlockEnd
  0
BLOCK
  5
1C
330
1B
100
AcDbEntity
 67
     1
  8
0
100
AcDbBlockBegin
  2
*Paper_Space
 70
     0
 71
     0
 10
0.0
 20
0.0
 30
0.0
  3
*Paper_Space
  1

  0
ENDBLK
  5
1D
330
1B
100
AcDbEntity
 67
     1
  8
0
100
AcDbBlockEnd
  0
BLOCK
  5
24
330
23
100
AcDbEntity
  8
0
100
AcDbBlockBegin
  2
*Paper_Space0
 70
     0
 71
     0
 10
0.0
 20
0.0
 30
0.0
  3
*Paper_Space0
  1

  0
ENDBLK
  5
25
330
23
100
AcDbEntity
  8
0
100
AcDbBlockEnd
  0
BLOCK
  5
8C
330
8B
100
AcDbEntity
  8
0
100
AcDbBlockBegin
  2
*X11
 70
     1
 71
     0
 10
0.0
 20
0.0
 30
0.0
  3
*X11
  1

  4
*X1
  0
LINE
  5
8F
330
8B
100
AcDbEntity
  8
LC-003-005-----0
 62
     7
370
    25
100
AcDbLine
 10
38.321317
 20
253.281779
 30
0.0
 11
39.054195
 21
254.014656
 31
0.0
  0
LINE
  5
90
330
8B
100
AcDbEntity
  8
LC-003-005-----0
 62
     7
370
    25
100
AcDbLine
 10
38.066094
 20
255.854983
 30
0.0
 11
38.766094
 21
256.554983
 31
0.0
  0
LINE
  5
91
330
8B
100
AcDbEntity
  8
LC-003-005-----0
 62
     7
370
    25
100
AcDbLine
 10
44.727336
 20
262.516225
 30
0.0
 11
45.755212
 21
263.544101
 31
0.0
  0
LINE
  5
92
330
8B
100
AcDbEntity
  8
LC-003-005-----0
 62
     7
370
    25
100
AcDbLine
 10
38.066094
 20
258.68341
 30
0.0
 11
39.343641
 21
259.960957
 31
0.0
  0
LINE
  5
93
330
8B
100
AcDbEntity
  8
LC-003-005-----0
 62
     7
370
    25
100
AcDbLine
 10
41.595733
 20
262.213049
 30
0.0
 11
41.86012
 21
262.477436
 31
0.0
  0
LINE
  5
94
330
8B
100
AcDbEntity
  8
LC-003-005-----0
 62
     7
370
    25
100
AcDbLine
 10
45.066094
 20
265.68341
 30
0.0
 11
45.766094
 21
266.38341
 31
0.0
  0
LINE
  5
95
330
8B
100
AcDbEntity
  8
LC-003-005-----0
 62
     7
370
    25
100
AcDbLine
 10
46.866094
 20
267.48341
 30
0.0
 11
47.484249
 21
268.101565
 31
0.0
  0
ENDBLK
  5
8D
330
8B
100
AcDbEntity
  8
0
100
AcDbBlockEnd
  0
BLOCK
  5
98
330
97
100
AcDbEntity
  8
0
100
AcDbBlockBegin
  2
*X22
 70
     1
 71
     0
 10
0.0
 20
0.0
 30
0.0
  3
*X22
  1

  4
*X2
  0
LINE
  5
9A
330
97
100
AcDbEntity
  8
LC-003-005-----0
 62
     7
370
    25
100
AcDbLine
 10
-63.440057
 20
250.515354
 30
0.0
 11
-63.251032
 21
250.704379
 31
0.0
  0
LINE
  5
9B
330
97
100
AcDbEntity
  8
LC-003-005-----0
 62
     7
370
    25
100
AcDbLine
 10
-64.555427
 20
252.228411
 30
0.0
 11
-64.005787
 21
252.778051
 31
0.0
  0
LINE
  5
9C
330
97
100
AcDbEntity
  8
LC-003-005-----0
 62
     7
370
    25
100
AcDbLine
 10
-64.633906
 20
254.978359
 30
0.0
 11
-63.933906
 21
255.678359
 31
0.0
  0
LINE
  5
9D
330
97
100
AcDbEntity
  8
LC-003-005-----0
 62
     7
370
    25
100
AcDbLine
 10
-64.633906
 20
257.806786
 30
0.0
 11
-63.933906
 21
258.506786
 31
0.0
  0
LINE
  5
9E
330
97
100
AcDbEntity
  8
LC-003-005-----0
 62
     7
370
    25
100
AcDbLine
 10
-66.008163
 20
259.260957
 30
0.0
 11
-65.308163
 21
259.960957
 31
0.0
  0
LINE
  5
9F
330
97
100
AcDbEntity
  8
LC-003-005-----0
 62
     7
370
    25
100
AcDbLine
 10
-67.903781
 20
260.193765
 30
0.0
 11
-67.233906
 21
260.863641
 31
0.0
  0
LINE
  5
A0
330
97
100
AcDbEntity
  8
LC-003-005-----0
 62
     7
370
    25
100
AcDbLine
 10
-68.751368
 20
262.174605
 30
0.0
 11
-68.213647
 21
262.712326
 31
0.0
  0
LINE
  5
A1
330
97
100
AcDbEntity
  8
LC-003-005-----0
 62
     7
370
    25
100
AcDbLine
 10
-71.067904
 20
262.686497
 30
0.0
 11
-70.538084
 21
263.216316
 31
0.0
  0
LINE
  5
A2
330
97
100
AcDbEntity
  8
LC-003-005-----0
 62
     7
370
    25
100
AcDbLine
 10
-71.633906
 20
264.948922
 30
0.0
 11
-70.933906
 21
265.648922
 31
0.0
  0
LINE
  5
A3
330
97
100
AcDbEntity
  8
LC-003-005-----0
 62
     7
370
    25
100
AcDbLine
 10
-71.64101
 20
267.770245
 30
0.0
 11
-71.122052
 21
268.289203
 31
0.0
  0
ENDBLK
  5
99
330
97
100
AcDbEntity
  8
0
100
AcDbBlockEnd
  0
BLOCK
  5
B3
330
A9
100
AcDbEntity
  8
0
100
AcDbBlockBegin
  2
*D3
 70
     1
 71
     0
 10
0.0
 20
0.0
 30
0.0
  3
*D3
  1

  0
LINE
  5
AA
330
A9
100
AcDbEntity
  8
LC-004-003-----0
 62
     2
370
    -2
100
AcDbLine
 10
-73.433906
 20
266.705343
 30
0.0
 11
-73.433906
 21
292.573027
 31
0.0
  0
LINE
  5
AB
330
A9
100
AcDbEntity
  8
LC-004-003-----0
 62
     2
370
    -2
100
AcDbLine
 10
47.566094
 20
266.705343
 30
0.0
 11
47.566094
 21
292.573027
 31
0.0
  0
LINE
  5
AC
330
A9
100
AcDbEntity
  8
LC-004-003-----0
 62
     2
370
    -2
100
AcDbLine
 10
-45.433906
 20
288.973027
 30
0.0
 11
19.566094
 21
288.973027
 31
0.0
  0
SOLID
  5
AD
330
A9
100
AcDbEntity
  8
LC-004-003-----0
 62
     2
100
AcDbTrace
 10
-45.433906
 20
293.639693
 30
0.0
 11
-45.433906
 21
284.30636
 31
0.0
 12
-73.433906
 22
288.973027
 32
0.0
 13
-73.433906
 23
288.973027
 33
0.0
  0
SOLID
  5
AE
330
A9
100
AcDbEntity
  8
LC-004-003-----0
 62
     2
100
AcDbTrace
 10
19.566094
 20
284.30636
 30
0.0
 11
19.566094
 21
293.639693
 31
0.0
 12
47.566094
 22
288.973027
 32
0.0
 13
47.566094
 23
288.973027
 33
0.0
  0
MTEXT
  5
AF
330
A9
100
AcDbEntity
  8
LC-004-003-----0
 62
     2
100
AcDbMText
 10
-12.933906
 20
319.773027
 30
0.0
 40
28.0
 41
0.0
 71
     5
 72
     1
  1
\A1;%%c120
  7
LCTX15-400-0-0pDIN-Schrift
 73
     1
 44
1.0
  0
POINT
  5
B0
330
A9
100
AcDbEntity
  8
Defpoints
 62
     0
100
AcDbPoint
 10
-73.433906
 20
266.705343
 30
0.0
  0
POINT
  5
B1
330
A9
100
AcDbEntity
  8
Defpoints
 62
     0
100
AcDbPoint
 10
47.566094
 20
266.705343
 30
0.0
  0
POINT
  5
B2
330
A9
100
AcDbEntity
  8
Defpoints
 62
     0
100
AcDbPoint
 10
47.566094
 20
288.973027
 30
0.0
  0
ENDBLK
  5
B4
330
A9
100
AcDbEntity
  8
0
100
AcDbBlockEnd
  0
BLOCK
  5
C2
330
B6
100
AcDbEntity
  8
0
100
AcDbBlockBegin
  2
*D4
 70
     1
 71
     0
 10
0.0
 20
0.0
 30
0.0
  3
*D4
  1

  0
LINE
  5
B7
330
B6
100
AcDbEntity
  8
LC-004-003-----0
 62
     2
370
    -2
100
AcDbLine
 10
-71.933906
 20
268.705343
 30
0.0
 11
-94.853293
 21
268.705343
 31
0.0
  0
LINE
  5
B8
330
B6
100
AcDbEntity
  8
LC-004-003-----0
 62
     2
370
    -2
100
AcDbLine
 10
-70.433906
 20
262.505343
 30
0.0
 11
-94.853293
 21
262.505343
 31
0.0
  0
LINE
  5
B9
330
B6
100
AcDbEntity
  8
LC-004-003-----0
 62
     2
370
    -2
100
AcDbLine
 10
-91.253293
 20
296.705343
 30
0.0
 11
-91.253293
 21
324.705343
 31
0.0
  0
LINE
  5
BA
330
B6
100
AcDbEntity
  8
LC-004-003-----0
 62
     2
370
    -2
100
AcDbLine
 10
-91.253293
 20
234.505343
 30
0.0
 11
-91.253293
 21
206.505343
 31
0.0
  0
LINE
  5
BB
330
B6
100
AcDbEntity
  8
LC-004-003-----0
 62
     2
370
    -2
100
AcDbLine
 10
-91.253293
 20
268.705343
 30
0.0
 11
-91.253293
 21
262.505343
 31
0.0
  0
SOLID
  5
BC
330
B6
100
AcDbEntity
  8
LC-004-003-----0
 62
     2
100
AcDbTrace
 10
-95.91996
 20
296.705343
 30
0.0
 11
-86.586626
 21
296.705343
 31
0.0
 12
-91.253293
 22
268.705343
 32
0.0
 13
-91.253293
 23
268.705343
 33
0.0
  0
SOLID
  5
BD
330
B6
100
AcDbEntity
  8
LC-004-003-----0
 62
     2
100
AcDbTrace
 10
-86.586626
 20
234.505343
 30
0.0
 11
-95.91996
 21
234.505343
 31
0.0
 12
-91.253293
 22
262.505343
 32
0.0
 13
-91.253293
 23
262.505343
 33
0.0
  0
MTEXT
  5
BE
330
B6
100
AcDbEntity
  8
LC-004-003-----0
 62
     2
100
AcDbMText
 10
-122.053293
 20
265.605343
 30
0.0
 40
28.0
 41
0.0
 71
     5
 72
     1
  1
\A1;6,2
  7
LCTX15-400-0-0pDIN-Schrift
 11
6.123031769111886E-17
 21
1.0
 31
0.0
 73
     1
 44
1.0
  0
POINT
  5
BF
330
B6
100
AcDbEntity
  8
Defpoints
 62
     0
100
AcDbPoint
 10
-71.933906
 20
268.705343
 30
0.0
  0
POINT
  5
C0
330
B6
100
AcDbEntity
  8
Defpoints
 62
     0
100
AcDbPoint
 10
-70.433906
 20
262.505343
 30
0.0
  0
POINT
  5
C1
330
B6
100
AcDbEntity
  8
Defpoints
 62
     0
100
AcDbPoint
 10
-91.253293
 20
262.505343
 30
0.0
  0
ENDBLK
  5
C3
330
B6
100
AcDbEntity
  8
0
100
AcDbBlockEnd
  0
ENDSEC
  0
SECTION
  2
ENTITIES
  0
LINE
  5
33
330
1F
100
AcDbEntity
  8
LC-001-002-----0
 62
     7
370
    25
100
AcDbLine
 10
-12.933906
 20
269.311464
 30
0.0
 11
-12.933906
 21
250.602873
 31
0.0
  0
ARC
  5
35
102
{ACAD_REACTORS
330
C4
102
}
330
1F
100
AcDbEntity
  8
LC-002-002-RND-0
 62
     7
370
    50
100
AcDbCircle
 10
42.566094
 20
261.507075
 30
0.0
 40
0.5000000000000339
100
AcDbArc
 50
112.0
 51
180.0
  0
ARC
  5
36
102
{ACAD_REACTORS
330
C4
102
}
330
1F
100
AcDbEntity
  8
LC-002-002-RND-0
 62
     7
370
    50
100
AcDbCircle
 10
42.566094
 20
261.507075
 30
0.0
 40
1.20000000000006
100
AcDbArc
 50
112.0
 51
180.0
  0
LINE
  5
37
102
{ACAD_REACTORS
330
C4
102
}
330
1F
100
AcDbEntity
  8
LC-001-002-----0
  6
ByBlock
 62
     7
370
    50
100
AcDbLine
 10
-68.246602
 20
261.970667
 30
0.0
 11
-69.569972
 21
262.505343
 31
0.0
  0
LINE
  5
38
102
{ACAD_REACTORS
330
C4
102
}
330
1F
100
AcDbEntity
  8
LC-001-002-----0
  6
ByBlock
 62
     7
370
    50
100
AcDbLine
 10
-67.984378
 20
262.619695
 30
0.0
 11
-69.433906
 21
263.205343
 31
0.0
  0
ARC
  5
39
102
{ACAD_REACTORS
330
C4
102
}
330
1F
100
AcDbEntity
  8
LC-002-002-RND-0
 62
     7
370
    50
100
AcDbCircle
 10
-68.433906
 20
261.507075
 30
0.0
 40
1.199999999999989
100
AcDbArc
 50
0.0
 51
68.0
  0
ARC
  5
3A
102
{ACAD_REACTORS
330
C4
102
}
330
1F
100
AcDbEntity
  8
LC-002-002-RND-0
 62
     7
370
    50
100
AcDbCircle
 10
-68.433906
 20
261.507075
 30
0.0
 40
0.5
100
AcDbArc
 50
360.0
 51
68.0
  0
CIRCLE
  5
3B
330
1F
100
AcDbEntity
  8
LC-001-002-----0
  6
ByBlock
 62
     7
370
    50
100
AcDbCircle
 10
197.554219
 20
261.033
 30
0.0
 40
54.29999999999984
  0
CIRCLE
  5
3C
330
1F
100
AcDbEntity
  8
LC-001-002-----0
  6
ByBlock
 62
     7
370
    50
100
AcDbCircle
 10
197.554219
 20
261.033
 30
0.0
 40
57.99999999999989
  0
CIRCLE
  5
3D
330
1F
100
AcDbEntity
  8
LC-001-002-----0
  6
ByBlock
 62
     7
370
    50
100
AcDbCircle
 10
197.554219
 20
261.033
 30
0.0
 40
60.50000000000006
  0
ARC
  5
3E
102
{ACAD_REACTORS
330
C4
102
}
330
1F
100
AcDbEntity
  8
LC-001-002-----0
  6
ByBlock
 62
     7
370
    50
100
AcDbCircle
 10
46.066094
 20
267.705343
 30
0.0
 40
1.000000000000057
100
AcDbArc
 50
90.0
 51
180.0
  0
CIRCLE
  5
3F
330
1F
100
AcDbEntity
  8
LC-001-002-----0
  6
ByBlock
 62
     7
370
    50
100
AcDbCircle
 10
197.554219
 20
261.033
 30
0.0
 40
56.36393378360378
  0
LINE
  5
40
102
{ACAD_REACTORS
330
C4
102
}
330
1F
100
AcDbEntity
  8
LC-001-002-----0
  6
ByBlock
 62
     7
370
    50
100
AcDbLine
 10
46.566094
 20
268.705343
 30
0.0
 11
46.066094
 21
268.705343
 31
0.0
  0
LINE
  5
41
102
{ACAD_REACTORS
330
C4
102
}
330
1F
100
AcDbEntity
  8
LC-001-002-----0
  6
ByBlock
 62
     7
370
    50
100
AcDbLine
 10
44.566094
 20
262.505343
 30
0.0
 11
43.70216
 21
262.505343
 31
0.0
  0
ARC
  5
42
102
{ACAD_REACTORS
330
C4
102
}
330
1F
100
AcDbEntity
  8
LC-002-002-RND-0
 62
     7
370
    50
100
AcDbCircle
 10
44.566094
 20
263.705343
 30
0.0
 40
1.199999999999932
100
AcDbArc
 50
270.0
 51
0.0
  0
LINE
  5
43
102
{ACAD_REACTORS
330
C4
102
}
330
1F
100
AcDbEntity
  8
LC-001-002-----0
  6
ByBlock
 62
     7
370
    50
100
AcDbLine
 10
44.566094
 20
263.205343
 30
0.0
 11
43.566094
 21
263.205343
 31
0.0
  0
ARC
  5
44
102
{ACAD_REACTORS
330
C4
102
}
330
1F
100
AcDbEntity
  8
LC-002-002-RND-0
 62
     7
370
    50
100
AcDbCircle
 10
44.566094
 20
263.705343
 30
0.0
 40
0.5
100
AcDbArc
 50
270.0
 51
0.0
  0
LINE
  5
45
102
{ACAD_REACTORS
330
C4
102
}
330
1F
100
AcDbEntity
  8
LC-001-002-----0
  6
ByBlock
 62
     7
370
    50
100
AcDbLine
 10
-70.433906
 20
262.505343
 30
0.0
 11
-69.569972
 21
262.505343
 31
0.0
  0
ARC
  5
46
102
{ACAD_REACTORS
330
C4
102
}
330
1F
100
AcDbEntity
  8
LC-002-002-RND-0
 62
     7
370
    50
100
AcDbCircle
 10
-70.433906
 20
263.705343
 30
0.0
 40
1.199999999999989
100
AcDbArc
 50
180.0
 51
270.0
  0
CIRCLE
  5
47
330
1F
100
AcDbEntity
  8
LC-001-002-----0
  6
ByBlock
 62
     7
370
    50
100
AcDbCircle
 10
197.554219
 20
261.033
 30
0.0
 40
50.99999999971345
  0
CIRCLE
  5
48
330
1F
100
AcDbEntity
  8
LC-001-002-----0
  6
ByBlock
 62
     7
370
    50
100
AcDbCircle
 10
197.554219
 20
261.033
 30
0.0
 40
50.28018087655664
  0
ARC
  5
49
102
{ACAD_REACTORS
330
C4
102
}
330
1F
100
AcDbEntity
  8
LC-002-002-RND-0
 62
     7
370
    50
100
AcDbCircle
 10
-70.433906
 20
263.705343
 30
0.0
 40
0.5
100
AcDbArc
 50
180.0
 51
270.0
  0
ARC
  5
4A
102
{ACAD_REACTORS
330
C4
102
}
330
1F
100
AcDbEntity
  8
LC-002-002-RND-0
 62
     7
370
    50
100
AcDbCircle
 10
-66.733906
 20
260.460957
 30
0.0
 40
0.5
100
AcDbArc
 50
180.0
 51
270.0
  0
LINE
  5
4B
102
{ACAD_REACTORS
330
C4
102
}
330
1F
100
AcDbEntity
  8
LC-001-002-----0
  6
ByBlock
 62
     7
370
    50
100
AcDbLine
 10
-71.633906
 20
263.705343
 30
0.0
 11
-71.633906
 21
267.705343
 31
0.0
  0
LINE
  5
4C
102
{ACAD_REACTORS
330
C4
102
}
330
1F
100
AcDbEntity
  8
LC-001-002-----0
  6
ByBlock
 62
     7
370
    50
100
AcDbLine
 10
-70.933906
 20
263.705343
 30
0.0
 11
-70.933906
 21
267.705343
 31
0.0
  0
ARC
  5
4D
102
{ACAD_REACTORS
330
C4
102
}
330
1F
100
AcDbEntity
  8
LC-002-002-RND-0
 62
     7
370
    50
100
AcDbCircle
 10
-66.733906
 20
260.460957
 30
0.0
 40
1.199999999999989
100
AcDbArc
 50
180.0
 51
270.0
  0
LINE
  5
4E
102
{ACAD_REACTORS
330
C4
102
}
330
1F
100
AcDbEntity
  8
LC-001-002-----0
  6
ByBlock
 62
     7
370
    50
100
AcDbLine
 10
-65.133906
 20
259.260957
 30
0.0
 11
-66.733906
 21
259.260957
 31
0.0
  0
LINE
  5
4F
102
{ACAD_REACTORS
330
C4
102
}
330
1F
100
AcDbEntity
  8
LC-001-002-----0
  6
ByBlock
 62
     7
370
    50
100
AcDbLine
 10
-67.233906
 20
261.507075
 30
0.0
 11
-67.233906
 21
260.460957
 31
0.0
  0
LINE
  5
50
102
{ACAD_REACTORS
330
C4
102
}
330
1F
100
AcDbEntity
  8
LC-001-002-----0
  6
ByBlock
 62
     7
370
    50
100
AcDbLine
 10
-67.933906
 20
261.507075
 30
0.0
 11
-67.933906
 21
260.460957
 31
0.0
  0
ARC
  5
51
102
{ACAD_REACTORS
330
C4
102
}
330
1F
100
AcDbEntity
  8
LC-002-002-RND-0
 62
     7
370
    50
100
AcDbCircle
 10
40.866094
 20
260.460957
 30
0.0
 40
0.5
100
AcDbArc
 50
270.0
 51
0.0
  0
LINE
  5
52
102
{ACAD_REACTORS
330
C4
102
}
330
1F
100
AcDbEntity
  8
LC-001-002-----0
  6
ByBlock
 62
     7
370
    50
100
AcDbLine
 10
45.766094
 20
263.705343
 30
0.0
 11
45.766094
 21
267.705343
 31
0.0
  0
LINE
  5
53
102
{ACAD_REACTORS
330
C4
102
}
330
1F
100
AcDbEntity
  8
LC-001-002-----0
  6
ByBlock
 62
     7
370
    50
100
AcDbLine
 10
43.566094
 20
263.205343
 30
0.0
 11
-12.933906
 21
263.205343
 31
0.0
  0
LINE
  5
54
102
{ACAD_REACTORS
330
C4
102
}
330
1F
100
AcDbEntity
  8
LC-001-002-----0
  6
ByBlock
 62
     7
370
    50
100
AcDbLine
 10
-72.433906
 20
268.705343
 30
0.0
 11
46.066094
 21
268.705343
 31
0.0
  0
LINE
  5
55
102
{ACAD_REACTORS
330
C4
102
}
330
1F
100
AcDbEntity
  8
LC-001-002-----0
  6
ByBlock
 62
     7
370
    50
100
AcDbLine
 10
-70.433906
 20
263.205343
 30
0.0
 11
-69.433906
 21
263.205343
 31
0.0
  0
LINE
  5
56
102
{ACAD_REACTORS
330
C4
102
}
330
1F
100
AcDbEntity
  8
LC-001-002-----0
  6
ByBlock
 62
     7
370
    50
100
AcDbLine
 10
-12.933906
 20
259.960957
 30
0.0
 11
-65.133906
 21
259.960957
 31
0.0
  0
LINE
  5
57
102
{ACAD_REACTORS
330
C4
102
}
330
1F
100
AcDbEntity
  8
LC-001-002-----0
  6
ByBlock
 62
     7
370
    50
100
AcDbLine
 10
45.066094
 20
263.705343
 30
0.0
 11
45.066094
 21
267.705343
 31
0.0
  0
LINE
  5
58
102
{ACAD_REACTORS
330
C4
102
}
330
1F
100
AcDbEntity
  8
LC-001-002-----0
  6
ByBlock
 62
     7
370
    50
100
AcDbLine
 10
-63.214087
 20
250.602873
 30
0.0
 11
-12.933906
 21
250.602873
 31
0.0
  0
LINE
  5
59
102
{ACAD_REACTORS
330
C4
102
}
330
1F
100
AcDbEntity
  8
LC-001-002-----0
  6
ByBlock
 62
     7
370
    50
100
AcDbLine
 10
-63.874387
 20
250.357271
 30
0.0
 11
-12.933906
 21
250.357271
 31
0.0
  0
LINE
  5
5A
102
{ACAD_REACTORS
330
C4
102
}
330
1F
100
AcDbEntity
  8
LC-001-002-----0
  6
ByBlock
 62
     7
370
    50
100
AcDbLine
 10
-69.433906
 20
263.205343
 30
0.0
 11
-12.933906
 21
263.205343
 31
0.0
  0
LINE
  5
5B
102
{ACAD_REACTORS
330
C4
102
}
330
1F
100
AcDbEntity
  8
LC-001-002-----0
  6
ByBlock
 62
     7
370
    50
100
AcDbLine
 10
-65.133906
 20
259.960957
 30
0.0
 11
-66.733906
 21
259.960957
 31
0.0
  0
LINE
  5
5C
102
{ACAD_REACTORS
330
C4
102
}
330
1F
100
AcDbEntity
  8
LC-001-002-----0
  6
ByBlock
 62
     7
370
    50
100
AcDbLine
 10
36.016883
 20
250.602873
 30
0.0
 11
-12.933906
 21
250.602873
 31
0.0
  0
LINE
  5
5D
102
{ACAD_REACTORS
330
C4
102
}
330
1F
100
AcDbEntity
  8
LC-001-002-----0
  6
ByBlock
 62
     7
370
    50
100
AcDbLine
 10
37.346275
 20
250.602873
 30
0.0
 11
-12.933906
 21
250.602873
 31
0.0
  0
LINE
  5
5E
102
{ACAD_REACTORS
330
C4
102
}
330
1F
100
AcDbEntity
  8
LC-001-002-----0
  6
ByBlock
 62
     7
370
    50
100
AcDbLine
 10
39.266094
 20
259.960957
 30
0.0
 11
40.866094
 21
259.960957
 31
0.0
  0
LINE
  5
5F
102
{ACAD_REACTORS
330
C4
102
}
330
1F
100
AcDbEntity
  8
LC-001-002-----0
  6
ByBlock
 62
     7
370
    50
100
AcDbLine
 10
38.129814
 20
253.93277
 30
0.0
 11
38.066094
 21
253.93277
 31
0.0
  0
LINE
  5
60
102
{ACAD_REACTORS
330
C4
102
}
330
1F
100
AcDbEntity
  8
LC-001-002-----0
  6
ByBlock
 62
     7
370
    50
100
AcDbLine
 10
38.006576
 20
250.357271
 30
0.0
 11
-12.933906
 21
250.357271
 31
0.0
  0
LINE
  5
61
102
{ACAD_REACTORS
330
C4
102
}
330
1F
100
AcDbEntity
  8
LC-001-002-----0
  6
ByBlock
 62
     7
370
    50
100
AcDbLine
 10
42.116566
 20
262.619695
 30
0.0
 11
43.566094
 21
263.205343
 31
0.0
  0
LINE
  5
62
102
{ACAD_REACTORS
330
C4
102
}
330
1F
100
AcDbEntity
  8
LC-001-002-----0
  6
ByBlock
 62
     7
370
    50
100
AcDbLine
 10
42.378791
 20
261.970667
 30
0.0
 11
43.70216
 21
262.505343
 31
0.0
  0
ARC
  5
63
102
{ACAD_REACTORS
330
C4
102
}
330
1F
100
AcDbEntity
  8
LC-002-002-RND-0
 62
     7
370
    50
100
AcDbCircle
 10
40.866094
 20
260.460957
 30
0.0
 40
1.200000000000046
100
AcDbArc
 50
270.0
 51
0.0
  0
LINE
  5
64
102
{ACAD_REACTORS
330
C4
102
}
330
1F
100
AcDbEntity
  8
LC-001-002-----0
  6
ByBlock
 62
     7
370
    50
100
AcDbLine
 10
39.266094
 20
259.260957
 30
0.0
 11
40.866094
 21
259.260957
 31
0.0
  0
LINE
  5
65
102
{ACAD_REACTORS
330
C4
102
}
330
1F
100
AcDbEntity
  8
LC-001-002-----0
  6
ByBlock
 62
     7
370
    50
100
AcDbLine
 10
-12.933906
 20
259.960957
 30
0.0
 11
39.266094
 21
259.960957
 31
0.0
  0
LINE
  5
66
102
{ACAD_REACTORS
330
C4
102
}
330
1F
100
AcDbEntity
  8
LC-001-002-----0
  6
ByBlock
 62
     7
370
    50
100
AcDbLine
 10
41.366094
 20
261.507075
 30
0.0
 11
41.366094
 21
260.460957
 31
0.0
  0
LINE
  5
67
102
{ACAD_REACTORS
330
C4
102
}
330
1F
100
AcDbEntity
  8
LC-001-002-----0
  6
ByBlock
 62
     7
370
    50
100
AcDbLine
 10
42.066094
 20
261.507075
 30
0.0
 11
42.066094
 21
260.460957
 31
0.0
  0
LINE
  5
68
102
{ACAD_REACTORS
330
C4
102
}
330
1F
100
AcDbEntity
  8
LC-001-002-----0
  6
ByBlock
 62
     7
370
    50
100
AcDbLine
 10
47.566094
 20
266.705343
 30
0.0
 11
47.566094
 21
267.705343
 31
0.0
  0
ARC
  5
69
102
{ACAD_REACTORS
330
C4
102
}
330
1F
100
AcDbEntity
  8
LC-001-002-----0
  6
ByBlock
 62
     7
370
    50
100
AcDbCircle
 10
46.566094
 20
267.705343
 30
0.0
 40
1.0
100
AcDbArc
 50
0.0
 51
90.0
  0
ARC
  5
6A
102
{ACAD_REACTORS
330
C4
102
}
330
1F
100
AcDbEntity
  8
LC-002-002-RND-0
 62
     7
370
    50
100
AcDbCircle
 10
46.566094
 20
267.705343
 30
0.0
 40
0.3000000000000114
100
AcDbArc
 50
0.0
 51
90.0
  0
LINE
  5
6B
102
{ACAD_REACTORS
330
C4
102
}
330
1F
100
AcDbEntity
  8
LC-001-002-----0
  6
ByBlock
 62
     7
370
    50
100
AcDbLine
 10
46.866094
 20
266.705343
 30
0.0
 11
46.866094
 21
267.705343
 31
0.0
  0
LINE
  5
6C
102
{ACAD_REACTORS
330
C4
102
}
330
1F
100
AcDbEntity
  8
LC-001-002-----0
  6
ByBlock
 62
     7
370
    50
100
AcDbLine
 10
46.066094
 20
268.005343
 30
0.0
 11
46.566094
 21
268.005343
 31
0.0
  0
ARC
  5
6D
102
{ACAD_REACTORS
330
C4
102
}
330
1F
100
AcDbEntity
  8
LC-002-002-RND-0
 62
     7
370
    50
100
AcDbCircle
 10
46.066094
 20
267.705343
 30
0.0
 40
0.2999999999999545
100
AcDbArc
 50
90.0
 51
180.0
  0
LINE
  5
6E
102
{ACAD_REACTORS
330
C4
102
}
330
1F
100
AcDbEntity
  8
LC-001-002-----0
  6
ByBlock
 62
     7
370
    50
100
AcDbLine
 10
45.766094
 20
266.705343
 30
0.0
 11
47.566094
 21
266.705343
 31
0.0
  0
ARC
  5
6F
102
{ACAD_REACTORS
330
C4
102
}
330
1F
100
AcDbEntity
  8
LC-001-002-----0
  6
ByBlock
 62
     7
370
    50
100
AcDbCircle
 10
-71.933906
 20
267.705343
 30
0.0
 40
1.000000000000057
100
AcDbArc
 50
0.0
 51
90.0
  0
LINE
  5
70
102
{ACAD_REACTORS
330
C4
102
}
330
1F
100
AcDbEntity
  8
LC-001-002-----0
  6
ByBlock
 62
     7
370
    50
100
AcDbLine
 10
-73.433906
 20
266.705343
 30
0.0
 11
-73.433906
 21
267.705343
 31
0.0
  0
ARC
  5
71
102
{ACAD_REACTORS
330
C4
102
}
330
1F
100
AcDbEntity
  8
LC-001-002-----0
  6
ByBlock
 62
     7
370
    50
100
AcDbCircle
 10
-72.433906
 20
267.705343
 30
0.0
 40
1.0
100
AcDbArc
 50
90.0
 51
180.0
  0
ARC
  5
72
102
{ACAD_REACTORS
330
C4
102
}
330
1F
100
AcDbEntity
  8
LC-002-002-RND-0
 62
     7
370
    50
100
AcDbCircle
 10
-72.433906
 20
267.705343
 30
0.0
 40
0.3000000000000682
100
AcDbArc
 50
90.0
 51
180.0
  0
LINE
  5
73
102
{ACAD_REACTORS
330
C4
102
}
330
1F
100
AcDbEntity
  8
LC-001-002-----0
  6
ByBlock
 62
     7
370
    50
100
AcDbLine
 10
-72.733906
 20
266.705343
 30
0.0
 11
-72.733906
 21
267.705343
 31
0.0
  0
LINE
  5
74
102
{ACAD_REACTORS
330
C4
102
}
330
1F
100
AcDbEntity
  8
LC-001-002-----0
  6
ByBlock
 62
     7
370
    50
100
AcDbLine
 10
-71.933906
 20
268.005343
 30
0.0
 11
-72.433906
 21
268.005343
 31
0.0
  0
ARC
  5
75
102
{ACAD_REACTORS
330
C4
102
}
330
1F
100
AcDbEntity
  8
LC-002-002-RND-0
 62
     7
370
    50
100
AcDbCircle
 10
-71.933906
 20
267.705343
 30
0.0
 40
0.3000000000000114
100
AcDbArc
 50
0.0
 51
90.0
  0
LINE
  5
76
102
{ACAD_REACTORS
330
C4
102
}
330
1F
100
AcDbEntity
  8
LC-001-002-----0
  6
ByBlock
 62
     7
370
    50
100
AcDbLine
 10
-71.633906
 20
266.705343
 30
0.0
 11
-73.433906
 21
266.705343
 31
0.0
  0
LINE
  5
77
330
1F
100
AcDbEntity
  8
LC-001-002-----0
  6
ByBlock
 62
     7
370
    50
100
AcDbLine
 10
38.766094
 20
254.438522
 30
0.0
 11
38.766094
 21
258.760957
 31
0.0
  0
LINE
  5
78
330
1F
100
AcDbEntity
  8
LC-001-002-----0
  6
ByBlock
 62
     7
370
    50
100
AcDbLine
 10
38.066094
 20
253.93277
 30
0.0
 11
38.066094
 21
258.760957
 31
0.0
  0
ARC
  5
79
330
1F
100
AcDbEntity
  8
LC-002-002-RND-0
 62
     7
370
    50
100
AcDbCircle
 10
39.266094
 20
258.760957
 30
0.0
 40
0.5
100
AcDbArc
 50
90.0
 51
180.0
  0
ARC
  5
7A
330
1F
100
AcDbEntity
  8
LC-002-002-RND-0
 62
     7
370
    50
100
AcDbCircle
 10
39.266094
 20
258.760957
 30
0.0
 40
1.199999999999932
100
AcDbArc
 50
90.0
 51
180.0
  0
ARC
  5
7B
330
1F
100
AcDbEntity
  8
LC-001-002-----0
  6
ByBlock
 62
     7
370
    50
100
AcDbCircle
 10
38.025427
 20
253.625249
 30
0.0
 40
1.099999999999996
100
AcDbArc
 50
340.0
 51
47.675111
  0
ARC
  5
7C
330
1F
100
AcDbEntity
  8
LC-002-002-RND-0
 62
     7
370
    50
100
AcDbCircle
 10
38.129814
 20
253.63277
 30
0.0
 40
0.2999999999999203
100
AcDbArc
 50
340.0
 51
90.0
  0
LINE
  5
7D
330
1F
100
AcDbEntity
  8
LC-001-002-----0
  6
ByBlock
 62
     7
370
    50
100
AcDbLine
 10
39.059089
 20
253.249027
 30
0.0
 11
38.006576
 21
250.357271
 31
0.0
  0
LINE
  5
7E
330
1F
100
AcDbEntity
  8
LC-001-002-----0
  6
ByBlock
 62
     7
370
    50
100
AcDbLine
 10
38.411722
 20
253.530164
 30
0.0
 11
37.346275
 21
250.602873
 31
0.0
  0
LINE
  5
7F
330
1F
100
AcDbEntity
  8
LC-001-002-----0
  6
ByBlock
 62
     7
370
    50
100
AcDbLine
 10
37.344581
 20
250.598217
 30
0.0
 11
38.006576
 21
250.357271
 31
0.0
  0
LINE
  5
80
330
1F
100
AcDbEntity
  8
LC-001-002-----0
  6
ByBlock
 62
     7
370
    50
100
AcDbLine
 10
-64.633906
 20
254.438522
 30
0.0
 11
-64.633906
 21
258.760957
 31
0.0
  0
LINE
  5
81
330
1F
100
AcDbEntity
  8
LC-001-002-----0
  6
ByBlock
 62
     7
370
    50
100
AcDbLine
 10
-63.933906
 20
253.93277
 30
0.0
 11
-63.933906
 21
258.760957
 31
0.0
  0
ARC
  5
82
330
1F
100
AcDbEntity
  8
LC-002-002-RND-0
 62
     7
370
    50
100
AcDbCircle
 10
-65.133906
 20
258.760957
 30
0.0
 40
0.5
100
AcDbArc
 50
0.0
 51
90.0
  0
ARC
  5
83
330
1F
100
AcDbEntity
  8
LC-002-002-RND-0
 62
     7
370
    50
100
AcDbCircle
 10
-65.133906
 20
258.760957
 30
0.0
 40
1.199999999999989
100
AcDbArc
 50
360.0
 51
90.0
  0
ARC
  5
84
330
1F
100
AcDbEntity
  8
LC-001-002-----0
  6
ByBlock
 62
     7
370
    50
100
AcDbCircle
 10
-63.893239
 20
253.625249
 30
0.0
 40
1.100000000000049
100
AcDbArc
 50
132.324889
 51
200.0
  0
ARC
  5
85
330
1F
100
AcDbEntity
  8
LC-002-002-RND-0
 62
     7
370
    50
100
AcDbCircle
 10
-63.997626
 20
253.63277
 30
0.0
 40
0.2999999999999545
100
AcDbArc
 50
90.0
 51
200.0
  0
LINE
  5
86
330
1F
100
AcDbEntity
  8
LC-001-002-----0
  6
ByBlock
 62
     7
370
    50
100
AcDbLine
 10
-64.279534
 20
253.530164
 30
0.0
 11
-63.214087
 21
250.602873
 31
0.0
  0
LINE
  5
87
330
1F
100
AcDbEntity
  8
LC-001-002-----0
  6
ByBlock
 62
     7
370
    50
100
AcDbLine
 10
-64.926901
 20
253.249027
 30
0.0
 11
-63.874387
 21
250.357271
 31
0.0
  0
LINE
  5
88
330
1F
100
AcDbEntity
  8
LC-001-002-----0
  6
ByBlock
 62
     7
370
    50
100
AcDbLine
 10
-63.212392
 20
250.598217
 30
0.0
 11
-63.874387
 21
250.357271
 31
0.0
  0
LINE
  5
89
330
1F
100
AcDbEntity
  8
LC-001-002-----0
  6
ByBlock
 62
     7
370
    50
100
AcDbLine
 10
-63.997626
 20
253.93277
 30
0.0
 11
-12.933906
 21
253.93277
 31
0.0
  0
LINE
  5
8A
102
{ACAD_REACTORS
330
C4
102
}
330
1F
100
AcDbEntity
  8
LC-001-002-----0
  6
ByBlock
 62
     7
370
    50
100
AcDbLine
 10
38.066094
 20
253.93277
 30
0.0
 11
-12.933906
 21
253.93277
 31
0.0
  0
INSERT
  5
96
330
1F
100
AcDbEntity
  8
LC-003-005-----0
 62
     7
370
    25
100
AcDbBlockReference
  2
*X11
 10
0.0
 20
0.0
 30
0.0
  0
INSERT
  5
A4
330
1F
100
AcDbEntity
  8
LC-003-005-----0
 62
     7
370
    25
100
AcDbBlockReference
  2
*X22
 10
0.0
 20
0.0
 30
0.0
  0
DIMENSION
  5
A7
330
1F
100
AcDbEntity
  8
LC-004-003-----0
 62
     7
370
    25
100
AcDbDimension
  2
*D3
 10
47.566094
 20
288.973027
 30
0.0
 11
-12.933906
 21
319.773027
 31
0.0
 70
   160
  1
%%c120
 71
     5
 42
121.0
  3
LC-DIM-L-0140-02-02
100
AcDbAlignedDimension
 13
-73.433906
 23
266.705343
 33
0.0
 14
47.566094
 24
266.705343
 34
0.0
100
AcDbRotatedDimension
  0
DIMENSION
  5
B5
330
1F
100
AcDbEntity
  8
LC-004-003-----0
 62
     7
370
    25
100
AcDbDimension
  2
*D4
 10
-91.253293
 20
262.505343
 30
0.0
 11
-122.053293
 21
265.605343
 31
0.0
 70
   160
 71
     5
 42
6.2
 53
90.0
  3
LC-DIM-L-0140-02-02
100
AcDbAlignedDimension
 13
-71.933906
 23
268.705343
 33
0.0
 14
-70.433906
 24
262.505343
 34
0.0
 50
90.0
100
AcDbRotatedDimension
  0
ENDSEC
  0
SECTION
  2
OBJECTS
  0
DICTIONARY
  5
C
330
0
100
AcDbDictionary
281
     1
  3
ACAD_GROUP
350
D
  3
ACAD_LAYOUT
350
1A
  3
ACAD_MLINESTYLE
350
17
  3
ACAD_PLOTSETTINGS
350
19
  3
ACAD_PLOTSTYLENAME
350
E
  0
DICTIONARY
  5
D
102
{ACAD_REACTORS
330
C
102
}
330
C
100
AcDbDictionary
281
     1
  3
LCGROUP328
350
C4
  0
DICTIONARY
  5
1A
102
{ACAD_REACTORS
330
C
102
}
330
C
100
AcDbDictionary
281
     1
  3
Layout1
350
1E
  3
Layout2
350
26
  3
Model
350
22
  0
DICTIONARY
  5
17
102
{ACAD_REACTORS
330
C
102
}
330
C
100
AcDbDictionary
281
     1
  3
Standard
350
18
  0
DICTIONARY
  5
19
102
{ACAD_REACTORS
330
C
102
}
330
C
100
AcDbDictionary
281
     1
  0
ACDBDICTIONARYWDFLT
  5
E
102
{ACAD_REACTORS
330
C
102
}
330
C
100
AcDbDictionary
281
     1
  3
Normal
350
F
100
AcDbDictionaryWithDefault
340
F
  0
GROUP
  5
C4
102
{ACAD_REACTORS
330
D
102
}
330
D
100
AcDbGroup
300
Rahmen SA
 70
     1
 71
     1
340
35
340
36
340
37
340
38
340
39
340
3A
340
3E
340
40
340
41
340
42
340
43
340
44
340
45
340
46
340
49
340
4A
340
4B
340
4C
340
4D
340
4E
340
4F
340
50
340
51
340
52
340
53
340
54
340
55
340
56
340
57
340
58
340
59
340
5A
340
5B
340
5C
340
5D
340
5E
340
5F
340
60
340
61
340
62
340
63
340
64
340
65
340
66
340
67
340
68
340
69
340
6A
340
6B
340
6C
340
6D
340
6E
340
6F
340
70
340
71
340
72
340
73
340
74
340
75
340
76
340
8A
  0
LAYOUT
  5
1E
102
{ACAD_REACTORS
330
1A
102
}
330
1A
100
AcDbPlotSettings
  1

  2

  4

  6

 40
0.0
 41
0.0
 42
0.0
 43
0.0
 44
0.0
 45
0.0
 46
0.0
 47
0.0
 48
0.0
 49
0.0
140
0.0
141
0.0
142
1.0
143
1.0
 70
   688
 72
     0
 73
     0
 74
     5
  7

 75
    16
147
1.0
148
0.0
149
0.0
100
AcDbLayout
  1
Layout1
 70
     1
 71
     1
 10
-319.159416
 20
-58.836
 11
520.840584
 21
535.164
 12
0.0
 22
0.0
 32
0.0
 14
-319.159416
 24
-58.836
 34
0.0
 15
520.840584
 25
535.164
 35
0.0
146
0.0
 13
0.0
 23
0.0
 33
0.0
 16
1.0
 26
0.0
 36
0.0
 17
0.0
 27
1.0
 37
0.0
 76
     0
330
1B
  0
LAYOUT
  5
26
102
{ACAD_REACTORS
330
1A
102
}
330
1A
100
AcDbPlotSettings
  1

  2

  4

  6

 40
0.0
 41
0.0
 42
0.0
 43
0.0
 44
0.0
 45
0.0
 46
0.0
 47
0.0
 48
0.0
 49
0.0
140
0.0
141
0.0
142
1.0
143
1.0
 70
   688
 72
     0
 73
     0
 74
     5
  7

 75
    16
147
1.0
148
0.0
149
0.0
100
AcDbLayout
  1
Layout2
 70
     1
 71
     2
 10
0.0
 20
0.0
 11
0.0
 21
0.0
 12
0.0
 22
0.0
 32
0.0
 14
0.0
 24
0.0
 34
0.0
 15
0.0
 25
0.0
 35
0.0
146
0.0
 13
0.0
 23
0.0
 33
0.0
 16
1.0
 26
0.0
 36
0.0
 17
0.0
 27
1.0
 37
0.0
 76
     0
330
23
  0
LAYOUT
  5
22
102
{ACAD_REACTORS
330
1A
102
}
330
1A
100
AcDbPlotSettings
  1

  2

  4

  6

 40
0.0
 41
0.0
 42
0.0
 43
0.0
 44
0.0
 45
0.0
 46
0.0
 47
0.0
 48
0.0
 49
0.0
140
0.0
141
0.0
142
1.0
143
1.0
 70
  1776
 72
     0
 73
     0
 74
     0
  7

 75
     0
147
1.0
148
0.0
149
0.0
100
AcDbLayout
  1
Model
 70
     1
 71
     0
 10
-319.159416
 20
-58.836
 11
520.840584
 21
535.164
 12
-109.159416
 22
89.664
 32
0.0
 14
-319.159416
 24
-58.836
 34
0.0
 15
520.840584
 25
535.164
 35
0.0
146
0.0
 13
0.0
 23
0.0
 33
0.0
 16
1.0
 26
0.0
 36
0.0
 17
0.0
 27
1.0
 37
0.0
 76
     0
330
1F
  0
MLINESTYLE
  5
18
102
{ACAD_REACTORS
330
17
102
}
330
17
100
AcDbMlineStyle
  2
Standard
 70
     0
  3

 62
   256
 51
90.0
 52
90.0
 71
     2
 49
0.5
 62
   256
  6
BYLAYER
 49
-0.5
 62
   256
  6
BYLAYER
  0
ACDBPLACEHOLDER
  5
F
102
{ACAD_REACTORS
330
E
102
}
330
E
  0
ENDSEC
  0
EOF
