  0
SECTION
  2
HEADER
  9
$ACADVER
  1
AC1009
  9
$INSBASE
 10
0.0
 20
0.0
 30
0.0
  9
$EXTMIN
 10
0.0
 20
0.0
 30
0.0
  9
$EXTMAX
 10
840.0
 20
594.0
 30
0.0
  9
$LIMMIN
 10
0.0
 20
0.0
  9
$LIMMAX
 10
840.0
 20
594.0
  9
$ORTHOMODE
 70
     0
  9
$REGENMODE
 70
     1
  9
$FILLMODE
 70
     1
  9
$QTEXTMODE
 70
     0
  9
$MIRRTEXT
 70
     1
  9
$DRAGMODE
 70
     2
  9
$LTSCALE
 40
2.0
  9
$OSMODE
 70
     0
  9
$ATTMODE
 70
     1
  9
$TEXTSIZE
 40
0.2
  9
$TRACEWID
 40
0.05
  9
$TEXTSTYLE
  7
STANDARD
  9
$CLAYER
  8
0
  9
$CELTYPE
  6
BYLAYER
  9
$CECOLOR
 62
     7
  9
$DIMSCALE
 40
2.0
  9
$DIMASZ
 40
3.5
  9
$DIMEXO
 40
0.0625
  9
$DIMDLI
 40
0.38
  9
$DIMRND
 40
0.0
  9
$DIMDLE
 40
0.0
  9
$DIMEXE
 40
0.18
  9
$DIMTP
 40
0.0
  9
$DIMTM
 40
0.0
  9
$DIMTXT
 40
3.5
  9
$DIMCEN
 40
0.09
  9
$DIMTSZ
 40
0.0
  9
$DIMTOL
 70
     0
  9
$DIMLIM
 70
     0
  9
$DIMTIH
 70
     1
  9
$DIMTOH
 70
     1
  9
$DIMSE1
 70
     0
  9
$DIMSE2
 70
     0
  9
$DIMTAD
 70
     1
  9
$DIMZIN
 70
     0
  9
$DIMBLK
  1

  9
$DIMASO
 70
     1
  9
$DIMSHO
 70
     1
  9
$DIMPOST
  1

  9
$DIMAPOST
  1

  9
$DIMALT
 70
     0
  9
$DIMALTD
 70
     2
  9
$DIMALTF
 40
25.4
  9
$DIMLFAC
 40
1.0
  9
$DIMTOFL
 70
     0
  9
$DIMTVP
 40
0.0
  9
$DIMTIX
 70
     0
  9
$DIMSOXD
 70
     0
  9
$DIMSAH
 70
     0
  9
$DIMBLK1
  1

  9
$DIMBLK2
  1

  9
$DIMSTYLE
  2
STANDARD
  9
$DIMCLRD
 70
     0
  9
$DIMCLRE
 70
     0
  9
$DIMCLRT
 70
     0
  9
$DIMTFAC
 40
1.0
  9
$DIMGAP
 40
0.09
  9
$LUNITS
 70
     2
  9
$LUPREC
 70
     2
  9
$AXISMODE
 70
     0
  9
$AXISUNIT
 10
0.0
 20
0.0
  9
$SKETCHINC
 40
0.1
  9
$FILLETRAD
 40
0.0
  9
$AUNITS
 70
     0
  9
$AUPREC
 70
     0
  9
$MENU
  1
acad
  9
$ELEVATION
 40
0.0
  9
$PELEVATION
 40
0.0
  9
$THICKNESS
 40
0.0
  9
$LIMCHECK
 70
     0
  9
$BLIPMODE
 70
     1
  9
$CHAMFERA
 40
0.0
  9
$CHAMFERB
 40
0.0
  9
$SKPOLY
 70
     0
  9
$TDCREATE
 40
0.000000000
  9
$TDUPDATE
 40
0.000000000
  9
$TDINDWG
 40
0.0000000000
  9
$TDUSRTIMER
 40
0.0000000000
  9
$USRTIMER
 70
     1
  9
$ANGBASE
 50
0.0
  9
$ANGDIR
 70
     0
  9
$PDMODE
 70
     0
  9
$PDSIZE
 40
0.0
  9
$PLINEWID
 40
0.0
  9
$COORDS
 70
     0
  9
$SPLFRAME
 70
     0
  9
$SPLINETYPE
 70
     6
  9
$SPLINESEGS
 70
     8
  9
$ATTDIA
 70
     0
  9
$ATTREQ
 70
     1
  9
$HANDLING
 70
     1
  9
$HANDSEED
  5
B7
  9
$SURFTAB1
 70
     6
  9
$SURFTAB2
 70
     6
  9
$SURFTYPE
 70
     6
  9
$SURFU
 70
     6
  9
$SURFV
 70
     6
  9
$UCSNAME
  2

  9
$UCSORG
 10
0.0
 20
0.0
 30
0.0
  9
$UCSXDIR
 10
1.0
 20
0.0
 30
0.0
  9
$UCSYDIR
 10
0.0
 20
1.0
 30
0.0
  9
$PUCSNAME
  2

  9
$PUCSORG
 10
0.0
 20
0.0
 30
0.0
  9
$PUCSXDIR
 10
1.0
 20
0.0
 30
0.0
  9
$PUCSYDIR
 10
0.0
 20
1.0
 30
0.0
  9
$USERI1
 70
     0
  9
$USERI2
 70
     0
  9
$USERI3
 70
     0
  9
$USERI4
 70
     0
  9
$USERI5
 70
     0
  9
$USERR1
 40
0.0
  9
$USERR2
 40
0.0
  9
$USERR3
 40
0.0
  9
$USERR4
 40
0.0
  9
$USERR5
 40
0.0
  9
$WORLDVIEW
 70
     1
  9
$SHADEDGE
 70
     3
  9
$SHADEDIF
 70
    70
  9
$TILEMODE
 70
     1
  9
$MAXACTVP
 70
    16
  9
$PINSBASE
 10
0.0
 20
0.0
 30
0.0
  9
$PLIMCHECK
 70
     0
  9
$PEXTMIN
 10
1.000000E+20
 20
1.000000E+20
 30
1.000000E+20
  9
$PEXTMAX
 10
-1.000000E+20
 20
-1.000000E+20
 30
-1.000000E+20
  9
$PLIMMIN
 10
0.0
 20
0.0
  9
$PLIMMAX
 10
840.0
 20
594.0
  9
$UNITMODE
 70
     0
  9
$VISRETAIN
 70
     0
  9
$PLINEGEN
 70
     1
  9
$PSLTSCALE
 70
     0
  9
$TREEDEPTH
 70
  3020
  9
$DWGCODEPAGE
  3
dos850
  0
ENDSEC
  0
SECTION
  2
TABLES
  0
TABLE
  2
VPORT
 70
     1
  0
VPORT
  2
*ACTIVE
 70
     0
 10
0.0
 20
0.0
 11
1.0
 21
1.0
 12
420.0
 22
297.0
 13
0.0
 23
0.0
 14
1.0
 24
1.0
 15
0.0
 25
0.0
 16
0.0
 26
0.0
 36
1.0
 17
0.0
 27
0.0
 37
0.0
 40
594.0
 41
1.604229
 42
50.0
 43
0.0
 44
0.0
 50
0.0
 51
0.0
 71
     0
 72
   100
 73
     1
 74
     1
 75
     0
 76
     0
 77
     0
 78
     0
  0
ENDTAB
  0
TABLE
  2
LTYPE
 70
     2
  0
LTYPE
  2
CONTINUOUS
 70
    64
  3
Solid line
 72
    65
 73
     0
 40
0.0
  0
LTYPE
  2
DASHDOT
 70
    64
  3
__ . __ . __ . __ . __
 72
    65
 73
     4
 40
7.5
 49
5.0
 49
-1.25
 49
0.0
 49
-1.25
  0
ENDTAB
  0
TABLE
  2
LAYER
 70
     9
  0
LAYER
  2
0
 70
     0
 62
     7
  6
CONTINUOUS
  0
LAYER
  2
LC-INFO-1-2-MM-A3-0
 70
     1
 62
    -1
  6
CONTINUOUS
  0
LAYER
  2
LC-003-005-----0
 70
     0
 62
     2
  6
CONTINUOUS
  0
LAYER
  2
LC-005-003-MTH-0
 70
     0
 62
     2
  6
CONTINUOUS
  0
LAYER
  2
LC-004-003-----0
 70
     0
 62
     2
  6
CONTINUOUS
  0
LAYER
  2
LC-006-003-MTG-0
 70
     0
 62
     2
  6
CONTINUOUS
  0
LAYER
  2
LC-001-002-----0
 70
     0
 62
     1
  6
CONTINUOUS
  0
LAYER
  2
LC-002-002-RND-0
 70
     0
 62
     1
  6
CONTINUOUS
  0
LAYER
  2
LC-000
 70
     0
 62
     7
  6
CONTINUOUS
  0
ENDTAB
  0
TABLE
  2
STYLE
 70
     3
  0
STYLE
  2
STANDARD
 70
     0
 40
0.0
 41
1.0
 50
0.0
 71
     0
 42
0.0
  3
txt
  4

  0
STYLE
  2
LC-TXTSTYLE-150-400-0-0-A1
 70
    64
 40
0.0
 41
1.0
 50
15.0
 71
     0
 42
3.5
  3
Arial
  4

  0
STYLE
  2
LC-STANDARD
 70
    64
 40
0.0
 41
1.0
 50
0.0
 71
     0
 42
3.5
  3
MONOTXT
  4

  0
ENDTAB
  0
TABLE
  2
VIEW
 70
     0
  0
ENDTAB
  0
TABLE
  2
UCS
 70
     0
  0
ENDTAB
  0
TABLE
  2
APPID
 70
     1
  0
APPID
  2
ACAD
 70
     0
  0
ENDTAB
  0
TABLE
  2
DIMSTYLE
 70
     3
  0
DIMSTYLE
  2
STANDARD
 70
     0
  3

  4

  5

  6

  7

 40
1.0
 41
0.18
 42
0.0625
 43
0.38
 44
0.18
 45
0.0
 46
0.0
 47
0.0
 48
0.0
 71
     0
 72
     0
 73
     1
 74
     1
 75
     0
 76
     0
 77
     0
 78
     0
140
0.18
141
0.09
142
0.0
143
25.4
144
1.0
145
0.0
146
1.0
147
0.09
170
     0
171
     2
172
     0
173
     0
174
     0
175
     0
176
     0
177
     0
178
     0
  0
DIMSTYLE
  2
LC-STANDARD
 70
     0
  3

  4

  5

  6

  7

 40
1.0
 41
3.5
 42
0.0
 43
7.5
 44
1.8
 45
0.0
 46
0.0
 47
0.0
 48
0.0
 71
     0
 72
     0
 73
     0
 74
     0
 75
     0
 76
     0
 77
     1
 78
     8
140
3.5
141
0.0
142
0.0
143
25.4
144
1.0
145
0.0
146
0.71
147
1.5
170
     0
171
     2
172
     1
173
     0
174
     0
175
     0
176
     0
177
     0
178
     3
  0
DIMSTYLE
  2
LC-DIM-L-0140-02-02
 70
     0
  3

  4

  5

  6

  7

 40
2.0
 41
3.5
 42
0.0
 43
7.5
 44
1.8
 45
0.0
 46
0.0
 47
0.0
 48
0.0
 71
     0
 72
     0
 73
     0
 74
     0
 75
     0
 76
     0
 77
     1
 78
     8
140
14.0
141
0.0
142
0.0
143
25.4
144
1.0
145
0.0
146
0.71
147
1.5
170
     0
171
     2
172
     0
173
     0
174
     0
175
     0
176
     2
177
     2
178
     8
  0
ENDTAB
  0
ENDSEC
  0
SECTION
  2
BLOCKS
  0
BLOCK
  8
0
  5
23
  2
*X0
 70
    65
 10
231.673839
 20
343.042225
 30
0.0
  3
*X0
  0
LINE
  8
LC-003-005-----0
  6
CONTINUOUS
  5
25
 10
234.918449
 20
344.52
 30
0.0
 11
235.245484
 21
344.847035
 31
0.0
  0
LINE
  8
LC-003-005-----0
  6
CONTINUOUS
  5
26
 10
234.765857
 20
345.074515
 30
0.0
 11
235.363758
 21
345.672416
 31
0.0
  0
LINE
  8
LC-003-005-----0
  6
CONTINUOUS
  5
27
 10
234.493694
 20
345.509458
 30
0.0
 11
234.946167
 21
345.961932
 31
0.0
  0
LINE
  8
LC-003-005-----0
  6
CONTINUOUS
  5
28
 10
234.141541
 20
345.864412
 30
0.0
 11
234.662346
 21
346.385218
 31
0.0
  0
LINE
  8
LC-003-005-----0
  6
CONTINUOUS
  5
29
 10
233.783367
 20
346.213345
 30
0.0
 11
234.019759
 21
346.449737
 31
0.0
  0
LINE
  8
LC-003-005-----0
  6
CONTINUOUS
  5
2A
 10
233.132915
 20
346.27
 30
0.0
 11
233.462643
 21
346.599728
 31
0.0
  0
LINE
  8
LC-003-005-----0
  6
CONTINUOUS
  5
2B
 10
232.425808
 20
346.27
 30
0.0
 11
232.664993
 21
346.509185
 31
0.0
  0
LINE
  8
LC-003-005-----0
  6
CONTINUOUS
  5
2C
 10
231.718701
 20
346.27
 30
0.0
 11
232.045045
 21
346.596343
 31
0.0
  0
ENDBLK
  8
0
  5
2D
  0
BLOCK
  8
0
  5
2F
  2
*X1
 70
    65
 10
231.673839
 20
342.219549
 30
0.0
  3
*X1
  0
LINE
  8
LC-003-005-----0
  6
CONTINUOUS
  5
30
 10
234.57416
 20
342.761497
 30
0.0
 11
234.876495
 21
343.063832
 31
0.0
  0
LINE
  8
LC-003-005-----0
  6
CONTINUOUS
  5
31
 10
233.456874
 20
342.351318
 30
0.0
 11
235.354102
 21
344.248546
 31
0.0
  0
LINE
  8
LC-003-005-----0
  6
CONTINUOUS
  5
32
 10
232.889987
 20
342.491538
 30
0.0
 11
233.168449
 21
342.77
 31
0.0
  0
LINE
  8
LC-003-005-----0
  6
CONTINUOUS
  5
33
 10
234.873144
 20
344.474695
 30
0.0
 11
234.918449
 21
344.52
 31
0.0
  0
LINE
  8
LC-003-005-----0
  6
CONTINUOUS
  5
34
 10
232.014409
 20
342.323067
 30
0.0
 11
232.461342
 21
342.77
 31
0.0
  0
LINE
  8
LC-003-005-----0
  6
CONTINUOUS
  5
35
 10
231.673839
 20
342.689603
 30
0.0
 11
231.754235
 21
342.77
 31
0.0
  0
ENDBLK
  8
0
  5
36
  0
BLOCK
  8
0
  5
38
  2
*D2
 70
    65
 10
0.0
 20
0.0
 30
0.0
  3
*D2
  0
LINE
  8
LC-005-003-MTH-0
  6
CONTINUOUS
  5
3A
 10
239.173839
 20
342.02
 30
0.0
 11
179.2
 21
342.02
 31
0.0
  0
LINE
  8
LC-005-003-MTH-0
  6
CONTINUOUS
  5
3B
 10
239.173839
 20
347.02
 30
0.0
 11
179.2
 21
347.02
 31
0.0
  0
LINE
  8
LC-004-003-----0
  6
CONTINUOUS
  5
3D
 10
199.654733
 20
314.259544
 30
0.0
 11
196.0
 21
342.02
 31
0.0
  0
LINE
  8
LC-004-003-----0
  6
CONTINUOUS
  5
3E
 10
196.0
 20
342.02
 30
0.0
 11
192.345267
 21
314.259544
 31
0.0
  0
LINE
  8
LC-004-003-----0
  6
CONTINUOUS
  5
3F
 10
192.345267
 20
314.259544
 30
0.0
 11
199.654733
 21
314.259544
 31
0.0
  0
LINE
  8
LC-004-003-----0
  6
CONTINUOUS
  5
40
 10
198.704503
 20
314.197262
 30
0.0
 11
196.0
 21
334.74
 31
0.0
  0
LINE
  8
LC-004-003-----0
  6
CONTINUOUS
  5
41
 10
196.0
 20
334.74
 30
0.0
 11
193.295497
 21
314.197262
 31
0.0
  0
LINE
  8
LC-004-003-----0
  6
CONTINUOUS
  5
42
 10
197.754272
 20
314.134981
 30
0.0
 11
196.0
 21
327.46
 31
0.0
  0
LINE
  8
LC-004-003-----0
  6
CONTINUOUS
  5
43
 10
196.0
 20
327.46
 30
0.0
 11
194.245728
 21
314.134981
 31
0.0
  0
LINE
  8
LC-004-003-----0
  6
CONTINUOUS
  5
44
 10
196.804041
 20
314.0727
 30
0.0
 11
196.0
 21
320.18
 31
0.0
  0
LINE
  8
LC-004-003-----0
  6
CONTINUOUS
  5
45
 10
196.0
 20
320.18
 30
0.0
 11
195.195959
 21
314.0727
 31
0.0
  0
LINE
  8
LC-004-003-----0
  6
CONTINUOUS
  5
46
 10
192.345267
 20
374.780456
 30
0.0
 11
196.0
 21
347.02
 31
0.0
  0
LINE
  8
LC-004-003-----0
  6
CONTINUOUS
  5
47
 10
196.0
 20
347.02
 30
0.0
 11
199.654733
 21
374.780456
 31
0.0
  0
LINE
  8
LC-004-003-----0
  6
CONTINUOUS
  5
48
 10
199.654733
 20
374.780456
 30
0.0
 11
192.345267
 21
374.780456
 31
0.0
  0
LINE
  8
LC-004-003-----0
  6
CONTINUOUS
  5
49
 10
193.295497
 20
374.842738
 30
0.0
 11
196.0
 21
354.3
 31
0.0
  0
LINE
  8
LC-004-003-----0
  6
CONTINUOUS
  5
4A
 10
196.0
 20
354.3
 30
0.0
 11
198.704503
 21
374.842738
 31
0.0
  0
LINE
  8
LC-004-003-----0
  6
CONTINUOUS
  5
4B
 10
194.245728
 20
374.905019
 30
0.0
 11
196.0
 21
361.58
 31
0.0
  0
LINE
  8
LC-004-003-----0
  6
CONTINUOUS
  5
4C
 10
196.0
 20
361.58
 30
0.0
 11
197.754272
 21
374.905019
 31
0.0
  0
LINE
  8
LC-004-003-----0
  6
CONTINUOUS
  5
4D
 10
195.195959
 20
374.9673
 30
0.0
 11
196.0
 21
368.86
 31
0.0
  0
LINE
  8
LC-004-003-----0
  6
CONTINUOUS
  5
4E
 10
196.0
 20
368.86
 30
0.0
 11
196.804041
 21
374.9673
 31
0.0
  0
LINE
  8
LC-006-003-MTG-0
  6
CONTINUOUS
  5
50
 10
196.0
 20
302.82
 30
0.0
 11
196.0
 21
439.05215
 31
0.0
  0
TEXT
  8
LC-004-003-----0
  6
CONTINUOUS
 62
     8
  5
51
 10
188.172446
 20
389.44816
 30
0.0
 40
28.0
  1
M5
 50
90.0
 41
0.9
 51
15.0
  7
LC-TXTSTYLE-150-400-0-0-A0
  0
ENDBLK
  8
0
  5
52
  0
BLOCK
  8
0
  5
54
  2
*D3
 70
    65
 10
0.0
 20
0.0
 30
0.0
  3
*D3
  0
LINE
  8
LC-005-003-MTH-0
  6
CONTINUOUS
  5
55
 10
231.673839
 20
339.52
 30
0.0
 11
231.673839
 21
257.6
 31
0.0
  0
LINE
  8
LC-005-003-MTH-0
  6
CONTINUOUS
  5
56
 10
239.673839
 20
342.52
 30
0.0
 11
239.673839
 21
257.6
 31
0.0
  0
LINE
  8
LC-004-003-----0
  6
CONTINUOUS
  5
57
 10
203.913383
 20
270.745267
 30
0.0
 11
231.673839
 21
274.4
 31
0.0
  0
LINE
  8
LC-004-003-----0
  6
CONTINUOUS
  5
58
 10
231.673839
 20
274.4
 30
0.0
 11
203.913383
 21
278.054733
 31
0.0
  0
LINE
  8
LC-004-003-----0
  6
CONTINUOUS
  5
59
 10
203.913383
 20
278.054733
 30
0.0
 11
203.913383
 21
270.745267
 31
0.0
  0
LINE
  8
LC-004-003-----0
  6
CONTINUOUS
  5
5A
 10
203.851101
 20
271.695497
 30
0.0
 11
224.393839
 21
274.4
 31
0.0
  0
LINE
  8
LC-004-003-----0
  6
CONTINUOUS
  5
5B
 10
224.393839
 20
274.4
 30
0.0
 11
203.851101
 21
277.104503
 31
0.0
  0
LINE
  8
LC-004-003-----0
  6
CONTINUOUS
  5
5C
 10
203.78882
 20
272.645728
 30
0.0
 11
217.113839
 21
274.4
 31
0.0
  0
LINE
  8
LC-004-003-----0
  6
CONTINUOUS
  5
5D
 10
217.113839
 20
274.4
 30
0.0
 11
203.78882
 21
276.154272
 31
0.0
  0
LINE
  8
LC-004-003-----0
  6
CONTINUOUS
  5
5E
 10
203.726538
 20
273.595959
 30
0.0
 11
209.833839
 21
274.4
 31
0.0
  0
LINE
  8
LC-004-003-----0
  6
CONTINUOUS
  5
5F
 10
209.833839
 20
274.4
 30
0.0
 11
203.726538
 21
275.204041
 31
0.0
  0
LINE
  8
LC-004-003-----0
  6
CONTINUOUS
  5
60
 10
267.434295
 20
278.054733
 30
0.0
 11
239.673839
 21
274.4
 31
0.0
  0
LINE
  8
LC-004-003-----0
  6
CONTINUOUS
  5
61
 10
239.673839
 20
274.4
 30
0.0
 11
267.434295
 21
270.745267
 31
0.0
  0
LINE
  8
LC-004-003-----0
  6
CONTINUOUS
  5
62
 10
267.434295
 20
270.745267
 30
0.0
 11
267.434295
 21
278.054733
 31
0.0
  0
LINE
  8
LC-004-003-----0
  6
CONTINUOUS
  5
63
 10
267.496576
 20
277.104503
 30
0.0
 11
246.953839
 21
274.4
 31
0.0
  0
LINE
  8
LC-004-003-----0
  6
CONTINUOUS
  5
64
 10
246.953839
 20
274.4
 30
0.0
 11
267.496576
 21
271.695497
 31
0.0
  0
LINE
  8
LC-004-003-----0
  6
CONTINUOUS
  5
65
 10
267.558858
 20
276.154272
 30
0.0
 11
254.233839
 21
274.4
 31
0.0
  0
LINE
  8
LC-004-003-----0
  6
CONTINUOUS
  5
66
 10
254.233839
 20
274.4
 30
0.0
 11
267.558858
 21
272.645728
 31
0.0
  0
LINE
  8
LC-004-003-----0
  6
CONTINUOUS
  5
67
 10
267.621139
 20
275.204041
 30
0.0
 11
261.513839
 21
274.4
 31
0.0
  0
LINE
  8
LC-004-003-----0
  6
CONTINUOUS
  5
68
 10
261.513839
 20
274.4
 30
0.0
 11
267.621139
 21
273.595959
 31
0.0
  0
LINE
  8
LC-006-003-MTG-0
  6
CONTINUOUS
  5
69
 10
192.473839
 20
274.4
 30
0.0
 11
305.436039
 21
274.4
 31
0.0
  0
TEXT
  8
LC-004-003-----0
  6
CONTINUOUS
 62
     8
  5
6A
 10
282.101999
 20
282.227554
 30
0.0
 40
28.0
  1
8
 41
0.9
 51
15.0
  7
LC-TXTSTYLE-150-400-0-0-A0
  0
ENDBLK
  8
0
  5
6B
  0
ENDSEC
  0
SECTION
  2
ENTITIES
  0
VIEWPORT
  8
LC-000
  5
B3
 67
     1
 68
     1
 10
420.0
 20
297.0
 30
0.0
 40
840.0
 41
594.0
 69
     1
1001
ACAD
1000
MVIEW
1002
{
1070
    16
1010
0.0
1020
0.0
1030
0.0
1010
0.0
1020
0.0
1030
1.0
1040
0.0
1040
594.0
1040
420.0
1040
297.0
1040
50.0
1040
0.0
1040
0.0
1070
     0
1070
   100
1070
     1
1070
     1
1070
     0
1070
     0
1070
     0
1070
     0
1040
0.0
1040
0.0
1040
0.0
1040
1.0
1040
1.0
1040
0.0
1040
0.0
1070
     0
1002
{
1002
}
1002
}
  0
VIEWPORT
  8
0
  5
B4
 67
     1
 68
     1
 10
0.0
 20
0.0
 30
0.0
 40
0.0
 41
0.0
 69
     1
1001
ACAD
1000
MVIEW
1002
{
1070
    16
1010
0.0
1020
0.0
1030
0.0
1010
0.0
1020
0.0
1030
1.0
1040
0.0
1040
594.0
1040
0.0
1040
0.0
1040
50.0
1040
0.0
1040
0.0
1070
     0
1070
   100
1070
     0
1070
     1
1070
     0
1070
     0
1070
     0
1070
     0
1040
0.0
1040
0.0
1040
0.0
1040
0.5
1040
0.5
1040
0.5
1040
0.5
1070
     0
1002
{
1002
}
1002
}
  0
INSERT
  8
LC-003-005-----0
  6
CONTINUOUS
  5
6C
  2
*X0
 10
231.673839
 20
343.042225
 30
0.0
  0
INSERT
  8
LC-003-005-----0
  6
CONTINUOUS
  5
6D
  2
*X1
 10
231.673839
 20
342.219549
 30
0.0
  0
DIMENSION
  8
LC-004-003-----0
  6
CONTINUOUS
  5
6E
  2
*D2
 10
196.0
 20
344.52
 30
0.0
 11
196.0
 21
344.52
 31
0.0
  1
M5
 13
239.173839
 23
347.02
 33
0.0
 14
239.173839
 24
342.02
 34
0.0
 50
90.0
  3
LC-DIM-L-0140-02-02
  0
DIMENSION
  8
LC-004-003-----0
  6
CONTINUOUS
  5
6F
  2
*D3
 10
235.673839
 20
274.4
 30
0.0
 11
235.673839
 21
274.4
 31
0.0
 13
231.673839
 23
339.52
 33
0.0
 14
239.673839
 24
342.52
 34
0.0
  3
LC-DIM-L-0140-02-02
  0
CIRCLE
  8
LC-001-002-----0
  6
CONTINUOUS
  5
71
 10
265.705947
 20
344.52
 30
0.0
 40
5.0
  0
CIRCLE
  8
LC-001-002-----0
  6
CONTINUOUS
  5
72
 10
265.705947
 20
344.52
 30
0.0
 40
1.75
  0
LINE
  8
LC-001-002-----0
  6
DASHDOT
 62
     2
  5
74
 10
231.673839
 20
344.52
 30
0.0
 11
239.673839
 21
344.52
 31
0.0
  0
LINE
  8
LC-001-002-----0
  6
DASHDOT
 62
     2
  5
75
 10
260.705947
 20
344.52
 30
0.0
 11
270.705947
 21
344.52
 31
0.0
  0
LINE
  8
LC-001-002-----0
  6
CONTINUOUS
  5
76
 10
267.205947
 20
345.421388
 30
0.0
 11
267.205947
 21
343.618612
 31
0.0
  0
LINE
  8
LC-001-002-----0
  6
CONTINUOUS
  5
77
 10
264.205947
 20
345.421388
 30
0.0
 11
264.205947
 21
343.618612
 31
0.0
  0
LINE
  8
LC-001-002-----0
  6
CONTINUOUS
  5
78
 10
264.205947
 20
345.421388
 30
0.0
 11
265.705947
 21
346.27
 31
0.0
  0
LINE
  8
LC-001-002-----0
  6
CONTINUOUS
  5
79
 10
265.705947
 20
346.27
 30
0.0
 11
267.205947
 21
345.421388
 31
0.0
  0
LINE
  8
LC-001-002-----0
  6
CONTINUOUS
  5
7A
 10
267.205947
 20
343.618612
 30
0.0
 11
265.705947
 21
342.77
 31
0.0
  0
LINE
  8
LC-001-002-----0
  6
CONTINUOUS
  5
7B
 10
265.705947
 20
342.77
 30
0.0
 11
264.205947
 21
343.618612
 31
0.0
  0
CIRCLE
  8
LC-001-002-----0
  6
CONTINUOUS
  5
7C
 10
265.705947
 20
344.52
 30
0.0
 40
0.5
  0
LINE
  8
LC-001-002-----0
  6
CONTINUOUS
  5
7D
 10
231.973839
 20
339.52
 30
0.0
 11
231.673839
 21
339.52
 31
0.0
  0
LINE
  8
LC-001-002-----0
  6
CONTINUOUS
  5
7E
 10
231.973839
 20
349.52
 30
0.0
 11
231.673839
 21
349.52
 31
0.0
  0
LINE
  8
LC-001-002-----0
  6
CONTINUOUS
  5
7F
 10
231.673839
 20
349.52
 30
0.0
 11
231.673839
 21
339.52
 31
0.0
  0
LINE
  8
LC-001-002-----0
  6
CONTINUOUS
  5
80
 10
231.973839
 20
349.52
 30
0.0
 11
231.973839
 21
346.585332
 31
0.0
  0
LINE
  8
LC-001-002-----0
  6
CONTINUOUS
  5
81
 10
234.556681
 20
347.02
 30
0.0
 11
239.173839
 21
347.02
 31
0.0
  0
LINE
  8
LC-001-002-----0
  6
CONTINUOUS
  5
82
 10
234.556681
 20
342.02
 30
0.0
 11
239.173839
 21
342.02
 31
0.0
  0
LINE
  8
LC-001-002-----0
  6
CONTINUOUS
  5
83
 10
231.973839
 20
339.52
 30
0.0
 11
234.41526
 21
341.961421
 31
0.0
  0
LINE
  8
LC-001-002-----0
  6
CONTINUOUS
  5
84
 10
234.41526
 20
347.078579
 30
0.0
 11
231.973839
 21
349.52
 31
0.0
  0
ARC
  8
LC-002-002-RND-0
  6
CONTINUOUS
  5
86
 10
234.556681
 20
347.22
 30
0.0
 40
0.2
 50
225.0
 51
270.0
  0
ARC
  8
LC-002-002-RND-0
  6
CONTINUOUS
  5
87
 10
234.556681
 20
341.82
 30
0.0
 40
0.2
 50
90.0
 51
135.0
  0
LINE
  8
LC-001-002-----0
  6
CONTINUOUS
  5
88
 10
239.673839
 20
346.52
 30
0.0
 11
239.673839
 21
342.52
 31
0.0
  0
LINE
  8
LC-001-002-----0
  6
DASHDOT
 62
     2
  5
89
 10
265.705947
 20
349.52
 30
0.0
 11
265.705947
 21
339.52
 31
0.0
  0
LINE
  8
LC-001-002-----0
  6
CONTINUOUS
  5
8A
 10
233.673839
 20
345.421388
 30
0.0
 11
231.673839
 21
345.421388
 31
0.0
  0
LINE
  8
LC-001-002-----0
  6
CONTINUOUS
  5
8B
 10
233.673839
 20
343.618612
 30
0.0
 11
231.673839
 21
343.618612
 31
0.0
  0
LINE
  8
LC-001-002-----0
  6
CONTINUOUS
  5
8C
 10
231.673839
 20
343.618612
 30
0.0
 11
231.673839
 21
344.52
 31
0.0
  0
LINE
  8
LC-001-002-----0
  6
CONTINUOUS
  5
8D
 10
233.673839
 20
346.27
 30
0.0
 11
231.673839
 21
346.27
 31
0.0
  0
LINE
  8
LC-001-002-----0
  6
CONTINUOUS
  5
8E
 10
233.673839
 20
342.77
 30
0.0
 11
231.673839
 21
342.77
 31
0.0
  0
ARC
  8
LC-001-002-----0
  6
CONTINUOUS
  5
8F
 10
232.469672
 20
344.52
 30
0.0
 40
1.504167
 50
323.18304
 51
340.584884
  0
ARC
  8
LC-001-002-----0
  6
CONTINUOUS
  5
90
 10
233.523779
 20
345.845694
 30
0.0
 40
0.450059
 50
289.476571
 51
70.523429
  0
ARC
  8
LC-001-002-----0
  6
CONTINUOUS
  5
91
 10
233.523779
 20
343.194306
 30
0.0
 40
0.450059
 50
289.476571
 51
70.523429
  0
LINE
  8
LC-001-002-----0
  6
CONTINUOUS
  5
92
 10
233.842019
 20
346.163934
 30
0.0
 11
234.373839
 21
345.632115
 31
0.0
  0
LINE
  8
LC-001-002-----0
  6
CONTINUOUS
  5
93
 10
233.842019
 20
342.876066
 30
0.0
 11
234.373839
 21
343.407885
 31
0.0
  0
ARC
  8
LC-001-002-----0
  6
CONTINUOUS
  5
94
 10
233.396063
 20
344.52
 30
0.0
 40
1.477775
 50
315.0
 51
45.0
  0
LINE
  8
LC-001-002-----0
  6
CONTINUOUS
  5
95
 10
231.673839
 20
345.02
 30
0.0
 11
234.786682
 21
345.02
 31
0.0
  0
LINE
  8
LC-001-002-----0
  6
CONTINUOUS
  5
96
 10
231.673839
 20
344.02
 30
0.0
 11
234.786682
 21
344.02
 31
0.0
  0
ARC
  8
LC-001-002-----0
  6
CONTINUOUS
  5
97
 10
232.469672
 20
344.52
 30
0.0
 40
1.504167
 50
19.415116
 51
36.81696
  0
LINE
  8
LC-001-002-----0
  6
CONTINUOUS
  5
98
 10
231.973839
 20
342.344019
 30
0.0
 11
231.973839
 21
339.52
 31
0.0
  0
LINE
  8
LC-001-002-----0
  6
CONTINUOUS
 62
     2
  5
99
 10
231.673839
 20
346.507766
 30
0.0
 11
232.32396
 21
346.662898
 31
0.0
  0
LINE
  8
LC-001-002-----0
  6
CONTINUOUS
 62
     2
  5
9A
 10
232.32396
 20
346.662898
 30
0.0
 11
232.770268
 21
346.461735
 31
0.0
  0
LINE
  8
LC-001-002-----0
  6
CONTINUOUS
 62
     2
  5
9B
 10
232.770268
 20
346.461735
 30
0.0
 11
233.345509
 21
346.651065
 31
0.0
  0
LINE
  8
LC-001-002-----0
  6
CONTINUOUS
 62
     2
  5
9C
 10
233.345509
 20
346.651065
 30
0.0
 11
233.831489
 21
346.438069
 31
0.0
  0
LINE
  8
LC-001-002-----0
  6
CONTINUOUS
 62
     2
  5
9D
 10
233.831489
 20
346.438069
 30
0.0
 11
234.595171
 21
346.485401
 31
0.0
  0
LINE
  8
LC-001-002-----0
  6
CONTINUOUS
 62
     2
  5
9E
 10
234.595171
 20
346.485401
 30
0.0
 11
235.011725
 21
345.864161
 31
0.0
  0
LINE
  8
LC-001-002-----0
  6
CONTINUOUS
 62
     2
  5
9F
 10
235.011725
 20
345.864161
 30
0.0
 11
235.467951
 21
345.615664
 31
0.0
  0
LINE
  8
LC-001-002-----0
  6
CONTINUOUS
 62
     2
  5
A0
 10
235.467951
 20
345.615664
 30
0.0
 11
235.22992
 21
344.79326
 31
0.0
  0
LINE
  8
LC-001-002-----0
  6
CONTINUOUS
 62
     2
  5
A1
 10
235.22992
 20
344.79326
 30
0.0
 11
235.398525
 21
344.053688
 31
0.0
  0
LINE
  8
LC-001-002-----0
  6
CONTINUOUS
 62
     2
  5
A2
 10
235.398525
 20
344.053688
 30
0.0
 11
234.882792
 21
343.46203
 31
0.0
  0
LINE
  8
LC-001-002-----0
  6
CONTINUOUS
 62
     2
  5
A3
 10
234.882792
 20
343.46203
 30
0.0
 11
234.872874
 21
342.834873
 31
0.0
  0
LINE
  8
LC-001-002-----0
  6
CONTINUOUS
 62
     2
  5
A4
 10
234.872874
 20
342.834873
 30
0.0
 11
234.198453
 21
342.669209
 31
0.0
  0
LINE
  8
LC-001-002-----0
  6
CONTINUOUS
 62
     2
  5
A5
 10
234.198453
 20
342.669209
 30
0.0
 11
233.702556
 21
342.290548
 31
0.0
  0
LINE
  8
LC-001-002-----0
  6
CONTINUOUS
 62
     2
  5
A6
 10
233.702556
 20
342.290548
 30
0.0
 11
232.889284
 21
342.491712
 31
0.0
  0
LINE
  8
LC-001-002-----0
  6
CONTINUOUS
 62
     2
  5
A7
 10
232.889284
 20
342.491712
 30
0.0
 11
232.214863
 21
342.219549
 31
0.0
  0
LINE
  8
LC-001-002-----0
  6
CONTINUOUS
 62
     2
  5
A8
 10
232.214863
 20
342.219549
 30
0.0
 11
231.673839
 21
342.498944
 31
0.0
  0
LINE
  8
LC-001-002-----0
  6
CONTINUOUS
 62
     2
  5
A9
 10
235.388052
 20
346.52
 30
0.0
 11
239.673839
 21
346.52
 31
0.0
  0
LINE
  8
LC-001-002-----0
  6
CONTINUOUS
 62
     2
  5
AA
 10
235.388052
 20
342.52
 30
0.0
 11
239.673839
 21
342.52
 31
0.0
  0
LINE
  8
LC-001-002-----0
  6
CONTINUOUS
  5
AB
 10
239.173839
 20
347.02
 30
0.0
 11
239.173839
 21
342.02
 31
0.0
  0
LINE
  8
LC-001-002-----0
  6
CONTINUOUS
  5
AC
 10
239.673839
 20
346.52
 30
0.0
 11
239.173839
 21
347.02
 31
0.0
  0
LINE
  8
LC-001-002-----0
  6
CONTINUOUS
  5
AD
 10
239.673839
 20
342.52
 30
0.0
 11
239.173839
 21
342.02
 31
0.0
  0
LINE
  8
LC-001-002-----0
  6
CONTINUOUS
 62
     2
  5
AE
 10
234.680945
 20
346.812893
 30
0.0
 11
234.41526
 21
347.078579
 31
0.0
  0
ARC
  8
LC-002-002-RND-0
  6
CONTINUOUS
 62
     2
  5
AF
 10
235.388052
 20
347.52
 30
0.0
 40
1.0
 50
225.0
 51
270.0
  0
ARC
  8
LC-002-002-RND-0
  6
CONTINUOUS
 62
     2
  5
B0
 10
235.388052
 20
341.52
 30
0.0
 40
1.0
 50
90.0
 51
135.0
  0
LINE
  8
LC-001-002-----0
  6
CONTINUOUS
 62
     2
  5
B1
 10
234.680945
 20
342.227107
 30
0.0
 11
234.41526
 21
341.961421
 31
0.0
  0
ENDSEC
  0
EOF
