  0
SECTION
  2
HEADER
  9
$ACADVER
  1
AC1015
  9
$ACADMAINTVER
 70
     6
  9
$DWGCODEPAGE
  3
ANSI_1252
  9
$INSBASE
 10
300.546594
 20
31.942
 30
0.0
  9
$EXTMIN
 10
300.546594
 20
31.942
 30
0.0
  9
$EXTMAX
 10
1140.546594
 20
625.942
 30
0.0
  9
$LIMMIN
 10
300.546594
 20
31.942
  9
$LIMMAX
 10
1140.546594
 20
625.942
  9
$ORTHOMODE
 70
     0
  9
$REGENMODE
 70
     1
  9
$FILLMODE
 70
     1
  9
$QTEXTMODE
 70
     0
  9
$MIRRTEXT
 70
     1
  9
$LTSCALE
 40
2.0
  9
$ATTMODE
 70
     1
  9
$TEXTSIZE
 40
2.5
  9
$TRACEWID
 40
1.0
  9
$TEXTSTYLE
  7
Standard
  9
$CLAYER
  8
0
  9
$CELTYPE
  6
ByLayer
  9
$CECOLOR
 62
     7
  9
$CELTSCALE
 40
1.0
  9
$DISPSILH
 70
     0
  9
$DIMSCALE
 40
2.0
  9
$DIMASZ
 40
3.5
  9
$DIMEXO
 40
0.625
  9
$DIMDLI
 40
3.75
  9
$DIMRND
 40
0.0
  9
$DIMDLE
 40
0.0
  9
$DIMEXE
 40
1.25
  9
$DIMTP
 40
0.0
  9
$DIMTM
 40
0.0
  9
$DIMTXT
 40
3.5
  9
$DIMCEN
 40
2.5
  9
$DIMTSZ
 40
0.0
  9
$DIMTOL
 70
     0
  9
$DIMLIM
 70
     0
  9
$DIMTIH
 70
     0
  9
$DIMTOH
 70
     0
  9
$DIMSE1
 70
     0
  9
$DIMSE2
 70
     0
  9
$DIMTAD
 70
     1
  9
$DIMZIN
 70
     8
  9
$DIMBLK
  1

  9
$DIMASO
 70
     1
  9
$DIMSHO
 70
     1
  9
$DIMPOST
  1

  9
$DIMAPOST
  1

  9
$DIMALT
 70
     0
  9
$DIMALTD
 70
     3
  9
$DIMALTF
 40
0.03937
  9
$DIMLFAC
 40
1.0
  9
$DIMTOFL
 70
     1
  9
$DIMTVP
 40
0.0
  9
$DIMTIX
 70
     0
  9
$DIMSOXD
 70
     0
  9
$DIMSAH
 70
     0
  9
$DIMBLK1
  1

  9
$DIMBLK2
  1

  9
$DIMSTYLE
  2
ISO-25
  9
$DIMCLRD
 70
     0
  9
$DIMCLRE
 70
     0
  9
$DIMCLRT
 70
     0
  9
$DIMTFAC
 40
1.0
  9
$DIMGAP
 40
0.625
  9
$DIMJUST
 70
     0
  9
$DIMSD1
 70
     0
  9
$DIMSD2
 70
     0
  9
$DIMTOLJ
 70
     0
  9
$DIMTZIN
 70
     8
  9
$DIMALTZ
 70
     0
  9
$DIMALTTZ
 70
     0
  9
$DIMUPT
 70
     0
  9
$DIMDEC
 70
     2
  9
$DIMTDEC
 70
     2
  9
$DIMALTU
 70
     2
  9
$DIMALTTD
 70
     3
  9
$DIMTXSTY
  7
Standard
  9
$DIMAUNIT
 70
     0
  9
$DIMADEC
 70
     0
  9
$DIMALTRND
 40
0.0
  9
$DIMAZIN
 70
     0
  9
$DIMDSEP
 70
    44
  9
$DIMATFIT
 70
     3
  9
$DIMFRAC
 70
     0
  9
$DIMLDRBLK
  1

  9
$DIMLUNIT
 70
     2
  9
$DIMLWD
 70
    -2
  9
$DIMLWE
 70
    -2
  9
$DIMTMOVE
 70
     0
  9
$LUNITS
 70
     2
  9
$LUPREC
 70
     4
  9
$SKETCHINC
 40
1.0
  9
$FILLETRAD
 40
10.0
  9
$AUNITS
 70
     0
  9
$AUPREC
 70
     0
  9
$MENU
  1
.
  9
$ELEVATION
 40
0.0
  9
$PELEVATION
 40
0.0
  9
$THICKNESS
 40
0.0
  9
$LIMCHECK
 70
     0
  9
$CHAMFERA
 40
10.0
  9
$CHAMFERB
 40
10.0
  9
$CHAMFERC
 40
20.0
  9
$CHAMFERD
 40
0.0
  9
$SKPOLY
 70
     0
  9
$TDCREATE
 40
2455861.424266643
  9
$TDUCREATE
 40
2455861.34093331
  9
$TDUPDATE
 40
2455861.424266655
  9
$TDUUPDATE
 40
2455861.340933322
  9
$TDINDWG
 40
0.0000000116
  9
$TDUSRTIMER
 40
0.0000000116
  9
$USRTIMER
 70
     1
  9
$ANGBASE
 50
0.0
  9
$ANGDIR
 70
     0
  9
$PDMODE
 70
     0
  9
$PDSIZE
 40
0.0
  9
$PLINEWID
 40
0.0
  9
$SPLFRAME
 70
     0
  9
$SPLINETYPE
 70
     6
  9
$SPLINESEGS
 70
     8
  9
$HANDSEED
  5
3B1
  9
$SURFTAB1
 70
     6
  9
$SURFTAB2
 70
     6
  9
$SURFTYPE
 70
     6
  9
$SURFU
 70
     6
  9
$SURFV
 70
     6
  9
$UCSBASE
  2

  9
$UCSNAME
  2

  9
$UCSORG
 10
0.0
 20
0.0
 30
0.0
  9
$UCSXDIR
 10
1.0
 20
0.0
 30
0.0
  9
$UCSYDIR
 10
0.0
 20
1.0
 30
0.0
  9
$UCSORTHOREF
  2

  9
$UCSORTHOVIEW
 70
     0
  9
$UCSORGTOP
 10
0.0
 20
0.0
 30
0.0
  9
$UCSORGBOTTOM
 10
0.0
 20
0.0
 30
0.0
  9
$UCSORGLEFT
 10
0.0
 20
0.0
 30
0.0
  9
$UCSORGRIGHT
 10
0.0
 20
0.0
 30
0.0
  9
$UCSORGFRONT
 10
0.0
 20
0.0
 30
0.0
  9
$UCSORGBACK
 10
0.0
 20
0.0
 30
0.0
  9
$PUCSBASE
  2

  9
$PUCSNAME
  2

  9
$PUCSORG
 10
0.0
 20
0.0
 30
0.0
  9
$PUCSXDIR
 10
1.0
 20
0.0
 30
0.0
  9
$PUCSYDIR
 10
0.0
 20
1.0
 30
0.0
  9
$PUCSORTHOREF
  2

  9
$PUCSORTHOVIEW
 70
     0
  9
$PUCSORGTOP
 10
0.0
 20
0.0
 30
0.0
  9
$PUCSORGBOTTOM
 10
0.0
 20
0.0
 30
0.0
  9
$PUCSORGLEFT
 10
0.0
 20
0.0
 30
0.0
  9
$PUCSORGRIGHT
 10
0.0
 20
0.0
 30
0.0
  9
$PUCSORGFRONT
 10
0.0
 20
0.0
 30
0.0
  9
$PUCSORGBACK
 10
0.0
 20
0.0
 30
0.0
  9
$USERI1
 70
     0
  9
$USERI2
 70
     0
  9
$USERI3
 70
     0
  9
$USERI4
 70
     0
  9
$USERI5
 70
     0
  9
$USERR1
 40
0.0
  9
$USERR2
 40
0.0
  9
$USERR3
 40
0.0
  9
$USERR4
 40
0.0
  9
$USERR5
 40
0.0
  9
$WORLDVIEW
 70
     1
  9
$SHADEDGE
 70
     3
  9
$SHADEDIF
 70
    70
  9
$TILEMODE
 70
     1
  9
$MAXACTVP
 70
    64
  9
$PINSBASE
 10
0.0
 20
0.0
 30
0.0
  9
$PLIMCHECK
 70
     0
  9
$PEXTMIN
 10
300.546594
 20
31.942
 30
0.0
  9
$PEXTMAX
 10
1140.546594
 20
625.942
 30
0.0
  9
$PLIMMIN
 10
300.546594
 20
31.942
  9
$PLIMMAX
 10
1140.546594
 20
625.942
  9
$UNITMODE
 70
     0
  9
$VISRETAIN
 70
     1
  9
$PLINEGEN
 70
     0
  9
$PSLTSCALE
 70
     1
  9
$TREEDEPTH
 70
  3020
  9
$CMLSTYLE
  2
Standard
  9
$CMLJUST
 70
     0
  9
$CMLSCALE
 40
20.0
  9
$PROXYGRAPHICS
 70
     1
  9
$MEASUREMENT
 70
     1
  9
$CELWEIGHT
370
    -1
  9
$ENDCAPS
280
     0
  9
$JOINSTYLE
280
     0
  9
$LWDISPLAY
290
     0
  9
$INSUNITS
 70
     4
  9
$HYPERLINKBASE
  1

  9
$STYLESHEET
  1

  9
$XEDIT
290
     1
  9
$CEPSNTYPE
380
     0
  9
$PSTYLEMODE
290
     1
  9
$FINGERPRINTGUID
  2
{FAEB1C30-E019-11D5-929B-00C0DF256EC4}
  9
$VERSIONGUID
  2
{FAEB1C32-E019-11D5-929B-00C0DF256EC4}
  9
$EXTNAMES
290
     1
  9
$PSVPSCALE
 40
0.0
  9
$OLESTARTUP
290
     0
  0
ENDSEC
  0
SECTION
  2
CLASSES
  0
CLASS
  1
ACDBDICTIONARYWDFLT
  2
AcDbDictionaryWithDefault
  3
ObjectDBX Classes
 90
        0
280
     0
281
     0
  0
CLASS
  1
ACDBPLACEHOLDER
  2
AcDbPlaceHolder
  3
ObjectDBX Classes
 90
        0
280
     0
281
     0
  0
CLASS
  1
LAYOUT
  2
AcDbLayout
  3
ObjectDBX Classes
 90
        0
280
     0
281
     0
  0
ENDSEC
  0
SECTION
  2
TABLES
  0
TABLE
  2
VPORT
  5
8
330
0
100
AcDbSymbolTable
 70
     2
  0
VPORT
  5
29
330
8
100
AcDbSymbolTableRecord
100
AcDbViewportTableRecord
  2
*ACTIVE
 70
     0
 10
0.0
 20
0.0
 11
1.0
 21
1.0
 12
720.546594
 22
328.942
 13
0.0
 23
0.0
 14
1.0
 24
1.0
 15
0.0
 25
0.0
 16
0.0
 26
0.0
 36
1.0
 17
0.0
 27
0.0
 37
0.0
 40
594.0
 41
1.414141
 42
50.0
 43
0.0
 44
0.0
 50
0.0
 51
0.0
 71
    16
 72
   100
 73
     1
 74
     0
 75
     0
 76
     0
 77
     0
 78
     0
281
     0
 65
     0
110
0.0
120
0.0
130
0.0
111
1.0
121
0.0
131
0.0
112
0.0
122
1.0
132
0.0
 79
     0
146
0.0
  0
ENDTAB
  0
TABLE
  2
LTYPE
  5
5
330
0
100
AcDbSymbolTable
 70
     3
  0
LTYPE
  5
14
330
5
100
AcDbSymbolTableRecord
100
AcDbLinetypeTableRecord
  2
ByBlock
 70
     0
  3

 72
    65
 73
     0
 40
0.0
  0
LTYPE
  5
15
330
5
100
AcDbSymbolTableRecord
100
AcDbLinetypeTableRecord
  2
ByLayer
 70
     0
  3

 72
    65
 73
     0
 40
0.0
  0
LTYPE
  5
16
330
5
100
AcDbSymbolTableRecord
100
AcDbLinetypeTableRecord
  2
Continuous
 70
     0
  3
Solid line
 72
    65
 73
     0
 40
0.0
  0
LTYPE
  5
2A
330
5
100
AcDbSymbolTableRecord
100
AcDbLinetypeTableRecord
  2
DASHED
 70
     0
  3
__ __ __ __ __
 72
    65
 73
     2
 40
6.25
 49
5.0
 74
     4
 75
     0
340
0
 46
1.0
 50
0.0
 44
0.0
 45
0.0
 49
-1.25
 74
     4
 75
     0
340
0
 46
1.0
 50
0.0
 44
0.0
 45
0.0
  0
LTYPE
  5
30
330
5
100
AcDbSymbolTableRecord
100
AcDbLinetypeTableRecord
  2
DASHDOT
 70
     0
  3
__ . __ . __ . __ . __
 72
    65
 73
     4
 40
7.5
 49
5.0
 74
     4
 75
     0
340
0
 46
1.0
 50
0.0
 44
0.0
 45
0.0
 49
-1.25
 74
     4
 75
     0
340
0
 46
1.0
 50
0.0
 44
0.0
 45
0.0
 49
0.0
 74
     4
 75
     0
340
0
 46
1.0
 50
0.0
 44
0.0
 45
0.0
 49
-1.25
 74
     4
 75
     0
340
0
 46
1.0
 50
0.0
 44
0.0
 45
0.0
  0
ENDTAB
  0
TABLE
  2
LAYER
  5
2
330
0
100
AcDbSymbolTable
 70
    18
  0
LAYER
  5
10
330
2
100
AcDbSymbolTableRecord
100
AcDbLayerTableRecord
  2
0
 70
     0
 62
     7
  6
Continuous
370
    -3
390
F
  0
LAYER
  5
2B
330
2
100
AcDbSymbolTableRecord
100
AcDbLayerTableRecord
  2
LC-INFO-1-2-mm-A3-0
 70
     1
 62
     7
  6
ByBlock
370
    -3
390
F
  0
LAYER
  5
2C
330
2
100
AcDbSymbolTableRecord
100
AcDbLayerTableRecord
  2
LC-CUT-HIDDEN
 70
     0
 62
     7
  6
DASHED
370
    -3
390
F
  0
LAYER
  5
2D
330
2
100
AcDbSymbolTableRecord
100
AcDbLayerTableRecord
  2
LC-VIEWPORT
 70
     0
 62
     7
  6
ByBlock
370
    -3
390
F
  0
LAYER
  5
2E
330
2
100
AcDbSymbolTableRecord
100
AcDbLayerTableRecord
  2
LC-3D-HIDDEN
 70
     0
 62
     9
  6
DASHED
370
    -3
390
F
  0
LAYER
  5
31
330
2
100
AcDbSymbolTableRecord
100
AcDbLayerTableRecord
  2
LC-001-002-----0
 70
     0
 62
     2
  6
DASHDOT
370
    -3
390
F
  0
LAYER
  5
37
330
2
100
AcDbSymbolTableRecord
100
AcDbLayerTableRecord
  2
LC-002-205-RND-0
 70
     0
 62
     1
  6
ByBlock
370
    -3
390
F
  0
LAYER
  5
3B
330
2
100
AcDbSymbolTableRecord
100
AcDbLayerTableRecord
  2
LC-003-205-----0
 70
     0
 62
     1
  6
ByBlock
370
    -3
390
F
  0
LAYER
  5
43
330
2
100
AcDbSymbolTableRecord
100
AcDbLayerTableRecord
  2
LC-004-002-RND-0
 70
     0
 62
     1
  6
ByBlock
370
    -3
390
F
  0
LAYER
  5
52
330
2
100
AcDbSymbolTableRecord
100
AcDbLayerTableRecord
  2
LC-005-005-----0
 70
     0
 62
     2
  6
ByBlock
370
    -3
390
F
  0
LAYER
  5
E9
330
2
100
AcDbSymbolTableRecord
100
AcDbLayerTableRecord
  2
LC-006-101-----0
 70
     0
 62
     1
  6
ByBlock
370
    -3
390
F
  0
LAYER
  5
117
330
2
100
AcDbSymbolTableRecord
100
AcDbLayerTableRecord
  2
LC-007-003-----0
 70
     0
 62
     2
  6
ByBlock
370
    -3
390
F
  0
LAYER
  5
119
330
2
100
AcDbSymbolTableRecord
100
AcDbLayerTableRecord
  2
Defpoints
 70
     0
 62
     7
  6
Continuous
290
     0
370
    -3
390
F
  0
LAYER
  5
17F
330
2
100
AcDbSymbolTableRecord
100
AcDbLayerTableRecord
  2
LC-008-101-RND-0
 70
     0
 62
     1
  6
ByBlock
370
    -3
390
F
  0
LAYER
  5
1A0
330
2
100
AcDbSymbolTableRecord
100
AcDbLayerTableRecord
  2
LC-009-207-----0
 70
     0
 62
     1
  6
ByBlock
370
    -3
390
F
  0
LAYER
  5
1B0
330
2
100
AcDbSymbolTableRecord
100
AcDbLayerTableRecord
  2
LC-010-207-RND-0
 70
     0
 62
     1
  6
ByBlock
370
    -3
390
F
  0
LAYER
  5
351
330
2
100
AcDbSymbolTableRecord
100
AcDbLayerTableRecord
  2
LC-011-003-MTG-0
 70
     0
 62
     2
  6
ByBlock
370
    -3
390
F
  0
LAYER
  5
355
330
2
100
AcDbSymbolTableRecord
100
AcDbLayerTableRecord
  2
LC-012-003-MTH-0
 70
     0
 62
     2
  6
ByBlock
370
    -3
390
F
  0
ENDTAB
  0
TABLE
  2
STYLE
  5
3
330
0
100
AcDbSymbolTable
 70
     3
  0
STYLE
  5
11
330
3
100
AcDbSymbolTableRecord
100
AcDbTextStyleTableRecord
  2
Standard
 70
     0
 40
0.0
 41
1.0
 50
0.0
 71
     0
 42
2.5
  3
txt
  4

  0
STYLE
  5
2F
330
3
100
AcDbSymbolTableRecord
100
AcDbTextStyleTableRecord
  2
LCTX15-400-0-0-Arial
 70
     0
 40
0.0
 41
0.9
 50
0.0
 71
     0
 42
3.5
  3
ARIAL.TTF
  4

1001
ACAD
1000
Arial
1071
 16777218
  0
STYLE
  5
115
330
3
100
AcDbSymbolTableRecord
100
AcDbTextStyleTableRecord
  2
LCTX15-400-0-0pDIN-Schrift
 70
     0
 40
2.5
 41
0.8
 50
15.0
 71
     0
 42
3.5
  3
STANDARD
  4

  0
ENDTAB
  0
TABLE
  2
VIEW
  5
6
330
0
100
AcDbSymbolTable
 70
     0
  0
ENDTAB
  0
TABLE
  2
UCS
  5
7
330
0
100
AcDbSymbolTable
 70
     0
  0
ENDTAB
  0
TABLE
  2
APPID
  5
9
330
0
100
AcDbSymbolTable
 70
     1
  0
APPID
  5
12
330
9
100
AcDbSymbolTableRecord
100
AcDbRegAppTableRecord
  2
ACAD
 70
     0
  0
ENDTAB
  0
TABLE
  2
DIMSTYLE
  5
A
330
0
100
AcDbSymbolTable
 70
     3
100
AcDbDimStyleTable
  0
DIMSTYLE
105
27
330
A
100
AcDbSymbolTableRecord
100
AcDbDimStyleTableRecord
  2
ISO-25
 70
     0
 41
2.5
 42
0.625
 43
3.75
 44
1.25
 73
     0
 74
     0
 77
     1
 78
     8
140
2.5
141
2.5
143
0.03937
147
0.625
171
     3
172
     1
271
     2
272
     2
274
     3
278
    44
283
     0
284
     8
340
11
  0
DIMSTYLE
105
116
102
{ACAD_REACTORS
330
118
330
18E
330
230
330
2FF
330
318
102
}
330
A
100
AcDbSymbolTableRecord
100
AcDbDimStyleTableRecord
  2
LC-DIM-L-0140-02-02
 70
     0
 40
2.0
 41
14.0
 42
0.0
 43
7.5
 44
1.8
 73
     0
 74
     0
 77
     1
 78
     8
 79
     2
140
14.0
141
0.0
146
0.71
147
1.5
176
     2
177
     2
178
     2
179
     2
271
     2
278
    44
289
     1
340
115
  0
DIMSTYLE
105
33A
330
A
100
AcDbSymbolTableRecord
100
AcDbDimStyleTableRecord
  2
LC-DIM-W-0140-02-02
 70
     0
 40
2.0
 41
14.0
 42
0.0
 43
7.5
 44
1.8
 73
     0
 74
     0
 77
     1
 78
     8
 79
     2
140
14.0
141
0.0
146
0.71
147
1.5
176
     2
177
     2
178
     2
179
     2
271
     2
278
    44
289
     1
340
115
  0
ENDTAB
  0
TABLE
  2
BLOCK_RECORD
  5
1
330
0
100
AcDbSymbolTable
 70
    16
  0
BLOCK_RECORD
  5
1F
330
1
100
AcDbSymbolTableRecord
100
AcDbBlockTableRecord
  2
*Model_Space
340
22
  0
BLOCK_RECORD
  5
1B
330
1
100
AcDbSymbolTableRecord
100
AcDbBlockTableRecord
  2
*Paper_Space
340
1E
  0
BLOCK_RECORD
  5
23
330
1
100
AcDbSymbolTableRecord
100
AcDbBlockTableRecord
  2
*Paper_Space0
340
26
  0
BLOCK_RECORD
  5
4F
330
1
100
AcDbSymbolTableRecord
100
AcDbBlockTableRecord
  2
*X11
340
0
102
{BLKREFS
331
5B
102
}
  0
BLOCK_RECORD
  5
5E
330
1
100
AcDbSymbolTableRecord
100
AcDbBlockTableRecord
  2
*X22
340
0
102
{BLKREFS
331
69
102
}
  0
BLOCK_RECORD
  5
70
330
1
100
AcDbSymbolTableRecord
100
AcDbBlockTableRecord
  2
*X33
340
0
102
{BLKREFS
331
E4
102
}
  0
BLOCK_RECORD
  5
11A
330
1
100
AcDbSymbolTableRecord
100
AcDbBlockTableRecord
  2
*D4
340
0
  0
BLOCK_RECORD
  5
13D
330
1
100
AcDbSymbolTableRecord
100
AcDbBlockTableRecord
  2
*X45
340
0
102
{BLKREFS
331
16C
102
}
  0
BLOCK_RECORD
  5
18F
330
1
100
AcDbSymbolTableRecord
100
AcDbBlockTableRecord
  2
*D6
340
0
  0
BLOCK_RECORD
  5
1A2
330
1
100
AcDbSymbolTableRecord
100
AcDbBlockTableRecord
  2
*X57
340
0
102
{BLKREFS
331
1AE
102
}
  0
BLOCK_RECORD
  5
1BF
330
1
100
AcDbSymbolTableRecord
100
AcDbBlockTableRecord
  2
*X68
340
0
102
{BLKREFS
331
1EE
102
}
  0
BLOCK_RECORD
  5
1EF
330
1
100
AcDbSymbolTableRecord
100
AcDbBlockTableRecord
  2
*X79
340
0
102
{BLKREFS
331
219
102
}
  0
BLOCK_RECORD
  5
21F
330
1
100
AcDbSymbolTableRecord
100
AcDbBlockTableRecord
  2
*X810
340
0
102
{BLKREFS
331
22B
102
}
  0
BLOCK_RECORD
  5
231
330
1
100
AcDbSymbolTableRecord
100
AcDbBlockTableRecord
  2
*D11
340
0
  0
BLOCK_RECORD
  5
300
330
1
100
AcDbSymbolTableRecord
100
AcDbBlockTableRecord
  2
*D12
340
0
  0
BLOCK_RECORD
  5
319
330
1
100
AcDbSymbolTableRecord
100
AcDbBlockTableRecord
  2
*D13
340
0
  0
BLOCK_RECORD
  5
33B
330
1
100
AcDbSymbolTableRecord
100
AcDbBlockTableRecord
  2
LCDIM1
340
0
102
{BLKREFS
331
359
102
}
  0
BLOCK_RECORD
  5
35A
330
1
100
AcDbSymbolTableRecord
100
AcDbBlockTableRecord
  2
*X915
340
0
102
{BLKREFS
331
36C
102
}
  0
ENDTAB
  0
ENDSEC
  0
SECTION
  2
BLOCKS
  0
BLOCK
  5
20
330
1F
100
AcDbEntity
  8
0
100
AcDbBlockBegin
  2
*Model_Space
 70
     0
 71
     0
 10
0.0
 20
0.0
 30
0.0
  3
*Model_Space
  1

  0
ENDBLK
  5
21
330
1F
100
AcDbEntity
  8
0
100
AcDbBlockEnd
  0
BLOCK
  5
1C
330
1B
100
AcDbEntity
 67
     1
  8
0
100
AcDbBlockBegin
  2
*Paper_Space
 70
     0
 71
     0
 10
0.0
 20
0.0
 30
0.0
  3
*Paper_Space
  1

  0
ENDBLK
  5
1D
330
1B
100
AcDbEntity
 67
     1
  8
0
100
AcDbBlockEnd
  0
BLOCK
  5
24
330
23
100
AcDbEntity
  8
0
100
AcDbBlockBegin
  2
*Paper_Space0
 70
     0
 71
     0
 10
0.0
 20
0.0
 30
0.0
  3
*Paper_Space0
  1

  0
ENDBLK
  5
25
330
23
100
AcDbEntity
  8
0
100
AcDbBlockEnd
  0
BLOCK
  5
50
330
4F
100
AcDbEntity
  8
0
100
AcDbBlockBegin
  2
*X11
 70
     1
 71
     0
 10
0.0
 20
0.0
 30
0.0
  3
*X11
  1

  4
*X1
  0
LINE
  5
53
330
4F
100
AcDbEntity
  8
LC-005-005-----0
 62
     7
370
    25
100
AcDbLine
 10
671.342627
 20
346.073508
 30
0.0
 11
672.220893
 21
346.951773
 31
0.0
  0
LINE
  5
54
330
4F
100
AcDbEntity
  8
LC-005-005-----0
 62
     7
370
    25
100
AcDbLine
 10
670.68713
 20
345.983696
 30
0.0
 11
672.310705
 21
347.607271
 31
0.0
  0
LINE
  5
55
330
4F
100
AcDbEntity
  8
LC-005-005-----0
 62
     7
370
    25
100
AcDbLine
 10
670.233649
 20
346.0959
 30
0.0
 11
672.1985
 21
348.060751
 31
0.0
  0
LINE
  5
56
330
4F
100
AcDbEntity
  8
LC-005-005-----0
 62
     7
370
    25
100
AcDbLine
 10
669.87904
 20
346.306977
 30
0.0
 11
671.987424
 21
348.415361
 31
0.0
  0
LINE
  5
57
330
4F
100
AcDbEntity
  8
LC-005-005-----0
 62
     7
370
    25
100
AcDbLine
 10
669.602781
 20
346.596404
 30
0.0
 11
671.697997
 21
348.691619
 31
0.0
  0
LINE
  5
58
330
4F
100
AcDbEntity
  8
LC-005-005-----0
 62
     7
370
    25
100
AcDbLine
 10
669.406483
 20
346.96579
 30
0.0
 11
671.32861
 21
348.887918
 31
0.0
  0
LINE
  5
59
330
4F
100
AcDbEntity
  8
LC-005-005-----0
 62
     7
370
    25
100
AcDbLine
 10
669.316716
 20
347.44171
 30
0.0
 11
670.852691
 21
348.977684
 31
0.0
  0
LINE
  5
5A
330
4F
100
AcDbEntity
  8
LC-005-005-----0
 62
     7
370
    25
100
AcDbLine
 10
669.492078
 20
348.182757
 30
0.0
 11
670.111643
 21
348.802322
 31
0.0
  0
ENDBLK
  5
51
330
4F
100
AcDbEntity
  8
0
100
AcDbBlockEnd
  0
BLOCK
  5
5F
330
5E
100
AcDbEntity
  8
0
100
AcDbBlockBegin
  2
*X22
 70
     1
 71
     0
 10
0.0
 20
0.0
 30
0.0
  3
*X22
  1

  4
*X2
  0
LINE
  5
61
330
5E
100
AcDbEntity
  8
LC-005-005-----0
 62
     7
370
    25
100
AcDbLine
 10
749.454282
 20
346.120574
 30
0.0
 11
750.173828
 21
346.84012
 31
0.0
  0
LINE
  5
62
330
5E
100
AcDbEntity
  8
LC-005-005-----0
 62
     7
370
    25
100
AcDbLine
 10
748.747716
 20
345.979694
 30
0.0
 11
750.314708
 21
347.546685
 31
0.0
  0
LINE
  5
63
330
5E
100
AcDbEntity
  8
LC-005-005-----0
 62
     7
370
    25
100
AcDbLine
 10
748.279713
 20
346.077376
 30
0.0
 11
750.217025
 21
348.014688
 31
0.0
  0
LINE
  5
64
330
5E
100
AcDbEntity
  8
LC-005-005-----0
 62
     7
370
    25
100
AcDbLine
 10
747.91542
 20
346.278768
 30
0.0
 11
750.015633
 21
348.378982
 31
0.0
  0
LINE
  5
65
330
5E
100
AcDbEntity
  8
LC-005-005-----0
 62
     7
370
    25
100
AcDbLine
 10
747.63047
 20
346.559504
 30
0.0
 11
749.734897
 21
348.663931
 31
0.0
  0
LINE
  5
66
330
5E
100
AcDbEntity
  8
LC-005-005-----0
 62
     7
370
    25
100
AcDbLine
 10
747.42435
 20
346.919069
 30
0.0
 11
749.375332
 21
348.870051
 31
0.0
  0
LINE
  5
67
330
5E
100
AcDbEntity
  8
LC-005-005-----0
 62
     7
370
    25
100
AcDbLine
 10
747.319495
 20
347.3799
 30
0.0
 11
748.914502
 21
348.974906
 31
0.0
  0
LINE
  5
68
330
5E
100
AcDbEntity
  8
LC-005-005-----0
 62
     7
370
    25
100
AcDbLine
 10
747.433605
 20
348.059695
 30
0.0
 11
748.234706
 21
348.860796
 31
0.0
  0
ENDBLK
  5
60
330
5E
100
AcDbEntity
  8
0
100
AcDbBlockEnd
  0
BLOCK
  5
71
330
70
100
AcDbEntity
  8
0
100
AcDbBlockBegin
  2
*X33
 70
     1
 71
     0
 10
0.0
 20
0.0
 30
0.0
  3
*X33
  1

  4
*X3
  0
LINE
  5
73
330
70
100
AcDbEntity
  8
LC-005-005-----0
 62
     7
370
    25
100
AcDbLine
 10
741.719778
 20
291.999865
 30
0.0
 11
746.294536
 21
296.574623
 31
0.0
  0
LINE
  5
74
330
70
100
AcDbEntity
  8
LC-005-005-----0
 62
     7
370
    25
100
AcDbLine
 10
739.5325
 20
291.2268
 30
0.0
 11
742.734862
 21
294.429162
 31
0.0
  0
LINE
  5
75
330
70
100
AcDbEntity
  8
LC-005-005-----0
 62
     7
370
    25
100
AcDbLine
 10
743.865239
 20
295.55954
 30
0.0
 11
747.067601
 21
298.761902
 31
0.0
  0
LINE
  5
76
330
70
100
AcDbEntity
  8
LC-005-005-----0
 62
     7
370
    25
100
AcDbLine
 10
737.885845
 20
290.99436
 30
0.0
 11
739.715136
 21
292.823651
 31
0.0
  0
LINE
  5
77
330
70
100
AcDbEntity
  8
LC-005-005-----0
 62
     7
370
    25
100
AcDbLine
 10
745.470751
 20
298.579265
 30
0.0
 11
747.300042
 21
300.408556
 31
0.0
  0
LINE
  5
78
330
70
100
AcDbEntity
  8
LC-005-005-----0
 62
     7
370
    25
100
AcDbLine
 10
736.455398
 20
290.978126
 30
0.0
 11
737.981466
 21
292.504194
 31
0.0
  0
LINE
  5
79
330
70
100
AcDbEntity
  8
LC-005-005-----0
 62
     7
370
    25
100
AcDbLine
 10
745.790207
 20
300.312935
 30
0.0
 11
747.316275
 21
301.839003
 31
0.0
  0
LINE
  5
7A
330
70
100
AcDbEntity
  8
LC-005-005-----0
 62
     7
370
    25
100
AcDbLine
 10
735.041185
 20
290.978126
 30
0.0
 11
736.541185
 21
292.478126
 31
0.0
  0
LINE
  5
7B
330
70
100
AcDbEntity
  8
LC-005-005-----0
 62
     7
370
    25
100
AcDbLine
 10
745.816276
 20
301.753217
 30
0.0
 11
747.316275
 21
303.253217
 31
0.0
  0
LINE
  5
7C
330
70
100
AcDbEntity
  8
LC-005-005-----0
 62
     7
370
    25
100
AcDbLine
 10
733.626971
 20
290.978126
 30
0.0
 11
735.126971
 21
292.478126
 31
0.0
  0
LINE
  5
7D
330
70
100
AcDbEntity
  8
LC-005-005-----0
 62
     7
370
    25
100
AcDbLine
 10
745.816275
 20
303.16743
 30
0.0
 11
747.316275
 21
304.66743
 31
0.0
  0
LINE
  5
7E
330
70
100
AcDbEntity
  8
LC-005-005-----0
 62
     7
370
    25
100
AcDbLine
 10
732.212757
 20
290.978126
 30
0.0
 11
733.712757
 21
292.478126
 31
0.0
  0
LINE
  5
7F
330
70
100
AcDbEntity
  8
LC-005-005-----0
 62
     7
370
    25
100
AcDbLine
 10
745.816275
 20
304.581644
 30
0.0
 11
747.316275
 21
306.081644
 31
0.0
  0
LINE
  5
80
330
70
100
AcDbEntity
  8
LC-005-005-----0
 62
     7
370
    25
100
AcDbLine
 10
730.798544
 20
290.978126
 30
0.0
 11
732.298544
 21
292.478126
 31
0.0
  0
LINE
  5
81
330
70
100
AcDbEntity
  8
LC-005-005-----0
 62
     7
370
    25
100
AcDbLine
 10
745.816275
 20
305.995858
 30
0.0
 11
747.316275
 21
307.495857
 31
0.0
  0
LINE
  5
82
330
70
100
AcDbEntity
  8
LC-005-005-----0
 62
     7
370
    25
100
AcDbLine
 10
729.38433
 20
290.978126
 30
0.0
 11
730.88433
 21
292.478126
 31
0.0
  0
LINE
  5
83
330
70
100
AcDbEntity
  8
LC-005-005-----0
 62
     7
370
    25
100
AcDbLine
 10
745.816275
 20
307.410071
 30
0.0
 11
747.316275
 21
308.910071
 31
0.0
  0
LINE
  5
84
330
70
100
AcDbEntity
  8
LC-005-005-----0
 62
     7
370
    25
100
AcDbLine
 10
727.970117
 20
290.978126
 30
0.0
 11
729.470117
 21
292.478126
 31
0.0
  0
LINE
  5
85
330
70
100
AcDbEntity
  8
LC-005-005-----0
 62
     7
370
    25
100
AcDbLine
 10
745.816275
 20
308.824285
 30
0.0
 11
747.316275
 21
310.324285
 31
0.0
  0
LINE
  5
86
330
70
100
AcDbEntity
  8
LC-005-005-----0
 62
     7
370
    25
100
AcDbLine
 10
726.555903
 20
290.978126
 30
0.0
 11
728.055903
 21
292.478126
 31
0.0
  0
LINE
  5
87
330
70
100
AcDbEntity
  8
LC-005-005-----0
 62
     7
370
    25
100
AcDbLine
 10
745.816275
 20
310.238498
 30
0.0
 11
747.316275
 21
311.738498
 31
0.0
  0
LINE
  5
88
330
70
100
AcDbEntity
  8
LC-005-005-----0
 62
     7
370
    25
100
AcDbLine
 10
725.14169
 20
290.978126
 30
0.0
 11
726.64169
 21
292.478126
 31
0.0
  0
LINE
  5
89
330
70
100
AcDbEntity
  8
LC-005-005-----0
 62
     7
370
    25
100
AcDbLine
 10
745.816275
 20
311.652712
 30
0.0
 11
747.316275
 21
313.152712
 31
0.0
  0
LINE
  5
8A
330
70
100
AcDbEntity
  8
LC-005-005-----0
 62
     7
370
    25
100
AcDbLine
 10
723.727476
 20
290.978126
 30
0.0
 11
725.227476
 21
292.478126
 31
0.0
  0
LINE
  5
8B
330
70
100
AcDbEntity
  8
LC-005-005-----0
 62
     7
370
    25
100
AcDbLine
 10
745.816275
 20
313.066925
 30
0.0
 11
747.316275
 21
314.566925
 31
0.0
  0
LINE
  5
8C
330
70
100
AcDbEntity
  8
LC-005-005-----0
 62
     7
370
    25
100
AcDbLine
 10
722.322303
 20
290.987166
 30
0.0
 11
723.813262
 21
292.478126
 31
0.0
  0
LINE
  5
8D
330
70
100
AcDbEntity
  8
LC-005-005-----0
 62
     7
370
    25
100
AcDbLine
 10
745.816275
 20
314.481139
 30
0.0
 11
747.316275
 21
315.981139
 31
0.0
  0
LINE
  5
8E
330
70
100
AcDbEntity
  8
LC-005-005-----0
 62
     7
370
    25
100
AcDbLine
 10
721.019194
 20
291.098271
 30
0.0
 11
722.406062
 21
292.485139
 31
0.0
  0
LINE
  5
8F
330
70
100
AcDbEntity
  8
LC-005-005-----0
 62
     7
370
    25
100
AcDbLine
 10
745.816275
 20
315.895352
 30
0.0
 11
747.316275
 21
317.395352
 31
0.0
  0
LINE
  5
90
330
70
100
AcDbEntity
  8
LC-005-005-----0
 62
     7
370
    25
100
AcDbLine
 10
719.821254
 20
291.314544
 30
0.0
 11
721.107168
 21
292.600459
 31
0.0
  0
LINE
  5
91
330
70
100
AcDbEntity
  8
LC-005-005-----0
 62
     7
370
    25
100
AcDbLine
 10
745.816275
 20
317.309566
 30
0.0
 11
747.316275
 21
318.809566
 31
0.0
  0
LINE
  5
92
330
70
100
AcDbEntity
  8
LC-005-005-----0
 62
     7
370
    25
100
AcDbLine
 10
718.710208
 20
291.617712
 30
0.0
 11
719.92431
 21
292.831815
 31
0.0
  0
LINE
  5
93
330
70
100
AcDbEntity
  8
LC-005-005-----0
 62
     7
370
    25
100
AcDbLine
 10
745.816275
 20
318.723779
 30
0.0
 11
747.316275
 21
320.223779
 31
0.0
  0
LINE
  5
94
330
70
100
AcDbEntity
  8
LC-005-005-----0
 62
     7
370
    25
100
AcDbLine
 10
717.674098
 20
291.995816
 30
0.0
 11
718.83581
 21
293.157528
 31
0.0
  0
LINE
  5
95
330
70
100
AcDbEntity
  8
LC-005-005-----0
 62
     7
370
    25
100
AcDbLine
 10
745.816275
 20
320.137993
 30
0.0
 11
747.316275
 21
321.637993
 31
0.0
  0
LINE
  5
96
330
70
100
AcDbEntity
  8
LC-005-005-----0
 62
     7
370
    25
100
AcDbLine
 10
716.704771
 20
292.440702
 30
0.0
 11
717.828078
 21
293.564009
 31
0.0
  0
LINE
  5
97
330
70
100
AcDbEntity
  8
LC-005-005-----0
 62
     7
370
    25
100
AcDbLine
 10
745.816275
 20
321.552206
 30
0.0
 11
747.316275
 21
323.052206
 31
0.0
  0
LINE
  5
98
330
70
100
AcDbEntity
  8
LC-005-005-----0
 62
     7
370
    25
100
AcDbLine
 10
715.79656
 20
292.946705
 30
0.0
 11
716.892204
 21
294.042349
 31
0.0
  0
LINE
  5
99
330
70
100
AcDbEntity
  8
LC-005-005-----0
 62
     7
370
    25
100
AcDbLine
 10
745.816275
 20
322.96642
 30
0.0
 11
747.316275
 21
324.46642
 31
0.0
  0
LINE
  5
9A
330
70
100
AcDbEntity
  8
LC-005-005-----0
 62
     7
370
    25
100
AcDbLine
 10
714.945551
 20
293.509909
 30
0.0
 11
716.022275
 21
294.586633
 31
0.0
  0
LINE
  5
9B
330
70
100
AcDbEntity
  8
LC-005-005-----0
 62
     7
370
    25
100
AcDbLine
 10
745.816275
 20
324.380633
 30
0.0
 11
747.316275
 21
325.880633
 31
0.0
  0
LINE
  5
9C
330
70
100
AcDbEntity
  8
LC-005-005-----0
 62
     7
370
    25
100
AcDbLine
 10
714.149146
 20
294.127717
 30
0.0
 11
715.214474
 21
295.193046
 31
0.0
  0
LINE
  5
9D
330
70
100
AcDbEntity
  8
LC-005-005-----0
 62
     7
370
    25
100
AcDbLine
 10
745.816275
 20
325.794847
 30
0.0
 11
747.316275
 21
327.294847
 31
0.0
  0
LINE
  5
9E
330
70
100
AcDbEntity
  8
LC-005-005-----0
 62
     7
370
    25
100
AcDbLine
 10
713.405812
 20
294.798597
 30
0.0
 11
714.46659
 21
295.859376
 31
0.0
  0
LINE
  5
9F
330
70
100
AcDbEntity
  8
LC-005-005-----0
 62
     7
370
    25
100
AcDbLine
 10
745.816275
 20
327.209061
 30
0.0
 11
747.316275
 21
328.709061
 31
0.0
  0
LINE
  5
A0
330
70
100
AcDbEntity
  8
LC-005-005-----0
 62
     7
370
    25
100
AcDbLine
 10
712.714944
 20
295.521943
 30
0.0
 11
713.777757
 21
296.584756
 31
0.0
  0
LINE
  5
A1
330
70
100
AcDbEntity
  8
LC-005-005-----0
 62
     7
370
    25
100
AcDbLine
 10
745.816275
 20
328.623274
 30
0.0
 11
747.316275
 21
330.123274
 31
0.0
  0
LINE
  5
A2
330
70
100
AcDbEntity
  8
LC-005-005-----0
 62
     7
370
    25
100
AcDbLine
 10
712.076812
 20
296.298025
 30
0.0
 11
713.14836
 21
297.369573
 31
0.0
  0
LINE
  5
A3
330
70
100
AcDbEntity
  8
LC-005-005-----0
 62
     7
370
    25
100
AcDbLine
 10
745.816275
 20
330.037488
 30
0.0
 11
747.316275
 21
331.537488
 31
0.0
  0
LINE
  5
A4
330
70
100
AcDbEntity
  8
LC-005-005-----0
 62
     7
370
    25
100
AcDbLine
 10
711.492586
 20
297.128012
 30
0.0
 11
712.58008
 21
298.215506
 31
0.0
  0
LINE
  5
A5
330
70
100
AcDbEntity
  8
LC-005-005-----0
 62
     7
370
    25
100
AcDbLine
 10
745.816275
 20
331.451701
 30
0.0
 11
747.316275
 21
332.951701
 31
0.0
  0
LINE
  5
A6
330
70
100
AcDbEntity
  8
LC-005-005-----0
 62
     7
370
    25
100
AcDbLine
 10
710.939419
 20
297.989059
 30
0.0
 11
712.00106
 21
299.0507
 31
0.0
  0
LINE
  5
A7
330
70
100
AcDbEntity
  8
LC-005-005-----0
 62
     7
370
    25
100
AcDbLine
 10
745.816275
 20
332.865915
 30
0.0
 11
747.316275
 21
334.365915
 31
0.0
  0
LINE
  5
A8
330
70
100
AcDbEntity
  8
LC-005-005-----0
 62
     7
370
    25
100
AcDbLine
 10
710.017403
 20
298.481256
 30
0.0
 11
711.195241
 21
299.659094
 31
0.0
  0
LINE
  5
A9
330
70
100
AcDbEntity
  8
LC-005-005-----0
 62
     7
370
    25
100
AcDbLine
 10
702.235518
 20
292.113585
 30
0.0
 11
710.103001
 21
299.981068
 31
0.0
  0
LINE
  5
AA
330
70
100
AcDbEntity
  8
LC-005-005-----0
 62
     7
370
    25
100
AcDbLine
 10
700.088392
 20
291.380672
 30
0.0
 11
702.762907
 21
294.055188
 31
0.0
  0
LINE
  5
AB
330
70
100
AcDbEntity
  8
LC-005-005-----0
 62
     7
370
    25
100
AcDbLine
 10
707.240499
 20
298.53278
 30
0.0
 11
708.278297
 21
299.570578
 31
0.0
  0
LINE
  5
AC
330
70
100
AcDbEntity
  8
LC-005-005-----0
 62
     7
370
    25
100
AcDbLine
 10
698.360208
 20
291.066702
 30
0.0
 11
700.283424
 21
292.989918
 31
0.0
  0
LINE
  5
AD
330
70
100
AcDbEntity
  8
LC-005-005-----0
 62
     7
370
    25
100
AcDbLine
 10
696.857481
 20
290.978189
 30
0.0
 11
698.472223
 21
292.592931
 31
0.0
  0
LINE
  5
AE
330
70
100
AcDbEntity
  8
LC-005-005-----0
 62
     7
370
    25
100
AcDbLine
 10
695.443205
 20
290.978126
 30
0.0
 11
696.943883
 21
292.478804
 31
0.0
  0
LINE
  5
AF
330
70
100
AcDbEntity
  8
LC-005-005-----0
 62
     7
370
    25
100
AcDbLine
 10
749.443205
 20
344.978126
 30
0.0
 11
749.816259
 21
345.35118
 31
0.0
  0
LINE
  5
B0
330
70
100
AcDbEntity
  8
LC-005-005-----0
 62
     7
370
    25
100
AcDbLine
 10
694.028991
 20
290.978126
 30
0.0
 11
695.528991
 21
292.478126
 31
0.0
  0
LINE
  5
B1
330
70
100
AcDbEntity
  8
LC-005-005-----0
 62
     7
370
    25
100
AcDbLine
 10
748.028991
 20
344.978126
 30
0.0
 11
749.028991
 21
345.978126
 31
0.0
  0
LINE
  5
B2
330
70
100
AcDbEntity
  8
LC-005-005-----0
 62
     7
370
    25
100
AcDbLine
 10
692.614778
 20
290.978126
 30
0.0
 11
694.114778
 21
292.478126
 31
0.0
  0
LINE
  5
B3
330
70
100
AcDbEntity
  8
LC-005-005-----0
 62
     7
370
    25
100
AcDbLine
 10
747.316264
 20
345.679613
 30
0.0
 11
747.614778
 21
345.978126
 31
0.0
  0
LINE
  5
B4
330
70
100
AcDbEntity
  8
LC-005-005-----0
 62
     7
370
    25
100
AcDbLine
 10
691.200564
 20
290.978126
 30
0.0
 11
692.700564
 21
292.478126
 31
0.0
  0
LINE
  5
B5
330
70
100
AcDbEntity
  8
LC-005-005-----0
 62
     7
370
    25
100
AcDbLine
 10
689.786351
 20
290.978126
 30
0.0
 11
691.286351
 21
292.478126
 31
0.0
  0
LINE
  5
B6
330
70
100
AcDbEntity
  8
LC-005-005-----0
 62
     7
370
    25
100
AcDbLine
 10
688.372137
 20
290.978126
 30
0.0
 11
689.872137
 21
292.478126
 31
0.0
  0
LINE
  5
B7
330
70
100
AcDbEntity
  8
LC-005-005-----0
 62
     7
370
    25
100
AcDbLine
 10
686.957923
 20
290.978126
 30
0.0
 11
688.457923
 21
292.478126
 31
0.0
  0
LINE
  5
B8
330
70
100
AcDbEntity
  8
LC-005-005-----0
 62
     7
370
    25
100
AcDbLine
 10
685.54371
 20
290.978126
 30
0.0
 11
687.04371
 21
292.478126
 31
0.0
  0
LINE
  5
B9
330
70
100
AcDbEntity
  8
LC-005-005-----0
 62
     7
370
    25
100
AcDbLine
 10
684.129496
 20
290.978126
 30
0.0
 11
685.629496
 21
292.478126
 31
0.0
  0
LINE
  5
BA
330
70
100
AcDbEntity
  8
LC-005-005-----0
 62
     7
370
    25
100
AcDbLine
 10
682.715283
 20
290.978126
 30
0.0
 11
684.215283
 21
292.478126
 31
0.0
  0
LINE
  5
BB
330
70
100
AcDbEntity
  8
LC-005-005-----0
 62
     7
370
    25
100
AcDbLine
 10
681.348052
 20
291.025109
 30
0.0
 11
682.801069
 21
292.478126
 31
0.0
  0
LINE
  5
BC
330
70
100
AcDbEntity
  8
LC-005-005-----0
 62
     7
370
    25
100
AcDbLine
 10
680.128997
 20
291.220267
 30
0.0
 11
681.432885
 21
292.524155
 31
0.0
  0
LINE
  5
BD
330
70
100
AcDbEntity
  8
LC-005-005-----0
 62
     7
370
    25
100
AcDbLine
 10
679.028551
 20
291.534034
 30
0.0
 11
680.232116
 21
292.737599
 31
0.0
  0
LINE
  5
BE
330
70
100
AcDbEntity
  8
LC-005-005-----0
 62
     7
370
    25
100
AcDbLine
 10
678.025671
 20
291.945368
 30
0.0
 11
679.1644
 21
293.084098
 31
0.0
  0
LINE
  5
BF
330
70
100
AcDbEntity
  8
LC-005-005-----0
 62
     7
370
    25
100
AcDbLine
 10
677.107749
 20
292.44166
 30
0.0
 11
678.204762
 21
293.538673
 31
0.0
  0
LINE
  5
C0
330
70
100
AcDbEntity
  8
LC-005-005-----0
 62
     7
370
    25
100
AcDbLine
 10
676.267112
 20
293.015236
 30
0.0
 11
677.339386
 21
294.087511
 31
0.0
  0
LINE
  5
C1
330
70
100
AcDbEntity
  8
LC-005-005-----0
 62
     7
370
    25
100
AcDbLine
 10
675.499376
 20
293.661714
 30
0.0
 11
676.560815
 21
294.723154
 31
0.0
  0
LINE
  5
C2
330
70
100
AcDbEntity
  8
LC-005-005-----0
 62
     7
370
    25
100
AcDbLine
 10
674.802663
 20
294.379215
 30
0.0
 11
675.865943
 21
295.442495
 31
0.0
  0
LINE
  5
C3
330
70
100
AcDbEntity
  8
LC-005-005-----0
 62
     7
370
    25
100
AcDbLine
 10
674.17729
 20
295.168056
 30
0.0
 11
675.25529
 21
296.246056
 31
0.0
  0
LINE
  5
C4
330
70
100
AcDbEntity
  8
LC-005-005-----0
 62
     7
370
    25
100
AcDbLine
 10
673.625822
 20
296.030801
 30
0.0
 11
674.733122
 21
297.138101
 31
0.0
  0
LINE
  5
C5
330
70
100
AcDbEntity
  8
LC-005-005-----0
 62
     7
370
    25
100
AcDbLine
 10
673.153498
 20
296.972691
 30
0.0
 11
674.308474
 21
298.127667
 31
0.0
  0
LINE
  5
C6
330
70
100
AcDbEntity
  8
LC-005-005-----0
 62
     7
370
    25
100
AcDbLine
 10
672.769215
 20
298.002621
 30
0.0
 11
673.997739
 21
299.231145
 31
0.0
  0
LINE
  5
C7
330
70
100
AcDbEntity
  8
LC-005-005-----0
 62
     7
370
    25
100
AcDbLine
 10
672.487564
 20
299.135184
 30
0.0
 11
673.830967
 21
300.478587
 31
0.0
  0
LINE
  5
C8
330
70
100
AcDbEntity
  8
LC-005-005-----0
 62
     7
370
    25
100
AcDbLine
 10
672.333285
 20
300.395118
 30
0.0
 11
673.816275
 21
301.878109
 31
0.0
  0
LINE
  5
C9
330
70
100
AcDbEntity
  8
LC-005-005-----0
 62
     7
370
    25
100
AcDbLine
 10
672.316276
 20
301.792322
 30
0.0
 11
673.816275
 21
303.292322
 31
0.0
  0
LINE
  5
CA
330
70
100
AcDbEntity
  8
LC-005-005-----0
 62
     7
370
    25
100
AcDbLine
 10
672.316275
 20
303.206536
 30
0.0
 11
673.816275
 21
304.706536
 31
0.0
  0
LINE
  5
CB
330
70
100
AcDbEntity
  8
LC-005-005-----0
 62
     7
370
    25
100
AcDbLine
 10
672.316275
 20
304.620749
 30
0.0
 11
673.816275
 21
306.120749
 31
0.0
  0
LINE
  5
CC
330
70
100
AcDbEntity
  8
LC-005-005-----0
 62
     7
370
    25
100
AcDbLine
 10
672.316275
 20
306.034963
 30
0.0
 11
673.816275
 21
307.534963
 31
0.0
  0
LINE
  5
CD
330
70
100
AcDbEntity
  8
LC-005-005-----0
 62
     7
370
    25
100
AcDbLine
 10
672.316275
 20
307.449176
 30
0.0
 11
673.816275
 21
308.949176
 31
0.0
  0
LINE
  5
CE
330
70
100
AcDbEntity
  8
LC-005-005-----0
 62
     7
370
    25
100
AcDbLine
 10
672.316275
 20
308.86339
 30
0.0
 11
673.816275
 21
310.36339
 31
0.0
  0
LINE
  5
CF
330
70
100
AcDbEntity
  8
LC-005-005-----0
 62
     7
370
    25
100
AcDbLine
 10
672.316275
 20
310.277603
 30
0.0
 11
673.816275
 21
311.777603
 31
0.0
  0
LINE
  5
D0
330
70
100
AcDbEntity
  8
LC-005-005-----0
 62
     7
370
    25
100
AcDbLine
 10
672.316275
 20
311.691817
 30
0.0
 11
673.816275
 21
313.191817
 31
0.0
  0
LINE
  5
D1
330
70
100
AcDbEntity
  8
LC-005-005-----0
 62
     7
370
    25
100
AcDbLine
 10
672.316275
 20
313.10603
 30
0.0
 11
673.816275
 21
314.60603
 31
0.0
  0
LINE
  5
D2
330
70
100
AcDbEntity
  8
LC-005-005-----0
 62
     7
370
    25
100
AcDbLine
 10
672.316275
 20
314.520244
 30
0.0
 11
673.816275
 21
316.020244
 31
0.0
  0
LINE
  5
D3
330
70
100
AcDbEntity
  8
LC-005-005-----0
 62
     7
370
    25
100
AcDbLine
 10
672.316275
 20
315.934458
 30
0.0
 11
673.816275
 21
317.434457
 31
0.0
  0
LINE
  5
D4
330
70
100
AcDbEntity
  8
LC-005-005-----0
 62
     7
370
    25
100
AcDbLine
 10
672.316275
 20
317.348671
 30
0.0
 11
673.816275
 21
318.848671
 31
0.0
  0
LINE
  5
D5
330
70
100
AcDbEntity
  8
LC-005-005-----0
 62
     7
370
    25
100
AcDbLine
 10
672.316275
 20
318.762885
 30
0.0
 11
673.816275
 21
320.262885
 31
0.0
  0
LINE
  5
D6
330
70
100
AcDbEntity
  8
LC-005-005-----0
 62
     7
370
    25
100
AcDbLine
 10
672.316275
 20
320.177098
 30
0.0
 11
673.816275
 21
321.677098
 31
0.0
  0
LINE
  5
D7
330
70
100
AcDbEntity
  8
LC-005-005-----0
 62
     7
370
    25
100
AcDbLine
 10
672.316275
 20
321.591312
 30
0.0
 11
673.816275
 21
323.091312
 31
0.0
  0
LINE
  5
D8
330
70
100
AcDbEntity
  8
LC-005-005-----0
 62
     7
370
    25
100
AcDbLine
 10
672.316275
 20
323.005525
 30
0.0
 11
673.816275
 21
324.505525
 31
0.0
  0
LINE
  5
D9
330
70
100
AcDbEntity
  8
LC-005-005-----0
 62
     7
370
    25
100
AcDbLine
 10
672.316275
 20
324.419739
 30
0.0
 11
673.816275
 21
325.919739
 31
0.0
  0
LINE
  5
DA
330
70
100
AcDbEntity
  8
LC-005-005-----0
 62
     7
370
    25
100
AcDbLine
 10
672.316275
 20
325.833952
 30
0.0
 11
673.816275
 21
327.333952
 31
0.0
  0
LINE
  5
DB
330
70
100
AcDbEntity
  8
LC-005-005-----0
 62
     7
370
    25
100
AcDbLine
 10
672.316275
 20
327.248166
 30
0.0
 11
673.816275
 21
328.748166
 31
0.0
  0
LINE
  5
DC
330
70
100
AcDbEntity
  8
LC-005-005-----0
 62
     7
370
    25
100
AcDbLine
 10
672.316275
 20
328.662379
 30
0.0
 11
673.816275
 21
330.162379
 31
0.0
  0
LINE
  5
DD
330
70
100
AcDbEntity
  8
LC-005-005-----0
 62
     7
370
    25
100
AcDbLine
 10
672.316275
 20
330.076593
 30
0.0
 11
673.816275
 21
331.576593
 31
0.0
  0
LINE
  5
DE
330
70
100
AcDbEntity
  8
LC-005-005-----0
 62
     7
370
    25
100
AcDbLine
 10
672.316275
 20
331.490806
 30
0.0
 11
673.809935
 21
332.984466
 31
0.0
  0
LINE
  5
DF
330
70
100
AcDbEntity
  8
LC-005-005-----0
 62
     7
370
    25
100
AcDbLine
 10
672.316275
 20
332.90502
 30
0.0
 11
673.102828
 21
333.691573
 31
0.0
  0
LINE
  5
E0
330
70
100
AcDbEntity
  8
LC-005-005-----0
 62
     7
370
    25
100
AcDbLine
 10
672.316275
 20
334.319233
 30
0.0
 11
672.395721
 21
334.39868
 31
0.0
  0
LINE
  5
E1
330
70
100
AcDbEntity
  8
LC-005-005-----0
 62
     7
370
    25
100
AcDbLine
 10
671.661459
 20
344.978126
 30
0.0
 11
672.316275
 21
345.632942
 31
0.0
  0
LINE
  5
E2
330
70
100
AcDbEntity
  8
LC-005-005-----0
 62
     7
370
    25
100
AcDbLine
 10
670.247245
 20
344.978126
 30
0.0
 11
671.247245
 21
345.978126
 31
0.0
  0
LINE
  5
E3
330
70
100
AcDbEntity
  8
LC-005-005-----0
 62
     7
370
    25
100
AcDbLine
 10
669.816281
 20
345.961375
 30
0.0
 11
669.833032
 21
345.978126
 31
0.0
  0
ENDBLK
  5
72
330
70
100
AcDbEntity
  8
0
100
AcDbBlockEnd
  0
BLOCK
  5
124
330
11A
100
AcDbEntity
  8
0
100
AcDbBlockBegin
  2
*D4
 70
     1
 71
     0
 10
0.0
 20
0.0
 30
0.0
  3
*D4
  1

  0
LINE
  5
11B
330
11A
100
AcDbEntity
  8
LC-007-003-----0
 62
     2
370
    -2
100
AcDbLine
 10
594.816275
 20
367.112863
 30
0.0
 11
594.816275
 21
395.6
 31
0.0
  0
LINE
  5
11C
330
11A
100
AcDbEntity
  8
LC-007-003-----0
 62
     2
370
    -2
100
AcDbLine
 10
824.816275
 20
367.112863
 30
0.0
 11
824.816275
 21
395.6
 31
0.0
  0
LINE
  5
11D
330
11A
100
AcDbEntity
  8
LC-007-003-----0
 62
     2
370
    -2
100
AcDbLine
 10
622.816275
 20
392.0
 30
0.0
 11
796.816275
 21
392.0
 31
0.0
  0
SOLID
  5
11E
330
11A
100
AcDbEntity
  8
LC-007-003-----0
 62
     2
100
AcDbTrace
 10
622.816275
 20
396.666667
 30
0.0
 11
622.816275
 21
387.333333
 31
0.0
 12
594.816275
 22
392.0
 32
0.0
 13
594.816275
 23
392.0
 33
0.0
  0
SOLID
  5
11F
330
11A
100
AcDbEntity
  8
LC-007-003-----0
 62
     2
100
AcDbTrace
 10
796.816275
 20
387.333333
 30
0.0
 11
796.816275
 21
396.666667
 31
0.0
 12
824.816275
 22
392.0
 32
0.0
 13
824.816275
 23
392.0
 33
0.0
  0
MTEXT
  5
120
330
11A
100
AcDbEntity
  8
LC-007-003-----0
 62
     2
100
AcDbMText
 10
709.816275
 20
422.8
 30
0.0
 40
28.0
 41
0.0
 71
     5
 72
     1
  1
%%c\A1;230
  7
LCTX15-400-0-0pDIN-Schrift
 73
     1
 44
1.0
  0
POINT
  5
121
330
11A
100
AcDbEntity
  8
Defpoints
 62
     0
100
AcDbPoint
 10
594.816275
 20
367.112863
 30
0.0
  0
POINT
  5
122
330
11A
100
AcDbEntity
  8
Defpoints
 62
     0
100
AcDbPoint
 10
824.816275
 20
367.112863
 30
0.0
  0
POINT
  5
123
330
11A
100
AcDbEntity
  8
Defpoints
 62
     0
100
AcDbPoint
 10
824.816275
 20
392.0
 30
0.0
  0
ENDBLK
  5
125
330
11A
100
AcDbEntity
  8
0
100
AcDbBlockEnd
  0
BLOCK
  5
13E
330
13D
100
AcDbEntity
  8
0
100
AcDbBlockBegin
  2
*X45
 70
     1
 71
     0
 10
0.0
 20
0.0
 30
0.0
  3
*X45
  1

  4
*X4
  0
LINE
  5
140
330
13D
100
AcDbEntity
  8
LC-005-005-----0
 62
     7
370
    25
100
AcDbLine
 10
750.290379
 20
349.967773
 30
0.0
 11
748.905329
 21
351.352823
 31
0.0
  0
LINE
  5
141
330
13D
100
AcDbEntity
  8
LC-005-005-----0
 62
     7
370
    25
100
AcDbLine
 10
747.694363
 20
349.735362
 30
0.0
 11
746.76625
 21
350.663475
 31
0.0
  0
LINE
  5
142
330
13D
100
AcDbEntity
  8
LC-005-005-----0
 62
     7
370
    25
100
AcDbLine
 10
749.816275
 20
344.785022
 30
0.0
 11
749.623171
 21
344.978126
 31
0.0
  0
LINE
  5
143
330
13D
100
AcDbEntity
  8
LC-005-005-----0
 62
     7
370
    25
100
AcDbLine
 10
747.316275
 20
347.285022
 30
0.0
 11
745.102672
 21
349.498625
 31
0.0
  0
LINE
  5
144
330
13D
100
AcDbEntity
  8
LC-005-005-----0
 62
     7
370
    25
100
AcDbLine
 10
747.794744
 20
343.978126
 30
0.0
 11
745.316275
 21
346.456595
 31
0.0
  0
LINE
  5
145
330
13D
100
AcDbEntity
  8
LC-005-005-----0
 62
     7
370
    25
100
AcDbLine
 10
744.516117
 20
347.256753
 30
0.0
 11
743.439095
 21
348.333776
 31
0.0
  0
LINE
  5
146
330
13D
100
AcDbEntity
  8
LC-005-005-----0
 62
     7
370
    25
100
AcDbLine
 10
742.85254
 20
346.091903
 30
0.0
 11
741.775517
 21
347.168926
 31
0.0
  0
LINE
  5
147
330
13D
100
AcDbEntity
  8
LC-005-005-----0
 62
     7
370
    25
100
AcDbLine
 10
741.188962
 20
344.927054
 30
0.0
 11
740.111939
 21
346.004076
 31
0.0
  0
LINE
  5
148
330
13D
100
AcDbEntity
  8
LC-005-005-----0
 62
     7
370
    25
100
AcDbLine
 10
739.525384
 20
343.762204
 30
0.0
 11
738.448362
 21
344.839227
 31
0.0
  0
LINE
  5
149
330
13D
100
AcDbEntity
  8
LC-005-005-----0
 62
     7
370
    25
100
AcDbLine
 10
737.861807
 20
342.597355
 30
0.0
 11
736.784784
 21
343.674377
 31
0.0
  0
LINE
  5
14A
330
13D
100
AcDbEntity
  8
LC-005-005-----0
 62
     7
370
    25
100
AcDbLine
 10
736.198229
 20
341.432505
 30
0.0
 11
735.121207
 21
342.509528
 31
0.0
  0
LINE
  5
14B
330
13D
100
AcDbEntity
  8
LC-005-005-----0
 62
     7
370
    25
100
AcDbLine
 10
734.550426
 20
340.251881
 30
0.0
 11
733.55275
 21
341.249558
 31
0.0
  0
LINE
  5
14C
330
13D
100
AcDbEntity
  8
LC-005-005-----0
 62
     7
370
    25
100
AcDbLine
 10
733.124808
 20
338.849072
 30
0.0
 11
732.22032
 21
339.75356
 31
0.0
  0
LINE
  5
14D
330
13D
100
AcDbEntity
  8
LC-005-005-----0
 62
     7
370
    25
100
AcDbLine
 10
731.988739
 20
337.156714
 30
0.0
 11
731.132713
 21
338.01274
 31
0.0
  0
LINE
  5
14E
330
13D
100
AcDbEntity
  8
LC-005-005-----0
 62
     7
370
    25
100
AcDbLine
 10
731.181344
 20
335.135682
 30
0.0
 11
730.321972
 21
335.995054
 31
0.0
  0
LINE
  5
14F
330
13D
100
AcDbEntity
  8
LC-005-005-----0
 62
     7
370
    25
100
AcDbLine
 10
730.818516
 20
332.670083
 30
0.0
 11
729.864597
 21
333.624002
 31
0.0
  0
LINE
  5
150
330
13D
100
AcDbEntity
  8
LC-005-005-----0
 62
     7
370
    25
100
AcDbLine
 10
730.816274
 20
329.843897
 30
0.0
 11
729.816274
 21
330.843897
 31
0.0
  0
LINE
  5
151
330
13D
100
AcDbEntity
  8
LC-005-005-----0
 62
     7
370
    25
100
AcDbLine
 10
730.816274
 20
327.01547
 30
0.0
 11
729.816274
 21
328.01547
 31
0.0
  0
LINE
  5
152
330
13D
100
AcDbEntity
  8
LC-005-005-----0
 62
     7
370
    25
100
AcDbLine
 10
730.816274
 20
324.187043
 30
0.0
 11
729.816274
 21
325.187043
 31
0.0
  0
LINE
  5
153
330
13D
100
AcDbEntity
  8
LC-005-005-----0
 62
     7
370
    25
100
AcDbLine
 10
730.816274
 20
321.358616
 30
0.0
 11
729.816274
 21
322.358616
 31
0.0
  0
LINE
  5
154
330
13D
100
AcDbEntity
  8
LC-005-005-----0
 62
     7
370
    25
100
AcDbLine
 10
730.816275
 20
318.530189
 30
0.0
 11
729.816275
 21
319.530189
 31
0.0
  0
LINE
  5
155
330
13D
100
AcDbEntity
  8
LC-005-005-----0
 62
     7
370
    25
100
AcDbLine
 10
730.816275
 20
315.701762
 30
0.0
 11
729.816275
 21
316.701762
 31
0.0
  0
LINE
  5
156
330
13D
100
AcDbEntity
  8
LC-005-005-----0
 62
     7
370
    25
100
AcDbLine
 10
730.816275
 20
312.873334
 30
0.0
 11
729.816275
 21
313.873334
 31
0.0
  0
LINE
  5
157
330
13D
100
AcDbEntity
  8
LC-005-005-----0
 62
     7
370
    25
100
AcDbLine
 10
730.816275
 20
310.044907
 30
0.0
 11
729.816275
 21
311.044907
 31
0.0
  0
LINE
  5
158
330
13D
100
AcDbEntity
  8
LC-005-005-----0
 62
     7
370
    25
100
AcDbLine
 10
730.816275
 20
307.21648
 30
0.0
 11
729.816275
 21
308.21648
 31
0.0
  0
LINE
  5
159
330
13D
100
AcDbEntity
  8
LC-005-005-----0
 62
     7
370
    25
100
AcDbLine
 10
730.816275
 20
304.388053
 30
0.0
 11
729.816275
 21
305.388053
 31
0.0
  0
LINE
  5
15A
330
13D
100
AcDbEntity
  8
LC-005-005-----0
 62
     7
370
    25
100
AcDbLine
 10
688.258912
 20
338.460134
 30
0.0
 11
683.504565
 21
343.214481
 31
0.0
  0
LINE
  5
15B
330
13D
100
AcDbEntity
  8
LC-005-005-----0
 62
     7
370
    25
100
AcDbLine
 10
689.703877
 20
334.186743
 30
0.0
 11
688.319451
 21
335.571168
 31
0.0
  0
LINE
  5
15C
330
13D
100
AcDbEntity
  8
LC-005-005-----0
 62
     7
370
    25
100
AcDbLine
 10
680.178046
 20
343.712573
 30
0.0
 11
674.069948
 21
349.820672
 31
0.0
  0
LINE
  5
15D
330
13D
100
AcDbEntity
  8
LC-005-005-----0
 62
     7
370
    25
100
AcDbLine
 10
689.816275
 20
331.245917
 30
0.0
 11
688.816275
 21
332.245917
 31
0.0
  0
LINE
  5
15E
330
13D
100
AcDbEntity
  8
LC-005-005-----0
 62
     7
370
    25
100
AcDbLine
 10
674.316274
 20
346.745918
 30
0.0
 11
672.316274
 21
348.745918
 31
0.0
  0
LINE
  5
15F
330
13D
100
AcDbEntity
  8
LC-005-005-----0
 62
     7
370
    25
100
AcDbLine
 10
671.291672
 20
349.77052
 30
0.0
 11
669.609695
 21
351.452497
 31
0.0
  0
LINE
  5
160
330
13D
100
AcDbEntity
  8
LC-005-005-----0
 62
     7
370
    25
100
AcDbLine
 10
689.816275
 20
328.41749
 30
0.0
 11
688.816275
 21
329.41749
 31
0.0
  0
LINE
  5
161
330
13D
100
AcDbEntity
  8
LC-005-005-----0
 62
     7
370
    25
100
AcDbLine
 10
673.699845
 20
344.53392
 30
0.0
 11
672.316274
 21
345.917491
 31
0.0
  0
LINE
  5
162
330
13D
100
AcDbEntity
  8
LC-005-005-----0
 62
     7
370
    25
100
AcDbLine
 10
689.816275
 20
325.589063
 30
0.0
 11
688.816275
 21
326.589063
 31
0.0
  0
LINE
  5
163
330
13D
100
AcDbEntity
  8
LC-005-005-----0
 62
     7
370
    25
100
AcDbLine
 10
671.427211
 20
343.978126
 30
0.0
 11
670.427211
 21
344.978126
 31
0.0
  0
LINE
  5
164
330
13D
100
AcDbEntity
  8
LC-005-005-----0
 62
     7
370
    25
100
AcDbLine
 10
689.816275
 20
322.760636
 30
0.0
 11
688.816275
 21
323.760636
 31
0.0
  0
LINE
  5
165
330
13D
100
AcDbEntity
  8
LC-005-005-----0
 62
     7
370
    25
100
AcDbLine
 10
689.816275
 20
319.932209
 30
0.0
 11
688.816275
 21
320.932209
 31
0.0
  0
LINE
  5
166
330
13D
100
AcDbEntity
  8
LC-005-005-----0
 62
     7
370
    25
100
AcDbLine
 10
689.816275
 20
317.103782
 30
0.0
 11
688.816275
 21
318.103782
 31
0.0
  0
LINE
  5
167
330
13D
100
AcDbEntity
  8
LC-005-005-----0
 62
     7
370
    25
100
AcDbLine
 10
689.816275
 20
314.275355
 30
0.0
 11
688.816275
 21
315.275355
 31
0.0
  0
LINE
  5
168
330
13D
100
AcDbEntity
  8
LC-005-005-----0
 62
     7
370
    25
100
AcDbLine
 10
689.816275
 20
311.446927
 30
0.0
 11
688.816275
 21
312.446927
 31
0.0
  0
LINE
  5
169
330
13D
100
AcDbEntity
  8
LC-005-005-----0
 62
     7
370
    25
100
AcDbLine
 10
689.816275
 20
308.6185
 30
0.0
 11
688.816275
 21
309.6185
 31
0.0
  0
LINE
  5
16A
330
13D
100
AcDbEntity
  8
LC-005-005-----0
 62
     7
370
    25
100
AcDbLine
 10
689.816275
 20
305.790073
 30
0.0
 11
688.816275
 21
306.790073
 31
0.0
  0
LINE
  5
16B
330
13D
100
AcDbEntity
  8
LC-005-005-----0
 62
     7
370
    25
100
AcDbLine
 10
689.801005
 20
302.976916
 30
0.0
 11
688.816275
 21
303.961646
 31
0.0
  0
ENDBLK
  5
13F
330
13D
100
AcDbEntity
  8
0
100
AcDbBlockEnd
  0
BLOCK
  5
199
330
18F
100
AcDbEntity
  8
0
100
AcDbBlockBegin
  2
*D6
 70
     1
 71
     0
 10
0.0
 20
0.0
 30
0.0
  3
*D6
  1

  0
LINE
  5
190
330
18F
100
AcDbEntity
  8
LC-007-003-----0
 62
     2
370
    -2
100
AcDbLine
 10
604.190624
 20
365.275107
 30
0.0
 11
576.745794
 21
365.275107
 31
0.0
  0
LINE
  5
191
330
18F
100
AcDbEntity
  8
LC-007-003-----0
 62
     2
370
    -2
100
AcDbLine
 10
658.316275
 20
287.1861
 30
0.0
 11
576.745794
 21
287.1861
 31
0.0
  0
LINE
  5
192
330
18F
100
AcDbEntity
  8
LC-007-003-----0
 62
     2
370
    -2
100
AcDbLine
 10
580.345794
 20
337.275107
 30
0.0
 11
580.345794
 21
315.1861
 31
0.0
  0
SOLID
  5
193
330
18F
100
AcDbEntity
  8
LC-007-003-----0
 62
     2
100
AcDbTrace
 10
585.012461
 20
337.275107
 30
0.0
 11
575.679128
 21
337.275107
 31
0.0
 12
580.345794
 22
365.275107
 32
0.0
 13
580.345794
 23
365.275107
 33
0.0
  0
SOLID
  5
194
330
18F
100
AcDbEntity
  8
LC-007-003-----0
 62
     2
100
AcDbTrace
 10
575.679128
 20
315.1861
 30
0.0
 11
585.012461
 21
315.1861
 31
0.0
 12
580.345794
 22
287.1861
 32
0.0
 13
580.345794
 23
287.1861
 33
0.0
  0
MTEXT
  5
195
330
18F
100
AcDbEntity
  8
LC-007-003-----0
 62
     2
100
AcDbMText
 10
549.545794
 20
318.844
 30
0.0
 40
28.0
 41
0.0
 71
     5
 72
     1
  1
\A1;78
  7
LCTX15-400-0-0pDIN-Schrift
 11
6.123031769111886E-17
 21
1.0
 31
0.0
 73
     1
 44
1.0
  0
POINT
  5
196
330
18F
100
AcDbEntity
  8
Defpoints
 62
     0
100
AcDbPoint
 10
604.190624
 20
365.275107
 30
0.0
  0
POINT
  5
197
330
18F
100
AcDbEntity
  8
Defpoints
 62
     0
100
AcDbPoint
 10
658.316275
 20
287.1861
 30
0.0
  0
POINT
  5
198
330
18F
100
AcDbEntity
  8
Defpoints
 62
     0
100
AcDbPoint
 10
580.345794
 20
287.1861
 30
0.0
  0
ENDBLK
  5
19A
330
18F
100
AcDbEntity
  8
0
100
AcDbBlockEnd
  0
BLOCK
  5
1A3
330
1A2
100
AcDbEntity
  8
0
100
AcDbBlockBegin
  2
*X57
 70
     1
 71
     0
 10
0.0
 20
0.0
 30
0.0
  3
*X57
  1

  4
*X5
  0
LINE
  5
1A5
330
1A2
100
AcDbEntity
  8
LC-005-005-----0
 62
     7
370
    25
100
AcDbLine
 10
803.345845
 20
342.312224
 30
0.0
 11
804.277954
 21
343.244333
 31
0.0
  0
LINE
  5
1A6
330
1A2
100
AcDbEntity
  8
LC-005-005-----0
 62
     7
370
    25
100
AcDbLine
 10
802.642681
 20
342.174746
 30
0.0
 11
804.415433
 21
343.947497
 31
0.0
  0
LINE
  5
1A7
330
1A2
100
AcDbEntity
  8
LC-005-005-----0
 62
     7
370
    25
100
AcDbLine
 10
802.153458
 20
342.251207
 30
0.0
 11
804.338971
 21
344.43672
 31
0.0
  0
LINE
  5
1A8
330
1A2
100
AcDbEntity
  8
LC-005-005-----0
 62
     7
370
    25
100
AcDbLine
 10
801.762301
 20
342.425736
 30
0.0
 11
804.164443
 21
344.827878
 31
0.0
  0
LINE
  5
1A9
330
1A2
100
AcDbEntity
  8
LC-005-005-----0
 62
     7
370
    25
100
AcDbLine
 10
801.443182
 20
342.672303
 30
0.0
 11
803.917876
 21
345.146996
 31
0.0
  0
LINE
  5
1AA
330
1A2
100
AcDbEntity
  8
LC-005-005-----0
 62
     7
370
    25
100
AcDbLine
 10
801.189596
 20
342.984402
 30
0.0
 11
803.605776
 21
345.400582
 31
0.0
  0
LINE
  5
1AB
330
1A2
100
AcDbEntity
  8
LC-005-005-----0
 62
     7
370
    25
100
AcDbLine
 10
801.006721
 20
343.367212
 30
0.0
 11
803.222966
 21
345.583458
 31
0.0
  0
LINE
  5
1AC
330
1A2
100
AcDbEntity
  8
LC-005-005-----0
 62
     7
370
    25
100
AcDbLine
 10
800.917456
 20
343.843633
 30
0.0
 11
802.746545
 21
345.672722
 31
0.0
  0
LINE
  5
1AD
330
1A2
100
AcDbEntity
  8
LC-005-005-----0
 62
     7
370
    25
100
AcDbLine
 10
801.015448
 20
344.50731
 30
0.0
 11
802.082868
 21
345.57473
 31
0.0
  0
ENDBLK
  5
1A4
330
1A2
100
AcDbEntity
  8
0
100
AcDbBlockEnd
  0
BLOCK
  5
1C0
330
1BF
100
AcDbEntity
  8
0
100
AcDbBlockBegin
  2
*X68
 70
     1
 71
     0
 10
0.0
 20
0.0
 30
0.0
  3
*X68
  1

  4
*X6
  0
LINE
  5
1C2
330
1BF
100
AcDbEntity
  8
LC-005-005-----0
 62
     7
370
    25
100
AcDbLine
 10
900.554083
 20
293.042164
 30
0.0
 11
899.171651
 21
294.424596
 31
0.0
  0
LINE
  5
1C3
330
1BF
100
AcDbEntity
  8
LC-005-005-----0
 62
     7
370
    25
100
AcDbLine
 10
898.323373
 20
292.444447
 30
0.0
 11
896.343224
 21
294.424596
 31
0.0
  0
LINE
  5
1C4
330
1BF
100
AcDbEntity
  8
LC-005-005-----0
 62
     7
370
    25
100
AcDbLine
 10
895.764797
 20
292.174596
 30
0.0
 11
893.514797
 21
294.424596
 31
0.0
  0
LINE
  5
1C5
330
1BF
100
AcDbEntity
  8
LC-005-005-----0
 62
     7
370
    25
100
AcDbLine
 10
892.93637
 20
292.174596
 30
0.0
 11
890.68637
 21
294.424596
 31
0.0
  0
LINE
  5
1C6
330
1BF
100
AcDbEntity
  8
LC-005-005-----0
 62
     7
370
    25
100
AcDbLine
 10
890.107942
 20
292.174596
 30
0.0
 11
887.857942
 21
294.424596
 31
0.0
  0
LINE
  5
1C7
330
1BF
100
AcDbEntity
  8
LC-005-005-----0
 62
     7
370
    25
100
AcDbLine
 10
887.279515
 20
292.174596
 30
0.0
 11
885.029515
 21
294.424596
 31
0.0
  0
LINE
  5
1C8
330
1BF
100
AcDbEntity
  8
LC-005-005-----0
 62
     7
370
    25
100
AcDbLine
 10
884.451088
 20
292.174596
 30
0.0
 11
882.201088
 21
294.424596
 31
0.0
  0
LINE
  5
1C9
330
1BF
100
AcDbEntity
  8
LC-005-005-----0
 62
     7
370
    25
100
AcDbLine
 10
881.622661
 20
292.174596
 30
0.0
 11
879.372661
 21
294.424596
 31
0.0
  0
LINE
  5
1CA
330
1BF
100
AcDbEntity
  8
LC-005-005-----0
 62
     7
370
    25
100
AcDbLine
 10
878.794234
 20
292.174596
 30
0.0
 11
876.544234
 21
294.424596
 31
0.0
  0
LINE
  5
1CB
330
1BF
100
AcDbEntity
  8
LC-005-005-----0
 62
     7
370
    25
100
AcDbLine
 10
875.965807
 20
292.174596
 30
0.0
 11
873.715807
 21
294.424596
 31
0.0
  0
LINE
  5
1CC
330
1BF
100
AcDbEntity
  8
LC-005-005-----0
 62
     7
370
    25
100
AcDbLine
 10
873.13738
 20
292.174596
 30
0.0
 11
870.88738
 21
294.424596
 31
0.0
  0
LINE
  5
1CD
330
1BF
100
AcDbEntity
  8
LC-005-005-----0
 62
     7
370
    25
100
AcDbLine
 10
870.308953
 20
292.174596
 30
0.0
 11
868.058953
 21
294.424596
 31
0.0
  0
LINE
  5
1CE
330
1BF
100
AcDbEntity
  8
LC-005-005-----0
 62
     7
370
    25
100
AcDbLine
 10
867.480525
 20
292.174596
 30
0.0
 11
865.230525
 21
294.424596
 31
0.0
  0
LINE
  5
1CF
330
1BF
100
AcDbEntity
  8
LC-005-005-----0
 62
     7
370
    25
100
AcDbLine
 10
864.652098
 20
292.174596
 30
0.0
 11
862.402098
 21
294.424596
 31
0.0
  0
LINE
  5
1D0
330
1BF
100
AcDbEntity
  8
LC-005-005-----0
 62
     7
370
    25
100
AcDbLine
 10
861.823671
 20
292.174596
 30
0.0
 11
859.573671
 21
294.424596
 31
0.0
  0
LINE
  5
1D1
330
1BF
100
AcDbEntity
  8
LC-005-005-----0
 62
     7
370
    25
100
AcDbLine
 10
858.995244
 20
292.174596
 30
0.0
 11
856.745244
 21
294.424596
 31
0.0
  0
LINE
  5
1D2
330
1BF
100
AcDbEntity
  8
LC-005-005-----0
 62
     7
370
    25
100
AcDbLine
 10
856.166817
 20
292.174596
 30
0.0
 11
853.916817
 21
294.424596
 31
0.0
  0
LINE
  5
1D3
330
1BF
100
AcDbEntity
  8
LC-005-005-----0
 62
     7
370
    25
100
AcDbLine
 10
853.33839
 20
292.174596
 30
0.0
 11
851.08839
 21
294.424596
 31
0.0
  0
LINE
  5
1D4
330
1BF
100
AcDbEntity
  8
LC-005-005-----0
 62
     7
370
    25
100
AcDbLine
 10
850.509963
 20
292.174596
 30
0.0
 11
848.259963
 21
294.424596
 31
0.0
  0
LINE
  5
1D5
330
1BF
100
AcDbEntity
  8
LC-005-005-----0
 62
     7
370
    25
100
AcDbLine
 10
847.681536
 20
292.174596
 30
0.0
 11
845.431536
 21
294.424596
 31
0.0
  0
LINE
  5
1D6
330
1BF
100
AcDbEntity
  8
LC-005-005-----0
 62
     7
370
    25
100
AcDbLine
 10
844.853108
 20
292.174596
 30
0.0
 11
842.603108
 21
294.424596
 31
0.0
  0
LINE
  5
1D7
330
1BF
100
AcDbEntity
  8
LC-005-005-----0
 62
     7
370
    25
100
AcDbLine
 10
842.024681
 20
292.174596
 30
0.0
 11
839.774681
 21
294.424596
 31
0.0
  0
LINE
  5
1D8
330
1BF
100
AcDbEntity
  8
LC-005-005-----0
 62
     7
370
    25
100
AcDbLine
 10
839.196254
 20
292.174596
 30
0.0
 11
836.946254
 21
294.424596
 31
0.0
  0
LINE
  5
1D9
330
1BF
100
AcDbEntity
  8
LC-005-005-----0
 62
     7
370
    25
100
AcDbLine
 10
836.367827
 20
292.174596
 30
0.0
 11
834.117827
 21
294.424596
 31
0.0
  0
LINE
  5
1DA
330
1BF
100
AcDbEntity
  8
LC-005-005-----0
 62
     7
370
    25
100
AcDbLine
 10
833.5394
 20
292.174596
 30
0.0
 11
831.2894
 21
294.424596
 31
0.0
  0
LINE
  5
1DB
330
1BF
100
AcDbEntity
  8
LC-005-005-----0
 62
     7
370
    25
100
AcDbLine
 10
830.710973
 20
292.174596
 30
0.0
 11
828.460973
 21
294.424596
 31
0.0
  0
LINE
  5
1DC
330
1BF
100
AcDbEntity
  8
LC-005-005-----0
 62
     7
370
    25
100
AcDbLine
 10
827.882546
 20
292.174596
 30
0.0
 11
825.632546
 21
294.424596
 31
0.0
  0
LINE
  5
1DD
330
1BF
100
AcDbEntity
  8
LC-005-005-----0
 62
     7
370
    25
100
AcDbLine
 10
825.054119
 20
292.174596
 30
0.0
 11
822.804119
 21
294.424596
 31
0.0
  0
LINE
  5
1DE
330
1BF
100
AcDbEntity
  8
LC-005-005-----0
 62
     7
370
    25
100
AcDbLine
 10
822.225691
 20
292.174596
 30
0.0
 11
819.975691
 21
294.424596
 31
0.0
  0
LINE
  5
1DF
330
1BF
100
AcDbEntity
  8
LC-005-005-----0
 62
     7
370
    25
100
AcDbLine
 10
819.397264
 20
292.174596
 30
0.0
 11
817.147264
 21
294.424596
 31
0.0
  0
LINE
  5
1E0
330
1BF
100
AcDbEntity
  8
LC-005-005-----0
 62
     7
370
    25
100
AcDbLine
 10
816.568837
 20
292.174596
 30
0.0
 11
814.318837
 21
294.424596
 31
0.0
  0
LINE
  5
1E1
330
1BF
100
AcDbEntity
  8
LC-005-005-----0
 62
     7
370
    25
100
AcDbLine
 10
814.027087
 20
291.887919
 30
0.0
 11
812.343732
 21
293.571274
 31
0.0
  0
LINE
  5
1E2
330
1BF
100
AcDbEntity
  8
LC-005-005-----0
 62
     7
370
    25
100
AcDbLine
 10
812.388423
 20
290.698156
 30
0.0
 11
810.690675
 21
292.395904
 31
0.0
  0
LINE
  5
1E3
330
1BF
100
AcDbEntity
  8
LC-005-005-----0
 62
     7
370
    25
100
AcDbLine
 10
810.656361
 20
289.60179
 30
0.0
 11
808.936219
 21
291.321932
 31
0.0
  0
LINE
  5
1E4
330
1BF
100
AcDbEntity
  8
LC-005-005-----0
 62
     7
370
    25
100
AcDbLine
 10
808.826758
 20
288.602967
 30
0.0
 11
807.075136
 21
290.354588
 31
0.0
  0
LINE
  5
1E5
330
1BF
100
AcDbEntity
  8
LC-005-005-----0
 62
     7
370
    25
100
AcDbLine
 10
806.893818
 20
287.70748
 30
0.0
 11
805.099992
 21
289.501305
 31
0.0
  0
LINE
  5
1E6
330
1BF
100
AcDbEntity
  8
LC-005-005-----0
 62
     7
370
    25
100
AcDbLine
 10
804.849637
 20
286.923233
 30
0.0
 11
803.00044
 21
288.77243
 31
0.0
  0
LINE
  5
1E7
330
1BF
100
AcDbEntity
  8
LC-005-005-----0
 62
     7
370
    25
100
AcDbLine
 10
802.683488
 20
286.260955
 30
0.0
 11
800.762048
 21
288.182395
 31
0.0
  0
LINE
  5
1E8
330
1BF
100
AcDbEntity
  8
LC-005-005-----0
 62
     7
370
    25
100
AcDbLine
 10
800.380664
 20
285.735352
 30
0.0
 11
798.364318
 21
287.751698
 31
0.0
  0
LINE
  5
1E9
330
1BF
100
AcDbEntity
  8
LC-005-005-----0
 62
     7
370
    25
100
AcDbLine
 10
797.920541
 20
285.367048
 30
0.0
 11
795.777069
 21
287.51052
 31
0.0
  0
LINE
  5
1EA
330
1BF
100
AcDbEntity
  8
LC-005-005-----0
 62
     7
370
    25
100
AcDbLine
 10
795.273093
 20
285.186069
 30
0.0
 11
792.953252
 21
287.505909
 31
0.0
  0
LINE
  5
1EB
330
1BF
100
AcDbEntity
  8
LC-005-005-----0
 62
     7
370
    25
100
AcDbLine
 10
792.456139
 20
285.174596
 30
0.0
 11
789.812622
 21
287.818112
 31
0.0
  0
LINE
  5
1EC
330
1BF
100
AcDbEntity
  8
LC-005-005-----0
 62
     7
370
    25
100
AcDbLine
 10
789.627712
 20
285.174596
 30
0.0
 11
786.462175
 21
288.340132
 31
0.0
  0
LINE
  5
1ED
330
1BF
100
AcDbEntity
  8
LC-005-005-----0
 62
     7
370
    25
100
AcDbLine
 10
786.799285
 20
285.174596
 30
0.0
 11
785.816275
 21
286.157605
 31
0.0
  0
ENDBLK
  5
1C1
330
1BF
100
AcDbEntity
  8
0
100
AcDbBlockEnd
  0
BLOCK
  5
1F0
330
1EF
100
AcDbEntity
  8
0
100
AcDbBlockBegin
  2
*X79
 70
     1
 71
     0
 10
0.0
 20
0.0
 30
0.0
  3
*X79
  1

  4
*X7
  0
LINE
  5
1F2
330
1EF
100
AcDbEntity
  8
LC-005-005-----0
 62
     7
370
    25
100
AcDbLine
 10
900.816275
 20
340.863233
 30
0.0
 11
900.306009
 21
341.373499
 31
0.0
  0
LINE
  5
1F3
330
1EF
100
AcDbEntity
  8
LC-005-005-----0
 62
     7
370
    25
100
AcDbLine
 10
898.926485
 20
339.924596
 30
0.0
 11
896.676485
 21
342.174596
 31
0.0
  0
LINE
  5
1F4
330
1EF
100
AcDbEntity
  8
LC-005-005-----0
 62
     7
370
    25
100
AcDbLine
 10
896.098058
 20
339.924596
 30
0.0
 11
893.848058
 21
342.174596
 31
0.0
  0
LINE
  5
1F5
330
1EF
100
AcDbEntity
  8
LC-005-005-----0
 62
     7
370
    25
100
AcDbLine
 10
893.269631
 20
339.924596
 30
0.0
 11
891.019631
 21
342.174596
 31
0.0
  0
LINE
  5
1F6
330
1EF
100
AcDbEntity
  8
LC-005-005-----0
 62
     7
370
    25
100
AcDbLine
 10
890.441204
 20
339.924596
 30
0.0
 11
888.191204
 21
342.174596
 31
0.0
  0
LINE
  5
1F7
330
1EF
100
AcDbEntity
  8
LC-005-005-----0
 62
     7
370
    25
100
AcDbLine
 10
887.612776
 20
339.924596
 30
0.0
 11
885.362776
 21
342.174596
 31
0.0
  0
LINE
  5
1F8
330
1EF
100
AcDbEntity
  8
LC-005-005-----0
 62
     7
370
    25
100
AcDbLine
 10
884.784349
 20
339.924596
 30
0.0
 11
882.534349
 21
342.174596
 31
0.0
  0
LINE
  5
1F9
330
1EF
100
AcDbEntity
  8
LC-005-005-----0
 62
     7
370
    25
100
AcDbLine
 10
881.955922
 20
339.924596
 30
0.0
 11
879.705922
 21
342.174596
 31
0.0
  0
LINE
  5
1FA
330
1EF
100
AcDbEntity
  8
LC-005-005-----0
 62
     7
370
    25
100
AcDbLine
 10
879.127495
 20
339.924596
 30
0.0
 11
876.877495
 21
342.174596
 31
0.0
  0
LINE
  5
1FB
330
1EF
100
AcDbEntity
  8
LC-005-005-----0
 62
     7
370
    25
100
AcDbLine
 10
876.299068
 20
339.924596
 30
0.0
 11
874.049068
 21
342.174596
 31
0.0
  0
LINE
  5
1FC
330
1EF
100
AcDbEntity
  8
LC-005-005-----0
 62
     7
370
    25
100
AcDbLine
 10
873.470641
 20
339.924596
 30
0.0
 11
871.220641
 21
342.174596
 31
0.0
  0
LINE
  5
1FD
330
1EF
100
AcDbEntity
  8
LC-005-005-----0
 62
     7
370
    25
100
AcDbLine
 10
870.642214
 20
339.924596
 30
0.0
 11
868.392214
 21
342.174596
 31
0.0
  0
LINE
  5
1FE
330
1EF
100
AcDbEntity
  8
LC-005-005-----0
 62
     7
370
    25
100
AcDbLine
 10
867.813787
 20
339.924596
 30
0.0
 11
865.563787
 21
342.174596
 31
0.0
  0
LINE
  5
1FF
330
1EF
100
AcDbEntity
  8
LC-005-005-----0
 62
     7
370
    25
100
AcDbLine
 10
864.985359
 20
339.924596
 30
0.0
 11
862.735359
 21
342.174596
 31
0.0
  0
LINE
  5
200
330
1EF
100
AcDbEntity
  8
LC-005-005-----0
 62
     7
370
    25
100
AcDbLine
 10
862.156932
 20
339.924596
 30
0.0
 11
859.906932
 21
342.174596
 31
0.0
  0
LINE
  5
201
330
1EF
100
AcDbEntity
  8
LC-005-005-----0
 62
     7
370
    25
100
AcDbLine
 10
859.328505
 20
339.924596
 30
0.0
 11
857.078505
 21
342.174596
 31
0.0
  0
LINE
  5
202
330
1EF
100
AcDbEntity
  8
LC-005-005-----0
 62
     7
370
    25
100
AcDbLine
 10
856.500078
 20
339.924596
 30
0.0
 11
854.250078
 21
342.174596
 31
0.0
  0
LINE
  5
203
330
1EF
100
AcDbEntity
  8
LC-005-005-----0
 62
     7
370
    25
100
AcDbLine
 10
853.671651
 20
339.924596
 30
0.0
 11
851.421651
 21
342.174596
 31
0.0
  0
LINE
  5
204
330
1EF
100
AcDbEntity
  8
LC-005-005-----0
 62
     7
370
    25
100
AcDbLine
 10
850.843224
 20
339.924596
 30
0.0
 11
848.593224
 21
342.174596
 31
0.0
  0
LINE
  5
205
330
1EF
100
AcDbEntity
  8
LC-005-005-----0
 62
     7
370
    25
100
AcDbLine
 10
848.014797
 20
339.924596
 30
0.0
 11
845.764797
 21
342.174596
 31
0.0
  0
LINE
  5
206
330
1EF
100
AcDbEntity
  8
LC-005-005-----0
 62
     7
370
    25
100
AcDbLine
 10
845.18637
 20
339.924596
 30
0.0
 11
842.93637
 21
342.174596
 31
0.0
  0
LINE
  5
207
330
1EF
100
AcDbEntity
  8
LC-005-005-----0
 62
     7
370
    25
100
AcDbLine
 10
842.357942
 20
339.924596
 30
0.0
 11
840.107942
 21
342.174596
 31
0.0
  0
LINE
  5
208
330
1EF
100
AcDbEntity
  8
LC-005-005-----0
 62
     7
370
    25
100
AcDbLine
 10
839.529515
 20
339.924596
 30
0.0
 11
837.279515
 21
342.174596
 31
0.0
  0
LINE
  5
209
330
1EF
100
AcDbEntity
  8
LC-005-005-----0
 62
     7
370
    25
100
AcDbLine
 10
836.701088
 20
339.924596
 30
0.0
 11
834.451088
 21
342.174596
 31
0.0
  0
LINE
  5
20A
330
1EF
100
AcDbEntity
  8
LC-005-005-----0
 62
     7
370
    25
100
AcDbLine
 10
833.872661
 20
339.924596
 30
0.0
 11
831.622661
 21
342.174596
 31
0.0
  0
LINE
  5
20B
330
1EF
100
AcDbEntity
  8
LC-005-005-----0
 62
     7
370
    25
100
AcDbLine
 10
831.044234
 20
339.924596
 30
0.0
 11
828.794234
 21
342.174596
 31
0.0
  0
LINE
  5
20C
330
1EF
100
AcDbEntity
  8
LC-005-005-----0
 62
     7
370
    25
100
AcDbLine
 10
828.215807
 20
339.924596
 30
0.0
 11
825.965807
 21
342.174596
 31
0.0
  0
LINE
  5
20D
330
1EF
100
AcDbEntity
  8
LC-005-005-----0
 62
     7
370
    25
100
AcDbLine
 10
825.38738
 20
339.924596
 30
0.0
 11
823.13738
 21
342.174596
 31
0.0
  0
LINE
  5
20E
330
1EF
100
AcDbEntity
  8
LC-005-005-----0
 62
     7
370
    25
100
AcDbLine
 10
822.558953
 20
339.924596
 30
0.0
 11
820.308953
 21
342.174596
 31
0.0
  0
LINE
  5
20F
330
1EF
100
AcDbEntity
  8
LC-005-005-----0
 62
     7
370
    25
100
AcDbLine
 10
819.730525
 20
339.924596
 30
0.0
 11
817.480525
 21
342.174596
 31
0.0
  0
LINE
  5
210
330
1EF
100
AcDbEntity
  8
LC-005-005-----0
 62
     7
370
    25
100
AcDbLine
 10
816.902098
 20
339.924596
 30
0.0
 11
814.652098
 21
342.174596
 31
0.0
  0
LINE
  5
211
330
1EF
100
AcDbEntity
  8
LC-005-005-----0
 62
     7
370
    25
100
AcDbLine
 10
814.073671
 20
339.924596
 30
0.0
 11
807.720404
 21
346.277863
 31
0.0
  0
LINE
  5
212
330
1EF
100
AcDbEntity
  8
LC-005-005-----0
 62
     7
370
    25
100
AcDbLine
 10
807.267683
 20
343.902157
 30
0.0
 11
803.234146
 21
347.935694
 31
0.0
  0
LINE
  5
213
330
1EF
100
AcDbEntity
  8
LC-005-005-----0
 62
     7
370
    25
100
AcDbLine
 10
802.663942
 20
345.67747
 30
0.0
 11
799.587402
 21
348.754011
 31
0.0
  0
LINE
  5
214
330
1EF
100
AcDbEntity
  8
LC-005-005-----0
 62
     7
370
    25
100
AcDbLine
 10
799.011854
 20
346.501132
 30
0.0
 11
796.399932
 21
349.113054
 31
0.0
  0
LINE
  5
215
330
1EF
100
AcDbEntity
  8
LC-005-005-----0
 62
     7
370
    25
100
AcDbLine
 10
795.849544
 20
346.835015
 30
0.0
 11
793.509963
 21
349.174596
 31
0.0
  0
LINE
  5
216
330
1EF
100
AcDbEntity
  8
LC-005-005-----0
 62
     7
370
    25
100
AcDbLine
 10
793.010283
 20
346.845848
 30
0.0
 11
790.681536
 21
349.174596
 31
0.0
  0
LINE
  5
217
330
1EF
100
AcDbEntity
  8
LC-005-005-----0
 62
     7
370
    25
100
AcDbLine
 10
790.411036
 20
346.616668
 30
0.0
 11
787.853108
 21
349.174596
 31
0.0
  0
LINE
  5
218
330
1EF
100
AcDbEntity
  8
LC-005-005-----0
 62
     7
370
    25
100
AcDbLine
 10
788.003439
 20
346.195838
 30
0.0
 11
785.816275
 21
348.383002
 31
0.0
  0
ENDBLK
  5
1F1
330
1EF
100
AcDbEntity
  8
0
100
AcDbBlockEnd
  0
BLOCK
  5
220
330
21F
100
AcDbEntity
  8
0
100
AcDbBlockBegin
  2
*X810
 70
     1
 71
     0
 10
0.0
 20
0.0
 30
0.0
  3
*X810
  1

  4
*X8
  0
LINE
  5
222
330
21F
100
AcDbEntity
  8
LC-005-005-----0
 62
     7
370
    25
100
AcDbLine
 10
803.135382
 20
288.927331
 30
0.0
 11
804.351343
 21
290.143292
 31
0.0
  0
LINE
  5
223
330
21F
100
AcDbEntity
  8
LC-005-005-----0
 62
     7
370
    25
100
AcDbLine
 10
802.512193
 20
288.869827
 30
0.0
 11
804.408847
 21
290.766481
 31
0.0
  0
LINE
  5
224
330
21F
100
AcDbEntity
  8
LC-005-005-----0
 62
     7
370
    25
100
AcDbLine
 10
802.051174
 20
288.974494
 30
0.0
 11
804.30418
 21
291.2275
 31
0.0
  0
LINE
  5
225
330
21F
100
AcDbEntity
  8
LC-005-005-----0
 62
     7
370
    25
100
AcDbLine
 10
801.678819
 20
289.167824
 30
0.0
 11
804.11085
 21
291.599855
 31
0.0
  0
LINE
  5
226
330
21F
100
AcDbEntity
  8
LC-005-005-----0
 62
     7
370
    25
100
AcDbLine
 10
801.375716
 20
289.430406
 30
0.0
 11
803.848268
 21
291.902958
 31
0.0
  0
LINE
  5
227
330
21F
100
AcDbEntity
  8
LC-005-005-----0
 62
     7
370
    25
100
AcDbLine
 10
801.138325
 20
289.758701
 30
0.0
 11
803.519973
 21
292.140349
 31
0.0
  0
LINE
  5
228
330
21F
100
AcDbEntity
  8
LC-005-005-----0
 62
     7
370
    25
100
AcDbLine
 10
800.974977
 20
290.161038
 30
0.0
 11
803.117636
 21
292.303697
 31
0.0
  0
LINE
  5
229
330
21F
100
AcDbEntity
  8
LC-005-005-----0
 62
     7
370
    25
100
AcDbLine
 10
800.91645
 20
290.668197
 30
0.0
 11
802.610477
 21
292.362224
 31
0.0
  0
LINE
  5
22A
330
21F
100
AcDbEntity
  8
LC-005-005-----0
 62
     7
370
    25
100
AcDbLine
 10
801.124088
 20
291.44152
 30
0.0
 11
801.837154
 21
292.154586
 31
0.0
  0
ENDBLK
  5
221
330
21F
100
AcDbEntity
  8
0
100
AcDbBlockEnd
  0
BLOCK
  5
23C
330
231
100
AcDbEntity
  8
0
100
AcDbBlockBegin
  2
*D11
 70
     1
 71
     0
 10
0.0
 20
0.0
 30
0.0
  3
*D11
  1

  0
LINE
  5
232
330
231
100
AcDbEntity
  8
LC-007-003-----0
 62
     2
370
    -2
100
AcDbLine
 10
745.816275
 20
332.978126
 30
0.0
 11
867.6
 21
332.978126
 31
0.0
  0
LINE
  5
233
330
231
100
AcDbEntity
  8
LC-007-003-----0
 62
     2
370
    -2
100
AcDbLine
 10
730.816275
 20
302.976916
 30
0.0
 11
867.6
 21
302.976916
 31
0.0
  0
LINE
  5
234
330
231
100
AcDbEntity
  8
LC-007-003-----0
 62
     2
370
    -2
100
AcDbLine
 10
864.0
 20
274.976916
 30
0.0
 11
864.0
 21
246.976916
 31
0.0
  0
LINE
  5
235
330
231
100
AcDbEntity
  8
LC-007-003-----0
 62
     2
370
    -2
100
AcDbLine
 10
864.0
 20
360.978126
 30
0.0
 11
864.0
 21
385.128226
 31
0.0
  0
SOLID
  5
236
330
231
100
AcDbEntity
  8
LC-007-003-----0
 62
     2
100
AcDbTrace
 10
859.333333
 20
360.978126
 30
0.0
 11
868.666667
 21
360.978126
 31
0.0
 12
864.0
 22
332.978126
 32
0.0
 13
864.0
 23
332.978126
 33
0.0
  0
SOLID
  5
237
330
231
100
AcDbEntity
  8
LC-007-003-----0
 62
     2
100
AcDbTrace
 10
868.666667
 20
274.976916
 30
0.0
 11
859.333333
 21
274.976916
 31
0.0
 12
864.0
 22
302.976916
 32
0.0
 13
864.0
 23
302.976916
 33
0.0
  0
MTEXT
  5
238
330
231
100
AcDbEntity
  8
LC-007-003-----0
 62
     2
100
AcDbMText
 10
833.2
 20
362.206
 30
0.0
 40
28.0
 41
0.0
 71
     5
 72
     1
  1
\A1;30
  7
LCTX15-400-0-0pDIN-Schrift
 11
6.123031769111886E-17
 21
1.0
 31
0.0
 73
     1
 44
1.0
  0
POINT
  5
239
330
231
100
AcDbEntity
  8
Defpoints
 62
     0
100
AcDbPoint
 10
745.816275
 20
332.978126
 30
0.0
  0
POINT
  5
23A
330
231
100
AcDbEntity
  8
Defpoints
 62
     0
100
AcDbPoint
 10
730.816275
 20
302.976916
 30
0.0
  0
POINT
  5
23B
330
231
100
AcDbEntity
  8
Defpoints
 62
     0
100
AcDbPoint
 10
864.0
 20
302.976916
 30
0.0
  0
ENDBLK
  5
23D
330
231
100
AcDbEntity
  8
0
100
AcDbBlockEnd
  0
BLOCK
  5
30B
330
300
100
AcDbEntity
  8
0
100
AcDbBlockBegin
  2
*D12
 70
     1
 71
     0
 10
0.0
 20
0.0
 30
0.0
  3
*D12
  1

  0
LINE
  5
301
330
300
100
AcDbEntity
  8
LC-007-003-----0
 62
     2
370
    -2
100
AcDbLine
 10
897.316275
 20
342.174596
 30
0.0
 11
939.6
 21
342.174596
 31
0.0
  0
LINE
  5
302
330
300
100
AcDbEntity
  8
LC-007-003-----0
 62
     2
370
    -2
100
AcDbLine
 10
897.316275
 20
292.174596
 30
0.0
 11
939.6
 21
292.174596
 31
0.0
  0
LINE
  5
303
330
300
100
AcDbEntity
  8
LC-007-003-----0
 62
     2
370
    -2
100
AcDbLine
 10
936.0
 20
264.174596
 30
0.0
 11
936.0
 21
236.174596
 31
0.0
  0
LINE
  5
304
330
300
100
AcDbEntity
  8
LC-007-003-----0
 62
     2
370
    -2
100
AcDbLine
 10
936.0
 20
370.174596
 30
0.0
 11
936.0
 21
392.798758
 31
0.0
  0
SOLID
  5
305
330
300
100
AcDbEntity
  8
LC-007-003-----0
 62
     2
100
AcDbTrace
 10
931.333333
 20
370.174596
 30
0.0
 11
940.666667
 21
370.174596
 31
0.0
 12
936.0
 22
342.174596
 32
0.0
 13
936.0
 23
342.174596
 33
0.0
  0
SOLID
  5
306
330
300
100
AcDbEntity
  8
LC-007-003-----0
 62
     2
100
AcDbTrace
 10
940.666667
 20
264.174596
 30
0.0
 11
931.333333
 21
264.174596
 31
0.0
 12
936.0
 22
292.174596
 32
0.0
 13
936.0
 23
292.174596
 33
0.0
  0
MTEXT
  5
307
330
300
100
AcDbEntity
  8
LC-007-003-----0
 62
     2
100
AcDbMText
 10
905.2
 20
346.762
 30
0.0
 40
28.0
 41
0.0
 71
     5
 72
     1
  1
\A1;DN50
  7
LCTX15-400-0-0pDIN-Schrift
 11
6.123031769111886E-17
 21
1.0
 31
0.0
 73
     1
 44
1.0
  0
POINT
  5
308
330
300
100
AcDbEntity
  8
Defpoints
 62
     0
100
AcDbPoint
 10
897.316275
 20
342.174596
 30
0.0
  0
POINT
  5
309
330
300
100
AcDbEntity
  8
Defpoints
 62
     0
100
AcDbPoint
 10
897.316275
 20
292.174596
 30
0.0
  0
POINT
  5
30A
330
300
100
AcDbEntity
  8
Defpoints
 62
     0
100
AcDbPoint
 10
936.0
 20
292.174596
 30
0.0
  0
ENDBLK
  5
30C
330
300
100
AcDbEntity
  8
0
100
AcDbBlockEnd
  0
BLOCK
  5
323
330
319
100
AcDbEntity
  8
0
100
AcDbBlockBegin
  2
*D13
 70
     1
 71
     0
 10
0.0
 20
0.0
 30
0.0
  3
*D13
  1

  0
LINE
  5
31A
330
319
100
AcDbEntity
  8
LC-007-003-----0
 62
     2
370
    -2
100
AcDbLine
 10
764.816275
 20
290.6861
 30
0.0
 11
764.816275
 21
231.6
 31
0.0
  0
LINE
  5
31B
330
319
100
AcDbEntity
  8
LC-007-003-----0
 62
     2
370
    -2
100
AcDbLine
 10
900.816275
 20
294.424596
 30
0.0
 11
900.816275
 21
231.6
 31
0.0
  0
LINE
  5
31C
330
319
100
AcDbEntity
  8
LC-007-003-----0
 62
     2
370
    -2
100
AcDbLine
 10
792.816275
 20
235.2
 30
0.0
 11
872.816275
 21
235.2
 31
0.0
  0
SOLID
  5
31D
330
319
100
AcDbEntity
  8
LC-007-003-----0
 62
     2
100
AcDbTrace
 10
792.816275
 20
239.866667
 30
0.0
 11
792.816275
 21
230.533333
 31
0.0
 12
764.816275
 22
235.2
 32
0.0
 13
764.816275
 23
235.2
 33
0.0
  0
SOLID
  5
31E
330
319
100
AcDbEntity
  8
LC-007-003-----0
 62
     2
100
AcDbTrace
 10
872.816275
 20
230.533333
 30
0.0
 11
872.816275
 21
239.866667
 31
0.0
 12
900.816275
 22
235.2
 32
0.0
 13
900.816275
 23
235.2
 33
0.0
  0
MTEXT
  5
31F
330
319
100
AcDbEntity
  8
LC-007-003-----0
 62
     2
100
AcDbMText
 10
832.816275
 20
266.0
 30
0.0
 40
28.0
 41
0.0
 71
     5
 72
     1
  1
\A1;136
  7
LCTX15-400-0-0pDIN-Schrift
 73
     1
 44
1.0
  0
POINT
  5
320
330
319
100
AcDbEntity
  8
Defpoints
 62
     0
100
AcDbPoint
 10
764.816275
 20
290.6861
 30
0.0
  0
POINT
  5
321
330
319
100
AcDbEntity
  8
Defpoints
 62
     0
100
AcDbPoint
 10
900.816275
 20
294.424596
 30
0.0
  0
POINT
  5
322
330
319
100
AcDbEntity
  8
Defpoints
 62
     0
100
AcDbPoint
 10
900.816275
 20
235.2
 30
0.0
  0
ENDBLK
  5
324
330
319
100
AcDbEntity
  8
0
100
AcDbBlockEnd
  0
BLOCK
  5
33C
330
33B
100
AcDbEntity
  8
0
100
AcDbBlockBegin
  2
LCDIM1
 70
     0
 71
     0
 10
0.0
 20
0.0
 30
0.0
  3
LCDIM1
  1

  4
LCDIM1
  0
TEXT
  5
33E
330
33B
100
AcDbEntity
  8
LC-007-003-----0
 62
     7
370
   140
100
AcDbText
 10
955.753937
 20
185.973074
 30
0.0
 40
28.0
  1
 15%%d
 50
58.398071
 41
0.9
 51
15.0
  7
LCTX15-400-0-0-Arial
 72
     1
 11
972.286807
 21
212.844843
 31
0.0
100
AcDbText
  0
LINE
  5
33F
330
33B
100
AcDbEntity
  8
LC-007-003-----0
 62
     7
370
    25
100
AcDbLine
 10
1003.838671
 20
232.139355
 30
0.0
 11
1005.67233
 21
241.483753
 31
0.0
  0
LINE
  5
340
330
33B
100
AcDbEntity
  8
LC-007-003-----0
 62
     7
370
    25
100
AcDbLine
 10
1006.589949
 20
246.159978
 30
0.0
 11
1009.230307
 21
259.615349
 31
0.0
  0
LINE
  5
341
330
33B
100
AcDbEntity
  8
LC-007-003-----0
 62
     7
370
    25
100
AcDbLine
 10
1009.230307
 20
259.615349
 30
0.0
 11
1003.55332
 21
248.028266
 31
0.0
  0
LINE
  5
342
330
33B
100
AcDbEntity
  8
LC-007-003-----0
 62
     7
370
    25
100
AcDbLine
 10
1000.594904
 20
233.231137
 30
0.0
 11
1003.838671
 21
232.139355
 31
0.0
  0
LINE
  5
343
330
33B
100
AcDbEntity
  8
LC-007-003-----0
 62
     7
370
    25
100
AcDbLine
 10
1002.918217
 20
232.383446
 30
0.0
 11
1004.250488
 21
239.172757
 31
0.0
  0
LINE
  5
344
330
33B
100
AcDbEntity
  8
LC-007-003-----0
 62
     7
370
    25
100
AcDbLine
 10
1005.725912
 20
246.691577
 30
0.0
 11
1006.908027
 21
252.715682
 31
0.0
  0
LINE
  5
345
330
33B
100
AcDbEntity
  8
LC-007-003-----0
 62
     7
370
    25
100
AcDbLine
 10
1006.908027
 20
252.715682
 30
0.0
 11
1004.366383
 21
247.528028
 31
0.0
  0
LINE
  5
346
330
33B
100
AcDbEntity
  8
LC-007-003-----0
 62
     7
370
    25
100
AcDbLine
 10
1001.997762
 20
232.627536
 30
0.0
 11
1002.828647
 21
236.861762
 31
0.0
  0
LINE
  5
347
330
33B
100
AcDbEntity
  8
LC-007-003-----0
 62
     7
370
    25
100
AcDbLine
 10
1001.077307
 20
232.871627
 30
0.0
 11
1001.406806
 21
234.550766
 31
0.0
  0
LINE
  5
348
330
33B
100
AcDbEntity
  8
LC-007-003-----0
 62
     7
370
    25
100
AcDbLine
 10
1011.41649
 20
344.65059
 30
0.0
 11
1016.808125
 21
317.174596
 31
0.0
  0
LINE
  5
349
330
33B
100
AcDbEntity
  8
LC-007-003-----0
 62
     7
370
    25
100
AcDbLine
 10
1016.808125
 20
317.174596
 30
0.0
 11
1018.711516
 21
345.109826
 31
0.0
  0
LINE
  5
34A
330
33B
100
AcDbEntity
  8
LC-007-003-----0
 62
     7
370
    25
100
AcDbLine
 10
1018.711516
 20
345.109826
 30
0.0
 11
1011.41649
 21
344.65059
 31
0.0
  0
LINE
  5
34B
330
33B
100
AcDbEntity
  8
LC-007-003-----0
 62
     7
370
    25
100
AcDbLine
 10
1012.36093
 20
344.772449
 30
0.0
 11
1016.350741
 21
324.440213
 31
0.0
  0
LINE
  5
34C
330
33B
100
AcDbEntity
  8
LC-007-003-----0
 62
     7
370
    25
100
AcDbLine
 10
1016.350741
 20
324.440213
 30
0.0
 11
1017.75925
 21
345.112284
 31
0.0
  0
LINE
  5
34D
330
33B
100
AcDbEntity
  8
LC-007-003-----0
 62
     7
370
    25
100
AcDbLine
 10
1013.305371
 20
344.894308
 30
0.0
 11
1015.893356
 21
331.705831
 31
0.0
  0
LINE
  5
34E
330
33B
100
AcDbEntity
  8
LC-007-003-----0
 62
     7
370
    25
100
AcDbLine
 10
1015.893356
 20
331.705831
 30
0.0
 11
1016.806983
 21
345.114742
 31
0.0
  0
LINE
  5
34F
330
33B
100
AcDbEntity
  8
LC-007-003-----0
 62
     7
370
    25
100
AcDbLine
 10
1014.249811
 20
345.016167
 30
0.0
 11
1015.435971
 21
338.971449
 31
0.0
  0
LINE
  5
350
330
33B
100
AcDbEntity
  8
LC-007-003-----0
 62
     7
370
    25
100
AcDbLine
 10
1015.435971
 20
338.971449
 30
0.0
 11
1015.854717
 21
345.117199
 31
0.0
  0
ARC
  5
352
330
33B
100
AcDbEntity
  8
LC-011-003-MTG-0
 62
     7
370
    25
100
AcDbCircle
 10
794.416275
 20
317.174596
 30
0.0
 40
222.391850449758
100
AcDbArc
 50
318.244661
 51
319.028854
  0
ARC
  5
353
330
33B
100
AcDbEntity
  8
LC-011-003-MTG-0
 62
     7
370
    25
100
AcDbCircle
 10
794.416275
 20
317.174596
 30
0.0
 40
222.3918504497581
100
AcDbArc
 50
319.296551
 51
337.499591
  0
ARC
  5
354
330
33B
100
AcDbEntity
  8
LC-011-003-MTG-0
 62
     7
370
    25
100
AcDbCircle
 10
794.416275
 20
317.174596
 30
0.0
 40
222.3918504497581
100
AcDbArc
 50
341.575557
 51
9.996581
  0
LINE
  5
356
330
33B
100
AcDbEntity
  8
LC-012-003-MTH-0
 62
     7
370
    25
100
AcDbLine
 10
897.190783
 20
289.636249
 30
0.0
 11
964.952191
 21
271.479635
 31
0.0
  0
LINE
  5
357
330
33B
100
AcDbEntity
  8
LC-012-003-MTH-0
 62
     7
370
    25
100
AcDbLine
 10
965.810222
 20
271.249726
 30
0.0
 11
1013.09401
 21
258.580073
 31
0.0
  0
LINE
  5
358
330
33B
100
AcDbEntity
  8
LC-012-003-MTH-0
 62
     7
370
    25
100
AcDbLine
 10
900.816275
 20
317.174596
 30
0.0
 11
1020.808125
 21
317.174596
 31
0.0
  0
ENDBLK
  5
33D
330
33B
100
AcDbEntity
  8
0
100
AcDbBlockEnd
  0
BLOCK
  5
35B
330
35A
100
AcDbEntity
  8
0
100
AcDbBlockBegin
  2
*X915
 70
     1
 71
     0
 10
0.0
 20
0.0
 30
0.0
  3
*X915
  1

  4
*X9
  0
LINE
  5
35D
330
35A
100
AcDbEntity
  8
LC-005-005-----0
 62
     7
370
    25
100
AcDbLine
 10
655.984841
 20
296.774596
 30
0.0
 11
657.816275
 21
298.60603
 31
0.0
  0
LINE
  5
35E
330
35A
100
AcDbEntity
  8
LC-005-005-----0
 62
     7
370
    25
100
AcDbLine
 10
654.816275
 20
298.434457
 30
0.0
 11
657.816275
 21
301.434457
 31
0.0
  0
LINE
  5
35F
330
35A
100
AcDbEntity
  8
LC-005-005-----0
 62
     7
370
    25
100
AcDbLine
 10
654.816275
 20
301.262884
 30
0.0
 11
657.816275
 21
304.262884
 31
0.0
  0
LINE
  5
360
330
35A
100
AcDbEntity
  8
LC-005-005-----0
 62
     7
370
    25
100
AcDbLine
 10
654.816275
 20
304.091311
 30
0.0
 11
657.816275
 21
307.091311
 31
0.0
  0
LINE
  5
361
330
35A
100
AcDbEntity
  8
LC-005-005-----0
 62
     7
370
    25
100
AcDbLine
 10
654.816275
 20
306.919739
 30
0.0
 11
657.816275
 21
309.919739
 31
0.0
  0
LINE
  5
362
330
35A
100
AcDbEntity
  8
LC-005-005-----0
 62
     7
370
    25
100
AcDbLine
 10
654.816275
 20
309.748166
 30
0.0
 11
657.816275
 21
312.748166
 31
0.0
  0
LINE
  5
363
330
35A
100
AcDbEntity
  8
LC-005-005-----0
 62
     7
370
    25
100
AcDbLine
 10
654.816275
 20
312.576593
 30
0.0
 11
657.816275
 21
315.576593
 31
0.0
  0
LINE
  5
364
330
35A
100
AcDbEntity
  8
LC-005-005-----0
 62
     7
370
    25
100
AcDbLine
 10
654.816275
 20
315.40502
 30
0.0
 11
657.816275
 21
318.40502
 31
0.0
  0
LINE
  5
365
330
35A
100
AcDbEntity
  8
LC-005-005-----0
 62
     7
370
    25
100
AcDbLine
 10
654.816275
 20
318.233447
 30
0.0
 11
657.816275
 21
321.233447
 31
0.0
  0
LINE
  5
366
330
35A
100
AcDbEntity
  8
LC-005-005-----0
 62
     7
370
    25
100
AcDbLine
 10
654.816275
 20
321.061874
 30
0.0
 11
657.816275
 21
324.061874
 31
0.0
  0
LINE
  5
367
330
35A
100
AcDbEntity
  8
LC-005-005-----0
 62
     7
370
    25
100
AcDbLine
 10
654.816275
 20
323.890301
 30
0.0
 11
657.816275
 21
326.890301
 31
0.0
  0
LINE
  5
368
330
35A
100
AcDbEntity
  8
LC-005-005-----0
 62
     7
370
    25
100
AcDbLine
 10
654.816275
 20
326.718728
 30
0.0
 11
657.816275
 21
329.718728
 31
0.0
  0
LINE
  5
369
330
35A
100
AcDbEntity
  8
LC-005-005-----0
 62
     7
370
    25
100
AcDbLine
 10
654.816275
 20
329.547156
 30
0.0
 11
657.816275
 21
332.547156
 31
0.0
  0
LINE
  5
36A
330
35A
100
AcDbEntity
  8
LC-005-005-----0
 62
     7
370
    25
100
AcDbLine
 10
654.816275
 20
332.375583
 30
0.0
 11
657.816275
 21
335.375583
 31
0.0
  0
LINE
  5
36B
330
35A
100
AcDbEntity
  8
LC-005-005-----0
 62
     7
370
    25
100
AcDbLine
 10
654.816275
 20
335.20401
 30
0.0
 11
657.186861
 21
337.574596
 31
0.0
  0
ENDBLK
  5
35C
330
35A
100
AcDbEntity
  8
0
100
AcDbBlockEnd
  0
ENDSEC
  0
SECTION
  2
ENTITIES
  0
LINE
  5
32
330
1F
100
AcDbEntity
  8
LC-001-002-----0
 62
     7
370
    25
100
AcDbLine
 10
709.816275
 20
287.1861
 30
0.0
 11
709.816275
 21
369.112863
 31
0.0
  0
LINE
  5
33
330
1F
100
AcDbEntity
  8
LC-001-002-----0
 62
     7
370
    25
100
AcDbLine
 10
639.985592
 20
362.656521
 30
0.0
 11
639.985592
 21
349.155831
 31
0.0
  0
LINE
  5
34
330
1F
100
AcDbEntity
  8
LC-001-002-----0
  6
DASHED
 62
     7
370
    25
100
AcDbLine
 10
818.650283
 20
334.233646
 30
0.0
 11
806.874016
 21
290.284021
 31
0.0
  0
LINE
  5
35
330
1F
100
AcDbEntity
  8
LC-001-002-----0
  6
ByBlock
 62
     7
370
    50
100
AcDbLine
 10
642.315785
 20
362.656521
 30
0.0
 11
637.315785
 21
362.656521
 31
0.0
  0
LINE
  5
36
330
1F
100
AcDbEntity
  8
LC-001-002-----0
  6
ByBlock
 62
     7
370
    50
100
AcDbLine
 10
761.816275
 20
295.174596
 30
0.0
 11
761.816275
 21
290.6861
 31
0.0
  0
ARC
  5
38
102
{ACAD_REACTORS
330
3AF
102
}
330
1F
100
AcDbEntity
  8
LC-002-205-RND-0
 62
     7
370
    50
100
AcDbCircle
 10
800.115582
 20
345.898489
 30
0.0
 40
0.2999999999999545
100
AcDbArc
 50
0.0
 51
78.586371
  0
LINE
  5
39
330
1F
100
AcDbEntity
  8
LC-001-002-----0
  6
ByBlock
 62
     7
370
    50
100
AcDbLine
 10
637.110916
 20
362.656521
 30
0.0
 11
636.822241
 21
363.156521
 31
0.0
  0
LINE
  5
3A
330
1F
100
AcDbEntity
  8
LC-001-002-----0
  6
ByBlock
 62
     7
370
    50
100
AcDbLine
 10
639.116882
 20
362.656521
 30
0.0
 11
638.828206
 21
363.156521
 31
0.0
  0
LINE
  5
3C
330
1F
100
AcDbEntity
  8
LC-003-205-----0
 62
     7
370
    50
100
AcDbLine
 10
764.497592
 20
342.174596
 30
0.0
 11
776.415582
 21
342.174596
 31
0.0
  0
LINE
  5
3D
330
1F
100
AcDbEntity
  8
LC-001-002-----0
  6
ByBlock
 62
     7
370
    50
100
AcDbLine
 10
776.415582
 20
342.174596
 30
0.0
 11
776.415582
 21
344.4861
 31
0.0
  0
LINE
  5
3E
330
1F
100
AcDbEntity
  8
LC-001-002-----0
  6
ByBlock
 62
     7
370
    50
100
AcDbLine
 10
776.415582
 20
344.4861
 30
0.0
 11
778.915582
 21
344.4861
 31
0.0
  0
LINE
  5
3F
330
1F
100
AcDbEntity
  8
LC-001-002-----0
  6
ByBlock
 62
     7
370
    50
100
AcDbLine
 10
778.915582
 20
342.456326
 30
0.0
 11
778.915582
 21
344.4861
 31
0.0
  0
LINE
  5
40
330
1F
100
AcDbEntity
  8
LC-001-002-----0
  6
ByBlock
 62
     7
370
    50
100
AcDbLine
 10
764.497592
 20
347.155831
 30
0.0
 11
764.497592
 21
342.174596
 31
0.0
  0
LINE
  5
41
330
1F
100
AcDbEntity
  8
LC-001-002-----0
  6
ByBlock
 62
     7
370
    50
100
AcDbLine
 10
811.915582
 20
295.174596
 30
0.0
 11
811.915582
 21
339.174596
 31
0.0
  0
LINE
  5
42
330
1F
100
AcDbEntity
  8
LC-001-002-----0
  6
ByBlock
 62
     7
370
    50
100
AcDbLine
 10
764.816275
 20
292.174596
 30
0.0
 11
764.816275
 21
290.6861
 31
0.0
  0
ARC
  5
44
330
1F
100
AcDbEntity
  8
LC-004-002-RND-0
 62
     7
370
    50
100
AcDbCircle
 10
761.316275
 20
290.6861
 30
0.0
 40
3.5
100
AcDbArc
 50
270.0
 51
360.0
  0
ARC
  5
45
102
{ACAD_REACTORS
330
3AF
102
}
330
1F
100
AcDbEntity
  8
LC-004-002-RND-0
 62
     7
370
    50
100
AcDbCircle
 10
761.316275
 20
290.6861
 30
0.0
 40
0.5
100
AcDbArc
 50
270.0
 51
360.0
  0
ARC
  5
46
330
1F
100
AcDbEntity
  8
LC-004-002-RND-0
 62
     7
370
    50
100
AcDbCircle
 10
658.316275
 20
290.6861
 30
0.0
 40
3.5
100
AcDbArc
 50
180.0
 51
270.0
  0
ARC
  5
47
330
1F
100
AcDbEntity
  8
LC-004-002-RND-0
 62
     7
370
    50
100
AcDbCircle
 10
658.316275
 20
290.6861
 30
0.0
 40
0.5
100
AcDbArc
 50
180.0
 51
270.0
  0
LINE
  5
48
330
1F
100
AcDbEntity
  8
LC-001-002-----0
  6
ByBlock
 62
     7
370
    50
100
AcDbLine
 10
654.816275
 20
290.6861
 30
0.0
 11
654.816275
 21
295.224596
 31
0.0
  0
LINE
  5
49
330
1F
100
AcDbEntity
  8
LC-001-002-----0
  6
ByBlock
 62
     7
370
    50
100
AcDbLine
 10
657.816275
 20
290.6861
 30
0.0
 11
657.816275
 21
296.774596
 31
0.0
  0
LINE
  5
4A
330
1F
100
AcDbEntity
  8
LC-001-002-----0
  6
ByBlock
 62
     7
370
    50
100
AcDbLine
 10
750.316275
 20
351.476916
 30
0.0
 11
750.316275
 21
342.655831
 31
0.0
  0
LINE
  5
4B
330
1F
100
AcDbEntity
  8
LC-001-002-----0
  6
ByBlock
 62
     7
370
    50
100
AcDbLine
 10
659.066275
 20
351.655831
 30
0.0
 11
669.316275
 21
351.476916
 31
0.0
  0
LINE
  5
4C
330
1F
100
AcDbEntity
  8
LC-001-002-----0
  6
ByBlock
 62
     7
370
    50
100
AcDbLine
 10
636.527514
 20
362.656521
 30
0.0
 11
635.10495
 21
362.656521
 31
0.0
  0
LINE
  5
4D
330
1F
100
AcDbEntity
  8
LC-001-002-----0
  6
ByBlock
 62
     7
370
    50
100
AcDbLine
 10
782.527686
 20
362.656521
 30
0.0
 11
782.816361
 21
363.156521
 31
0.0
  0
LINE
  5
4E
330
1F
100
AcDbEntity
  8
LC-001-002-----0
  6
ByBlock
 62
     7
370
    50
100
AcDbLine
 10
649.816249
 20
351.655831
 30
0.0
 11
659.066275
 21
351.655831
 31
0.0
  0
INSERT
  5
5B
330
1F
100
AcDbEntity
  8
LC-005-005-----0
 62
     7
370
    25
100
AcDbBlockReference
  2
*X11
 10
0.0
 20
0.0
 30
0.0
  0
CIRCLE
  5
5C
330
1F
100
AcDbEntity
  8
LC-001-002-----0
  6
ByBlock
 62
     7
370
    50
100
AcDbCircle
 10
748.816275
 20
347.478126
 30
0.0
 40
1.5
  0
CIRCLE
  5
5D
330
1F
100
AcDbEntity
  8
LC-001-002-----0
  6
ByBlock
 62
     7
370
    50
100
AcDbCircle
 10
670.816274
 20
347.478126
 30
0.0
 40
1.499999999999993
  0
INSERT
  5
69
330
1F
100
AcDbEntity
  8
LC-005-005-----0
 62
     7
370
    25
100
AcDbBlockReference
  2
*X22
 10
0.0
 20
0.0
 30
0.0
  0
LINE
  5
6A
330
1F
100
AcDbEntity
  8
LC-001-002-----0
  6
ByBlock
 62
     7
370
    50
100
AcDbLine
 10
669.316275
 20
351.476916
 30
0.0
 11
669.316275
 21
342.655831
 31
0.0
  0
LINE
  5
6B
330
1F
100
AcDbEntity
  8
LC-001-002-----0
  6
ByBlock
 62
     7
370
    50
100
AcDbLine
 10
667.316275
 20
342.655831
 30
0.0
 11
669.316275
 21
342.655831
 31
0.0
  0
LINE
  5
6C
330
1F
100
AcDbEntity
  8
LC-001-002-----0
  6
ByBlock
 62
     7
370
    50
100
AcDbLine
 10
667.316275
 20
349.655831
 30
0.0
 11
667.316275
 21
342.655831
 31
0.0
  0
LINE
  5
6D
330
1F
100
AcDbEntity
  8
LC-001-002-----0
  6
ByBlock
 62
     7
370
    50
100
AcDbLine
 10
657.816275
 20
349.655831
 30
0.0
 11
667.316275
 21
349.655831
 31
0.0
  0
LINE
  5
6E
330
1F
100
AcDbEntity
  8
LC-001-002-----0
  6
ByBlock
 62
     7
370
    50
100
AcDbLine
 10
672.316275
 20
326.502777
 30
0.0
 11
669.816281
 21
329.002771
 31
0.0
  0
LINE
  5
6F
330
1F
100
AcDbEntity
  8
LC-001-002-----0
  6
ByBlock
 62
     7
370
    50
100
AcDbLine
 10
747.316275
 20
326.502794
 30
0.0
 11
749.816259
 21
329.002778
 31
0.0
  0
INSERT
  5
E4
330
1F
100
AcDbEntity
  8
LC-005-005-----0
 62
     7
370
    25
100
AcDbBlockReference
  2
*X33
 10
0.0
 20
0.0
 30
0.0
  0
ARC
  5
E5
330
1F
100
AcDbEntity
  8
LC-001-002-----0
  6
ByBlock
 62
     7
370
    50
100
AcDbCircle
 10
722.81627
 20
304.478126
 30
0.0
 40
12.00000000000004
100
AcDbArc
 50
209.926478
 51
270.0
  0
ARC
  5
E6
330
1F
100
AcDbEntity
  8
LC-001-002-----0
  6
ByBlock
 62
     7
370
    50
100
AcDbCircle
 10
696.816281
 20
304.478126
 30
0.0
 40
12.0
100
AcDbArc
 50
269.989261
 51
330.073523
  0
ARC
  5
E7
330
1F
100
AcDbEntity
  8
LC-004-002-RND-0
 62
     7
370
    50
100
AcDbCircle
 10
709.816275
 20
296.994801
 30
0.0
 40
2.999999999999629
100
AcDbArc
 50
29.926478
 51
150.073523
  0
ARC
  5
E8
330
1F
100
AcDbEntity
  8
LC-001-002-----0
  6
ByBlock
 62
     7
370
    50
100
AcDbCircle
 10
696.816281
 20
304.478126
 30
0.0
 40
13.50000000000011
100
AcDbArc
 50
270.010125
 51
330.073523
  0
LINE
  5
EA
330
1F
100
AcDbEntity
  8
LC-006-101-----0
 62
     7
370
    50
100
AcDbLine
 10
722.81627
 20
292.478126
 30
0.0
 11
737.316276
 21
292.478126
 31
0.0
  0
ARC
  5
EB
330
1F
100
AcDbEntity
  8
LC-001-002-----0
  6
ByBlock
 62
     7
370
    50
100
AcDbCircle
 10
722.81627
 20
304.478126
 30
0.0
 40
13.49999999999995
100
AcDbArc
 50
209.926478
 51
270.0
  0
ARC
  5
EC
330
1F
100
AcDbEntity
  8
LC-001-002-----0
  6
ByBlock
 62
     7
370
    50
100
AcDbCircle
 10
709.816275
 20
296.994801
 30
0.0
 40
1.499999999999504
100
AcDbArc
 50
29.926478
 51
150.073523
  0
LINE
  5
ED
330
1F
100
AcDbEntity
  8
LC-001-002-----0
  6
ByBlock
 62
     7
370
    50
100
AcDbLine
 10
669.816281
 20
344.978126
 30
0.0
 11
672.316275
 21
344.978126
 31
0.0
  0
LINE
  5
EE
330
1F
100
AcDbEntity
  8
LC-001-002-----0
  6
ByBlock
 62
     7
370
    50
100
AcDbLine
 10
669.816281
 20
344.978126
 30
0.0
 11
669.816281
 21
345.978126
 31
0.0
  0
LINE
  5
EF
330
1F
100
AcDbEntity
  8
LC-001-002-----0
  6
ByBlock
 62
     7
370
    50
100
AcDbLine
 10
669.816281
 20
345.978126
 30
0.0
 11
672.316275
 21
345.978126
 31
0.0
  0
LINE
  5
F0
330
1F
100
AcDbEntity
  8
LC-001-002-----0
  6
ByBlock
 62
     7
370
    50
100
AcDbLine
 10
672.316275
 20
345.978126
 30
0.0
 11
672.316275
 21
344.978126
 31
0.0
  0
LINE
  5
F1
330
1F
100
AcDbEntity
  8
LC-001-002-----0
  6
ByBlock
 62
     7
370
    50
100
AcDbLine
 10
749.816259
 20
344.978126
 30
0.0
 11
749.816259
 21
345.978126
 31
0.0
  0
LINE
  5
F2
330
1F
100
AcDbEntity
  8
LC-001-002-----0
  6
ByBlock
 62
     7
370
    50
100
AcDbLine
 10
747.316264
 20
345.978126
 30
0.0
 11
747.316264
 21
344.978126
 31
0.0
  0
LINE
  5
F3
330
1F
100
AcDbEntity
  8
LC-001-002-----0
  6
ByBlock
 62
     7
370
    50
100
AcDbLine
 10
749.816259
 20
344.978126
 30
0.0
 11
747.316264
 21
344.978126
 31
0.0
  0
LINE
  5
F4
330
1F
100
AcDbEntity
  8
LC-001-002-----0
  6
ByBlock
 62
     7
370
    50
100
AcDbLine
 10
749.816259
 20
345.978126
 30
0.0
 11
747.316264
 21
345.978126
 31
0.0
  0
LINE
  5
F5
330
1F
100
AcDbEntity
  8
LC-006-101-----0
 62
     7
370
    50
100
AcDbLine
 10
722.81627
 20
290.978126
 30
0.0
 11
737.316276
 21
290.978126
 31
0.0
  0
LINE
  5
F6
330
1F
100
AcDbEntity
  8
LC-001-002-----0
  6
ByBlock
 62
     7
370
    50
100
AcDbLine
 10
749.816259
 20
344.978126
 30
0.0
 11
749.816259
 21
329.002778
 31
0.0
  0
LINE
  5
F7
330
1F
100
AcDbEntity
  8
LC-001-002-----0
  6
ByBlock
 62
     7
370
    50
100
AcDbLine
 10
752.316275
 20
342.655831
 30
0.0
 11
750.316275
 21
342.655831
 31
0.0
  0
LINE
  5
F8
330
1F
100
AcDbEntity
  8
LC-001-002-----0
  6
ByBlock
 62
     7
370
    50
100
AcDbLine
 10
745.816275
 20
332.978126
 30
0.0
 11
747.316275
 21
334.478126
 31
0.0
  0
LINE
  5
F9
330
1F
100
AcDbEntity
  8
LC-006-101-----0
 62
     7
370
    50
100
AcDbLine
 10
673.816275
 20
332.978126
 30
0.0
 11
673.816276
 21
300.978126
 31
0.0
  0
LINE
  5
FA
330
1F
100
AcDbEntity
  8
LC-001-002-----0
  6
ByBlock
 62
     7
370
    50
100
AcDbLine
 10
752.316275
 20
349.655831
 30
0.0
 11
752.316275
 21
342.655831
 31
0.0
  0
LINE
  5
FB
330
1F
100
AcDbEntity
  8
LC-006-101-----0
 62
     7
370
    50
100
AcDbLine
 10
747.316275
 20
334.478126
 30
0.0
 11
747.316276
 21
300.978126
 31
0.0
  0
LINE
  5
FC
330
1F
100
AcDbEntity
  8
LC-001-002-----0
  6
ByBlock
 62
     7
370
    50
100
AcDbLine
 10
761.816275
 20
349.655831
 30
0.0
 11
752.316275
 21
349.655831
 31
0.0
  0
LINE
  5
FD
330
1F
100
AcDbEntity
  8
LC-006-101-----0
 62
     7
370
    50
100
AcDbLine
 10
672.316275
 20
334.478126
 30
0.0
 11
673.816275
 21
332.978126
 31
0.0
  0
ARC
  5
FE
330
1F
100
AcDbEntity
  8
LC-006-101-----0
 62
     7
370
    50
100
AcDbCircle
 10
737.316276
 20
300.978126
 30
0.0
 40
8.5
100
AcDbArc
 50
270.0
 51
0.0
  0
ARC
  5
FF
330
1F
100
AcDbEntity
  8
LC-006-101-----0
 62
     7
370
    50
100
AcDbCircle
 10
737.316276
 20
300.978126
 30
0.0
 40
10.0
100
AcDbArc
 50
270.0
 51
0.0
  0
ARC
  5
100
330
1F
100
AcDbEntity
  8
LC-006-101-----0
 62
     7
370
    50
100
AcDbCircle
 10
682.316276
 20
300.978126
 30
0.0
 40
8.5
100
AcDbArc
 50
180.0
 51
270.0
  0
LINE
  5
101
330
1F
100
AcDbEntity
  8
LC-006-101-----0
 62
     7
370
    50
100
AcDbLine
 10
672.316275
 20
334.478126
 30
0.0
 11
672.316276
 21
300.978126
 31
0.0
  0
LINE
  5
102
330
1F
100
AcDbEntity
  8
LC-006-101-----0
 62
     7
370
    50
100
AcDbLine
 10
745.816275
 20
332.978126
 30
0.0
 11
745.816276
 21
300.978126
 31
0.0
  0
ARC
  5
103
330
1F
100
AcDbEntity
  8
LC-006-101-----0
 62
     7
370
    50
100
AcDbCircle
 10
682.316276
 20
300.978126
 30
0.0
 40
10.0
100
AcDbArc
 50
180.0
 51
270.0
  0
LINE
  5
104
330
1F
100
AcDbEntity
  8
LC-006-101-----0
 62
     7
370
    50
100
AcDbLine
 10
682.316276
 20
290.978126
 30
0.0
 11
696.818667
 21
290.978126
 31
0.0
  0
LINE
  5
105
330
1F
100
AcDbEntity
  8
LC-001-002-----0
  6
ByBlock
 62
     7
370
    50
100
AcDbLine
 10
747.316264
 20
343.978126
 30
0.0
 11
747.316264
 21
334.478126
 31
0.0
  0
LINE
  5
106
330
1F
100
AcDbEntity
  8
LC-006-101-----0
 62
     7
370
    50
100
AcDbLine
 10
682.316276
 20
292.478126
 30
0.0
 11
696.814032
 21
292.478126
 31
0.0
  0
LINE
  5
107
330
1F
100
AcDbEntity
  8
LC-001-002-----0
  6
ByBlock
 62
     7
370
    50
100
AcDbLine
 10
669.816281
 20
329.002771
 30
0.0
 11
669.816281
 21
344.978126
 31
0.0
  0
LINE
  5
108
330
1F
100
AcDbEntity
  8
LC-001-002-----0
  6
ByBlock
 62
     7
370
    50
100
AcDbLine
 10
672.316275
 20
343.978126
 30
0.0
 11
672.316275
 21
334.478126
 31
0.0
  0
LINE
  5
109
330
1F
100
AcDbEntity
  8
LC-001-002-----0
  6
ByBlock
 62
     7
370
    50
100
AcDbLine
 10
760.566275
 20
351.655831
 30
0.0
 11
750.316275
 21
351.476916
 31
0.0
  0
LINE
  5
10A
330
1F
100
AcDbEntity
  8
LC-001-002-----0
  6
ByBlock
 62
     7
370
    50
100
AcDbLine
 10
769.816301
 20
351.655831
 30
0.0
 11
760.566275
 21
351.655831
 31
0.0
  0
ARC
  5
10B
330
1F
100
AcDbEntity
  8
LC-004-002-RND-0
 62
     7
370
    50
100
AcDbCircle
 10
786.316797
 20
355.656521
 30
0.0
 40
1.0
100
AcDbArc
 50
90.0
 51
180.0
  0
LINE
  5
10C
330
1F
100
AcDbEntity
  8
LC-001-002-----0
  6
ByBlock
 62
     7
370
    50
100
AcDbLine
 10
777.31685
 20
362.656521
 30
0.0
 11
777.31685
 21
349.155831
 31
0.0
  0
LINE
  5
10D
330
1F
100
AcDbEntity
  8
LC-001-002-----0
  6
ByBlock
 62
     7
370
    50
100
AcDbLine
 10
785.316797
 20
355.656521
 30
0.0
 11
785.316797
 21
348.155831
 31
0.0
  0
LINE
  5
10E
102
{ACAD_REACTORS
330
3AF
102
}
330
1F
100
AcDbEntity
  8
LC-001-002-----0
  6
ByBlock
 62
     7
370
    50
100
AcDbLine
 10
657.816275
 20
349.655831
 30
0.0
 11
657.816275
 21
293.730348
 31
0.0
  0
LINE
  5
10F
330
1F
100
AcDbEntity
  8
LC-001-002-----0
 62
     7
370
    25
100
AcDbLine
 10
779.816764
 20
349.155831
 30
0.0
 11
779.816766
 21
362.656521
 31
0.0
  0
LINE
  5
110
102
{ACAD_REACTORS
330
3AF
102
}
330
1F
100
AcDbEntity
  8
LC-001-002-----0
  6
ByBlock
 62
     7
370
    50
100
AcDbLine
 10
761.816275
 20
349.655831
 30
0.0
 11
761.816275
 21
339.174596
 31
0.0
  0
LINE
  5
111
330
1F
100
AcDbEntity
  8
LC-001-002-----0
  6
ByBlock
 62
     7
370
    50
100
AcDbLine
 10
780.527686
 20
362.656521
 30
0.0
 11
780.816361
 21
363.156521
 31
0.0
  0
LINE
  5
112
330
1F
100
AcDbEntity
  8
LC-001-002-----0
  6
ByBlock
 62
     7
370
    50
100
AcDbLine
 10
780.816361
 20
363.156521
 30
0.0
 11
781.105036
 21
362.656521
 31
0.0
  0
LINE
  5
113
330
1F
100
AcDbEntity
  8
LC-001-002-----0
  6
ByBlock
 62
     7
370
    50
100
AcDbLine
 10
638.822155
 20
363.156521
 30
0.0
 11
638.533479
 21
362.656521
 31
0.0
  0
LINE
  5
114
330
1F
100
AcDbEntity
  8
LC-001-002-----0
  6
ByBlock
 62
     7
370
    50
100
AcDbLine
 10
641.122847
 20
362.656521
 30
0.0
 11
640.834172
 21
363.156521
 31
0.0
  0
DIMENSION
  5
118
330
1F
100
AcDbEntity
  8
LC-007-003-----0
 62
     7
370
    25
100
AcDbDimension
  2
*D4
 10
824.816275
 20
392.0
 30
0.0
 11
709.816275
 21
422.8
 31
0.0
 70
   160
  1
%%c<>
 71
     5
 42
230.0
  3
LC-DIM-L-0140-02-02
100
AcDbAlignedDimension
 13
594.816275
 23
367.112863
 33
0.0
 14
824.816275
 24
367.112863
 34
0.0
100
AcDbRotatedDimension
  0
LINE
  5
126
330
1F
100
AcDbEntity
  8
LC-001-002-----0
  6
ByBlock
 62
     7
370
    50
100
AcDbLine
 10
778.527686
 20
362.656521
 30
0.0
 11
778.816361
 21
363.156521
 31
0.0
  0
LINE
  5
127
330
1F
100
AcDbEntity
  8
LC-001-002-----0
  6
ByBlock
 62
     7
370
    50
100
AcDbLine
 10
672.316274
 20
343.978126
 30
0.0
 11
669.816274
 21
343.978126
 31
0.0
  0
LINE
  5
128
330
1F
100
AcDbEntity
  8
LC-001-002-----0
  6
ByBlock
 62
     7
370
    50
100
AcDbLine
 10
643.104864
 20
362.656521
 30
0.0
 11
642.816189
 21
363.156521
 31
0.0
  0
LINE
  5
129
330
1F
100
AcDbEntity
  8
LC-001-002-----0
  6
ByBlock
 62
     7
370
    50
100
AcDbLine
 10
640.82812
 20
363.156521
 30
0.0
 11
640.539445
 21
362.656521
 31
0.0
  0
LINE
  5
12A
330
1F
100
AcDbEntity
  8
LC-001-002-----0
  6
ByBlock
 62
     7
370
    50
100
AcDbLine
 10
745.316275
 20
346.856539
 30
0.0
 11
745.316275
 21
345.978126
 31
0.0
  0
LINE
  5
12B
330
1F
100
AcDbEntity
  8
LC-001-002-----0
  6
ByBlock
 62
     7
370
    50
100
AcDbLine
 10
776.816361
 20
363.156521
 30
0.0
 11
776.824441
 21
363.142526
 31
0.0
  0
LINE
  5
12C
330
1F
100
AcDbEntity
  8
LC-001-002-----0
  6
ByBlock
 62
     7
370
    50
100
AcDbLine
 10
747.316275
 20
349.250452
 30
0.0
 11
747.316275
 21
344.978126
 31
0.0
  0
LINE
  5
12D
330
1F
100
AcDbEntity
  8
LC-001-002-----0
  6
ByBlock
 62
     7
370
    50
100
AcDbLine
 10
776.527686
 20
362.656521
 30
0.0
 11
776.816361
 21
363.156521
 31
0.0
  0
LINE
  5
12E
330
1F
100
AcDbEntity
  8
LC-001-002-----0
  6
ByBlock
 62
     7
370
    50
100
AcDbLine
 10
750.316275
 20
349.970028
 30
0.0
 11
747.765896
 21
349.747907
 31
0.0
  0
LINE
  5
12F
330
1F
100
AcDbEntity
  8
LC-001-002-----0
  6
ByBlock
 62
     7
370
    50
100
AcDbLine
 10
750.316275
 20
351.475706
 30
0.0
 11
748.510359
 21
351.318423
 31
0.0
  0
LINE
  5
130
330
1F
100
AcDbEntity
  8
LC-001-002-----0
  6
ByBlock
 62
     7
370
    50
100
AcDbLine
 10
734.933357
 20
342.377994
 30
0.0
 11
746.821184
 21
350.70194
 31
0.0
  0
LINE
  5
131
330
1F
100
AcDbEntity
  8
LC-001-002-----0
  6
ByBlock
 62
     7
370
    50
100
AcDbLine
 10
669.316275
 20
351.478126
 30
0.0
 11
750.577877
 21
351.475699
 31
0.0
  0
LINE
  5
132
330
1F
100
AcDbEntity
  8
LC-001-002-----0
  6
ByBlock
 62
     7
370
    50
100
AcDbLine
 10
684.699192
 20
342.377995
 30
0.0
 11
672.811365
 21
350.70194
 31
0.0
  0
LINE
  5
133
330
1F
100
AcDbEntity
  8
LC-001-002-----0
  6
ByBlock
 62
     7
370
    50
100
AcDbLine
 10
669.816274
 20
343.978126
 30
0.0
 11
669.816274
 21
344.978126
 31
0.0
  0
LINE
  5
134
330
1F
100
AcDbEntity
  8
LC-001-002-----0
  6
ByBlock
 62
     7
370
    50
100
AcDbLine
 10
782.816361
 20
363.156521
 30
0.0
 11
783.81685
 21
363.156521
 31
0.0
  0
LINE
  5
135
330
1F
100
AcDbEntity
  8
LC-001-002-----0
  6
ByBlock
 62
     7
370
    50
100
AcDbLine
 10
669.816274
 20
344.978126
 30
0.0
 11
672.316274
 21
344.978126
 31
0.0
  0
LINE
  5
136
102
{ACAD_REACTORS
330
3AF
102
}
330
1F
100
AcDbEntity
  8
LC-001-002-----0
  6
ByBlock
 62
     7
370
    50
100
AcDbLine
 10
635.315753
 20
347.155831
 30
0.0
 11
651.816275
 21
347.155831
 31
0.0
  0
ARC
  5
137
330
1F
100
AcDbEntity
  8
LC-004-002-RND-0
 62
     7
370
    50
100
AcDbCircle
 10
747.316275
 20
345.978126
 30
0.0
 40
2.0
100
AcDbArc
 50
180.0
 51
270.0
  0
LINE
  5
138
330
1F
100
AcDbEntity
  8
LC-001-002-----0
  6
ByBlock
 62
     7
370
    50
100
AcDbLine
 10
747.316275
 20
343.978126
 30
0.0
 11
749.816275
 21
343.978126
 31
0.0
  0
LINE
  5
139
330
1F
100
AcDbEntity
  8
LC-001-002-----0
  6
ByBlock
 62
     7
370
    50
100
AcDbLine
 10
749.816275
 20
343.978126
 30
0.0
 11
749.816275
 21
344.978126
 31
0.0
  0
LINE
  5
13A
330
1F
100
AcDbEntity
  8
LC-001-002-----0
  6
ByBlock
 62
     7
370
    50
100
AcDbLine
 10
749.816275
 20
344.978126
 30
0.0
 11
747.316275
 21
344.978126
 31
0.0
  0
LINE
  5
13B
330
1F
100
AcDbEntity
  8
LC-006-101-----0
 62
     7
370
    50
100
AcDbLine
 10
729.816275
 20
302.976916
 30
0.0
 11
730.816275
 21
302.976916
 31
0.0
  0
LINE
  5
13C
330
1F
100
AcDbEntity
  8
LC-001-002-----0
  6
ByBlock
 62
     7
370
    50
100
AcDbLine
 10
735.08051
 20
340.64987
 30
0.0
 11
744.529487
 21
347.266115
 31
0.0
  0
INSERT
  5
16C
330
1F
100
AcDbEntity
  8
LC-005-005-----0
 62
     7
370
    25
100
AcDbBlockReference
  2
*X45
 10
0.0
 20
0.0
 30
0.0
  0
ARC
  5
16D
330
1F
100
AcDbEntity
  8
LC-004-002-RND-0
 62
     7
370
    50
100
AcDbCircle
 10
677.816275
 20
332.54817
 30
0.0
 40
12.0
100
AcDbArc
 50
0.0
 51
55.0
  0
LINE
  5
16E
330
1F
100
AcDbEntity
  8
LC-001-002-----0
  6
ByBlock
 62
     7
370
    50
100
AcDbLine
 10
684.552039
 20
340.64987
 30
0.0
 11
675.103063
 21
347.266115
 31
0.0
  0
LINE
  5
16F
330
1F
100
AcDbEntity
  8
LC-006-101-----0
 62
     7
370
    50
100
AcDbLine
 10
688.816275
 20
302.976916
 30
0.0
 11
688.816275
 21
332.45835
 31
0.0
  0
LINE
  5
170
330
1F
100
AcDbEntity
  8
LC-006-101-----0
 62
     7
370
    50
100
AcDbLine
 10
689.816275
 20
302.976916
 30
0.0
 11
689.816275
 21
332.54817
 31
0.0
  0
LINE
  5
171
330
1F
100
AcDbEntity
  8
LC-001-002-----0
  6
ByBlock
 62
     7
370
    50
100
AcDbLine
 10
637.315785
 20
362.656521
 30
0.0
 11
637.110916
 21
362.656521
 31
0.0
  0
LINE
  5
172
330
1F
100
AcDbEntity
  8
LC-001-002-----0
  6
ByBlock
 62
     7
370
    50
100
AcDbLine
 10
669.316275
 20
349.972415
 30
0.0
 11
671.867112
 21
349.711707
 31
0.0
  0
LINE
  5
173
330
1F
100
AcDbEntity
  8
LC-006-101-----0
 62
     7
370
    50
100
AcDbLine
 10
709.816275
 20
302.976916
 30
0.0
 11
688.816275
 21
302.976916
 31
0.0
  0
LINE
  5
174
330
1F
100
AcDbEntity
  8
LC-001-002-----0
  6
ByBlock
 62
     7
370
    50
100
AcDbLine
 10
672.316274
 20
349.214298
 30
0.0
 11
672.316274
 21
344.978126
 31
0.0
  0
LINE
  5
175
330
1F
100
AcDbEntity
  8
LC-001-002-----0
  6
ByBlock
 62
     7
370
    50
100
AcDbLine
 10
674.316274
 20
346.856539
 30
0.0
 11
674.316274
 21
345.978126
 31
0.0
  0
ARC
  5
176
330
1F
100
AcDbEntity
  8
LC-004-002-RND-0
 62
     7
370
    50
100
AcDbCircle
 10
678.816275
 20
332.45835
 30
0.0
 40
10.0
100
AcDbArc
 50
0.0
 51
55.0
  0
ARC
  5
177
330
1F
100
AcDbEntity
  8
LC-004-002-RND-0
 62
     7
370
    50
100
AcDbCircle
 10
740.816274
 20
332.458349
 30
0.0
 40
10.0000000000001
100
AcDbArc
 50
125.0
 51
180.0
  0
LINE
  5
178
330
1F
100
AcDbEntity
  8
LC-006-101-----0
 62
     7
370
    50
100
AcDbLine
 10
730.816275
 20
302.976916
 30
0.0
 11
730.816274
 21
332.458349
 31
0.0
  0
LINE
  5
179
330
1F
100
AcDbEntity
  8
LC-006-101-----0
 62
     7
370
    50
100
AcDbLine
 10
729.816275
 20
302.976916
 30
0.0
 11
729.816274
 21
332.548169
 31
0.0
  0
LINE
  5
17A
330
1F
100
AcDbEntity
  8
LC-006-101-----0
 62
     7
370
    50
100
AcDbLine
 10
709.816275
 20
302.976916
 30
0.0
 11
729.816275
 21
302.976916
 31
0.0
  0
ARC
  5
17B
330
1F
100
AcDbEntity
  8
LC-004-002-RND-0
 62
     7
370
    50
100
AcDbCircle
 10
674.816274
 20
346.856539
 30
0.0
 40
0.5000000000001548
100
AcDbArc
 50
55.0
 51
180.0
  0
LINE
  5
17C
330
1F
100
AcDbEntity
  8
LC-001-002-----0
  6
ByBlock
 62
     7
370
    50
100
AcDbLine
 10
669.639851
 20
351.449863
 30
0.0
 11
671.122361
 21
351.320371
 31
0.0
  0
ARC
  5
17D
330
1F
100
AcDbEntity
  8
LC-004-002-RND-0
 62
     7
370
    50
100
AcDbCircle
 10
672.316274
 20
345.978126
 30
0.0
 40
2.0
100
AcDbArc
 50
270.0
 51
0.0
  0
ARC
  5
17E
330
1F
100
AcDbEntity
  8
LC-004-002-RND-0
 62
     7
370
    50
100
AcDbCircle
 10
671.816274
 20
349.214298
 30
0.0
 40
0.5
100
AcDbArc
 50
0.0
 51
84.164355
  0
ARC
  5
180
330
1F
100
AcDbEntity
  8
LC-008-101-RND-0
 62
     7
370
    50
100
AcDbCircle
 10
741.816274
 20
332.548169
 30
0.0
 40
12.00000000000006
100
AcDbArc
 50
125.0
 51
180.0
  0
ARC
  5
181
330
1F
100
AcDbEntity
  8
LC-004-002-RND-0
 62
     7
370
    50
100
AcDbCircle
 10
747.816275
 20
349.250452
 30
0.0
 40
0.4999999999999391
100
AcDbArc
 50
95.782875
 51
180.0
  0
ARC
  5
182
330
1F
100
AcDbEntity
  8
LC-004-002-RND-0
 62
     7
370
    50
100
AcDbCircle
 10
744.816275
 20
346.856539
 30
0.0
 40
0.5
100
AcDbArc
 50
0.0
 51
125.0
  0
LINE
  5
183
330
1F
100
AcDbEntity
  8
LC-001-002-----0
  6
ByBlock
 62
     7
370
    50
100
AcDbLine
 10
778.816361
 20
363.156521
 30
0.0
 11
779.105036
 21
362.656521
 31
0.0
  0
LINE
  5
184
330
1F
100
AcDbEntity
  8
LC-001-002-----0
  6
ByBlock
 62
     7
370
    50
100
AcDbLine
 10
776.816361
 20
363.156521
 30
0.0
 11
777.105036
 21
362.656521
 31
0.0
  0
LINE
  5
185
330
1F
100
AcDbEntity
  8
LC-001-002-----0
  6
ByBlock
 62
     7
370
    50
100
AcDbLine
 10
642.834086
 20
363.156521
 30
0.0
 11
642.545411
 21
362.656521
 31
0.0
  0
LINE
  5
186
330
1F
100
AcDbEntity
  8
LC-001-002-----0
  6
ByBlock
 62
     7
370
    50
100
AcDbLine
 10
782.816361
 20
363.156521
 30
0.0
 11
783.105036
 21
362.656521
 31
0.0
  0
LINE
  5
187
330
1F
100
AcDbEntity
  8
LC-001-002-----0
  6
ByBlock
 62
     7
370
    50
100
AcDbLine
 10
642.545411
 20
362.656521
 30
0.0
 11
642.315785
 21
362.656521
 31
0.0
  0
LINE
  5
188
330
1F
100
AcDbEntity
  8
LC-001-002-----0
  6
ByBlock
 62
     7
370
    50
100
AcDbLine
 10
777.105036
 20
362.656521
 30
0.0
 11
782.527686
 21
362.656521
 31
0.0
  0
ARC
  5
189
330
1F
100
AcDbEntity
  8
LC-001-002-----0
  6
ByBlock
 62
     7
370
    50
100
AcDbCircle
 10
670.816275
 20
347.852656
 30
0.0
 40
3.478334111086722
100
AcDbArc
 50
55.0
 51
84.955683
  0
ARC
  5
18A
330
1F
100
AcDbEntity
  8
LC-001-002-----0
  6
ByBlock
 62
     7
370
    50
100
AcDbCircle
 10
748.816275
 20
347.852656
 30
0.0
 40
3.47833411108661
100
AcDbArc
 50
95.044317
 51
125.0
  0
LINE
  5
18B
330
1F
100
AcDbEntity
  8
LC-001-002-----0
  6
ByBlock
 62
     7
370
    50
100
AcDbLine
 10
815.101205
 20
368.858247
 30
0.0
 11
822.750022
 21
369.111765
 31
0.0
  0
LINE
  5
18C
330
1F
100
AcDbEntity
  8
LC-001-002-----0
  6
ByBlock
 62
     7
370
    50
100
AcDbLine
 10
815.441926
 20
365.275107
 30
0.0
 11
824.816275
 21
365.63172
 31
0.0
  0
LINE
  5
18D
330
1F
100
AcDbEntity
  8
LC-001-002-----0
  6
ByBlock
 62
     7
370
    50
100
AcDbLine
 10
795.265424
 20
359.105148
 30
0.0
 11
815.441926
 21
365.275107
 31
0.0
  0
DIMENSION
  5
18E
330
1F
100
AcDbEntity
  8
LC-007-003-----0
 62
     7
370
    25
100
AcDbDimension
  2
*D6
 10
580.345794
 20
287.1861
 30
0.0
 11
549.545794
 21
318.844
 31
0.0
 70
   160
  1
78
 71
     5
 42
78.089007
 53
90.0
  3
LC-DIM-L-0140-02-02
100
AcDbAlignedDimension
 13
604.190624
 23
365.275107
 33
0.0
 14
658.316275
 24
287.1861
 34
0.0
 50
90.0
100
AcDbRotatedDimension
  0
LINE
  5
19B
330
1F
100
AcDbEntity
  8
LC-001-002-----0
  6
ByBlock
 62
     7
370
    50
100
AcDbLine
 10
794.816275
 20
362.656521
 30
0.0
 11
815.101205
 21
368.858247
 31
0.0
  0
LINE
  5
19C
330
1F
100
AcDbEntity
  8
LC-001-002-----0
  6
ByBlock
 62
     7
370
    50
100
AcDbLine
 10
636.822241
 20
363.146039
 30
0.0
 11
636.816189
 21
363.156521
 31
0.0
  0
LINE
  5
19D
330
1F
100
AcDbEntity
  8
LC-001-002-----0
  6
ByBlock
 62
     7
370
    50
100
AcDbLine
 10
636.816189
 20
363.156521
 30
0.0
 11
636.527514
 21
362.656521
 31
0.0
  0
LINE
  5
19E
330
1F
100
AcDbEntity
  8
LC-001-002-----0
  6
ByBlock
 62
     7
370
    50
100
AcDbLine
 10
784.316797
 20
347.155831
 30
0.0
 11
764.497592
 21
347.155831
 31
0.0
  0
LINE
  5
19F
102
{ACAD_REACTORS
330
3B0
102
}
330
1F
100
AcDbEntity
  8
LC-001-002-----0
  6
ByBlock
 62
     7
370
    50
100
AcDbLine
 10
897.316275
 20
292.174596
 30
0.0
 11
900.816275
 21
293.112418
 31
0.0
  0
ARC
  5
1A1
102
{ACAD_REACTORS
330
3B0
102
}
330
1F
100
AcDbEntity
  8
LC-009-207-----0
 62
     7
370
    50
100
AcDbCircle
 10
794.316719
 20
317.174596
 30
0.0
 40
29.7000000000001
100
AcDbArc
 50
69.721682
 51
104.141305
  0
INSERT
  5
1AE
330
1F
100
AcDbEntity
  8
LC-005-005-----0
 62
     7
370
    25
100
AcDbBlockReference
  2
*X57
 10
0.0
 20
0.0
 30
0.0
  0
ARC
  5
1AF
330
1F
100
AcDbEntity
  8
LC-004-002-RND-0
 62
     7
370
    50
100
AcDbCircle
 10
822.816275
 20
367.112863
 30
0.0
 40
2.0
100
AcDbArc
 50
0.0
 51
91.898364
  0
ARC
  5
1B1
102
{ACAD_REACTORS
330
3B0
102
}
330
1F
100
AcDbEntity
  8
LC-010-207-RND-0
 62
     7
370
    50
100
AcDbCircle
 10
786.816275
 20
287.404924
 30
0.0
 40
0.9999999999999977
100
AcDbArc
 50
75.858695
 51
180.0
  0
LINE
  5
1B2
102
{ACAD_REACTORS
330
3B0
102
}
330
1F
100
AcDbEntity
  8
LC-001-002-----0
  6
ByBlock
 62
     7
370
    50
100
AcDbLine
 10
785.816275
 20
287.404924
 30
0.0
 11
785.816275
 21
285.174596
 31
0.0
  0
LINE
  5
1B3
102
{ACAD_REACTORS
330
3B0
102
}
330
1F
100
AcDbEntity
  8
LC-001-002-----0
  6
ByBlock
 62
     7
370
    50
100
AcDbLine
 10
900.816275
 20
293.112418
 30
0.0
 11
900.816275
 21
294.424596
 31
0.0
  0
LINE
  5
1B4
102
{ACAD_REACTORS
330
3B0
102
}
330
1F
100
AcDbEntity
  8
LC-001-002-----0
  6
ByBlock
 62
     7
370
    50
100
AcDbLine
 10
900.816275
 20
294.424596
 30
0.0
 11
900.816275
 21
339.924596
 31
0.0
  0
LINE
  5
1B5
102
{ACAD_REACTORS
330
3B0
102
}
330
1F
100
AcDbEntity
  8
LC-001-002-----0
  6
ByBlock
 62
     7
370
    50
100
AcDbLine
 10
900.816275
 20
339.924596
 30
0.0
 11
900.816275
 21
341.236774
 31
0.0
  0
LINE
  5
1B6
102
{ACAD_REACTORS
330
3B0
102
}
330
1F
100
AcDbEntity
  8
LC-001-002-----0
 62
     7
370
    25
100
AcDbLine
 10
900.816275
 20
317.174596
 30
0.0
 11
766.699392
 21
317.174596
 31
0.0
  0
LINE
  5
1B7
102
{ACAD_REACTORS
330
3B0
102
}
330
1F
100
AcDbEntity
  8
LC-001-002-----0
  6
ByBlock
 62
     7
370
    50
100
AcDbLine
 10
897.316275
 20
342.174596
 30
0.0
 11
900.816275
 21
341.236774
 31
0.0
  0
CIRCLE
  5
1B8
330
1F
100
AcDbEntity
  8
LC-001-002-----0
  6
ByBlock
 62
     7
370
    50
100
AcDbCircle
 10
802.665582
 20
343.924596
 30
0.0
 40
1.75
  0
ARC
  5
1B9
102
{ACAD_REACTORS
330
3B0
102
}
330
1F
100
AcDbEntity
  8
LC-010-207-RND-0
 62
     7
370
    50
100
AcDbCircle
 10
786.816275
 20
346.944267
 30
0.0
 40
1.0
100
AcDbArc
 50
180.0
 51
284.141305
  0
LINE
  5
1BA
102
{ACAD_REACTORS
330
3B0
102
}
330
1F
100
AcDbEntity
  8
LC-009-207-----0
 62
     7
370
    50
100
AcDbLine
 10
814.391259
 20
342.174596
 30
0.0
 11
897.316275
 21
342.174596
 31
0.0
  0
CIRCLE
  5
1BB
330
1F
100
AcDbEntity
  8
LC-001-002-----0
  6
ByBlock
 62
     7
370
    50
100
AcDbCircle
 10
802.665582
 20
290.613091
 30
0.0
 40
1.75
  0
LINE
  5
1BC
102
{ACAD_REACTORS
330
3B0
102
}
330
1F
100
AcDbEntity
  8
LC-009-207-----0
 62
     7
370
    50
100
AcDbLine
 10
814.391259
 20
292.174596
 30
0.0
 11
897.316275
 21
292.174596
 31
0.0
  0
LINE
  5
1BD
102
{ACAD_REACTORS
330
3B0
102
}
330
1F
100
AcDbEntity
  8
LC-009-207-----0
 62
     7
370
    50
100
AcDbLine
 10
813.409322
 20
339.924596
 30
0.0
 11
900.816275
 21
339.924596
 31
0.0
  0
LINE
  5
1BE
102
{ACAD_REACTORS
330
3B0
102
}
330
1F
100
AcDbEntity
  8
LC-009-207-----0
 62
     7
370
    50
100
AcDbLine
 10
813.409322
 20
294.424596
 30
0.0
 11
900.816275
 21
294.424596
 31
0.0
  0
INSERT
  5
1EE
102
{ACAD_REACTORS
330
3B0
102
}
330
1F
100
AcDbEntity
  8
LC-005-005-----0
 62
     7
370
    25
100
AcDbBlockReference
  2
*X68
 10
0.0
 20
0.0
 30
0.0
  0
INSERT
  5
219
102
{ACAD_REACTORS
330
3B0
102
}
330
1F
100
AcDbEntity
  8
LC-005-005-----0
 62
     7
370
    25
100
AcDbBlockReference
  2
*X79
 10
0.0
 20
0.0
 30
0.0
  0
LINE
  5
21A
102
{ACAD_REACTORS
330
3B0
102
}
330
1F
100
AcDbEntity
  8
LC-001-002-----0
  6
ByBlock
 62
     7
370
    50
100
AcDbLine
 10
785.816275
 20
346.944267
 30
0.0
 11
785.816275
 21
349.174596
 31
0.0
  0
LINE
  5
21B
102
{ACAD_REACTORS
330
3B0
102
}
330
1F
100
AcDbEntity
  8
LC-001-002-----0
  6
ByBlock
 62
     7
370
    50
100
AcDbLine
 10
785.816275
 20
349.174596
 30
0.0
 11
794.316275
 21
349.174596
 31
0.0
  0
LINE
  5
21C
102
{ACAD_REACTORS
330
3B0
102
}
330
1F
100
AcDbEntity
  8
LC-001-002-----0
  6
ByBlock
 62
     7
370
    50
100
AcDbLine
 10
785.816275
 20
285.174596
 30
0.0
 11
794.416275
 21
285.174596
 31
0.0
  0
ARC
  5
21D
102
{ACAD_REACTORS
330
3B0
102
}
330
1F
100
AcDbEntity
  8
LC-001-002-----0
  6
ByBlock
 62
     7
370
    50
100
AcDbCircle
 10
794.416275
 20
317.174596
 30
0.0
 40
32.00000000000082
100
AcDbArc
 50
51.375167
 51
90.17905
  0
ARC
  5
21E
102
{ACAD_REACTORS
330
3B0
102
}
330
1F
100
AcDbEntity
  8
LC-001-002-----0
  6
ByBlock
 62
     7
370
    50
100
AcDbCircle
 10
794.416275
 20
317.174596
 30
0.0
 40
32.00000000000125
100
AcDbArc
 50
270.0
 51
308.624833
  0
INSERT
  5
22B
330
1F
100
AcDbEntity
  8
LC-005-005-----0
 62
     7
370
    25
100
AcDbBlockReference
  2
*X810
 10
0.0
 20
0.0
 30
0.0
  0
ARC
  5
22C
102
{ACAD_REACTORS
330
3B0
102
}
330
1F
100
AcDbEntity
  8
LC-009-207-----0
 62
     7
370
    50
100
AcDbCircle
 10
794.316719
 20
317.174596
 30
0.0
 40
29.70000000000012
100
AcDbArc
 50
49.995438
 51
69.721682
  0
ARC
  5
22D
102
{ACAD_REACTORS
330
3B0
102
}
330
1F
100
AcDbEntity
  8
LC-009-207-----0
 62
     7
370
    50
100
AcDbCircle
 10
794.316719
 20
317.174596
 30
0.0
 40
29.7000000000001
100
AcDbArc
 50
255.858695
 51
310.004562
  0
ARC
  5
22E
330
1F
100
AcDbEntity
  8
LC-004-002-RND-0
 62
     7
370
    50
100
AcDbCircle
 10
784.316797
 20
348.155831
 30
0.0
 40
1.0
100
AcDbArc
 50
270.0
 51
0.0
  0
ARC
  5
22F
102
{ACAD_REACTORS
330
3AF
102
}
330
1F
100
AcDbEntity
  8
LC-004-002-RND-0
 62
     7
370
    50
100
AcDbCircle
 10
635.315753
 20
348.155831
 30
0.0
 40
1.0
100
AcDbArc
 50
180.0
 51
270.0
  0
DIMENSION
  5
230
330
1F
100
AcDbEntity
  8
LC-007-003-----0
 62
     7
370
    25
100
AcDbDimension
  2
*D11
 10
864.0
 20
302.976916
 30
0.0
 11
833.2
 21
362.206
 31
0.0
 70
   160
 71
     5
 42
30.00121
 53
90.0
  3
LC-DIM-L-0140-02-02
100
AcDbAlignedDimension
 13
745.816275
 23
332.978126
 33
0.0
 14
730.816275
 24
302.976916
 34
0.0
 50
90.0
100
AcDbRotatedDimension
  0
LINE
  5
23E
330
1F
100
AcDbEntity
  8
LC-001-002-----0
  6
ByBlock
 62
     7
370
    50
100
AcDbLine
 10
783.105036
 20
362.656521
 30
0.0
 11
784.527686
 21
362.656521
 31
0.0
  0
ELLIPSE
  5
23F
330
1F
100
AcDbEntity
  8
LC-001-002-----0
  6
ByBlock
 62
     7
370
    50
100
AcDbEllipse
 10
761.816275
 20
317.174596
 30
0.0
 11
0.0
 21
-21.99999999940991
 31
0.0
210
0.0
220
0.0
230
1.0
 40
0.22196
 41
6.283092605574772
 42
9.424777960769379
  0
LINE
  5
240
330
1F
100
AcDbEntity
  8
LC-001-002-----0
  6
ByBlock
 62
     7
370
    50
100
AcDbLine
 10
824.816275
 20
365.63172
 30
0.0
 11
824.816275
 21
367.112863
 31
0.0
  0
LINE
  5
241
330
1F
100
AcDbEntity
  8
LC-001-002-----0
  6
ByBlock
 62
     7
370
    50
100
AcDbLine
 10
596.816275
 20
369.112863
 30
0.0
 11
822.750022
 21
369.112863
 31
0.0
  0
LINE
  5
242
330
1F
100
AcDbEntity
  8
LC-001-002-----0
  6
ByBlock
 62
     7
370
    50
100
AcDbLine
 10
594.816275
 20
365.63172
 30
0.0
 11
594.816275
 21
367.112863
 31
0.0
  0
ARC
  5
243
102
{ACAD_REACTORS
330
3AB
102
}
330
1F
100
AcDbEntity
  8
LC-004-002-RND-0
 62
     7
370
    50
100
AcDbCircle
 10
596.816275
 20
367.112863
 30
0.0
 40
1.999999999999994
100
AcDbArc
 50
88.101636
 51
180.0
  0
LINE
  5
244
102
{ACAD_REACTORS
330
3AC
102
}
330
1F
100
AcDbEntity
  8
LC-005-005-----0
 62
     7
370
    25
100
AcDbLine
 10
667.92495
 20
342.655831
 30
0.0
 11
669.316275
 21
344.047156
 31
0.0
  0
LINE
  5
245
102
{ACAD_REACTORS
330
3AC
102
}
330
1F
100
AcDbEntity
  8
LC-005-005-----0
 62
     7
370
    25
100
AcDbLine
 10
667.316275
 20
344.875583
 30
0.0
 11
669.316275
 21
346.875583
 31
0.0
  0
LINE
  5
246
102
{ACAD_REACTORS
330
3AC
102
}
330
1F
100
AcDbEntity
  8
LC-005-005-----0
 62
     7
370
    25
100
AcDbLine
 10
657.186861
 20
337.574596
 30
0.0
 11
657.816275
 21
338.20401
 31
0.0
  0
LINE
  5
247
102
{ACAD_REACTORS
330
3AC
102
}
330
1F
100
AcDbEntity
  8
LC-005-005-----0
 62
     7
370
    25
100
AcDbLine
 10
667.316275
 20
347.70401
 30
0.0
 11
669.316275
 21
349.70401
 31
0.0
  0
LINE
  5
248
102
{ACAD_REACTORS
330
3AC
102
}
330
1F
100
AcDbEntity
  8
LC-005-005-----0
 62
     7
370
    25
100
AcDbLine
 10
654.816275
 20
338.032437
 30
0.0
 11
657.816275
 21
341.032437
 31
0.0
  0
LINE
  5
249
102
{ACAD_REACTORS
330
3AC
102
}
330
1F
100
AcDbEntity
  8
LC-005-005-----0
 62
     7
370
    25
100
AcDbLine
 10
666.439669
 20
349.655831
 30
0.0
 11
668.278863
 21
351.495025
 31
0.0
  0
LINE
  5
24A
102
{ACAD_REACTORS
330
3AC
102
}
330
1F
100
AcDbEntity
  8
LC-005-005-----0
 62
     7
370
    25
100
AcDbLine
 10
654.816275
 20
340.860864
 30
0.0
 11
657.816275
 21
343.860864
 31
0.0
  0
LINE
  5
24B
102
{ACAD_REACTORS
330
3AC
102
}
330
1F
100
AcDbEntity
  8
LC-005-005-----0
 62
     7
370
    25
100
AcDbLine
 10
663.611242
 20
349.655831
 30
0.0
 11
665.498959
 21
351.543548
 31
0.0
  0
LINE
  5
24C
102
{ACAD_REACTORS
330
3AC
102
}
330
1F
100
AcDbEntity
  8
LC-005-005-----0
 62
     7
370
    25
100
AcDbLine
 10
654.816275
 20
343.689291
 30
0.0
 11
657.816275
 21
346.689291
 31
0.0
  0
LINE
  5
24D
102
{ACAD_REACTORS
330
3AC
102
}
330
1F
100
AcDbEntity
  8
LC-005-005-----0
 62
     7
370
    25
100
AcDbLine
 10
660.782815
 20
349.655831
 30
0.0
 11
662.719055
 21
351.592071
 31
0.0
  0
LINE
  5
24E
102
{ACAD_REACTORS
330
3AC
102
}
330
1F
100
AcDbEntity
  8
LC-005-005-----0
 62
     7
370
    25
100
AcDbLine
 10
654.232521
 20
345.933964
 30
0.0
 11
657.816275
 21
349.517718
 31
0.0
  0
LINE
  5
24F
102
{ACAD_REACTORS
330
3AC
102
}
330
1F
100
AcDbEntity
  8
LC-005-005-----0
 62
     7
370
    25
100
AcDbLine
 10
657.954387
 20
349.655831
 30
0.0
 11
659.939151
 21
351.640595
 31
0.0
  0
LINE
  5
250
102
{ACAD_REACTORS
330
3AC
102
}
330
1F
100
AcDbEntity
  8
LC-005-005-----0
 62
     7
370
    25
100
AcDbLine
 10
652.537881
 20
347.067752
 30
0.0
 11
657.12596
 21
351.655831
 31
0.0
  0
LINE
  5
251
102
{ACAD_REACTORS
330
3AC
102
}
330
1F
100
AcDbEntity
  8
LC-005-005-----0
 62
     7
370
    25
100
AcDbLine
 10
649.797533
 20
347.155831
 30
0.0
 11
654.297533
 21
351.655831
 31
0.0
  0
LINE
  5
252
102
{ACAD_REACTORS
330
3AC
102
}
330
1F
100
AcDbEntity
  8
LC-005-005-----0
 62
     7
370
    25
100
AcDbLine
 10
646.969106
 20
347.155831
 30
0.0
 11
651.469106
 21
351.655831
 31
0.0
  0
LINE
  5
253
102
{ACAD_REACTORS
330
3AC
102
}
330
1F
100
AcDbEntity
  8
LC-005-005-----0
 62
     7
370
    25
100
AcDbLine
 10
644.140679
 20
347.155831
 30
0.0
 11
649.816249
 21
352.831401
 31
0.0
  0
LINE
  5
254
102
{ACAD_REACTORS
330
3AC
102
}
330
1F
100
AcDbEntity
  8
LC-005-005-----0
 62
     7
370
    25
100
AcDbLine
 10
641.312252
 20
347.155831
 30
0.0
 11
649.816249
 21
355.659828
 31
0.0
  0
LINE
  5
255
102
{ACAD_REACTORS
330
3AC
102
}
330
1F
100
AcDbEntity
  8
LC-005-005-----0
 62
     7
370
    25
100
AcDbLine
 10
638.483825
 20
347.155831
 30
0.0
 11
640.483825
 21
349.155831
 31
0.0
  0
LINE
  5
256
102
{ACAD_REACTORS
330
3AC
102
}
330
1F
100
AcDbEntity
  8
LC-005-005-----0
 62
     7
370
    25
100
AcDbLine
 10
642.315785
 20
350.987792
 30
0.0
 11
649.816249
 21
358.488255
 31
0.0
  0
LINE
  5
257
102
{ACAD_REACTORS
330
3AC
102
}
330
1F
100
AcDbEntity
  8
LC-005-005-----0
 62
     7
370
    25
100
AcDbLine
 10
635.655398
 20
347.155831
 30
0.0
 11
637.655398
 21
349.155831
 31
0.0
  0
LINE
  5
258
102
{ACAD_REACTORS
330
3AC
102
}
330
1F
100
AcDbEntity
  8
LC-005-005-----0
 62
     7
370
    25
100
AcDbLine
 10
642.315785
 20
353.816219
 30
0.0
 11
649.816249
 21
361.316682
 31
0.0
  0
LINE
  5
259
330
1F
100
AcDbEntity
  8
LC-001-002-----0
  6
ByBlock
 62
     7
370
    50
100
AcDbLine
 10
737.866798
 20
364.155831
 30
0.0
 11
737.866798
 21
367.155831
 31
0.0
  0
LINE
  5
25A
102
{ACAD_REACTORS
330
3AC
102
}
330
1F
100
AcDbEntity
  8
LC-005-005-----0
 62
     7
370
    25
100
AcDbLine
 10
634.315753
 20
348.644614
 30
0.0
 11
637.315785
 21
351.644646
 31
0.0
  0
LINE
  5
25B
102
{ACAD_REACTORS
330
3AC
102
}
330
1F
100
AcDbEntity
  8
LC-005-005-----0
 62
     7
370
    25
100
AcDbLine
 10
642.315785
 20
356.644646
 30
0.0
 11
649.816249
 21
364.145109
 31
0.0
  0
LINE
  5
25C
102
{ACAD_REACTORS
330
3AC
102
}
330
1F
100
AcDbEntity
  8
LC-005-005-----0
 62
     7
370
    25
100
AcDbLine
 10
634.315753
 20
351.473041
 30
0.0
 11
637.315785
 21
354.473073
 31
0.0
  0
LINE
  5
25D
102
{ACAD_REACTORS
330
3AC
102
}
330
1F
100
AcDbEntity
  8
LC-005-005-----0
 62
     7
370
    25
100
AcDbLine
 10
642.315785
 20
359.473073
 30
0.0
 11
645.499234
 21
362.656521
 31
0.0
  0
LINE
  5
25E
102
{ACAD_REACTORS
330
3AC
102
}
330
1F
100
AcDbEntity
  8
LC-005-005-----0
 62
     7
370
    25
100
AcDbLine
 10
645.816275
 20
362.973562
 30
0.0
 11
648.816249
 21
365.973536
 31
0.0
  0
ARC
  5
25F
102
{ACAD_REACTORS
330
3AF
102
}
330
1F
100
AcDbEntity
  8
LC-004-002-RND-0
 62
     7
370
    50
100
AcDbCircle
 10
651.816275
 20
344.155831
 30
0.0
 40
3.0
100
AcDbArc
 50
360.0
 51
90.0
  0
LINE
  5
260
102
{ACAD_REACTORS
330
3AF
102
}
330
1F
100
AcDbEntity
  8
LC-001-002-----0
  6
ByBlock
 62
     7
370
    50
100
AcDbLine
 10
657.816275
 20
348.324596
 30
0.0
 11
657.816275
 21
346.716871
 31
0.0
  0
LINE
  5
261
102
{ACAD_REACTORS
330
3AF
102
}
330
1F
100
AcDbEntity
  8
LC-001-002-----0
  6
ByBlock
 62
     7
370
    50
100
AcDbLine
 10
654.816275
 20
344.155831
 30
0.0
 11
654.816275
 21
295.224596
 31
0.0
  0
LINE
  5
262
102
{ACAD_REACTORS
330
3AC
102
}
330
1F
100
AcDbEntity
  8
LC-005-005-----0
 62
     7
370
    25
100
AcDbLine
 10
634.315753
 20
354.301468
 30
0.0
 11
637.315785
 21
357.3015
 31
0.0
  0
ARC
  5
263
102
{ACAD_REACTORS
330
3AF
102
}
330
1F
100
AcDbEntity
  8
LC-003-205-----0
 62
     7
370
    50
100
AcDbCircle
 10
805.165582
 20
344.449287
 30
0.0
 40
0.2500000000000429
100
AcDbArc
 50
68.305797
 51
180.0
  0
LINE
  5
264
102
{ACAD_REACTORS
330
3AC
102
}
330
1F
100
AcDbEntity
  8
LC-005-005-----0
 62
     7
370
    25
100
AcDbLine
 10
642.315785
 20
362.3015
 30
0.0
 11
642.670807
 21
362.656521
 31
0.0
  0
LINE
  5
265
102
{ACAD_REACTORS
330
3AF
102
}
330
1F
100
AcDbEntity
  8
LC-001-002-----0
  6
ByBlock
 62
     7
370
    50
100
AcDbLine
 10
658.316275
 20
287.1861
 30
0.0
 11
761.316275
 21
287.1861
 31
0.0
  0
LINE
  5
266
102
{ACAD_REACTORS
330
3AC
102
}
330
1F
100
AcDbEntity
  8
LC-005-005-----0
 62
     7
370
    25
100
AcDbLine
 10
646.816249
 20
366.801963
 30
0.0
 11
647.170116
 21
367.155831
 31
0.0
  0
LINE
  5
267
102
{ACAD_REACTORS
330
3AC
102
}
330
1F
100
AcDbEntity
  8
LC-005-005-----0
 62
     7
370
    25
100
AcDbLine
 10
633.745384
 20
356.559526
 30
0.0
 11
637.315785
 21
360.129927
 31
0.0
  0
ARC
  5
268
102
{ACAD_REACTORS
330
3AF
102
}
330
1F
100
AcDbEntity
  8
LC-001-002-----0
  6
ByBlock
 62
     7
370
    50
100
AcDbCircle
 10
794.316719
 20
317.174596
 30
0.0
 40
29.60339290378799
100
AcDbArc
 50
78.506497
 51
121.348957
  0
LINE
  5
269
102
{ACAD_REACTORS
330
3AC
102
}
330
1F
100
AcDbEntity
  8
LC-005-005-----0
 62
     7
370
    25
100
AcDbLine
 10
631.013952
 20
356.656521
 30
0.0
 11
633.513952
 21
359.156521
 31
0.0
  0
LINE
  5
26A
102
{ACAD_REACTORS
330
3AC
102
}
330
1F
100
AcDbEntity
  8
LC-005-005-----0
 62
     7
370
    25
100
AcDbLine
 10
633.816275
 20
359.458844
 30
0.0
 11
637.013952
 21
362.656521
 31
0.0
  0
LINE
  5
26B
102
{ACAD_REACTORS
330
3AF
102
}
330
1F
100
AcDbEntity
  8
LC-001-002-----0
  6
ByBlock
 62
     7
370
    50
100
AcDbLine
 10
776.415582
 20
289.863091
 30
0.0
 11
778.915582
 21
289.863091
 31
0.0
  0
LINE
  5
26C
102
{ACAD_REACTORS
330
3AF
102
}
330
1F
100
AcDbEntity
  8
LC-001-002-----0
  6
ByBlock
 62
     7
370
    50
100
AcDbLine
 10
776.415582
 20
292.174596
 30
0.0
 11
776.415582
 21
289.863091
 31
0.0
  0
LINE
  5
26D
330
1F
100
AcDbEntity
  8
LC-001-002-----0
  6
ByBlock
 62
     7
370
    50
100
AcDbLine
 10
737.866798
 20
367.155831
 30
0.0
 11
742.816288
 21
367.155831
 31
0.0
  0
LINE
  5
26E
102
{ACAD_REACTORS
330
3AC
102
}
330
1F
100
AcDbEntity
  8
LC-005-005-----0
 62
     7
370
    25
100
AcDbLine
 10
628.185525
 20
356.656521
 30
0.0
 11
630.685525
 21
359.156521
 31
0.0
  0
LINE
  5
26F
330
1F
100
AcDbEntity
  8
LC-001-002-----0
  6
ByBlock
 62
     7
370
    50
100
AcDbLine
 10
784.816361
 20
363.156521
 30
0.0
 11
783.81685
 21
363.156521
 31
0.0
  0
LINE
  5
270
330
1F
100
AcDbEntity
  8
LC-001-002-----0
  6
ByBlock
 62
     7
370
    50
100
AcDbLine
 10
774.816361
 20
363.156521
 30
0.0
 11
782.816361
 21
363.156521
 31
0.0
  0
LINE
  5
271
330
1F
100
AcDbEntity
  8
LC-001-002-----0
  6
ByBlock
 62
     7
370
    50
100
AcDbLine
 10
774.816361
 20
363.156521
 30
0.0
 11
773.816361
 21
363.156521
 31
0.0
  0
LINE
  5
272
330
1F
100
AcDbEntity
  8
LC-001-002-----0
  6
ByBlock
 62
     7
370
    50
100
AcDbLine
 10
792.816883
 20
362.656521
 30
0.0
 11
785.816361
 21
362.656521
 31
0.0
  0
LINE
  5
273
330
1F
100
AcDbEntity
  8
LC-001-002-----0
  6
ByBlock
 62
     7
370
    50
100
AcDbLine
 10
773.816361
 20
364.156521
 30
0.0
 11
773.816361
 21
362.656521
 31
0.0
  0
LINE
  5
274
330
1F
100
AcDbEntity
  8
LC-001-002-----0
  6
ByBlock
 62
     7
370
    50
100
AcDbLine
 10
785.816361
 20
362.656521
 30
0.0
 11
785.816361
 21
359.156521
 31
0.0
  0
LINE
  5
275
330
1F
100
AcDbEntity
  8
LC-001-002-----0
  6
ByBlock
 62
     7
370
    50
100
AcDbLine
 10
773.816361
 20
362.656521
 30
0.0
 11
774.527686
 21
362.656521
 31
0.0
  0
LINE
  5
276
330
1F
100
AcDbEntity
  8
LC-001-002-----0
  6
ByBlock
 62
     7
370
    50
100
AcDbLine
 10
785.816883
 20
359.156521
 30
0.0
 11
792.816883
 21
359.156521
 31
0.0
  0
LINE
  5
277
330
1F
100
AcDbEntity
  8
LC-001-002-----0
  6
ByBlock
 62
     7
370
    50
100
AcDbLine
 10
792.816883
 20
359.156521
 30
0.0
 11
792.816883
 21
362.656521
 31
0.0
  0
LINE
  5
278
330
1F
100
AcDbEntity
  8
LC-001-002-----0
  6
ByBlock
 62
     7
370
    50
100
AcDbLine
 10
786.316797
 20
356.656521
 30
0.0
 11
792.816883
 21
356.656521
 31
0.0
  0
LINE
  5
279
330
1F
100
AcDbEntity
  8
LC-001-002-----0
  6
ByBlock
 62
     7
370
    50
100
AcDbLine
 10
792.816883
 20
356.656521
 30
0.0
 11
795.265548
 21
359.105186
 31
0.0
  0
LINE
  5
27A
330
1F
100
AcDbEntity
  8
LC-001-002-----0
  6
ByBlock
 62
     7
370
    50
100
AcDbLine
 10
774.527686
 20
362.656521
 30
0.0
 11
774.816361
 21
363.156521
 31
0.0
  0
LINE
  5
27B
330
1F
100
AcDbEntity
  8
LC-001-002-----0
  6
ByBlock
 62
     7
370
    50
100
AcDbLine
 10
774.816361
 20
363.156521
 30
0.0
 11
775.105036
 21
362.656521
 31
0.0
  0
LINE
  5
27C
330
1F
100
AcDbEntity
  8
LC-001-002-----0
  6
ByBlock
 62
     7
370
    50
100
AcDbLine
 10
775.105036
 20
362.656521
 30
0.0
 11
776.527686
 21
362.656521
 31
0.0
  0
LINE
  5
27D
330
1F
100
AcDbEntity
  8
LC-001-002-----0
  6
ByBlock
 62
     7
370
    50
100
AcDbLine
 10
784.816361
 20
363.156521
 30
0.0
 11
785.105036
 21
362.656521
 31
0.0
  0
LINE
  5
27E
330
1F
100
AcDbEntity
  8
LC-001-002-----0
  6
ByBlock
 62
     7
370
    50
100
AcDbLine
 10
784.527686
 20
362.656521
 30
0.0
 11
784.816361
 21
363.156521
 31
0.0
  0
LINE
  5
27F
330
1F
100
AcDbEntity
  8
LC-001-002-----0
  6
ByBlock
 62
     7
370
    50
100
AcDbLine
 10
785.105036
 20
362.656521
 30
0.0
 11
785.816361
 21
362.656521
 31
0.0
  0
LINE
  5
280
330
1F
100
AcDbEntity
  8
LC-001-002-----0
  6
ByBlock
 62
     7
370
    50
100
AcDbLine
 10
782.31685
 20
349.155831
 30
0.0
 11
777.31685
 21
349.155831
 31
0.0
  0
LINE
  5
281
102
{ACAD_REACTORS
330
3AC
102
}
330
1F
100
AcDbEntity
  8
LC-005-005-----0
 62
     7
370
    25
100
AcDbLine
 10
633.816275
 20
362.287271
 30
0.0
 11
634.185525
 21
362.656521
 31
0.0
  0
LINE
  5
282
330
1F
100
AcDbEntity
  8
LC-001-002-----0
  6
ByBlock
 62
     7
370
    50
100
AcDbLine
 10
782.31685
 20
362.656521
 30
0.0
 11
782.31685
 21
349.155831
 31
0.0
  0
LINE
  5
283
330
1F
100
AcDbEntity
  8
LC-001-002-----0
  6
ByBlock
 62
     7
370
    50
100
AcDbLine
 10
773.816361
 20
364.156521
 30
0.0
 11
769.816473
 21
364.156521
 31
0.0
  0
LINE
  5
284
330
1F
100
AcDbEntity
  8
LC-001-002-----0
  6
ByBlock
 62
     7
370
    50
100
AcDbLine
 10
792.816883
 20
362.656521
 30
0.0
 11
794.816361
 21
362.656521
 31
0.0
  0
LINE
  5
285
102
{ACAD_REACTORS
330
3AC
102
}
330
1F
100
AcDbEntity
  8
LC-005-005-----0
 62
     7
370
    25
100
AcDbLine
 10
626.086426
 20
357.385849
 30
0.0
 11
627.857098
 21
359.156521
 31
0.0
  0
LINE
  5
286
102
{ACAD_REACTORS
330
3AC
102
}
330
1F
100
AcDbEntity
  8
LC-005-005-----0
 62
     7
370
    25
100
AcDbLine
 10
624.672212
 20
358.800062
 30
0.0
 11
626.815753
 21
360.943603
 31
0.0
  0
LINE
  5
287
102
{ACAD_REACTORS
330
3AC
102
}
330
1F
100
AcDbEntity
  8
LC-005-005-----0
 62
     7
370
    25
100
AcDbLine
 10
622.668354
 20
359.624631
 30
0.0
 11
625.700244
 21
362.656521
 31
0.0
  0
LINE
  5
288
102
{ACAD_REACTORS
330
3AC
102
}
330
1F
100
AcDbEntity
  8
LC-005-005-----0
 62
     7
370
    25
100
AcDbLine
 10
620.502304
 20
360.287008
 30
0.0
 11
623.327102
 21
363.111807
 31
0.0
  0
LINE
  5
289
330
1F
100
AcDbEntity
  8
LC-001-002-----0
  6
ByBlock
 62
     7
370
    50
100
AcDbLine
 10
648.816249
 20
367.155831
 30
0.0
 11
646.816249
 21
367.155831
 31
0.0
  0
LINE
  5
28A
330
1F
100
AcDbEntity
  8
LC-001-002-----0
  6
ByBlock
 62
     7
370
    50
100
AcDbLine
 10
626.815753
 20
362.656521
 30
0.0
 11
633.891891
 21
362.656521
 31
0.0
  0
LINE
  5
28B
330
1F
100
AcDbEntity
  8
LC-001-002-----0
  6
ByBlock
 62
     7
370
    50
100
AcDbLine
 10
645.816275
 20
364.155831
 30
0.0
 11
645.816275
 21
362.656521
 31
0.0
  0
LINE
  5
28C
330
1F
100
AcDbEntity
  8
LC-001-002-----0
  6
ByBlock
 62
     7
370
    50
100
AcDbLine
 10
646.816249
 20
364.155371
 30
0.0
 11
646.816249
 21
367.155831
 31
0.0
  0
LINE
  5
28D
330
1F
100
AcDbEntity
  8
LC-001-002-----0
  6
ByBlock
 62
     7
370
    50
100
AcDbLine
 10
645.816275
 20
364.155831
 30
0.0
 11
646.816249
 21
364.155371
 31
0.0
  0
LINE
  5
28E
330
1F
100
AcDbEntity
  8
LC-001-002-----0
  6
ByBlock
 62
     7
370
    50
100
AcDbLine
 10
633.816275
 20
362.656521
 30
0.0
 11
633.816275
 21
359.156521
 31
0.0
  0
LINE
  5
28F
330
1F
100
AcDbEntity
  8
LC-001-002-----0
  6
ByBlock
 62
     7
370
    50
100
AcDbLine
 10
645.816275
 20
362.656521
 30
0.0
 11
645.10495
 21
362.656521
 31
0.0
  0
LINE
  5
290
330
1F
100
AcDbEntity
  8
LC-001-002-----0
  6
ByBlock
 62
     7
370
    50
100
AcDbLine
 10
633.815753
 20
359.156521
 30
0.0
 11
626.815753
 21
359.156521
 31
0.0
  0
LINE
  5
291
330
1F
100
AcDbEntity
  8
LC-001-002-----0
  6
ByBlock
 62
     7
370
    50
100
AcDbLine
 10
626.815753
 20
359.156521
 30
0.0
 11
626.815753
 21
362.656521
 31
0.0
  0
LINE
  5
292
330
1F
100
AcDbEntity
  8
LC-001-002-----0
  6
ByBlock
 62
     7
370
    50
100
AcDbLine
 10
633.315753
 20
356.656521
 30
0.0
 11
626.815753
 21
356.656521
 31
0.0
  0
LINE
  5
293
330
1F
100
AcDbEntity
  8
LC-001-002-----0
  6
ByBlock
 62
     7
370
    50
100
AcDbLine
 10
626.815753
 20
356.656521
 30
0.0
 11
624.367126
 21
359.105148
 31
0.0
  0
LINE
  5
294
330
1F
100
AcDbEntity
  8
LC-001-002-----0
  6
ByBlock
 62
     7
370
    50
100
AcDbLine
 10
645.10495
 20
362.656521
 30
0.0
 11
644.816275
 21
363.156521
 31
0.0
  0
LINE
  5
295
330
1F
100
AcDbEntity
  8
LC-001-002-----0
  6
ByBlock
 62
     7
370
    50
100
AcDbLine
 10
644.816275
 20
363.156521
 30
0.0
 11
644.5276
 21
362.656521
 31
0.0
  0
LINE
  5
296
330
1F
100
AcDbEntity
  8
LC-001-002-----0
  6
ByBlock
 62
     7
370
    50
100
AcDbLine
 10
644.5276
 20
362.656521
 30
0.0
 11
643.815785
 21
362.656521
 31
0.0
  0
LINE
  5
297
330
1F
100
AcDbEntity
  8
LC-001-002-----0
  6
ByBlock
 62
     7
370
    50
100
AcDbLine
 10
634.816275
 20
363.156521
 30
0.0
 11
634.5276
 21
362.656521
 31
0.0
  0
LINE
  5
298
330
1F
100
AcDbEntity
  8
LC-001-002-----0
  6
ByBlock
 62
     7
370
    50
100
AcDbLine
 10
635.10495
 20
362.656521
 30
0.0
 11
634.816275
 21
363.156521
 31
0.0
  0
LINE
  5
299
330
1F
100
AcDbEntity
  8
LC-001-002-----0
  6
ByBlock
 62
     7
370
    50
100
AcDbLine
 10
643.81225
 20
362.656521
 30
0.0
 11
643.104864
 21
362.656521
 31
0.0
  0
LINE
  5
29A
330
1F
100
AcDbEntity
  8
LC-001-002-----0
  6
ByBlock
 62
     7
370
    50
100
AcDbLine
 10
634.5276
 20
362.656521
 30
0.0
 11
633.816275
 21
362.656521
 31
0.0
  0
LINE
  5
29B
330
1F
100
AcDbEntity
  8
LC-001-002-----0
  6
ByBlock
 62
     7
370
    50
100
AcDbLine
 10
626.815753
 20
362.656521
 30
0.0
 11
624.816275
 21
362.656521
 31
0.0
  0
LINE
  5
29C
330
1F
100
AcDbEntity
  8
LC-001-002-----0
  6
ByBlock
 62
     7
370
    50
100
AcDbLine
 10
648.816249
 20
364.155831
 30
0.0
 11
648.816249
 21
367.155831
 31
0.0
  0
LINE
  5
29D
330
1F
100
AcDbEntity
  8
LC-001-002-----0
  6
ByBlock
 62
     7
370
    50
100
AcDbLine
 10
642.315785
 20
362.656521
 30
0.0
 11
642.315785
 21
349.155831
 31
0.0
  0
LINE
  5
29E
330
1F
100
AcDbEntity
  8
LC-001-002-----0
  6
ByBlock
 62
     7
370
    50
100
AcDbLine
 10
637.315785
 20
362.656521
 30
0.0
 11
637.315785
 21
349.155831
 31
0.0
  0
LINE
  5
29F
330
1F
100
AcDbEntity
  8
LC-001-002-----0
  6
ByBlock
 62
     7
370
    50
100
AcDbLine
 10
637.315785
 20
349.155831
 30
0.0
 11
642.315785
 21
349.155831
 31
0.0
  0
LINE
  5
2A0
330
1F
100
AcDbEntity
  8
LC-001-002-----0
  6
ByBlock
 62
     7
370
    50
100
AcDbLine
 10
649.816249
 20
364.155831
 30
0.0
 11
648.816249
 21
364.155831
 31
0.0
  0
LINE
  5
2A1
102
{ACAD_REACTORS
330
3AC
102
}
330
1F
100
AcDbEntity
  8
LC-005-005-----0
 62
     7
370
    25
100
AcDbLine
 10
618.336253
 20
360.949385
 30
0.0
 11
621.160938
 21
363.77407
 31
0.0
  0
LINE
  5
2A2
102
{ACAD_REACTORS
330
3AC
102
}
330
1F
100
AcDbEntity
  8
LC-005-005-----0
 62
     7
370
    25
100
AcDbLine
 10
616.170202
 20
361.611761
 30
0.0
 11
618.994774
 21
364.436333
 31
0.0
  0
LINE
  5
2A3
330
1F
100
AcDbEntity
  8
LC-001-002-----0
  6
ByBlock
 62
     7
370
    50
100
AcDbLine
 10
742.816288
 20
367.155831
 30
0.0
 11
742.816288
 21
364.155831
 31
0.0
  0
LINE
  5
2A4
102
{ACAD_REACTORS
330
3AF
102
}
330
1F
100
AcDbEntity
  8
LC-001-002-----0
  6
ByBlock
 62
     7
370
    50
100
AcDbLine
 10
778.915582
 20
292.085334
 30
0.0
 11
778.915582
 21
289.863091
 31
0.0
  0
ARC
  5
2A5
102
{ACAD_REACTORS
330
3AF
102
}
330
1F
100
AcDbEntity
  8
LC-003-205-----0
 62
     7
370
    50
100
AcDbCircle
 10
804.415582
 20
342.674596
 30
0.0
 40
0.5000000000002274
100
AcDbArc
 50
270.0
 51
0.0
  0
ARC
  5
2A6
102
{ACAD_REACTORS
330
3AF
102
}
330
1F
100
AcDbEntity
  8
LC-001-002-----0
  6
ByBlock
 62
     7
370
    50
100
AcDbCircle
 10
794.316719
 20
317.174596
 30
0.0
 40
29.6025923914001
100
AcDbArc
 50
53.522709
 51
68.309138
  0
LINE
  5
2A7
102
{ACAD_REACTORS
330
3AF
102
}
330
1F
100
AcDbEntity
  8
LC-003-205-----0
 62
     7
370
    50
100
AcDbLine
 10
811.915582
 20
340.97782
 30
0.0
 11
811.915582
 21
339.174596
 31
0.0
  0
LINE
  5
2A8
102
{ACAD_REACTORS
330
3AC
102
}
330
1F
100
AcDbEntity
  8
LC-005-005-----0
 62
     7
370
    25
100
AcDbLine
 10
614.004152
 20
362.274138
 30
0.0
 11
616.82861
 21
365.098596
 31
0.0
  0
LINE
  5
2A9
102
{ACAD_REACTORS
330
3AF
102
}
330
1F
100
AcDbEntity
  8
LC-001-002-----0
  6
ByBlock
 62
     7
370
    50
100
AcDbLine
 10
761.316275
 20
290.1861
 30
0.0
 11
658.316275
 21
290.1861
 31
0.0
  0
LINE
  5
2AA
102
{ACAD_REACTORS
330
3AF
102
}
330
1F
100
AcDbEntity
  8
LC-003-205-----0
 62
     7
370
    50
100
AcDbLine
 10
811.915582
 20
295.174596
 30
0.0
 11
811.915582
 21
293.563091
 31
0.0
  0
LINE
  5
2AB
102
{ACAD_REACTORS
330
3AF
102
}
330
1F
100
AcDbEntity
  8
LC-003-205-----0
 62
     7
370
    50
100
AcDbLine
 10
800.915582
 20
292.363091
 30
0.0
 11
804.415582
 21
292.363091
 31
0.0
  0
ARC
  5
2AC
102
{ACAD_REACTORS
330
3AF
102
}
330
1F
100
AcDbEntity
  8
LC-003-205-----0
 62
     7
370
    50
100
AcDbCircle
 10
804.415582
 20
291.863091
 30
0.0
 40
0.5
100
AcDbArc
 50
0.0
 51
90.0
  0
LINE
  5
2AD
102
{ACAD_REACTORS
330
3AF
102
}
330
1F
100
AcDbEntity
  8
LC-003-205-----0
 62
     7
370
    50
100
AcDbLine
 10
804.915582
 20
291.863091
 30
0.0
 11
804.915582
 21
290.165577
 31
0.0
  0
LINE
  5
2AE
102
{ACAD_REACTORS
330
3AC
102
}
330
1F
100
AcDbEntity
  8
LC-005-005-----0
 62
     7
370
    25
100
AcDbLine
 10
611.838101
 20
362.936514
 30
0.0
 11
614.662445
 21
365.760858
 31
0.0
  0
ARC
  5
2AF
102
{ACAD_REACTORS
330
3AF
102
}
330
1F
100
AcDbEntity
  8
LC-003-205-----0
 62
     7
370
    50
100
AcDbCircle
 10
805.215582
 20
290.165577
 30
0.0
 40
0.2999999999997272
100
AcDbArc
 50
180.0
 51
291.837464
  0
ARC
  5
2B0
102
{ACAD_REACTORS
330
3AF
102
}
330
1F
100
AcDbEntity
  8
LC-003-205-----0
 62
     7
370
    50
100
AcDbCircle
 10
794.316719
 20
317.363091
 30
0.0
 40
29.60000000000002
100
AcDbArc
 50
291.837464
 51
306.481001
  0
LINE
  5
2B1
102
{ACAD_REACTORS
330
3AF
102
}
330
1F
100
AcDbEntity
  8
LC-001-002-----0
  6
ByBlock
 62
     7
370
    50
100
AcDbLine
 10
761.816275
 20
295.174596
 30
0.0
 11
811.915582
 21
295.174596
 31
0.0
  0
ARC
  5
2B2
102
{ACAD_REACTORS
330
3AF
102
}
330
1F
100
AcDbEntity
  8
LC-003-205-----0
 62
     7
370
    50
100
AcDbCircle
 10
800.165582
 20
345.939374
 30
0.0
 40
0.25
100
AcDbArc
 50
0.0
 51
78.504265
  0
LINE
  5
2B3
102
{ACAD_REACTORS
330
3AF
102
}
330
1F
100
AcDbEntity
  8
LC-003-205-----0
 62
     7
370
    50
100
AcDbLine
 10
800.415582
 20
345.939374
 30
0.0
 11
800.415582
 21
342.674596
 31
0.0
  0
LINE
  5
2B4
102
{ACAD_REACTORS
330
3AF
102
}
330
1F
100
AcDbEntity
  8
LC-003-205-----0
 62
     7
370
    50
100
AcDbLine
 10
804.915582
 20
344.449287
 30
0.0
 11
804.915582
 21
342.674596
 31
0.0
  0
LINE
  5
2B5
102
{ACAD_REACTORS
330
3AF
102
}
330
1F
100
AcDbEntity
  8
LC-003-205-----0
 62
     7
370
    50
100
AcDbLine
 10
800.915582
 20
342.174596
 30
0.0
 11
804.415582
 21
342.174596
 31
0.0
  0
ARC
  5
2B6
102
{ACAD_REACTORS
330
3AF
102
}
330
1F
100
AcDbEntity
  8
LC-003-205-----0
 62
     7
370
    50
100
AcDbCircle
 10
800.915582
 20
342.674596
 30
0.0
 40
0.5
100
AcDbArc
 50
180.0
 51
270.0
  0
LINE
  5
2B7
102
{ACAD_REACTORS
330
3AF
102
}
330
1F
100
AcDbEntity
  8
LC-003-205-----0
 62
     7
370
    50
100
AcDbLine
 10
800.415582
 20
291.863091
 30
0.0
 11
800.415582
 21
288.601775
 31
0.0
  0
ARC
  5
2B8
102
{ACAD_REACTORS
330
3AF
102
}
330
1F
100
AcDbEntity
  8
LC-003-205-----0
 62
     7
370
    50
100
AcDbCircle
 10
800.915582
 20
291.863091
 30
0.0
 40
0.5
100
AcDbArc
 50
90.0
 51
180.0
  0
ARC
  5
2B9
102
{ACAD_REACTORS
330
3AF
102
}
330
1F
100
AcDbEntity
  8
LC-003-205-----0
 62
     7
370
    50
100
AcDbCircle
 10
794.316719
 20
317.363091
 30
0.0
 40
29.60000000000006
100
AcDbArc
 50
238.647042
 51
281.49485
  0
ARC
  5
2BA
102
{ACAD_REACTORS
330
3AF
102
}
330
1F
100
AcDbEntity
  8
LC-003-205-----0
 62
     7
370
    50
100
AcDbCircle
 10
805.165582
 20
344.449287
 30
0.0
 40
0.2500000000000429
100
AcDbArc
 50
68.305797
 51
180.0
  0
ARC
  5
2BB
102
{ACAD_REACTORS
330
3AF
102
}
330
1F
100
AcDbEntity
  8
LC-003-205-----0
 62
     7
370
    50
100
AcDbCircle
 10
800.165582
 20
288.601775
 30
0.0
 40
0.2500000000000769
100
AcDbArc
 50
281.49485
 51
0.0
  0
LINE
  5
2BC
102
{ACAD_REACTORS
330
3AF
102
}
330
1F
100
AcDbEntity
  8
LC-003-205-----0
 62
     7
370
    50
100
AcDbLine
 10
764.816275
 20
292.174596
 30
0.0
 11
776.415582
 21
292.174596
 31
0.0
  0
LINE
  5
2BD
102
{ACAD_REACTORS
330
3AF
102
}
330
1F
100
AcDbEntity
  8
LC-001-002-----0
  6
ByBlock
 62
     7
370
    50
100
AcDbLine
 10
811.915582
 20
339.174596
 30
0.0
 11
761.816275
 21
339.174596
 31
0.0
  0
LINE
  5
2BE
102
{ACAD_REACTORS
330
3AC
102
}
330
1F
100
AcDbEntity
  8
LC-005-005-----0
 62
     7
370
    25
100
AcDbLine
 10
609.672051
 20
363.598891
 30
0.0
 11
612.496281
 21
366.423121
 31
0.0
  0
LINE
  5
2BF
102
{ACAD_REACTORS
330
3AC
102
}
330
1F
100
AcDbEntity
  8
LC-005-005-----0
 62
     7
370
    25
100
AcDbLine
 10
607.506
 20
364.261267
 30
0.0
 11
610.330117
 21
367.085384
 31
0.0
  0
LINE
  5
2C0
102
{ACAD_REACTORS
330
3AC
102
}
330
1F
100
AcDbEntity
  8
LC-005-005-----0
 62
     7
370
    25
100
AcDbLine
 10
605.33995
 20
364.923644
 30
0.0
 11
608.163953
 21
367.747647
 31
0.0
  0
LINE
  5
2C1
102
{ACAD_REACTORS
330
3AC
102
}
330
1F
100
AcDbEntity
  8
LC-005-005-----0
 62
     7
370
    25
100
AcDbLine
 10
602.91164
 20
365.323761
 30
0.0
 11
605.997788
 21
368.40991
 31
0.0
  0
LINE
  5
2C2
102
{ACAD_REACTORS
330
3AC
102
}
330
1F
100
AcDbEntity
  8
LC-005-005-----0
 62
     7
370
    25
100
AcDbLine
 10
600.186867
 20
365.427415
 30
0.0
 11
603.647009
 21
368.887558
 31
0.0
  0
LINE
  5
2C3
102
{ACAD_REACTORS
330
3AC
102
}
330
1F
100
AcDbEntity
  8
LC-005-005-----0
 62
     7
370
    25
100
AcDbLine
 10
597.462094
 20
365.531069
 30
0.0
 11
600.909322
 21
368.978298
 31
0.0
  0
LINE
  5
2C4
102
{ACAD_REACTORS
330
3AC
102
}
330
1F
100
AcDbEntity
  8
LC-005-005-----0
 62
     7
370
    25
100
AcDbLine
 10
594.73732
 20
365.634723
 30
0.0
 11
598.171635
 21
369.069038
 31
0.0
  0
LINE
  5
2C5
102
{ACAD_REACTORS
330
3AE
102
}
330
1F
100
AcDbEntity
  8
LC-005-005-----0
 62
     7
370
    25
100
AcDbLine
 10
811.521926
 20
339.174596
 30
0.0
 11
811.915582
 21
339.568253
 31
0.0
  0
LINE
  5
2C6
102
{ACAD_REACTORS
330
3AE
102
}
330
1F
100
AcDbEntity
  8
LC-005-005-----0
 62
     7
370
    25
100
AcDbLine
 10
808.693498
 20
339.174596
 30
0.0
 11
811.087343
 21
341.56844
 31
0.0
  0
LINE
  5
2C7
102
{ACAD_REACTORS
330
3AE
102
}
330
1F
100
AcDbEntity
  8
LC-005-005-----0
 62
     7
370
    25
100
AcDbLine
 10
805.865071
 20
339.174596
 30
0.0
 11
809.360269
 21
342.669793
 31
0.0
  0
LINE
  5
2C8
102
{ACAD_REACTORS
330
3AE
102
}
330
1F
100
AcDbEntity
  8
LC-005-005-----0
 62
     7
370
    25
100
AcDbLine
 10
803.036644
 20
339.174596
 30
0.0
 11
807.527793
 21
343.665745
 31
0.0
  0
LINE
  5
2C9
102
{ACAD_REACTORS
330
3AE
102
}
330
1F
100
AcDbEntity
  8
LC-005-005-----0
 62
     7
370
    25
100
AcDbLine
 10
800.208217
 20
339.174596
 30
0.0
 11
803.208217
 21
342.174596
 31
0.0
  0
LINE
  5
2CA
102
{ACAD_REACTORS
330
3AE
102
}
330
1F
100
AcDbEntity
  8
LC-005-005-----0
 62
     7
370
    25
100
AcDbLine
 10
804.915582
 20
343.881961
 30
0.0
 11
805.583073
 21
344.549452
 31
0.0
  0
LINE
  5
2CB
102
{ACAD_REACTORS
330
3AE
102
}
330
1F
100
AcDbEntity
  8
LC-005-005-----0
 62
     7
370
    25
100
AcDbLine
 10
797.37979
 20
339.174596
 30
0.0
 11
800.544586
 21
342.339392
 31
0.0
  0
LINE
  5
2CC
102
{ACAD_REACTORS
330
3AE
102
}
330
1F
100
AcDbEntity
  8
LC-005-005-----0
 62
     7
370
    25
100
AcDbLine
 10
823.798184
 20
365.59299
 30
0.0
 11
824.816275
 21
366.611081
 31
0.0
  0
LINE
  5
2CD
102
{ACAD_REACTORS
330
3AE
102
}
330
1F
100
AcDbEntity
  8
LC-005-005-----0
 62
     7
370
    25
100
AcDbLine
 10
794.551363
 20
339.174596
 30
0.0
 11
800.415582
 21
345.038815
 31
0.0
  0
LINE
  5
2CE
102
{ACAD_REACTORS
330
3AE
102
}
330
1F
100
AcDbEntity
  8
LC-005-005-----0
 62
     7
370
    25
100
AcDbLine
 10
820.857905
 20
365.481138
 30
0.0
 11
824.057704
 21
368.680937
 31
0.0
  0
LINE
  5
2CF
102
{ACAD_REACTORS
330
3AE
102
}
330
1F
100
AcDbEntity
  8
LC-005-005-----0
 62
     7
370
    25
100
AcDbLine
 10
791.722936
 20
339.174596
 30
0.0
 11
798.959924
 21
346.411585
 31
0.0
  0
LINE
  5
2D0
102
{ACAD_REACTORS
330
3AE
102
}
330
1F
100
AcDbEntity
  8
LC-005-005-----0
 62
     7
370
    25
100
AcDbLine
 10
817.917626
 20
365.369286
 30
0.0
 11
821.622742
 21
369.074402
 31
0.0
  0
LINE
  5
2D1
102
{ACAD_REACTORS
330
3AE
102
}
330
1F
100
AcDbEntity
  8
LC-005-005-----0
 62
     7
370
    25
100
AcDbLine
 10
788.894509
 20
339.174596
 30
0.0
 11
796.422884
 21
346.702971
 31
0.0
  0
LINE
  5
2D2
102
{ACAD_REACTORS
330
3AE
102
}
330
1F
100
AcDbEntity
  8
LC-005-005-----0
 62
     7
370
    25
100
AcDbLine
 10
814.798155
 20
365.078242
 30
0.0
 11
818.697353
 21
368.97744
 31
0.0
  0
LINE
  5
2D3
102
{ACAD_REACTORS
330
3AE
102
}
330
1F
100
AcDbEntity
  8
LC-005-005-----0
 62
     7
370
    25
100
AcDbLine
 10
786.066081
 20
339.174596
 30
0.0
 11
793.662239
 21
346.770753
 31
0.0
  0
LINE
  5
2D4
102
{ACAD_REACTORS
330
3AE
102
}
330
1F
100
AcDbEntity
  8
LC-005-005-----0
 62
     7
370
    25
100
AcDbLine
 10
810.723791
 20
363.832305
 30
0.0
 11
815.771965
 21
368.880479
 31
0.0
  0
LINE
  5
2D5
102
{ACAD_REACTORS
330
3AE
102
}
330
1F
100
AcDbEntity
  8
LC-005-005-----0
 62
     7
370
    25
100
AcDbLine
 10
783.237654
 20
339.174596
 30
0.0
 11
790.607787
 21
346.544728
 31
0.0
  0
LINE
  5
2D6
102
{ACAD_REACTORS
330
3AE
102
}
330
1F
100
AcDbEntity
  8
LC-005-005-----0
 62
     7
370
    25
100
AcDbLine
 10
806.649426
 20
362.586367
 30
0.0
 11
811.961358
 21
367.898299
 31
0.0
  0
LINE
  5
2D7
102
{ACAD_REACTORS
330
3AE
102
}
330
1F
100
AcDbEntity
  8
LC-005-005-----0
 62
     7
370
    25
100
AcDbLine
 10
780.409227
 20
339.174596
 30
0.0
 11
787.126032
 21
345.891401
 31
0.0
  0
LINE
  5
2D8
102
{ACAD_REACTORS
330
3AE
102
}
330
1F
100
AcDbEntity
  8
LC-005-005-----0
 62
     7
370
    25
100
AcDbLine
 10
802.575061
 20
361.34043
 30
0.0
 11
807.887395
 21
366.652764
 31
0.0
  0
LINE
  5
2D9
102
{ACAD_REACTORS
330
3AE
102
}
330
1F
100
AcDbEntity
  8
LC-005-005-----0
 62
     7
370
    25
100
AcDbLine
 10
777.5808
 20
339.174596
 30
0.0
 11
782.889955
 21
344.483751
 31
0.0
  0
LINE
  5
2DA
102
{ACAD_REACTORS
330
3AE
102
}
330
1F
100
AcDbEntity
  8
LC-005-005-----0
 62
     7
370
    25
100
AcDbLine
 10
798.500697
 20
360.094492
 30
0.0
 11
803.813433
 21
365.407229
 31
0.0
  0
LINE
  5
2DB
102
{ACAD_REACTORS
330
3AE
102
}
330
1F
100
AcDbEntity
  8
LC-005-005-----0
 62
     7
370
    25
100
AcDbLine
 10
774.752373
 20
339.174596
 30
0.0
 11
778.915582
 21
343.337805
 31
0.0
  0
LINE
  5
2DC
102
{ACAD_REACTORS
330
3AE
102
}
330
1F
100
AcDbEntity
  8
LC-005-005-----0
 62
     7
370
    25
100
AcDbLine
 10
782.733608
 20
347.155831
 30
0.0
 11
785.316797
 21
349.739019
 31
0.0
  0
LINE
  5
2DD
102
{ACAD_REACTORS
330
3AE
102
}
330
1F
100
AcDbEntity
  8
LC-005-005-----0
 62
     7
370
    25
100
AcDbLine
 10
792.234298
 20
356.656521
 30
0.0
 11
799.73947
 21
364.161693
 31
0.0
  0
LINE
  5
2DE
102
{ACAD_REACTORS
330
3AE
102
}
330
1F
100
AcDbEntity
  8
LC-005-005-----0
 62
     7
370
    25
100
AcDbLine
 10
771.923946
 20
339.174596
 30
0.0
 11
774.923946
 21
342.174596
 31
0.0
  0
LINE
  5
2DF
102
{ACAD_REACTORS
330
3AE
102
}
330
1F
100
AcDbEntity
  8
LC-005-005-----0
 62
     7
370
    25
100
AcDbLine
 10
776.415582
 20
343.666232
 30
0.0
 11
777.23545
 21
344.4861
 31
0.0
  0
LINE
  5
2E0
102
{ACAD_REACTORS
330
3AE
102
}
330
1F
100
AcDbEntity
  8
LC-005-005-----0
 62
     7
370
    25
100
AcDbLine
 10
779.905181
 20
347.155831
 30
0.0
 11
781.905181
 21
349.155831
 31
0.0
  0
LINE
  5
2E1
102
{ACAD_REACTORS
330
3AE
102
}
330
1F
100
AcDbEntity
  8
LC-005-005-----0
 62
     7
370
    25
100
AcDbLine
 10
782.31685
 20
349.5675
 30
0.0
 11
785.316797
 21
352.567446
 31
0.0
  0
LINE
  5
2E2
102
{ACAD_REACTORS
330
3AE
102
}
330
1F
100
AcDbEntity
  8
LC-005-005-----0
 62
     7
370
    25
100
AcDbLine
 10
789.405871
 20
356.656521
 30
0.0
 11
791.905871
 21
359.156521
 31
0.0
  0
LINE
  5
2E3
102
{ACAD_REACTORS
330
3AE
102
}
330
1F
100
AcDbEntity
  8
LC-005-005-----0
 62
     7
370
    25
100
AcDbLine
 10
792.816883
 20
360.067533
 30
0.0
 11
795.665508
 21
362.916158
 31
0.0
  0
LINE
  5
2E4
102
{ACAD_REACTORS
330
3AE
102
}
330
1F
100
AcDbEntity
  8
LC-005-005-----0
 62
     7
370
    25
100
AcDbLine
 10
769.095519
 20
339.174596
 30
0.0
 11
772.095519
 21
342.174596
 31
0.0
  0
LINE
  5
2E5
102
{ACAD_REACTORS
330
3AE
102
}
330
1F
100
AcDbEntity
  8
LC-005-005-----0
 62
     7
370
    25
100
AcDbLine
 10
777.076754
 20
347.155831
 30
0.0
 11
779.076754
 21
349.155831
 31
0.0
  0
LINE
  5
2E6
102
{ACAD_REACTORS
330
3AE
102
}
330
1F
100
AcDbEntity
  8
LC-005-005-----0
 62
     7
370
    25
100
AcDbLine
 10
782.31685
 20
352.395927
 30
0.0
 11
785.316797
 21
355.395874
 31
0.0
  0
LINE
  5
2E7
102
{ACAD_REACTORS
330
3AE
102
}
330
1F
100
AcDbEntity
  8
LC-005-005-----0
 62
     7
370
    25
100
AcDbLine
 10
786.577444
 20
356.656521
 30
0.0
 11
789.077444
 21
359.156521
 31
0.0
  0
LINE
  5
2E8
102
{ACAD_REACTORS
330
3AE
102
}
330
1F
100
AcDbEntity
  8
LC-005-005-----0
 62
     7
370
    25
100
AcDbLine
 10
766.267092
 20
339.174596
 30
0.0
 11
769.267092
 21
342.174596
 31
0.0
  0
LINE
  5
2E9
102
{ACAD_REACTORS
330
3AE
102
}
330
1F
100
AcDbEntity
  8
LC-005-005-----0
 62
     7
370
    25
100
AcDbLine
 10
774.248327
 20
347.155831
 30
0.0
 11
777.31685
 21
350.224355
 31
0.0
  0
LINE
  5
2EA
102
{ACAD_REACTORS
330
3AE
102
}
330
1F
100
AcDbEntity
  8
LC-005-005-----0
 62
     7
370
    25
100
AcDbLine
 10
782.31685
 20
355.224355
 30
0.0
 11
786.249017
 21
359.156521
 31
0.0
  0
LINE
  5
2EB
102
{ACAD_REACTORS
330
3AE
102
}
330
1F
100
AcDbEntity
  8
LC-005-005-----0
 62
     7
370
    25
100
AcDbLine
 10
763.438664
 20
339.174596
 30
0.0
 11
766.438664
 21
342.174596
 31
0.0
  0
LINE
  5
2EC
102
{ACAD_REACTORS
330
3AE
102
}
330
1F
100
AcDbEntity
  8
LC-005-005-----0
 62
     7
370
    25
100
AcDbLine
 10
771.4199
 20
347.155831
 30
0.0
 11
777.31685
 21
353.052782
 31
0.0
  0
LINE
  5
2ED
102
{ACAD_REACTORS
330
3AE
102
}
330
1F
100
AcDbEntity
  8
LC-005-005-----0
 62
     7
370
    25
100
AcDbLine
 10
782.31685
 20
358.052782
 30
0.0
 11
785.816361
 21
361.552292
 31
0.0
  0
LINE
  5
2EE
102
{ACAD_REACTORS
330
3AE
102
}
330
1F
100
AcDbEntity
  8
LC-005-005-----0
 62
     7
370
    25
100
AcDbLine
 10
761.816275
 20
340.380633
 30
0.0
 11
764.497592
 21
343.06195
 31
0.0
  0
LINE
  5
2EF
102
{ACAD_REACTORS
330
3AE
102
}
330
1F
100
AcDbEntity
  8
LC-005-005-----0
 62
     7
370
    25
100
AcDbLine
 10
768.591472
 20
347.155831
 30
0.0
 11
777.31685
 21
355.881209
 31
0.0
  0
LINE
  5
2F0
102
{ACAD_REACTORS
330
3AE
102
}
330
1F
100
AcDbEntity
  8
LC-005-005-----0
 62
     7
370
    25
100
AcDbLine
 10
782.31685
 20
360.881209
 30
0.0
 11
784.092163
 21
362.656521
 31
0.0
  0
LINE
  5
2F1
102
{ACAD_REACTORS
330
3AE
102
}
330
1F
100
AcDbEntity
  8
LC-005-005-----0
 62
     7
370
    25
100
AcDbLine
 10
761.816275
 20
343.20906
 30
0.0
 11
764.497592
 21
345.890377
 31
0.0
  0
LINE
  5
2F2
102
{ACAD_REACTORS
330
3AE
102
}
330
1F
100
AcDbEntity
  8
LC-005-005-----0
 62
     7
370
    25
100
AcDbLine
 10
765.763045
 20
347.155831
 30
0.0
 11
777.31685
 21
358.709636
 31
0.0
  0
LINE
  5
2F3
102
{ACAD_REACTORS
330
3AE
102
}
330
1F
100
AcDbEntity
  8
LC-005-005-----0
 62
     7
370
    25
100
AcDbLine
 10
761.816275
 20
346.037488
 30
0.0
 11
767.434618
 21
351.655831
 31
0.0
  0
LINE
  5
2F4
102
{ACAD_REACTORS
330
3AE
102
}
330
1F
100
AcDbEntity
  8
LC-005-005-----0
 62
     7
370
    25
100
AcDbLine
 10
769.816387
 20
354.0376
 30
0.0
 11
777.31685
 21
361.538063
 31
0.0
  0
LINE
  5
2F5
102
{ACAD_REACTORS
330
3AE
102
}
330
1F
100
AcDbEntity
  8
LC-005-005-----0
 62
     7
370
    25
100
AcDbLine
 10
761.816275
 20
348.865915
 30
0.0
 11
764.606191
 21
351.655831
 31
0.0
  0
LINE
  5
2F6
102
{ACAD_REACTORS
330
3AE
102
}
330
1F
100
AcDbEntity
  8
LC-005-005-----0
 62
     7
370
    25
100
AcDbLine
 10
769.816387
 20
356.866027
 30
0.0
 11
775.606881
 21
362.656521
 31
0.0
  0
LINE
  5
2F7
102
{ACAD_REACTORS
330
3AE
102
}
330
1F
100
AcDbEntity
  8
LC-005-005-----0
 62
     7
370
    25
100
AcDbLine
 10
759.777764
 20
349.655831
 30
0.0
 11
761.777764
 21
351.655831
 31
0.0
  0
LINE
  5
2F8
102
{ACAD_REACTORS
330
3AE
102
}
330
1F
100
AcDbEntity
  8
LC-005-005-----0
 62
     7
370
    25
100
AcDbLine
 10
769.816387
 20
359.694454
 30
0.0
 11
773.816361
 21
363.694428
 31
0.0
  0
LINE
  5
2F9
102
{ACAD_REACTORS
330
3AE
102
}
330
1F
100
AcDbEntity
  8
LC-005-005-----0
 62
     7
370
    25
100
AcDbLine
 10
750.316275
 20
343.022769
 30
0.0
 11
752.316275
 21
345.022769
 31
0.0
  0
LINE
  5
2FA
102
{ACAD_REACTORS
330
3AE
102
}
330
1F
100
AcDbEntity
  8
LC-005-005-----0
 62
     7
370
    25
100
AcDbLine
 10
756.949337
 20
349.655831
 30
0.0
 11
758.920612
 21
351.627106
 31
0.0
  0
LINE
  5
2FB
102
{ACAD_REACTORS
330
3AE
102
}
330
1F
100
AcDbEntity
  8
LC-005-005-----0
 62
     7
370
    25
100
AcDbLine
 10
769.816387
 20
362.522881
 30
0.0
 11
771.450027
 21
364.156521
 31
0.0
  0
LINE
  5
2FC
102
{ACAD_REACTORS
330
3AE
102
}
330
1F
100
AcDbEntity
  8
LC-005-005-----0
 62
     7
370
    25
100
AcDbLine
 10
750.316275
 20
345.851196
 30
0.0
 11
752.316275
 21
347.851196
 31
0.0
  0
LINE
  5
2FD
102
{ACAD_REACTORS
330
3AE
102
}
330
1F
100
AcDbEntity
  8
LC-005-005-----0
 62
     7
370
    25
100
AcDbLine
 10
754.12091
 20
349.655831
 30
0.0
 11
756.041937
 21
351.576858
 31
0.0
  0
LINE
  5
2FE
102
{ACAD_REACTORS
330
3AE
102
}
330
1F
100
AcDbEntity
  8
LC-005-005-----0
 62
     7
370
    25
100
AcDbLine
 10
750.316275
 20
348.679623
 30
0.0
 11
753.163263
 21
351.526611
 31
0.0
  0
DIMENSION
  5
2FF
330
1F
100
AcDbEntity
  8
LC-007-003-----0
 62
     7
370
    25
100
AcDbDimension
  2
*D12
 10
936.0
 20
292.174596
 30
0.0
 11
905.2
 21
346.762
 31
0.0
 70
   160
  1
DN50
 71
     5
 42
50.0
 53
90.0
  3
LC-DIM-L-0140-02-02
100
AcDbAlignedDimension
 13
897.316275
 23
342.174596
 33
0.0
 14
897.316275
 24
292.174596
 34
0.0
 50
90.0
100
AcDbRotatedDimension
  0
LINE
  5
30D
330
1F
100
AcDbEntity
  8
LC-001-002-----0
  6
ByBlock
 62
     7
370
    50
100
AcDbLine
 10
813.409322
 20
339.924596
 30
0.0
 11
813.409322
 21
294.424596
 31
0.0
  0
LINE
  5
30E
102
{ACAD_REACTORS
330
3AB
102
}
330
1F
100
AcDbEntity
  8
LC-001-002-----0
  6
ByBlock
 62
     7
370
    50
100
AcDbLine
 10
604.531345
 20
368.858247
 30
0.0
 11
596.882528
 21
369.111765
 31
0.0
  0
LINE
  5
30F
102
{ACAD_REACTORS
330
3AB
102
}
330
1F
100
AcDbEntity
  8
LC-001-002-----0
  6
ByBlock
 62
     7
370
    50
100
AcDbLine
 10
624.816275
 20
362.656521
 30
0.0
 11
604.531345
 21
368.858247
 31
0.0
  0
LINE
  5
310
102
{ACAD_REACTORS
330
3AB
102
}
330
1F
100
AcDbEntity
  8
LC-001-002-----0
  6
ByBlock
 62
     7
370
    50
100
AcDbLine
 10
624.367126
 20
359.105148
 30
0.0
 11
604.190624
 21
365.275107
 31
0.0
  0
LINE
  5
311
102
{ACAD_REACTORS
330
3AB
102
}
330
1F
100
AcDbEntity
  8
LC-001-002-----0
  6
ByBlock
 62
     7
370
    50
100
AcDbLine
 10
604.190624
 20
365.275107
 30
0.0
 11
594.816275
 21
365.63172
 31
0.0
  0
ARC
  5
312
330
1F
100
AcDbEntity
  8
LC-004-002-RND-0
 62
     7
370
    50
100
AcDbCircle
 10
633.315753
 20
355.656521
 30
0.0
 40
1.0
100
AcDbArc
 50
360.0
 51
90.0
  0
LINE
  5
313
330
1F
100
AcDbEntity
  8
LC-001-002-----0
  6
ByBlock
 62
     7
370
    50
100
AcDbLine
 10
649.816249
 20
364.155831
 30
0.0
 11
709.816275
 21
364.155831
 31
0.0
  0
LINE
  5
314
330
1F
100
AcDbEntity
  8
LC-001-002-----0
  6
ByBlock
 62
     7
370
    50
100
AcDbLine
 10
649.816249
 20
364.155831
 30
0.0
 11
649.816249
 21
351.655831
 31
0.0
  0
LINE
  5
315
330
1F
100
AcDbEntity
  8
LC-001-002-----0
  6
ByBlock
 62
     7
370
    50
100
AcDbLine
 10
769.816387
 20
364.155831
 30
0.0
 11
769.816387
 21
351.655831
 31
0.0
  0
LINE
  5
316
330
1F
100
AcDbEntity
  8
LC-001-002-----0
  6
ByBlock
 62
     7
370
    50
100
AcDbLine
 10
709.816275
 20
364.155831
 30
0.0
 11
769.816387
 21
364.155831
 31
0.0
  0
LINE
  5
317
330
1F
100
AcDbEntity
  8
LC-001-002-----0
  6
ByBlock
 62
     7
370
    50
100
AcDbLine
 10
634.315753
 20
355.656521
 30
0.0
 11
634.315753
 21
348.155831
 31
0.0
  0
DIMENSION
  5
318
330
1F
100
AcDbEntity
  8
LC-007-003-----0
 62
     7
370
    25
100
AcDbDimension
  2
*D13
 10
900.816275
 20
235.2
 30
0.0
 11
832.816275
 21
266.0
 31
0.0
 70
   160
 71
     5
 42
136.0
  3
LC-DIM-L-0140-02-02
100
AcDbAlignedDimension
 13
764.816275
 23
290.6861
 33
0.0
 14
900.816275
 24
294.424596
 34
0.0
100
AcDbRotatedDimension
  0
LINE
  5
325
102
{ACAD_REACTORS
330
3AD
102
}
330
1F
100
AcDbEntity
  8
LC-001-002-----0
  6
DASHED
 62
     7
370
    25
100
AcDbLine
 10
887.339566
 20
266.39397
 30
0.0
 11
890.963033
 21
266.39397
 31
0.0
  0
ARC
  5
326
102
{ACAD_REACTORS
330
3AD
102
}
330
1F
100
AcDbEntity
  8
LC-009-207-----0
 62
     7
370
    50
100
AcDbCircle
 10
794.320111
 20
317.200363
 30
0.0
 40
29.70000000000018
100
AcDbArc
 50
54.721682
 51
89.141305
  0
ARC
  5
327
102
{ACAD_REACTORS
330
3AD
102
}
330
1F
100
AcDbEntity
  8
LC-001-002-----0
  6
DASHED
 62
     7
370
    25
100
AcDbCircle
 10
779.370281
 20
290.386326
 30
0.0
 40
1.000000000000003
100
AcDbArc
 50
60.858695
 51
165.0
  0
LINE
  5
328
102
{ACAD_REACTORS
330
3AD
102
}
330
1F
100
AcDbEntity
  8
LC-001-002-----0
  6
DASHED
 62
     7
370
    25
100
AcDbLine
 10
778.404355
 20
290.645145
 30
0.0
 11
777.827103
 21
288.490813
 31
0.0
  0
LINE
  5
329
102
{ACAD_REACTORS
330
3AD
102
}
330
1F
100
AcDbEntity
  8
LC-001-002-----0
  6
DASHED
 62
     7
370
    25
100
AcDbLine
 10
890.963033
 20
266.39397
 30
0.0
 11
891.30265
 21
267.661437
 31
0.0
  0
LINE
  5
32A
102
{ACAD_REACTORS
330
3AD
102
}
330
1F
100
AcDbEntity
  8
LC-001-002-----0
  6
DASHED
 62
     7
370
    25
100
AcDbLine
 10
891.30265
 20
267.661437
 30
0.0
 11
903.078916
 21
311.611062
 31
0.0
  0
LINE
  5
32B
102
{ACAD_REACTORS
330
3AD
102
}
330
1F
100
AcDbEntity
  8
LC-001-002-----0
  6
DASHED
 62
     7
370
    25
100
AcDbLine
 10
903.078916
 20
311.611062
 30
0.0
 11
903.418533
 21
312.878528
 31
0.0
  0
LINE
  5
32C
102
{ACAD_REACTORS
330
3AD
102
}
330
1F
100
AcDbEntity
  8
LC-001-002-----0
 62
     7
370
    25
100
AcDbLine
 10
897.190783
 20
289.636249
 30
0.0
 11
767.643822
 21
324.348253
 31
0.0
  0
LINE
  5
32D
102
{ACAD_REACTORS
330
3AD
102
}
330
1F
100
AcDbEntity
  8
LC-001-002-----0
  6
DASHED
 62
     7
370
    25
100
AcDbLine
 10
900.280519
 20
314.690262
 30
0.0
 11
903.418533
 21
312.878528
 31
0.0
  0
ARC
  5
32E
102
{ACAD_REACTORS
330
3AD
102
}
330
1F
100
AcDbEntity
  8
LC-001-002-----0
  6
DASHED
 62
     7
370
    25
100
AcDbCircle
 10
794.780197
 20
347.896915
 30
0.0
 40
1.00000000000003
100
AcDbArc
 50
165.0
 51
269.141305
  0
LINE
  5
32F
102
{ACAD_REACTORS
330
3AD
102
}
330
1F
100
AcDbEntity
  8
LC-001-002-----0
  6
DASHED
 62
     7
370
    25
100
AcDbLine
 10
820.181104
 20
336.152835
 30
0.0
 11
900.280519
 21
314.690262
 31
0.0
  0
LINE
  5
330
102
{ACAD_REACTORS
330
3AD
102
}
330
1F
100
AcDbEntity
  8
LC-001-002-----0
  6
DASHED
 62
     7
370
    25
100
AcDbLine
 10
807.240152
 20
287.856544
 30
0.0
 11
887.339566
 21
266.39397
 31
0.0
  0
LINE
  5
331
102
{ACAD_REACTORS
330
3AD
102
}
330
1F
100
AcDbEntity
  8
LC-001-002-----0
  6
DASHED
 62
     7
370
    25
100
AcDbLine
 10
818.650283
 20
334.233646
 30
0.0
 11
903.078916
 21
311.611062
 31
0.0
  0
LINE
  5
332
102
{ACAD_REACTORS
330
3AD
102
}
330
1F
100
AcDbEntity
  8
LC-001-002-----0
  6
DASHED
 62
     7
370
    25
100
AcDbLine
 10
806.874016
 20
290.284021
 30
0.0
 11
891.30265
 21
267.661437
 31
0.0
  0
LINE
  5
333
102
{ACAD_REACTORS
330
3AD
102
}
330
1F
100
AcDbEntity
  8
LC-001-002-----0
  6
DASHED
 62
     7
370
    25
100
AcDbLine
 10
793.814271
 20
348.155734
 30
0.0
 11
794.391522
 21
350.310066
 31
0.0
  0
LINE
  5
334
102
{ACAD_REACTORS
330
3AD
102
}
330
1F
100
AcDbEntity
  8
LC-001-002-----0
  6
DASHED
 62
     7
370
    25
100
AcDbLine
 10
794.391522
 20
350.310066
 30
0.0
 11
802.601892
 21
348.110104
 31
0.0
  0
LINE
  5
335
102
{ACAD_REACTORS
330
3AD
102
}
330
1F
100
AcDbEntity
  8
LC-001-002-----0
  6
DASHED
 62
     7
370
    25
100
AcDbLine
 10
777.827103
 20
288.490813
 30
0.0
 11
786.134065
 21
286.264969
 31
0.0
  0
ARC
  5
336
102
{ACAD_REACTORS
330
3AD
102
}
330
1F
100
AcDbEntity
  8
LC-001-002-----0
  6
DASHED
 62
     7
370
    25
100
AcDbCircle
 10
794.416275
 20
317.174596
 30
0.0
 40
32.00000000000085
100
AcDbArc
 50
36.375167
 51
75.17905
  0
ARC
  5
337
102
{ACAD_REACTORS
330
3AD
102
}
330
1F
100
AcDbEntity
  8
LC-001-002-----0
  6
DASHED
 62
     7
370
    25
100
AcDbCircle
 10
794.416275
 20
317.174596
 30
0.0
 40
32.00000000000124
100
AcDbArc
 50
255.0
 51
293.624833
  0
ARC
  5
338
102
{ACAD_REACTORS
330
3AD
102
}
330
1F
100
AcDbEntity
  8
LC-001-002-----0
  6
DASHED
 62
     7
370
    25
100
AcDbCircle
 10
794.320111
 20
317.200363
 30
0.0
 40
29.7000000000002
100
AcDbArc
 50
34.995438
 51
54.721682
  0
ARC
  5
339
102
{ACAD_REACTORS
330
3AD
102
}
330
1F
100
AcDbEntity
  8
LC-001-002-----0
  6
DASHED
 62
     7
370
    25
100
AcDbCircle
 10
794.320111
 20
317.200363
 30
0.0
 40
29.70000000000012
100
AcDbArc
 50
240.858695
 51
295.004562
  0
INSERT
  5
359
330
1F
100
AcDbEntity
  8
LC-007-003-----0
 62
     7
370
    25
100
AcDbBlockReference
  2
LCDIM1
 10
0.0
 20
0.0
 30
0.0
  0
INSERT
  5
36C
330
1F
100
AcDbEntity
  8
LC-005-005-----0
 62
     7
370
    25
100
AcDbBlockReference
  2
*X915
 10
0.0
 20
0.0
 30
0.0
  0
LINE
  5
36D
102
{ACAD_REACTORS
330
3AA
102
}
330
1F
100
AcDbEntity
  8
LC-005-005-----0
 62
     7
370
    25
100
AcDbLine
 10
809.640575
 20
292.038411
 30
0.0
 11
811.915582
 21
294.313419
 31
0.0
  0
LINE
  5
36E
102
{ACAD_REACTORS
330
3AA
102
}
330
1F
100
AcDbEntity
  8
LC-005-005-----0
 62
     7
370
    25
100
AcDbLine
 10
804.916455
 20
290.142718
 30
0.0
 11
809.948332
 21
295.174596
 31
0.0
  0
LINE
  5
36F
102
{ACAD_REACTORS
330
3AA
102
}
330
1F
100
AcDbEntity
  8
LC-005-005-----0
 62
     7
370
    25
100
AcDbLine
 10
804.308401
 20
292.363091
 30
0.0
 11
807.119905
 21
295.174596
 31
0.0
  0
LINE
  5
370
102
{ACAD_REACTORS
330
3AA
102
}
330
1F
100
AcDbEntity
  8
LC-005-005-----0
 62
     7
370
    25
100
AcDbLine
 10
797.002031
 20
287.885149
 30
0.0
 11
800.415582
 21
291.2987
 31
0.0
  0
LINE
  5
371
102
{ACAD_REACTORS
330
3AA
102
}
330
1F
100
AcDbEntity
  8
LC-005-005-----0
 62
     7
370
    25
100
AcDbLine
 10
801.479974
 20
292.363091
 30
0.0
 11
804.291478
 21
295.174596
 31
0.0
  0
LINE
  5
372
102
{ACAD_REACTORS
330
3AA
102
}
330
1F
100
AcDbEntity
  8
LC-005-005-----0
 62
     7
370
    25
100
AcDbLine
 10
794.052724
 20
287.764269
 30
0.0
 11
801.463051
 21
295.174596
 31
0.0
  0
LINE
  5
373
102
{ACAD_REACTORS
330
3AA
102
}
330
1F
100
AcDbEntity
  8
LC-005-005-----0
 62
     7
370
    25
100
AcDbLine
 10
791.370145
 20
287.910117
 30
0.0
 11
798.634624
 21
295.174596
 31
0.0
  0
LINE
  5
374
102
{ACAD_REACTORS
330
3AA
102
}
330
1F
100
AcDbEntity
  8
LC-005-005-----0
 62
     7
370
    25
100
AcDbLine
 10
788.895393
 20
288.263792
 30
0.0
 11
795.806197
 21
295.174596
 31
0.0
  0
LINE
  5
375
102
{ACAD_REACTORS
330
3AA
102
}
330
1F
100
AcDbEntity
  8
LC-005-005-----0
 62
     7
370
    25
100
AcDbLine
 10
786.591999
 20
288.788825
 30
0.0
 11
792.97777
 21
295.174596
 31
0.0
  0
LINE
  5
376
102
{ACAD_REACTORS
330
3AA
102
}
330
1F
100
AcDbEntity
  8
LC-005-005-----0
 62
     7
370
    25
100
AcDbLine
 10
784.435751
 20
289.461004
 30
0.0
 11
790.149343
 21
295.174596
 31
0.0
  0
LINE
  5
377
102
{ACAD_REACTORS
330
3AA
102
}
330
1F
100
AcDbEntity
  8
LC-005-005-----0
 62
     7
370
    25
100
AcDbLine
 10
782.409847
 20
290.263527
 30
0.0
 11
787.320915
 21
295.174596
 31
0.0
  0
LINE
  5
378
102
{ACAD_REACTORS
330
3AA
102
}
330
1F
100
AcDbEntity
  8
LC-005-005-----0
 62
     7
370
    25
100
AcDbLine
 10
780.502321
 20
291.184428
 30
0.0
 11
784.492488
 21
295.174596
 31
0.0
  0
LINE
  5
379
102
{ACAD_REACTORS
330
3AA
102
}
330
1F
100
AcDbEntity
  8
LC-005-005-----0
 62
     7
370
    25
100
AcDbLine
 10
776.415582
 20
289.926117
 30
0.0
 11
781.664061
 21
295.174596
 31
0.0
  0
LINE
  5
37A
102
{ACAD_REACTORS
330
3AA
102
}
330
1F
100
AcDbEntity
  8
LC-005-005-----0
 62
     7
370
    25
100
AcDbLine
 10
775.835634
 20
292.174596
 30
0.0
 11
778.835634
 21
295.174596
 31
0.0
  0
LINE
  5
37B
102
{ACAD_REACTORS
330
3AA
102
}
330
1F
100
AcDbEntity
  8
LC-005-005-----0
 62
     7
370
    25
100
AcDbLine
 10
773.007207
 20
292.174596
 30
0.0
 11
776.007207
 21
295.174596
 31
0.0
  0
LINE
  5
37C
102
{ACAD_REACTORS
330
3AA
102
}
330
1F
100
AcDbEntity
  8
LC-005-005-----0
 62
     7
370
    25
100
AcDbLine
 10
770.17878
 20
292.174596
 30
0.0
 11
773.17878
 21
295.174596
 31
0.0
  0
LINE
  5
37D
102
{ACAD_REACTORS
330
3AA
102
}
330
1F
100
AcDbEntity
  8
LC-005-005-----0
 62
     7
370
    25
100
AcDbLine
 10
762.609566
 20
287.433809
 30
0.0
 11
764.568566
 21
289.392809
 31
0.0
  0
LINE
  5
37E
102
{ACAD_REACTORS
330
3AA
102
}
330
1F
100
AcDbEntity
  8
LC-005-005-----0
 62
     7
370
    25
100
AcDbLine
 10
767.350353
 20
292.174596
 30
0.0
 11
770.350353
 21
295.174596
 31
0.0
  0
LINE
  5
37F
102
{ACAD_REACTORS
330
3AA
102
}
330
1F
100
AcDbEntity
  8
LC-005-005-----0
 62
     7
370
    25
100
AcDbLine
 10
759.53343
 20
287.1861
 30
0.0
 11
767.521926
 21
295.174596
 31
0.0
  0
LINE
  5
380
102
{ACAD_REACTORS
330
3AA
102
}
330
1F
100
AcDbEntity
  8
LC-005-005-----0
 62
     7
370
    25
100
AcDbLine
 10
756.705003
 20
287.1861
 30
0.0
 11
759.705003
 21
290.1861
 31
0.0
  0
LINE
  5
381
102
{ACAD_REACTORS
330
3AA
102
}
330
1F
100
AcDbEntity
  8
LC-005-005-----0
 62
     7
370
    25
100
AcDbLine
 10
761.816275
 20
292.297372
 30
0.0
 11
764.693498
 21
295.174596
 31
0.0
  0
LINE
  5
382
102
{ACAD_REACTORS
330
3AA
102
}
330
1F
100
AcDbEntity
  8
LC-005-005-----0
 62
     7
370
    25
100
AcDbLine
 10
753.876576
 20
287.1861
 30
0.0
 11
756.876576
 21
290.1861
 31
0.0
  0
LINE
  5
383
102
{ACAD_REACTORS
330
3AA
102
}
330
1F
100
AcDbEntity
  8
LC-005-005-----0
 62
     7
370
    25
100
AcDbLine
 10
761.816275
 20
295.125799
 30
0.0
 11
761.865071
 21
295.174596
 31
0.0
  0
LINE
  5
384
102
{ACAD_REACTORS
330
3AA
102
}
330
1F
100
AcDbEntity
  8
LC-005-005-----0
 62
     7
370
    25
100
AcDbLine
 10
751.048149
 20
287.1861
 30
0.0
 11
754.048149
 21
290.1861
 31
0.0
  0
LINE
  5
385
102
{ACAD_REACTORS
330
3AA
102
}
330
1F
100
AcDbEntity
  8
LC-005-005-----0
 62
     7
370
    25
100
AcDbLine
 10
748.219721
 20
287.1861
 30
0.0
 11
751.219721
 21
290.1861
 31
0.0
  0
LINE
  5
386
102
{ACAD_REACTORS
330
3AA
102
}
330
1F
100
AcDbEntity
  8
LC-005-005-----0
 62
     7
370
    25
100
AcDbLine
 10
745.391294
 20
287.1861
 30
0.0
 11
748.391294
 21
290.1861
 31
0.0
  0
LINE
  5
387
102
{ACAD_REACTORS
330
3AA
102
}
330
1F
100
AcDbEntity
  8
LC-005-005-----0
 62
     7
370
    25
100
AcDbLine
 10
742.562867
 20
287.1861
 30
0.0
 11
745.562867
 21
290.1861
 31
0.0
  0
LINE
  5
388
102
{ACAD_REACTORS
330
3AA
102
}
330
1F
100
AcDbEntity
  8
LC-005-005-----0
 62
     7
370
    25
100
AcDbLine
 10
739.73444
 20
287.1861
 30
0.0
 11
742.73444
 21
290.1861
 31
0.0
  0
LINE
  5
389
102
{ACAD_REACTORS
330
3AA
102
}
330
1F
100
AcDbEntity
  8
LC-005-005-----0
 62
     7
370
    25
100
AcDbLine
 10
736.906013
 20
287.1861
 30
0.0
 11
739.906013
 21
290.1861
 31
0.0
  0
LINE
  5
38A
102
{ACAD_REACTORS
330
3AA
102
}
330
1F
100
AcDbEntity
  8
LC-005-005-----0
 62
     7
370
    25
100
AcDbLine
 10
734.077586
 20
287.1861
 30
0.0
 11
737.077586
 21
290.1861
 31
0.0
  0
LINE
  5
38B
102
{ACAD_REACTORS
330
3AA
102
}
330
1F
100
AcDbEntity
  8
LC-005-005-----0
 62
     7
370
    25
100
AcDbLine
 10
731.249159
 20
287.1861
 30
0.0
 11
734.249159
 21
290.1861
 31
0.0
  0
LINE
  5
38C
102
{ACAD_REACTORS
330
3AA
102
}
330
1F
100
AcDbEntity
  8
LC-005-005-----0
 62
     7
370
    25
100
AcDbLine
 10
728.420732
 20
287.1861
 30
0.0
 11
731.420732
 21
290.1861
 31
0.0
  0
LINE
  5
38D
102
{ACAD_REACTORS
330
3AA
102
}
330
1F
100
AcDbEntity
  8
LC-005-005-----0
 62
     7
370
    25
100
AcDbLine
 10
725.592304
 20
287.1861
 30
0.0
 11
728.592304
 21
290.1861
 31
0.0
  0
LINE
  5
38E
102
{ACAD_REACTORS
330
3AA
102
}
330
1F
100
AcDbEntity
  8
LC-005-005-----0
 62
     7
370
    25
100
AcDbLine
 10
722.763877
 20
287.1861
 30
0.0
 11
725.763877
 21
290.1861
 31
0.0
  0
LINE
  5
38F
102
{ACAD_REACTORS
330
3AA
102
}
330
1F
100
AcDbEntity
  8
LC-005-005-----0
 62
     7
370
    25
100
AcDbLine
 10
719.93545
 20
287.1861
 30
0.0
 11
722.93545
 21
290.1861
 31
0.0
  0
LINE
  5
390
102
{ACAD_REACTORS
330
3AA
102
}
330
1F
100
AcDbEntity
  8
LC-005-005-----0
 62
     7
370
    25
100
AcDbLine
 10
717.107023
 20
287.1861
 30
0.0
 11
720.107023
 21
290.1861
 31
0.0
  0
LINE
  5
391
102
{ACAD_REACTORS
330
3AA
102
}
330
1F
100
AcDbEntity
  8
LC-005-005-----0
 62
     7
370
    25
100
AcDbLine
 10
714.278596
 20
287.1861
 30
0.0
 11
717.278596
 21
290.1861
 31
0.0
  0
LINE
  5
392
102
{ACAD_REACTORS
330
3AA
102
}
330
1F
100
AcDbEntity
  8
LC-005-005-----0
 62
     7
370
    25
100
AcDbLine
 10
711.450169
 20
287.1861
 30
0.0
 11
714.450169
 21
290.1861
 31
0.0
  0
LINE
  5
393
102
{ACAD_REACTORS
330
3AA
102
}
330
1F
100
AcDbEntity
  8
LC-005-005-----0
 62
     7
370
    25
100
AcDbLine
 10
708.621742
 20
287.1861
 30
0.0
 11
711.621742
 21
290.1861
 31
0.0
  0
LINE
  5
394
102
{ACAD_REACTORS
330
3AA
102
}
330
1F
100
AcDbEntity
  8
LC-005-005-----0
 62
     7
370
    25
100
AcDbLine
 10
705.793315
 20
287.1861
 30
0.0
 11
708.793315
 21
290.1861
 31
0.0
  0
LINE
  5
395
102
{ACAD_REACTORS
330
3AA
102
}
330
1F
100
AcDbEntity
  8
LC-005-005-----0
 62
     7
370
    25
100
AcDbLine
 10
702.964887
 20
287.1861
 30
0.0
 11
705.964887
 21
290.1861
 31
0.0
  0
LINE
  5
396
102
{ACAD_REACTORS
330
3AA
102
}
330
1F
100
AcDbEntity
  8
LC-005-005-----0
 62
     7
370
    25
100
AcDbLine
 10
700.13646
 20
287.1861
 30
0.0
 11
703.13646
 21
290.1861
 31
0.0
  0
LINE
  5
397
102
{ACAD_REACTORS
330
3AA
102
}
330
1F
100
AcDbEntity
  8
LC-005-005-----0
 62
     7
370
    25
100
AcDbLine
 10
697.308033
 20
287.1861
 30
0.0
 11
700.308033
 21
290.1861
 31
0.0
  0
LINE
  5
398
102
{ACAD_REACTORS
330
3AA
102
}
330
1F
100
AcDbEntity
  8
LC-005-005-----0
 62
     7
370
    25
100
AcDbLine
 10
694.479606
 20
287.1861
 30
0.0
 11
697.479606
 21
290.1861
 31
0.0
  0
LINE
  5
399
102
{ACAD_REACTORS
330
3AA
102
}
330
1F
100
AcDbEntity
  8
LC-005-005-----0
 62
     7
370
    25
100
AcDbLine
 10
691.651179
 20
287.1861
 30
0.0
 11
694.651179
 21
290.1861
 31
0.0
  0
LINE
  5
39A
102
{ACAD_REACTORS
330
3AA
102
}
330
1F
100
AcDbEntity
  8
LC-005-005-----0
 62
     7
370
    25
100
AcDbLine
 10
688.822752
 20
287.1861
 30
0.0
 11
691.822752
 21
290.1861
 31
0.0
  0
LINE
  5
39B
102
{ACAD_REACTORS
330
3AA
102
}
330
1F
100
AcDbEntity
  8
LC-005-005-----0
 62
     7
370
    25
100
AcDbLine
 10
685.994325
 20
287.1861
 30
0.0
 11
688.994325
 21
290.1861
 31
0.0
  0
LINE
  5
39C
102
{ACAD_REACTORS
330
3AA
102
}
330
1F
100
AcDbEntity
  8
LC-005-005-----0
 62
     7
370
    25
100
AcDbLine
 10
683.165898
 20
287.1861
 30
0.0
 11
686.165898
 21
290.1861
 31
0.0
  0
LINE
  5
39D
102
{ACAD_REACTORS
330
3AA
102
}
330
1F
100
AcDbEntity
  8
LC-005-005-----0
 62
     7
370
    25
100
AcDbLine
 10
680.33747
 20
287.1861
 30
0.0
 11
683.33747
 21
290.1861
 31
0.0
  0
LINE
  5
39E
102
{ACAD_REACTORS
330
3AA
102
}
330
1F
100
AcDbEntity
  8
LC-005-005-----0
 62
     7
370
    25
100
AcDbLine
 10
677.509043
 20
287.1861
 30
0.0
 11
680.509043
 21
290.1861
 31
0.0
  0
LINE
  5
39F
102
{ACAD_REACTORS
330
3AA
102
}
330
1F
100
AcDbEntity
  8
LC-005-005-----0
 62
     7
370
    25
100
AcDbLine
 10
674.680616
 20
287.1861
 30
0.0
 11
677.680616
 21
290.1861
 31
0.0
  0
LINE
  5
3A0
102
{ACAD_REACTORS
330
3AA
102
}
330
1F
100
AcDbEntity
  8
LC-005-005-----0
 62
     7
370
    25
100
AcDbLine
 10
671.852189
 20
287.1861
 30
0.0
 11
674.852189
 21
290.1861
 31
0.0
  0
LINE
  5
3A1
102
{ACAD_REACTORS
330
3AA
102
}
330
1F
100
AcDbEntity
  8
LC-005-005-----0
 62
     7
370
    25
100
AcDbLine
 10
669.023762
 20
287.1861
 30
0.0
 11
672.023762
 21
290.1861
 31
0.0
  0
LINE
  5
3A2
102
{ACAD_REACTORS
330
3AA
102
}
330
1F
100
AcDbEntity
  8
LC-005-005-----0
 62
     7
370
    25
100
AcDbLine
 10
666.195335
 20
287.1861
 30
0.0
 11
669.195335
 21
290.1861
 31
0.0
  0
LINE
  5
3A3
102
{ACAD_REACTORS
330
3AA
102
}
330
1F
100
AcDbEntity
  8
LC-005-005-----0
 62
     7
370
    25
100
AcDbLine
 10
663.366908
 20
287.1861
 30
0.0
 11
666.366908
 21
290.1861
 31
0.0
  0
LINE
  5
3A4
102
{ACAD_REACTORS
330
3AA
102
}
330
1F
100
AcDbEntity
  8
LC-005-005-----0
 62
     7
370
    25
100
AcDbLine
 10
660.538481
 20
287.1861
 30
0.0
 11
663.538481
 21
290.1861
 31
0.0
  0
LINE
  5
3A5
102
{ACAD_REACTORS
330
3AA
102
}
330
1F
100
AcDbEntity
  8
LC-005-005-----0
 62
     7
370
    25
100
AcDbLine
 10
657.755302
 20
287.231348
 30
0.0
 11
660.710053
 21
290.1861
 31
0.0
  0
LINE
  5
3A6
102
{ACAD_REACTORS
330
3AA
102
}
330
1F
100
AcDbEntity
  8
LC-005-005-----0
 62
     7
370
    25
100
AcDbLine
 10
655.874293
 20
288.178766
 30
0.0
 11
657.99691
 21
290.301384
 31
0.0
  0
LINE
  5
3A7
102
{ACAD_REACTORS
330
3AA
102
}
330
1F
100
AcDbEntity
  8
LC-005-005-----0
 62
     7
370
    25
100
AcDbLine
 10
654.881361
 20
290.014262
 30
0.0
 11
657.816275
 21
292.949176
 31
0.0
  0
LINE
  5
3A8
102
{ACAD_REACTORS
330
3AA
102
}
330
1F
100
AcDbEntity
  8
LC-005-005-----0
 62
     7
370
    25
100
AcDbLine
 10
654.816275
 20
292.777603
 30
0.0
 11
657.816275
 21
295.777603
 31
0.0
  0
LINE
  5
3A9
102
{ACAD_REACTORS
330
3AA
102
}
330
1F
100
AcDbEntity
  8
LC-005-005-----0
 62
     7
370
    25
100
AcDbLine
 10
654.816275
 20
295.60603
 30
0.0
 11
655.984841
 21
296.774596
 31
0.0
  0
ENDSEC
  0
SECTION
  2
OBJECTS
  0
DICTIONARY
  5
C
330
0
100
AcDbDictionary
281
     1
  3
ACAD_GROUP
350
D
  3
ACAD_LAYOUT
350
1A
  3
ACAD_MLINESTYLE
350
17
  3
ACAD_PLOTSETTINGS
350
19
  3
ACAD_PLOTSTYLENAME
350
E
  0
DICTIONARY
  5
D
102
{ACAD_REACTORS
330
C
102
}
330
C
100
AcDbDictionary
281
     1
  3
LCGROUP13
350
3AA
  3
LCGROUP207
350
3AE
  3
LCGROUP259
350
3B0
  3
LCGROUP324
350
3AC
  3
LCGROUP3943
350
3AD
  3
LCGROUP470
350
3AF
  3
LCGROUP817
350
3AB
  0
DICTIONARY
  5
1A
102
{ACAD_REACTORS
330
C
102
}
330
C
100
AcDbDictionary
281
     1
  3
Layout1
350
1E
  3
Layout2
350
26
  3
Model
350
22
  0
DICTIONARY
  5
17
102
{ACAD_REACTORS
330
C
102
}
330
C
100
AcDbDictionary
281
     1
  3
Standard
350
18
  0
DICTIONARY
  5
19
102
{ACAD_REACTORS
330
C
102
}
330
C
100
AcDbDictionary
281
     1
  0
ACDBDICTIONARYWDFLT
  5
E
102
{ACAD_REACTORS
330
C
102
}
330
C
100
AcDbDictionary
281
     1
  3
Normal
350
F
100
AcDbDictionaryWithDefault
340
F
  0
GROUP
  5
3AA
102
{ACAD_REACTORS
330
D
102
}
330
D
100
AcDbGroup
300
GRP13
 70
     1
 71
     1
340
36D
340
36E
340
36F
340
370
340
371
340
372
340
373
340
374
340
375
340
376
340
377
340
378
340
379
340
37A
340
37B
340
37C
340
37D
340
37E
340
37F
340
380
340
381
340
382
340
383
340
384
340
385
340
386
340
387
340
388
340
389
340
38A
340
38B
340
38C
340
38D
340
38E
340
38F
340
390
340
391
340
392
340
393
340
394
340
395
340
396
340
397
340
398
340
399
340
39A
340
39B
340
39C
340
39D
340
39E
340
39F
340
3A0
340
3A1
340
3A2
340
3A3
340
3A4
340
3A5
340
3A6
340
3A7
340
3A8
340
3A9
  0
GROUP
  5
3AE
102
{ACAD_REACTORS
330
D
102
}
330
D
100
AcDbGroup
300
GRP207
 70
     1
 71
     1
340
2C5
340
2C6
340
2C7
340
2C8
340
2C9
340
2CA
340
2CB
340
2CC
340
2CD
340
2CE
340
2CF
340
2D0
340
2D1
340
2D2
340
2D3
340
2D4
340
2D5
340
2D6
340
2D7
340
2D8
340
2D9
340
2DA
340
2DB
340
2DC
340
2DD
340
2DE
340
2DF
340
2E0
340
2E1
340
2E2
340
2E3
340
2E4
340
2E5
340
2E6
340
2E7
340
2E8
340
2E9
340
2EA
340
2EB
340
2EC
340
2ED
340
2EE
340
2EF
340
2F0
340
2F1
340
2F2
340
2F3
340
2F4
340
2F5
340
2F6
340
2F7
340
2F8
340
2F9
340
2FA
340
2FB
340
2FC
340
2FD
340
2FE
  0
GROUP
  5
3B0
102
{ACAD_REACTORS
330
D
102
}
330
D
100
AcDbGroup
300
GRP259
 70
     1
 71
     1
340
19F
340
1A1
340
1B1
340
1B2
340
1B3
340
1B4
340
1B5
340
1B6
340
1B7
340
1B9
340
1BA
340
1BC
340
1BD
340
1BE
340
1EE
340
219
340
21A
340
21B
340
21C
340
21D
340
21E
340
22C
340
22D
  0
GROUP
  5
3AC
102
{ACAD_REACTORS
330
D
102
}
330
D
100
AcDbGroup
300
GRP324
 70
     1
 71
     1
340
244
340
245
340
246
340
247
340
248
340
249
340
24A
340
24B
340
24C
340
24D
340
24E
340
24F
340
250
340
251
340
252
340
253
340
254
340
255
340
256
340
257
340
258
340
25A
340
25B
340
25C
340
25D
340
25E
340
262
340
264
340
266
340
267
340
269
340
26A
340
26E
340
281
340
285
340
286
340
287
340
288
340
2A1
340
2A2
340
2A8
340
2AE
340
2BE
340
2BF
340
2C0
340
2C1
340
2C2
340
2C3
340
2C4
  0
GROUP
  5
3AD
102
{ACAD_REACTORS
330
D
102
}
330
D
100
AcDbGroup
300
GRP3943
 70
     1
 71
     1
340
325
340
326
340
327
340
328
340
329
340
32A
340
32B
340
32C
340
32D
340
32E
340
32F
340
330
340
331
340
332
340
333
340
334
340
335
340
336
340
337
340
338
340
339
  0
GROUP
  5
3AF
102
{ACAD_REACTORS
330
D
102
}
330
D
100
AcDbGroup
300
ablaufschn
 70
     1
 71
     1
340
38
340
45
340
10E
340
110
340
136
340
22F
340
25F
340
260
340
261
340
263
340
265
340
268
340
26B
340
26C
340
2A4
340
2A5
340
2A6
340
2A7
340
2A9
340
2AA
340
2AB
340
2AC
340
2AD
340
2AF
340
2B0
340
2B1
340
2B2
340
2B3
340
2B4
340
2B5
340
2B6
340
2B7
340
2B8
340
2B9
340
2BA
340
2BB
340
2BC
340
2BD
  0
GROUP
  5
3AB
102
{ACAD_REACTORS
330
D
102
}
330
D
100
AcDbGroup
300
ablaufschn
 70
     1
 71
     1
340
243
340
30E
340
30F
340
310
340
311
  0
LAYOUT
  5
1E
102
{ACAD_REACTORS
330
1A
102
}
330
1A
100
AcDbPlotSettings
  1

  2

  4

  6

 40
0.0
 41
0.0
 42
0.0
 43
0.0
 44
0.0
 45
0.0
 46
0.0
 47
0.0
 48
0.0
 49
0.0
140
0.0
141
0.0
142
1.0
143
1.0
 70
   688
 72
     0
 73
     0
 74
     5
  7

 75
    16
147
1.0
148
0.0
149
0.0
100
AcDbLayout
  1
Layout1
 70
     1
 71
     1
 10
300.546594
 20
31.942
 11
1140.546594
 21
625.942
 12
0.0
 22
0.0
 32
0.0
 14
300.546594
 24
31.942
 34
0.0
 15
1140.546594
 25
625.942
 35
0.0
146
0.0
 13
0.0
 23
0.0
 33
0.0
 16
1.0
 26
0.0
 36
0.0
 17
0.0
 27
1.0
 37
0.0
 76
     0
330
1B
  0
LAYOUT
  5
26
102
{ACAD_REACTORS
330
1A
102
}
330
1A
100
AcDbPlotSettings
  1

  2

  4

  6

 40
0.0
 41
0.0
 42
0.0
 43
0.0
 44
0.0
 45
0.0
 46
0.0
 47
0.0
 48
0.0
 49
0.0
140
0.0
141
0.0
142
1.0
143
1.0
 70
   688
 72
     0
 73
     0
 74
     5
  7

 75
    16
147
1.0
148
0.0
149
0.0
100
AcDbLayout
  1
Layout2
 70
     1
 71
     2
 10
0.0
 20
0.0
 11
0.0
 21
0.0
 12
0.0
 22
0.0
 32
0.0
 14
0.0
 24
0.0
 34
0.0
 15
0.0
 25
0.0
 35
0.0
146
0.0
 13
0.0
 23
0.0
 33
0.0
 16
1.0
 26
0.0
 36
0.0
 17
0.0
 27
1.0
 37
0.0
 76
     0
330
23
  0
LAYOUT
  5
22
102
{ACAD_REACTORS
330
1A
102
}
330
1A
100
AcDbPlotSettings
  1

  2

  4

  6

 40
0.0
 41
0.0
 42
0.0
 43
0.0
 44
0.0
 45
0.0
 46
0.0
 47
0.0
 48
0.0
 49
0.0
140
0.0
141
0.0
142
1.0
143
1.0
 70
  1776
 72
     0
 73
     0
 74
     0
  7

 75
     0
147
1.0
148
0.0
149
0.0
100
AcDbLayout
  1
Model
 70
     1
 71
     0
 10
300.546594
 20
31.942
 11
1140.546594
 21
625.942
 12
300.546594
 22
31.942
 32
0.0
 14
300.546594
 24
31.942
 34
0.0
 15
1140.546594
 25
625.942
 35
0.0
146
0.0
 13
0.0
 23
0.0
 33
0.0
 16
1.0
 26
0.0
 36
0.0
 17
0.0
 27
1.0
 37
0.0
 76
     0
330
1F
  0
MLINESTYLE
  5
18
102
{ACAD_REACTORS
330
17
102
}
330
17
100
AcDbMlineStyle
  2
Standard
 70
     0
  3

 62
   256
 51
90.0
 52
90.0
 71
     2
 49
0.5
 62
   256
  6
BYLAYER
 49
-0.5
 62
   256
  6
BYLAYER
  0
ACDBPLACEHOLDER
  5
F
102
{ACAD_REACTORS
330
E
102
}
330
E
  0
ENDSEC
  0
EOF
