  0
SECTION
  2
HEADER
  9
$ACADVER
  1
AC1009
  9
$INSBASE
 10
0.0
 20
0.0
 30
0.0
  9
$EXTMIN
 10
0.0
 20
0.0
 30
0.0
  9
$EXTMAX
 10
840.0
 20
594.0
 30
0.0
  9
$LIMMIN
 10
0.0
 20
0.0
  9
$LIMMAX
 10
840.0
 20
594.0
  9
$ORTHOMODE
 70
     0
  9
$REGENMODE
 70
     1
  9
$FILLMODE
 70
     1
  9
$QTEXTMODE
 70
     0
  9
$MIRRTEXT
 70
     1
  9
$DRAGMODE
 70
     2
  9
$LTSCALE
 40
2.0
  9
$OSMODE
 70
     0
  9
$ATTMODE
 70
     1
  9
$TEXTSIZE
 40
0.2
  9
$TRACEWID
 40
0.05
  9
$TEXTSTYLE
  7
STANDARD
  9
$CLAYER
  8
0
  9
$CELTYPE
  6
BYLAYER
  9
$CECOLOR
 62
     7
  9
$DIMSCALE
 40
2.0
  9
$DIMASZ
 40
3.5
  9
$DIMEXO
 40
0.0625
  9
$DIMDLI
 40
0.38
  9
$DIMRND
 40
0.0
  9
$DIMDLE
 40
0.0
  9
$DIMEXE
 40
0.18
  9
$DIMTP
 40
0.0
  9
$DIMTM
 40
0.0
  9
$DIMTXT
 40
3.5
  9
$DIMCEN
 40
0.09
  9
$DIMTSZ
 40
0.0
  9
$DIMTOL
 70
     0
  9
$DIMLIM
 70
     0
  9
$DIMTIH
 70
     1
  9
$DIMTOH
 70
     1
  9
$DIMSE1
 70
     0
  9
$DIMSE2
 70
     0
  9
$DIMTAD
 70
     1
  9
$DIMZIN
 70
     0
  9
$DIMBLK
  1

  9
$DIMASO
 70
     1
  9
$DIMSHO
 70
     1
  9
$DIMPOST
  1

  9
$DIMAPOST
  1

  9
$DIMALT
 70
     0
  9
$DIMALTD
 70
     2
  9
$DIMALTF
 40
25.4
  9
$DIMLFAC
 40
1.0
  9
$DIMTOFL
 70
     0
  9
$DIMTVP
 40
0.0
  9
$DIMTIX
 70
     0
  9
$DIMSOXD
 70
     0
  9
$DIMSAH
 70
     0
  9
$DIMBLK1
  1

  9
$DIMBLK2
  1

  9
$DIMSTYLE
  2
STANDARD
  9
$DIMCLRD
 70
     0
  9
$DIMCLRE
 70
     0
  9
$DIMCLRT
 70
     0
  9
$DIMTFAC
 40
1.0
  9
$DIMGAP
 40
0.09
  9
$LUNITS
 70
     2
  9
$LUPREC
 70
     2
  9
$AXISMODE
 70
     0
  9
$AXISUNIT
 10
0.0
 20
0.0
  9
$SKETCHINC
 40
0.1
  9
$FILLETRAD
 40
0.0
  9
$AUNITS
 70
     0
  9
$AUPREC
 70
     0
  9
$MENU
  1
acad
  9
$ELEVATION
 40
0.0
  9
$PELEVATION
 40
0.0
  9
$THICKNESS
 40
0.0
  9
$LIMCHECK
 70
     0
  9
$BLIPMODE
 70
     1
  9
$CHAMFERA
 40
0.0
  9
$CHAMFERB
 40
0.0
  9
$SKPOLY
 70
     0
  9
$TDCREATE
 40
0.000000000
  9
$TDUPDATE
 40
0.000000000
  9
$TDINDWG
 40
0.0000000000
  9
$TDUSRTIMER
 40
0.0000000000
  9
$USRTIMER
 70
     1
  9
$ANGBASE
 50
0.0
  9
$ANGDIR
 70
     0
  9
$PDMODE
 70
     0
  9
$PDSIZE
 40
0.0
  9
$PLINEWID
 40
0.0
  9
$COORDS
 70
     0
  9
$SPLFRAME
 70
     0
  9
$SPLINETYPE
 70
     6
  9
$SPLINESEGS
 70
     8
  9
$ATTDIA
 70
     0
  9
$ATTREQ
 70
     1
  9
$HANDLING
 70
     1
  9
$HANDSEED
  5
19B
  9
$SURFTAB1
 70
     6
  9
$SURFTAB2
 70
     6
  9
$SURFTYPE
 70
     6
  9
$SURFU
 70
     6
  9
$SURFV
 70
     6
  9
$UCSNAME
  2

  9
$UCSORG
 10
0.0
 20
0.0
 30
0.0
  9
$UCSXDIR
 10
1.0
 20
0.0
 30
0.0
  9
$UCSYDIR
 10
0.0
 20
1.0
 30
0.0
  9
$PUCSNAME
  2

  9
$PUCSORG
 10
0.0
 20
0.0
 30
0.0
  9
$PUCSXDIR
 10
1.0
 20
0.0
 30
0.0
  9
$PUCSYDIR
 10
0.0
 20
1.0
 30
0.0
  9
$USERI1
 70
     0
  9
$USERI2
 70
     0
  9
$USERI3
 70
     0
  9
$USERI4
 70
     0
  9
$USERI5
 70
     0
  9
$USERR1
 40
0.0
  9
$USERR2
 40
0.0
  9
$USERR3
 40
0.0
  9
$USERR4
 40
0.0
  9
$USERR5
 40
0.0
  9
$WORLDVIEW
 70
     1
  9
$SHADEDGE
 70
     3
  9
$SHADEDIF
 70
    70
  9
$TILEMODE
 70
     1
  9
$MAXACTVP
 70
    16
  9
$PINSBASE
 10
0.0
 20
0.0
 30
0.0
  9
$PLIMCHECK
 70
     0
  9
$PEXTMIN
 10
1.000000E+20
 20
1.000000E+20
 30
1.000000E+20
  9
$PEXTMAX
 10
-1.000000E+20
 20
-1.000000E+20
 30
-1.000000E+20
  9
$PLIMMIN
 10
0.0
 20
0.0
  9
$PLIMMAX
 10
840.0
 20
594.0
  9
$UNITMODE
 70
     0
  9
$VISRETAIN
 70
     0
  9
$PLINEGEN
 70
     1
  9
$PSLTSCALE
 70
     0
  9
$TREEDEPTH
 70
  3020
  9
$DWGCODEPAGE
  3
dos850
  0
ENDSEC
  0
SECTION
  2
TABLES
  0
TABLE
  2
VPORT
 70
     1
  0
VPORT
  2
*ACTIVE
 70
     0
 10
0.0
 20
0.0
 11
1.0
 21
1.0
 12
420.0
 22
297.0
 13
0.0
 23
0.0
 14
1.0
 24
1.0
 15
0.0
 25
0.0
 16
0.0
 26
0.0
 36
1.0
 17
0.0
 27
0.0
 37
0.0
 40
594.0
 41
1.604229
 42
50.0
 43
0.0
 44
0.0
 50
0.0
 51
0.0
 71
     0
 72
   100
 73
     1
 74
     1
 75
     0
 76
     0
 77
     0
 78
     0
  0
ENDTAB
  0
TABLE
  2
LTYPE
 70
     2
  0
LTYPE
  2
CONTINUOUS
 70
    64
  3
Solid line
 72
    65
 73
     0
 40
0.0
  0
LTYPE
  2
DASHDOT
 70
    64
  3
__ . __ . __ . __ . __
 72
    65
 73
     4
 40
7.5
 49
5.0
 49
-1.25
 49
0.0
 49
-1.25
  0
ENDTAB
  0
TABLE
  2
LAYER
 70
    10
  0
LAYER
  2
0
 70
     0
 62
     7
  6
CONTINUOUS
  0
LAYER
  2
LC-INFO-1-2-MM-A3-0
 70
     1
 62
    -1
  6
CONTINUOUS
  0
LAYER
  2
LC-004-005-----0
 70
     0
 62
     2
  6
CONTINUOUS
  0
LAYER
  2
LC-006-003-MTH-0
 70
     0
 62
     2
  6
CONTINUOUS
  0
LAYER
  2
LC-007-003-MTG-0
 70
     0
 62
     2
  6
CONTINUOUS
  0
LAYER
  2
LC-005-003-----0
 70
     0
 62
     2
  6
CONTINUOUS
  0
LAYER
  2
LC-003-000-----0
 70
     0
 62
     7
  6
CONTINUOUS
  0
LAYER
  2
LC-001-002-----0
 70
     0
 62
     1
  6
CONTINUOUS
  0
LAYER
  2
LC-002-001-----0
 70
     0
 62
     1
  6
CONTINUOUS
  0
LAYER
  2
LC-000
 70
     0
 62
     7
  6
CONTINUOUS
  0
ENDTAB
  0
TABLE
  2
STYLE
 70
     4
  0
STYLE
  2
STANDARD
 70
     0
 40
0.0
 41
1.0
 50
0.0
 71
     0
 42
0.0
  3
txt
  4

  0
STYLE
  2
LC-STANDARD
 70
    64
 40
0.0
 41
1.0
 50
0.0
 71
     0
 42
3.5
  3
MONOTXT
  4

  0
STYLE
  2
LC-TXTSTYLE-150-400-0-0-D2
 70
    64
 40
0.0
 41
1.0
 50
15.0
 71
     0
 42
3.5
  3
MONOTXT
  4

  0
STYLE
  2
LC-TXTSTYLE-150-400-0-0-D3
 70
    64
 40
0.0
 41
1.0
 50
15.0
 71
     0
 42
3.5
  3
LC-STANDARD
  4

  0
ENDTAB
  0
TABLE
  2
VIEW
 70
     0
  0
ENDTAB
  0
TABLE
  2
UCS
 70
     0
  0
ENDTAB
  0
TABLE
  2
APPID
 70
     1
  0
APPID
  2
ACAD
 70
     0
  0
ENDTAB
  0
TABLE
  2
DIMSTYLE
 70
     3
  0
DIMSTYLE
  2
STANDARD
 70
     0
  3

  4

  5

  6

  7

 40
1.0
 41
0.18
 42
0.0625
 43
0.38
 44
0.18
 45
0.0
 46
0.0
 47
0.0
 48
0.0
 71
     0
 72
     0
 73
     1
 74
     1
 75
     0
 76
     0
 77
     0
 78
     0
140
0.18
141
0.09
142
0.0
143
25.4
144
1.0
145
0.0
146
1.0
147
0.09
170
     0
171
     2
172
     0
173
     0
174
     0
175
     0
176
     0
177
     0
178
     0
  0
DIMSTYLE
  2
LC-STANDARD
 70
     0
  3

  4

  5

  6

  7

 40
1.0
 41
3.5
 42
0.0
 43
7.5
 44
1.8
 45
0.0
 46
0.0
 47
0.0
 48
0.0
 71
     0
 72
     0
 73
     0
 74
     0
 75
     0
 76
     0
 77
     1
 78
     8
140
3.5
141
0.0
142
0.0
143
25.4
144
1.0
145
0.0
146
0.71
147
1.5
170
     0
171
     2
172
     1
173
     0
174
     0
175
     0
176
     0
177
     0
178
     3
  0
DIMSTYLE
  2
LC-DIM-L-0090-02-02
 70
     0
  3

  4

  5

  6

  7

 40
2.0
 41
3.5
 42
0.0
 43
7.5
 44
1.8
 45
0.0
 46
0.0
 47
0.0
 48
0.0
 71
     0
 72
     0
 73
     0
 74
     0
 75
     0
 76
     0
 77
     1
 78
     8
140
9.0
141
0.0
142
0.0
143
25.4
144
1.0
145
0.0
146
0.71
147
1.5
170
     0
171
     2
172
     0
173
     0
174
     0
175
     0
176
     2
177
     2
178
     6
  0
ENDTAB
  0
ENDSEC
  0
SECTION
  2
BLOCKS
  0
BLOCK
  8
0
  5
23
  2
BLK1
 70
    64
 10
0.0
 20
0.0
 30
0.0
  3
BLK1
  0
ENDBLK
  8
0
  5
24
  0
BLOCK
  8
0
  5
26
  2
BLK2
 70
    64
 10
0.0
 20
0.0
 30
0.0
  3
BLK2
  0
ENDBLK
  8
0
  5
27
  0
BLOCK
  8
0
  5
29
  2
*X2
 70
    65
 10
306.461417
 20
443.615868
 30
0.0
  3
*X2
  0
LINE
  8
LC-004-005-----0
  6
CONTINUOUS
  5
2B
 10
306.461417
 20
444.485985
 30
0.0
 11
307.331534
 21
443.615868
 31
0.0
  0
LINE
  8
LC-004-005-----0
  6
CONTINUOUS
  5
2C
 10
306.461417
 20
448.728625
 30
0.0
 11
308.461417
 21
446.728625
 31
0.0
  0
LINE
  8
LC-004-005-----0
  6
CONTINUOUS
  5
2D
 10
310.574175
 20
444.615868
 30
0.0
 11
311.574175
 21
443.615868
 31
0.0
  0
LINE
  8
LC-004-005-----0
  6
CONTINUOUS
  5
2E
 10
308.316815
 20
451.115868
 30
0.0
 11
309.516815
 21
449.915868
 31
0.0
  0
LINE
  8
LC-004-005-----0
  6
CONTINUOUS
  5
2F
 10
314.816815
 20
444.615868
 30
0.0
 11
315.816815
 21
443.615868
 31
0.0
  0
LINE
  8
LC-004-005-----0
  6
CONTINUOUS
  5
30
 10
312.559456
 20
451.115868
 30
0.0
 11
313.759456
 21
449.915868
 31
0.0
  0
LINE
  8
LC-004-005-----0
  6
CONTINUOUS
  5
31
 10
319.059456
 20
444.615868
 30
0.0
 11
319.461417
 21
444.213907
 31
0.0
  0
LINE
  8
LC-004-005-----0
  6
CONTINUOUS
  5
32
 10
316.802097
 20
451.115868
 30
0.0
 11
318.927269
 21
448.990696
 31
0.0
  0
ENDBLK
  8
0
  5
33
  0
BLOCK
  8
0
  5
35
  2
*X3
 70
    65
 10
308.959032
 20
327.814201
 30
0.0
  3
*X3
  0
LINE
  8
LC-004-005-----0
  6
CONTINUOUS
  5
36
 10
308.959037
 20
328.851266
 30
0.0
 11
309.996082
 21
327.814222
 31
0.0
  0
LINE
  8
LC-004-005-----0
  6
CONTINUOUS
  5
37
 10
308.959045
 20
330.265471
 30
0.0
 11
309.95904
 21
329.265478
 31
0.0
  0
LINE
  8
LC-004-005-----0
  6
CONTINUOUS
  5
38
 10
310.410298
 20
328.81422
 30
0.0
 11
311.410304
 21
327.814215
 31
0.0
  0
LINE
  8
LC-004-005-----0
  6
CONTINUOUS
  5
39
 10
308.959052
 20
331.679676
 30
0.0
 11
309.959047
 21
330.679683
 31
0.0
  0
LINE
  8
LC-004-005-----0
  6
CONTINUOUS
  5
3A
 10
311.82452
 20
328.814213
 30
0.0
 11
312.824526
 21
327.814207
 31
0.0
  0
LINE
  8
LC-004-005-----0
  6
CONTINUOUS
  5
3B
 10
309.93872
 20
332.114223
 30
0.0
 11
310.938727
 21
331.114217
 31
0.0
  0
LINE
  8
LC-004-005-----0
  6
CONTINUOUS
  5
3C
 10
313.238742
 20
328.814205
 30
0.0
 11
313.959033
 21
328.093915
 31
0.0
  0
LINE
  8
LC-004-005-----0
  6
CONTINUOUS
  5
3D
 10
311.352942
 20
332.114215
 30
0.0
 11
312.352949
 21
331.11421
 31
0.0
  0
LINE
  8
LC-004-005-----0
  6
CONTINUOUS
  5
3E
 10
312.767164
 20
332.114208
 30
0.0
 11
313.767171
 21
331.114202
 31
0.0
  0
LINE
  8
LC-004-005-----0
  6
CONTINUOUS
  5
3F
 10
314.181386
 20
332.1142
 30
0.0
 11
315.181393
 21
331.114195
 31
0.0
  0
LINE
  8
LC-004-005-----0
  6
CONTINUOUS
  5
40
 10
315.595608
 20
332.114193
 30
0.0
 11
316.595615
 21
331.114187
 31
0.0
  0
LINE
  8
LC-004-005-----0
  6
CONTINUOUS
  5
41
 10
317.00983
 20
332.114185
 30
0.0
 11
318.009837
 21
331.11418
 31
0.0
  0
LINE
  8
LC-004-005-----0
  6
CONTINUOUS
  5
42
 10
318.424052
 20
332.114178
 30
0.0
 11
319.424059
 21
331.114172
 31
0.0
  0
LINE
  8
LC-004-005-----0
  6
CONTINUOUS
  5
43
 10
319.838274
 20
332.11417
 30
0.0
 11
320.838281
 21
331.114165
 31
0.0
  0
LINE
  8
LC-004-005-----0
  6
CONTINUOUS
  5
44
 10
320.194303
 20
333.172354
 30
0.0
 11
321.095207
 21
332.271451
 31
0.0
  0
LINE
  8
LC-004-005-----0
  6
CONTINUOUS
  5
45
 10
320.343174
 20
334.437696
 30
0.0
 11
321.244078
 21
333.536794
 31
0.0
  0
LINE
  8
LC-004-005-----0
  6
CONTINUOUS
  5
46
 10
320.492044
 20
335.703038
 30
0.0
 11
321.392948
 21
334.802136
 31
0.0
  0
LINE
  8
LC-004-005-----0
  6
CONTINUOUS
  5
47
 10
320.640915
 20
336.968381
 30
0.0
 11
321.541819
 21
336.067478
 31
0.0
  0
LINE
  8
LC-004-005-----0
  6
CONTINUOUS
  5
48
 10
320.789786
 20
338.233723
 30
0.0
 11
321.690689
 21
337.33282
 31
0.0
  0
LINE
  8
LC-004-005-----0
  6
CONTINUOUS
  5
49
 10
320.938656
 20
339.499065
 30
0.0
 11
321.83956
 21
338.598162
 31
0.0
  0
LINE
  8
LC-004-005-----0
  6
CONTINUOUS
  5
4A
 10
321.087527
 20
340.764407
 30
0.0
 11
322.288449
 21
339.563487
 31
0.0
  0
LINE
  8
LC-004-005-----0
  6
CONTINUOUS
  5
4B
 10
321.236397
 20
342.02975
 30
0.0
 11
322.137301
 21
341.128847
 31
0.0
  0
LINE
  8
LC-004-005-----0
  6
CONTINUOUS
  5
4C
 10
322.765418
 20
340.500731
 30
0.0
 11
323.959804
 21
339.306347
 31
0.0
  0
LINE
  8
LC-004-005-----0
  6
CONTINUOUS
  5
4D
 10
321.385268
 20
343.295092
 30
0.0
 11
322.286172
 21
342.394189
 31
0.0
  0
LINE
  8
LC-004-005-----0
  6
CONTINUOUS
  5
4E
 10
324.436378
 20
340.243986
 30
0.0
 11
325.63116
 21
339.049206
 31
0.0
  0
LINE
  8
LC-004-005-----0
  6
CONTINUOUS
  5
4F
 10
321.534139
 20
344.560434
 30
0.0
 11
322.435042
 21
343.659531
 31
0.0
  0
LINE
  8
LC-004-005-----0
  6
CONTINUOUS
  5
50
 10
326.107338
 20
339.98724
 30
0.0
 11
327.302515
 21
338.792065
 31
0.0
  0
LINE
  8
LC-004-005-----0
  6
CONTINUOUS
  5
51
 10
321.683009
 20
345.825776
 30
0.0
 11
322.583913
 21
344.924874
 31
0.0
  0
LINE
  8
LC-004-005-----0
  6
CONTINUOUS
  5
52
 10
327.778299
 20
339.730495
 30
0.0
 11
328.459092
 21
339.049703
 31
0.0
  0
LINE
  8
LC-004-005-----0
  6
CONTINUOUS
  5
53
 10
321.83188
 20
347.091118
 30
0.0
 11
322.732784
 21
346.190216
 31
0.0
  0
LINE
  8
LC-004-005-----0
  6
CONTINUOUS
  5
54
 10
321.98075
 20
348.356461
 30
0.0
 11
323.723064
 21
346.614149
 31
0.0
  0
LINE
  8
LC-004-005-----0
  6
CONTINUOUS
  5
55
 10
322.129621
 20
349.621803
 30
0.0
 11
323.782668
 21
347.968758
 31
0.0
  0
LINE
  8
LC-004-005-----0
  6
CONTINUOUS
  5
56
 10
322.551481
 20
350.614156
 30
0.0
 11
323.782676
 21
349.382963
 31
0.0
  0
ENDBLK
  8
0
  5
57
  0
BLOCK
  8
0
  5
59
  2
*X4
 70
    65
 10
306.461417
 20
326.115868
 30
0.0
  3
*X4
  0
LINE
  8
LC-004-005-----0
  6
CONTINUOUS
  5
5A
 10
306.461417
 20
329.93467
 30
0.0
 11
308.459033
 21
327.937058
 31
0.0
  0
LINE
  8
LC-004-005-----0
  6
CONTINUOUS
  5
5B
 10
309.081864
 20
327.314227
 30
0.0
 11
310.280225
 21
326.115868
 31
0.0
  0
LINE
  8
LC-004-005-----0
  6
CONTINUOUS
  5
5C
 10
307.024488
 20
333.614238
 30
0.0
 11
308.459055
 21
332.179673
 31
0.0
  0
LINE
  8
LC-004-005-----0
  6
CONTINUOUS
  5
5D
 10
313.32453
 20
327.314205
 30
0.0
 11
314.522869
 21
326.115868
 31
0.0
  0
LINE
  8
LC-004-005-----0
  6
CONTINUOUS
  5
5E
 10
311.267154
 20
333.614216
 30
0.0
 11
312.267161
 21
332.61421
 31
0.0
  0
LINE
  8
LC-004-005-----0
  6
CONTINUOUS
  5
5F
 10
316.864647
 20
328.01673
 30
0.0
 11
318.765512
 21
326.115868
 31
0.0
  0
LINE
  8
LC-004-005-----0
  6
CONTINUOUS
  5
60
 10
315.50982
 20
333.614193
 30
0.0
 11
316.509827
 21
332.614188
 31
0.0
  0
ENDBLK
  8
0
  5
61
  0
BLOCK
  8
0
  5
63
  2
*X5
 70
    65
 10
312.278404
 20
421.115868
 30
0.0
  3
*X5
  0
LINE
  8
LC-004-005-----0
  6
CONTINUOUS
  5
64
 10
312.278404
 20
447.154189
 30
0.0
 11
313.016727
 21
446.415868
 31
0.0
  0
LINE
  8
LC-004-005-----0
  6
CONTINUOUS
  5
65
 10
314.449692
 20
449.225542
 30
0.0
 11
317.25937
 21
446.415868
 31
0.0
  0
LINE
  8
LC-004-005-----0
  6
CONTINUOUS
  5
66
 10
319.25725
 20
448.660628
 30
0.0
 11
321.502014
 21
446.415868
 31
0.0
  0
LINE
  8
LC-004-005-----0
  6
CONTINUOUS
  5
67
 10
321.044651
 20
451.115868
 30
0.0
 11
325.744657
 21
446.415868
 31
0.0
  0
LINE
  8
LC-004-005-----0
  6
CONTINUOUS
  5
68
 10
325.287295
 20
451.115868
 30
0.0
 11
329.987301
 21
446.415868
 31
0.0
  0
LINE
  8
LC-004-005-----0
  6
CONTINUOUS
  5
69
 10
329.529938
 20
451.115868
 30
0.0
 11
334.229944
 21
446.415868
 31
0.0
  0
LINE
  8
LC-004-005-----0
  6
CONTINUOUS
  5
6A
 10
353.961417
 20
426.684421
 30
0.0
 11
354.529971
 21
426.115868
 31
0.0
  0
LINE
  8
LC-004-005-----0
  6
CONTINUOUS
  5
6B
 10
333.772582
 20
451.115868
 30
0.0
 11
338.472588
 21
446.415868
 31
0.0
  0
LINE
  8
LC-004-005-----0
  6
CONTINUOUS
  5
6C
 10
353.961417
 20
430.927059
 30
0.0
 11
358.772615
 21
426.115868
 31
0.0
  0
LINE
  8
LC-004-005-----0
  6
CONTINUOUS
  5
6D
 10
338.015225
 20
451.115868
 30
0.0
 11
342.785564
 21
446.345535
 31
0.0
  0
LINE
  8
LC-004-005-----0
  6
CONTINUOUS
  5
6E
 10
353.891083
 20
435.240031
 30
0.0
 11
356.461417
 21
432.6697
 31
0.0
  0
LINE
  8
LC-004-005-----0
  6
CONTINUOUS
  5
6F
 10
360.515255
 20
428.615868
 30
0.0
 11
363.015258
 21
426.115868
 31
0.0
  0
LINE
  8
LC-004-005-----0
  6
CONTINUOUS
  5
70
 10
342.280234
 20
451.093502
 30
0.0
 11
356.439051
 21
436.934705
 31
0.0
  0
LINE
  8
LC-004-005-----0
  6
CONTINUOUS
  5
71
 10
364.757899
 20
428.615868
 30
0.0
 11
367.257902
 21
426.115868
 31
0.0
  0
LINE
  8
LC-004-005-----0
  6
CONTINUOUS
  5
72
 10
348.001218
 20
449.615164
 30
0.0
 11
354.960705
 21
442.655686
 31
0.0
  0
LINE
  8
LC-004-005-----0
  6
CONTINUOUS
  5
73
 10
369.000542
 20
428.615868
 30
0.0
 11
371.500545
 21
426.115868
 31
0.0
  0
LINE
  8
LC-004-005-----0
  6
CONTINUOUS
  5
74
 10
373.243186
 20
428.615868
 30
0.0
 11
375.743189
 21
426.115868
 31
0.0
  0
LINE
  8
LC-004-005-----0
  6
CONTINUOUS
  5
75
 10
377.485829
 20
428.615868
 30
0.0
 11
379.985832
 21
426.115868
 31
0.0
  0
LINE
  8
LC-004-005-----0
  6
CONTINUOUS
  5
76
 10
381.728473
 20
428.615868
 30
0.0
 11
384.228476
 21
426.115868
 31
0.0
  0
LINE
  8
LC-004-005-----0
  6
CONTINUOUS
  5
77
 10
385.971116
 20
428.615868
 30
0.0
 11
388.471119
 21
426.115868
 31
0.0
  0
LINE
  8
LC-004-005-----0
  6
CONTINUOUS
  5
78
 10
390.21376
 20
428.615868
 30
0.0
 11
392.713763
 21
426.115868
 31
0.0
  0
LINE
  8
LC-004-005-----0
  6
CONTINUOUS
  5
79
 10
394.456403
 20
428.615868
 30
0.0
 11
396.956406
 21
426.115868
 31
0.0
  0
LINE
  8
LC-004-005-----0
  6
CONTINUOUS
  5
7A
 10
398.699047
 20
428.615868
 30
0.0
 11
401.19905
 21
426.115868
 31
0.0
  0
LINE
  8
LC-004-005-----0
  6
CONTINUOUS
  5
7B
 10
402.94169
 20
428.615868
 30
0.0
 11
405.441693
 21
426.115868
 31
0.0
  0
LINE
  8
LC-004-005-----0
  6
CONTINUOUS
  5
7C
 10
407.184334
 20
428.615868
 30
0.0
 11
409.684337
 21
426.115868
 31
0.0
  0
LINE
  8
LC-004-005-----0
  6
CONTINUOUS
  5
7D
 10
411.426977
 20
428.615868
 30
0.0
 11
413.92698
 21
426.115868
 31
0.0
  0
LINE
  8
LC-004-005-----0
  6
CONTINUOUS
  5
7E
 10
415.669621
 20
428.615868
 30
0.0
 11
418.169624
 21
426.115868
 31
0.0
  0
LINE
  8
LC-004-005-----0
  6
CONTINUOUS
  5
7F
 10
419.912264
 20
428.615868
 30
0.0
 11
422.412267
 21
426.115868
 31
0.0
  0
LINE
  8
LC-004-005-----0
  6
CONTINUOUS
  5
80
 10
424.154908
 20
428.615868
 30
0.0
 11
426.654911
 21
426.115868
 31
0.0
  0
LINE
  8
LC-004-005-----0
  6
CONTINUOUS
  5
81
 10
428.397551
 20
428.615868
 30
0.0
 11
430.897554
 21
426.115868
 31
0.0
  0
LINE
  8
LC-004-005-----0
  6
CONTINUOUS
  5
82
 10
432.640195
 20
428.615868
 30
0.0
 11
435.140198
 21
426.115868
 31
0.0
  0
LINE
  8
LC-004-005-----0
  6
CONTINUOUS
  5
83
 10
436.882838
 20
428.615868
 30
0.0
 11
439.382841
 21
426.115868
 31
0.0
  0
LINE
  8
LC-004-005-----0
  6
CONTINUOUS
  5
84
 10
441.125482
 20
428.615868
 30
0.0
 11
443.625485
 21
426.115868
 31
0.0
  0
LINE
  8
LC-004-005-----0
  6
CONTINUOUS
  5
85
 10
445.368125
 20
428.615868
 30
0.0
 11
447.868128
 21
426.115868
 31
0.0
  0
LINE
  8
LC-004-005-----0
  6
CONTINUOUS
  5
86
 10
449.610769
 20
428.615868
 30
0.0
 11
452.110772
 21
426.115868
 31
0.0
  0
LINE
  8
LC-004-005-----0
  6
CONTINUOUS
  5
87
 10
453.853412
 20
428.615868
 30
0.0
 11
456.353415
 21
426.115868
 31
0.0
  0
LINE
  8
LC-004-005-----0
  6
CONTINUOUS
  5
88
 10
458.096056
 20
428.615868
 30
0.0
 11
460.596059
 21
426.115868
 31
0.0
  0
LINE
  8
LC-004-005-----0
  6
CONTINUOUS
  5
89
 10
462.338699
 20
428.615868
 30
0.0
 11
464.838702
 21
426.115868
 31
0.0
  0
ENDBLK
  8
0
  5
8A
  0
BLOCK
  8
0
  5
8C
  2
*X6
 70
    65
 10
312.276027
 20
300.814083
 30
0.0
  3
*X6
  0
LINE
  8
LC-004-005-----0
  6
CONTINUOUS
  5
8D
 10
314.067173
 20
330.814201
 30
0.0
 11
316.531869
 21
328.349507
 31
0.0
  0
LINE
  8
LC-004-005-----0
  6
CONTINUOUS
  5
8E
 10
318.309839
 20
330.814178
 30
0.0
 11
323.008156
 21
326.115868
 31
0.0
  0
LINE
  8
LC-004-005-----0
  6
CONTINUOUS
  5
8F
 10
322.552505
 20
330.814156
 30
0.0
 11
327.250799
 21
326.115868
 31
0.0
  0
LINE
  8
LC-004-005-----0
  6
CONTINUOUS
  5
90
 10
326.795171
 20
330.814133
 30
0.0
 11
331.493443
 21
326.115868
 31
0.0
  0
LINE
  8
LC-004-005-----0
  6
CONTINUOUS
  5
91
 10
331.037837
 20
330.814111
 30
0.0
 11
335.736086
 21
326.115868
 31
0.0
  0
LINE
  8
LC-004-005-----0
  6
CONTINUOUS
  5
92
 10
335.280503
 20
330.814088
 30
0.0
 11
340.360518
 21
325.73408
 31
0.0
  0
LINE
  8
LC-004-005-----0
  6
CONTINUOUS
  5
93
 10
339.973742
 20
330.363493
 30
0.0
 11
350.47505
 21
319.862198
 31
0.0
  0
LINE
  8
LC-004-005-----0
  6
CONTINUOUS
  5
94
 10
351.47213
 20
323.107758
 30
0.0
 11
355.955492
 21
318.624402
 31
0.0
  0
LINE
  8
LC-004-005-----0
  6
CONTINUOUS
  5
95
 10
357.694684
 20
321.127851
 30
0.0
 11
360.20667
 21
318.615868
 31
0.0
  0
LINE
  8
LC-004-005-----0
  6
CONTINUOUS
  5
96
 10
361.94931
 20
321.115868
 30
0.0
 11
364.449313
 21
318.615868
 31
0.0
  0
LINE
  8
LC-004-005-----0
  6
CONTINUOUS
  5
97
 10
366.191954
 20
321.115868
 30
0.0
 11
368.691957
 21
318.615868
 31
0.0
  0
LINE
  8
LC-004-005-----0
  6
CONTINUOUS
  5
98
 10
370.434597
 20
321.115868
 30
0.0
 11
372.9346
 21
318.615868
 31
0.0
  0
LINE
  8
LC-004-005-----0
  6
CONTINUOUS
  5
99
 10
374.677241
 20
321.115868
 30
0.0
 11
377.177244
 21
318.615868
 31
0.0
  0
LINE
  8
LC-004-005-----0
  6
CONTINUOUS
  5
9A
 10
378.919884
 20
321.115868
 30
0.0
 11
381.419887
 21
318.615868
 31
0.0
  0
LINE
  8
LC-004-005-----0
  6
CONTINUOUS
  5
9B
 10
383.162528
 20
321.115868
 30
0.0
 11
385.662531
 21
318.615868
 31
0.0
  0
LINE
  8
LC-004-005-----0
  6
CONTINUOUS
  5
9C
 10
387.405171
 20
321.115868
 30
0.0
 11
389.905174
 21
318.615868
 31
0.0
  0
LINE
  8
LC-004-005-----0
  6
CONTINUOUS
  5
9D
 10
391.647815
 20
321.115868
 30
0.0
 11
394.147818
 21
318.615868
 31
0.0
  0
LINE
  8
LC-004-005-----0
  6
CONTINUOUS
  5
9E
 10
395.890458
 20
321.115868
 30
0.0
 11
398.390461
 21
318.615868
 31
0.0
  0
LINE
  8
LC-004-005-----0
  6
CONTINUOUS
  5
9F
 10
400.133102
 20
321.115868
 30
0.0
 11
402.633105
 21
318.615868
 31
0.0
  0
LINE
  8
LC-004-005-----0
  6
CONTINUOUS
  5
A0
 10
404.375745
 20
321.115868
 30
0.0
 11
406.875748
 21
318.615868
 31
0.0
  0
LINE
  8
LC-004-005-----0
  6
CONTINUOUS
  5
A1
 10
408.618389
 20
321.115868
 30
0.0
 11
411.118392
 21
318.615868
 31
0.0
  0
LINE
  8
LC-004-005-----0
  6
CONTINUOUS
  5
A2
 10
412.861032
 20
321.115868
 30
0.0
 11
415.361035
 21
318.615868
 31
0.0
  0
LINE
  8
LC-004-005-----0
  6
CONTINUOUS
  5
A3
 10
417.103676
 20
321.115868
 30
0.0
 11
419.603679
 21
318.615868
 31
0.0
  0
LINE
  8
LC-004-005-----0
  6
CONTINUOUS
  5
A4
 10
421.346319
 20
321.115868
 30
0.0
 11
423.846322
 21
318.615868
 31
0.0
  0
LINE
  8
LC-004-005-----0
  6
CONTINUOUS
  5
A5
 10
425.588963
 20
321.115868
 30
0.0
 11
428.088966
 21
318.615868
 31
0.0
  0
LINE
  8
LC-004-005-----0
  6
CONTINUOUS
  5
A6
 10
429.831606
 20
321.115868
 30
0.0
 11
432.33161
 21
318.615868
 31
0.0
  0
LINE
  8
LC-004-005-----0
  6
CONTINUOUS
  5
A7
 10
434.07425
 20
321.115868
 30
0.0
 11
436.574253
 21
318.615868
 31
0.0
  0
LINE
  8
LC-004-005-----0
  6
CONTINUOUS
  5
A8
 10
438.316893
 20
321.115868
 30
0.0
 11
440.816897
 21
318.615868
 31
0.0
  0
LINE
  8
LC-004-005-----0
  6
CONTINUOUS
  5
A9
 10
442.559537
 20
321.115868
 30
0.0
 11
445.05954
 21
318.615868
 31
0.0
  0
LINE
  8
LC-004-005-----0
  6
CONTINUOUS
  5
AA
 10
446.80218
 20
321.115868
 30
0.0
 11
449.302184
 21
318.615868
 31
0.0
  0
LINE
  8
LC-004-005-----0
  6
CONTINUOUS
  5
AB
 10
451.044824
 20
321.115868
 30
0.0
 11
453.544827
 21
318.615868
 31
0.0
  0
LINE
  8
LC-004-005-----0
  6
CONTINUOUS
  5
AC
 10
455.287467
 20
321.115868
 30
0.0
 11
457.787471
 21
318.615868
 31
0.0
  0
LINE
  8
LC-004-005-----0
  6
CONTINUOUS
  5
AD
 10
459.530111
 20
321.115868
 30
0.0
 11
462.030114
 21
318.615868
 31
0.0
  0
LINE
  8
LC-004-005-----0
  6
CONTINUOUS
  5
AE
 10
463.772754
 20
321.115868
 30
0.0
 11
464.994875
 21
319.893749
 31
0.0
  0
ENDBLK
  8
0
  5
AF
  0
BLOCK
  8
0
  5
B1
  2
*D7
 70
    65
 10
0.0
 20
0.0
 30
0.0
  3
*D7
  0
LINE
  8
LC-006-003-MTH-0
  6
CONTINUOUS
  5
B3
 10
306.461417
 20
326.115868
 30
0.0
 11
306.461417
 21
259.2
 31
0.0
  0
LINE
  8
LC-006-003-MTH-0
  6
CONTINUOUS
  5
B4
 10
466.461417
 20
321.115868
 30
0.0
 11
466.461417
 21
259.2
 31
0.0
  0
LINE
  8
LC-007-003-MTG-0
  6
CONTINUOUS
  5
B6
 10
306.461417
 20
270.0
 30
0.0
 11
466.461417
 21
270.0
 31
0.0
  0
LINE
  8
LC-005-003-----0
  6
CONTINUOUS
  5
B8
 10
324.307425
 20
272.349471
 30
0.0
 11
306.461417
 21
270.0
 31
0.0
  0
LINE
  8
LC-005-003-----0
  6
CONTINUOUS
  5
B9
 10
306.461417
 20
270.0
 30
0.0
 11
324.307425
 21
267.650529
 31
0.0
  0
LINE
  8
LC-005-003-----0
  6
CONTINUOUS
  5
BA
 10
324.307425
 20
267.650529
 30
0.0
 11
324.307425
 21
272.349471
 31
0.0
  0
LINE
  8
LC-005-003-----0
  6
CONTINUOUS
  5
BB
 10
324.347463
 20
271.738609
 30
0.0
 11
311.141417
 21
270.0
 31
0.0
  0
LINE
  8
LC-005-003-----0
  6
CONTINUOUS
  5
BC
 10
311.141417
 20
270.0
 30
0.0
 11
324.347463
 21
268.261391
 31
0.0
  0
LINE
  8
LC-005-003-----0
  6
CONTINUOUS
  5
BD
 10
324.387501
 20
271.127746
 30
0.0
 11
315.821417
 21
270.0
 31
0.0
  0
LINE
  8
LC-005-003-----0
  6
CONTINUOUS
  5
BE
 10
315.821417
 20
270.0
 30
0.0
 11
324.387501
 21
268.872254
 31
0.0
  0
LINE
  8
LC-005-003-----0
  6
CONTINUOUS
  5
BF
 10
324.427539
 20
270.516884
 30
0.0
 11
320.501417
 21
270.0
 31
0.0
  0
LINE
  8
LC-005-003-----0
  6
CONTINUOUS
  5
C0
 10
320.501417
 20
270.0
 30
0.0
 11
324.427539
 21
269.483116
 31
0.0
  0
LINE
  8
LC-005-003-----0
  6
CONTINUOUS
  5
C1
 10
448.61541
 20
267.650529
 30
0.0
 11
466.461417
 21
270.0
 31
0.0
  0
LINE
  8
LC-005-003-----0
  6
CONTINUOUS
  5
C2
 10
466.461417
 20
270.0
 30
0.0
 11
448.61541
 21
272.349471
 31
0.0
  0
LINE
  8
LC-005-003-----0
  6
CONTINUOUS
  5
C3
 10
448.61541
 20
272.349471
 30
0.0
 11
448.61541
 21
267.650529
 31
0.0
  0
LINE
  8
LC-005-003-----0
  6
CONTINUOUS
  5
C4
 10
448.575371
 20
268.261391
 30
0.0
 11
461.781417
 21
270.0
 31
0.0
  0
LINE
  8
LC-005-003-----0
  6
CONTINUOUS
  5
C5
 10
461.781417
 20
270.0
 30
0.0
 11
448.575371
 21
271.738609
 31
0.0
  0
LINE
  8
LC-005-003-----0
  6
CONTINUOUS
  5
C6
 10
448.535333
 20
268.872254
 30
0.0
 11
457.101417
 21
270.0
 31
0.0
  0
LINE
  8
LC-005-003-----0
  6
CONTINUOUS
  5
C7
 10
457.101417
 20
270.0
 30
0.0
 11
448.535333
 21
271.127746
 31
0.0
  0
LINE
  8
LC-005-003-----0
  6
CONTINUOUS
  5
C8
 10
448.495295
 20
269.483116
 30
0.0
 11
452.421417
 21
270.0
 31
0.0
  0
LINE
  8
LC-005-003-----0
  6
CONTINUOUS
  5
C9
 10
452.421417
 20
270.0
 30
0.0
 11
448.495295
 21
270.516884
 31
0.0
  0
TEXT
  8
LC-005-003-----0
  6
CONTINUOUS
 62
     6
  5
CB
 10
362.493043
 20
280.431999
 30
0.0
 40
18.0
  1
160
 41
0.9
 51
15.0
  7
LC-TXTSTYLE-150-400-0-0-D0
 72
     1
 11
381.626901
 21
280.431999
 31
0.0
  0
ENDBLK
  8
0
  5
CC
  0
BLOCK
  8
0
  5
CE
  2
*D8
 70
    65
 10
0.0
 20
0.0
 30
0.0
  3
*D8
  0
LINE
  8
LC-006-003-MTH-0
  6
CONTINUOUS
  5
CF
 10
356.461417
 20
373.615868
 30
0.0
 11
269.2
 21
373.615868
 31
0.0
  0
LINE
  8
LC-006-003-MTH-0
  6
CONTINUOUS
  5
D0
 10
306.461417
 20
388.615868
 30
0.0
 11
269.2
 21
388.615868
 31
0.0
  0
LINE
  8
LC-005-003-----0
  6
CONTINUOUS
  5
D1
 10
282.349471
 20
355.76986
 30
0.0
 11
280.0
 21
373.615868
 31
0.0
  0
LINE
  8
LC-005-003-----0
  6
CONTINUOUS
  5
D2
 10
280.0
 20
373.615868
 30
0.0
 11
277.650529
 21
355.76986
 31
0.0
  0
LINE
  8
LC-005-003-----0
  6
CONTINUOUS
  5
D3
 10
277.650529
 20
355.76986
 30
0.0
 11
282.349471
 21
355.76986
 31
0.0
  0
LINE
  8
LC-005-003-----0
  6
CONTINUOUS
  5
D4
 10
281.738609
 20
355.729822
 30
0.0
 11
280.0
 21
368.935868
 31
0.0
  0
LINE
  8
LC-005-003-----0
  6
CONTINUOUS
  5
D5
 10
280.0
 20
368.935868
 30
0.0
 11
278.261391
 21
355.729822
 31
0.0
  0
LINE
  8
LC-005-003-----0
  6
CONTINUOUS
  5
D6
 10
281.127746
 20
355.689784
 30
0.0
 11
280.0
 21
364.255868
 31
0.0
  0
LINE
  8
LC-005-003-----0
  6
CONTINUOUS
  5
D7
 10
280.0
 20
364.255868
 30
0.0
 11
278.872254
 21
355.689784
 31
0.0
  0
LINE
  8
LC-005-003-----0
  6
CONTINUOUS
  5
D8
 10
280.516884
 20
355.649746
 30
0.0
 11
280.0
 21
359.575868
 31
0.0
  0
LINE
  8
LC-005-003-----0
  6
CONTINUOUS
  5
D9
 10
280.0
 20
359.575868
 30
0.0
 11
279.483116
 21
355.649746
 31
0.0
  0
LINE
  8
LC-005-003-----0
  6
CONTINUOUS
  5
DA
 10
277.650529
 20
406.461875
 30
0.0
 11
280.0
 21
388.615868
 31
0.0
  0
LINE
  8
LC-005-003-----0
  6
CONTINUOUS
  5
DB
 10
280.0
 20
388.615868
 30
0.0
 11
282.349471
 21
406.461875
 31
0.0
  0
LINE
  8
LC-005-003-----0
  6
CONTINUOUS
  5
DC
 10
282.349471
 20
406.461875
 30
0.0
 11
277.650529
 21
406.461875
 31
0.0
  0
LINE
  8
LC-005-003-----0
  6
CONTINUOUS
  5
DD
 10
278.261391
 20
406.501913
 30
0.0
 11
280.0
 21
393.295868
 31
0.0
  0
LINE
  8
LC-005-003-----0
  6
CONTINUOUS
  5
DE
 10
280.0
 20
393.295868
 30
0.0
 11
281.738609
 21
406.501913
 31
0.0
  0
LINE
  8
LC-005-003-----0
  6
CONTINUOUS
  5
DF
 10
278.872254
 20
406.541951
 30
0.0
 11
280.0
 21
397.975868
 31
0.0
  0
LINE
  8
LC-005-003-----0
  6
CONTINUOUS
  5
E0
 10
280.0
 20
397.975868
 30
0.0
 11
281.127746
 21
406.541951
 31
0.0
  0
LINE
  8
LC-005-003-----0
  6
CONTINUOUS
  5
E1
 10
279.483116
 20
406.581989
 30
0.0
 11
280.0
 21
402.655868
 31
0.0
  0
LINE
  8
LC-005-003-----0
  6
CONTINUOUS
  5
E2
 10
280.0
 20
402.655868
 30
0.0
 11
280.516884
 21
406.581989
 31
0.0
  0
LINE
  8
LC-007-003-MTG-0
  6
CONTINUOUS
  5
E3
 10
280.0
 20
348.415868
 30
0.0
 11
280.0
 21
446.618387
 31
0.0
  0
TEXT
  8
LC-005-003-----0
  6
CONTINUOUS
 62
     6
  5
E4
 10
269.568001
 20
415.891113
 30
0.0
 40
18.0
  1
15
 50
90.0
 51
15.0
  7
LC-TXTSTYLE-150-400-0-0-D0
  0
ENDBLK
  8
0
  5
E5
  0
BLOCK
  8
0
  5
E7
  2
*D9
 70
    65
 10
0.0
 20
0.0
 30
0.0
  3
*D9
  0
LINE
  8
LC-006-003-MTH-0
  6
CONTINUOUS
  5
E8
 10
463.461417
 20
318.615868
 30
0.0
 11
540.8
 21
318.615868
 31
0.0
  0
LINE
  8
LC-006-003-MTH-0
  6
CONTINUOUS
  5
E9
 10
463.461417
 20
428.615868
 30
0.0
 11
540.8
 21
428.615868
 31
0.0
  0
LINE
  8
LC-007-003-MTG-0
  6
CONTINUOUS
  5
EA
 10
530.0
 20
318.615868
 30
0.0
 11
530.0
 21
428.615868
 31
0.0
  0
LINE
  8
LC-005-003-----0
  6
CONTINUOUS
  5
EB
 10
527.650529
 20
336.461875
 30
0.0
 11
530.0
 21
318.615868
 31
0.0
  0
LINE
  8
LC-005-003-----0
  6
CONTINUOUS
  5
EC
 10
530.0
 20
318.615868
 30
0.0
 11
532.349471
 21
336.461875
 31
0.0
  0
LINE
  8
LC-005-003-----0
  6
CONTINUOUS
  5
ED
 10
532.349471
 20
336.461875
 30
0.0
 11
527.650529
 21
336.461875
 31
0.0
  0
LINE
  8
LC-005-003-----0
  6
CONTINUOUS
  5
EE
 10
528.261391
 20
336.501913
 30
0.0
 11
530.0
 21
323.295868
 31
0.0
  0
LINE
  8
LC-005-003-----0
  6
CONTINUOUS
  5
EF
 10
530.0
 20
323.295868
 30
0.0
 11
531.738609
 21
336.501913
 31
0.0
  0
LINE
  8
LC-005-003-----0
  6
CONTINUOUS
  5
F0
 10
528.872254
 20
336.541951
 30
0.0
 11
530.0
 21
327.975868
 31
0.0
  0
LINE
  8
LC-005-003-----0
  6
CONTINUOUS
  5
F1
 10
530.0
 20
327.975868
 30
0.0
 11
531.127746
 21
336.541951
 31
0.0
  0
LINE
  8
LC-005-003-----0
  6
CONTINUOUS
  5
F2
 10
529.483116
 20
336.581989
 30
0.0
 11
530.0
 21
332.655868
 31
0.0
  0
LINE
  8
LC-005-003-----0
  6
CONTINUOUS
  5
F3
 10
530.0
 20
332.655868
 30
0.0
 11
530.516884
 21
336.581989
 31
0.0
  0
LINE
  8
LC-005-003-----0
  6
CONTINUOUS
  5
F4
 10
532.349471
 20
410.76986
 30
0.0
 11
530.0
 21
428.615868
 31
0.0
  0
LINE
  8
LC-005-003-----0
  6
CONTINUOUS
  5
F5
 10
530.0
 20
428.615868
 30
0.0
 11
527.650529
 21
410.76986
 31
0.0
  0
LINE
  8
LC-005-003-----0
  6
CONTINUOUS
  5
F6
 10
527.650529
 20
410.76986
 30
0.0
 11
532.349471
 21
410.76986
 31
0.0
  0
LINE
  8
LC-005-003-----0
  6
CONTINUOUS
  5
F7
 10
531.738609
 20
410.729822
 30
0.0
 11
530.0
 21
423.935868
 31
0.0
  0
LINE
  8
LC-005-003-----0
  6
CONTINUOUS
  5
F8
 10
530.0
 20
423.935868
 30
0.0
 11
528.261391
 21
410.729822
 31
0.0
  0
LINE
  8
LC-005-003-----0
  6
CONTINUOUS
  5
F9
 10
531.127746
 20
410.689784
 30
0.0
 11
530.0
 21
419.255868
 31
0.0
  0
LINE
  8
LC-005-003-----0
  6
CONTINUOUS
  5
FA
 10
530.0
 20
419.255868
 30
0.0
 11
528.872254
 21
410.689784
 31
0.0
  0
LINE
  8
LC-005-003-----0
  6
CONTINUOUS
  5
FB
 10
530.516884
 20
410.649746
 30
0.0
 11
530.0
 21
414.575868
 31
0.0
  0
LINE
  8
LC-005-003-----0
  6
CONTINUOUS
  5
FC
 10
530.0
 20
414.575868
 30
0.0
 11
529.483116
 21
410.649746
 31
0.0
  0
TEXT
  8
LC-005-003-----0
  6
CONTINUOUS
 62
     6
  5
FD
 10
519.568001
 20
336.805655
 30
0.0
 40
18.0
  1
DN100
 50
90.0
 51
15.0
  7
LC-TXTSTYLE-150-400-0-0-D0
 72
     1
 11
519.568001
 21
370.481246
 31
0.0
  0
ENDBLK
  8
0
  5
FE
  0
ENDSEC
  0
SECTION
  2
ENTITIES
  0
VIEWPORT
  8
LC-000
  5
195
 67
     1
 68
     1
 10
420.0
 20
297.0
 30
0.0
 40
840.0
 41
594.0
 69
     1
1001
ACAD
1000
MVIEW
1002
{
1070
    16
1010
0.0
1020
0.0
1030
0.0
1010
0.0
1020
0.0
1030
1.0
1040
0.0
1040
594.0
1040
420.0
1040
297.0
1040
50.0
1040
0.0
1040
0.0
1070
     0
1070
   100
1070
     1
1070
     1
1070
     0
1070
     0
1070
     0
1070
     0
1040
0.0
1040
0.0
1040
0.0
1040
1.0
1040
1.0
1040
0.0
1040
0.0
1070
     0
1002
{
1002
}
1002
}
  0
VIEWPORT
  8
0
  5
196
 67
     1
 68
     1
 10
0.0
 20
0.0
 30
0.0
 40
0.0
 41
0.0
 69
     1
1001
ACAD
1000
MVIEW
1002
{
1070
    16
1010
0.0
1020
0.0
1030
0.0
1010
0.0
1020
0.0
1030
1.0
1040
0.0
1040
594.0
1040
0.0
1040
0.0
1040
50.0
1040
0.0
1040
0.0
1070
     0
1070
   100
1070
     0
1070
     1
1070
     0
1070
     0
1070
     0
1070
     0
1040
0.0
1040
0.0
1040
0.0
1040
0.5
1040
0.5
1040
0.5
1040
0.5
1070
     0
1002
{
1002
}
1002
}
  0
INSERT
  8
0
  5
100
  2
BLK1
 10
0.0
 20
0.0
 30
0.0
  0
INSERT
  8
0
  5
101
  2
BLK2
 10
0.0
 20
0.0
 30
0.0
  0
INSERT
  8
0
  5
102
  2
*X2
 10
306.461417
 20
443.615868
 30
0.0
  0
INSERT
  8
0
  5
103
  2
*X3
 10
308.959032
 20
327.814201
 30
0.0
  0
INSERT
  8
0
  5
104
  2
*X4
 10
306.461417
 20
326.115868
 30
0.0
  0
INSERT
  8
0
  5
105
  2
*X5
 10
312.278404
 20
421.115868
 30
0.0
  0
INSERT
  8
0
  5
106
  2
*X6
 10
312.276027
 20
300.814083
 30
0.0
  0
DIMENSION
  8
0
  5
107
  2
*D7
 10
378.831656
 20
270.0
 30
0.0
 11
378.831656
 21
270.0
 31
0.0
 13
306.461417
 23
326.115868
 33
0.0
 14
466.461417
 24
321.115868
 34
0.0
  3
LC-DIM-L-0090-02-02
  0
DIMENSION
  8
0
  5
108
  2
*D8
 10
280.0
 20
417.088438
 30
0.0
 11
280.0
 21
417.088438
 31
0.0
 13
306.461417
 23
388.615868
 33
0.0
 14
356.461417
 24
373.615868
 34
0.0
 50
90.0
  3
LC-DIM-L-0090-02-02
  0
DIMENSION
  8
0
  5
109
  2
*D9
 10
530.0
 20
367.686
 30
0.0
 11
530.0
 21
367.686
 31
0.0
  1
DN100
 13
463.461417
 23
428.615868
 33
0.0
 14
463.461417
 24
318.615868
 34
0.0
 50
90.0
  3
LC-DIM-L-0090-02-02
  0
LINE
  8
LC-001-002-----0
  6
CONTINUOUS
  5
10B
 10
306.461417
 20
451.115868
 30
0.0
 11
306.461417
 21
326.115868
 31
0.0
  0
LINE
  8
LC-001-002-----0
  6
CONTINUOUS
  5
10C
 10
306.461417
 20
326.115868
 30
0.0
 11
319.459023
 21
326.115868
 31
0.0
  0
LINE
  8
LC-001-002-----0
  6
CONTINUOUS
  5
10D
 10
306.461417
 20
451.115868
 30
0.0
 11
319.461417
 21
451.115868
 31
0.0
  0
LINE
  8
LC-001-002-----0
  6
CONTINUOUS
  5
10E
 10
319.461417
 20
451.115868
 30
0.0
 11
319.461417
 21
449.915868
 31
0.0
  0
LINE
  8
LC-001-002-----0
  6
CONTINUOUS
  5
10F
 10
319.461417
 20
443.615868
 30
0.0
 11
306.461417
 21
443.615868
 31
0.0
  0
LINE
  8
LC-001-002-----0
  6
CONTINUOUS
  5
110
 10
319.461417
 20
444.615868
 30
0.0
 11
308.461417
 21
444.615868
 31
0.0
  0
LINE
  8
LC-001-002-----0
  6
CONTINUOUS
  5
111
 10
316.461417
 20
449.915868
 30
0.0
 11
308.461417
 21
449.915868
 31
0.0
  0
LINE
  8
LC-001-002-----0
  6
CONTINUOUS
  5
112
 10
308.461417
 20
449.915868
 30
0.0
 11
308.461417
 21
444.615868
 31
0.0
  0
LINE
  8
LC-001-002-----0
  6
CONTINUOUS
  5
113
 10
316.461417
 20
449.915868
 30
0.0
 11
317.038767
 21
448.915868
 31
0.0
  0
LINE
  8
LC-001-002-----0
  6
CONTINUOUS
  5
114
 10
319.461417
 20
449.915868
 30
0.0
 11
318.884067
 21
448.915868
 31
0.0
  0
LINE
  8
LC-001-002-----0
  6
CONTINUOUS
  5
115
 10
317.038767
 20
448.915868
 30
0.0
 11
318.884067
 21
448.915868
 31
0.0
  0
LINE
  8
LC-001-002-----0
  6
CONTINUOUS
  5
116
 10
308.961417
 20
445.115868
 30
0.0
 11
308.961417
 21
449.415868
 31
0.0
  0
LINE
  8
LC-001-002-----0
  6
CONTINUOUS
  5
117
 10
308.961417
 20
449.415868
 30
0.0
 11
313.961417
 21
449.415868
 31
0.0
  0
LINE
  8
LC-001-002-----0
  6
CONTINUOUS
  5
118
 10
313.961417
 20
449.415868
 30
0.0
 11
313.961417
 21
448.415868
 31
0.0
  0
LINE
  8
LC-001-002-----0
  6
CONTINUOUS
  5
119
 10
313.961417
 20
448.415868
 30
0.0
 11
309.961417
 21
448.415868
 31
0.0
  0
LINE
  8
LC-001-002-----0
  6
CONTINUOUS
  5
11A
 10
309.961417
 20
448.415868
 30
0.0
 11
309.961417
 21
446.115868
 31
0.0
  0
LINE
  8
LC-001-002-----0
  6
CONTINUOUS
  5
11B
 10
309.961417
 20
446.115868
 30
0.0
 11
319.961417
 21
446.115868
 31
0.0
  0
LINE
  8
LC-001-002-----0
  6
CONTINUOUS
  5
11C
 10
308.961417
 20
445.115868
 30
0.0
 11
320.072167
 21
445.115868
 31
0.0
  0
LINE
  8
LC-001-002-----0
  6
CONTINUOUS
  5
11D
 10
319.461417
 20
444.615868
 30
0.0
 11
319.461417
 21
332.614172
 31
0.0
  0
LINE
  8
LC-001-002-----0
  6
CONTINUOUS
  5
11E
 10
319.961417
 20
446.115868
 30
0.0
 11
320.961417
 21
446.115868
 31
0.0
  0
LINE
  8
LC-001-002-----0
  6
CONTINUOUS
  5
11F
 10
320.961417
 20
446.115868
 30
0.0
 11
321.961417
 21
437.615868
 31
0.0
  0
LINE
  8
LC-002-001-----0
  6
CONTINUOUS
  5
121
 10
320.072167
 20
445.115868
 30
0.0
 11
322.248638
 21
426.615868
 31
0.0
  0
LINE
  8
LC-001-002-----0
  6
CONTINUOUS
  5
122
 10
322.248638
 20
426.615868
 30
0.0
 11
323.784946
 21
426.615868
 31
0.0
  0
LINE
  8
LC-001-002-----0
  6
CONTINUOUS
  5
123
 10
321.961417
 20
437.615868
 30
0.0
 11
328.461417
 21
438.615868
 31
0.0
  0
LINE
  8
LC-001-002-----0
  6
CONTINUOUS
  5
124
 10
328.461417
 20
438.615868
 30
0.0
 11
328.461417
 21
437.604102
 31
0.0
  0
LINE
  8
LC-001-002-----0
  6
CONTINUOUS
  5
125
 10
322.078184
 20
436.623344
 30
0.0
 11
322.784946
 21
430.615868
 31
0.0
  0
LINE
  8
LC-001-002-----0
  6
CONTINUOUS
  5
126
 10
322.784946
 20
430.615868
 30
0.0
 11
323.784946
 21
430.615868
 31
0.0
  0
LINE
  8
LC-001-002-----0
  6
CONTINUOUS
  5
127
 10
323.784946
 20
430.615868
 30
0.0
 11
323.784946
 21
426.615868
 31
0.0
  0
LINE
  8
LC-001-002-----0
  6
CONTINUOUS
  5
128
 10
322.078184
 20
436.623344
 30
0.0
 11
328.461417
 21
437.604102
 31
0.0
  0
LINE
  8
LC-001-002-----0
  6
CONTINUOUS
  5
129
 10
319.959049
 20
331.114169
 30
0.0
 11
320.959049
 21
331.114164
 31
0.0
  0
LINE
  8
LC-001-002-----0
  6
CONTINUOUS
  5
12A
 10
320.959049
 20
331.114164
 30
0.0
 11
321.959095
 21
339.614159
 31
0.0
  0
LINE
  8
LC-002-001-----0
  6
CONTINUOUS
  5
12B
 10
320.069805
 20
332.114169
 30
0.0
 11
322.246374
 21
350.614157
 31
0.0
  0
LINE
  8
LC-001-002-----0
  6
CONTINUOUS
  5
12C
 10
322.246374
 20
350.614157
 30
0.0
 11
323.782682
 21
350.614149
 31
0.0
  0
LINE
  8
LC-001-002-----0
  6
CONTINUOUS
  5
12D
 10
321.959095
 20
339.614159
 30
0.0
 11
328.459089
 21
338.614124
 31
0.0
  0
LINE
  8
LC-001-002-----0
  6
CONTINUOUS
  5
12E
 10
328.459089
 20
338.614124
 30
0.0
 11
328.459095
 21
339.625889
 31
0.0
  0
LINE
  8
LC-001-002-----0
  6
CONTINUOUS
  5
12F
 10
322.075867
 20
340.606682
 30
0.0
 11
322.782661
 21
346.614154
 31
0.0
  0
LINE
  8
LC-001-002-----0
  6
CONTINUOUS
  5
130
 10
322.782661
 20
346.614154
 30
0.0
 11
323.782661
 21
346.614149
 31
0.0
  0
LINE
  8
LC-001-002-----0
  6
CONTINUOUS
  5
131
 10
323.782661
 20
346.614149
 30
0.0
 11
323.782682
 21
350.614149
 31
0.0
  0
LINE
  8
LC-001-002-----0
  6
CONTINUOUS
  5
132
 10
322.075867
 20
340.606682
 30
0.0
 11
328.459095
 21
339.625889
 31
0.0
  0
LINE
  8
LC-001-002-----0
  6
CONTINUOUS
  5
133
 10
319.459063
 20
333.614172
 30
0.0
 11
306.459063
 21
333.614241
 31
0.0
  0
LINE
  8
LC-001-002-----0
  6
CONTINUOUS
  5
134
 10
319.459057
 20
332.614172
 30
0.0
 11
308.459057
 21
332.614231
 31
0.0
  0
LINE
  8
LC-001-002-----0
  6
CONTINUOUS
  5
135
 10
316.459029
 20
327.314188
 30
0.0
 11
308.459029
 21
327.314231
 31
0.0
  0
LINE
  8
LC-001-002-----0
  6
CONTINUOUS
  5
136
 10
308.459029
 20
327.314231
 30
0.0
 11
308.459057
 21
332.614231
 31
0.0
  0
LINE
  8
LC-001-002-----0
  6
CONTINUOUS
  5
137
 10
316.459029
 20
327.314188
 30
0.0
 11
317.036385
 21
328.314185
 31
0.0
  0
LINE
  8
LC-001-002-----0
  6
CONTINUOUS
  5
138
 10
317.036385
 20
328.314185
 30
0.0
 11
318.881684
 21
328.314175
 31
0.0
  0
LINE
  8
LC-001-002-----0
  6
CONTINUOUS
  5
139
 10
308.959055
 20
332.114228
 30
0.0
 11
308.959032
 21
327.814228
 31
0.0
  0
LINE
  8
LC-001-002-----0
  6
CONTINUOUS
  5
13A
 10
308.959032
 20
327.814228
 30
0.0
 11
313.959032
 21
327.814201
 31
0.0
  0
LINE
  8
LC-001-002-----0
  6
CONTINUOUS
  5
13B
 10
313.959032
 20
327.814201
 30
0.0
 11
313.959037
 21
328.814201
 31
0.0
  0
LINE
  8
LC-001-002-----0
  6
CONTINUOUS
  5
13C
 10
313.959037
 20
328.814201
 30
0.0
 11
309.959037
 21
328.814223
 31
0.0
  0
LINE
  8
LC-001-002-----0
  6
CONTINUOUS
  5
13D
 10
309.959037
 20
328.814223
 30
0.0
 11
309.959049
 21
331.114223
 31
0.0
  0
LINE
  8
LC-001-002-----0
  6
CONTINUOUS
  5
13E
 10
309.959049
 20
331.114223
 30
0.0
 11
319.959049
 21
331.114169
 31
0.0
  0
LINE
  8
LC-001-002-----0
  6
CONTINUOUS
  5
13F
 10
308.959055
 20
332.114228
 30
0.0
 11
320.069805
 21
332.114169
 31
0.0
  0
LINE
  8
LC-001-002-----0
  6
CONTINUOUS
  5
140
 10
319.459029
 20
327.314172
 30
0.0
 11
318.881684
 21
328.314175
 31
0.0
  0
LINE
  8
LC-001-002-----0
  6
CONTINUOUS
  5
141
 10
319.459023
 20
326.114172
 30
0.0
 11
319.459029
 21
327.314172
 31
0.0
  0
LINE
  8
LC-001-002-----0
  6
CONTINUOUS
  5
142
 10
314.278404
 20
447.915868
 30
0.0
 11
312.278404
 21
447.915868
 31
0.0
  0
LINE
  8
LC-001-002-----0
  6
CONTINUOUS
  5
143
 10
312.278404
 20
447.915868
 30
0.0
 11
312.278404
 21
446.415868
 31
0.0
  0
LINE
  8
LC-001-002-----0
  6
CONTINUOUS
  5
144
 10
314.278404
 20
448.665868
 30
0.0
 11
314.278404
 21
447.915868
 31
0.0
  0
ARC
  8
LC-001-002-----0
  6
CONTINUOUS
  5
145
 10
315.278404
 20
448.665868
 30
0.0
 40
1.0
 50
89.999981
 51
180.0
  0
LINE
  8
LC-001-002-----0
  6
CONTINUOUS
  5
146
 10
315.451054
 20
449.665868
 30
0.0
 11
315.278404
 21
449.665868
 31
0.0
  0
ARC
  8
LC-001-002-----0
  6
CONTINUOUS
  5
147
 10
315.451054
 20
448.665868
 30
0.0
 40
1.0
 50
30.0
 51
90.0
  0
LINE
  8
LC-001-002-----0
  6
CONTINUOUS
  5
148
 10
316.317079
 20
449.165868
 30
0.0
 11
316.345947
 21
449.115868
 31
0.0
  0
ARC
  8
LC-001-002-----0
  6
CONTINUOUS
  5
149
 10
317.211972
 20
449.615868
 30
0.0
 40
1.0
 50
210.0
 51
270.000058
  0
LINE
  8
LC-001-002-----0
  6
CONTINUOUS
  5
14A
 10
319.961417
 20
451.115868
 30
0.0
 11
319.961417
 21
449.615868
 31
0.0
  0
ARC
  8
LC-001-002-----0
  6
CONTINUOUS
  5
14B
 10
318.961417
 20
449.615868
 30
0.0
 40
1.0
 50
270.000058
 51
0.0
  0
LINE
  8
LC-002-001-----0
  6
CONTINUOUS
  5
14C
 10
317.211972
 20
448.615868
 30
0.0
 11
318.961418
 21
448.615868
 31
0.0
  0
LINE
  8
LC-001-002-----0
  6
CONTINUOUS
  5
14D
 10
319.959023
 20
326.114169
 30
0.0
 11
319.959031
 21
327.614169
 31
0.0
  0
ARC
  8
LC-001-002-----0
  6
CONTINUOUS
  5
14E
 10
318.959031
 20
327.614175
 30
0.0
 40
1.0
 50
359.999696
 51
89.999696
  0
LINE
  8
LC-002-001-----0
  6
CONTINUOUS
  5
14F
 10
317.209591
 20
328.614184
 30
0.0
 11
318.959037
 21
328.614175
 31
0.0
  0
ARC
  8
LC-001-002-----0
  6
CONTINUOUS
  5
150
 10
317.209586
 20
327.614184
 30
0.0
 40
1.0
 50
89.999467
 51
149.999696
  0
ARC
  8
LC-001-002-----0
  6
CONTINUOUS
  5
151
 10
315.448673
 20
328.564193
 30
0.0
 40
1.0
 50
269.999696
 51
329.999525
  0
LINE
  8
LC-001-002-----0
  6
CONTINUOUS
  5
152
 10
315.448668
 20
327.564193
 30
0.0
 11
315.276018
 21
327.564194
 31
0.0
  0
ARC
  8
LC-001-002-----0
  6
CONTINUOUS
  5
153
 10
315.276023
 20
328.564194
 30
0.0
 40
1.0
 50
179.999696
 51
269.999544
  0
LINE
  8
LC-001-002-----0
  6
CONTINUOUS
  5
154
 10
314.276023
 20
328.5642
 30
0.0
 11
314.276027
 21
329.3142
 31
0.0
  0
LINE
  8
LC-001-002-----0
  6
CONTINUOUS
  5
155
 10
314.276027
 20
329.3142
 30
0.0
 11
312.276027
 21
329.31421
 31
0.0
  0
LINE
  8
LC-001-002-----0
  6
CONTINUOUS
  5
156
 10
312.276027
 20
329.31421
 30
0.0
 11
312.276035
 21
330.81421
 31
0.0
  0
LINE
  8
LC-001-002-----0
  6
CONTINUOUS
  5
157
 10
319.461417
 20
327.310036
 30
0.0
 11
319.461417
 21
326.115868
 31
0.0
  0
LINE
  8
LC-001-002-----0
  6
DASHDOT
 62
     2
  5
159
 10
306.461417
 20
388.615868
 30
0.0
 11
353.961417
 21
388.615868
 31
0.0
  0
LINE
  8
LC-004-005-----0
  6
CONTINUOUS
  5
15A
 10
322.15949
 20
427.373629
 30
0.0
 11
322.917252
 21
426.615868
 31
0.0
  0
LINE
  8
LC-004-005-----0
  6
CONTINUOUS
  5
15B
 10
321.970928
 20
428.976403
 30
0.0
 11
323.784946
 21
427.162387
 31
0.0
  0
LINE
  8
LC-004-005-----0
  6
CONTINUOUS
  5
15C
 10
321.782366
 20
430.579177
 30
0.0
 11
323.784946
 21
428.576599
 31
0.0
  0
LINE
  8
LC-004-005-----0
  6
CONTINUOUS
  5
15D
 10
321.593805
 20
432.181951
 30
0.0
 11
322.734954
 21
431.040803
 31
0.0
  0
LINE
  8
LC-004-005-----0
  6
CONTINUOUS
  5
15E
 10
308.961417
 20
446.228534
 30
0.0
 11
310.074085
 21
445.115868
 31
0.0
  0
LINE
  8
LC-004-005-----0
  6
CONTINUOUS
  5
15F
 10
321.405243
 20
433.784725
 30
0.0
 11
322.546392
 21
432.643577
 31
0.0
  0
LINE
  8
LC-004-005-----0
  6
CONTINUOUS
  5
160
 10
308.961417
 20
447.642747
 30
0.0
 11
309.961417
 21
446.642748
 31
0.0
  0
LINE
  8
LC-004-005-----0
  6
CONTINUOUS
  5
161
 10
310.488298
 20
446.115868
 30
0.0
 11
311.4883
 21
445.115868
 31
0.0
  0
LINE
  8
LC-004-005-----0
  6
CONTINUOUS
  5
162
 10
321.216681
 20
435.387499
 30
0.0
 11
322.357831
 21
434.246351
 31
0.0
  0
LINE
  8
LC-004-005-----0
  6
CONTINUOUS
  5
163
 10
308.961417
 20
449.056959
 30
0.0
 11
309.961417
 21
448.056961
 31
0.0
  0
LINE
  8
LC-004-005-----0
  6
CONTINUOUS
  5
164
 10
321.02812
 20
436.990273
 30
0.0
 11
322.169269
 21
435.849125
 31
0.0
  0
LINE
  8
LC-004-005-----0
  6
CONTINUOUS
  5
165
 10
310.016723
 20
449.415868
 30
0.0
 11
311.016724
 21
448.415868
 31
0.0
  0
LINE
  8
LC-004-005-----0
  6
CONTINUOUS
  5
166
 10
313.316727
 20
446.115868
 30
0.0
 11
314.316729
 21
445.115868
 31
0.0
  0
LINE
  8
LC-004-005-----0
  6
CONTINUOUS
  5
167
 10
320.839558
 20
438.593047
 30
0.0
 11
322.711896
 21
436.720711
 31
0.0
  0
LINE
  8
LC-004-005-----0
  6
CONTINUOUS
  5
168
 10
311.430937
 20
449.415868
 30
0.0
 11
312.430939
 21
448.415868
 31
0.0
  0
LINE
  8
LC-004-005-----0
  6
CONTINUOUS
  5
169
 10
314.730942
 20
446.115868
 30
0.0
 11
315.730943
 21
445.115868
 31
0.0
  0
LINE
  8
LC-004-005-----0
  6
CONTINUOUS
  5
16A
 10
320.650996
 20
440.195821
 30
0.0
 11
321.792146
 21
439.054673
 31
0.0
  0
LINE
  8
LC-004-005-----0
  6
CONTINUOUS
  5
16B
 10
323.061681
 20
437.785139
 30
0.0
 11
323.937761
 21
436.909061
 31
0.0
  0
LINE
  8
LC-004-005-----0
  6
CONTINUOUS
  5
16C
 10
312.845152
 20
449.415868
 30
0.0
 11
313.845153
 21
448.415868
 31
0.0
  0
LINE
  8
LC-004-005-----0
  6
CONTINUOUS
  5
16D
 10
316.145156
 20
446.115868
 30
0.0
 11
317.145158
 21
445.115868
 31
0.0
  0
LINE
  8
LC-004-005-----0
  6
CONTINUOUS
  5
16E
 10
320.462435
 20
441.798595
 30
0.0
 11
321.603584
 21
440.657447
 31
0.0
  0
LINE
  8
LC-004-005-----0
  6
CONTINUOUS
  5
16F
 10
324.287334
 20
437.973701
 30
0.0
 11
325.163626
 21
437.09741
 31
0.0
  0
LINE
  8
LC-004-005-----0
  6
CONTINUOUS
  5
170
 10
317.559371
 20
446.115868
 30
0.0
 11
318.559372
 21
445.115868
 31
0.0
  0
LINE
  8
LC-004-005-----0
  6
CONTINUOUS
  5
171
 10
320.273873
 20
443.401369
 30
0.0
 11
321.415022
 21
442.260221
 31
0.0
  0
LINE
  8
LC-004-005-----0
  6
CONTINUOUS
  5
172
 10
325.512986
 20
438.162263
 30
0.0
 11
326.389491
 21
437.285759
 31
0.0
  0
LINE
  8
LC-004-005-----0
  6
CONTINUOUS
  5
173
 10
318.973585
 20
446.115868
 30
0.0
 11
321.226461
 21
443.862995
 31
0.0
  0
LINE
  8
LC-004-005-----0
  6
CONTINUOUS
  5
174
 10
326.738638
 20
438.350825
 30
0.0
 11
327.615356
 21
437.474109
 31
0.0
  0
LINE
  8
LC-004-005-----0
  6
CONTINUOUS
  5
175
 10
320.3878
 20
446.115868
 30
0.0
 11
321.037899
 21
445.465769
 31
0.0
  0
LINE
  8
LC-004-005-----0
  6
CONTINUOUS
  5
176
 10
327.964291
 20
438.539387
 30
0.0
 11
328.461417
 21
438.042261
 31
0.0
  0
LINE
  8
LC-004-005-----0
  6
CONTINUOUS
  5
177
 10
311.902513
 20
446.115868
 30
0.0
 11
312.902514
 21
445.115868
 31
0.0
  0
LINE
  8
LC-004-005-----0
  6
CONTINUOUS
  5
178
 10
323.15989
 20
430.615868
 30
0.0
 11
323.784946
 21
429.990812
 31
0.0
  0
LINE
  8
LC-002-001-----0
  6
DASHDOT
 62
     2
  5
179
 10
356.461417
 20
373.615868
 30
0.0
 11
466.461417
 21
373.615868
 31
0.0
  0
LINE
  8
LC-001-002-----0
  6
CONTINUOUS
  5
17A
 10
356.461417
 20
428.615868
 30
0.0
 11
463.461417
 21
428.615868
 31
0.0
  0
LINE
  8
LC-002-001-----0
  6
CONTINUOUS
  5
17B
 10
353.961417
 20
426.115868
 30
0.0
 11
466.461417
 21
426.115868
 31
0.0
  0
LINE
  8
LC-001-002-----0
  6
CONTINUOUS
  5
17C
 10
356.461417
 20
436.115868
 30
0.0
 11
356.461417
 21
428.615868
 31
0.0
  0
ARC
  8
LC-001-002-----0
  6
CONTINUOUS
  5
17D
 10
341.461417
 20
436.115868
 30
0.0
 40
15.0
 50
0.0
 51
89.999981
  0
LINE
  8
LC-001-002-----0
  6
CONTINUOUS
  5
17E
 10
319.961417
 20
451.115868
 30
0.0
 11
341.461417
 21
451.115868
 31
0.0
  0
LINE
  8
LC-001-002-----0
  6
CONTINUOUS
  5
17F
 10
312.278404
 20
446.415868
 30
0.0
 11
341.461417
 21
446.415868
 31
0.0
  0
ARC
  8
LC-001-002-----0
  6
CONTINUOUS
  5
180
 10
341.461417
 20
433.915868
 30
0.0
 40
12.5
 50
0.0
 51
90.0
  0
LINE
  8
LC-001-002-----0
  6
CONTINUOUS
 62
     2
  5
181
 10
341.461417
 20
446.415868
 30
0.0
 11
341.461417
 21
329.907178
 31
0.0
  0
ARC
  8
LC-001-002-----0
  6
CONTINUOUS
  5
182
 10
356.461417
 20
333.615868
 30
0.0
 40
15.0
 50
233.130102
 51
270.000058
  0
LINE
  8
LC-001-002-----0
  6
CONTINUOUS
  5
183
 10
356.461417
 20
318.615868
 30
0.0
 11
463.461417
 21
318.615868
 31
0.0
  0
LINE
  8
LC-002-001-----0
  6
CONTINUOUS
 62
     2
  5
184
 10
353.961417
 20
426.115868
 30
0.0
 11
353.961417
 21
321.871611
 31
0.0
  0
ARC
  8
LC-001-002-----0
  6
CONTINUOUS
  5
185
 10
358.241889
 20
333.615868
 30
0.0
 40
12.5
 50
232.193722
 51
270.000058
  0
LINE
  8
LC-002-001-----0
  6
CONTINUOUS
  5
186
 10
358.241889
 20
321.115868
 30
0.0
 11
466.461417
 21
321.115868
 31
0.0
  0
LINE
  8
LC-001-002-----0
  6
CONTINUOUS
  5
187
 10
319.959023
 20
326.115868
 30
0.0
 11
337.29475
 21
326.115868
 31
0.0
  0
ARC
  8
LC-001-002-----0
  6
CONTINUOUS
  5
188
 10
337.29475
 20
313.615868
 30
0.0
 40
12.5
 50
53.130102
 51
90.0
  0
LINE
  8
LC-001-002-----0
  6
CONTINUOUS
  5
189
 10
344.79475
 20
323.615868
 30
0.0
 11
347.461417
 21
321.615868
 31
0.0
  0
LINE
  8
LC-001-002-----0
  6
CONTINUOUS
  5
18A
 10
312.276035
 20
330.81421
 30
0.0
 11
336.324895
 21
330.814083
 31
0.0
  0
ARC
  8
LC-001-002-----0
  6
CONTINUOUS
  5
18B
 10
336.324816
 20
315.814083
 30
0.0
 40
15.0
 50
52.193722
 51
89.999696
  0
LINE
  8
LC-001-002-----0
  6
CONTINUOUS
  5
18C
 10
345.51972
 20
327.6654
 30
0.0
 11
350.579468
 21
323.739769
 31
0.0
  0
LINE
  8
LC-001-002-----0
  6
CONTINUOUS
  5
18D
 10
466.461417
 20
426.115868
 30
0.0
 11
466.461417
 21
321.115868
 31
0.0
  0
LINE
  8
LC-001-002-----0
  6
CONTINUOUS
  5
18E
 10
463.461417
 20
428.615868
 30
0.0
 11
466.461417
 21
426.115868
 31
0.0
  0
LINE
  8
LC-001-002-----0
  6
CONTINUOUS
  5
18F
 10
463.461417
 20
318.615868
 30
0.0
 11
466.461417
 21
321.115868
 31
0.0
  0
LINE
  8
LC-001-002-----0
  6
CONTINUOUS
  5
190
 10
353.961417
 20
433.915868
 30
0.0
 11
353.961417
 21
426.115868
 31
0.0
  0
LINE
  8
LC-001-002-----0
  6
CONTINUOUS
  5
191
 10
322.248638
 20
426.615868
 30
0.0
 11
322.248638
 21
350.614157
 31
0.0
  0
LINE
  8
LC-001-002-----0
  6
CONTINUOUS
  5
192
 10
323.784946
 20
426.615868
 30
0.0
 11
323.784946
 21
350.614149
 31
0.0
  0
LINE
  8
LC-001-002-----0
  6
CONTINUOUS
  5
193
 10
328.461417
 20
437.604102
 30
0.0
 11
328.461417
 21
339.625889
 31
0.0
  0
ENDSEC
  0
EOF
