  0
SECTION
  2
HEADER
  9
$ACADVER
  1
AC1015
  9
$ACADMAINTVER
 70
     6
  9
$DWGCODEPAGE
  3
DOS850
  9
$INSBASE
 10
0.0
 20
0.0
 30
0.0
  9
$EXTMIN
 10
-210.0
 20
-148.5
 30
0.0
  9
$EXTMAX
 10
630.0
 20
445.5
 30
0.0
  9
$LIMMIN
 10
-210.0
 20
-148.5
  9
$LIMMAX
 10
630.0
 20
445.5
  9
$ORTHOMODE
 70
     0
  9
$REGENMODE
 70
     1
  9
$FILLMODE
 70
     1
  9
$QTEXTMODE
 70
     0
  9
$MIRRTEXT
 70
     1
  9
$LTSCALE
 40
2.0
  9
$ATTMODE
 70
     1
  9
$TEXTSIZE
 40
2.5
  9
$TRACEWID
 40
1.0
  9
$TEXTSTYLE
  7
Standard
  9
$CLAYER
  8
0
  9
$CELTYPE
  6
ByLayer
  9
$CECOLOR
 62
     7
  9
$CELTSCALE
 40
1.0
  9
$DISPSILH
 70
     0
  9
$DIMSCALE
 40
2.0
  9
$DIMASZ
 40
3.5
  9
$DIMEXO
 40
0.625
  9
$DIMDLI
 40
3.75
  9
$DIMRND
 40
0.0
  9
$DIMDLE
 40
0.0
  9
$DIMEXE
 40
1.25
  9
$DIMTP
 40
0.0
  9
$DIMTM
 40
0.0
  9
$DIMTXT
 40
3.5
  9
$DIMCEN
 40
2.5
  9
$DIMTSZ
 40
0.0
  9
$DIMTOL
 70
     0
  9
$DIMLIM
 70
     0
  9
$DIMTIH
 70
     0
  9
$DIMTOH
 70
     0
  9
$DIMSE1
 70
     0
  9
$DIMSE2
 70
     0
  9
$DIMTAD
 70
     1
  9
$DIMZIN
 70
     8
  9
$DIMBLK
  1

  9
$DIMASO
 70
     1
  9
$DIMSHO
 70
     1
  9
$DIMPOST
  1

  9
$DIMAPOST
  1

  9
$DIMALT
 70
     0
  9
$DIMALTD
 70
     3
  9
$DIMALTF
 40
0.03937
  9
$DIMLFAC
 40
1.0
  9
$DIMTOFL
 70
     1
  9
$DIMTVP
 40
0.0
  9
$DIMTIX
 70
     0
  9
$DIMSOXD
 70
     0
  9
$DIMSAH
 70
     0
  9
$DIMBLK1
  1

  9
$DIMBLK2
  1

  9
$DIMSTYLE
  2
ISO-25
  9
$DIMCLRD
 70
     0
  9
$DIMCLRE
 70
     0
  9
$DIMCLRT
 70
     0
  9
$DIMTFAC
 40
1.0
  9
$DIMGAP
 40
0.625
  9
$DIMJUST
 70
     0
  9
$DIMSD1
 70
     0
  9
$DIMSD2
 70
     0
  9
$DIMTOLJ
 70
     0
  9
$DIMTZIN
 70
     8
  9
$DIMALTZ
 70
     0
  9
$DIMALTTZ
 70
     0
  9
$DIMUPT
 70
     0
  9
$DIMDEC
 70
     2
  9
$DIMTDEC
 70
     2
  9
$DIMALTU
 70
     2
  9
$DIMALTTD
 70
     3
  9
$DIMTXSTY
  7
Standard
  9
$DIMAUNIT
 70
     0
  9
$DIMADEC
 70
     0
  9
$DIMALTRND
 40
0.0
  9
$DIMAZIN
 70
     0
  9
$DIMDSEP
 70
    44
  9
$DIMATFIT
 70
     3
  9
$DIMFRAC
 70
     0
  9
$DIMLDRBLK
  1

  9
$DIMLUNIT
 70
     2
  9
$DIMLWD
 70
    -2
  9
$DIMLWE
 70
    -2
  9
$DIMTMOVE
 70
     0
  9
$LUNITS
 70
     2
  9
$LUPREC
 70
     4
  9
$SKETCHINC
 40
1.0
  9
$FILLETRAD
 40
10.0
  9
$AUNITS
 70
     0
  9
$AUPREC
 70
     0
  9
$MENU
  1
.
  9
$ELEVATION
 40
0.0
  9
$PELEVATION
 40
0.0
  9
$THICKNESS
 40
0.0
  9
$LIMCHECK
 70
     0
  9
$CHAMFERA
 40
10.0
  9
$CHAMFERB
 40
10.0
  9
$CHAMFERC
 40
20.0
  9
$CHAMFERD
 40
0.0
  9
$SKPOLY
 70
     0
  9
$TDCREATE
 40
2453854.599434977
  9
$TDUCREATE
 40
2453854.516101643
  9
$TDUPDATE
 40
2453854.599434989
  9
$TDUUPDATE
 40
2453854.516101655
  9
$TDINDWG
 40
0.0000000116
  9
$TDUSRTIMER
 40
0.0000000116
  9
$USRTIMER
 70
     1
  9
$ANGBASE
 50
0.0
  9
$ANGDIR
 70
     0
  9
$PDMODE
 70
     0
  9
$PDSIZE
 40
0.0
  9
$PLINEWID
 40
0.0
  9
$SPLFRAME
 70
     0
  9
$SPLINETYPE
 70
     6
  9
$SPLINESEGS
 70
     8
  9
$HANDSEED
  5
45B
  9
$SURFTAB1
 70
     6
  9
$SURFTAB2
 70
     6
  9
$SURFTYPE
 70
     6
  9
$SURFU
 70
     6
  9
$SURFV
 70
     6
  9
$UCSBASE
  2

  9
$UCSNAME
  2

  9
$UCSORG
 10
0.0
 20
0.0
 30
0.0
  9
$UCSXDIR
 10
1.0
 20
0.0
 30
0.0
  9
$UCSYDIR
 10
0.0
 20
1.0
 30
0.0
  9
$UCSORTHOREF
  2

  9
$UCSORTHOVIEW
 70
     0
  9
$UCSORGTOP
 10
0.0
 20
0.0
 30
0.0
  9
$UCSORGBOTTOM
 10
0.0
 20
0.0
 30
0.0
  9
$UCSORGLEFT
 10
0.0
 20
0.0
 30
0.0
  9
$UCSORGRIGHT
 10
0.0
 20
0.0
 30
0.0
  9
$UCSORGFRONT
 10
0.0
 20
0.0
 30
0.0
  9
$UCSORGBACK
 10
0.0
 20
0.0
 30
0.0
  9
$PUCSBASE
  2

  9
$PUCSNAME
  2

  9
$PUCSORG
 10
0.0
 20
0.0
 30
0.0
  9
$PUCSXDIR
 10
1.0
 20
0.0
 30
0.0
  9
$PUCSYDIR
 10
0.0
 20
1.0
 30
0.0
  9
$PUCSORTHOREF
  2

  9
$PUCSORTHOVIEW
 70
     0
  9
$PUCSORGTOP
 10
0.0
 20
0.0
 30
0.0
  9
$PUCSORGBOTTOM
 10
0.0
 20
0.0
 30
0.0
  9
$PUCSORGLEFT
 10
0.0
 20
0.0
 30
0.0
  9
$PUCSORGRIGHT
 10
0.0
 20
0.0
 30
0.0
  9
$PUCSORGFRONT
 10
0.0
 20
0.0
 30
0.0
  9
$PUCSORGBACK
 10
0.0
 20
0.0
 30
0.0
  9
$USERI1
 70
     0
  9
$USERI2
 70
     0
  9
$USERI3
 70
     0
  9
$USERI4
 70
     0
  9
$USERI5
 70
     0
  9
$USERR1
 40
0.0
  9
$USERR2
 40
0.0
  9
$USERR3
 40
0.0
  9
$USERR4
 40
0.0
  9
$USERR5
 40
0.0
  9
$WORLDVIEW
 70
     1
  9
$SHADEDGE
 70
     3
  9
$SHADEDIF
 70
    70
  9
$TILEMODE
 70
     1
  9
$MAXACTVP
 70
    64
  9
$PINSBASE
 10
0.0
 20
0.0
 30
0.0
  9
$PLIMCHECK
 70
     0
  9
$PEXTMIN
 10
-210.0
 20
-148.5
 30
0.0
  9
$PEXTMAX
 10
630.0
 20
445.5
 30
0.0
  9
$PLIMMIN
 10
-210.0
 20
-148.5
  9
$PLIMMAX
 10
630.0
 20
445.5
  9
$UNITMODE
 70
     0
  9
$VISRETAIN
 70
     1
  9
$PLINEGEN
 70
     0
  9
$PSLTSCALE
 70
     1
  9
$TREEDEPTH
 70
  3020
  9
$CMLSTYLE
  2
Standard
  9
$CMLJUST
 70
     0
  9
$CMLSCALE
 40
20.0
  9
$PROXYGRAPHICS
 70
     1
  9
$MEASUREMENT
 70
     1
  9
$CELWEIGHT
370
    -1
  9
$ENDCAPS
280
     0
  9
$JOINSTYLE
280
     0
  9
$LWDISPLAY
290
     0
  9
$INSUNITS
 70
     4
  9
$HYPERLINKBASE
  1

  9
$STYLESHEET
  1

  9
$XEDIT
290
     1
  9
$CEPSNTYPE
380
     0
  9
$PSTYLEMODE
290
     1
  9
$FINGERPRINTGUID
  2
{FAEB1C30-E019-11D5-929B-00C0DF256EC4}
  9
$VERSIONGUID
  2
{FAEB1C32-E019-11D5-929B-00C0DF256EC4}
  9
$EXTNAMES
290
     1
  9
$PSVPSCALE
 40
0.0
  9
$OLESTARTUP
290
     0
  0
ENDSEC
  0
SECTION
  2
CLASSES
  0
CLASS
  1
ACDBDICTIONARYWDFLT
  2
AcDbDictionaryWithDefault
  3
ObjectDBX Classes
 90
        0
280
     0
281
     0
  0
CLASS
  1
ACDBPLACEHOLDER
  2
AcDbPlaceHolder
  3
ObjectDBX Classes
 90
        0
280
     0
281
     0
  0
CLASS
  1
LAYOUT
  2
AcDbLayout
  3
ObjectDBX Classes
 90
        0
280
     0
281
     0
  0
ENDSEC
  0
SECTION
  2
TABLES
  0
TABLE
  2
VPORT
  5
8
330
0
100
AcDbSymbolTable
 70
     2
  0
VPORT
  5
29
330
8
100
AcDbSymbolTableRecord
100
AcDbViewportTableRecord
  2
*ACTIVE
 70
     0
 10
0.0
 20
0.0
 11
1.0
 21
1.0
 12
210.0
 22
148.5
 13
0.0
 23
0.0
 14
1.0
 24
1.0
 15
0.0
 25
0.0
 16
0.0
 26
0.0
 36
1.0
 17
0.0
 27
0.0
 37
0.0
 40
594.0
 41
1.414141
 42
50.0
 43
0.0
 44
0.0
 50
0.0
 51
0.0
 71
    16
 72
   100
 73
     1
 74
     0
 75
     0
 76
     0
 77
     0
 78
     0
281
     0
 65
     0
110
0.0
120
0.0
130
0.0
111
1.0
121
0.0
131
0.0
112
0.0
122
1.0
132
0.0
 79
     0
146
0.0
  0
ENDTAB
  0
TABLE
  2
LTYPE
  5
5
330
0
100
AcDbSymbolTable
 70
     4
  0
LTYPE
  5
14
330
5
100
AcDbSymbolTableRecord
100
AcDbLinetypeTableRecord
  2
ByBlock
 70
     0
  3

 72
    65
 73
     0
 40
0.0
  0
LTYPE
  5
15
330
5
100
AcDbSymbolTableRecord
100
AcDbLinetypeTableRecord
  2
ByLayer
 70
     0
  3

 72
    65
 73
     0
 40
0.0
  0
LTYPE
  5
16
330
5
100
AcDbSymbolTableRecord
100
AcDbLinetypeTableRecord
  2
Continuous
 70
     0
  3
Solid line
 72
    65
 73
     0
 40
0.0
  0
LTYPE
  5
2A
330
5
100
AcDbSymbolTableRecord
100
AcDbLinetypeTableRecord
  2
DASHED
 70
     0
  3
__ __ __ __ __
 72
    65
 73
     2
 40
6.25
 49
5.0
 74
     4
 75
     0
340
0
 46
1.0
 50
0.0
 44
0.0
 45
0.0
 49
-1.25
 74
     4
 75
     0
340
0
 46
1.0
 50
0.0
 44
0.0
 45
0.0
  0
LTYPE
  5
F8
330
5
100
AcDbSymbolTableRecord
100
AcDbLinetypeTableRecord
  2
DASHDOT
 70
     0
  3
__ . __ . __ . __ . __
 72
    65
 73
     4
 40
7.5
 49
5.0
 74
     4
 75
     0
340
0
 46
1.0
 50
0.0
 44
0.0
 45
0.0
 49
-1.25
 74
     4
 75
     0
340
0
 46
1.0
 50
0.0
 44
0.0
 45
0.0
 49
0.0
 74
     4
 75
     0
340
0
 46
1.0
 50
0.0
 44
0.0
 45
0.0
 49
-1.25
 74
     4
 75
     0
340
0
 46
1.0
 50
0.0
 44
0.0
 45
0.0
  0
LTYPE
  5
10B
330
5
100
AcDbSymbolTableRecord
100
AcDbLinetypeTableRecord
  2
CENTER
 70
     0
  3
__ . __ . __ . __ . __
 72
    65
 73
     4
 40
7.5
 49
5.0
 74
     4
 75
     0
340
0
 46
1.0
 50
0.0
 44
0.0
 45
0.0
 49
-1.25
 74
     4
 75
     0
340
0
 46
1.0
 50
0.0
 44
0.0
 45
0.0
 49
0.0
 74
     4
 75
     0
340
0
 46
1.0
 50
0.0
 44
0.0
 45
0.0
 49
-1.25
 74
     4
 75
     0
340
0
 46
1.0
 50
0.0
 44
0.0
 45
0.0
  0
ENDTAB
  0
TABLE
  2
LAYER
  5
2
330
0
100
AcDbSymbolTable
 70
    17
  0
LAYER
  5
10
330
2
100
AcDbSymbolTableRecord
100
AcDbLayerTableRecord
  2
0
 70
     0
 62
     7
  6
Continuous
370
    -3
390
F
  0
LAYER
  5
2B
330
2
100
AcDbSymbolTableRecord
100
AcDbLayerTableRecord
  2
LC-INFO-1-2-mm-A3-0
 70
     1
 62
     7
  6
ByBlock
370
    -3
390
F
  0
LAYER
  5
2C
330
2
100
AcDbSymbolTableRecord
100
AcDbLayerTableRecord
  2
LC-CUT-HIDDEN
 70
     0
 62
     7
  6
DASHED
370
    -3
390
F
  0
LAYER
  5
2D
330
2
100
AcDbSymbolTableRecord
100
AcDbLayerTableRecord
  2
LC-VIEWPORT
 70
     0
 62
     7
  6
ByBlock
370
    -3
390
F
  0
LAYER
  5
2E
330
2
100
AcDbSymbolTableRecord
100
AcDbLayerTableRecord
  2
LC-3D-HIDDEN
 70
     0
 62
     9
  6
DASHED
370
    -3
390
F
  0
LAYER
  5
31
330
2
100
AcDbSymbolTableRecord
100
AcDbLayerTableRecord
  2
LC-001-002-----0
 70
     0
 62
     1
  6
ByBlock
370
    -3
390
F
  0
LAYER
  5
38
330
2
100
AcDbSymbolTableRecord
100
AcDbLayerTableRecord
  2
LC-002-005-----0
 70
     0
 62
     2
  6
ByBlock
370
    -3
390
F
  0
LAYER
  5
66
330
2
100
AcDbSymbolTableRecord
100
AcDbLayerTableRecord
  2
LC-003-002-RND-0
 70
     0
 62
     1
  6
ByBlock
370
    -3
390
F
  0
LAYER
  5
D3
330
2
100
AcDbSymbolTableRecord
100
AcDbLayerTableRecord
  2
LC-004-205-----0
 70
     0
 62
     1
  6
ByBlock
370
    -3
390
F
  0
LAYER
  5
10C
330
2
100
AcDbSymbolTableRecord
100
AcDbLayerTableRecord
  2
LC-005-006-MLN-0
 70
     0
 62
     2
  6
CENTER
370
    -3
390
F
  0
LAYER
  5
17B
330
2
100
AcDbSymbolTableRecord
100
AcDbLayerTableRecord
  2
LC-006-003-----0
 70
     0
 62
     2
  6
ByBlock
370
    -3
390
F
  0
LAYER
  5
17D
330
2
100
AcDbSymbolTableRecord
100
AcDbLayerTableRecord
  2
Defpoints
 70
     0
 62
     7
  6
Continuous
290
     0
370
    -3
390
F
  0
LAYER
  5
1C4
330
2
100
AcDbSymbolTableRecord
100
AcDbLayerTableRecord
  2
LC-007-207-RND-0
 70
     0
 62
     1
  6
ByBlock
370
    -3
390
F
  0
LAYER
  5
383
330
2
100
AcDbSymbolTableRecord
100
AcDbLayerTableRecord
  2
LC-008-207-----0
 70
     0
 62
     1
  6
ByBlock
370
    -3
390
F
  0
LAYER
  5
403
330
2
100
AcDbSymbolTableRecord
100
AcDbLayerTableRecord
  2
LC-009-221-----0
 70
     0
 62
     1
  6
ByBlock
370
    -3
390
F
  0
LAYER
  5
446
330
2
100
AcDbSymbolTableRecord
100
AcDbLayerTableRecord
  2
LC-010-003-MTG-0
 70
     0
 62
     2
  6
ByBlock
370
    -3
390
F
  0
LAYER
  5
44A
330
2
100
AcDbSymbolTableRecord
100
AcDbLayerTableRecord
  2
LC-011-003-MTH-0
 70
     0
 62
     2
  6
ByBlock
370
    -3
390
F
  0
ENDTAB
  0
TABLE
  2
STYLE
  5
3
330
0
100
AcDbSymbolTable
 70
     4
  0
STYLE
  5
11
330
3
100
AcDbSymbolTableRecord
100
AcDbTextStyleTableRecord
  2
Standard
 70
     0
 40
0.0
 41
1.0
 50
0.0
 71
     0
 42
2.5
  3
txt
  4

  0
STYLE
  5
2F
330
3
100
AcDbSymbolTableRecord
100
AcDbTextStyleTableRecord
  2
LCTX15-400-0-0-Arial
 70
     0
 40
0.0
 41
0.9
 50
0.0
 71
     0
 42
3.5
  3
ARIAL.TTF
  4

1001
ACAD
1000
Arial
1071
 16777218
  0
STYLE
  5
30
330
3
100
AcDbSymbolTableRecord
100
AcDbTextStyleTableRecord
  2
LCTX0-400-0-0-DIN-Schrift
 70
     0
 40
0.0
 41
0.8
 50
0.0
 71
     0
 42
3.5
  3
MONOTXT
  4

  0
STYLE
  5
179
330
3
100
AcDbSymbolTableRecord
100
AcDbTextStyleTableRecord
  2
LCTX15-400-0-0pDIN-Schrift
 70
     0
 40
2.5
 41
0.8
 50
15.0
 71
     0
 42
3.5
  3
STANDARD
  4

  0
ENDTAB
  0
TABLE
  2
VIEW
  5
6
330
0
100
AcDbSymbolTable
 70
     0
  0
ENDTAB
  0
TABLE
  2
UCS
  5
7
330
0
100
AcDbSymbolTable
 70
     0
  0
ENDTAB
  0
TABLE
  2
APPID
  5
9
330
0
100
AcDbSymbolTable
 70
     1
  0
APPID
  5
12
330
9
100
AcDbSymbolTableRecord
100
AcDbRegAppTableRecord
  2
ACAD
 70
     0
  0
ENDTAB
  0
TABLE
  2
DIMSTYLE
  5
A
330
0
100
AcDbSymbolTable
 70
     5
100
AcDbDimStyleTable
  0
DIMSTYLE
105
27
330
A
100
AcDbSymbolTableRecord
100
AcDbDimStyleTableRecord
  2
ISO-25
 70
     0
 41
2.5
 42
0.625
 43
3.75
 44
1.25
 73
     0
 74
     0
 77
     1
 78
     8
140
2.5
141
2.5
143
0.03937
147
0.625
171
     3
172
     1
271
     2
272
     2
274
     3
278
    44
283
     0
284
     8
340
11
  0
DIMSTYLE
105
17A
102
{ACAD_REACTORS
330
17C
330
1A2
102
}
330
A
100
AcDbSymbolTableRecord
100
AcDbDimStyleTableRecord
  2
LC-DIM-L-0140-01-02
 70
     0
 40
2.0
 41
14.0
 42
0.0
 43
7.5
 44
1.8
 73
     0
 74
     0
 77
     1
 78
     8
 79
     2
140
14.0
141
0.0
146
0.71
147
1.5
176
     2
177
     2
178
     2
179
     1
271
     1
278
    44
289
     1
340
179
  0
DIMSTYLE
105
192
102
{ACAD_REACTORS
330
193
330
21C
330
30A
102
}
330
A
100
AcDbSymbolTableRecord
100
AcDbDimStyleTableRecord
  2
LC-DIM-L-0140-02-02
 70
     0
 40
2.0
 41
14.0
 42
0.0
 43
7.5
 44
1.8
 73
     0
 74
     0
 77
     1
 78
     8
 79
     2
140
14.0
141
0.0
146
0.71
147
1.5
176
     2
177
     2
178
     2
179
     2
271
     2
278
    44
289
     1
340
179
  0
DIMSTYLE
105
405
102
{ACAD_REACTORS
330
406
102
}
330
A
100
AcDbSymbolTableRecord
100
AcDbDimStyleTableRecord
  2
LC-DIM-L-0140-00-02
 70
     0
 40
2.0
 41
14.0
 42
0.0
 43
7.5
 44
1.8
 73
     0
 74
     0
 77
     1
 78
     8
140
14.0
141
0.0
146
0.71
147
1.5
176
     2
177
     2
178
     2
271
     0
278
    44
289
     1
340
179
  0
DIMSTYLE
105
42F
330
A
100
AcDbSymbolTableRecord
100
AcDbDimStyleTableRecord
  2
LC-DIM-W-0140-02-02
 70
     0
 40
2.0
 41
14.0
 42
0.0
 43
7.5
 44
1.8
 73
     0
 74
     0
 77
     1
 78
     8
 79
     2
140
14.0
141
0.0
146
0.71
147
1.5
176
     2
177
     2
178
     2
179
     2
271
     2
278
    44
289
     1
340
179
  0
ENDTAB
  0
TABLE
  2
BLOCK_RECORD
  5
1
330
0
100
AcDbSymbolTable
 70
    28
  0
BLOCK_RECORD
  5
1F
330
1
100
AcDbSymbolTableRecord
100
AcDbBlockTableRecord
  2
*Model_Space
340
22
  0
BLOCK_RECORD
  5
1B
330
1
100
AcDbSymbolTableRecord
100
AcDbBlockTableRecord
  2
*Paper_Space
340
1E
  0
BLOCK_RECORD
  5
23
330
1
100
AcDbSymbolTableRecord
100
AcDbBlockTableRecord
  2
*Paper_Space0
340
26
  0
BLOCK_RECORD
  5
35
330
1
100
AcDbSymbolTableRecord
100
AcDbBlockTableRecord
  2
*X11
340
0
102
{BLKREFS
331
4A
102
}
  0
BLOCK_RECORD
  5
4B
330
1
100
AcDbSymbolTableRecord
100
AcDbBlockTableRecord
  2
*X22
340
0
102
{BLKREFS
331
62
102
}
  0
BLOCK_RECORD
  5
79
330
1
100
AcDbSymbolTableRecord
100
AcDbBlockTableRecord
  2
*X33
340
0
102
{BLKREFS
331
7E
102
}
  0
BLOCK_RECORD
  5
80
330
1
100
AcDbSymbolTableRecord
100
AcDbBlockTableRecord
  2
*X44
340
0
102
{BLKREFS
331
D1
102
}
  0
BLOCK_RECORD
  5
D5
330
1
100
AcDbSymbolTableRecord
100
AcDbBlockTableRecord
  2
*X55
340
0
102
{BLKREFS
331
F3
102
}
  0
BLOCK_RECORD
  5
11B
330
1
100
AcDbSymbolTableRecord
100
AcDbBlockTableRecord
  2
*X66
340
0
102
{BLKREFS
331
125
102
}
  0
BLOCK_RECORD
  5
127
330
1
100
AcDbSymbolTableRecord
100
AcDbBlockTableRecord
  2
*X77
340
0
102
{BLKREFS
331
137
102
}
  0
BLOCK_RECORD
  5
161
330
1
100
AcDbSymbolTableRecord
100
AcDbBlockTableRecord
  2
*X88
340
0
102
{BLKREFS
331
166
102
}
  0
BLOCK_RECORD
  5
16A
330
1
100
AcDbSymbolTableRecord
100
AcDbBlockTableRecord
  2
*X99
340
0
102
{BLKREFS
331
177
102
}
  0
BLOCK_RECORD
  5
17E
330
1
100
AcDbSymbolTableRecord
100
AcDbBlockTableRecord
  2
*D10
340
0
  0
BLOCK_RECORD
  5
18C
330
1
100
AcDbSymbolTableRecord
100
AcDbBlockTableRecord
  2
*X1011
340
0
102
{BLKREFS
331
191
102
}
  0
BLOCK_RECORD
  5
194
330
1
100
AcDbSymbolTableRecord
100
AcDbBlockTableRecord
  2
*D12
340
0
  0
BLOCK_RECORD
  5
1A3
330
1
100
AcDbSymbolTableRecord
100
AcDbBlockTableRecord
  2
*D13
340
0
  0
BLOCK_RECORD
  5
1CA
330
1
100
AcDbSymbolTableRecord
100
AcDbBlockTableRecord
  2
*X1114
340
0
102
{BLKREFS
331
1DF
102
}
  0
BLOCK_RECORD
  5
1E0
330
1
100
AcDbSymbolTableRecord
100
AcDbBlockTableRecord
  2
*X1215
340
0
102
{BLKREFS
331
1F6
102
}
  0
BLOCK_RECORD
  5
21D
330
1
100
AcDbSymbolTableRecord
100
AcDbBlockTableRecord
  2
*D16
340
0
  0
BLOCK_RECORD
  5
24A
330
1
100
AcDbSymbolTableRecord
100
AcDbBlockTableRecord
  2
*X1317
340
0
102
{BLKREFS
331
296
102
}
  0
BLOCK_RECORD
  5
2AF
330
1
100
AcDbSymbolTableRecord
100
AcDbBlockTableRecord
  2
*X1418
340
0
102
{BLKREFS
331
2FD
102
}
  0
BLOCK_RECORD
  5
30B
330
1
100
AcDbSymbolTableRecord
100
AcDbBlockTableRecord
  2
*D19
340
0
  0
BLOCK_RECORD
  5
325
330
1
100
AcDbSymbolTableRecord
100
AcDbBlockTableRecord
  2
*X1520
340
0
102
{BLKREFS
331
32E
102
}
  0
BLOCK_RECORD
  5
356
330
1
100
AcDbSymbolTableRecord
100
AcDbBlockTableRecord
  2
*X1621
340
0
102
{BLKREFS
331
35B
102
}
  0
BLOCK_RECORD
  5
35D
330
1
100
AcDbSymbolTableRecord
100
AcDbBlockTableRecord
  2
*X1722
340
0
102
{BLKREFS
331
362
102
}
  0
BLOCK_RECORD
  5
363
330
1
100
AcDbSymbolTableRecord
100
AcDbBlockTableRecord
  2
*X1823
340
0
102
{BLKREFS
331
36E
102
}
  0
BLOCK_RECORD
  5
390
330
1
100
AcDbSymbolTableRecord
100
AcDbBlockTableRecord
  2
*X1924
340
0
102
{BLKREFS
331
39E
102
}
  0
BLOCK_RECORD
  5
3A3
330
1
100
AcDbSymbolTableRecord
100
AcDbBlockTableRecord
  2
*X2025
340
0
102
{BLKREFS
331
3F8
102
}
  0
BLOCK_RECORD
  5
407
330
1
100
AcDbSymbolTableRecord
100
AcDbBlockTableRecord
  2
*D26
340
0
  0
BLOCK_RECORD
  5
430
330
1
100
AcDbSymbolTableRecord
100
AcDbBlockTableRecord
  2
LCDIM1
340
0
102
{BLKREFS
331
44D
102
}
  0
ENDTAB
  0
ENDSEC
  0
SECTION
  2
BLOCKS
  0
BLOCK
  5
20
330
1F
100
AcDbEntity
  8
0
100
AcDbBlockBegin
  2
*Model_Space
 70
     0
 71
     0
 10
0.0
 20
0.0
 30
0.0
  3
*Model_Space
  1

  0
ENDBLK
  5
21
330
1F
100
AcDbEntity
  8
0
100
AcDbBlockEnd
  0
BLOCK
  5
1C
330
1B
100
AcDbEntity
 67
     1
  8
0
100
AcDbBlockBegin
  2
*Paper_Space
 70
     0
 71
     0
 10
0.0
 20
0.0
 30
0.0
  3
*Paper_Space
  1

  0
ENDBLK
  5
1D
330
1B
100
AcDbEntity
 67
     1
  8
0
100
AcDbBlockEnd
  0
BLOCK
  5
24
330
23
100
AcDbEntity
  8
0
100
AcDbBlockBegin
  2
*Paper_Space0
 70
     0
 71
     0
 10
0.0
 20
0.0
 30
0.0
  3
*Paper_Space0
  1

  0
ENDBLK
  5
25
330
23
100
AcDbEntity
  8
0
100
AcDbBlockEnd
  0
BLOCK
  5
36
330
35
100
AcDbEntity
  8
0
100
AcDbBlockBegin
  2
*X11
 70
     1
 71
     0
 10
0.0
 20
0.0
 30
0.0
  3
*X11
  1

  4
*X1
  0
LINE
  5
39
330
35
100
AcDbEntity
  8
LC-002-005-----0
 62
     7
370
    25
100
AcDbLine
 10
237.860831
 20
124.723746
 30
0.0
 11
239.574375
 21
126.43729
 31
0.0
  0
LINE
  5
3A
330
35
100
AcDbEntity
  8
LC-002-005-----0
 62
     7
370
    25
100
AcDbLine
 10
235.032403
 20
124.723746
 30
0.0
 11
237.879999
 21
127.571341
 31
0.0
  0
LINE
  5
3B
330
35
100
AcDbEntity
  8
LC-002-005-----0
 62
     7
370
    25
100
AcDbLine
 10
232.203976
 20
124.723746
 30
0.0
 11
236.081942
 21
128.601711
 31
0.0
  0
LINE
  5
3C
330
35
100
AcDbEntity
  8
LC-002-005-----0
 62
     7
370
    25
100
AcDbLine
 10
229.375549
 20
124.723746
 30
0.0
 11
232.071996
 21
127.420193
 31
0.0
  0
LINE
  5
3D
330
35
100
AcDbEntity
  8
LC-002-005-----0
 62
     7
370
    25
100
AcDbLine
 10
232.87182
 20
128.220017
 30
0.0
 11
234.174084
 21
129.522281
 31
0.0
  0
LINE
  5
3E
330
35
100
AcDbEntity
  8
LC-002-005-----0
 62
     7
370
    25
100
AcDbLine
 10
226.547122
 20
124.723746
 30
0.0
 11
229.243569
 21
127.420193
 31
0.0
  0
LINE
  5
3F
330
35
100
AcDbEntity
  8
LC-002-005-----0
 62
     7
370
    25
100
AcDbLine
 10
223.718695
 20
124.723746
 30
0.0
 11
228.37182
 21
129.376871
 31
0.0
  0
LINE
  5
40
330
35
100
AcDbEntity
  8
LC-002-005-----0
 62
     7
370
    25
100
AcDbLine
 10
220.890268
 20
124.723746
 30
0.0
 11
227.687312
 21
131.52079
 31
0.0
  0
LINE
  5
41
330
35
100
AcDbEntity
  8
LC-002-005-----0
 62
     7
370
    25
100
AcDbLine
 10
218.061841
 20
124.723746
 30
0.0
 11
225.212013
 21
131.873918
 31
0.0
  0
LINE
  5
42
330
35
100
AcDbEntity
  8
LC-002-005-----0
 62
     7
370
    25
100
AcDbLine
 10
215.233414
 20
124.723746
 30
0.0
 11
222.528755
 21
132.019088
 31
0.0
  0
LINE
  5
43
330
35
100
AcDbEntity
  8
LC-002-005-----0
 62
     7
370
    25
100
AcDbLine
 10
212.404986
 20
124.723746
 30
0.0
 11
219.578546
 21
131.897305
 31
0.0
  0
LINE
  5
44
330
35
100
AcDbEntity
  8
LC-002-005-----0
 62
     7
370
    25
100
AcDbLine
 10
209.576559
 20
124.723746
 30
0.0
 11
216.254744
 21
131.40193
 31
0.0
  0
LINE
  5
45
330
35
100
AcDbEntity
  8
LC-002-005-----0
 62
     7
370
    25
100
AcDbLine
 10
196.144579
 20
114.120193
 30
0.0
 11
198.549042
 21
116.524655
 31
0.0
  0
LINE
  5
46
330
35
100
AcDbEntity
  8
LC-002-005-----0
 62
     7
370
    25
100
AcDbLine
 10
206.748132
 20
124.723746
 30
0.0
 11
212.321662
 21
130.297275
 31
0.0
  0
LINE
  5
47
330
35
100
AcDbEntity
  8
LC-002-005-----0
 62
     7
370
    25
100
AcDbLine
 10
193.316152
 20
114.120193
 30
0.0
 11
196.316152
 21
117.120193
 31
0.0
  0
LINE
  5
48
330
35
100
AcDbEntity
  8
LC-002-005-----0
 62
     7
370
    25
100
AcDbLine
 10
196.960975
 20
117.765015
 30
0.0
 11
206.928134
 21
127.732174
 31
0.0
  0
LINE
  5
49
330
35
100
AcDbEntity
  8
LC-002-005-----0
 62
     7
370
    25
100
AcDbLine
 10
201.872512
 20
125.50498
 30
0.0
 11
204.287725
 21
127.920193
 31
0.0
  0
ENDBLK
  5
37
330
35
100
AcDbEntity
  8
0
100
AcDbBlockEnd
  0
BLOCK
  5
4C
330
4B
100
AcDbEntity
  8
0
100
AcDbBlockBegin
  2
*X22
 70
     1
 71
     0
 10
0.0
 20
0.0
 30
0.0
  3
*X22
  1

  4
*X2
  0
LINE
  5
4E
330
4B
100
AcDbEntity
  8
LC-002-005-----0
 62
     7
370
    25
100
AcDbLine
 10
239.753502
 20
78.533156
 30
0.0
 11
239.872512
 21
78.652166
 31
0.0
  0
LINE
  5
4F
330
4B
100
AcDbEntity
  8
LC-002-005-----0
 62
     7
370
    25
100
AcDbLine
 10
233.371648
 20
74.979729
 30
0.0
 11
238.512112
 21
80.120193
 31
0.0
  0
LINE
  5
50
330
4B
100
AcDbEntity
  8
LC-002-005-----0
 62
     7
370
    25
100
AcDbLine
 10
232.87182
 20
77.308328
 30
0.0
 11
235.683685
 21
80.120193
 31
0.0
  0
LINE
  5
51
330
4B
100
AcDbEntity
  8
LC-002-005-----0
 62
     7
370
    25
100
AcDbLine
 10
225.761556
 20
73.026492
 30
0.0
 11
228.37182
 21
75.636756
 31
0.0
  0
LINE
  5
52
330
4B
100
AcDbEntity
  8
LC-002-005-----0
 62
     7
370
    25
100
AcDbLine
 10
230.155258
 20
77.420193
 30
0.0
 11
232.855258
 21
80.120193
 31
0.0
  0
LINE
  5
53
330
4B
100
AcDbEntity
  8
LC-002-005-----0
 62
     7
370
    25
100
AcDbLine
 10
222.730365
 20
72.823727
 30
0.0
 11
230.02683
 21
80.120193
 31
0.0
  0
LINE
  5
54
330
4B
100
AcDbEntity
  8
LC-002-005-----0
 62
     7
370
    25
100
AcDbLine
 10
219.98682
 20
72.908609
 30
0.0
 11
227.198403
 21
80.120193
 31
0.0
  0
LINE
  5
55
330
4B
100
AcDbEntity
  8
LC-002-005-----0
 62
     7
370
    25
100
AcDbLine
 10
217.46334
 20
73.213557
 30
0.0
 11
224.369976
 21
80.120193
 31
0.0
  0
LINE
  5
56
330
4B
100
AcDbEntity
  8
LC-002-005-----0
 62
     7
370
    25
100
AcDbLine
 10
215.119055
 20
73.697698
 30
0.0
 11
221.541549
 21
80.120193
 31
0.0
  0
LINE
  5
57
330
4B
100
AcDbEntity
  8
LC-002-005-----0
 62
     7
370
    25
100
AcDbLine
 10
212.927229
 20
74.3343
 30
0.0
 11
218.713122
 21
80.120193
 31
0.0
  0
LINE
  5
58
330
4B
100
AcDbEntity
  8
LC-002-005-----0
 62
     7
370
    25
100
AcDbLine
 10
210.869483
 20
75.104981
 30
0.0
 11
215.884695
 21
80.120193
 31
0.0
  0
LINE
  5
59
330
4B
100
AcDbEntity
  8
LC-002-005-----0
 62
     7
370
    25
100
AcDbLine
 10
208.932793
 20
75.996718
 30
0.0
 11
213.056268
 21
80.120193
 31
0.0
  0
LINE
  5
5A
330
4B
100
AcDbEntity
  8
LC-002-005-----0
 62
     7
370
    25
100
AcDbLine
 10
207.107805
 20
77.000158
 30
0.0
 11
210.227841
 21
80.120193
 31
0.0
  0
LINE
  5
5B
330
4B
100
AcDbEntity
  8
LC-002-005-----0
 62
     7
370
    25
100
AcDbLine
 10
204.199413
 20
76.920193
 30
0.0
 11
204.372512
 21
77.093292
 31
0.0
  0
LINE
  5
5C
330
4B
100
AcDbEntity
  8
LC-002-005-----0
 62
     7
370
    25
100
AcDbLine
 10
205.387837
 20
78.108617
 30
0.0
 11
207.399413
 21
80.120193
 31
0.0
  0
LINE
  5
5D
330
4B
100
AcDbEntity
  8
LC-002-005-----0
 62
     7
370
    25
100
AcDbLine
 10
201.872512
 20
77.421719
 30
0.0
 11
204.570986
 21
80.120193
 31
0.0
  0
LINE
  5
5E
330
4B
100
AcDbEntity
  8
LC-002-005-----0
 62
     7
370
    25
100
AcDbLine
 10
199.742559
 20
78.120193
 30
0.0
 11
201.742559
 21
80.120193
 31
0.0
  0
LINE
  5
5F
330
4B
100
AcDbEntity
  8
LC-002-005-----0
 62
     7
370
    25
100
AcDbLine
 10
196.914132
 20
78.120193
 30
0.0
 11
198.914132
 21
80.120193
 31
0.0
  0
LINE
  5
60
330
4B
100
AcDbEntity
  8
LC-002-005-----0
 62
     7
370
    25
100
AcDbLine
 10
194.085705
 20
78.120193
 30
0.0
 11
196.085705
 21
80.120193
 31
0.0
  0
LINE
  5
61
330
4B
100
AcDbEntity
  8
LC-002-005-----0
 62
     7
370
    25
100
AcDbLine
 10
191.257278
 20
78.120193
 30
0.0
 11
193.257278
 21
80.120193
 31
0.0
  0
ENDBLK
  5
4D
330
4B
100
AcDbEntity
  8
0
100
AcDbBlockEnd
  0
BLOCK
  5
7A
330
79
100
AcDbEntity
  8
0
100
AcDbBlockBegin
  2
*X33
 70
     1
 71
     0
 10
0.0
 20
0.0
 30
0.0
  3
*X33
  1

  4
*X3
  0
LINE
  5
7C
330
79
100
AcDbEntity
  8
LC-002-005-----0
 62
     7
370
    25
100
AcDbLine
 10
190.487725
 20
114.120193
 30
0.0
 11
193.487725
 21
117.120193
 31
0.0
  0
LINE
  5
7D
330
79
100
AcDbEntity
  8
LC-002-005-----0
 62
     7
370
    25
100
AcDbLine
 10
190.582889
 20
117.043784
 30
0.0
 11
190.659298
 21
117.120193
 31
0.0
  0
ENDBLK
  5
7B
330
79
100
AcDbEntity
  8
0
100
AcDbBlockEnd
  0
BLOCK
  5
81
330
80
100
AcDbEntity
  8
0
100
AcDbBlockBegin
  2
*X44
 70
     1
 71
     0
 10
0.0
 20
0.0
 30
0.0
  3
*X44
  1

  4
*X4
  0
LINE
  5
83
330
80
100
AcDbEntity
  8
LC-002-005-----0
 62
     7
370
    25
100
AcDbLine
 10
163.884695
 20
28.120193
 30
0.0
 11
164.38967
 21
28.625168
 31
0.0
  0
LINE
  5
84
330
80
100
AcDbEntity
  8
LC-002-005-----0
 62
     7
370
    25
100
AcDbLine
 10
161.056268
 20
28.120193
 30
0.0
 11
164.374937
 21
31.438863
 31
0.0
  0
LINE
  5
85
330
80
100
AcDbEntity
  8
LC-002-005-----0
 62
     7
370
    25
100
AcDbLine
 10
158.227841
 20
28.120193
 30
0.0
 11
160.227841
 21
30.120193
 31
0.0
  0
LINE
  5
86
330
80
100
AcDbEntity
  8
LC-002-005-----0
 62
     7
370
    25
100
AcDbLine
 10
162.391776
 20
32.284128
 30
0.0
 11
164.360205
 21
34.252557
 31
0.0
  0
LINE
  5
87
330
80
100
AcDbEntity
  8
LC-002-005-----0
 62
     7
370
    25
100
AcDbLine
 10
155.399413
 20
28.120193
 30
0.0
 11
157.399413
 21
30.120193
 31
0.0
  0
LINE
  5
88
330
80
100
AcDbEntity
  8
LC-002-005-----0
 62
     7
370
    25
100
AcDbLine
 10
162.406664
 20
35.127443
 30
0.0
 11
164.345472
 21
37.066252
 31
0.0
  0
LINE
  5
89
330
80
100
AcDbEntity
  8
LC-002-005-----0
 62
     7
370
    25
100
AcDbLine
 10
152.570986
 20
28.120193
 30
0.0
 11
154.570986
 21
30.120193
 31
0.0
  0
LINE
  5
8A
330
80
100
AcDbEntity
  8
LC-002-005-----0
 62
     7
370
    25
100
AcDbLine
 10
162.421551
 20
37.970758
 30
0.0
 11
164.33074
 21
39.879946
 31
0.0
  0
LINE
  5
8B
330
80
100
AcDbEntity
  8
LC-002-005-----0
 62
     7
370
    25
100
AcDbLine
 10
149.742559
 20
28.120193
 30
0.0
 11
151.742559
 21
30.120193
 31
0.0
  0
LINE
  5
8C
330
80
100
AcDbEntity
  8
LC-002-005-----0
 62
     7
370
    25
100
AcDbLine
 10
162.436439
 20
40.814073
 30
0.0
 11
164.316007
 21
42.693641
 31
0.0
  0
LINE
  5
8D
330
80
100
AcDbEntity
  8
LC-002-005-----0
 62
     7
370
    25
100
AcDbLine
 10
146.914132
 20
28.120193
 30
0.0
 11
148.914132
 21
30.120193
 31
0.0
  0
LINE
  5
8E
330
80
100
AcDbEntity
  8
LC-002-005-----0
 62
     7
370
    25
100
AcDbLine
 10
162.451327
 20
43.657387
 30
0.0
 11
164.301274
 21
45.507335
 31
0.0
  0
LINE
  5
8F
330
80
100
AcDbEntity
  8
LC-002-005-----0
 62
     7
370
    25
100
AcDbLine
 10
144.085705
 20
28.120193
 30
0.0
 11
146.085705
 21
30.120193
 31
0.0
  0
LINE
  5
90
330
80
100
AcDbEntity
  8
LC-002-005-----0
 62
     7
370
    25
100
AcDbLine
 10
162.466214
 20
46.500702
 30
0.0
 11
164.286542
 21
48.32103
 31
0.0
  0
LINE
  5
91
330
80
100
AcDbEntity
  8
LC-002-005-----0
 62
     7
370
    25
100
AcDbLine
 10
141.257278
 20
28.120193
 30
0.0
 11
143.257278
 21
30.120193
 31
0.0
  0
LINE
  5
92
330
80
100
AcDbEntity
  8
LC-002-005-----0
 62
     7
370
    25
100
AcDbLine
 10
162.481102
 20
49.344017
 30
0.0
 11
164.271809
 21
51.134724
 31
0.0
  0
LINE
  5
93
330
80
100
AcDbEntity
  8
LC-002-005-----0
 62
     7
370
    25
100
AcDbLine
 10
138.428851
 20
28.120193
 30
0.0
 11
140.428851
 21
30.120193
 31
0.0
  0
LINE
  5
94
330
80
100
AcDbEntity
  8
LC-002-005-----0
 62
     7
370
    25
100
AcDbLine
 10
162.49599
 20
52.187332
 30
0.0
 11
164.257077
 21
53.948419
 31
0.0
  0
LINE
  5
95
330
80
100
AcDbEntity
  8
LC-002-005-----0
 62
     7
370
    25
100
AcDbLine
 10
135.600424
 20
28.120193
 30
0.0
 11
137.600424
 21
30.120193
 31
0.0
  0
LINE
  5
96
330
80
100
AcDbEntity
  8
LC-002-005-----0
 62
     7
370
    25
100
AcDbLine
 10
162.510877
 20
55.030647
 30
0.0
 11
164.242344
 21
56.762113
 31
0.0
  0
LINE
  5
97
330
80
100
AcDbEntity
  8
LC-002-005-----0
 62
     7
370
    25
100
AcDbLine
 10
132.771996
 20
28.120193
 30
0.0
 11
134.771996
 21
30.120193
 31
0.0
  0
LINE
  5
98
330
80
100
AcDbEntity
  8
LC-002-005-----0
 62
     7
370
    25
100
AcDbLine
 10
162.525765
 20
57.873961
 30
0.0
 11
164.227611
 21
59.575808
 31
0.0
  0
LINE
  5
99
330
80
100
AcDbEntity
  8
LC-002-005-----0
 62
     7
370
    25
100
AcDbLine
 10
129.943569
 20
28.120193
 30
0.0
 11
131.943569
 21
30.120193
 31
0.0
  0
LINE
  5
9A
330
80
100
AcDbEntity
  8
LC-002-005-----0
 62
     7
370
    25
100
AcDbLine
 10
162.540653
 20
60.717276
 30
0.0
 11
164.212879
 21
62.389502
 31
0.0
  0
LINE
  5
9B
330
80
100
AcDbEntity
  8
LC-002-005-----0
 62
     7
370
    25
100
AcDbLine
 10
127.115142
 20
28.120193
 30
0.0
 11
129.115142
 21
30.120193
 31
0.0
  0
LINE
  5
9C
330
80
100
AcDbEntity
  8
LC-002-005-----0
 62
     7
370
    25
100
AcDbLine
 10
162.55554
 20
63.560591
 30
0.0
 11
164.198146
 21
65.203197
 31
0.0
  0
LINE
  5
9D
330
80
100
AcDbEntity
  8
LC-002-005-----0
 62
     7
370
    25
100
AcDbLine
 10
124.286715
 20
28.120193
 30
0.0
 11
126.286715
 21
30.120193
 31
0.0
  0
LINE
  5
9E
330
80
100
AcDbEntity
  8
LC-002-005-----0
 62
     7
370
    25
100
AcDbLine
 10
162.570428
 20
66.403906
 30
0.0
 11
164.183414
 21
68.016891
 31
0.0
  0
LINE
  5
9F
330
80
100
AcDbEntity
  8
LC-002-005-----0
 62
     7
370
    25
100
AcDbLine
 10
121.458288
 20
28.120193
 30
0.0
 11
123.458288
 21
30.120193
 31
0.0
  0
LINE
  5
A0
330
80
100
AcDbEntity
  8
LC-002-005-----0
 62
     7
370
    25
100
AcDbLine
 10
162.585316
 20
69.247221
 30
0.0
 11
164.168681
 21
70.830586
 31
0.0
  0
LINE
  5
A1
330
80
100
AcDbEntity
  8
LC-002-005-----0
 62
     7
370
    25
100
AcDbLine
 10
118.699826
 20
28.190158
 30
0.0
 11
120.629861
 21
30.120193
 31
0.0
  0
LINE
  5
A2
330
80
100
AcDbEntity
  8
LC-002-005-----0
 62
     7
370
    25
100
AcDbLine
 10
162.600204
 20
72.090536
 30
0.0
 11
164.153948
 21
73.64428
 31
0.0
  0
LINE
  5
A3
330
80
100
AcDbEntity
  8
LC-002-005-----0
 62
     7
370
    25
100
AcDbLine
 10
116.286127
 20
28.604886
 30
0.0
 11
117.978003
 21
30.296763
 31
0.0
  0
LINE
  5
A4
330
80
100
AcDbEntity
  8
LC-002-005-----0
 62
     7
370
    25
100
AcDbLine
 10
162.615091
 20
74.93385
 30
0.0
 11
164.139216
 21
76.457975
 31
0.0
  0
LINE
  5
A5
330
80
100
AcDbEntity
  8
LC-002-005-----0
 62
     7
370
    25
100
AcDbLine
 10
114.156167
 20
29.303353
 30
0.0
 11
115.710505
 21
30.857691
 31
0.0
  0
LINE
  5
A6
330
80
100
AcDbEntity
  8
LC-002-005-----0
 62
     7
370
    25
100
AcDbLine
 10
162.629979
 20
77.777165
 30
0.0
 11
164.124483
 21
79.271669
 31
0.0
  0
LINE
  5
A7
330
80
100
AcDbEntity
  8
LC-002-005-----0
 62
     7
370
    25
100
AcDbLine
 10
112.253988
 20
30.229601
 30
0.0
 11
113.727651
 21
31.703265
 31
0.0
  0
LINE
  5
A8
330
80
100
AcDbEntity
  8
LC-002-005-----0
 62
     7
370
    25
100
AcDbLine
 10
162.644867
 20
80.62048
 30
0.0
 11
164.10975
 21
82.085364
 31
0.0
  0
LINE
  5
A9
330
80
100
AcDbEntity
  8
LC-002-005-----0
 62
     7
370
    25
100
AcDbLine
 10
110.549792
 20
31.353833
 30
0.0
 11
111.979644
 21
32.783684
 31
0.0
  0
LINE
  5
AA
330
80
100
AcDbEntity
  8
LC-002-005-----0
 62
     7
370
    25
100
AcDbLine
 10
162.659754
 20
83.463795
 30
0.0
 11
164.095018
 21
84.899058
 31
0.0
  0
LINE
  5
AB
330
80
100
AcDbEntity
  8
LC-002-005-----0
 62
     7
370
    25
100
AcDbLine
 10
109.028345
 20
32.660813
 30
0.0
 11
110.442695
 21
34.075162
 31
0.0
  0
LINE
  5
AC
330
80
100
AcDbEntity
  8
LC-002-005-----0
 62
     7
370
    25
100
AcDbLine
 10
162.674642
 20
86.30711
 30
0.0
 11
164.080285
 21
87.712753
 31
0.0
  0
LINE
  5
AD
330
80
100
AcDbEntity
  8
LC-002-005-----0
 62
     7
370
    25
100
AcDbLine
 10
107.684417
 20
34.145311
 30
0.0
 11
109.108886
 21
35.56978
 31
0.0
  0
LINE
  5
AE
330
80
100
AcDbEntity
  8
LC-002-005-----0
 62
     7
370
    25
100
AcDbLine
 10
162.68953
 20
89.150425
 30
0.0
 11
164.065553
 21
90.526447
 31
0.0
  0
LINE
  5
AF
330
80
100
AcDbEntity
  8
LC-002-005-----0
 62
     7
370
    25
100
AcDbLine
 10
106.521411
 20
35.810733
 30
0.0
 11
107.983358
 21
37.27268
 31
0.0
  0
LINE
  5
B0
330
80
100
AcDbEntity
  8
LC-002-005-----0
 62
     7
370
    25
100
AcDbLine
 10
162.704417
 20
91.993739
 30
0.0
 11
164.05082
 21
93.340142
 31
0.0
  0
LINE
  5
B1
330
80
100
AcDbEntity
  8
LC-002-005-----0
 62
     7
370
    25
100
AcDbLine
 10
105.552249
 20
37.669998
 30
0.0
 11
107.086103
 21
39.203852
 31
0.0
  0
LINE
  5
B2
330
80
100
AcDbEntity
  8
LC-002-005-----0
 62
     7
370
    25
100
AcDbLine
 10
162.719305
 20
94.837054
 30
0.0
 11
164.036087
 21
96.153836
 31
0.0
  0
LINE
  5
B3
330
80
100
AcDbEntity
  8
LC-002-005-----0
 62
     7
370
    25
100
AcDbLine
 10
104.803089
 20
39.749265
 30
0.0
 11
106.460057
 21
41.406234
 31
0.0
  0
LINE
  5
B4
330
80
100
AcDbEntity
  8
LC-002-005-----0
 62
     7
370
    25
100
AcDbLine
 10
162.734193
 20
97.680369
 30
0.0
 11
163.174017
 21
98.120193
 31
0.0
  0
LINE
  5
B5
330
80
100
AcDbEntity
  8
LC-002-005-----0
 62
     7
370
    25
100
AcDbLine
 10
104.322855
 20
42.097458
 30
0.0
 11
106.191335
 21
43.965939
 31
0.0
  0
LINE
  5
B6
330
80
100
AcDbEntity
  8
LC-002-005-----0
 62
     7
370
    25
100
AcDbLine
 10
104.162204
 20
44.765235
 30
0.0
 11
106.095897
 21
46.698928
 31
0.0
  0
LINE
  5
B7
330
80
100
AcDbEntity
  8
LC-002-005-----0
 62
     7
370
    25
100
AcDbLine
 10
104.066766
 20
47.498224
 30
0.0
 11
106.000459
 21
49.431917
 31
0.0
  0
LINE
  5
B8
330
80
100
AcDbEntity
  8
LC-002-005-----0
 62
     7
370
    25
100
AcDbLine
 10
103.971328
 20
50.231213
 30
0.0
 11
105.905021
 21
52.164906
 31
0.0
  0
LINE
  5
B9
330
80
100
AcDbEntity
  8
LC-002-005-----0
 62
     7
370
    25
100
AcDbLine
 10
103.87589
 20
52.964202
 30
0.0
 11
105.809583
 21
54.897895
 31
0.0
  0
LINE
  5
BA
330
80
100
AcDbEntity
  8
LC-002-005-----0
 62
     7
370
    25
100
AcDbLine
 10
103.780452
 20
55.697191
 30
0.0
 11
105.714145
 21
57.630884
 31
0.0
  0
LINE
  5
BB
330
80
100
AcDbEntity
  8
LC-002-005-----0
 62
     7
370
    25
100
AcDbLine
 10
103.685014
 20
58.43018
 30
0.0
 11
105.618707
 21
60.363873
 31
0.0
  0
LINE
  5
BC
330
80
100
AcDbEntity
  8
LC-002-005-----0
 62
     7
370
    25
100
AcDbLine
 10
103.589576
 20
61.163169
 30
0.0
 11
105.523269
 21
63.096862
 31
0.0
  0
LINE
  5
BD
330
80
100
AcDbEntity
  8
LC-002-005-----0
 62
     7
370
    25
100
AcDbLine
 10
103.494138
 20
63.896158
 30
0.0
 11
105.427831
 21
65.829851
 31
0.0
  0
LINE
  5
BE
330
80
100
AcDbEntity
  8
LC-002-005-----0
 62
     7
370
    25
100
AcDbLine
 10
103.3987
 20
66.629147
 30
0.0
 11
105.332393
 21
68.56284
 31
0.0
  0
LINE
  5
BF
330
80
100
AcDbEntity
  8
LC-002-005-----0
 62
     7
370
    25
100
AcDbLine
 10
103.303261
 20
69.362136
 30
0.0
 11
105.236954
 21
71.295829
 31
0.0
  0
LINE
  5
C0
330
80
100
AcDbEntity
  8
LC-002-005-----0
 62
     7
370
    25
100
AcDbLine
 10
103.207823
 20
72.095125
 30
0.0
 11
105.141516
 21
74.028818
 31
0.0
  0
LINE
  5
C1
330
80
100
AcDbEntity
  8
LC-002-005-----0
 62
     7
370
    25
100
AcDbLine
 10
103.112385
 20
74.828114
 30
0.0
 11
105.046078
 21
76.761807
 31
0.0
  0
LINE
  5
C2
330
80
100
AcDbEntity
  8
LC-002-005-----0
 62
     7
370
    25
100
AcDbLine
 10
103.016947
 20
77.561103
 30
0.0
 11
104.95064
 21
79.494796
 31
0.0
  0
LINE
  5
C3
330
80
100
AcDbEntity
  8
LC-002-005-----0
 62
     7
370
    25
100
AcDbLine
 10
102.921509
 20
80.294092
 30
0.0
 11
104.855202
 21
82.227785
 31
0.0
  0
LINE
  5
C4
330
80
100
AcDbEntity
  8
LC-002-005-----0
 62
     7
370
    25
100
AcDbLine
 10
102.826071
 20
83.027081
 30
0.0
 11
104.759764
 21
84.960774
 31
0.0
  0
LINE
  5
C5
330
80
100
AcDbEntity
  8
LC-002-005-----0
 62
     7
370
    25
100
AcDbLine
 10
102.730633
 20
85.76007
 30
0.0
 11
104.664326
 21
87.693763
 31
0.0
  0
LINE
  5
C6
330
80
100
AcDbEntity
  8
LC-002-005-----0
 62
     7
370
    25
100
AcDbLine
 10
102.635195
 20
88.493059
 30
0.0
 11
104.568888
 21
90.426752
 31
0.0
  0
LINE
  5
C7
330
80
100
AcDbEntity
  8
LC-002-005-----0
 62
     7
370
    25
100
AcDbLine
 10
102.539757
 20
91.226048
 30
0.0
 11
104.47345
 21
93.159741
 31
0.0
  0
LINE
  5
C8
330
80
100
AcDbEntity
  8
LC-002-005-----0
 62
     7
370
    25
100
AcDbLine
 10
102.444319
 20
93.959037
 30
0.0
 11
104.378012
 21
95.89273
 31
0.0
  0
LINE
  5
C9
330
80
100
AcDbEntity
  8
LC-002-005-----0
 62
     7
370
    25
100
AcDbLine
 10
102.348881
 20
96.692026
 30
0.0
 11
104.282574
 21
98.625719
 31
0.0
  0
LINE
  5
CA
330
80
100
AcDbEntity
  8
LC-002-005-----0
 62
     7
370
    25
100
AcDbLine
 10
102.253443
 20
99.425015
 30
0.0
 11
104.187136
 21
101.358708
 31
0.0
  0
LINE
  5
CB
330
80
100
AcDbEntity
  8
LC-002-005-----0
 62
     7
370
    25
100
AcDbLine
 10
102.182889
 20
102.182889
 30
0.0
 11
104.182889
 21
104.182889
 31
0.0
  0
LINE
  5
CC
330
80
100
AcDbEntity
  8
LC-002-005-----0
 62
     7
370
    25
100
AcDbLine
 10
102.182889
 20
105.011316
 30
0.0
 11
104.182889
 21
107.011316
 31
0.0
  0
LINE
  5
CD
330
80
100
AcDbEntity
  8
LC-002-005-----0
 62
     7
370
    25
100
AcDbLine
 10
102.182889
 20
107.839743
 30
0.0
 11
104.182889
 21
109.839743
 31
0.0
  0
LINE
  5
CE
330
80
100
AcDbEntity
  8
LC-002-005-----0
 62
     7
370
    25
100
AcDbLine
 10
102.182889
 20
110.668171
 30
0.0
 11
104.182889
 21
112.668171
 31
0.0
  0
LINE
  5
CF
330
80
100
AcDbEntity
  8
LC-002-005-----0
 62
     7
370
    25
100
AcDbLine
 10
102.182889
 20
113.496598
 30
0.0
 11
104.182889
 21
115.496598
 31
0.0
  0
LINE
  5
D0
330
80
100
AcDbEntity
  8
LC-002-005-----0
 62
     7
370
    25
100
AcDbLine
 10
101.478057
 20
115.620193
 30
0.0
 11
102.978057
 21
117.120193
 31
0.0
  0
ENDBLK
  5
82
330
80
100
AcDbEntity
  8
0
100
AcDbBlockEnd
  0
BLOCK
  5
D6
330
D5
100
AcDbEntity
  8
0
100
AcDbBlockBegin
  2
*X55
 70
     1
 71
     0
 10
0.0
 20
0.0
 30
0.0
  3
*X55
  1

  4
*X5
  0
LINE
  5
D8
330
D5
100
AcDbEntity
  8
LC-002-005-----0
 62
     7
370
    25
100
AcDbLine
 10
187.039515
 20
28.647596
 30
0.0
 11
189.113147
 21
30.721228
 31
0.0
  0
LINE
  5
D9
330
D5
100
AcDbEntity
  8
LC-002-005-----0
 62
     7
370
    25
100
AcDbLine
 10
187.14186
 20
31.578368
 30
0.0
 11
189.215491
 21
33.652
 31
0.0
  0
LINE
  5
DA
330
D5
100
AcDbEntity
  8
LC-002-005-----0
 62
     7
370
    25
100
AcDbLine
 10
187.244204
 20
34.50914
 30
0.0
 11
189.317836
 21
36.582772
 31
0.0
  0
LINE
  5
DB
330
D5
100
AcDbEntity
  8
LC-002-005-----0
 62
     7
370
    25
100
AcDbLine
 10
187.346549
 20
37.439912
 30
0.0
 11
189.420181
 21
39.513543
 31
0.0
  0
LINE
  5
DC
330
D5
100
AcDbEntity
  8
LC-002-005-----0
 62
     7
370
    25
100
AcDbLine
 10
187.448894
 20
40.370684
 30
0.0
 11
189.522526
 21
42.444315
 31
0.0
  0
LINE
  5
DD
330
D5
100
AcDbEntity
  8
LC-002-005-----0
 62
     7
370
    25
100
AcDbLine
 10
187.551239
 20
43.301455
 30
0.0
 11
189.624871
 21
45.375087
 31
0.0
  0
LINE
  5
DE
330
D5
100
AcDbEntity
  8
LC-002-005-----0
 62
     7
370
    25
100
AcDbLine
 10
187.653584
 20
46.232227
 30
0.0
 11
189.727216
 21
48.305859
 31
0.0
  0
LINE
  5
DF
330
D5
100
AcDbEntity
  8
LC-002-005-----0
 62
     7
370
    25
100
AcDbLine
 10
187.755928
 20
49.162999
 30
0.0
 11
189.82956
 21
51.236631
 31
0.0
  0
LINE
  5
E0
330
D5
100
AcDbEntity
  8
LC-002-005-----0
 62
     7
370
    25
100
AcDbLine
 10
187.858273
 20
52.093771
 30
0.0
 11
189.931905
 21
54.167403
 31
0.0
  0
LINE
  5
E1
330
D5
100
AcDbEntity
  8
LC-002-005-----0
 62
     7
370
    25
100
AcDbLine
 10
187.960618
 20
55.024543
 30
0.0
 11
190.03425
 21
57.098175
 31
0.0
  0
LINE
  5
E2
330
D5
100
AcDbEntity
  8
LC-002-005-----0
 62
     7
370
    25
100
AcDbLine
 10
188.062963
 20
57.955315
 30
0.0
 11
190.136595
 21
60.028947
 31
0.0
  0
LINE
  5
E3
330
D5
100
AcDbEntity
  8
LC-002-005-----0
 62
     7
370
    25
100
AcDbLine
 10
188.165308
 20
60.886087
 30
0.0
 11
190.23894
 21
62.959719
 31
0.0
  0
LINE
  5
E4
330
D5
100
AcDbEntity
  8
LC-002-005-----0
 62
     7
370
    25
100
AcDbLine
 10
188.267652
 20
63.816859
 30
0.0
 11
190.341284
 21
65.890491
 31
0.0
  0
LINE
  5
E5
330
D5
100
AcDbEntity
  8
LC-002-005-----0
 62
     7
370
    25
100
AcDbLine
 10
188.369997
 20
66.747631
 30
0.0
 11
190.443629
 21
68.821263
 31
0.0
  0
LINE
  5
E6
330
D5
100
AcDbEntity
  8
LC-002-005-----0
 62
     7
370
    25
100
AcDbLine
 10
188.472342
 20
69.678403
 30
0.0
 11
190.545974
 21
71.752035
 31
0.0
  0
LINE
  5
E7
330
D5
100
AcDbEntity
  8
LC-002-005-----0
 62
     7
370
    25
100
AcDbLine
 10
188.574687
 20
72.609175
 30
0.0
 11
190.648319
 21
74.682807
 31
0.0
  0
LINE
  5
E8
330
D5
100
AcDbEntity
  8
LC-002-005-----0
 62
     7
370
    25
100
AcDbLine
 10
188.677032
 20
75.539947
 30
0.0
 11
190.750664
 21
77.613579
 31
0.0
  0
LINE
  5
E9
330
D5
100
AcDbEntity
  8
LC-002-005-----0
 62
     7
370
    25
100
AcDbLine
 10
188.428851
 20
78.120193
 30
0.0
 11
190.428851
 21
80.120193
 31
0.0
  0
LINE
  5
EA
330
D5
100
AcDbEntity
  8
LC-002-005-----0
 62
     7
370
    25
100
AcDbLine
 10
185.600424
 20
78.120193
 30
0.0
 11
187.600424
 21
80.120193
 31
0.0
  0
LINE
  5
EB
330
D5
100
AcDbEntity
  8
LC-002-005-----0
 62
     7
370
    25
100
AcDbLine
 10
182.771996
 20
78.120193
 30
0.0
 11
184.771996
 21
80.120193
 31
0.0
  0
LINE
  5
EC
330
D5
100
AcDbEntity
  8
LC-002-005-----0
 62
     7
370
    25
100
AcDbLine
 10
179.943569
 20
78.120193
 30
0.0
 11
181.943569
 21
80.120193
 31
0.0
  0
LINE
  5
ED
330
D5
100
AcDbEntity
  8
LC-002-005-----0
 62
     7
370
    25
100
AcDbLine
 10
177.115142
 20
78.120193
 30
0.0
 11
179.115142
 21
80.120193
 31
0.0
  0
LINE
  5
EE
330
D5
100
AcDbEntity
  8
LC-002-005-----0
 62
     7
370
    25
100
AcDbLine
 10
174.286715
 20
78.120193
 30
0.0
 11
176.286715
 21
80.120193
 31
0.0
  0
LINE
  5
EF
330
D5
100
AcDbEntity
  8
LC-002-005-----0
 62
     7
370
    25
100
AcDbLine
 10
171.458288
 20
78.120193
 30
0.0
 11
173.458288
 21
80.120193
 31
0.0
  0
LINE
  5
F0
330
D5
100
AcDbEntity
  8
LC-002-005-----0
 62
     7
370
    25
100
AcDbLine
 10
168.629861
 20
78.120193
 30
0.0
 11
170.629861
 21
80.120193
 31
0.0
  0
LINE
  5
F1
330
D5
100
AcDbEntity
  8
LC-002-005-----0
 62
     7
370
    25
100
AcDbLine
 10
165.801434
 20
78.120193
 30
0.0
 11
167.801434
 21
80.120193
 31
0.0
  0
LINE
  5
F2
330
D5
100
AcDbEntity
  8
LC-002-005-----0
 62
     7
370
    25
100
AcDbLine
 10
164.124483
 20
79.271669
 30
0.0
 11
164.973007
 21
80.120193
 31
0.0
  0
ENDBLK
  5
D7
330
D5
100
AcDbEntity
  8
0
100
AcDbBlockEnd
  0
BLOCK
  5
11C
330
11B
100
AcDbEntity
  8
0
100
AcDbBlockBegin
  2
*X66
 70
     1
 71
     0
 10
0.0
 20
0.0
 30
0.0
  3
*X66
  1

  4
*X6
  0
LINE
  5
11E
330
11B
100
AcDbEntity
  8
LC-002-005-----0
 62
     7
370
    25
100
AcDbLine
 10
188.582889
 20
116.88724
 30
0.0
 11
189.099937
 21
116.370193
 31
0.0
  0
LINE
  5
11F
330
11B
100
AcDbEntity
  8
LC-002-005-----0
 62
     7
370
    25
100
AcDbLine
 10
181.79316
 20
126.505397
 30
0.0
 11
182.678364
 21
125.620193
 31
0.0
  0
LINE
  5
120
330
11B
100
AcDbEntity
  8
LC-002-005-----0
 62
     7
370
    25
100
AcDbLine
 10
188.582889
 20
119.715667
 30
0.0
 11
191.178364
 21
117.120193
 31
0.0
  0
LINE
  5
121
330
11B
100
AcDbEntity
  8
LC-002-005-----0
 62
     7
370
    25
100
AcDbLine
 10
183.506791
 20
127.620193
 30
0.0
 11
185.506791
 21
125.620193
 31
0.0
  0
LINE
  5
122
330
11B
100
AcDbEntity
  8
LC-002-005-----0
 62
     7
370
    25
100
AcDbLine
 10
188.582889
 20
122.544095
 30
0.0
 11
190.697645
 21
120.429338
 31
0.0
  0
LINE
  5
123
330
11B
100
AcDbEntity
  8
LC-002-005-----0
 62
     7
370
    25
100
AcDbLine
 10
192.506791
 20
118.620193
 30
0.0
 11
193.320971
 21
117.806013
 31
0.0
  0
LINE
  5
124
330
11B
100
AcDbEntity
  8
LC-002-005-----0
 62
     7
370
    25
100
AcDbLine
 10
186.335218
 20
127.620193
 30
0.0
 11
190.456027
 21
123.499383
 31
0.0
  0
ENDBLK
  5
11D
330
11B
100
AcDbEntity
  8
0
100
AcDbBlockEnd
  0
BLOCK
  5
128
330
127
100
AcDbEntity
  8
0
100
AcDbBlockBegin
  2
*X77
 70
     1
 71
     0
 10
0.0
 20
0.0
 30
0.0
  3
*X77
  1

  4
*X7
  0
LINE
  5
12A
330
127
100
AcDbEntity
  8
LC-002-005-----0
 62
     7
370
    25
100
AcDbLine
 10
100.317147
 20
117.471741
 30
0.0
 11
100.668696
 21
117.120193
 31
0.0
  0
LINE
  5
12B
330
127
100
AcDbEntity
  8
LC-002-005-----0
 62
     7
370
    25
100
AcDbLine
 10
101.997123
 20
118.620193
 30
0.0
 11
104.247123
 21
116.370193
 31
0.0
  0
LINE
  5
12C
330
127
100
AcDbEntity
  8
LC-002-005-----0
 62
     7
370
    25
100
AcDbLine
 10
103.064359
 20
120.381384
 30
0.0
 11
105.182889
 21
118.262854
 31
0.0
  0
LINE
  5
12D
330
127
100
AcDbEntity
  8
LC-002-005-----0
 62
     7
370
    25
100
AcDbLine
 10
103.27072
 20
123.00345
 30
0.0
 11
105.182889
 21
121.091281
 31
0.0
  0
LINE
  5
12E
330
127
100
AcDbEntity
  8
LC-002-005-----0
 62
     7
370
    25
100
AcDbLine
 10
103.477081
 20
125.625516
 30
0.0
 11
105.182889
 21
123.919708
 31
0.0
  0
LINE
  5
12F
330
127
100
AcDbEntity
  8
LC-002-005-----0
 62
     7
370
    25
100
AcDbLine
 10
104.544578
 20
127.386446
 30
0.0
 11
106.310831
 21
125.620193
 31
0.0
  0
LINE
  5
130
330
127
100
AcDbEntity
  8
LC-002-005-----0
 62
     7
370
    25
100
AcDbLine
 10
107.139259
 20
127.620193
 30
0.0
 11
112.339259
 21
122.420193
 31
0.0
  0
LINE
  5
131
330
127
100
AcDbEntity
  8
LC-002-005-----0
 62
     7
370
    25
100
AcDbLine
 10
115.582889
 20
119.176562
 30
0.0
 11
116.639767
 21
118.119685
 31
0.0
  0
LINE
  5
132
330
127
100
AcDbEntity
  8
LC-002-005-----0
 62
     7
370
    25
100
AcDbLine
 10
109.967686
 20
127.620193
 30
0.0
 11
111.482889
 21
126.104989
 31
0.0
  0
LINE
  5
133
330
127
100
AcDbEntity
  8
LC-002-005-----0
 62
     7
370
    25
100
AcDbLine
 10
113.167686
 20
124.420193
 30
0.0
 11
118.975541
 21
118.612337
 31
0.0
  0
LINE
  5
134
330
127
100
AcDbEntity
  8
LC-002-005-----0
 62
     7
370
    25
100
AcDbLine
 10
115.990325
 20
124.425981
 30
0.0
 11
119.982889
 21
120.433416
 31
0.0
  0
LINE
  5
135
330
127
100
AcDbEntity
  8
LC-002-005-----0
 62
     7
370
    25
100
AcDbLine
 10
116.882889
 20
126.361844
 30
0.0
 11
119.982889
 21
123.261844
 31
0.0
  0
LINE
  5
136
330
127
100
AcDbEntity
  8
LC-002-005-----0
 62
     7
370
    25
100
AcDbLine
 10
117.952967
 20
128.120193
 30
0.0
 11
119.982889
 21
126.090271
 31
0.0
  0
ENDBLK
  5
129
330
127
100
AcDbEntity
  8
0
100
AcDbBlockEnd
  0
BLOCK
  5
162
330
161
100
AcDbEntity
  8
0
100
AcDbBlockBegin
  2
*X88
 70
     1
 71
     0
 10
0.0
 20
0.0
 30
0.0
  3
*X88
  1

  4
*X8
  0
LINE
  5
164
330
161
100
AcDbEntity
  8
LC-002-005-----0
 62
     7
370
    25
100
AcDbLine
 10
104.182889
 20
113.605999
 30
0.0
 11
104.668696
 21
113.120193
 31
0.0
  0
LINE
  5
165
330
161
100
AcDbEntity
  8
LC-002-005-----0
 62
     7
370
    25
100
AcDbLine
 10
104.247123
 20
116.370193
 30
0.0
 11
105.182889
 21
115.434427
 31
0.0
  0
ENDBLK
  5
163
330
161
100
AcDbEntity
  8
0
100
AcDbBlockEnd
  0
BLOCK
  5
16B
330
16A
100
AcDbEntity
  8
0
100
AcDbBlockBegin
  2
*X99
 70
     1
 71
     0
 10
0.0
 20
0.0
 30
0.0
  3
*X99
  1

  4
*X9
  0
LINE
  5
16D
330
16A
100
AcDbEntity
  8
LC-002-005-----0
 62
     7
370
    25
100
AcDbLine
 10
164.782889
 20
120.88825
 30
0.0
 11
167.551455
 21
118.119685
 31
0.0
  0
LINE
  5
16E
330
16A
100
AcDbEntity
  8
LC-002-005-----0
 62
     7
370
    25
100
AcDbLine
 10
164.782889
 20
123.716678
 30
0.0
 11
169.182889
 21
119.316678
 31
0.0
  0
LINE
  5
16F
330
16A
100
AcDbEntity
  8
LC-002-005-----0
 62
     7
370
    25
100
AcDbLine
 10
164.782889
 20
126.545105
 30
0.0
 11
169.351745
 21
121.976249
 31
0.0
  0
LINE
  5
170
330
16A
100
AcDbEntity
  8
LC-002-005-----0
 62
     7
370
    25
100
AcDbLine
 10
166.159559
 20
127.996862
 30
0.0
 11
167.882889
 21
126.273532
 31
0.0
  0
LINE
  5
171
330
16A
100
AcDbEntity
  8
LC-002-005-----0
 62
     7
370
    25
100
AcDbLine
 10
169.736228
 20
124.420193
 30
0.0
 11
171.736228
 21
122.420193
 31
0.0
  0
LINE
  5
172
330
16A
100
AcDbEntity
  8
LC-002-005-----0
 62
     7
370
    25
100
AcDbLine
 10
172.532899
 20
124.451949
 30
0.0
 11
174.532899
 21
122.451949
 31
0.0
  0
LINE
  5
173
330
16A
100
AcDbEntity
  8
LC-002-005-----0
 62
     7
370
    25
100
AcDbLine
 10
173.282889
 20
126.530386
 30
0.0
 11
175.282889
 21
124.530386
 31
0.0
  0
LINE
  5
174
330
16A
100
AcDbEntity
  8
LC-002-005-----0
 62
     7
370
    25
100
AcDbLine
 10
175.02151
 20
127.620193
 30
0.0
 11
177.02151
 21
125.620193
 31
0.0
  0
LINE
  5
175
330
16A
100
AcDbEntity
  8
LC-002-005-----0
 62
     7
370
    25
100
AcDbLine
 10
177.849937
 20
127.620193
 30
0.0
 11
179.849937
 21
125.620193
 31
0.0
  0
LINE
  5
176
330
16A
100
AcDbEntity
  8
LC-002-005-----0
 62
     7
370
    25
100
AcDbLine
 10
180.678364
 20
127.620193
 30
0.0
 11
181.79316
 21
126.505397
 31
0.0
  0
ENDBLK
  5
16C
330
16A
100
AcDbEntity
  8
0
100
AcDbBlockEnd
  0
BLOCK
  5
18A
330
17E
100
AcDbEntity
  8
0
100
AcDbBlockBegin
  2
*D10
 70
     1
 71
     0
 10
0.0
 20
0.0
 30
0.0
  3
*D10
  1

  0
LINE
  5
17F
330
17E
100
AcDbEntity
  8
LC-006-003-----0
 62
     2
370
    -2
100
AcDbLine
 10
324.747941
 20
127.420193
 30
0.0
 11
352.081525
 21
127.420193
 31
0.0
  0
LINE
  5
180
330
17E
100
AcDbEntity
  8
LC-006-003-----0
 62
     2
370
    -2
100
AcDbLine
 10
324.747941
 20
77.420193
 30
0.0
 11
352.081525
 21
77.420193
 31
0.0
  0
LINE
  5
181
330
17E
100
AcDbEntity
  8
LC-006-003-----0
 62
     2
370
    -2
100
AcDbLine
 10
348.481525
 20
155.420193
 30
0.0
 11
348.481525
 21
183.420193
 31
0.0
  0
LINE
  5
182
330
17E
100
AcDbEntity
  8
LC-006-003-----0
 62
     2
370
    -2
100
AcDbLine
 10
348.481525
 20
49.420193
 30
0.0
 11
348.481525
 21
21.420193
 31
0.0
  0
LINE
  5
183
330
17E
100
AcDbEntity
  8
LC-006-003-----0
 62
     2
370
    -2
100
AcDbLine
 10
348.481525
 20
127.420193
 30
0.0
 11
348.481525
 21
77.420193
 31
0.0
  0
SOLID
  5
184
330
17E
100
AcDbEntity
  8
LC-006-003-----0
 62
     2
100
AcDbTrace
 10
343.814858
 20
155.420193
 30
0.0
 11
353.148191
 21
155.420193
 31
0.0
 12
348.481525
 22
127.420193
 32
0.0
 13
348.481525
 23
127.420193
 33
0.0
  0
SOLID
  5
185
330
17E
100
AcDbEntity
  8
LC-006-003-----0
 62
     2
100
AcDbTrace
 10
353.148191
 20
49.420193
 30
0.0
 11
343.814858
 21
49.420193
 31
0.0
 12
348.481525
 22
77.420193
 32
0.0
 13
348.481525
 23
77.420193
 33
0.0
  0
MTEXT
  5
186
330
17E
100
AcDbEntity
  8
LC-006-003-----0
 62
     2
100
AcDbMText
 10
317.681525
 20
102.420193
 30
0.0
 40
28.0
 41
0.0
 71
     5
 72
     1
  1
DN\A1;50
  7
LCTX15-400-0-0pDIN-Schrift
 11
6.123031769111886E-17
 21
1.0
 31
0.0
 73
     1
 44
1.0
  0
POINT
  5
187
330
17E
100
AcDbEntity
  8
Defpoints
 62
     0
100
AcDbPoint
 10
324.747941
 20
127.420193
 30
0.0
  0
POINT
  5
188
330
17E
100
AcDbEntity
  8
Defpoints
 62
     0
100
AcDbPoint
 10
324.747941
 20
77.420193
 30
0.0
  0
POINT
  5
189
330
17E
100
AcDbEntity
  8
Defpoints
 62
     0
100
AcDbPoint
 10
348.481525
 20
77.420193
 30
0.0
  0
ENDBLK
  5
18B
330
17E
100
AcDbEntity
  8
0
100
AcDbBlockEnd
  0
BLOCK
  5
18D
330
18C
100
AcDbEntity
  8
0
100
AcDbBlockBegin
  2
*X1011
 70
     1
 71
     0
 10
0.0
 20
0.0
 30
0.0
  3
*X1011
  1

  4
*X10
  0
LINE
  5
18F
330
18C
100
AcDbEntity
  8
LC-002-005-----0
 62
     7
370
    25
100
AcDbLine
 10
188.582889
 20
114.058813
 30
0.0
 11
189.52151
 21
113.120193
 31
0.0
  0
LINE
  5
190
330
18C
100
AcDbEntity
  8
LC-002-005-----0
 62
     7
370
    25
100
AcDbLine
 10
189.099937
 20
116.370193
 30
0.0
 11
190.582889
 21
114.88724
 31
0.0
  0
ENDBLK
  5
18E
330
18C
100
AcDbEntity
  8
0
100
AcDbBlockEnd
  0
BLOCK
  5
1A0
330
194
100
AcDbEntity
  8
0
100
AcDbBlockBegin
  2
*D12
 70
     1
 71
     0
 10
0.0
 20
0.0
 30
0.0
  3
*D12
  1

  0
LINE
  5
195
330
194
100
AcDbEntity
  8
LC-006-003-----0
 62
     2
370
    -2
100
AcDbLine
 10
107.382889
 20
140.972874
 30
0.0
 11
58.821149
 21
140.972874
 31
0.0
  0
LINE
  5
196
330
194
100
AcDbEntity
  8
LC-006-003-----0
 62
     2
370
    -2
100
AcDbLine
 10
106.132889
 20
132.923375
 30
0.0
 11
58.821149
 21
132.923375
 31
0.0
  0
LINE
  5
197
330
194
100
AcDbEntity
  8
LC-006-003-----0
 62
     2
370
    -2
100
AcDbLine
 10
62.421149
 20
168.972874
 30
0.0
 11
62.421149
 21
196.972874
 31
0.0
  0
LINE
  5
198
330
194
100
AcDbEntity
  8
LC-006-003-----0
 62
     2
370
    -2
100
AcDbLine
 10
62.421149
 20
104.923375
 30
0.0
 11
62.421149
 21
76.923375
 31
0.0
  0
LINE
  5
199
330
194
100
AcDbEntity
  8
LC-006-003-----0
 62
     2
370
    -2
100
AcDbLine
 10
62.421149
 20
140.972874
 30
0.0
 11
62.421149
 21
132.923375
 31
0.0
  0
SOLID
  5
19A
330
194
100
AcDbEntity
  8
LC-006-003-----0
 62
     2
100
AcDbTrace
 10
57.754482
 20
168.972874
 30
0.0
 11
67.087816
 21
168.972874
 31
0.0
 12
62.421149
 22
140.972874
 32
0.0
 13
62.421149
 23
140.972874
 33
0.0
  0
SOLID
  5
19B
330
194
100
AcDbEntity
  8
LC-006-003-----0
 62
     2
100
AcDbTrace
 10
67.087816
 20
104.923375
 30
0.0
 11
57.754482
 21
104.923375
 31
0.0
 12
62.421149
 22
132.923375
 32
0.0
 13
62.421149
 23
132.923375
 33
0.0
  0
MTEXT
  5
19C
330
194
100
AcDbEntity
  8
LC-006-003-----0
 62
     2
100
AcDbMText
 10
31.621149
 20
136.948125
 30
0.0
 40
28.0
 41
0.0
 71
     5
 72
     1
  1
\A1;0-8(8-16)
  7
LCTX15-400-0-0pDIN-Schrift
 11
6.123031769111886E-17
 21
1.0
 31
0.0
 73
     1
 44
1.0
  0
POINT
  5
19D
330
194
100
AcDbEntity
  8
Defpoints
 62
     0
100
AcDbPoint
 10
107.382889
 20
140.972874
 30
0.0
  0
POINT
  5
19E
330
194
100
AcDbEntity
  8
Defpoints
 62
     0
100
AcDbPoint
 10
106.132889
 20
132.923375
 30
0.0
  0
POINT
  5
19F
330
194
100
AcDbEntity
  8
Defpoints
 62
     0
100
AcDbPoint
 10
62.421149
 20
132.923375
 30
0.0
  0
ENDBLK
  5
1A1
330
194
100
AcDbEntity
  8
0
100
AcDbBlockEnd
  0
BLOCK
  5
1AE
330
1A3
100
AcDbEntity
  8
0
100
AcDbBlockBegin
  2
*D13
 70
     1
 71
     0
 10
0.0
 20
0.0
 30
0.0
  3
*D13
  1

  0
LINE
  5
1A4
330
1A3
100
AcDbEntity
  8
LC-006-003-----0
 62
     2
370
    -2
100
AcDbLine
 10
164.025792
 20
98.120193
 30
0.0
 11
278.0
 21
98.120193
 31
0.0
  0
LINE
  5
1A5
330
1A3
100
AcDbEntity
  8
LC-006-003-----0
 62
     2
370
    -2
100
AcDbLine
 10
160.382889
 20
45.020193
 30
0.0
 11
278.0
 21
45.020193
 31
0.0
  0
LINE
  5
1A6
330
1A3
100
AcDbEntity
  8
LC-006-003-----0
 62
     2
370
    -2
100
AcDbLine
 10
274.4
 20
126.120193
 30
0.0
 11
274.4
 21
154.120193
 31
0.0
  0
LINE
  5
1A7
330
1A3
100
AcDbEntity
  8
LC-006-003-----0
 62
     2
370
    -2
100
AcDbLine
 10
274.4
 20
17.020193
 30
0.0
 11
274.4
 21
-14.606226
 31
0.0
  0
SOLID
  5
1A8
330
1A3
100
AcDbEntity
  8
LC-006-003-----0
 62
     2
100
AcDbTrace
 10
269.733333
 20
126.120193
 30
0.0
 11
279.066667
 21
126.120193
 31
0.0
 12
274.4
 22
98.120193
 32
0.0
 13
274.4
 23
98.120193
 33
0.0
  0
SOLID
  5
1A9
330
1A3
100
AcDbEntity
  8
LC-006-003-----0
 62
     2
100
AcDbTrace
 10
279.066667
 20
17.020193
 30
0.0
 11
269.733333
 21
17.020193
 31
0.0
 12
274.4
 22
45.020193
 32
0.0
 13
274.4
 23
45.020193
 33
0.0
  0
MTEXT
  5
1AA
330
1A3
100
AcDbEntity
  8
LC-006-003-----0
 62
     2
100
AcDbMText
 10
243.6
 20
8.316
 30
0.0
 40
28.0
 41
0.0
 71
     5
 72
     1
  1
\A1;50
  7
LCTX15-400-0-0pDIN-Schrift
 11
6.123031769111886E-17
 21
1.0
 31
0.0
 73
     1
 44
1.0
  0
POINT
  5
1AB
330
1A3
100
AcDbEntity
  8
Defpoints
 62
     0
100
AcDbPoint
 10
164.025792
 20
98.120193
 30
0.0
  0
POINT
  5
1AC
330
1A3
100
AcDbEntity
  8
Defpoints
 62
     0
100
AcDbPoint
 10
160.382889
 20
45.020193
 30
0.0
  0
POINT
  5
1AD
330
1A3
100
AcDbEntity
  8
Defpoints
 62
     0
100
AcDbPoint
 10
274.4
 20
45.020193
 30
0.0
  0
ENDBLK
  5
1AF
330
1A3
100
AcDbEntity
  8
0
100
AcDbBlockEnd
  0
BLOCK
  5
1CB
330
1CA
100
AcDbEntity
  8
0
100
AcDbBlockBegin
  2
*X1114
 70
     1
 71
     0
 10
0.0
 20
0.0
 30
0.0
  3
*X1114
  1

  4
*X11
  0
LINE
  5
1CD
330
1CA
100
AcDbEntity
  8
LC-002-005-----0
 62
     7
370
    25
100
AcDbLine
 10
136.586708
 20
139.415135
 30
0.0
 11
138.407889
 21
141.236316
 31
0.0
  0
LINE
  5
1CE
330
1CA
100
AcDbEntity
  8
LC-002-005-----0
 62
     7
370
    25
100
AcDbLine
 10
136.382889
 20
142.039743
 30
0.0
 11
138.407889
 21
144.064743
 31
0.0
  0
LINE
  5
1CF
330
1CA
100
AcDbEntity
  8
LC-002-005-----0
 62
     7
370
    25
100
AcDbLine
 10
136.382889
 20
144.868171
 30
0.0
 11
136.534911
 21
145.020193
 31
0.0
  0
LINE
  5
1D0
330
1CA
100
AcDbEntity
  8
LC-002-005-----0
 62
     7
370
    25
100
AcDbLine
 10
137.382889
 20
145.868171
 30
0.0
 11
138.407889
 21
146.893171
 31
0.0
  0
LINE
  5
1D1
330
1CA
100
AcDbEntity
  8
LC-002-005-----0
 62
     7
370
    25
100
AcDbLine
 10
137.382889
 20
148.696598
 30
0.0
 11
138.407889
 21
149.721598
 31
0.0
  0
LINE
  5
1D2
330
1CA
100
AcDbEntity
  8
LC-002-005-----0
 62
     7
370
    25
100
AcDbLine
 10
141.549894
 20
152.863603
 30
0.0
 11
142.382889
 21
153.696598
 31
0.0
  0
LINE
  5
1D3
330
1CA
100
AcDbEntity
  8
LC-002-005-----0
 62
     7
370
    25
100
AcDbLine
 10
137.382889
 20
151.525025
 30
0.0
 11
138.407889
 21
152.550025
 31
0.0
  0
LINE
  5
1D4
330
1CA
100
AcDbEntity
  8
LC-002-005-----0
 62
     7
370
    25
100
AcDbLine
 10
138.721467
 20
152.863603
 30
0.0
 11
141.718966
 21
155.861102
 31
0.0
  0
LINE
  5
1D5
330
1CA
100
AcDbEntity
  8
LC-002-005-----0
 62
     7
370
    25
100
AcDbLine
 10
135.624332
 20
152.594894
 30
0.0
 11
138.821033
 21
155.791596
 31
0.0
  0
LINE
  5
1D6
330
1CA
100
AcDbEntity
  8
LC-002-005-----0
 62
     7
370
    25
100
AcDbLine
 10
132.48755
 20
152.28654
 30
0.0
 11
135.819902
 21
155.618892
 31
0.0
  0
LINE
  5
1D7
330
1CA
100
AcDbEntity
  8
LC-002-005-----0
 62
     7
370
    25
100
AcDbLine
 10
129.210989
 20
151.838406
 30
0.0
 11
132.702967
 21
155.330384
 31
0.0
  0
LINE
  5
1D8
330
1CA
100
AcDbEntity
  8
LC-002-005-----0
 62
     7
370
    25
100
AcDbLine
 10
125.771804
 20
151.227648
 30
0.0
 11
129.454294
 21
154.910138
 31
0.0
  0
LINE
  5
1D9
330
1CA
100
AcDbEntity
  8
LC-002-005-----0
 62
     7
370
    25
100
AcDbLine
 10
122.344168
 20
150.628439
 30
0.0
 11
126.053258
 21
154.337529
 31
0.0
  0
LINE
  5
1DA
330
1CA
100
AcDbEntity
  8
LC-002-005-----0
 62
     7
370
    25
100
AcDbLine
 10
119.067971
 20
150.18067
 30
0.0
 11
122.593283
 21
153.705981
 31
0.0
  0
LINE
  5
1DB
330
1CA
100
AcDbEntity
  8
LC-002-005-----0
 62
     7
370
    25
100
AcDbLine
 10
115.92289
 20
149.864015
 30
0.0
 11
119.288405
 21
153.22953
 31
0.0
  0
LINE
  5
1DC
330
1CA
100
AcDbEntity
  8
LC-002-005-----0
 62
     7
370
    25
100
AcDbLine
 10
112.845401
 20
149.614953
 30
0.0
 11
116.122592
 21
152.892145
 31
0.0
  0
LINE
  5
1DD
330
1CA
100
AcDbEntity
  8
LC-002-005-----0
 62
     7
370
    25
100
AcDbLine
 10
109.565777
 20
149.163756
 30
0.0
 11
113.051475
 21
152.649455
 31
0.0
  0
LINE
  5
1DE
330
1CA
100
AcDbEntity
  8
LC-002-005-----0
 62
     7
370
    25
100
AcDbLine
 10
107.3375
 20
149.763907
 30
0.0
 11
109.81952
 21
152.245927
 31
0.0
  0
ENDBLK
  5
1CC
330
1CA
100
AcDbEntity
  8
0
100
AcDbBlockEnd
  0
BLOCK
  5
1E1
330
1E0
100
AcDbEntity
  8
0
100
AcDbBlockBegin
  2
*X1215
 70
     1
 71
     0
 10
0.0
 20
0.0
 30
0.0
  3
*X1215
  1

  4
*X12
  0
LINE
  5
1E3
330
1E0
100
AcDbEntity
  8
LC-002-005-----0
 62
     7
370
    25
100
AcDbLine
 10
174.702717
 20
149.246873
 30
0.0
 11
177.11222
 21
151.656376
 31
0.0
  0
LINE
  5
1E4
330
1E0
100
AcDbEntity
  8
LC-002-005-----0
 62
     7
370
    25
100
AcDbLine
 10
172.211499
 20
149.584082
 30
0.0
 11
174.883207
 21
152.25579
 31
0.0
  0
LINE
  5
1E5
330
1E0
100
AcDbEntity
  8
LC-002-005-----0
 62
     7
370
    25
100
AcDbLine
 10
169.602973
 20
149.803983
 30
0.0
 11
172.38203
 21
152.58304
 31
0.0
  0
LINE
  5
1E6
330
1E0
100
AcDbEntity
  8
LC-002-005-----0
 62
     7
370
    25
100
AcDbLine
 10
167.006118
 20
150.035555
 30
0.0
 11
169.770418
 21
152.799856
 31
0.0
  0
LINE
  5
1E7
330
1E0
100
AcDbEntity
  8
LC-002-005-----0
 62
     7
370
    25
100
AcDbLine
 10
164.475684
 20
150.333548
 30
0.0
 11
167.176236
 21
153.0341
 31
0.0
  0
LINE
  5
1E8
330
1E0
100
AcDbEntity
  8
LC-002-005-----0
 62
     7
370
    25
100
AcDbLine
 10
162.007409
 20
150.693701
 30
0.0
 11
164.650475
 21
153.336767
 31
0.0
  0
LINE
  5
1E9
330
1E0
100
AcDbEntity
  8
LC-002-005-----0
 62
     7
370
    25
100
AcDbLine
 10
147.514123
 20
139.028841
 30
0.0
 11
148.374241
 21
139.888959
 31
0.0
  0
LINE
  5
1EA
330
1E0
100
AcDbEntity
  8
LC-002-005-----0
 62
     7
370
    25
100
AcDbLine
 10
159.597599
 20
151.112317
 30
0.0
 11
162.188626
 21
153.703345
 31
0.0
  0
LINE
  5
1EB
330
1E0
100
AcDbEntity
  8
LC-002-005-----0
 62
     7
370
    25
100
AcDbLine
 10
146.357889
 20
140.701035
 30
0.0
 11
148.382889
 21
142.726035
 31
0.0
  0
LINE
  5
1EC
330
1E0
100
AcDbEntity
  8
LC-002-005-----0
 62
     7
370
    25
100
AcDbLine
 10
157.217896
 20
151.561042
 30
0.0
 11
159.786794
 21
154.12994
 31
0.0
  0
LINE
  5
1ED
330
1E0
100
AcDbEntity
  8
LC-002-005-----0
 62
     7
370
    25
100
AcDbLine
 10
146.357889
 20
143.529462
 30
0.0
 11
147.84862
 21
145.020193
 31
0.0
  0
LINE
  5
1EE
330
1E0
100
AcDbEntity
  8
LC-002-005-----0
 62
     7
370
    25
100
AcDbLine
 10
154.783944
 20
151.955517
 30
0.0
 11
157.402701
 21
154.574274
 31
0.0
  0
LINE
  5
1EF
330
1E0
100
AcDbEntity
  8
LC-002-005-----0
 62
     7
370
    25
100
AcDbLine
 10
146.357889
 20
146.357889
 30
0.0
 11
147.382889
 21
147.382889
 31
0.0
  0
LINE
  5
1F0
330
1E0
100
AcDbEntity
  8
LC-002-005-----0
 62
     7
370
    25
100
AcDbLine
 10
152.285669
 20
152.285669
 30
0.0
 11
154.961347
 21
154.961347
 31
0.0
  0
LINE
  5
1F1
330
1E0
100
AcDbEntity
  8
LC-002-005-----0
 62
     7
370
    25
100
AcDbLine
 10
146.357889
 20
149.186316
 30
0.0
 11
147.382889
 21
150.211316
 31
0.0
  0
LINE
  5
1F2
330
1E0
100
AcDbEntity
  8
LC-002-005-----0
 62
     7
370
    25
100
AcDbLine
 10
149.718531
 20
152.546958
 30
0.0
 11
152.457447
 21
155.285874
 31
0.0
  0
LINE
  5
1F3
330
1E0
100
AcDbEntity
  8
LC-002-005-----0
 62
     7
370
    25
100
AcDbLine
 10
146.357889
 20
152.014743
 30
0.0
 11
149.886711
 21
155.543566
 31
0.0
  0
LINE
  5
1F4
330
1E0
100
AcDbEntity
  8
LC-002-005-----0
 62
     7
370
    25
100
AcDbLine
 10
144.378322
 20
152.863603
 30
0.0
 11
147.244146
 21
155.729427
 31
0.0
  0
LINE
  5
1F5
330
1E0
100
AcDbEntity
  8
LC-002-005-----0
 62
     7
370
    25
100
AcDbLine
 10
142.382889
 20
153.696598
 30
0.0
 11
144.523884
 21
155.837593
 31
0.0
  0
ENDBLK
  5
1E2
330
1E0
100
AcDbEntity
  8
0
100
AcDbBlockEnd
  0
BLOCK
  5
227
330
21D
100
AcDbEntity
  8
0
100
AcDbBlockBegin
  2
*D16
 70
     1
 71
     0
 10
0.0
 20
0.0
 30
0.0
  3
*D16
  1

  0
LINE
  5
21E
330
21D
100
AcDbEntity
  8
LC-006-003-----0
 62
     2
370
    -2
100
AcDbLine
 10
107.132889
 20
150.520193
 30
0.0
 11
107.132889
 21
185.364
 31
0.0
  0
LINE
  5
21F
330
21D
100
AcDbEntity
  8
LC-006-003-----0
 62
     2
370
    -2
100
AcDbLine
 10
177.632889
 20
150.520193
 30
0.0
 11
177.632889
 21
185.364
 31
0.0
  0
LINE
  5
220
330
21D
100
AcDbEntity
  8
LC-006-003-----0
 62
     2
370
    -2
100
AcDbLine
 10
135.132889
 20
181.764
 30
0.0
 11
149.632889
 21
181.764
 31
0.0
  0
SOLID
  5
221
330
21D
100
AcDbEntity
  8
LC-006-003-----0
 62
     2
100
AcDbTrace
 10
135.132889
 20
186.430667
 30
0.0
 11
135.132889
 21
177.097333
 31
0.0
 12
107.132889
 22
181.764
 32
0.0
 13
107.132889
 23
181.764
 33
0.0
  0
SOLID
  5
222
330
21D
100
AcDbEntity
  8
LC-006-003-----0
 62
     2
100
AcDbTrace
 10
149.632889
 20
177.097333
 30
0.0
 11
149.632889
 21
186.430667
 31
0.0
 12
177.632889
 22
181.764
 32
0.0
 13
177.632889
 23
181.764
 33
0.0
  0
MTEXT
  5
223
330
21D
100
AcDbEntity
  8
LC-006-003-----0
 62
     2
100
AcDbMText
 10
142.382889
 20
212.564
 30
0.0
 40
28.0
 41
0.0
 71
     5
 72
     1
  1
\A1;%%c75
  7
LCTX15-400-0-0pDIN-Schrift
 73
     1
 44
1.0
  0
POINT
  5
224
330
21D
100
AcDbEntity
  8
Defpoints
 62
     0
100
AcDbPoint
 10
107.132889
 20
150.520193
 30
0.0
  0
POINT
  5
225
330
21D
100
AcDbEntity
  8
Defpoints
 62
     0
100
AcDbPoint
 10
177.632889
 20
150.520193
 30
0.0
  0
POINT
  5
226
330
21D
100
AcDbEntity
  8
Defpoints
 62
     0
100
AcDbPoint
 10
177.632889
 20
181.764
 30
0.0
  0
ENDBLK
  5
228
330
21D
100
AcDbEntity
  8
0
100
AcDbBlockEnd
  0
BLOCK
  5
24B
330
24A
100
AcDbEntity
  8
0
100
AcDbBlockBegin
  2
*X1317
 70
     1
 71
     0
 10
0.0
 20
0.0
 30
0.0
  3
*X1317
  1

  4
*X13
  0
LINE
  5
24D
330
24A
100
AcDbEntity
  8
LC-002-005-----0
 62
     7
370
    25
100
AcDbLine
 10
134.408306
 20
147.020193
 30
0.0
 11
132.655366
 21
148.773133
 31
0.0
  0
LINE
  5
24E
330
24A
100
AcDbEntity
  8
LC-002-005-----0
 62
     7
370
    25
100
AcDbLine
 10
132.994093
 20
147.020193
 30
0.0
 11
132.13772
 21
147.876566
 31
0.0
  0
LINE
  5
24F
330
24A
100
AcDbEntity
  8
LC-002-005-----0
 62
     7
370
    25
100
AcDbLine
 10
126.382889
 20
138.075047
 30
0.0
 11
125.436949
 21
139.020988
 31
0.0
  0
LINE
  5
250
330
24A
100
AcDbEntity
  8
LC-002-005-----0
 62
     7
370
    25
100
AcDbLine
 10
126.382889
 20
136.660833
 30
0.0
 11
124.022888
 21
139.020835
 31
0.0
  0
LINE
  5
251
330
24A
100
AcDbEntity
  8
LC-002-005-----0
 62
     7
370
    25
100
AcDbLine
 10
126.382889
 20
135.24662
 30
0.0
 11
122.608827
 21
139.020682
 31
0.0
  0
LINE
  5
252
330
24A
100
AcDbEntity
  8
LC-002-005-----0
 62
     7
370
    25
100
AcDbLine
 10
126.382889
 20
133.832406
 30
0.0
 11
121.194766
 21
139.020529
 31
0.0
  0
LINE
  5
253
330
24A
100
AcDbEntity
  8
LC-002-005-----0
 62
     7
370
    25
100
AcDbLine
 10
126.382889
 20
132.418193
 30
0.0
 11
119.780706
 21
139.020376
 31
0.0
  0
LINE
  5
254
330
24A
100
AcDbEntity
  8
LC-002-005-----0
 62
     7
370
    25
100
AcDbLine
 10
126.382889
 20
131.003979
 30
0.0
 11
124.382889
 21
133.003979
 31
0.0
  0
LINE
  5
255
330
24A
100
AcDbEntity
  8
LC-002-005-----0
 62
     7
370
    25
100
AcDbLine
 10
123.366676
 20
134.020193
 30
0.0
 11
122.882889
 21
134.503979
 31
0.0
  0
LINE
  5
256
330
24A
100
AcDbEntity
  8
LC-002-005-----0
 62
     7
370
    25
100
AcDbLine
 10
120.283758
 20
137.103111
 30
0.0
 11
118.366645
 21
139.020223
 31
0.0
  0
LINE
  5
257
330
24A
100
AcDbEntity
  8
LC-002-005-----0
 62
     7
370
    25
100
AcDbLine
 10
126.192298
 20
129.780356
 30
0.0
 11
124.382889
 21
131.589766
 31
0.0
  0
LINE
  5
258
330
24A
100
AcDbEntity
  8
LC-002-005-----0
 62
     7
370
    25
100
AcDbLine
 10
125.485192
 20
129.07325
 30
0.0
 11
124.019285
 21
130.539156
 31
0.0
  0
LINE
  5
259
330
24A
100
AcDbEntity
  8
LC-002-005-----0
 62
     7
370
    25
100
AcDbLine
 10
124.778085
 20
128.366143
 30
0.0
 11
122.882889
 21
130.261338
 31
0.0
  0
LINE
  5
25A
330
24A
100
AcDbEntity
  8
LC-002-005-----0
 62
     7
370
    25
100
AcDbLine
 10
124.431706
 20
127.298308
 30
0.0
 11
122.882889
 21
128.847125
 31
0.0
  0
LINE
  5
25B
330
24A
100
AcDbEntity
  8
LC-002-005-----0
 62
     7
370
    25
100
AcDbLine
 10
124.430868
 20
125.884933
 30
0.0
 11
122.882889
 21
127.432911
 31
0.0
  0
LINE
  5
25C
330
24A
100
AcDbEntity
  8
LC-002-005-----0
 62
     7
370
    25
100
AcDbLine
 10
124.430029
 20
124.471558
 30
0.0
 11
122.882889
 21
126.018698
 31
0.0
  0
LINE
  5
25D
330
24A
100
AcDbEntity
  8
LC-002-005-----0
 62
     7
370
    25
100
AcDbLine
 10
124.429191
 20
123.058183
 30
0.0
 11
122.882889
 21
124.604484
 31
0.0
  0
LINE
  5
25E
330
24A
100
AcDbEntity
  8
LC-002-005-----0
 62
     7
370
    25
100
AcDbLine
 10
124.428352
 20
121.644808
 30
0.0
 11
122.882889
 21
123.190271
 31
0.0
  0
LINE
  5
25F
330
24A
100
AcDbEntity
  8
LC-002-005-----0
 62
     7
370
    25
100
AcDbLine
 10
124.427514
 20
120.231433
 30
0.0
 11
122.882889
 21
121.776057
 31
0.0
  0
LINE
  5
260
330
24A
100
AcDbEntity
  8
LC-002-005-----0
 62
     7
370
    25
100
AcDbLine
 10
124.426675
 20
118.818058
 30
0.0
 11
122.882889
 21
120.361844
 31
0.0
  0
LINE
  5
261
330
24A
100
AcDbEntity
  8
LC-002-005-----0
 62
     7
370
    25
100
AcDbLine
 10
124.425836
 20
117.404683
 30
0.0
 11
122.882889
 21
118.94763
 31
0.0
  0
LINE
  5
262
330
24A
100
AcDbEntity
  8
LC-002-005-----0
 62
     7
370
    25
100
AcDbLine
 10
124.424998
 20
115.991308
 30
0.0
 11
122.882889
 21
117.533416
 31
0.0
  0
LINE
  5
263
330
24A
100
AcDbEntity
  8
LC-002-005-----0
 62
     7
370
    25
100
AcDbLine
 10
124.424159
 20
114.577933
 30
0.0
 11
122.882889
 21
116.119203
 31
0.0
  0
LINE
  5
264
330
24A
100
AcDbEntity
  8
LC-002-005-----0
 62
     7
370
    25
100
AcDbLine
 10
124.423321
 20
113.164558
 30
0.0
 11
122.882889
 21
114.704989
 31
0.0
  0
LINE
  5
265
330
24A
100
AcDbEntity
  8
LC-002-005-----0
 62
     7
370
    25
100
AcDbLine
 10
124.422482
 20
111.751183
 30
0.0
 11
122.882889
 21
113.290776
 31
0.0
  0
LINE
  5
266
330
24A
100
AcDbEntity
  8
LC-002-005-----0
 62
     7
370
    25
100
AcDbLine
 10
124.421643
 20
110.337808
 30
0.0
 11
122.882889
 21
111.876562
 31
0.0
  0
LINE
  5
267
330
24A
100
AcDbEntity
  8
LC-002-005-----0
 62
     7
370
    25
100
AcDbLine
 10
124.420805
 20
108.924433
 30
0.0
 11
122.882889
 21
110.462349
 31
0.0
  0
LINE
  5
268
330
24A
100
AcDbEntity
  8
LC-002-005-----0
 62
     7
370
    25
100
AcDbLine
 10
124.419966
 20
107.511058
 30
0.0
 11
122.882889
 21
109.048135
 31
0.0
  0
LINE
  5
269
330
24A
100
AcDbEntity
  8
LC-002-005-----0
 62
     7
370
    25
100
AcDbLine
 10
124.419128
 20
106.097683
 30
0.0
 11
122.882889
 21
107.633921
 31
0.0
  0
LINE
  5
26A
330
24A
100
AcDbEntity
  8
LC-002-005-----0
 62
     7
370
    25
100
AcDbLine
 10
124.418289
 20
104.684308
 30
0.0
 11
122.882889
 21
106.219708
 31
0.0
  0
LINE
  5
26B
330
24A
100
AcDbEntity
  8
LC-002-005-----0
 62
     7
370
    25
100
AcDbLine
 10
124.417451
 20
103.270933
 30
0.0
 11
122.882889
 21
104.805494
 31
0.0
  0
LINE
  5
26C
330
24A
100
AcDbEntity
  8
LC-002-005-----0
 62
     7
370
    25
100
AcDbLine
 10
124.416612
 20
101.857558
 30
0.0
 11
122.882889
 21
103.391281
 31
0.0
  0
LINE
  5
26D
330
24A
100
AcDbEntity
  8
LC-002-005-----0
 62
     7
370
    25
100
AcDbLine
 10
124.415773
 20
100.444183
 30
0.0
 11
122.882889
 21
101.977067
 31
0.0
  0
LINE
  5
26E
330
24A
100
AcDbEntity
  8
LC-002-005-----0
 62
     7
370
    25
100
AcDbLine
 10
124.414935
 20
99.030808
 30
0.0
 11
122.882889
 21
100.562854
 31
0.0
  0
LINE
  5
26F
330
24A
100
AcDbEntity
  8
LC-002-005-----0
 62
     7
370
    25
100
AcDbLine
 10
124.414096
 20
97.617433
 30
0.0
 11
122.882889
 21
99.14864
 31
0.0
  0
LINE
  5
270
330
24A
100
AcDbEntity
  8
LC-002-005-----0
 62
     7
370
    25
100
AcDbLine
 10
124.413258
 20
96.204058
 30
0.0
 11
122.882889
 21
97.734427
 31
0.0
  0
LINE
  5
271
330
24A
100
AcDbEntity
  8
LC-002-005-----0
 62
     7
370
    25
100
AcDbLine
 10
124.412419
 20
94.790683
 30
0.0
 11
122.882889
 21
96.320213
 31
0.0
  0
LINE
  5
272
330
24A
100
AcDbEntity
  8
LC-002-005-----0
 62
     7
370
    25
100
AcDbLine
 10
124.41158
 20
93.377308
 30
0.0
 11
122.882889
 21
94.905999
 31
0.0
  0
LINE
  5
273
330
24A
100
AcDbEntity
  8
LC-002-005-----0
 62
     7
370
    25
100
AcDbLine
 10
124.410742
 20
91.963933
 30
0.0
 11
122.882889
 21
93.491786
 31
0.0
  0
LINE
  5
274
330
24A
100
AcDbEntity
  8
LC-002-005-----0
 62
     7
370
    25
100
AcDbLine
 10
124.409903
 20
90.550558
 30
0.0
 11
122.882889
 21
92.077572
 31
0.0
  0
LINE
  5
275
330
24A
100
AcDbEntity
  8
LC-002-005-----0
 62
     7
370
    25
100
AcDbLine
 10
124.409065
 20
89.137183
 30
0.0
 11
122.882889
 21
90.663359
 31
0.0
  0
LINE
  5
276
330
24A
100
AcDbEntity
  8
LC-002-005-----0
 62
     7
370
    25
100
AcDbLine
 10
124.408226
 20
87.723808
 30
0.0
 11
122.882889
 21
89.249145
 31
0.0
  0
LINE
  5
277
330
24A
100
AcDbEntity
  8
LC-002-005-----0
 62
     7
370
    25
100
AcDbLine
 10
124.407388
 20
86.310433
 30
0.0
 11
122.882889
 21
87.834932
 31
0.0
  0
LINE
  5
278
330
24A
100
AcDbEntity
  8
LC-002-005-----0
 62
     7
370
    25
100
AcDbLine
 10
124.406549
 20
84.897058
 30
0.0
 11
122.882889
 21
86.420718
 31
0.0
  0
LINE
  5
279
330
24A
100
AcDbEntity
  8
LC-002-005-----0
 62
     7
370
    25
100
AcDbLine
 10
124.40571
 20
83.483683
 30
0.0
 11
122.882889
 21
85.006504
 31
0.0
  0
LINE
  5
27A
330
24A
100
AcDbEntity
  8
LC-002-005-----0
 62
     7
370
    25
100
AcDbLine
 10
124.404872
 20
82.070308
 30
0.0
 11
122.882889
 21
83.592291
 31
0.0
  0
LINE
  5
27B
330
24A
100
AcDbEntity
  8
LC-002-005-----0
 62
     7
370
    25
100
AcDbLine
 10
124.404033
 20
80.656933
 30
0.0
 11
122.882889
 21
82.178077
 31
0.0
  0
LINE
  5
27C
330
24A
100
AcDbEntity
  8
LC-002-005-----0
 62
     7
370
    25
100
AcDbLine
 10
124.403195
 20
79.243558
 30
0.0
 11
122.882889
 21
80.763864
 31
0.0
  0
LINE
  5
27D
330
24A
100
AcDbEntity
  8
LC-002-005-----0
 62
     7
370
    25
100
AcDbLine
 10
124.402356
 20
77.830183
 30
0.0
 11
122.882889
 21
79.34965
 31
0.0
  0
LINE
  5
27E
330
24A
100
AcDbEntity
  8
LC-002-005-----0
 62
     7
370
    25
100
AcDbLine
 10
124.401517
 20
76.416808
 30
0.0
 11
122.882889
 21
77.935437
 31
0.0
  0
LINE
  5
27F
330
24A
100
AcDbEntity
  8
LC-002-005-----0
 62
     7
370
    25
100
AcDbLine
 10
124.400679
 20
75.003433
 30
0.0
 11
122.882889
 21
76.521223
 31
0.0
  0
LINE
  5
280
330
24A
100
AcDbEntity
  8
LC-002-005-----0
 62
     7
370
    25
100
AcDbLine
 10
124.39984
 20
73.590058
 30
0.0
 11
122.882889
 21
75.10701
 31
0.0
  0
LINE
  5
281
330
24A
100
AcDbEntity
  8
LC-002-005-----0
 62
     7
370
    25
100
AcDbLine
 10
124.399002
 20
72.176683
 30
0.0
 11
122.882889
 21
73.692796
 31
0.0
  0
LINE
  5
282
330
24A
100
AcDbEntity
  8
LC-002-005-----0
 62
     7
370
    25
100
AcDbLine
 10
124.398163
 20
70.763309
 30
0.0
 11
122.882889
 21
72.278582
 31
0.0
  0
LINE
  5
283
330
24A
100
AcDbEntity
  8
LC-002-005-----0
 62
     7
370
    25
100
AcDbLine
 10
124.397325
 20
69.349934
 30
0.0
 11
122.882889
 21
70.864369
 31
0.0
  0
LINE
  5
284
330
24A
100
AcDbEntity
  8
LC-002-005-----0
 62
     7
370
    25
100
AcDbLine
 10
124.396486
 20
67.936559
 30
0.0
 11
122.882889
 21
69.450155
 31
0.0
  0
LINE
  5
285
330
24A
100
AcDbEntity
  8
LC-002-005-----0
 62
     7
370
    25
100
AcDbLine
 10
124.395647
 20
66.523184
 30
0.0
 11
122.882889
 21
68.035942
 31
0.0
  0
LINE
  5
286
330
24A
100
AcDbEntity
  8
LC-002-005-----0
 62
     7
370
    25
100
AcDbLine
 10
124.394809
 20
65.109809
 30
0.0
 11
122.882889
 21
66.621728
 31
0.0
  0
LINE
  5
287
330
24A
100
AcDbEntity
  8
LC-002-005-----0
 62
     7
370
    25
100
AcDbLine
 10
124.39397
 20
63.696434
 30
0.0
 11
122.882889
 21
65.207515
 31
0.0
  0
LINE
  5
288
330
24A
100
AcDbEntity
  8
LC-002-005-----0
 62
     7
370
    25
100
AcDbLine
 10
124.393132
 20
62.283059
 30
0.0
 11
122.882889
 21
63.793301
 31
0.0
  0
LINE
  5
289
330
24A
100
AcDbEntity
  8
LC-002-005-----0
 62
     7
370
    25
100
AcDbLine
 10
124.392293
 20
60.869684
 30
0.0
 11
122.882889
 21
62.379087
 31
0.0
  0
LINE
  5
28A
330
24A
100
AcDbEntity
  8
LC-002-005-----0
 62
     7
370
    25
100
AcDbLine
 10
124.391454
 20
59.456309
 30
0.0
 11
122.882889
 21
60.964874
 31
0.0
  0
LINE
  5
28B
330
24A
100
AcDbEntity
  8
LC-002-005-----0
 62
     7
370
    25
100
AcDbLine
 10
124.390616
 20
58.042934
 30
0.0
 11
122.882889
 21
59.55066
 31
0.0
  0
LINE
  5
28C
330
24A
100
AcDbEntity
  8
LC-002-005-----0
 62
     7
370
    25
100
AcDbLine
 10
124.389777
 20
56.629559
 30
0.0
 11
122.882889
 21
58.136447
 31
0.0
  0
LINE
  5
28D
330
24A
100
AcDbEntity
  8
LC-002-005-----0
 62
     7
370
    25
100
AcDbLine
 10
124.388939
 20
55.216184
 30
0.0
 11
122.882889
 21
56.722233
 31
0.0
  0
LINE
  5
28E
330
24A
100
AcDbEntity
  8
LC-002-005-----0
 62
     7
370
    25
100
AcDbLine
 10
124.3881
 20
53.802809
 30
0.0
 11
122.882889
 21
55.30802
 31
0.0
  0
LINE
  5
28F
330
24A
100
AcDbEntity
  8
LC-002-005-----0
 62
     7
370
    25
100
AcDbLine
 10
124.387261
 20
52.389434
 30
0.0
 11
122.882889
 21
53.893806
 31
0.0
  0
LINE
  5
290
330
24A
100
AcDbEntity
  8
LC-002-005-----0
 62
     7
370
    25
100
AcDbLine
 10
124.386423
 20
50.976059
 30
0.0
 11
122.882889
 21
52.479593
 31
0.0
  0
LINE
  5
291
330
24A
100
AcDbEntity
  8
LC-002-005-----0
 62
     7
370
    25
100
AcDbLine
 10
124.385584
 20
49.562684
 30
0.0
 11
122.882889
 21
51.065379
 31
0.0
  0
LINE
  5
292
330
24A
100
AcDbEntity
  8
LC-002-005-----0
 62
     7
370
    25
100
AcDbLine
 10
124.384746
 20
48.149309
 30
0.0
 11
122.882889
 21
49.651165
 31
0.0
  0
LINE
  5
293
330
24A
100
AcDbEntity
  8
LC-002-005-----0
 62
     7
370
    25
100
AcDbLine
 10
124.383907
 20
46.735934
 30
0.0
 11
122.882889
 21
48.236952
 31
0.0
  0
LINE
  5
294
330
24A
100
AcDbEntity
  8
LC-002-005-----0
 62
     7
370
    25
100
AcDbLine
 10
124.383069
 20
45.322559
 30
0.0
 11
122.882889
 21
46.822738
 31
0.0
  0
LINE
  5
295
330
24A
100
AcDbEntity
  8
LC-002-005-----0
 62
     7
370
    25
100
AcDbLine
 10
123.271221
 20
45.020193
 30
0.0
 11
122.882889
 21
45.408525
 31
0.0
  0
ENDBLK
  5
24C
330
24A
100
AcDbEntity
  8
0
100
AcDbBlockEnd
  0
BLOCK
  5
2B0
330
2AF
100
AcDbEntity
  8
0
100
AcDbBlockBegin
  2
*X1418
 70
     1
 71
     0
 10
0.0
 20
0.0
 30
0.0
  3
*X1418
  1

  4
*X14
  0
LINE
  5
2B2
330
2AF
100
AcDbEntity
  8
LC-002-005-----0
 62
     7
370
    25
100
AcDbLine
 10
166.925879
 20
138.54425
 30
0.0
 11
166.449911
 21
139.020218
 31
0.0
  0
LINE
  5
2B3
330
2AF
100
AcDbEntity
  8
LC-002-005-----0
 62
     7
370
    25
100
AcDbLine
 10
166.048435
 20
138.007481
 30
0.0
 11
165.035545
 21
139.020371
 31
0.0
  0
LINE
  5
2B4
330
2AF
100
AcDbEntity
  8
LC-002-005-----0
 62
     7
370
    25
100
AcDbLine
 10
165.15186
 20
137.489842
 30
0.0
 11
163.621179
 21
139.020524
 31
0.0
  0
LINE
  5
2B5
330
2AF
100
AcDbEntity
  8
LC-002-005-----0
 62
     7
370
    25
100
AcDbLine
 10
164.255284
 20
136.972204
 30
0.0
 11
162.206812
 21
139.020677
 31
0.0
  0
LINE
  5
2B6
330
2AF
100
AcDbEntity
  8
LC-002-005-----0
 62
     7
370
    25
100
AcDbLine
 10
163.358709
 20
136.454566
 30
0.0
 11
160.792446
 21
139.020829
 31
0.0
  0
LINE
  5
2B7
330
2AF
100
AcDbEntity
  8
LC-002-005-----0
 62
     7
370
    25
100
AcDbLine
 10
152.793082
 20
147.020193
 30
0.0
 11
150.90177
 21
148.911506
 31
0.0
  0
LINE
  5
2B8
330
2AF
100
AcDbEntity
  8
LC-002-005-----0
 62
     7
370
    25
100
AcDbLine
 10
162.462133
 20
135.936928
 30
0.0
 11
159.378079
 21
139.020982
 31
0.0
  0
LINE
  5
2B9
330
2AF
100
AcDbEntity
  8
LC-002-005-----0
 62
     7
370
    25
100
AcDbLine
 10
151.378869
 20
147.020193
 30
0.0
 11
150.358659
 21
148.040403
 31
0.0
  0
LINE
  5
2BA
330
2AF
100
AcDbEntity
  8
LC-002-005-----0
 62
     7
370
    25
100
AcDbLine
 10
161.882889
 20
135.101959
 30
0.0
 11
158.382889
 21
138.601959
 31
0.0
  0
LINE
  5
2BB
330
2AF
100
AcDbEntity
  8
LC-002-005-----0
 62
     7
370
    25
100
AcDbLine
 10
149.964655
 20
147.020193
 30
0.0
 11
149.841021
 21
147.143827
 31
0.0
  0
LINE
  5
2BC
330
2AF
100
AcDbEntity
  8
LC-002-005-----0
 62
     7
370
    25
100
AcDbLine
 10
161.550442
 20
134.020193
 30
0.0
 11
158.382889
 21
137.187745
 31
0.0
  0
LINE
  5
2BD
330
2AF
100
AcDbEntity
  8
LC-002-005-----0
 62
     7
370
    25
100
AcDbLine
 10
160.428214
 20
133.728207
 30
0.0
 11
158.382889
 21
135.773532
 31
0.0
  0
LINE
  5
2BE
330
2AF
100
AcDbEntity
  8
LC-002-005-----0
 62
     7
370
    25
100
AcDbLine
 10
160.382889
 20
132.359318
 30
0.0
 11
158.382889
 21
134.359318
 31
0.0
  0
LINE
  5
2BF
330
2AF
100
AcDbEntity
  8
LC-002-005-----0
 62
     7
370
    25
100
AcDbLine
 10
161.882889
 20
129.445105
 30
0.0
 11
160.801059
 21
130.526934
 31
0.0
  0
LINE
  5
2C0
330
2AF
100
AcDbEntity
  8
LC-002-005-----0
 62
     7
370
    25
100
AcDbLine
 10
160.389631
 20
130.938363
 30
0.0
 11
158.382889
 21
132.945105
 31
0.0
  0
LINE
  5
2C1
330
2AF
100
AcDbEntity
  8
LC-002-005-----0
 62
     7
370
    25
100
AcDbLine
 10
161.882889
 20
128.030891
 30
0.0
 11
158.382889
 21
131.530891
 31
0.0
  0
LINE
  5
2C2
330
2AF
100
AcDbEntity
  8
LC-002-005-----0
 62
     7
370
    25
100
AcDbLine
 10
161.882889
 20
126.616678
 30
0.0
 11
158.382889
 21
130.116678
 31
0.0
  0
LINE
  5
2C3
330
2AF
100
AcDbEntity
  8
LC-002-005-----0
 62
     7
370
    25
100
AcDbLine
 10
161.882889
 20
125.202464
 30
0.0
 11
160.382889
 21
126.702464
 31
0.0
  0
LINE
  5
2C4
330
2AF
100
AcDbEntity
  8
LC-002-005-----0
 62
     7
370
    25
100
AcDbLine
 10
161.882889
 20
123.78825
 30
0.0
 11
160.382889
 21
125.28825
 31
0.0
  0
LINE
  5
2C5
330
2AF
100
AcDbEntity
  8
LC-002-005-----0
 62
     7
370
    25
100
AcDbLine
 10
161.882889
 20
122.374037
 30
0.0
 11
160.382889
 21
123.874037
 31
0.0
  0
LINE
  5
2C6
330
2AF
100
AcDbEntity
  8
LC-002-005-----0
 62
     7
370
    25
100
AcDbLine
 10
161.882889
 20
120.959823
 30
0.0
 11
160.382889
 21
122.459823
 31
0.0
  0
LINE
  5
2C7
330
2AF
100
AcDbEntity
  8
LC-002-005-----0
 62
     7
370
    25
100
AcDbLine
 10
161.882889
 20
119.54561
 30
0.0
 11
160.382889
 21
121.04561
 31
0.0
  0
LINE
  5
2C8
330
2AF
100
AcDbEntity
  8
LC-002-005-----0
 62
     7
370
    25
100
AcDbLine
 10
161.882889
 20
118.131396
 30
0.0
 11
160.382889
 21
119.631396
 31
0.0
  0
LINE
  5
2C9
330
2AF
100
AcDbEntity
  8
LC-002-005-----0
 62
     7
370
    25
100
AcDbLine
 10
161.882889
 20
116.717183
 30
0.0
 11
160.382889
 21
118.217183
 31
0.0
  0
LINE
  5
2CA
330
2AF
100
AcDbEntity
  8
LC-002-005-----0
 62
     7
370
    25
100
AcDbLine
 10
161.882889
 20
115.302969
 30
0.0
 11
160.382889
 21
116.802969
 31
0.0
  0
LINE
  5
2CB
330
2AF
100
AcDbEntity
  8
LC-002-005-----0
 62
     7
370
    25
100
AcDbLine
 10
161.882889
 20
113.888755
 30
0.0
 11
160.382889
 21
115.388755
 31
0.0
  0
LINE
  5
2CC
330
2AF
100
AcDbEntity
  8
LC-002-005-----0
 62
     7
370
    25
100
AcDbLine
 10
161.882889
 20
112.474542
 30
0.0
 11
160.382889
 21
113.974542
 31
0.0
  0
LINE
  5
2CD
330
2AF
100
AcDbEntity
  8
LC-002-005-----0
 62
     7
370
    25
100
AcDbLine
 10
161.882889
 20
111.060328
 30
0.0
 11
160.382889
 21
112.560328
 31
0.0
  0
LINE
  5
2CE
330
2AF
100
AcDbEntity
  8
LC-002-005-----0
 62
     7
370
    25
100
AcDbLine
 10
161.882889
 20
109.646115
 30
0.0
 11
160.382889
 21
111.146115
 31
0.0
  0
LINE
  5
2CF
330
2AF
100
AcDbEntity
  8
LC-002-005-----0
 62
     7
370
    25
100
AcDbLine
 10
161.882889
 20
108.231901
 30
0.0
 11
160.382889
 21
109.731901
 31
0.0
  0
LINE
  5
2D0
330
2AF
100
AcDbEntity
  8
LC-002-005-----0
 62
     7
370
    25
100
AcDbLine
 10
161.882889
 20
106.817688
 30
0.0
 11
160.382889
 21
108.317688
 31
0.0
  0
LINE
  5
2D1
330
2AF
100
AcDbEntity
  8
LC-002-005-----0
 62
     7
370
    25
100
AcDbLine
 10
161.882889
 20
105.403474
 30
0.0
 11
160.382889
 21
106.903474
 31
0.0
  0
LINE
  5
2D2
330
2AF
100
AcDbEntity
  8
LC-002-005-----0
 62
     7
370
    25
100
AcDbLine
 10
161.882889
 20
103.989261
 30
0.0
 11
160.382889
 21
105.489261
 31
0.0
  0
LINE
  5
2D3
330
2AF
100
AcDbEntity
  8
LC-002-005-----0
 62
     7
370
    25
100
AcDbLine
 10
161.882889
 20
102.575047
 30
0.0
 11
160.382889
 21
104.075047
 31
0.0
  0
LINE
  5
2D4
330
2AF
100
AcDbEntity
  8
LC-002-005-----0
 62
     7
370
    25
100
AcDbLine
 10
161.882889
 20
101.160833
 30
0.0
 11
160.382889
 21
102.660833
 31
0.0
  0
LINE
  5
2D5
330
2AF
100
AcDbEntity
  8
LC-002-005-----0
 62
     7
370
    25
100
AcDbLine
 10
161.882889
 20
99.74662
 30
0.0
 11
160.382889
 21
101.24662
 31
0.0
  0
LINE
  5
2D6
330
2AF
100
AcDbEntity
  8
LC-002-005-----0
 62
     7
370
    25
100
AcDbLine
 10
161.882889
 20
98.332406
 30
0.0
 11
160.382889
 21
99.832406
 31
0.0
  0
LINE
  5
2D7
330
2AF
100
AcDbEntity
  8
LC-002-005-----0
 62
     7
370
    25
100
AcDbLine
 10
161.882889
 20
96.918193
 30
0.0
 11
160.382889
 21
98.418193
 31
0.0
  0
LINE
  5
2D8
330
2AF
100
AcDbEntity
  8
LC-002-005-----0
 62
     7
370
    25
100
AcDbLine
 10
161.882889
 20
95.503979
 30
0.0
 11
160.382889
 21
97.003979
 31
0.0
  0
LINE
  5
2D9
330
2AF
100
AcDbEntity
  8
LC-002-005-----0
 62
     7
370
    25
100
AcDbLine
 10
161.882889
 20
94.089766
 30
0.0
 11
160.382889
 21
95.589766
 31
0.0
  0
LINE
  5
2DA
330
2AF
100
AcDbEntity
  8
LC-002-005-----0
 62
     7
370
    25
100
AcDbLine
 10
161.882889
 20
92.675552
 30
0.0
 11
160.382889
 21
94.175552
 31
0.0
  0
LINE
  5
2DB
330
2AF
100
AcDbEntity
  8
LC-002-005-----0
 62
     7
370
    25
100
AcDbLine
 10
161.882889
 20
91.261338
 30
0.0
 11
160.382889
 21
92.761338
 31
0.0
  0
LINE
  5
2DC
330
2AF
100
AcDbEntity
  8
LC-002-005-----0
 62
     7
370
    25
100
AcDbLine
 10
161.882889
 20
89.847125
 30
0.0
 11
160.382889
 21
91.347125
 31
0.0
  0
LINE
  5
2DD
330
2AF
100
AcDbEntity
  8
LC-002-005-----0
 62
     7
370
    25
100
AcDbLine
 10
161.882889
 20
88.432911
 30
0.0
 11
160.382889
 21
89.932911
 31
0.0
  0
LINE
  5
2DE
330
2AF
100
AcDbEntity
  8
LC-002-005-----0
 62
     7
370
    25
100
AcDbLine
 10
161.882889
 20
87.018698
 30
0.0
 11
160.382889
 21
88.518698
 31
0.0
  0
LINE
  5
2DF
330
2AF
100
AcDbEntity
  8
LC-002-005-----0
 62
     7
370
    25
100
AcDbLine
 10
161.882889
 20
85.604484
 30
0.0
 11
160.382889
 21
87.104484
 31
0.0
  0
LINE
  5
2E0
330
2AF
100
AcDbEntity
  8
LC-002-005-----0
 62
     7
370
    25
100
AcDbLine
 10
161.882889
 20
84.190271
 30
0.0
 11
160.382889
 21
85.690271
 31
0.0
  0
LINE
  5
2E1
330
2AF
100
AcDbEntity
  8
LC-002-005-----0
 62
     7
370
    25
100
AcDbLine
 10
161.882889
 20
82.776057
 30
0.0
 11
160.382889
 21
84.276057
 31
0.0
  0
LINE
  5
2E2
330
2AF
100
AcDbEntity
  8
LC-002-005-----0
 62
     7
370
    25
100
AcDbLine
 10
161.882889
 20
81.361844
 30
0.0
 11
160.382889
 21
82.861844
 31
0.0
  0
LINE
  5
2E3
330
2AF
100
AcDbEntity
  8
LC-002-005-----0
 62
     7
370
    25
100
AcDbLine
 10
161.882889
 20
79.94763
 30
0.0
 11
160.382889
 21
81.44763
 31
0.0
  0
LINE
  5
2E4
330
2AF
100
AcDbEntity
  8
LC-002-005-----0
 62
     7
370
    25
100
AcDbLine
 10
161.882889
 20
78.533416
 30
0.0
 11
160.382889
 21
80.033416
 31
0.0
  0
LINE
  5
2E5
330
2AF
100
AcDbEntity
  8
LC-002-005-----0
 62
     7
370
    25
100
AcDbLine
 10
161.882889
 20
77.119203
 30
0.0
 11
160.382889
 21
78.619203
 31
0.0
  0
LINE
  5
2E6
330
2AF
100
AcDbEntity
  8
LC-002-005-----0
 62
     7
370
    25
100
AcDbLine
 10
161.882889
 20
75.704989
 30
0.0
 11
160.382889
 21
77.204989
 31
0.0
  0
LINE
  5
2E7
330
2AF
100
AcDbEntity
  8
LC-002-005-----0
 62
     7
370
    25
100
AcDbLine
 10
161.882889
 20
74.290776
 30
0.0
 11
160.382889
 21
75.790776
 31
0.0
  0
LINE
  5
2E8
330
2AF
100
AcDbEntity
  8
LC-002-005-----0
 62
     7
370
    25
100
AcDbLine
 10
161.882889
 20
72.876562
 30
0.0
 11
160.382889
 21
74.376562
 31
0.0
  0
LINE
  5
2E9
330
2AF
100
AcDbEntity
  8
LC-002-005-----0
 62
     7
370
    25
100
AcDbLine
 10
161.882889
 20
71.462349
 30
0.0
 11
160.382889
 21
72.962349
 31
0.0
  0
LINE
  5
2EA
330
2AF
100
AcDbEntity
  8
LC-002-005-----0
 62
     7
370
    25
100
AcDbLine
 10
161.882889
 20
70.048135
 30
0.0
 11
160.382889
 21
71.548135
 31
0.0
  0
LINE
  5
2EB
330
2AF
100
AcDbEntity
  8
LC-002-005-----0
 62
     7
370
    25
100
AcDbLine
 10
161.882889
 20
68.633921
 30
0.0
 11
160.382889
 21
70.133921
 31
0.0
  0
LINE
  5
2EC
330
2AF
100
AcDbEntity
  8
LC-002-005-----0
 62
     7
370
    25
100
AcDbLine
 10
161.882889
 20
67.219708
 30
0.0
 11
160.382889
 21
68.719708
 31
0.0
  0
LINE
  5
2ED
330
2AF
100
AcDbEntity
  8
LC-002-005-----0
 62
     7
370
    25
100
AcDbLine
 10
161.882889
 20
65.805494
 30
0.0
 11
160.382889
 21
67.305494
 31
0.0
  0
LINE
  5
2EE
330
2AF
100
AcDbEntity
  8
LC-002-005-----0
 62
     7
370
    25
100
AcDbLine
 10
161.882889
 20
64.391281
 30
0.0
 11
160.382889
 21
65.891281
 31
0.0
  0
LINE
  5
2EF
330
2AF
100
AcDbEntity
  8
LC-002-005-----0
 62
     7
370
    25
100
AcDbLine
 10
161.882889
 20
62.977067
 30
0.0
 11
160.382889
 21
64.477067
 31
0.0
  0
LINE
  5
2F0
330
2AF
100
AcDbEntity
  8
LC-002-005-----0
 62
     7
370
    25
100
AcDbLine
 10
161.882889
 20
61.562854
 30
0.0
 11
160.382889
 21
63.062854
 31
0.0
  0
LINE
  5
2F1
330
2AF
100
AcDbEntity
  8
LC-002-005-----0
 62
     7
370
    25
100
AcDbLine
 10
161.882889
 20
60.14864
 30
0.0
 11
160.382889
 21
61.64864
 31
0.0
  0
LINE
  5
2F2
330
2AF
100
AcDbEntity
  8
LC-002-005-----0
 62
     7
370
    25
100
AcDbLine
 10
161.882889
 20
58.734427
 30
0.0
 11
160.382889
 21
60.234427
 31
0.0
  0
LINE
  5
2F3
330
2AF
100
AcDbEntity
  8
LC-002-005-----0
 62
     7
370
    25
100
AcDbLine
 10
161.882889
 20
57.320213
 30
0.0
 11
160.382889
 21
58.820213
 31
0.0
  0
LINE
  5
2F4
330
2AF
100
AcDbEntity
  8
LC-002-005-----0
 62
     7
370
    25
100
AcDbLine
 10
161.882889
 20
55.905999
 30
0.0
 11
160.382889
 21
57.405999
 31
0.0
  0
LINE
  5
2F5
330
2AF
100
AcDbEntity
  8
LC-002-005-----0
 62
     7
370
    25
100
AcDbLine
 10
161.882889
 20
54.491786
 30
0.0
 11
160.382889
 21
55.991786
 31
0.0
  0
LINE
  5
2F6
330
2AF
100
AcDbEntity
  8
LC-002-005-----0
 62
     7
370
    25
100
AcDbLine
 10
161.882889
 20
53.077572
 30
0.0
 11
160.382889
 21
54.577572
 31
0.0
  0
LINE
  5
2F7
330
2AF
100
AcDbEntity
  8
LC-002-005-----0
 62
     7
370
    25
100
AcDbLine
 10
161.882889
 20
51.663359
 30
0.0
 11
160.382889
 21
53.163359
 31
0.0
  0
LINE
  5
2F8
330
2AF
100
AcDbEntity
  8
LC-002-005-----0
 62
     7
370
    25
100
AcDbLine
 10
161.882889
 20
50.249145
 30
0.0
 11
160.382889
 21
51.749145
 31
0.0
  0
LINE
  5
2F9
330
2AF
100
AcDbEntity
  8
LC-002-005-----0
 62
     7
370
    25
100
AcDbLine
 10
161.882889
 20
48.834932
 30
0.0
 11
160.382889
 21
50.334932
 31
0.0
  0
LINE
  5
2FA
330
2AF
100
AcDbEntity
  8
LC-002-005-----0
 62
     7
370
    25
100
AcDbLine
 10
161.882889
 20
47.420718
 30
0.0
 11
160.382889
 21
48.920718
 31
0.0
  0
LINE
  5
2FB
330
2AF
100
AcDbEntity
  8
LC-002-005-----0
 62
     7
370
    25
100
AcDbLine
 10
161.882889
 20
46.006504
 30
0.0
 11
160.382889
 21
47.506504
 31
0.0
  0
LINE
  5
2FC
330
2AF
100
AcDbEntity
  8
LC-002-005-----0
 62
     7
370
    25
100
AcDbLine
 10
161.454987
 20
45.020193
 30
0.0
 11
160.382889
 21
46.092291
 31
0.0
  0
ENDBLK
  5
2B1
330
2AF
100
AcDbEntity
  8
0
100
AcDbBlockEnd
  0
BLOCK
  5
315
330
30B
100
AcDbEntity
  8
0
100
AcDbBlockBegin
  2
*D19
 70
     1
 71
     0
 10
0.0
 20
0.0
 30
0.0
  3
*D19
  1

  0
LINE
  5
30C
330
30B
100
AcDbEntity
  8
LC-006-003-----0
 62
     2
370
    -2
100
AcDbLine
 10
104.204229
 20
43.561801
 30
0.0
 11
104.204229
 21
-29.736
 31
0.0
  0
LINE
  5
30D
330
30B
100
AcDbEntity
  8
LC-006-003-----0
 62
     2
370
    -2
100
AcDbLine
 10
189.089721
 20
30.050394
 30
0.0
 11
189.089721
 21
-29.736
 31
0.0
  0
LINE
  5
30E
330
30B
100
AcDbEntity
  8
LC-006-003-----0
 62
     2
370
    -2
100
AcDbLine
 10
132.204229
 20
-26.136
 30
0.0
 11
161.089721
 21
-26.136
 31
0.0
  0
SOLID
  5
30F
330
30B
100
AcDbEntity
  8
LC-006-003-----0
 62
     2
100
AcDbTrace
 10
132.204229
 20
-21.469333
 30
0.0
 11
132.204229
 21
-30.802667
 31
0.0
 12
104.204229
 22
-26.136
 32
0.0
 13
104.204229
 23
-26.136
 33
0.0
  0
SOLID
  5
310
330
30B
100
AcDbEntity
  8
LC-006-003-----0
 62
     2
100
AcDbTrace
 10
161.089721
 20
-30.802667
 30
0.0
 11
161.089721
 21
-21.469333
 31
0.0
 12
189.089721
 22
-26.136
 32
0.0
 13
189.089721
 23
-26.136
 33
0.0
  0
MTEXT
  5
311
330
30B
100
AcDbEntity
  8
LC-006-003-----0
 62
     2
100
AcDbMText
 10
146.646975
 20
4.664
 30
0.0
 40
28.0
 41
0.0
 71
     5
 72
     1
  1
\A1;%%c85
  7
LCTX15-400-0-0pDIN-Schrift
 73
     1
 44
1.0
  0
POINT
  5
312
330
30B
100
AcDbEntity
  8
Defpoints
 62
     0
100
AcDbPoint
 10
104.204229
 20
43.561801
 30
0.0
  0
POINT
  5
313
330
30B
100
AcDbEntity
  8
Defpoints
 62
     0
100
AcDbPoint
 10
189.089721
 20
30.050394
 30
0.0
  0
POINT
  5
314
330
30B
100
AcDbEntity
  8
Defpoints
 62
     0
100
AcDbPoint
 10
189.089721
 20
-26.136
 30
0.0
  0
ENDBLK
  5
316
330
30B
100
AcDbEntity
  8
0
100
AcDbBlockEnd
  0
BLOCK
  5
326
330
325
100
AcDbEntity
  8
0
100
AcDbBlockBegin
  2
*X1520
 70
     1
 71
     0
 10
0.0
 20
0.0
 30
0.0
  3
*X1520
  1

  4
*X15
  0
LINE
  5
328
330
325
100
AcDbEntity
  8
LC-002-005-----0
 62
     7
370
    25
100
AcDbLine
 10
120.43168
 20
120.43168
 30
0.0
 11
122.482889
 21
122.482889
 31
0.0
  0
LINE
  5
329
330
325
100
AcDbEntity
  8
LC-002-005-----0
 62
     7
370
    25
100
AcDbLine
 10
118.482889
 20
124.139743
 30
0.0
 11
122.482889
 21
128.139743
 31
0.0
  0
LINE
  5
32A
330
325
100
AcDbEntity
  8
LC-002-005-----0
 62
     7
370
    25
100
AcDbLine
 10
118.482889
 20
129.796598
 30
0.0
 11
121.482889
 21
132.796598
 31
0.0
  0
LINE
  5
32B
330
325
100
AcDbEntity
  8
LC-002-005-----0
 62
     7
370
    25
100
AcDbLine
 10
118.482889
 20
135.453452
 30
0.0
 11
120.088306
 21
137.058869
 31
0.0
  0
LINE
  5
32C
330
325
100
AcDbEntity
  8
LC-002-005-----0
 62
     7
370
    25
100
AcDbLine
 10
115.420138
 20
138.047555
 30
0.0
 11
117.382889
 21
140.010306
 31
0.0
  0
LINE
  5
32D
330
325
100
AcDbEntity
  8
LC-002-005-----0
 62
     7
370
    25
100
AcDbLine
 10
111.272794
 20
139.557065
 30
0.0
 11
112.507775
 21
140.792047
 31
0.0
  0
ENDBLK
  5
327
330
325
100
AcDbEntity
  8
0
100
AcDbBlockEnd
  0
BLOCK
  5
357
330
356
100
AcDbEntity
  8
0
100
AcDbBlockBegin
  2
*X1621
 70
     1
 71
     0
 10
0.0
 20
0.0
 30
0.0
  3
*X1621
  1

  4
*X16
  0
LINE
  5
359
330
356
100
AcDbEntity
  8
LC-002-005-----0
  6
DASHED
 62
     7
370
    25
100
AcDbLine
 10
124.189388
 20
131.783267
 30
0.0
 11
122.145963
 21
133.826692
 31
0.0
  0
LINE
  5
35A
330
356
100
AcDbEntity
  8
LC-002-005-----0
  6
DASHED
 62
     7
370
    25
100
AcDbLine
 10
123.433526
 20
131.124915
 30
0.0
 11
121.487612
 21
133.07083
 31
0.0
  0
ENDBLK
  5
358
330
356
100
AcDbEntity
  8
0
100
AcDbBlockEnd
  0
BLOCK
  5
35E
330
35D
100
AcDbEntity
  8
0
100
AcDbBlockBegin
  2
*X1722
 70
     1
 71
     0
 10
0.0
 20
0.0
 30
0.0
  3
*X1722
  1

  4
*X17
  0
LINE
  5
360
330
35D
100
AcDbEntity
  8
LC-002-005-----0
 62
     7
370
    25
100
AcDbLine
 10
163.352219
 20
132.218415
 30
0.0
 11
161.581112
 21
133.989523
 31
0.0
  0
LINE
  5
361
330
35D
100
AcDbEntity
  8
LC-002-005-----0
  6
DASHED
 62
     7
370
    25
100
AcDbLine
 10
161.712281
 20
131.029927
 30
0.0
 11
160.392623
 21
132.349584
 31
0.0
  0
ENDBLK
  5
35F
330
35D
100
AcDbEntity
  8
0
100
AcDbBlockEnd
  0
BLOCK
  5
364
330
363
100
AcDbEntity
  8
0
100
AcDbBlockBegin
  2
*X1823
 70
     1
 71
     0
 10
0.0
 20
0.0
 30
0.0
  3
*X1823
  1

  4
*X18
  0
LINE
  5
366
330
363
100
AcDbEntity
  8
LC-002-005-----0
  6
DASHED
 62
     7
370
    25
100
AcDbLine
 10
178.632889
 20
129.665667
 30
0.0
 11
175.590884
 21
132.707672
 31
0.0
  0
LINE
  5
367
330
363
100
AcDbEntity
  8
LC-002-005-----0
  6
DASHED
 62
     7
370
    25
100
AcDbLine
 10
177.849937
 20
127.620193
 30
0.0
 11
173.289442
 21
132.180688
 31
0.0
  0
LINE
  5
368
330
363
100
AcDbEntity
  8
LC-002-005-----0
 62
     7
370
    25
100
AcDbLine
 10
173.282889
 20
126.530386
 30
0.0
 11
169.362592
 21
130.450684
 31
0.0
  0
LINE
  5
369
330
363
100
AcDbEntity
  8
LC-002-005-----0
 62
     7
370
    25
100
AcDbLine
 10
172.164655
 20
124.820193
 30
0.0
 11
167.676674
 21
129.308174
 31
0.0
  0
LINE
  5
36A
330
363
100
AcDbEntity
  8
LC-002-005-----0
 62
     7
370
    25
100
AcDbLine
 10
117.952967
 20
128.120193
 30
0.0
 11
115.98462
 21
130.08854
 31
0.0
  0
LINE
  5
36B
330
363
100
AcDbEntity
  8
LC-002-005-----0
  6
DASHED
 62
     7
370
    25
100
AcDbLine
 10
115.596113
 20
124.820193
 30
0.0
 11
107.525663
 21
132.890643
 31
0.0
  0
LINE
  5
36C
330
363
100
AcDbEntity
  8
LC-002-005-----0
  6
DASHED
 62
     7
370
    25
100
AcDbLine
 10
112.767686
 20
124.820193
 30
0.0
 11
111.482889
 21
126.104989
 31
0.0
  0
LINE
  5
36D
330
363
100
AcDbEntity
  8
LC-002-005-----0
  6
DASHED
 62
     7
370
    25
100
AcDbLine
 10
109.967686
 20
127.620193
 30
0.0
 11
106.132889
 21
131.454989
 31
0.0
  0
ENDBLK
  5
365
330
363
100
AcDbEntity
  8
0
100
AcDbBlockEnd
  0
BLOCK
  5
391
330
390
100
AcDbEntity
  8
0
100
AcDbBlockBegin
  2
*X1924
 70
     1
 71
     0
 10
0.0
 20
0.0
 30
0.0
  3
*X1924
  1

  4
*X19
  0
LINE
  5
393
330
390
100
AcDbEntity
  8
LC-002-005-----0
 62
     7
370
    25
100
AcDbLine
 10
232.388929
 20
130.356849
 30
0.0
 11
231.558477
 21
131.187302
 31
0.0
  0
LINE
  5
394
330
390
100
AcDbEntity
  8
LC-002-005-----0
  6
DASHED
 62
     7
370
    25
100
AcDbLine
 10
232.525272
 20
128.806293
 30
0.0
 11
230.007921
 21
131.323644
 31
0.0
  0
LINE
  5
395
330
390
100
AcDbEntity
  8
LC-002-005-----0
  6
DASHED
 62
     7
370
    25
100
AcDbLine
 10
232.296947
 20
128.327512
 30
0.0
 11
229.529139
 21
131.095319
 31
0.0
  0
LINE
  5
396
330
390
100
AcDbEntity
  8
LC-002-005-----0
 62
     7
370
    25
100
AcDbLine
 10
231.557617
 20
127.652628
 30
0.0
 11
228.854256
 21
130.355989
 31
0.0
  0
LINE
  5
397
330
390
100
AcDbEntity
  8
LC-002-005-----0
 62
     7
370
    25
100
AcDbLine
 10
231.03896
 20
127.464178
 30
0.0
 11
228.665805
 21
129.837333
 31
0.0
  0
LINE
  5
398
330
390
100
AcDbEntity
  8
LC-002-005-----0
 62
     7
370
    25
100
AcDbLine
 10
232.602737
 20
75.69582
 30
0.0
 11
230.897447
 21
77.401109
 31
0.0
  0
LINE
  5
399
330
390
100
AcDbEntity
  8
LC-002-005-----0
 62
     7
370
    25
100
AcDbLine
 10
232.579675
 20
75.011775
 30
0.0
 11
230.213402
 21
77.378047
 31
0.0
  0
LINE
  5
39A
330
390
100
AcDbEntity
  8
LC-002-005-----0
  6
DASHED
 62
     7
370
    25
100
AcDbLine
 10
232.102028
 20
74.075208
 30
0.0
 11
229.276835
 21
76.900401
 31
0.0
  0
LINE
  5
39B
330
390
100
AcDbEntity
  8
LC-002-005-----0
  6
DASHED
 62
     7
370
    25
100
AcDbLine
 10
231.720883
 20
73.749247
 30
0.0
 11
228.950874
 21
76.519255
 31
0.0
  0
LINE
  5
39C
330
390
100
AcDbEntity
  8
LC-002-005-----0
 62
     7
370
    25
100
AcDbLine
 10
230.635675
 20
73.420241
 30
0.0
 11
228.621868
 21
75.434048
 31
0.0
  0
LINE
  5
39D
330
390
100
AcDbEntity
  8
LC-002-005-----0
 62
     7
370
    25
100
AcDbLine
 10
229.707264
 20
73.641546
 30
0.0
 11
228.843173
 21
74.505636
 31
0.0
  0
ENDBLK
  5
392
330
390
100
AcDbEntity
  8
0
100
AcDbBlockEnd
  0
BLOCK
  5
3A4
330
3A3
100
AcDbEntity
  8
0
100
AcDbBlockBegin
  2
*X2025
 70
     1
 71
     0
 10
0.0
 20
0.0
 30
0.0
  3
*X2025
  1

  4
*X20
  0
LINE
  5
3A6
330
3A3
100
AcDbEntity
  8
LC-002-005-----0
 62
     7
370
    25
100
AcDbLine
 10
326.897845
 20
77.996258
 30
0.0
 11
328.247941
 21
79.346354
 31
0.0
  0
LINE
  5
3A7
330
3A3
100
AcDbEntity
  8
LC-002-005-----0
 62
     7
370
    25
100
AcDbLine
 10
323.493353
 20
77.420193
 30
0.0
 11
325.743353
 21
79.670193
 31
0.0
  0
LINE
  5
3A8
330
3A3
100
AcDbEntity
  8
LC-002-005-----0
 62
     7
370
    25
100
AcDbLine
 10
320.664926
 20
77.420193
 30
0.0
 11
322.914926
 21
79.670193
 31
0.0
  0
LINE
  5
3A9
330
3A3
100
AcDbEntity
  8
LC-002-005-----0
 62
     7
370
    25
100
AcDbLine
 10
317.836498
 20
77.420193
 30
0.0
 11
320.086498
 21
79.670193
 31
0.0
  0
LINE
  5
3AA
330
3A3
100
AcDbEntity
  8
LC-002-005-----0
 62
     7
370
    25
100
AcDbLine
 10
315.008071
 20
77.420193
 30
0.0
 11
317.258071
 21
79.670193
 31
0.0
  0
LINE
  5
3AB
330
3A3
100
AcDbEntity
  8
LC-002-005-----0
 62
     7
370
    25
100
AcDbLine
 10
312.179644
 20
77.420193
 30
0.0
 11
314.429644
 21
79.670193
 31
0.0
  0
LINE
  5
3AC
330
3A3
100
AcDbEntity
  8
LC-002-005-----0
 62
     7
370
    25
100
AcDbLine
 10
309.351217
 20
77.420193
 30
0.0
 11
311.601217
 21
79.670193
 31
0.0
  0
LINE
  5
3AD
330
3A3
100
AcDbEntity
  8
LC-002-005-----0
 62
     7
370
    25
100
AcDbLine
 10
306.52279
 20
77.420193
 30
0.0
 11
308.77279
 21
79.670193
 31
0.0
  0
LINE
  5
3AE
330
3A3
100
AcDbEntity
  8
LC-002-005-----0
 62
     7
370
    25
100
AcDbLine
 10
303.694363
 20
77.420193
 30
0.0
 11
305.944363
 21
79.670193
 31
0.0
  0
LINE
  5
3AF
330
3A3
100
AcDbEntity
  8
LC-002-005-----0
 62
     7
370
    25
100
AcDbLine
 10
300.865936
 20
77.420193
 30
0.0
 11
303.115936
 21
79.670193
 31
0.0
  0
LINE
  5
3B0
330
3A3
100
AcDbEntity
  8
LC-002-005-----0
 62
     7
370
    25
100
AcDbLine
 10
298.037509
 20
77.420193
 30
0.0
 11
300.287509
 21
79.670193
 31
0.0
  0
LINE
  5
3B1
330
3A3
100
AcDbEntity
  8
LC-002-005-----0
 62
     7
370
    25
100
AcDbLine
 10
295.209081
 20
77.420193
 30
0.0
 11
297.459081
 21
79.670193
 31
0.0
  0
LINE
  5
3B2
330
3A3
100
AcDbEntity
  8
LC-002-005-----0
 62
     7
370
    25
100
AcDbLine
 10
292.380654
 20
77.420193
 30
0.0
 11
294.630654
 21
79.670193
 31
0.0
  0
LINE
  5
3B3
330
3A3
100
AcDbEntity
  8
LC-002-005-----0
 62
     7
370
    25
100
AcDbLine
 10
289.552227
 20
77.420193
 30
0.0
 11
291.802227
 21
79.670193
 31
0.0
  0
LINE
  5
3B4
330
3A3
100
AcDbEntity
  8
LC-002-005-----0
 62
     7
370
    25
100
AcDbLine
 10
286.7238
 20
77.420193
 30
0.0
 11
288.9738
 21
79.670193
 31
0.0
  0
LINE
  5
3B5
330
3A3
100
AcDbEntity
  8
LC-002-005-----0
 62
     7
370
    25
100
AcDbLine
 10
283.895373
 20
77.420193
 30
0.0
 11
286.145373
 21
79.670193
 31
0.0
  0
LINE
  5
3B6
330
3A3
100
AcDbEntity
  8
LC-002-005-----0
 62
     7
370
    25
100
AcDbLine
 10
281.066946
 20
77.420193
 30
0.0
 11
283.316946
 21
79.670193
 31
0.0
  0
LINE
  5
3B7
330
3A3
100
AcDbEntity
  8
LC-002-005-----0
 62
     7
370
    25
100
AcDbLine
 10
278.238519
 20
77.420193
 30
0.0
 11
280.488519
 21
79.670193
 31
0.0
  0
LINE
  5
3B8
330
3A3
100
AcDbEntity
  8
LC-002-005-----0
 62
     7
370
    25
100
AcDbLine
 10
325.988519
 20
125.170193
 30
0.0
 11
327.500873
 21
126.682547
 31
0.0
  0
LINE
  5
3B9
330
3A3
100
AcDbEntity
  8
LC-002-005-----0
 62
     7
370
    25
100
AcDbLine
 10
275.410092
 20
77.420193
 30
0.0
 11
277.660092
 21
79.670193
 31
0.0
  0
LINE
  5
3BA
330
3A3
100
AcDbEntity
  8
LC-002-005-----0
 62
     7
370
    25
100
AcDbLine
 10
323.160092
 20
125.170193
 30
0.0
 11
325.270163
 21
127.280264
 31
0.0
  0
LINE
  5
3BB
330
3A3
100
AcDbEntity
  8
LC-002-005-----0
 62
     7
370
    25
100
AcDbLine
 10
272.581664
 20
77.420193
 30
0.0
 11
274.831664
 21
79.670193
 31
0.0
  0
LINE
  5
3BC
330
3A3
100
AcDbEntity
  8
LC-002-005-----0
 62
     7
370
    25
100
AcDbLine
 10
320.331664
 20
125.170193
 30
0.0
 11
322.581664
 21
127.420193
 31
0.0
  0
LINE
  5
3BD
330
3A3
100
AcDbEntity
  8
LC-002-005-----0
 62
     7
370
    25
100
AcDbLine
 10
269.753237
 20
77.420193
 30
0.0
 11
272.003237
 21
79.670193
 31
0.0
  0
LINE
  5
3BE
330
3A3
100
AcDbEntity
  8
LC-002-005-----0
 62
     7
370
    25
100
AcDbLine
 10
317.503237
 20
125.170193
 30
0.0
 11
319.753237
 21
127.420193
 31
0.0
  0
LINE
  5
3BF
330
3A3
100
AcDbEntity
  8
LC-002-005-----0
 62
     7
370
    25
100
AcDbLine
 10
266.92481
 20
77.420193
 30
0.0
 11
269.17481
 21
79.670193
 31
0.0
  0
LINE
  5
3C0
330
3A3
100
AcDbEntity
  8
LC-002-005-----0
 62
     7
370
    25
100
AcDbLine
 10
314.67481
 20
125.170193
 30
0.0
 11
316.92481
 21
127.420193
 31
0.0
  0
LINE
  5
3C1
330
3A3
100
AcDbEntity
  8
LC-002-005-----0
 62
     7
370
    25
100
AcDbLine
 10
264.096383
 20
77.420193
 30
0.0
 11
266.346383
 21
79.670193
 31
0.0
  0
LINE
  5
3C2
330
3A3
100
AcDbEntity
  8
LC-002-005-----0
 62
     7
370
    25
100
AcDbLine
 10
311.846383
 20
125.170193
 30
0.0
 11
314.096383
 21
127.420193
 31
0.0
  0
LINE
  5
3C3
330
3A3
100
AcDbEntity
  8
LC-002-005-----0
 62
     7
370
    25
100
AcDbLine
 10
261.267956
 20
77.420193
 30
0.0
 11
263.517956
 21
79.670193
 31
0.0
  0
LINE
  5
3C4
330
3A3
100
AcDbEntity
  8
LC-002-005-----0
 62
     7
370
    25
100
AcDbLine
 10
309.017956
 20
125.170193
 30
0.0
 11
311.267956
 21
127.420193
 31
0.0
  0
LINE
  5
3C5
330
3A3
100
AcDbEntity
  8
LC-002-005-----0
 62
     7
370
    25
100
AcDbLine
 10
258.439529
 20
77.420193
 30
0.0
 11
260.689529
 21
79.670193
 31
0.0
  0
LINE
  5
3C6
330
3A3
100
AcDbEntity
  8
LC-002-005-----0
 62
     7
370
    25
100
AcDbLine
 10
306.189529
 20
125.170193
 30
0.0
 11
308.439529
 21
127.420193
 31
0.0
  0
LINE
  5
3C7
330
3A3
100
AcDbEntity
  8
LC-002-005-----0
 62
     7
370
    25
100
AcDbLine
 10
255.611102
 20
77.420193
 30
0.0
 11
257.861102
 21
79.670193
 31
0.0
  0
LINE
  5
3C8
330
3A3
100
AcDbEntity
  8
LC-002-005-----0
 62
     7
370
    25
100
AcDbLine
 10
303.361102
 20
125.170193
 30
0.0
 11
305.611102
 21
127.420193
 31
0.0
  0
LINE
  5
3C9
330
3A3
100
AcDbEntity
  8
LC-002-005-----0
 62
     7
370
    25
100
AcDbLine
 10
252.782675
 20
77.420193
 30
0.0
 11
255.032675
 21
79.670193
 31
0.0
  0
LINE
  5
3CA
330
3A3
100
AcDbEntity
  8
LC-002-005-----0
 62
     7
370
    25
100
AcDbLine
 10
300.532675
 20
125.170193
 30
0.0
 11
302.782675
 21
127.420193
 31
0.0
  0
LINE
  5
3CB
330
3A3
100
AcDbEntity
  8
LC-002-005-----0
 62
     7
370
    25
100
AcDbLine
 10
249.954247
 20
77.420193
 30
0.0
 11
252.204247
 21
79.670193
 31
0.0
  0
LINE
  5
3CC
330
3A3
100
AcDbEntity
  8
LC-002-005-----0
 62
     7
370
    25
100
AcDbLine
 10
297.704247
 20
125.170193
 30
0.0
 11
299.954247
 21
127.420193
 31
0.0
  0
LINE
  5
3CD
330
3A3
100
AcDbEntity
  8
LC-002-005-----0
 62
     7
370
    25
100
AcDbLine
 10
247.12582
 20
77.420193
 30
0.0
 11
249.37582
 21
79.670193
 31
0.0
  0
LINE
  5
3CE
330
3A3
100
AcDbEntity
  8
LC-002-005-----0
 62
     7
370
    25
100
AcDbLine
 10
294.87582
 20
125.170193
 30
0.0
 11
297.12582
 21
127.420193
 31
0.0
  0
LINE
  5
3CF
330
3A3
100
AcDbEntity
  8
LC-002-005-----0
 62
     7
370
    25
100
AcDbLine
 10
244.297393
 20
77.420193
 30
0.0
 11
246.547393
 21
79.670193
 31
0.0
  0
LINE
  5
3D0
330
3A3
100
AcDbEntity
  8
LC-002-005-----0
 62
     7
370
    25
100
AcDbLine
 10
292.047393
 20
125.170193
 30
0.0
 11
294.297393
 21
127.420193
 31
0.0
  0
LINE
  5
3D1
330
3A3
100
AcDbEntity
  8
LC-002-005-----0
 62
     7
370
    25
100
AcDbLine
 10
239.504937
 20
75.456164
 30
0.0
 11
243.718966
 21
79.670193
 31
0.0
  0
LINE
  5
3D2
330
3A3
100
AcDbEntity
  8
LC-002-005-----0
 62
     7
370
    25
100
AcDbLine
 10
289.218966
 20
125.170193
 30
0.0
 11
291.468966
 21
127.420193
 31
0.0
  0
LINE
  5
3D3
330
3A3
100
AcDbEntity
  8
LC-002-005-----0
 62
     7
370
    25
100
AcDbLine
 10
233.781739
 20
72.561393
 30
0.0
 11
239.320021
 21
78.099674
 31
0.0
  0
LINE
  5
3D4
330
3A3
100
AcDbEntity
  8
LC-002-005-----0
 62
     7
370
    25
100
AcDbLine
 10
286.390539
 20
125.170193
 30
0.0
 11
288.640539
 21
127.420193
 31
0.0
  0
LINE
  5
3D5
330
3A3
100
AcDbEntity
  8
LC-002-005-----0
 62
     7
370
    25
100
AcDbLine
 10
229.681532
 20
71.289613
 30
0.0
 11
233.192182
 21
74.800263
 31
0.0
  0
LINE
  5
3D6
330
3A3
100
AcDbEntity
  8
LC-002-005-----0
 62
     7
370
    25
100
AcDbLine
 10
283.562112
 20
125.170193
 30
0.0
 11
285.812112
 21
127.420193
 31
0.0
  0
LINE
  5
3D7
330
3A3
100
AcDbEntity
  8
LC-002-005-----0
 62
     7
370
    25
100
AcDbLine
 10
226.229185
 20
70.665693
 30
0.0
 11
229.072509
 21
73.509017
 31
0.0
  0
LINE
  5
3D8
330
3A3
100
AcDbEntity
  8
LC-002-005-----0
 62
     7
370
    25
100
AcDbLine
 10
280.733685
 20
125.170193
 30
0.0
 11
282.983685
 21
127.420193
 31
0.0
  0
LINE
  5
3D9
330
3A3
100
AcDbEntity
  8
LC-002-005-----0
 62
     7
370
    25
100
AcDbLine
 10
223.167771
 20
70.432706
 30
0.0
 11
225.647601
 21
72.912537
 31
0.0
  0
LINE
  5
3DA
330
3A3
100
AcDbEntity
  8
LC-002-005-----0
 62
     7
370
    25
100
AcDbLine
 10
277.905258
 20
125.170193
 30
0.0
 11
280.155258
 21
127.420193
 31
0.0
  0
LINE
  5
3DB
330
3A3
100
AcDbEntity
  8
LC-002-005-----0
 62
     7
370
    25
100
AcDbLine
 10
220.32683
 20
70.420193
 30
0.0
 11
222.628964
 21
72.722327
 31
0.0
  0
LINE
  5
3DC
330
3A3
100
AcDbEntity
  8
LC-002-005-----0
 62
     7
370
    25
100
AcDbLine
 10
275.07683
 20
125.170193
 30
0.0
 11
277.32683
 21
127.420193
 31
0.0
  0
LINE
  5
3DD
330
3A3
100
AcDbEntity
  8
LC-002-005-----0
 62
     7
370
    25
100
AcDbLine
 10
217.498403
 20
70.420193
 30
0.0
 11
219.893846
 21
72.815635
 31
0.0
  0
LINE
  5
3DE
330
3A3
100
AcDbEntity
  8
LC-002-005-----0
 62
     7
370
    25
100
AcDbLine
 10
272.248403
 20
125.170193
 30
0.0
 11
274.498403
 21
127.420193
 31
0.0
  0
LINE
  5
3DF
330
3A3
100
AcDbEntity
  8
LC-002-005-----0
 62
     7
370
    25
100
AcDbLine
 10
214.669976
 20
70.420193
 30
0.0
 11
217.376398
 21
73.126615
 31
0.0
  0
LINE
  5
3E0
330
3A3
100
AcDbEntity
  8
LC-002-005-----0
 62
     7
370
    25
100
AcDbLine
 10
269.419976
 20
125.170193
 30
0.0
 11
271.669976
 21
127.420193
 31
0.0
  0
LINE
  5
3E1
330
3A3
100
AcDbEntity
  8
LC-002-005-----0
 62
     7
370
    25
100
AcDbLine
 10
214.251505
 20
72.830148
 30
0.0
 11
214.92327
 21
73.501914
 31
0.0
  0
LINE
  5
3E2
330
3A3
100
AcDbEntity
  8
LC-002-005-----0
 62
     7
370
    25
100
AcDbLine
 10
266.591549
 20
125.170193
 30
0.0
 11
268.841549
 21
127.420193
 31
0.0
  0
LINE
  5
3E3
330
3A3
100
AcDbEntity
  8
LC-002-005-----0
 62
     7
370
    25
100
AcDbLine
 10
263.763122
 20
125.170193
 30
0.0
 11
266.013122
 21
127.420193
 31
0.0
  0
LINE
  5
3E4
330
3A3
100
AcDbEntity
  8
LC-002-005-----0
 62
     7
370
    25
100
AcDbLine
 10
260.934695
 20
125.170193
 30
0.0
 11
263.184695
 21
127.420193
 31
0.0
  0
LINE
  5
3E5
330
3A3
100
AcDbEntity
  8
LC-002-005-----0
 62
     7
370
    25
100
AcDbLine
 10
258.106268
 20
125.170193
 30
0.0
 11
260.356268
 21
127.420193
 31
0.0
  0
LINE
  5
3E6
330
3A3
100
AcDbEntity
  8
LC-002-005-----0
 62
     7
370
    25
100
AcDbLine
 10
255.277841
 20
125.170193
 30
0.0
 11
257.527841
 21
127.420193
 31
0.0
  0
LINE
  5
3E7
330
3A3
100
AcDbEntity
  8
LC-002-005-----0
 62
     7
370
    25
100
AcDbLine
 10
252.449413
 20
125.170193
 30
0.0
 11
254.699413
 21
127.420193
 31
0.0
  0
LINE
  5
3E8
330
3A3
100
AcDbEntity
  8
LC-002-005-----0
 62
     7
370
    25
100
AcDbLine
 10
249.620986
 20
125.170193
 30
0.0
 11
251.870986
 21
127.420193
 31
0.0
  0
LINE
  5
3E9
330
3A3
100
AcDbEntity
  8
LC-002-005-----0
 62
     7
370
    25
100
AcDbLine
 10
246.792559
 20
125.170193
 30
0.0
 11
249.042559
 21
127.420193
 31
0.0
  0
LINE
  5
3EA
330
3A3
100
AcDbEntity
  8
LC-002-005-----0
 62
     7
370
    25
100
AcDbLine
 10
243.964132
 20
125.170193
 30
0.0
 11
246.214132
 21
127.420193
 31
0.0
  0
LINE
  5
3EB
330
3A3
100
AcDbEntity
  8
LC-002-005-----0
 62
     7
370
    25
100
AcDbLine
 10
241.240269
 20
125.274756
 30
0.0
 11
243.385705
 21
127.420193
 31
0.0
  0
LINE
  5
3EC
330
3A3
100
AcDbEntity
  8
LC-002-005-----0
 62
     7
370
    25
100
AcDbLine
 10
239.64601
 20
126.508925
 30
0.0
 11
241.292001
 21
128.154916
 31
0.0
  0
LINE
  5
3ED
330
3A3
100
AcDbEntity
  8
LC-002-005-----0
 62
     7
370
    25
100
AcDbLine
 10
237.952615
 20
127.643957
 30
0.0
 11
239.619392
 21
129.310734
 31
0.0
  0
LINE
  5
3EE
330
3A3
100
AcDbEntity
  8
LC-002-005-----0
 62
     7
370
    25
100
AcDbLine
 10
236.155948
 20
128.675717
 30
0.0
 11
237.852032
 21
130.371801
 31
0.0
  0
LINE
  5
3EF
330
3A3
100
AcDbEntity
  8
LC-002-005-----0
 62
     7
370
    25
100
AcDbLine
 10
234.249956
 20
129.598152
 30
0.0
 11
235.985212
 21
131.333409
 31
0.0
  0
LINE
  5
3F0
330
3A3
100
AcDbEntity
  8
LC-002-005-----0
 62
     7
370
    25
100
AcDbLine
 10
232.226138
 20
130.402762
 30
0.0
 11
234.012426
 21
132.18905
 31
0.0
  0
LINE
  5
3F1
330
3A3
100
AcDbEntity
  8
LC-002-005-----0
 62
     7
370
    25
100
AcDbLine
 10
230.072678
 20
131.077728
 30
0.0
 11
231.924834
 21
132.929884
 31
0.0
  0
LINE
  5
3F2
330
3A3
100
AcDbEntity
  8
LC-002-005-----0
 62
     7
370
    25
100
AcDbLine
 10
227.773004
 20
131.606482
 30
0.0
 11
229.710409
 21
133.543886
 31
0.0
  0
LINE
  5
3F3
330
3A3
100
AcDbEntity
  8
LC-002-005-----0
 62
     7
370
    25
100
AcDbLine
 10
225.303289
 20
131.965194
 30
0.0
 11
227.352555
 21
134.014459
 31
0.0
  0
LINE
  5
3F4
330
3A3
100
AcDbEntity
  8
LC-002-005-----0
 62
     7
370
    25
100
AcDbLine
 10
222.627742
 20
132.118074
 30
0.0
 11
224.827717
 21
134.318049
 31
0.0
  0
LINE
  5
3F5
330
3A3
100
AcDbEntity
  8
LC-002-005-----0
 62
     7
370
    25
100
AcDbLine
 10
219.688798
 20
132.007557
 30
0.0
 11
222.101434
 21
134.420193
 31
0.0
  0
LINE
  5
3F6
330
3A3
100
AcDbEntity
  8
LC-002-005-----0
 62
     7
370
    25
100
AcDbLine
 10
216.383144
 20
131.53033
 30
0.0
 11
219.273007
 21
134.420193
 31
0.0
  0
LINE
  5
3F7
330
3A3
100
AcDbEntity
  8
LC-002-005-----0
 62
     7
370
    25
100
AcDbLine
 10
214.215234
 20
132.190848
 30
0.0
 11
216.444579
 21
134.420193
 31
0.0
  0
ENDBLK
  5
3A5
330
3A3
100
AcDbEntity
  8
0
100
AcDbBlockEnd
  0
BLOCK
  5
411
330
407
100
AcDbEntity
  8
0
100
AcDbBlockBegin
  2
*D26
 70
     1
 71
     0
 10
0.0
 20
0.0
 30
0.0
  3
*D26
  1

  0
LINE
  5
408
330
407
100
AcDbEntity
  8
LC-006-003-----0
 62
     2
370
    -2
100
AcDbLine
 10
106.132889
 20
132.923375
 30
0.0
 11
35.6
 21
132.923375
 31
0.0
  0
LINE
  5
409
330
407
100
AcDbEntity
  8
LC-006-003-----0
 62
     2
370
    -2
100
AcDbLine
 10
120.194482
 20
28.120193
 30
0.0
 11
35.6
 21
28.120193
 31
0.0
  0
LINE
  5
40A
330
407
100
AcDbEntity
  8
LC-006-003-----0
 62
     2
370
    -2
100
AcDbLine
 10
39.2
 20
104.923375
 30
0.0
 11
39.2
 21
56.120193
 31
0.0
  0
SOLID
  5
40B
330
407
100
AcDbEntity
  8
LC-006-003-----0
 62
     2
100
AcDbTrace
 10
43.866667
 20
104.923375
 30
0.0
 11
34.533333
 21
104.923375
 31
0.0
 12
39.2
 22
132.923375
 32
0.0
 13
39.2
 23
132.923375
 33
0.0
  0
SOLID
  5
40C
330
407
100
AcDbEntity
  8
LC-006-003-----0
 62
     2
100
AcDbTrace
 10
34.533333
 20
56.120193
 30
0.0
 11
43.866667
 21
56.120193
 31
0.0
 12
39.2
 22
28.120193
 32
0.0
 13
39.2
 23
28.120193
 33
0.0
  0
MTEXT
  5
40D
330
407
100
AcDbEntity
  8
LC-006-003-----0
 62
     2
100
AcDbMText
 10
8.4
 20
80.521784
 30
0.0
 40
28.0
 41
0.0
 71
     5
 72
     1
  1
\A1;105
  7
LCTX15-400-0-0pDIN-Schrift
 11
6.123031769111886E-17
 21
1.0
 31
0.0
 73
     1
 44
1.0
  0
POINT
  5
40E
330
407
100
AcDbEntity
  8
Defpoints
 62
     0
100
AcDbPoint
 10
106.132889
 20
132.923375
 30
0.0
  0
POINT
  5
40F
330
407
100
AcDbEntity
  8
Defpoints
 62
     0
100
AcDbPoint
 10
120.194482
 20
28.120193
 30
0.0
  0
POINT
  5
410
330
407
100
AcDbEntity
  8
Defpoints
 62
     0
100
AcDbPoint
 10
39.2
 20
28.120193
 30
0.0
  0
ENDBLK
  5
412
330
407
100
AcDbEntity
  8
0
100
AcDbBlockEnd
  0
BLOCK
  5
431
330
430
100
AcDbEntity
  8
0
100
AcDbBlockBegin
  2
LCDIM1
 70
     0
 71
     0
 10
0.0
 20
0.0
 30
0.0
  3
LCDIM1
  1

  4
LCDIM1
  0
TEXT
  5
433
330
430
100
AcDbEntity
  8
LC-006-003-----0
 62
     7
370
   140
100
AcDbText
 10
309.643389
 20
-37.977602
 30
0.0
 40
28.0
  1
 15%%d
 50
41.379959
 41
0.9
 51
15.0
  7
LCTX15-400-0-0-Arial
 72
     1
 11
333.31699
 21
-17.121227
 31
0.0
100
AcDbText
  0
LINE
  5
434
330
430
100
AcDbEntity
  8
LC-006-003-----0
 62
     7
370
    25
100
AcDbLine
 10
389.585196
 20
28.48001
 30
0.0
 11
395.39194
 21
55.871281
 31
0.0
  0
LINE
  5
435
330
430
100
AcDbEntity
  8
LC-006-003-----0
 62
     7
370
    25
100
AcDbLine
 10
395.39194
 20
55.871281
 30
0.0
 11
382.693674
 21
30.916241
 31
0.0
  0
LINE
  5
436
330
430
100
AcDbEntity
  8
LC-006-003-----0
 62
     7
370
    25
100
AcDbLine
 10
382.693674
 20
30.916241
 30
0.0
 11
389.585196
 21
28.48001
 31
0.0
  0
LINE
  5
437
330
430
100
AcDbEntity
  8
LC-006-003-----0
 62
     7
370
    25
100
AcDbLine
 10
388.66854
 20
28.738
 30
0.0
 11
392.96553
 21
49.007541
 31
0.0
  0
LINE
  5
438
330
430
100
AcDbEntity
  8
LC-006-003-----0
 62
     7
370
    25
100
AcDbLine
 10
392.96553
 20
49.007541
 30
0.0
 11
383.568813
 21
30.540811
 31
0.0
  0
LINE
  5
439
330
430
100
AcDbEntity
  8
LC-006-003-----0
 62
     7
370
    25
100
AcDbLine
 10
387.751884
 20
28.99599
 30
0.0
 11
390.539121
 21
42.1438
 31
0.0
  0
LINE
  5
43A
330
430
100
AcDbEntity
  8
LC-006-003-----0
 62
     7
370
    25
100
AcDbLine
 10
390.539121
 20
42.1438
 30
0.0
 11
384.443953
 21
30.165381
 31
0.0
  0
LINE
  5
43B
330
430
100
AcDbEntity
  8
LC-006-003-----0
 62
     7
370
    25
100
AcDbLine
 10
386.835228
 20
29.25398
 30
0.0
 11
388.112711
 21
35.280059
 31
0.0
  0
LINE
  5
43C
330
430
100
AcDbEntity
  8
LC-006-003-----0
 62
     7
370
    25
100
AcDbLine
 10
388.112711
 20
35.280059
 30
0.0
 11
385.319093
 21
29.78995
 31
0.0
  0
LINE
  5
43D
330
430
100
AcDbEntity
  8
LC-006-003-----0
 62
     7
370
    25
100
AcDbLine
 10
395.688661
 20
129.622968
 30
0.0
 11
401.495405
 21
102.231697
 31
0.0
  0
LINE
  5
43E
330
430
100
AcDbEntity
  8
LC-006-003-----0
 62
     7
370
    25
100
AcDbLine
 10
401.495405
 20
102.231697
 30
0.0
 11
402.975904
 21
130.192529
 31
0.0
  0
LINE
  5
43F
330
430
100
AcDbEntity
  8
LC-006-003-----0
 62
     7
370
    25
100
AcDbLine
 10
402.975904
 20
130.192529
 30
0.0
 11
395.688661
 21
129.622968
 31
0.0
  0
LINE
  5
440
330
430
100
AcDbEntity
  8
LC-006-003-----0
 62
     7
370
    25
100
AcDbLine
 10
396.631149
 20
129.759103
 30
0.0
 11
400.92814
 21
109.489563
 31
0.0
  0
LINE
  5
441
330
430
100
AcDbEntity
  8
LC-006-003-----0
 62
     7
370
    25
100
AcDbLine
 10
400.92814
 20
109.489563
 30
0.0
 11
402.023709
 21
130.180578
 31
0.0
  0
LINE
  5
442
330
430
100
AcDbEntity
  8
LC-006-003-----0
 62
     7
370
    25
100
AcDbLine
 10
397.573638
 20
129.895238
 30
0.0
 11
400.360875
 21
116.747428
 31
0.0
  0
LINE
  5
443
330
430
100
AcDbEntity
  8
LC-006-003-----0
 62
     7
370
    25
100
AcDbLine
 10
400.360875
 20
116.747428
 30
0.0
 11
401.071514
 21
130.168627
 31
0.0
  0
LINE
  5
444
330
430
100
AcDbEntity
  8
LC-006-003-----0
 62
     7
370
    25
100
AcDbLine
 10
398.516127
 20
130.031373
 30
0.0
 11
399.79361
 21
124.005293
 31
0.0
  0
LINE
  5
445
330
430
100
AcDbEntity
  8
LC-006-003-----0
 62
     7
370
    25
100
AcDbLine
 10
399.79361
 20
124.005293
 30
0.0
 11
400.11932
 21
130.156676
 31
0.0
  0
ARC
  5
447
330
430
100
AcDbEntity
  8
LC-010-003-MTG-0
 62
     7
370
    25
100
AcDbCircle
 10
222.372513
 20
102.231697
 30
0.0
 40
179.1228919045324
100
AcDbArc
 50
298.844191
 51
299.718956
  0
ARC
  5
448
330
430
100
AcDbEntity
  8
LC-010-003-MTG-0
 62
     7
370
    25
100
AcDbCircle
 10
222.372513
 20
102.231697
 30
0.0
 40
179.1228919045325
100
AcDbArc
 50
301.235977
 51
321.523941
  0
ARC
  5
449
330
430
100
AcDbEntity
  8
LC-010-003-MTG-0
 62
     7
370
    25
100
AcDbCircle
 10
222.372513
 20
102.231697
 30
0.0
 40
179.1228919045324
100
AcDbArc
 50
327.821473
 51
12.344236
  0
LINE
  5
44B
330
430
100
AcDbEntity
  8
LC-011-003-MTH-0
 62
     7
370
    25
100
AcDbLine
 10
325.147021
 20
74.693351
 30
0.0
 11
399.255643
 21
54.836005
 31
0.0
  0
LINE
  5
44C
330
430
100
AcDbEntity
  8
LC-011-003-MTH-0
 62
     7
370
    25
100
AcDbLine
 10
328.772513
 20
102.231697
 30
0.0
 11
405.495405
 21
102.231697
 31
0.0
  0
ENDBLK
  5
432
330
430
100
AcDbEntity
  8
0
100
AcDbBlockEnd
  0
ENDSEC
  0
SECTION
  2
ENTITIES
  0
LINE
  5
32
102
{ACAD_REACTORS
330
458
102
}
330
1F
100
AcDbEntity
  8
LC-001-002-----0
 62
     7
370
    50
100
AcDbLine
 10
190.768355
 20
78.120193
 30
0.0
 11
189.089721
 21
30.050394
 31
0.0
  0
LINE
  5
33
102
{ACAD_REACTORS
330
457
102
}
330
1F
100
AcDbEntity
  8
LC-001-002-----0
 62
     7
370
    50
100
AcDbLine
 10
119.982889
 20
119.619685
 30
0.0
 11
119.982889
 21
126.620193
 31
0.0
  0
LINE
  5
34
102
{ACAD_REACTORS
330
458
102
}
330
1F
100
AcDbEntity
  8
LC-001-002-----0
 62
     7
370
    50
100
AcDbLine
 10
104.181671
 20
101.515198
 30
0.0
 11
106.203011
 21
43.6316
 31
0.0
  0
INSERT
  5
4A
102
{ACAD_REACTORS
330
458
102
}
330
1F
100
AcDbEntity
  8
LC-002-005-----0
 62
     7
370
    25
100
AcDbBlockReference
  2
*X11
 10
0.0
 20
0.0
 30
0.0
  0
INSERT
  5
62
102
{ACAD_REACTORS
330
458
102
}
330
1F
100
AcDbEntity
  8
LC-002-005-----0
 62
     7
370
    25
100
AcDbBlockReference
  2
*X22
 10
0.0
 20
0.0
 30
0.0
  0
LINE
  5
63
102
{ACAD_REACTORS
330
458
102
}
330
1F
100
AcDbEntity
  8
LC-001-002-----0
 62
     7
370
    50
100
AcDbLine
 10
190.768355
 20
78.120193
 30
0.0
 11
201.872512
 21
78.120193
 31
0.0
  0
LINE
  5
64
102
{ACAD_REACTORS
330
458
102
}
330
1F
100
AcDbEntity
  8
LC-001-002-----0
 62
     7
370
    50
100
AcDbLine
 10
162.736496
 20
98.120193
 30
0.0
 11
164.025792
 21
98.120193
 31
0.0
  0
LINE
  5
65
102
{ACAD_REACTORS
330
45A
102
}
330
1F
100
AcDbEntity
  8
LC-001-002-----0
 62
     7
370
    25
100
AcDbLine
 10
168.420689
 20
134.923375
 30
0.0
 11
168.420689
 21
134.923375
 31
0.0
  0
ARC
  5
67
102
{ACAD_REACTORS
330
458
102
}
330
1F
100
AcDbEntity
  8
LC-003-002-RND-0
 62
     7
370
    50
100
AcDbCircle
 10
120.194482
 20
44.120193
 30
0.0
 40
14.00000000000003
100
AcDbArc
 50
182.0
 51
270.0
  0
LINE
  5
68
102
{ACAD_REACTORS
330
458
102
}
330
1F
100
AcDbEntity
  8
LC-001-002-----0
 62
     7
370
    50
100
AcDbLine
 10
120.194482
 20
30.120193
 30
0.0
 11
162.380445
 21
30.120193
 31
0.0
  0
LINE
  5
69
102
{ACAD_REACTORS
330
458
102
}
330
1F
100
AcDbEntity
  8
LC-001-002-----0
 62
     7
370
    50
100
AcDbLine
 10
102.182889
 20
101.445399
 30
0.0
 11
104.204229
 21
43.561801
 31
0.0
  0
ARC
  5
6A
102
{ACAD_REACTORS
330
458
102
}
330
1F
100
AcDbEntity
  8
LC-003-002-RND-0
 62
     7
370
    50
100
AcDbCircle
 10
120.194482
 20
44.120193
 30
0.0
 40
16.00000000000006
100
AcDbArc
 50
182.0
 51
270.0
  0
LINE
  5
6B
102
{ACAD_REACTORS
330
458
102
}
330
1F
100
AcDbEntity
  8
LC-001-002-----0
 62
     7
370
    50
100
AcDbLine
 10
120.194482
 20
28.120193
 30
0.0
 11
164.392314
 21
28.120193
 31
0.0
  0
ARC
  5
6C
102
{ACAD_REACTORS
330
458
102
}
330
1F
100
AcDbEntity
  8
LC-003-002-RND-0
 62
     7
370
    50
100
AcDbCircle
 10
187.090939
 20
30.120193
 30
0.0
 40
2.0
100
AcDbArc
 50
270.0
 51
358.0
  0
LINE
  5
6D
102
{ACAD_REACTORS
330
458
102
}
330
1F
100
AcDbEntity
  8
LC-001-002-----0
 62
     7
370
    50
100
AcDbLine
 10
164.392314
 20
28.120193
 30
0.0
 11
164.130512
 21
78.120193
 31
0.0
  0
LINE
  5
6E
102
{ACAD_REACTORS
330
458
102
}
330
1F
100
AcDbEntity
  8
LC-001-002-----0
 62
     7
370
    50
100
AcDbLine
 10
164.392314
 20
28.120193
 30
0.0
 11
187.021097
 21
28.120193
 31
0.0
  0
LINE
  5
6F
102
{ACAD_REACTORS
330
458
102
}
330
1F
100
AcDbEntity
  8
LC-001-002-----0
 62
     7
370
    50
100
AcDbLine
 10
187.021097
 20
28.120193
 30
0.0
 11
187.090939
 21
28.120193
 31
0.0
  0
LINE
  5
70
102
{ACAD_REACTORS
330
458
102
}
330
1F
100
AcDbEntity
  8
LC-001-002-----0
 62
     7
370
    50
100
AcDbLine
 10
188.767136
 20
78.120193
 30
0.0
 11
187.021097
 21
28.120193
 31
0.0
  0
LINE
  5
71
102
{ACAD_REACTORS
330
458
102
}
330
1F
100
AcDbEntity
  8
LC-001-002-----0
 62
     7
370
    50
100
AcDbLine
 10
162.736496
 20
98.120193
 30
0.0
 11
162.380445
 21
30.120193
 31
0.0
  0
LINE
  5
72
102
{ACAD_REACTORS
330
458
102
}
330
1F
100
AcDbEntity
  8
LC-001-002-----0
 62
     7
370
    50
100
AcDbLine
 10
189.582889
 20
114.120193
 30
0.0
 11
197.275557
 21
114.120193
 31
0.0
  0
LINE
  5
73
102
{ACAD_REACTORS
330
458
102
}
330
1F
100
AcDbEntity
  8
LC-001-002-----0
 62
     7
370
    50
100
AcDbLine
 10
100.182889
 20
117.120193
 30
0.0
 11
102.182889
 21
109.656091
 31
0.0
  0
LINE
  5
74
102
{ACAD_REACTORS
330
458
102
}
330
1F
100
AcDbEntity
  8
LC-001-002-----0
 62
     7
370
    50
100
AcDbLine
 10
103.182889
 20
117.120193
 30
0.0
 11
100.182889
 21
117.120193
 31
0.0
  0
LINE
  5
75
102
{ACAD_REACTORS
330
458
102
}
330
1F
100
AcDbEntity
  8
LC-001-002-----0
 62
     7
370
    50
100
AcDbLine
 10
103.182889
 20
117.120193
 30
0.0
 11
103.182889
 21
115.620193
 31
0.0
  0
LINE
  5
76
102
{ACAD_REACTORS
330
458
102
}
330
1F
100
AcDbEntity
  8
LC-001-002-----0
 62
     7
370
    50
100
AcDbLine
 10
102.182889
 20
115.620193
 30
0.0
 11
100.584813
 21
115.620193
 31
0.0
  0
LINE
  5
77
102
{ACAD_REACTORS
330
458
102
}
330
1F
100
AcDbEntity
  8
LC-001-002-----0
 62
     7
370
    50
100
AcDbLine
 10
104.182889
 20
115.620193
 30
0.0
 11
103.182889
 21
115.620193
 31
0.0
  0
LINE
  5
78
102
{ACAD_REACTORS
330
458
102
}
330
1F
100
AcDbEntity
  8
LC-001-002-----0
 62
     7
370
    50
100
AcDbLine
 10
104.182889
 20
115.620193
 30
0.0
 11
104.182889
 21
106.870193
 31
0.0
  0
INSERT
  5
7E
102
{ACAD_REACTORS
330
458
102
}
330
1F
100
AcDbEntity
  8
LC-002-005-----0
 62
     7
370
    25
100
AcDbBlockReference
  2
*X33
 10
0.0
 20
0.0
 30
0.0
  0
LINE
  5
7F
102
{ACAD_REACTORS
330
458
102
}
330
1F
100
AcDbEntity
  8
LC-001-002-----0
 62
     7
370
    50
100
AcDbLine
 10
190.582889
 20
117.120193
 30
0.0
 11
196.581129
 21
117.120193
 31
0.0
  0
INSERT
  5
D1
102
{ACAD_REACTORS
330
458
102
}
330
1F
100
AcDbEntity
  8
LC-002-005-----0
 62
     7
370
    25
100
AcDbBlockReference
  2
*X44
 10
0.0
 20
0.0
 30
0.0
  0
LINE
  5
D2
102
{ACAD_REACTORS
330
458
102
}
330
1F
100
AcDbEntity
  8
LC-001-002-----0
 62
     7
370
    50
100
AcDbLine
 10
189.582889
 20
115.620193
 30
0.0
 11
190.582889
 21
115.620193
 31
0.0
  0
LINE
  5
D4
102
{ACAD_REACTORS
330
458
102
}
330
1F
100
AcDbEntity
  8
LC-004-205-----0
 62
     7
370
    50
100
AcDbLine
 10
164.12004
 20
80.120193
 30
0.0
 11
190.838197
 21
80.120193
 31
0.0
  0
INSERT
  5
F3
102
{ACAD_REACTORS
330
458
102
}
330
1F
100
AcDbEntity
  8
LC-002-005-----0
 62
     7
370
    25
100
AcDbBlockReference
  2
*X55
 10
0.0
 20
0.0
 30
0.0
  0
LINE
  5
F4
102
{ACAD_REACTORS
330
458
102
}
330
1F
100
AcDbEntity
  8
LC-001-002-----0
 62
     7
370
    50
100
AcDbLine
 10
164.130512
 20
78.120193
 30
0.0
 11
188.767136
 21
78.120193
 31
0.0
  0
LINE
  5
F5
102
{ACAD_REACTORS
330
458
102
}
330
1F
100
AcDbEntity
  8
LC-001-002-----0
 62
     7
370
    50
100
AcDbLine
 10
104.182889
 20
107.870193
 30
0.0
 11
104.182889
 21
101.445399
 31
0.0
  0
ARC
  5
F6
102
{ACAD_REACTORS
330
458
102
}
330
1F
100
AcDbEntity
  8
LC-004-205-----0
 62
     7
370
    50
100
AcDbCircle
 10
222.272957
 20
102.420193
 30
0.0
 40
29.59999999999986
100
AcDbArc
 50
133.567148
 51
150.223261
  0
LINE
  5
F7
102
{ACAD_REACTORS
330
458
102
}
330
1F
100
AcDbEntity
  8
LC-004-205-----0
 62
     7
370
    50
100
AcDbLine
 10
228.37182
 20
127.420193
 30
0.0
 11
228.37182
 21
131.385066
 31
0.0
  0
LINE
  5
F9
102
{ACAD_REACTORS
330
458
102
}
330
1F
100
AcDbEntity
  8
LC-004-205-----0
  6
DASHDOT
 62
     7
370
    25
100
AcDbLine
 10
228.37182
 20
129.120193
 30
0.0
 11
232.87182
 21
129.120193
 31
0.0
  0
LINE
  5
FA
102
{ACAD_REACTORS
330
458
102
}
330
1F
100
AcDbEntity
  8
LC-004-205-----0
 62
     7
370
    50
100
AcDbLine
 10
228.37182
 20
127.420193
 30
0.0
 11
232.87182
 21
127.420193
 31
0.0
  0
LINE
  5
FB
102
{ACAD_REACTORS
330
458
102
}
330
1F
100
AcDbEntity
  8
LC-004-205-----0
  6
DASHDOT
 62
     7
370
    25
100
AcDbLine
 10
230.62182
 20
127.420193
 30
0.0
 11
230.62182
 21
131.181509
 31
0.0
  0
LINE
  5
FC
102
{ACAD_REACTORS
330
458
102
}
330
1F
100
AcDbEntity
  8
LC-004-205-----0
 62
     7
370
    50
100
AcDbLine
 10
232.87182
 20
127.420193
 30
0.0
 11
232.87182
 21
130.05756
 31
0.0
  0
ARC
  5
FD
102
{ACAD_REACTORS
330
458
102
}
330
1F
100
AcDbEntity
  8
LC-004-205-----0
 62
     7
370
    50
100
AcDbCircle
 10
222.272957
 20
102.420193
 30
0.0
 40
29.6
100
AcDbArc
 50
53.517333
 51
69.018302
  0
LINE
  5
FE
102
{ACAD_REACTORS
330
458
102
}
330
1F
100
AcDbEntity
  8
LC-001-002-----0
 62
     7
370
    50
100
AcDbLine
 10
102.182889
 20
115.620193
 30
0.0
 11
102.182889
 21
101.445399
 31
0.0
  0
LINE
  5
FF
102
{ACAD_REACTORS
330
458
102
}
330
1F
100
AcDbEntity
  8
LC-001-002-----0
 62
     7
370
    50
100
AcDbLine
 10
104.182889
 20
107.870193
 30
0.0
 11
104.182889
 21
101.445399
 31
0.0
  0
LINE
  5
100
102
{ACAD_REACTORS
330
458
102
}
330
1F
100
AcDbEntity
  8
LC-001-002-----0
 62
     7
370
    50
100
AcDbLine
 10
190.582889
 20
117.120193
 30
0.0
 11
190.582889
 21
115.620193
 31
0.0
  0
LINE
  5
101
102
{ACAD_REACTORS
330
458
102
}
330
1F
100
AcDbEntity
  8
LC-001-002-----0
 62
     7
370
    50
100
AcDbLine
 10
189.582889
 20
115.620193
 30
0.0
 11
189.582889
 21
114.120193
 31
0.0
  0
LINE
  5
102
102
{ACAD_REACTORS
330
458
102
}
330
1F
100
AcDbEntity
  8
LC-004-205-----0
 62
     7
370
    50
100
AcDbLine
 10
239.872512
 20
126.222905
 30
0.0
 11
239.872512
 21
78.620704
 31
0.0
  0
ARC
  5
103
102
{ACAD_REACTORS
330
458
102
}
330
1F
100
AcDbEntity
  8
LC-004-205-----0
 62
     7
370
    50
100
AcDbCircle
 10
222.272957
 20
102.420193
 30
0.0
 40
29.60000000000018
100
AcDbArc
 50
290.981698
 51
306.482667
  0
LINE
  5
104
102
{ACAD_REACTORS
330
458
102
}
330
1F
100
AcDbEntity
  8
LC-004-205-----0
 62
     7
370
    50
100
AcDbLine
 10
239.87182
 20
80.120193
 30
0.0
 11
190.838197
 21
80.120193
 31
0.0
  0
LINE
  5
105
102
{ACAD_REACTORS
330
458
102
}
330
1F
100
AcDbEntity
  8
LC-004-205-----0
 62
     7
370
    50
100
AcDbLine
 10
232.87182
 20
77.420193
 30
0.0
 11
232.87182
 21
74.782825
 31
0.0
  0
LINE
  5
106
102
{ACAD_REACTORS
330
458
102
}
330
1F
100
AcDbEntity
  8
LC-004-205-----0
 62
     7
370
    50
100
AcDbLine
 10
228.37182
 20
77.420193
 30
0.0
 11
232.87182
 21
77.420193
 31
0.0
  0
LINE
  5
107
102
{ACAD_REACTORS
330
458
102
}
330
1F
100
AcDbEntity
  8
LC-004-205-----0
  6
DASHDOT
 62
     7
370
    25
100
AcDbLine
 10
230.62182
 20
77.420193
 30
0.0
 11
230.62182
 21
73.658877
 31
0.0
  0
LINE
  5
108
102
{ACAD_REACTORS
330
458
102
}
330
1F
100
AcDbEntity
  8
LC-004-205-----0
  6
DASHDOT
 62
     7
370
    25
100
AcDbLine
 10
228.37182
 20
75.720193
 30
0.0
 11
232.87182
 21
75.720193
 31
0.0
  0
ARC
  5
109
102
{ACAD_REACTORS
330
458
102
}
330
1F
100
AcDbEntity
  8
LC-004-205-----0
 62
     7
370
    50
100
AcDbCircle
 10
222.272957
 20
102.420193
 30
0.0
 40
29.59999999999983
100
AcDbArc
 50
235.179599
 51
281.890544
  0
LINE
  5
10A
102
{ACAD_REACTORS
330
458
102
}
330
1F
100
AcDbEntity
  8
LC-004-205-----0
 62
     7
370
    50
100
AcDbLine
 10
228.37182
 20
77.420193
 30
0.0
 11
228.37182
 21
73.45532
 31
0.0
  0
LINE
  5
10D
102
{ACAD_REACTORS
330
458
102
}
330
1F
100
AcDbEntity
  8
LC-005-006-MLN-0
 62
     7
370
    25
100
AcDbLine
 10
176.611049
 20
102.420193
 30
0.0
 11
322.840081
 21
102.420193
 31
0.0
  0
LINE
  5
10E
102
{ACAD_REACTORS
330
458
102
}
330
1F
100
AcDbEntity
  8
LC-004-205-----0
 62
     7
370
    50
100
AcDbLine
 10
239.871376
 20
124.723746
 30
0.0
 11
206.015296
 21
124.723746
 31
0.0
  0
ARC
  5
10F
102
{ACAD_REACTORS
330
458
102
}
330
1F
100
AcDbEntity
  8
LC-001-002-----0
 62
     7
370
    50
100
AcDbCircle
 10
222.272957
 20
102.420193
 30
0.0
 40
27.59999999999997
100
AcDbArc
 50
126.089316
 51
154.918118
  0
LINE
  5
110
102
{ACAD_REACTORS
330
458
102
}
330
1F
100
AcDbEntity
  8
LC-001-002-----0
 62
     7
370
    50
100
AcDbLine
 10
201.872512
 20
127.920193
 30
0.0
 11
201.872512
 21
123.867381
 31
0.0
  0
LINE
  5
111
102
{ACAD_REACTORS
330
458
102
}
330
1F
100
AcDbEntity
  8
LC-001-002-----0
 62
     7
370
    50
100
AcDbLine
 10
204.372512
 20
127.920193
 30
0.0
 11
204.372512
 21
125.994206
 31
0.0
  0
LINE
  5
112
102
{ACAD_REACTORS
330
458
102
}
330
1F
100
AcDbEntity
  8
LC-001-002-----0
 62
     7
370
    50
100
AcDbLine
 10
201.872512
 20
127.920193
 30
0.0
 11
204.372512
 21
127.920193
 31
0.0
  0
LINE
  5
113
102
{ACAD_REACTORS
330
458
102
}
330
1F
100
AcDbEntity
  8
LC-001-002-----0
 62
     7
370
    50
100
AcDbLine
 10
201.872512
 20
76.920193
 30
0.0
 11
204.372512
 21
76.920193
 31
0.0
  0
LINE
  5
114
102
{ACAD_REACTORS
330
458
102
}
330
1F
100
AcDbEntity
  8
LC-001-002-----0
 62
     7
370
    50
100
AcDbLine
 10
204.372512
 20
78.120193
 30
0.0
 11
204.372512
 21
76.920193
 31
0.0
  0
LINE
  5
115
102
{ACAD_REACTORS
330
458
102
}
330
1F
100
AcDbEntity
  8
LC-001-002-----0
 62
     7
370
    50
100
AcDbLine
 10
201.872512
 20
78.120193
 30
0.0
 11
201.872512
 21
76.920193
 31
0.0
  0
LINE
  5
116
102
{ACAD_REACTORS
330
458
102
}
330
1F
100
AcDbEntity
  8
LC-001-002-----0
 62
     7
370
    50
100
AcDbLine
 10
204.372512
 20
78.120193
 30
0.0
 11
205.371182
 21
78.120193
 31
0.0
  0
ARC
  5
117
102
{ACAD_REACTORS
330
458
102
}
330
1F
100
AcDbEntity
  8
LC-004-205-----0
 62
     7
370
    50
100
AcDbCircle
 10
222.272957
 20
102.420193
 30
0.0
 40
29.59999999999992
100
AcDbArc
 50
78.109456
 51
127.210476
  0
ARC
  5
118
102
{ACAD_REACTORS
330
458
102
}
330
1F
100
AcDbEntity
  8
LC-001-002-----0
 62
     7
370
    50
100
AcDbCircle
 10
222.272957
 20
102.420193
 30
0.0
 40
32.65621125500468
100
AcDbArc
 50
104.29507
 51
128.660417
  0
LINE
  5
119
102
{ACAD_REACTORS
330
458
102
}
330
1F
100
AcDbEntity
  8
LC-001-002-----0
 62
     7
370
    50
100
AcDbLine
 10
214.209627
 20
134.065269
 30
0.0
 11
214.209627
 21
130.90076
 31
0.0
  0
LINE
  5
11A
102
{ACAD_REACTORS
330
458
102
}
330
1F
100
AcDbEntity
  8
LC-001-002-----0
 62
     7
370
    50
100
AcDbLine
 10
164.12004
 20
80.120193
 30
0.0
 11
164.025792
 21
98.120193
 31
0.0
  0
INSERT
  5
125
102
{ACAD_REACTORS
330
457
102
}
330
1F
100
AcDbEntity
  8
LC-002-005-----0
 62
     7
370
    25
100
AcDbBlockReference
  2
*X66
 10
0.0
 20
0.0
 30
0.0
  0
LINE
  5
126
102
{ACAD_REACTORS
330
457
102
}
330
1F
100
AcDbEntity
  8
LC-001-002-----0
 62
     7
370
    50
100
AcDbLine
 10
167.882889
 20
128.120193
 30
0.0
 11
166.282889
 21
128.120193
 31
0.0
  0
INSERT
  5
137
102
{ACAD_REACTORS
330
457
102
}
330
1F
100
AcDbEntity
  8
LC-002-005-----0
 62
     7
370
    25
100
AcDbBlockReference
  2
*X77
 10
0.0
 20
0.0
 30
0.0
  0
LINE
  5
138
102
{ACAD_REACTORS
330
457
102
}
330
1F
100
AcDbEntity
  8
LC-001-002-----0
 62
     7
370
    50
100
AcDbLine
 10
116.582889
 20
118.119685
 30
0.0
 11
118.482889
 21
118.119685
 31
0.0
  0
LINE
  5
139
102
{ACAD_REACTORS
330
457
102
}
330
1F
100
AcDbEntity
  8
LC-001-002-----0
 62
     7
370
    50
100
AcDbLine
 10
190.276766
 20
125.777111
 30
0.0
 11
190.840028
 21
118.620193
 31
0.0
  0
ARC
  5
13A
102
{ACAD_REACTORS
330
457
102
}
330
1F
100
AcDbEntity
  8
LC-003-002-RND-0
 62
     7
370
    50
100
AcDbCircle
 10
188.282932
 20
125.620193
 30
0.0
 40
1.999999999999953
100
AcDbArc
 50
4.5
 51
90.0
  0
LINE
  5
13B
102
{ACAD_REACTORS
330
457
102
}
330
1F
100
AcDbEntity
  8
LC-001-002-----0
 62
     7
370
    50
100
AcDbLine
 10
188.282932
 20
127.620193
 30
0.0
 11
174.267343
 21
127.620193
 31
0.0
  0
LINE
  5
13C
102
{ACAD_REACTORS
330
457
102
}
330
1F
100
AcDbEntity
  8
LC-001-002-----0
 62
     7
370
    50
100
AcDbLine
 10
193.582889
 20
117.120193
 30
0.0
 11
190.276766
 21
125.777111
 31
0.0
  0
LINE
  5
13D
102
{ACAD_REACTORS
330
457
102
}
330
1F
100
AcDbEntity
  8
LC-001-002-----0
 62
     7
370
    50
100
AcDbLine
 10
187.582889
 20
125.620193
 30
0.0
 11
176.282889
 21
125.620193
 31
0.0
  0
ARC
  5
13E
102
{ACAD_REACTORS
330
457
102
}
330
1F
100
AcDbEntity
  8
LC-003-002-RND-0
 62
     7
370
    50
100
AcDbCircle
 10
187.582889
 20
124.620193
 30
0.0
 40
1.0
100
AcDbArc
 50
0.0
 51
90.0
  0
LINE
  5
13F
102
{ACAD_REACTORS
330
457
102
}
330
1F
100
AcDbEntity
  8
LC-001-002-----0
 62
     7
370
    50
100
AcDbLine
 10
188.582889
 20
113.120193
 30
0.0
 11
188.582889
 21
124.620193
 31
0.0
  0
LINE
  5
140
102
{ACAD_REACTORS
330
457
102
}
330
1F
100
AcDbEntity
  8
LC-001-002-----0
 62
     7
370
    50
100
AcDbLine
 10
110.482889
 20
127.620193
 30
0.0
 11
105.482847
 21
127.620193
 31
0.0
  0
ARC
  5
141
102
{ACAD_REACTORS
330
457
102
}
330
1F
100
AcDbEntity
  8
LC-003-002-RND-0
 62
     7
370
    50
100
AcDbCircle
 10
105.482847
 20
125.620193
 30
0.0
 40
2.0
100
AcDbArc
 50
90.0
 51
175.5
  0
LINE
  5
142
102
{ACAD_REACTORS
330
457
102
}
330
1F
100
AcDbEntity
  8
LC-001-002-----0
 62
     7
370
    50
100
AcDbLine
 10
103.489012
 20
125.777111
 30
0.0
 11
102.92575
 21
118.620193
 31
0.0
  0
LINE
  5
143
102
{ACAD_REACTORS
330
457
102
}
330
1F
100
AcDbEntity
  8
LC-001-002-----0
 62
     7
370
    50
100
AcDbLine
 10
100.182889
 20
117.120193
 30
0.0
 11
103.489012
 21
125.777111
 31
0.0
  0
LINE
  5
144
102
{ACAD_REACTORS
330
457
102
}
330
1F
100
AcDbEntity
  8
LC-001-002-----0
 62
     7
370
    50
100
AcDbLine
 10
108.482889
 20
125.620193
 30
0.0
 11
106.182889
 21
125.620193
 31
0.0
  0
ARC
  5
145
102
{ACAD_REACTORS
330
457
102
}
330
1F
100
AcDbEntity
  8
LC-003-002-RND-0
 62
     7
370
    50
100
AcDbCircle
 10
106.182889
 20
124.620193
 30
0.0
 40
1.0
100
AcDbArc
 50
90.0
 51
180.0
  0
LINE
  5
146
102
{ACAD_REACTORS
330
457
102
}
330
1F
100
AcDbEntity
  8
LC-001-002-----0
 62
     7
370
    50
100
AcDbLine
 10
105.182889
 20
113.120193
 30
0.0
 11
105.182889
 21
124.620193
 31
0.0
  0
LINE
  5
147
102
{ACAD_REACTORS
330
457
102
}
330
1F
100
AcDbEntity
  8
LC-001-002-----0
 62
     7
370
    50
100
AcDbLine
 10
114.582889
 20
122.420193
 30
0.0
 11
110.482889
 21
122.420193
 31
0.0
  0
LINE
  5
148
102
{ACAD_REACTORS
330
457
102
}
330
1F
100
AcDbEntity
  8
LC-001-002-----0
 62
     7
370
    50
100
AcDbLine
 10
115.582889
 20
119.119685
 30
0.0
 11
115.582889
 21
121.420193
 31
0.0
  0
LINE
  5
149
102
{ACAD_REACTORS
330
457
102
}
330
1F
100
AcDbEntity
  8
LC-001-002-----0
 62
     7
370
    50
100
AcDbLine
 10
169.182889
 20
119.119685
 30
0.0
 11
169.182889
 21
121.420193
 31
0.0
  0
ARC
  5
14A
102
{ACAD_REACTORS
330
457
102
}
330
1F
100
AcDbEntity
  8
LC-003-002-RND-0
 62
     7
370
    50
100
AcDbCircle
 10
108.482889
 20
124.620193
 30
0.0
 40
1.0
100
AcDbArc
 50
0.0
 51
90.0
  0
ARC
  5
14B
102
{ACAD_REACTORS
330
457
102
}
330
1F
100
AcDbEntity
  8
LC-003-002-RND-0
 62
     7
370
    50
100
AcDbCircle
 10
110.482889
 20
123.420193
 30
0.0
 40
1.0
100
AcDbArc
 50
180.0
 51
270.0
  0
LINE
  5
14C
102
{ACAD_REACTORS
330
457
102
}
330
1F
100
AcDbEntity
  8
LC-001-002-----0
 62
     7
370
    50
100
AcDbLine
 10
109.482889
 20
124.620193
 30
0.0
 11
109.482889
 21
123.420193
 31
0.0
  0
ARC
  5
14D
102
{ACAD_REACTORS
330
457
102
}
330
1F
100
AcDbEntity
  8
LC-003-002-RND-0
 62
     7
370
    50
100
AcDbCircle
 10
114.582889
 20
121.420193
 30
0.0
 40
1.0
100
AcDbArc
 50
0.0
 51
90.0
  0
LINE
  5
14E
102
{ACAD_REACTORS
330
457
102
}
330
1F
100
AcDbEntity
  8
LC-001-002-----0
 62
     7
370
    50
100
AcDbLine
 10
111.482889
 20
126.620193
 30
0.0
 11
111.482889
 21
125.420193
 31
0.0
  0
LINE
  5
14F
102
{ACAD_REACTORS
330
457
102
}
330
1F
100
AcDbEntity
  8
LC-001-002-----0
 62
     7
370
    50
100
AcDbLine
 10
105.182889
 20
113.120193
 30
0.0
 11
104.182889
 21
113.120193
 31
0.0
  0
ARC
  5
150
102
{ACAD_REACTORS
330
457
102
}
330
1F
100
AcDbEntity
  8
LC-003-002-RND-0
 62
     7
370
    50
100
AcDbCircle
 10
170.182889
 20
121.420193
 30
0.0
 40
1.0
100
AcDbArc
 50
90.0
 51
180.0
  0
ARC
  5
151
102
{ACAD_REACTORS
330
457
102
}
330
1F
100
AcDbEntity
  8
LC-003-002-RND-0
 62
     7
370
    50
100
AcDbCircle
 10
174.282889
 20
123.420193
 30
0.0
 40
1.0
100
AcDbArc
 50
270.0
 51
0.0
  0
LINE
  5
152
102
{ACAD_REACTORS
330
457
102
}
330
1F
100
AcDbEntity
  8
LC-001-002-----0
 62
     7
370
    50
100
AcDbLine
 10
170.182889
 20
122.420193
 30
0.0
 11
174.282889
 21
122.420193
 31
0.0
  0
ARC
  5
153
102
{ACAD_REACTORS
330
457
102
}
330
1F
100
AcDbEntity
  8
LC-003-002-RND-0
 62
     7
370
    50
100
AcDbCircle
 10
176.282889
 20
124.620193
 30
0.0
 40
1.0
100
AcDbArc
 50
90.0
 51
180.0
  0
ARC
  5
154
102
{ACAD_REACTORS
330
457
102
}
330
1F
100
AcDbEntity
  8
LC-003-002-RND-0
 62
     7
370
    50
100
AcDbCircle
 10
110.482889
 20
126.620193
 30
0.0
 40
1.0
100
AcDbArc
 50
0.0
 51
90.0
  0
LINE
  5
155
102
{ACAD_REACTORS
330
457
102
}
330
1F
100
AcDbEntity
  8
LC-001-002-----0
 62
     7
370
    50
100
AcDbLine
 10
175.282889
 20
124.620193
 30
0.0
 11
175.282889
 21
123.420193
 31
0.0
  0
LINE
  5
156
102
{ACAD_REACTORS
330
457
102
}
330
1F
100
AcDbEntity
  8
LC-001-002-----0
 62
     7
370
    50
100
AcDbLine
 10
190.582889
 20
117.120193
 30
0.0
 11
193.582889
 21
117.120193
 31
0.0
  0
LINE
  5
157
102
{ACAD_REACTORS
330
457
102
}
330
1F
100
AcDbEntity
  8
LC-001-002-----0
 62
     7
370
    50
100
AcDbLine
 10
102.92575
 20
118.620193
 30
0.0
 11
100.742775
 21
118.620193
 31
0.0
  0
ARC
  5
158
102
{ACAD_REACTORS
330
457
102
}
330
1F
100
AcDbEntity
  8
LC-003-002-RND-0
 62
     7
370
    50
100
AcDbCircle
 10
112.482889
 20
125.420193
 30
0.0
 40
1.0
100
AcDbArc
 50
180.0
 51
270.0
  0
LINE
  5
159
102
{ACAD_REACTORS
330
457
102
}
330
1F
100
AcDbEntity
  8
LC-001-002-----0
 62
     7
370
    50
100
AcDbLine
 10
115.882889
 20
124.420193
 30
0.0
 11
112.482889
 21
124.420193
 31
0.0
  0
LINE
  5
15A
102
{ACAD_REACTORS
330
457
102
}
330
1F
100
AcDbEntity
  8
LC-001-002-----0
 62
     7
370
    50
100
AcDbLine
 10
167.882889
 20
128.120193
 30
0.0
 11
167.882889
 21
125.420193
 31
0.0
  0
LINE
  5
15B
102
{ACAD_REACTORS
330
457
102
}
330
1F
100
AcDbEntity
  8
LC-001-002-----0
 62
     7
370
    50
100
AcDbLine
 10
173.282889
 20
126.620193
 30
0.0
 11
173.282889
 21
125.420193
 31
0.0
  0
LINE
  5
15C
102
{ACAD_REACTORS
330
457
102
}
330
1F
100
AcDbEntity
  8
LC-001-002-----0
 62
     7
370
    50
100
AcDbLine
 10
189.582889
 20
114.620193
 30
0.0
 11
189.582889
 21
113.120193
 31
0.0
  0
LINE
  5
15D
102
{ACAD_REACTORS
330
457
102
}
330
1F
100
AcDbEntity
  8
LC-001-002-----0
 62
     7
370
    50
100
AcDbLine
 10
189.582889
 20
114.620193
 30
0.0
 11
190.582889
 21
114.620193
 31
0.0
  0
LINE
  5
15E
102
{ACAD_REACTORS
330
457
102
}
330
1F
100
AcDbEntity
  8
LC-001-002-----0
 62
     7
370
    50
100
AcDbLine
 10
190.582889
 20
117.120193
 30
0.0
 11
190.582889
 21
114.620193
 31
0.0
  0
LINE
  5
15F
102
{ACAD_REACTORS
330
457
102
}
330
1F
100
AcDbEntity
  8
LC-001-002-----0
 62
     7
370
    50
100
AcDbLine
 10
103.182889
 20
117.120193
 30
0.0
 11
100.182889
 21
117.120193
 31
0.0
  0
LINE
  5
160
102
{ACAD_REACTORS
330
457
102
}
330
1F
100
AcDbEntity
  8
LC-001-002-----0
 62
     7
370
    50
100
AcDbLine
 10
104.182889
 20
114.620193
 30
0.0
 11
104.182889
 21
113.120193
 31
0.0
  0
INSERT
  5
166
102
{ACAD_REACTORS
330
457
102
}
330
1F
100
AcDbEntity
  8
LC-002-005-----0
 62
     7
370
    25
100
AcDbBlockReference
  2
*X88
 10
0.0
 20
0.0
 30
0.0
  0
LINE
  5
167
102
{ACAD_REACTORS
330
457
102
}
330
1F
100
AcDbEntity
  8
LC-001-002-----0
 62
     7
370
    50
100
AcDbLine
 10
188.582889
 20
113.120193
 30
0.0
 11
189.582889
 21
113.120193
 31
0.0
  0
LINE
  5
168
102
{ACAD_REACTORS
330
457
102
}
330
1F
100
AcDbEntity
  8
LC-001-002-----0
 62
     7
370
    50
100
AcDbLine
 10
190.840028
 20
118.620193
 30
0.0
 11
193.023004
 21
118.620193
 31
0.0
  0
ARC
  5
169
102
{ACAD_REACTORS
330
457
102
}
330
1F
100
AcDbEntity
  8
LC-003-002-RND-0
 62
     7
370
    50
100
AcDbCircle
 10
116.582889
 20
119.119685
 30
0.0
 40
1.0
100
AcDbArc
 50
180.0
 51
270.0
  0
INSERT
  5
177
102
{ACAD_REACTORS
330
457
102
}
330
1F
100
AcDbEntity
  8
LC-002-005-----0
 62
     7
370
    25
100
AcDbBlockReference
  2
*X99
 10
0.0
 20
0.0
 30
0.0
  0
LINE
  5
178
102
{ACAD_REACTORS
330
457
102
}
330
1F
100
AcDbEntity
  8
LC-001-002-----0
 62
     7
370
    50
100
AcDbLine
 10
168.182889
 20
118.119685
 30
0.0
 11
166.282889
 21
118.119685
 31
0.0
  0
DIMENSION
  5
17C
330
1F
100
AcDbEntity
  8
LC-006-003-----0
 62
     7
370
    25
100
AcDbDimension
  2
*D10
 10
348.481525
 20
77.420193
 30
0.0
 11
317.681525
 21
102.420193
 31
0.0
 70
   160
  1
DN<>
 71
     5
 42
50.0
 53
90.0
  3
LC-DIM-L-0140-01-02
100
AcDbAlignedDimension
 13
324.747941
 23
127.420193
 33
0.0
 14
324.747941
 24
77.420193
 34
0.0
 50
90.0
100
AcDbRotatedDimension
  0
INSERT
  5
191
102
{ACAD_REACTORS
330
457
102
}
330
1F
100
AcDbEntity
  8
LC-002-005-----0
 62
     7
370
    25
100
AcDbBlockReference
  2
*X1011
 10
0.0
 20
0.0
 30
0.0
  0
DIMENSION
  5
193
330
1F
100
AcDbEntity
  8
LC-006-003-----0
 62
     7
370
    25
100
AcDbDimension
  2
*D12
 10
62.421149
 20
132.923375
 30
0.0
 11
31.621149
 21
136.948125
 31
0.0
 70
   160
  1
0-8(8-16)
 71
     5
 42
8.0495
 53
90.0
  3
LC-DIM-L-0140-02-02
100
AcDbAlignedDimension
 13
107.382889
 23
140.972874
 33
0.0
 14
106.132889
 24
132.923375
 34
0.0
 50
90.0
100
AcDbRotatedDimension
  0
DIMENSION
  5
1A2
330
1F
100
AcDbEntity
  8
LC-006-003-----0
 62
     7
370
    25
100
AcDbDimension
  2
*D13
 10
274.4
 20
45.020193
 30
0.0
 11
243.6
 21
8.316
 31
0.0
 70
   160
  1
50
 71
     5
 42
53.1
 53
90.0
  3
LC-DIM-L-0140-01-02
100
AcDbAlignedDimension
 13
164.025792
 23
98.120193
 33
0.0
 14
160.382889
 24
45.020193
 34
0.0
 50
90.0
100
AcDbRotatedDimension
  0
ARC
  5
1B0
102
{ACAD_REACTORS
330
457
102
}
330
1F
100
AcDbEntity
  8
LC-003-002-RND-0
 62
     7
370
    50
100
AcDbCircle
 10
168.182889
 20
119.119685
 30
0.0
 40
1.0
100
AcDbArc
 50
270.0
 51
0.0
  0
LINE
  5
1B1
102
{ACAD_REACTORS
330
457
102
}
330
1F
100
AcDbEntity
  8
LC-001-002-----0
 62
     7
370
    50
100
AcDbLine
 10
116.882889
 20
128.120193
 30
0.0
 11
118.482889
 21
128.120193
 31
0.0
  0
ARC
  5
1B2
102
{ACAD_REACTORS
330
457
102
}
330
1F
100
AcDbEntity
  8
LC-003-002-RND-0
 62
     7
370
    50
100
AcDbCircle
 10
174.282889
 20
126.620193
 30
0.0
 40
0.999999999999974
100
AcDbArc
 50
90.890752
 51
180.0
  0
LINE
  5
1B3
102
{ACAD_REACTORS
330
457
102
}
330
1F
100
AcDbEntity
  8
LC-001-002-----0
 62
     7
370
    50
100
AcDbLine
 10
104.182889
 20
114.620193
 30
0.0
 11
103.182889
 21
114.620193
 31
0.0
  0
LINE
  5
1B4
102
{ACAD_REACTORS
330
457
102
}
330
1F
100
AcDbEntity
  8
LC-001-002-----0
 62
     7
370
    50
100
AcDbLine
 10
116.882889
 20
128.120193
 30
0.0
 11
116.882889
 21
125.420193
 31
0.0
  0
ARC
  5
1B5
102
{ACAD_REACTORS
330
457
102
}
330
1F
100
AcDbEntity
  8
LC-003-002-RND-0
 62
     7
370
    50
100
AcDbCircle
 10
115.882889
 20
125.420193
 30
0.0
 40
1.0
100
AcDbArc
 50
270.0
 51
0.0
  0
ARC
  5
1B6
102
{ACAD_REACTORS
330
457
102
}
330
1F
100
AcDbEntity
  8
LC-003-002-RND-0
 62
     7
370
    50
100
AcDbCircle
 10
172.282889
 20
125.420193
 30
0.0
 40
1.0
100
AcDbArc
 50
270.0
 51
0.0
  0
ARC
  5
1B7
102
{ACAD_REACTORS
330
457
102
}
330
1F
100
AcDbEntity
  8
LC-003-002-RND-0
 62
     7
370
    50
100
AcDbCircle
 10
168.882889
 20
125.420193
 30
0.0
 40
1.0
100
AcDbArc
 50
180.0
 51
270.0
  0
LINE
  5
1B8
102
{ACAD_REACTORS
330
457
102
}
330
1F
100
AcDbEntity
  8
LC-001-002-----0
 62
     7
370
    50
100
AcDbLine
 10
168.882889
 20
124.420193
 30
0.0
 11
172.282889
 21
124.420193
 31
0.0
  0
LINE
  5
1B9
102
{ACAD_REACTORS
330
457
102
}
330
1F
100
AcDbEntity
  8
LC-001-002-----0
 62
     7
370
    50
100
AcDbLine
 10
177.882889
 20
127.620193
 30
0.0
 11
174.282889
 21
127.620193
 31
0.0
  0
LINE
  5
1BA
102
{ACAD_REACTORS
330
457
102
}
330
1F
100
AcDbEntity
  8
LC-001-002-----0
 62
     7
370
    50
100
AcDbLine
 10
103.182889
 20
117.120193
 30
0.0
 11
103.182889
 21
114.620193
 31
0.0
  0
LINE
  5
1BB
102
{ACAD_REACTORS
330
457
102
}
330
1F
100
AcDbEntity
  8
LC-001-002-----0
 62
     7
370
    25
100
AcDbLine
 10
166.282889
 20
118.119685
 30
0.0
 11
166.282889
 21
128.120193
 31
0.0
  0
LINE
  5
1BC
102
{ACAD_REACTORS
330
457
102
}
330
1F
100
AcDbEntity
  8
LC-001-002-----0
 62
     7
370
    25
100
AcDbLine
 10
118.482889
 20
128.120193
 30
0.0
 11
118.482889
 21
118.119685
 31
0.0
  0
LINE
  5
1BD
102
{ACAD_REACTORS
330
457
102
}
330
1F
100
AcDbEntity
  8
LC-001-002-----0
 62
     7
370
    50
100
AcDbLine
 10
164.782889
 20
119.619685
 30
0.0
 11
164.782889
 21
126.620193
 31
0.0
  0
LINE
  5
1BE
102
{ACAD_REACTORS
330
457
102
}
330
1F
100
AcDbEntity
  8
LC-001-002-----0
 62
     7
370
    50
100
AcDbLine
 10
166.282889
 20
118.119685
 30
0.0
 11
164.782889
 21
119.619685
 31
0.0
  0
LINE
  5
1BF
102
{ACAD_REACTORS
330
457
102
}
330
1F
100
AcDbEntity
  8
LC-001-002-----0
 62
     7
370
    50
100
AcDbLine
 10
166.282889
 20
128.120193
 30
0.0
 11
164.782889
 21
126.620193
 31
0.0
  0
LINE
  5
1C0
102
{ACAD_REACTORS
330
457
102
}
330
1F
100
AcDbEntity
  8
LC-001-002-----0
 62
     7
370
    50
100
AcDbLine
 10
118.482889
 20
118.119685
 30
0.0
 11
119.982889
 21
119.619685
 31
0.0
  0
LINE
  5
1C1
102
{ACAD_REACTORS
330
457
102
}
330
1F
100
AcDbEntity
  8
LC-001-002-----0
 62
     7
370
    50
100
AcDbLine
 10
118.482889
 20
128.120193
 30
0.0
 11
119.982889
 21
126.620193
 31
0.0
  0
LINE
  5
1C2
102
{ACAD_REACTORS
330
456
102
}
330
1F
100
AcDbEntity
  8
LC-001-002-----0
 62
     7
370
    50
100
AcDbLine
 10
214.209627
 20
130.90076
 30
0.0
 11
214.209627
 21
132.296595
 31
0.0
  0
ARC
  5
1C3
102
{ACAD_REACTORS
330
456
102
}
330
1F
100
AcDbEntity
  8
LC-003-002-RND-0
 62
     7
370
    50
100
AcDbCircle
 10
215.209627
 20
72.543791
 30
0.0
 40
1.000000000000041
100
AcDbArc
 50
76.698461
 51
180.0
  0
ARC
  5
1C5
102
{ACAD_REACTORS
330
456
102
}
330
1F
100
AcDbEntity
  8
LC-007-207-RND-0
 62
     7
370
    50
100
AcDbCircle
 10
215.209627
 20
132.296595
 30
0.0
 40
1.0
100
AcDbArc
 50
180.0
 51
283.301539
  0
LINE
  5
1C6
102
{ACAD_REACTORS
330
459
102
}
330
1F
100
AcDbEntity
  8
LC-001-002-----0
 62
     7
370
    50
100
AcDbLine
 10
147.382889
 20
145.020193
 30
0.0
 11
147.382889
 21
149.288285
 31
0.0
  0
LINE
  5
1C7
102
{ACAD_REACTORS
330
459
102
}
330
1F
100
AcDbEntity
  8
LC-001-002-----0
 62
     7
370
    50
100
AcDbLine
 10
138.407889
 20
139.020193
 30
0.0
 11
137.382889
 21
139.020193
 31
0.0
  0
LINE
  5
1C8
102
{ACAD_REACTORS
330
459
102
}
330
1F
100
AcDbEntity
  8
LC-001-002-----0
 62
     7
370
    50
100
AcDbLine
 10
137.382889
 20
145.020193
 30
0.0
 11
137.382889
 21
149.288285
 31
0.0
  0
LINE
  5
1C9
102
{ACAD_REACTORS
330
459
102
}
330
1F
100
AcDbEntity
  8
LC-001-002-----0
 62
     7
370
    50
100
AcDbLine
 10
146.357889
 20
139.020193
 30
0.0
 11
142.382889
 21
139.020193
 31
0.0
  0
INSERT
  5
1DF
102
{ACAD_REACTORS
330
459
102
}
330
1F
100
AcDbEntity
  8
LC-002-005-----0
 62
     7
370
    25
100
AcDbBlockReference
  2
*X1114
 10
0.0
 20
0.0
 30
0.0
  0
INSERT
  5
1F6
102
{ACAD_REACTORS
330
459
102
}
330
1F
100
AcDbEntity
  8
LC-002-005-----0
 62
     7
370
    25
100
AcDbBlockReference
  2
*X1215
 10
0.0
 20
0.0
 30
0.0
  0
LINE
  5
1F7
102
{ACAD_REACTORS
330
459
102
}
330
1F
100
AcDbEntity
  8
LC-001-002-----0
 62
     7
370
    50
100
AcDbLine
 10
146.357889
 20
139.020193
 30
0.0
 11
147.382889
 21
139.020193
 31
0.0
  0
ARC
  5
1F8
102
{ACAD_REACTORS
330
459
102
}
330
1F
100
AcDbEntity
  8
LC-003-002-RND-0
 62
     7
370
    50
100
AcDbCircle
 10
147.382889
 20
140.020193
 30
0.0
 40
1.0
100
AcDbArc
 50
270.0
 51
0.0
  0
LINE
  5
1F9
102
{ACAD_REACTORS
330
459
102
}
330
1F
100
AcDbEntity
  8
LC-001-002-----0
 62
     7
370
    50
100
AcDbLine
 10
148.382889
 20
140.020193
 30
0.0
 11
148.382889
 21
145.020193
 31
0.0
  0
LINE
  5
1FA
102
{ACAD_REACTORS
330
459
102
}
330
1F
100
AcDbEntity
  8
LC-001-002-----0
 62
     7
370
    50
100
AcDbLine
 10
142.382889
 20
139.020193
 30
0.0
 11
138.407889
 21
139.020193
 31
0.0
  0
ARC
  5
1FB
102
{ACAD_REACTORS
330
459
102
}
330
1F
100
AcDbEntity
  8
LC-003-002-RND-0
 62
     7
370
    50
100
AcDbCircle
 10
137.382889
 20
140.020193
 30
0.0
 40
1.0
100
AcDbArc
 50
180.0
 51
270.0
  0
LINE
  5
1FC
102
{ACAD_REACTORS
330
459
102
}
330
1F
100
AcDbEntity
  8
LC-001-002-----0
 62
     7
370
    50
100
AcDbLine
 10
136.382889
 20
140.020193
 30
0.0
 11
136.382889
 21
145.020193
 31
0.0
  0
LINE
  5
1FD
102
{ACAD_REACTORS
330
459
102
}
330
1F
100
AcDbEntity
  8
LC-001-002-----0
 62
     7
370
    50
100
AcDbLine
 10
147.382889
 20
145.020193
 30
0.0
 11
148.382889
 21
145.020193
 31
0.0
  0
LINE
  5
1FE
102
{ACAD_REACTORS
330
459
102
}
330
1F
100
AcDbEntity
  8
LC-001-002-----0
 62
     7
370
    50
100
AcDbLine
 10
137.382889
 20
145.020193
 30
0.0
 11
136.382889
 21
145.020193
 31
0.0
  0
LINE
  5
1FF
102
{ACAD_REACTORS
330
459
102
}
330
1F
100
AcDbEntity
  8
LC-001-002-----0
 62
     7
370
    50
100
AcDbLine
 10
138.407889
 20
152.863603
 30
0.0
 11
138.407889
 21
139.020193
 31
0.0
  0
LINE
  5
200
102
{ACAD_REACTORS
330
459
102
}
330
1F
100
AcDbEntity
  8
LC-001-002-----0
 62
     7
370
    50
100
AcDbLine
 10
146.357889
 20
152.863603
 30
0.0
 11
146.357889
 21
139.020193
 31
0.0
  0
ARC
  5
201
102
{ACAD_REACTORS
330
459
102
}
330
1F
100
AcDbEntity
  8
LC-001-002-----0
 62
     7
370
    50
100
AcDbCircle
 10
142.382889
 20
67.733603
 30
0.0
 40
88.12999999999995
100
AcDbArc
 50
90.0
 51
101.126901
  0
ARC
  5
202
102
{ACAD_REACTORS
330
459
102
}
330
1F
100
AcDbEntity
  8
LC-001-002-----0
 62
     7
370
    50
100
AcDbCircle
 10
176.398015
 20
240.680296
 30
0.0
 40
91.13000000000015
100
AcDbArc
 50
258.873099
 51
266.119612
  0
ARC
  5
203
102
{ACAD_REACTORS
330
459
102
}
330
1F
100
AcDbEntity
  8
LC-001-002-----0
 62
     7
370
    50
100
AcDbCircle
 10
142.382889
 20
67.733603
 30
0.0
 40
85.12999999999985
100
AcDbArc
 50
78.873099
 51
86.632869
  0
ARC
  5
204
102
{ACAD_REACTORS
330
459
102
}
330
1F
100
AcDbEntity
  8
LC-003-002-RND-0
 62
     7
370
    50
100
AcDbCircle
 10
108.367764
 20
240.680296
 30
0.0
 40
88.13000000000019
100
AcDbArc
 50
273.880388
 51
281.126901
  0
LINE
  5
205
102
{ACAD_REACTORS
330
459
102
}
330
1F
100
AcDbEntity
  8
LC-001-002-----0
 62
     7
370
    50
100
AcDbLine
 10
147.382889
 20
145.020193
 30
0.0
 11
147.382889
 21
152.716642
 31
0.0
  0
ARC
  5
206
102
{ACAD_REACTORS
330
459
102
}
330
1F
100
AcDbEntity
  8
LC-001-002-----0
 62
     7
370
    50
100
AcDbCircle
 10
142.382889
 20
67.733603
 30
0.0
 40
88.12999999999997
100
AcDbArc
 50
78.873099
 51
90.0
  0
ARC
  5
207
102
{ACAD_REACTORS
330
459
102
}
330
1F
100
AcDbEntity
  8
LC-003-002-RND-0
 62
     7
370
    50
100
AcDbCircle
 10
176.132889
 20
150.520193
 30
0.0
 40
1.500000000000054
100
AcDbArc
 50
259.425754
 51
0.0
  0
ARC
  5
208
102
{ACAD_REACTORS
330
459
102
}
330
1F
100
AcDbEntity
  8
LC-003-002-RND-0
 62
     7
370
    50
100
AcDbCircle
 10
176.132889
 20
150.520193
 30
0.0
 40
1.5
100
AcDbArc
 50
0.0
 51
79.425754
  0
ARC
  5
209
102
{ACAD_REACTORS
330
459
102
}
330
1F
100
AcDbEntity
  8
LC-001-002-----0
 62
     7
370
    50
100
AcDbCircle
 10
166.943647
 20
101.295548
 30
0.0
 40
51.57502207478763
100
AcDbArc
 50
79.425754
 51
86.119612
  0
ARC
  5
20A
102
{ACAD_REACTORS
330
459
102
}
330
1F
100
AcDbEntity
  8
LC-001-002-----0
 62
     7
370
    50
100
AcDbCircle
 10
166.943647
 20
101.295548
 30
0.0
 40
48.57502207478767
100
AcDbArc
 50
79.425754
 51
86.119612
  0
ARC
  5
20B
102
{ACAD_REACTORS
330
459
102
}
330
1F
100
AcDbEntity
  8
LC-003-002-RND-0
 62
     7
370
    50
100
AcDbCircle
 10
176.398015
 20
240.680296
 30
0.0
 40
88.13000000000022
100
AcDbArc
 50
258.873099
 51
266.119612
  0
ARC
  5
20C
102
{ACAD_REACTORS
330
459
102
}
330
1F
100
AcDbEntity
  8
LC-001-002-----0
 62
     7
370
    50
100
AcDbCircle
 10
117.822132
 20
101.295548
 30
0.0
 40
51.57502207478766
100
AcDbArc
 50
93.880388
 51
100.574246
  0
LINE
  5
20D
102
{ACAD_REACTORS
330
459
102
}
330
1F
100
AcDbEntity
  8
LC-001-002-----0
 62
     7
370
    50
100
AcDbLine
 10
176.132889
 20
149.020193
 30
0.0
 11
164.982889
 21
149.020193
 31
0.0
  0
ARC
  5
20E
102
{ACAD_REACTORS
330
459
102
}
330
1F
100
AcDbEntity
  8
LC-003-002-RND-0
 62
     7
370
    50
100
AcDbCircle
 10
108.632889
 20
150.520193
 30
0.0
 40
1.5
100
AcDbArc
 50
180.0
 51
280.574246
  0
ARC
  5
20F
102
{ACAD_REACTORS
330
459
102
}
330
1F
100
AcDbEntity
  8
LC-003-002-RND-0
 62
     7
370
    50
100
AcDbCircle
 10
108.632889
 20
150.520193
 30
0.0
 40
1.500000000000026
100
AcDbArc
 50
100.574246
 51
180.0
  0
ARC
  5
210
102
{ACAD_REACTORS
330
459
102
}
330
1F
100
AcDbEntity
  8
LC-001-002-----0
 62
     7
370
    50
100
AcDbCircle
 10
117.822132
 20
101.295548
 30
0.0
 40
48.57502207478773
100
AcDbArc
 50
93.880388
 51
100.574246
  0
LINE
  5
211
102
{ACAD_REACTORS
330
459
102
}
330
1F
100
AcDbEntity
  8
LC-001-002-----0
 62
     7
370
    50
100
AcDbLine
 10
137.382889
 20
145.020193
 30
0.0
 11
137.382889
 21
152.716642
 31
0.0
  0
ARC
  5
212
102
{ACAD_REACTORS
330
459
102
}
330
1F
100
AcDbEntity
  8
LC-001-002-----0
 62
     7
370
    50
100
AcDbCircle
 10
108.367764
 20
240.680296
 30
0.0
 40
91.13000000000017
100
AcDbArc
 50
273.880388
 51
281.126901
  0
ARC
  5
213
102
{ACAD_REACTORS
330
459
102
}
330
1F
100
AcDbEntity
  8
LC-001-002-----0
 62
     7
370
    50
100
AcDbCircle
 10
142.382889
 20
67.733603
 30
0.0
 40
85.12999999999978
100
AcDbArc
 50
93.367131
 51
101.126901
  0
LINE
  5
214
102
{ACAD_REACTORS
330
459
102
}
330
1F
100
AcDbEntity
  8
LC-001-002-----0
 62
     7
370
    50
100
AcDbLine
 10
144.382889
 20
152.863603
 30
0.0
 11
138.407889
 21
152.863603
 31
0.0
  0
LINE
  5
215
102
{ACAD_REACTORS
330
459
102
}
330
1F
100
AcDbEntity
  8
LC-001-002-----0
 62
     7
370
    50
100
AcDbLine
 10
146.357889
 20
152.863603
 30
0.0
 11
140.382889
 21
152.863603
 31
0.0
  0
LINE
  5
216
102
{ACAD_REACTORS
330
459
102
}
330
1F
100
AcDbEntity
  8
LC-001-002-----0
 62
     7
370
    50
100
AcDbLine
 10
108.908153
 20
149.020193
 30
0.0
 11
119.782889
 21
149.020193
 31
0.0
  0
LINE
  5
217
102
{ACAD_REACTORS
330
450
102
}
330
1F
100
AcDbEntity
  8
LC-001-002-----0
 62
     7
370
    50
100
AcDbLine
 10
117.932889
 20
138.460385
 30
0.0
 11
122.632889
 21
135.746839
 31
0.0
  0
LINE
  5
218
102
{ACAD_REACTORS
330
450
102
}
330
1F
100
AcDbEntity
  8
LC-001-002-----0
 62
     7
370
    50
100
AcDbLine
 10
166.832889
 20
138.460385
 30
0.0
 11
162.132889
 21
135.746839
 31
0.0
  0
LINE
  5
219
102
{ACAD_REACTORS
330
450
102
}
330
1F
100
AcDbEntity
  8
LC-001-002-----0
 62
     7
370
    50
100
AcDbLine
 10
124.432135
 20
128.020193
 30
0.0
 11
124.382889
 21
45.020193
 31
0.0
  0
LINE
  5
21A
102
{ACAD_REACTORS
330
450
102
}
330
1F
100
AcDbEntity
  8
LC-001-002-----0
 62
     7
370
    50
100
AcDbLine
 10
160.382889
 20
45.020193
 30
0.0
 11
124.382889
 21
45.020193
 31
0.0
  0
LINE
  5
21B
102
{ACAD_REACTORS
330
450
102
}
330
1F
100
AcDbEntity
  8
LC-001-002-----0
 62
     7
370
    50
100
AcDbLine
 10
140.882889
 20
139.020193
 30
0.0
 11
143.882889
 21
139.020193
 31
0.0
  0
DIMENSION
  5
21C
330
1F
100
AcDbEntity
  8
LC-006-003-----0
 62
     7
370
    25
100
AcDbDimension
  2
*D16
 10
177.632889
 20
181.764
 30
0.0
 11
142.382889
 21
212.564
 31
0.0
 70
   160
  1
%%c75
 71
     5
 42
70.5
  3
LC-DIM-L-0140-02-02
100
AcDbAlignedDimension
 13
107.132889
 23
150.520193
 33
0.0
 14
177.632889
 24
150.520193
 34
0.0
100
AcDbRotatedDimension
  0
LINE
  5
229
102
{ACAD_REACTORS
330
450
102
}
330
1F
100
AcDbEntity
  8
LC-001-002-----0
 62
     7
370
    50
100
AcDbLine
 10
164.982889
 20
149.020193
 30
0.0
 11
151.67911
 21
149.020193
 31
0.0
  0
LINE
  5
22A
102
{ACAD_REACTORS
330
450
102
}
330
1F
100
AcDbEntity
  8
LC-001-002-----0
 62
     7
370
    50
100
AcDbLine
 10
135.573488
 20
149.020193
 30
0.0
 11
133.552762
 21
149.020193
 31
0.0
  0
LINE
  5
22B
102
{ACAD_REACTORS
330
450
102
}
330
1F
100
AcDbEntity
  8
LC-001-002-----0
 62
     7
370
    50
100
AcDbLine
 10
160.382889
 20
133.520193
 30
0.0
 11
160.382889
 21
131.020193
 31
0.0
  0
LINE
  5
22C
102
{ACAD_REACTORS
330
450
102
}
330
1F
100
AcDbEntity
  8
LC-001-002-----0
 62
     7
370
    50
100
AcDbLine
 10
117.782889
 20
147.020193
 30
0.0
 11
117.782889
 21
138.720193
 31
0.0
  0
LINE
  5
22D
102
{ACAD_REACTORS
330
450
102
}
330
1F
100
AcDbEntity
  8
LC-001-002-----0
 62
     7
370
    50
100
AcDbLine
 10
151.213016
 20
149.020193
 30
0.0
 11
149.19229
 21
149.020193
 31
0.0
  0
LINE
  5
22E
102
{ACAD_REACTORS
330
450
102
}
330
1F
100
AcDbEntity
  8
LC-001-002-----0
 62
     7
370
    50
100
AcDbLine
 10
126.382889
 20
149.020193
 30
0.0
 11
133.086668
 21
149.020193
 31
0.0
  0
LINE
  5
22F
102
{ACAD_REACTORS
330
450
102
}
330
1F
100
AcDbEntity
  8
LC-001-002-----0
 62
     7
370
    50
100
AcDbLine
 10
166.982889
 20
147.020193
 30
0.0
 11
166.982889
 21
138.720193
 31
0.0
  0
ARC
  5
230
102
{ACAD_REACTORS
330
450
102
}
330
1F
100
AcDbEntity
  8
LC-003-002-RND-0
 62
     7
370
    50
100
AcDbCircle
 10
119.782889
 20
147.020193
 30
0.0
 40
2.0
100
AcDbArc
 50
90.0
 51
180.0
  0
ARC
  5
231
102
{ACAD_REACTORS
330
450
102
}
330
1F
100
AcDbEntity
  8
LC-003-002-RND-0
 62
     7
370
    50
100
AcDbCircle
 10
164.982889
 20
147.020193
 30
0.0
 40
2.0
100
AcDbArc
 50
0.0
 51
90.0
  0
LINE
  5
232
102
{ACAD_REACTORS
330
450
102
}
330
1F
100
AcDbEntity
  8
LC-001-002-----0
 62
     7
370
    50
100
AcDbLine
 10
136.728189
 20
147.020193
 30
0.0
 11
137.382889
 21
147.020193
 31
0.0
  0
LINE
  5
233
102
{ACAD_REACTORS
330
450
102
}
330
1F
100
AcDbEntity
  8
LC-001-002-----0
 62
     7
370
    50
100
AcDbLine
 10
161.882889
 20
134.020193
 30
0.0
 11
160.882889
 21
134.020193
 31
0.0
  0
LINE
  5
234
102
{ACAD_REACTORS
330
450
102
}
330
1F
100
AcDbEntity
  8
LC-001-002-----0
 62
     7
370
    50
100
AcDbLine
 10
161.882889
 20
45.020193
 30
0.0
 11
160.382889
 21
45.020193
 31
0.0
  0
ARC
  5
235
102
{ACAD_REACTORS
330
450
102
}
330
1F
100
AcDbEntity
  8
LC-003-002-RND-0
 62
     7
370
    50
100
AcDbCircle
 10
166.682889
 20
138.720193
 30
0.0
 40
0.2999999999988309
100
AcDbArc
 50
300.0
 51
0.0
  0
ARC
  5
236
102
{ACAD_REACTORS
330
450
102
}
330
1F
100
AcDbEntity
  8
LC-003-002-RND-0
 62
     7
370
    50
100
AcDbCircle
 10
118.082889
 20
138.720193
 30
0.0
 40
0.2999999999999636
100
AcDbArc
 50
75.04643
 51
240.0
  0
LINE
  5
237
102
{ACAD_REACTORS
330
450
102
}
330
1F
100
AcDbEntity
  8
LC-001-002-----0
 62
     7
370
    50
100
AcDbLine
 10
118.1603
 20
139.010033
 30
0.0
 11
126.382889
 21
139.02109
 31
0.0
  0
LINE
  5
238
102
{ACAD_REACTORS
330
450
102
}
330
1F
100
AcDbEntity
  8
LC-001-002-----0
 62
     7
370
    50
100
AcDbLine
 10
122.882889
 20
45.020193
 30
0.0
 11
122.882889
 21
130.520193
 31
0.0
  0
LINE
  5
239
102
{ACAD_REACTORS
330
450
102
}
330
1F
100
AcDbEntity
  8
LC-001-002-----0
 62
     7
370
    50
100
AcDbLine
 10
124.382889
 20
45.020193
 30
0.0
 11
122.882889
 21
45.020193
 31
0.0
  0
LINE
  5
23A
102
{ACAD_REACTORS
330
450
102
}
330
1F
100
AcDbEntity
  8
LC-001-002-----0
 62
     7
370
    50
100
AcDbLine
 10
160.382889
 20
128.020193
 30
0.0
 11
160.382889
 21
45.020193
 31
0.0
  0
LINE
  5
23B
102
{ACAD_REACTORS
330
450
102
}
330
1F
100
AcDbEntity
  8
LC-001-002-----0
 62
     7
370
    50
100
AcDbLine
 10
161.882889
 20
45.020193
 30
0.0
 11
161.882889
 21
130.520193
 31
0.0
  0
LINE
  5
23C
102
{ACAD_REACTORS
330
450
102
}
330
1F
100
AcDbEntity
  8
LC-001-002-----0
 62
     7
370
    50
100
AcDbLine
 10
122.882889
 20
134.020193
 30
0.0
 11
122.882889
 21
135.313826
 31
0.0
  0
LINE
  5
23D
102
{ACAD_REACTORS
330
450
102
}
330
1F
100
AcDbEntity
  8
LC-001-002-----0
 62
     7
370
    50
100
AcDbLine
 10
133.552762
 20
149.020193
 30
0.0
 11
133.086668
 21
149.020193
 31
0.0
  0
LINE
  5
23E
102
{ACAD_REACTORS
330
450
102
}
330
1F
100
AcDbEntity
  8
LC-001-002-----0
 62
     7
370
    50
100
AcDbLine
 10
126.382889
 20
149.020193
 30
0.0
 11
119.782889
 21
149.020193
 31
0.0
  0
ARC
  5
23F
102
{ACAD_REACTORS
330
450
102
}
330
1F
100
AcDbEntity
  8
LC-003-002-RND-0
 62
     7
370
    50
100
AcDbCircle
 10
122.382889
 20
135.313826
 30
0.0
 40
0.5
100
AcDbArc
 50
0.0
 51
60.0
  0
LINE
  5
240
102
{ACAD_REACTORS
330
450
102
}
330
1F
100
AcDbEntity
  8
LC-001-002-----0
 62
     7
370
    50
100
AcDbLine
 10
158.382889
 20
129.970947
 30
0.0
 11
126.382889
 21
129.970947
 31
0.0
  0
LINE
  5
241
102
{ACAD_REACTORS
330
450
102
}
330
1F
100
AcDbEntity
  8
LC-001-002-----0
 62
     7
370
    50
100
AcDbLine
 10
149.19229
 20
149.020193
 30
0.0
 11
147.382889
 21
145.886218
 31
0.0
  0
LINE
  5
242
102
{ACAD_REACTORS
330
450
102
}
330
1F
100
AcDbEntity
  8
LC-001-002-----0
 62
     7
370
    50
100
AcDbLine
 10
137.382889
 20
145.886218
 30
0.0
 11
137.382889
 21
145.020193
 31
0.0
  0
LINE
  5
243
102
{ACAD_REACTORS
330
450
102
}
330
1F
100
AcDbEntity
  8
LC-001-002-----0
 62
     7
370
    50
100
AcDbLine
 10
126.382889
 20
129.970947
 30
0.0
 11
124.432135
 21
128.020193
 31
0.0
  0
LINE
  5
244
102
{ACAD_REACTORS
330
450
102
}
330
1F
100
AcDbEntity
  8
LC-001-002-----0
 62
     7
370
    50
100
AcDbLine
 10
130.721639
 20
145.423841
 30
0.0
 11
126.382889
 21
139.02109
 31
0.0
  0
ARC
  5
245
102
{ACAD_REACTORS
330
450
102
}
330
1F
100
AcDbEntity
  8
LC-003-002-RND-0
 62
     7
370
    50
100
AcDbCircle
 10
118.080045
 20
138.710033
 30
0.0
 40
0.2999999999999489
100
AcDbArc
 50
75.04643
 51
240.0
  0
LINE
  5
246
102
{ACAD_REACTORS
330
450
102
}
330
1F
100
AcDbEntity
  8
LC-001-002-----0
 62
     7
370
    50
100
AcDbLine
 10
124.382889
 20
133.520193
 30
0.0
 11
124.382889
 21
131.020193
 31
0.0
  0
ARC
  5
247
102
{ACAD_REACTORS
330
450
102
}
330
1F
100
AcDbEntity
  8
LC-001-002-----0
 62
     7
370
    50
100
AcDbCircle
 10
166.682889
 20
138.720193
 30
0.0
 40
0.3000000000020577
100
AcDbArc
 50
0.0
 51
90.0
  0
LINE
  5
248
102
{ACAD_REACTORS
330
450
102
}
330
1F
100
AcDbEntity
  8
LC-001-002-----0
 62
     7
370
    50
100
AcDbLine
 10
158.382889
 20
139.02109
 30
0.0
 11
143.882889
 21
139.02109
 31
0.0
  0
LINE
  5
249
102
{ACAD_REACTORS
330
450
102
}
330
1F
100
AcDbEntity
  8
LC-001-002-----0
 62
     7
370
    50
100
AcDbLine
 10
135.573488
 20
149.020193
 30
0.0
 11
137.382889
 21
145.886218
 31
0.0
  0
INSERT
  5
296
102
{ACAD_REACTORS
330
450
102
}
330
1F
100
AcDbEntity
  8
LC-002-005-----0
 62
     7
370
    25
100
AcDbBlockReference
  2
*X1317
 10
0.0
 20
0.0
 30
0.0
  0
ARC
  5
297
102
{ACAD_REACTORS
330
450
102
}
330
1F
100
AcDbEntity
  8
LC-003-002-RND-0
 62
     7
370
    50
100
AcDbCircle
 10
160.882889
 20
133.520193
 30
0.0
 40
0.5
100
AcDbArc
 50
90.0
 51
180.0
  0
LINE
  5
298
102
{ACAD_REACTORS
330
450
102
}
330
1F
100
AcDbEntity
  8
LC-001-002-----0
 62
     7
370
    50
100
AcDbLine
 10
135.917792
 20
145.423842
 30
0.0
 11
136.150838
 21
145.020193
 31
0.0
  0
ARC
  5
299
102
{ACAD_REACTORS
330
450
102
}
330
1F
100
AcDbEntity
  8
LC-003-002-RND-0
 62
     7
370
    50
100
AcDbCircle
 10
133.319715
 20
143.923842
 30
0.0
 40
2.999999999999976
100
AcDbArc
 50
30.0
 51
150.000006
  0
LINE
  5
29A
102
{ACAD_REACTORS
330
450
102
}
330
1F
100
AcDbEntity
  8
LC-001-002-----0
 62
     7
370
    50
100
AcDbLine
 10
136.150838
 20
145.020193
 30
0.0
 11
137.382889
 21
145.020193
 31
0.0
  0
LINE
  5
29B
102
{ACAD_REACTORS
330
450
102
}
330
1F
100
AcDbEntity
  8
LC-001-002-----0
 62
     7
370
    50
100
AcDbLine
 10
147.382889
 20
147.020193
 30
0.0
 11
148.03759
 21
147.020193
 31
0.0
  0
ARC
  5
29C
102
{ACAD_REACTORS
330
450
102
}
330
1F
100
AcDbEntity
  8
LC-003-002-RND-0
 62
     7
370
    50
100
AcDbCircle
 10
133.086668
 20
148.520193
 30
0.0
 40
0.4999999999999432
100
AcDbArc
 50
90.0
 51
150.000006
  0
LINE
  5
29D
102
{ACAD_REACTORS
330
450
102
}
330
1F
100
AcDbEntity
  8
LC-001-002-----0
 62
     7
370
    50
100
AcDbLine
 10
131.643293
 20
147.020193
 30
0.0
 11
134.996138
 21
147.020193
 31
0.0
  0
ARC
  5
29E
102
{ACAD_REACTORS
330
450
102
}
330
1F
100
AcDbEntity
  8
LC-003-002-RND-0
 62
     7
370
    50
100
AcDbCircle
 10
151.446063
 20
143.923842
 30
0.0
 40
2.999999999999992
100
AcDbArc
 50
29.999994
 51
150.0
  0
LINE
  5
29F
102
{ACAD_REACTORS
330
450
102
}
330
1F
100
AcDbEntity
  8
LC-001-002-----0
 62
     7
370
    50
100
AcDbLine
 10
134.996138
 20
147.020193
 30
0.0
 11
133.985775
 21
148.770193
 31
0.0
  0
LINE
  5
2A0
102
{ACAD_REACTORS
330
450
102
}
330
1F
100
AcDbEntity
  8
LC-001-002-----0
 62
     7
370
    50
100
AcDbLine
 10
126.382889
 20
139.02109
 30
0.0
 11
126.382889
 21
129.970947
 31
0.0
  0
LINE
  5
2A1
102
{ACAD_REACTORS
330
450
102
}
330
1F
100
AcDbEntity
  8
LC-001-002-----0
 62
     7
370
    50
100
AcDbLine
 10
148.61494
 20
145.020193
 30
0.0
 11
147.382889
 21
145.020193
 31
0.0
  0
LINE
  5
2A2
102
{ACAD_REACTORS
330
450
102
}
330
1F
100
AcDbEntity
  8
LC-001-002-----0
 62
     7
370
    50
100
AcDbLine
 10
132.653655
 20
148.770193
 30
0.0
 11
131.643293
 21
147.020193
 31
0.0
  0
ARC
  5
2A3
102
{ACAD_REACTORS
330
450
102
}
330
1F
100
AcDbEntity
  8
LC-003-002-RND-0
 62
     7
370
    50
100
AcDbCircle
 10
133.552762
 20
148.520193
 30
0.0
 40
0.500000000000006
100
AcDbArc
 50
30.0
 51
90.0
  0
LINE
  5
2A4
102
{ACAD_REACTORS
330
450
102
}
330
1F
100
AcDbEntity
  8
LC-001-002-----0
 62
     7
370
    50
100
AcDbLine
 10
148.847987
 20
145.423842
 30
0.0
 11
148.61494
 21
145.020193
 31
0.0
  0
LINE
  5
2A5
102
{ACAD_REACTORS
330
450
102
}
330
1F
100
AcDbEntity
  8
LC-001-002-----0
 62
     7
370
    50
100
AcDbLine
 10
154.044139
 20
145.423841
 30
0.0
 11
158.382889
 21
139.02109
 31
0.0
  0
ARC
  5
2A6
102
{ACAD_REACTORS
330
450
102
}
330
1F
100
AcDbEntity
  8
LC-003-002-RND-0
 62
     7
370
    50
100
AcDbCircle
 10
160.882889
 20
131.020193
 30
0.0
 40
0.5
100
AcDbArc
 50
180.0
 51
270.0
  0
LINE
  5
2A7
102
{ACAD_REACTORS
330
450
102
}
330
1F
100
AcDbEntity
  8
LC-001-002-----0
 62
     7
370
    50
100
AcDbLine
 10
126.382371
 20
139.020193
 30
0.0
 11
140.882889
 21
139.020193
 31
0.0
  0
LINE
  5
2A8
102
{ACAD_REACTORS
330
450
102
}
330
1F
100
AcDbEntity
  8
LC-001-002-----0
 62
     7
370
    50
100
AcDbLine
 10
149.769641
 20
147.020193
 30
0.0
 11
150.780003
 21
148.770193
 31
0.0
  0
ARC
  5
2A9
102
{ACAD_REACTORS
330
450
102
}
330
1F
100
AcDbEntity
  8
LC-003-002-RND-0
 62
     7
370
    50
100
AcDbCircle
 10
123.882889
 20
131.020193
 30
0.0
 40
0.5
100
AcDbArc
 50
270.0
 51
0.0
  0
ARC
  5
2AA
102
{ACAD_REACTORS
330
450
102
}
330
1F
100
AcDbEntity
  8
LC-003-002-RND-0
 62
     7
370
    50
100
AcDbCircle
 10
123.882889
 20
133.520193
 30
0.0
 40
0.5
100
AcDbArc
 50
0.0
 51
90.0
  0
LINE
  5
2AB
102
{ACAD_REACTORS
330
450
102
}
330
1F
100
AcDbEntity
  8
LC-001-002-----0
 62
     7
370
    50
100
AcDbLine
 10
153.122486
 20
147.020193
 30
0.0
 11
149.769641
 21
147.020193
 31
0.0
  0
LINE
  5
2AC
102
{ACAD_REACTORS
330
450
102
}
330
1F
100
AcDbEntity
  8
LC-001-002-----0
 62
     7
370
    50
100
AcDbLine
 10
160.382889
 20
128.020193
 30
0.0
 11
124.432135
 21
128.020193
 31
0.0
  0
LINE
  5
2AD
102
{ACAD_REACTORS
330
450
102
}
330
1F
100
AcDbEntity
  8
LC-001-002-----0
 62
     7
370
    50
100
AcDbLine
 10
153.122486
 20
147.020193
 30
0.0
 11
149.769641
 21
147.020193
 31
0.0
  0
LINE
  5
2AE
102
{ACAD_REACTORS
330
450
102
}
330
1F
100
AcDbEntity
  8
LC-001-002-----0
 62
     7
370
    50
100
AcDbLine
 10
152.112123
 20
148.770193
 30
0.0
 11
153.122486
 21
147.020193
 31
0.0
  0
INSERT
  5
2FD
102
{ACAD_REACTORS
330
450
102
}
330
1F
100
AcDbEntity
  8
LC-002-005-----0
 62
     7
370
    25
100
AcDbBlockReference
  2
*X1418
 10
0.0
 20
0.0
 30
0.0
  0
ARC
  5
2FE
102
{ACAD_REACTORS
330
450
102
}
330
1F
100
AcDbEntity
  8
LC-003-002-RND-0
 62
     7
370
    50
100
AcDbCircle
 10
151.213016
 20
148.520193
 30
0.0
 40
0.5
100
AcDbArc
 50
90.0
 51
150.0
  0
ARC
  5
2FF
102
{ACAD_REACTORS
330
450
102
}
330
1F
100
AcDbEntity
  8
LC-003-002-RND-0
 62
     7
370
    50
100
AcDbCircle
 10
151.67911
 20
148.520193
 30
0.0
 40
0.5000000000000215
100
AcDbArc
 50
29.999994
 51
90.0
  0
LINE
  5
300
102
{ACAD_REACTORS
330
450
102
}
330
1F
100
AcDbEntity
  8
LC-001-002-----0
 62
     7
370
    50
100
AcDbLine
 10
151.213016
 20
149.020193
 30
0.0
 11
151.67911
 21
149.020193
 31
0.0
  0
LINE
  5
301
102
{ACAD_REACTORS
330
450
102
}
330
1F
100
AcDbEntity
  8
LC-001-002-----0
 62
     7
370
    50
100
AcDbLine
 10
160.882889
 20
130.520193
 30
0.0
 11
161.882889
 21
130.520193
 31
0.0
  0
LINE
  5
302
102
{ACAD_REACTORS
330
450
102
}
330
1F
100
AcDbEntity
  8
LC-001-002-----0
 62
     7
370
    50
100
AcDbLine
 10
147.382889
 20
145.886218
 30
0.0
 11
147.382889
 21
145.020193
 31
0.0
  0
LINE
  5
303
102
{ACAD_REACTORS
330
450
102
}
330
1F
100
AcDbEntity
  8
LC-001-002-----0
 62
     7
370
    50
100
AcDbLine
 10
122.882889
 20
134.020193
 30
0.0
 11
123.882889
 21
134.020193
 31
0.0
  0
LINE
  5
304
102
{ACAD_REACTORS
330
450
102
}
330
1F
100
AcDbEntity
  8
LC-001-002-----0
 62
     7
370
    50
100
AcDbLine
 10
123.882889
 20
130.520193
 30
0.0
 11
122.882889
 21
130.520193
 31
0.0
  0
LINE
  5
305
102
{ACAD_REACTORS
330
450
102
}
330
1F
100
AcDbEntity
  8
LC-001-002-----0
 62
     7
370
    50
100
AcDbLine
 10
158.382889
 20
129.970947
 30
0.0
 11
160.382889
 21
128.020193
 31
0.0
  0
LINE
  5
306
102
{ACAD_REACTORS
330
450
102
}
330
1F
100
AcDbEntity
  8
LC-001-002-----0
 62
     7
370
    50
100
AcDbLine
 10
158.382889
 20
139.02109
 30
0.0
 11
158.382889
 21
129.970947
 31
0.0
  0
LINE
  5
307
102
{ACAD_REACTORS
330
450
102
}
330
1F
100
AcDbEntity
  8
LC-001-002-----0
 62
     7
370
    50
100
AcDbLine
 10
166.682889
 20
139.020193
 30
0.0
 11
158.382889
 21
139.02109
 31
0.0
  0
LINE
  5
308
102
{ACAD_REACTORS
330
450
102
}
330
1F
100
AcDbEntity
  8
LC-001-002-----0
 62
     7
370
    50
100
AcDbLine
 10
161.882889
 20
134.020193
 30
0.0
 11
161.882889
 21
135.313826
 31
0.0
  0
ARC
  5
309
102
{ACAD_REACTORS
330
450
102
}
330
1F
100
AcDbEntity
  8
LC-003-002-RND-0
 62
     7
370
    50
100
AcDbCircle
 10
162.382889
 20
135.313826
 30
0.0
 40
0.5000000000000164
100
AcDbArc
 50
120.0
 51
180.0
  0
DIMENSION
  5
30A
330
1F
100
AcDbEntity
  8
LC-006-003-----0
 62
     7
370
    25
100
AcDbDimension
  2
*D19
 10
189.089721
 20
-26.136
 30
0.0
 11
146.646975
 21
4.664
 31
0.0
 70
   160
  1
%%c85
 71
     5
 42
84.885492
  3
LC-DIM-L-0140-02-02
100
AcDbAlignedDimension
 13
104.204229
 23
43.561801
 33
0.0
 14
189.089721
 24
30.050394
 34
0.0
100
AcDbRotatedDimension
  0
LINE
  5
317
102
{ACAD_REACTORS
330
454
102
}
330
1F
100
AcDbEntity
  8
LC-001-002-----0
 62
     7
370
    50
100
AcDbLine
 10
163.282889
 20
130.976243
 30
0.0
 11
162.282889
 21
130.976243
 31
0.0
  0
LINE
  5
318
102
{ACAD_REACTORS
330
454
102
}
330
1F
100
AcDbEntity
  8
LC-001-002-----0
 62
     7
370
    50
100
AcDbLine
 10
121.482889
 20
130.976243
 30
0.0
 11
122.482889
 21
130.976243
 31
0.0
  0
LINE
  5
319
102
{ACAD_REACTORS
330
454
102
}
330
1F
100
AcDbEntity
  8
LC-001-002-----0
 62
     7
370
    50
100
AcDbLine
 10
120.882889
 20
136.650226
 30
0.0
 11
120.903694
 21
136.57258
 31
0.0
  0
LINE
  5
31A
102
{ACAD_REACTORS
330
454
102
}
330
1F
100
AcDbEntity
  8
LC-001-002-----0
 62
     7
370
    50
100
AcDbLine
 10
166.282889
 20
135.03239
 30
0.0
 11
166.282889
 21
135.33239
 31
0.0
  0
ARC
  5
31B
102
{ACAD_REACTORS
330
454
102
}
330
1F
100
AcDbEntity
  8
LC-003-002-RND-0
 62
     7
370
    50
100
AcDbCircle
 10
168.282889
 20
135.53239
 30
0.0
 40
2.000000000000116
100
AcDbArc
 50
110.0
 51
180.0
  0
LINE
  5
31C
102
{ACAD_REACTORS
330
454
102
}
330
1F
100
AcDbEntity
  8
LC-001-002-----0
 62
     7
370
    50
100
AcDbLine
 10
118.482889
 20
135.03239
 30
0.0
 11
118.482889
 21
135.33239
 31
0.0
  0
ARC
  5
31D
102
{ACAD_REACTORS
330
454
102
}
330
1F
100
AcDbEntity
  8
LC-003-002-RND-0
 62
     7
370
    50
100
AcDbCircle
 10
177.132889
 20
141.147926
 30
0.0
 40
0.2500000000000242
100
AcDbArc
 50
290.0
 51
0.0
  0
LINE
  5
31E
102
{ACAD_REACTORS
330
454
102
}
330
1F
100
AcDbEntity
  8
LC-001-002-----0
 62
     7
370
    50
100
AcDbLine
 10
118.482889
 20
135.53239
 30
0.0
 11
118.482889
 21
121.93168
 31
0.0
  0
LINE
  5
31F
102
{ACAD_REACTORS
330
454
102
}
330
1F
100
AcDbEntity
  8
LC-001-002-----0
 62
     7
370
    50
100
AcDbLine
 10
121.421332
 20
134.640728
 30
0.0
 11
121.482889
 21
134.410995
 31
0.0
  0
LINE
  5
320
102
{ACAD_REACTORS
330
454
102
}
330
1F
100
AcDbEntity
  8
LC-001-002-----0
 62
     7
370
    50
100
AcDbLine
 10
177.218394
 20
140.913003
 30
0.0
 11
167.598849
 21
137.411775
 31
0.0
  0
LINE
  5
321
102
{ACAD_REACTORS
330
454
102
}
330
1F
100
AcDbEntity
  8
LC-001-002-----0
 62
     7
370
    50
100
AcDbLine
 10
177.382889
 20
141.18168
 30
0.0
 11
177.382889
 21
141.147926
 31
0.0
  0
LINE
  5
322
102
{ACAD_REACTORS
330
454
102
}
330
1F
100
AcDbEntity
  8
LC-001-002-----0
 62
     7
370
    50
100
AcDbLine
 10
121.880125
 20
134.763662
 30
0.0
 11
121.421332
 21
134.640728
 31
0.0
  0
LINE
  5
323
102
{ACAD_REACTORS
330
454
102
}
330
1F
100
AcDbEntity
  8
LC-001-002-----0
 62
     7
370
    50
100
AcDbLine
 10
121.227458
 20
136.659332
 30
0.0
 11
120.903416
 21
136.572505
 31
0.0
  0
ARC
  5
324
102
{ACAD_REACTORS
330
454
102
}
330
1F
100
AcDbEntity
  8
LC-003-002-RND-0
 62
     7
370
    50
100
AcDbCircle
 10
116.482889
 20
135.53239
 30
0.0
 40
2.0
100
AcDbArc
 50
0.0
 51
70.0
  0
INSERT
  5
32E
102
{ACAD_REACTORS
330
454
102
}
330
1F
100
AcDbEntity
  8
LC-002-005-----0
 62
     7
370
    25
100
AcDbBlockReference
  2
*X1520
 10
0.0
 20
0.0
 30
0.0
  0
LINE
  5
32F
102
{ACAD_REACTORS
330
454
102
}
330
1F
100
AcDbEntity
  8
LC-001-002-----0
 62
     7
370
    50
100
AcDbLine
 10
117.382889
 20
140.150226
 30
0.0
 11
117.382889
 21
138.450226
 31
0.0
  0
ARC
  5
330
102
{ACAD_REACTORS
330
454
102
}
330
1F
100
AcDbEntity
  8
LC-003-002-RND-0
 62
     7
370
    50
100
AcDbCircle
 10
177.132889
 20
141.18168
 30
0.0
 40
0.25
100
AcDbArc
 50
0.0
 51
97.5
  0
LINE
  5
331
102
{ACAD_REACTORS
330
454
102
}
330
1F
100
AcDbEntity
  8
LC-001-002-----0
 62
     7
370
    50
100
AcDbLine
 10
167.382889
 20
140.150226
 30
0.0
 11
177.100258
 21
141.429542
 31
0.0
  0
LINE
  5
332
102
{ACAD_REACTORS
330
454
102
}
330
1F
100
AcDbEntity
  8
LC-001-002-----0
 62
     7
370
    50
100
AcDbLine
 10
119.982889
 20
120.43168
 30
0.0
 11
122.482889
 21
120.43168
 31
0.0
  0
LINE
  5
333
102
{ACAD_REACTORS
330
454
102
}
330
1F
100
AcDbEntity
  8
LC-001-002-----0
 62
     7
370
    50
100
AcDbLine
 10
163.282889
 20
134.410995
 30
0.0
 11
163.282889
 21
130.976243
 31
0.0
  0
LINE
  5
334
102
{ACAD_REACTORS
330
454
102
}
330
1F
100
AcDbEntity
  8
LC-001-002-----0
 62
     7
370
    50
100
AcDbLine
 10
117.382889
 20
140.150226
 30
0.0
 11
117.382889
 21
140.150226
 31
0.0
  0
ARC
  5
335
102
{ACAD_REACTORS
330
454
102
}
330
1F
100
AcDbEntity
  8
LC-003-002-RND-0
 62
     7
370
    50
100
AcDbCircle
 10
107.632889
 20
141.147926
 30
0.0
 40
0.25
100
AcDbArc
 50
180.0
 51
250.0
  0
LINE
  5
336
102
{ACAD_REACTORS
330
454
102
}
330
1F
100
AcDbEntity
  8
LC-001-002-----0
 62
     7
370
    50
100
AcDbLine
 10
107.547384
 20
140.913003
 30
0.0
 11
117.166929
 21
137.411775
 31
0.0
  0
LINE
  5
337
102
{ACAD_REACTORS
330
454
102
}
330
1F
100
AcDbEntity
  8
LC-001-002-----0
 62
     7
370
    50
100
AcDbLine
 10
107.382889
 20
141.18168
 30
0.0
 11
107.382889
 21
141.147926
 31
0.0
  0
ARC
  5
338
102
{ACAD_REACTORS
330
454
102
}
330
1F
100
AcDbEntity
  8
LC-003-002-RND-0
 62
     7
370
    50
100
AcDbCircle
 10
107.632889
 20
141.18168
 30
0.0
 40
0.2499999999999914
100
AcDbArc
 50
82.5
 51
180.0
  0
LINE
  5
339
102
{ACAD_REACTORS
330
454
102
}
330
1F
100
AcDbEntity
  8
LC-001-002-----0
 62
     7
370
    50
100
AcDbLine
 10
117.382889
 20
140.150226
 30
0.0
 11
107.665521
 21
141.429542
 31
0.0
  0
LINE
  5
33A
102
{ACAD_REACTORS
330
454
102
}
330
1F
100
AcDbEntity
  8
LC-001-002-----0
 62
     7
370
    50
100
AcDbLine
 10
162.282889
 20
130.976243
 30
0.0
 11
162.282889
 21
120.43168
 31
0.0
  0
LINE
  5
33B
102
{ACAD_REACTORS
330
454
102
}
330
1F
100
AcDbEntity
  8
LC-001-002-----0
 62
     7
370
    50
100
AcDbLine
 10
164.782889
 20
120.43168
 30
0.0
 11
166.282889
 21
121.93168
 31
0.0
  0
LINE
  5
33C
102
{ACAD_REACTORS
330
454
102
}
330
1F
100
AcDbEntity
  8
LC-001-002-----0
 62
     7
370
    50
100
AcDbLine
 10
166.282889
 20
135.53239
 30
0.0
 11
166.282889
 21
121.93168
 31
0.0
  0
LINE
  5
33D
102
{ACAD_REACTORS
330
454
102
}
330
1F
100
AcDbEntity
  8
LC-001-002-----0
 62
     7
370
    50
100
AcDbLine
 10
121.482889
 20
134.410995
 30
0.0
 11
121.482889
 21
130.976243
 31
0.0
  0
LINE
  5
33E
102
{ACAD_REACTORS
330
454
102
}
330
1F
100
AcDbEntity
  8
LC-001-002-----0
 62
     7
370
    50
100
AcDbLine
 10
121.202192
 20
136.626268
 30
0.0
 11
121.880125
 21
134.763662
 31
0.0
  0
LINE
  5
33F
102
{ACAD_REACTORS
330
454
102
}
330
1F
100
AcDbEntity
  8
LC-001-002-----0
  6
DASHDOT
 62
     7
370
    25
100
AcDbLine
 10
142.382889
 20
155.863603
 30
0.0
 11
142.382889
 21
28.120193
 31
0.0
  0
LINE
  5
340
102
{ACAD_REACTORS
330
454
102
}
330
1F
100
AcDbEntity
  8
LC-001-002-----0
 62
     7
370
    50
100
AcDbLine
 10
164.782889
 20
120.43168
 30
0.0
 11
162.282889
 21
120.43168
 31
0.0
  0
LINE
  5
341
102
{ACAD_REACTORS
330
454
102
}
330
1F
100
AcDbEntity
  8
LC-001-002-----0
 62
     7
370
    25
100
AcDbLine
 10
164.782889
 20
133.565663
 30
0.0
 11
164.782889
 21
120.43168
 31
0.0
  0
LINE
  5
342
102
{ACAD_REACTORS
330
454
102
}
330
1F
100
AcDbEntity
  8
LC-001-002-----0
 62
     7
370
    50
100
AcDbLine
 10
163.572306
 20
136.650226
 30
0.0
 11
163.882889
 21
136.650226
 31
0.0
  0
LINE
  5
343
102
{ACAD_REACTORS
330
454
102
}
330
1F
100
AcDbEntity
  8
LC-001-002-----0
 62
     7
370
    50
100
AcDbLine
 10
163.882889
 20
136.650226
 30
0.0
 11
163.862084
 21
136.57258
 31
0.0
  0
LINE
  5
344
102
{ACAD_REACTORS
330
454
102
}
330
1F
100
AcDbEntity
  8
LC-001-002-----0
 62
     7
370
    50
100
AcDbLine
 10
156.749381
 20
141.43168
 30
0.0
 11
156.749381
 21
141.43168
 31
0.0
  0
LINE
  5
345
102
{ACAD_REACTORS
330
454
102
}
330
1F
100
AcDbEntity
  8
LC-001-002-----0
 62
     7
370
    50
100
AcDbLine
 10
117.950486
 20
138.450226
 30
0.0
 11
117.930045
 21
138.450226
 31
0.0
  0
LINE
  5
346
102
{ACAD_REACTORS
330
454
102
}
330
1F
100
AcDbEntity
  8
LC-001-002-----0
 62
     7
370
    50
100
AcDbLine
 10
120.882889
 20
136.650226
 30
0.0
 11
117.382889
 21
138.450226
 31
0.0
  0
LINE
  5
347
102
{ACAD_REACTORS
330
454
102
}
330
1F
100
AcDbEntity
  8
LC-001-002-----0
 62
     7
370
    50
100
AcDbLine
 10
177.116503
 20
141.43168
 30
0.0
 11
166.982889
 21
141.43168
 31
0.0
  0
LINE
  5
348
102
{ACAD_REACTORS
330
454
102
}
330
1F
100
AcDbEntity
  8
LC-001-002-----0
 62
     7
370
    50
100
AcDbLine
 10
119.982889
 20
120.43168
 30
0.0
 11
118.482889
 21
121.93168
 31
0.0
  0
LINE
  5
349
102
{ACAD_REACTORS
330
454
102
}
330
1F
100
AcDbEntity
  8
LC-001-002-----0
 62
     7
370
    50
100
AcDbLine
 10
163.344446
 20
134.640728
 30
0.0
 11
163.282889
 21
134.410995
 31
0.0
  0
LINE
  5
34A
102
{ACAD_REACTORS
330
454
102
}
330
1F
100
AcDbEntity
  8
LC-001-002-----0
 62
     7
370
    50
100
AcDbLine
 10
167.382889
 20
140.150226
 30
0.0
 11
167.382889
 21
140.150226
 31
0.0
  0
LINE
  5
34B
102
{ACAD_REACTORS
330
454
102
}
330
1F
100
AcDbEntity
  8
LC-001-002-----0
 62
     7
370
    50
100
AcDbLine
 10
162.885653
 20
134.763662
 30
0.0
 11
163.344446
 21
134.640728
 31
0.0
  0
LINE
  5
34C
102
{ACAD_REACTORS
330
454
102
}
330
1F
100
AcDbEntity
  8
LC-001-002-----0
 62
     7
370
    50
100
AcDbLine
 10
161.882889
 20
134.640728
 30
0.0
 11
161.882889
 21
134.640728
 31
0.0
  0
LINE
  5
34D
102
{ACAD_REACTORS
330
454
102
}
330
1F
100
AcDbEntity
  8
LC-001-002-----0
 62
     7
370
    50
100
AcDbLine
 10
163.538321
 20
136.659332
 30
0.0
 11
163.862363
 21
136.572505
 31
0.0
  0
LINE
  5
34E
102
{ACAD_REACTORS
330
454
102
}
330
1F
100
AcDbEntity
  8
LC-001-002-----0
 62
     7
370
    50
100
AcDbLine
 10
167.382889
 20
140.150226
 30
0.0
 11
167.382889
 21
138.450226
 31
0.0
  0
LINE
  5
34F
102
{ACAD_REACTORS
330
454
102
}
330
1F
100
AcDbEntity
  8
LC-001-002-----0
 62
     7
370
    50
100
AcDbLine
 10
163.563586
 20
136.626268
 30
0.0
 11
162.885653
 21
134.763662
 31
0.0
  0
LINE
  5
350
102
{ACAD_REACTORS
330
454
102
}
330
1F
100
AcDbEntity
  8
LC-001-002-----0
 62
     7
370
    50
100
AcDbLine
 10
121.193472
 20
136.650226
 30
0.0
 11
120.882889
 21
136.650226
 31
0.0
  0
LINE
  5
351
102
{ACAD_REACTORS
330
454
102
}
330
1F
100
AcDbEntity
  8
LC-001-002-----0
 62
     7
370
    25
100
AcDbLine
 10
119.982889
 20
133.565663
 30
0.0
 11
119.982889
 21
120.43168
 31
0.0
  0
LINE
  5
352
102
{ACAD_REACTORS
330
454
102
}
330
1F
100
AcDbEntity
  8
LC-001-002-----0
 62
     7
370
    50
100
AcDbLine
 10
163.882889
 20
136.650226
 30
0.0
 11
167.382889
 21
138.450226
 31
0.0
  0
LINE
  5
353
102
{ACAD_REACTORS
330
454
102
}
330
1F
100
AcDbEntity
  8
LC-001-002-----0
 62
     7
370
    50
100
AcDbLine
 10
107.649275
 20
141.43168
 30
0.0
 11
117.782889
 21
141.43168
 31
0.0
  0
LINE
  5
354
102
{ACAD_REACTORS
330
454
102
}
330
1F
100
AcDbEntity
  8
LC-001-002-----0
 62
     7
370
    50
100
AcDbLine
 10
122.482889
 20
130.976243
 30
0.0
 11
122.482889
 21
120.43168
 31
0.0
  0
CIRCLE
  5
355
102
{ACAD_REACTORS
330
453
102
}
330
1F
100
AcDbEntity
  8
LC-001-002-----0
 62
     7
370
    50
100
AcDbCircle
 10
122.882889
 20
132.520193
 30
0.0
 40
1.5
  0
INSERT
  5
35B
102
{ACAD_REACTORS
330
453
102
}
330
1F
100
AcDbEntity
  8
LC-002-005-----0
 62
     7
370
    25
100
AcDbBlockReference
  2
*X1621
 10
0.0
 20
0.0
 30
0.0
  0
CIRCLE
  5
35C
102
{ACAD_REACTORS
330
453
102
}
330
1F
100
AcDbEntity
  8
LC-001-002-----0
 62
     7
370
    50
100
AcDbCircle
 10
161.882889
 20
132.520193
 30
0.0
 40
1.5
  0
INSERT
  5
362
102
{ACAD_REACTORS
330
453
102
}
330
1F
100
AcDbEntity
  8
LC-002-005-----0
 62
     7
370
    25
100
AcDbBlockReference
  2
*X1722
 10
0.0
 20
0.0
 30
0.0
  0
INSERT
  5
36E
102
{ACAD_REACTORS
330
455
102
}
330
1F
100
AcDbEntity
  8
LC-002-005-----0
 62
     7
370
    25
100
AcDbBlockReference
  2
*X1823
 10
0.0
 20
0.0
 30
0.0
  0
LINE
  5
36F
102
{ACAD_REACTORS
330
455
102
}
330
1F
100
AcDbEntity
  8
LC-001-002-----0
 62
     7
370
    50
100
AcDbLine
 10
178.632889
 20
127.620193
 30
0.0
 11
174.282889
 21
127.620193
 31
0.0
  0
LINE
  5
370
102
{ACAD_REACTORS
330
455
102
}
330
1F
100
AcDbEntity
  8
LC-001-002-----0
 62
     7
370
    50
100
AcDbLine
 10
168.882889
 20
124.820193
 30
0.0
 11
172.282889
 21
124.820193
 31
0.0
  0
ARC
  5
371
102
{ACAD_REACTORS
330
455
102
}
330
1F
100
AcDbEntity
  8
LC-003-002-RND-0
 62
     7
370
    50
100
AcDbCircle
 10
168.882889
 20
125.820193
 30
0.0
 40
1.0
100
AcDbArc
 50
180.0
 51
270.0
  0
ARC
  5
372
102
{ACAD_REACTORS
330
455
102
}
330
1F
100
AcDbEntity
  8
LC-003-002-RND-0
 62
     7
370
    50
100
AcDbCircle
 10
172.282889
 20
125.820193
 30
0.0
 40
1.0
100
AcDbArc
 50
270.0
 51
0.0
  0
ARC
  5
373
102
{ACAD_REACTORS
330
455
102
}
330
1F
100
AcDbEntity
  8
LC-003-002-RND-0
 62
     7
370
    50
100
AcDbCircle
 10
174.282889
 20
126.620193
 30
0.0
 40
0.999999999999974
100
AcDbArc
 50
90.890752
 51
180.0
  0
LINE
  5
374
102
{ACAD_REACTORS
330
455
102
}
330
1F
100
AcDbEntity
  8
LC-001-002-----0
 62
     7
370
    50
100
AcDbLine
 10
173.282889
 20
126.620193
 30
0.0
 11
173.282889
 21
125.820193
 31
0.0
  0
LINE
  5
375
102
{ACAD_REACTORS
330
455
102
}
330
1F
100
AcDbEntity
  8
LC-001-002-----0
 62
     7
370
    50
100
AcDbLine
 10
167.882889
 20
128.120193
 30
0.0
 11
167.882889
 21
125.820193
 31
0.0
  0
ARC
  5
376
102
{ACAD_REACTORS
330
455
102
}
330
1F
100
AcDbEntity
  8
LC-001-002-----0
 62
     7
370
    50
100
AcDbCircle
 10
178.34851
 20
115.375679
 30
0.0
 40
17.55000000000002
100
AcDbArc
 50
89.071542
 51
133.43264
  0
LINE
  5
377
102
{ACAD_REACTORS
330
455
102
}
330
1F
100
AcDbEntity
  8
LC-001-002-----0
 62
     7
370
    50
100
AcDbLine
 10
178.632889
 20
132.923375
 30
0.0
 11
178.632889
 21
127.620193
 31
0.0
  0
LINE
  5
378
102
{ACAD_REACTORS
330
455
102
}
330
1F
100
AcDbEntity
  8
LC-001-002-----0
 62
     7
370
    50
100
AcDbLine
 10
106.132889
 20
127.620193
 30
0.0
 11
110.482889
 21
127.620193
 31
0.0
  0
LINE
  5
379
102
{ACAD_REACTORS
330
455
102
}
330
1F
100
AcDbEntity
  8
LC-001-002-----0
 62
     7
370
    50
100
AcDbLine
 10
115.882889
 20
124.820193
 30
0.0
 11
112.482889
 21
124.820193
 31
0.0
  0
ARC
  5
37A
102
{ACAD_REACTORS
330
455
102
}
330
1F
100
AcDbEntity
  8
LC-003-002-RND-0
 62
     7
370
    50
100
AcDbCircle
 10
115.882889
 20
125.820193
 30
0.0
 40
1.0
100
AcDbArc
 50
270.0
 51
0.0
  0
ARC
  5
37B
102
{ACAD_REACTORS
330
455
102
}
330
1F
100
AcDbEntity
  8
LC-003-002-RND-0
 62
     7
370
    50
100
AcDbCircle
 10
112.482889
 20
125.820193
 30
0.0
 40
1.0
100
AcDbArc
 50
180.0
 51
270.0
  0
ARC
  5
37C
102
{ACAD_REACTORS
330
455
102
}
330
1F
100
AcDbEntity
  8
LC-003-002-RND-0
 62
     7
370
    50
100
AcDbCircle
 10
110.482889
 20
126.620193
 30
0.0
 40
1.0
100
AcDbArc
 50
0.0
 51
89.109248
  0
LINE
  5
37D
102
{ACAD_REACTORS
330
455
102
}
330
1F
100
AcDbEntity
  8
LC-001-002-----0
 62
     7
370
    50
100
AcDbLine
 10
111.482889
 20
126.620193
 30
0.0
 11
111.482889
 21
125.820193
 31
0.0
  0
LINE
  5
37E
102
{ACAD_REACTORS
330
455
102
}
330
1F
100
AcDbEntity
  8
LC-001-002-----0
 62
     7
370
    50
100
AcDbLine
 10
116.882889
 20
128.120193
 30
0.0
 11
116.882889
 21
125.820193
 31
0.0
  0
ARC
  5
37F
102
{ACAD_REACTORS
330
455
102
}
330
1F
100
AcDbEntity
  8
LC-001-002-----0
 62
     7
370
    50
100
AcDbCircle
 10
106.417268
 20
115.375679
 30
0.0
 40
17.54999999999997
100
AcDbArc
 50
46.56736
 51
90.928458
  0
LINE
  5
380
102
{ACAD_REACTORS
330
455
102
}
330
1F
100
AcDbEntity
  8
LC-001-002-----0
 62
     7
370
    50
100
AcDbLine
 10
106.132889
 20
132.923375
 30
0.0
 11
106.132889
 21
127.620193
 31
0.0
  0
LINE
  5
381
102
{ACAD_REACTORS
330
455
102
}
330
1F
100
AcDbEntity
  8
LC-001-002-----0
 62
     7
370
    50
100
AcDbLine
 10
167.882889
 20
128.120193
 30
0.0
 11
166.282889
 21
128.120193
 31
0.0
  0
LINE
  5
382
102
{ACAD_REACTORS
330
455
102
}
330
1F
100
AcDbEntity
  8
LC-001-002-----0
 62
     7
370
    50
100
AcDbLine
 10
116.882889
 20
128.120193
 30
0.0
 11
118.482889
 21
128.120193
 31
0.0
  0
ARC
  5
384
102
{ACAD_REACTORS
330
456
102
}
330
1F
100
AcDbEntity
  8
LC-008-207-----0
 62
     7
370
    50
100
AcDbCircle
 10
222.272957
 20
102.420193
 30
0.0
 40
29.70000000000014
100
AcDbArc
 50
256.698461
 51
310.004562
  0
LINE
  5
385
102
{ACAD_REACTORS
330
456
102
}
330
1F
100
AcDbEntity
  8
LC-001-002-----0
 62
     7
370
    50
100
AcDbLine
 10
214.209627
 20
132.296595
 30
0.0
 11
214.209627
 21
134.420193
 31
0.0
  0
LINE
  5
386
102
{ACAD_REACTORS
330
456
102
}
330
1F
100
AcDbEntity
  8
LC-001-002-----0
 62
     7
370
    50
100
AcDbLine
 10
324.747941
 20
77.420193
 30
0.0
 11
328.247941
 21
78.358015
 31
0.0
  0
LINE
  5
387
102
{ACAD_REACTORS
330
456
102
}
330
1F
100
AcDbEntity
  8
LC-008-207-----0
 62
     7
370
    50
100
AcDbLine
 10
242.247941
 20
77.420193
 30
0.0
 11
324.747941
 21
77.420193
 31
0.0
  0
LINE
  5
388
102
{ACAD_REACTORS
330
456
102
}
330
1F
100
AcDbEntity
  8
LC-008-207-----0
 62
     7
370
    50
100
AcDbLine
 10
242.247941
 20
127.420193
 30
0.0
 11
324.747941
 21
127.420193
 31
0.0
  0
LINE
  5
389
102
{ACAD_REACTORS
330
456
102
}
330
1F
100
AcDbEntity
  8
LC-008-207-----0
 62
     7
370
    50
100
AcDbLine
 10
241.36556
 20
79.670193
 30
0.0
 11
328.247941
 21
79.670193
 31
0.0
  0
LINE
  5
38A
102
{ACAD_REACTORS
330
456
102
}
330
1F
100
AcDbEntity
  8
LC-008-207-----0
 62
     7
370
    50
100
AcDbLine
 10
241.36556
 20
125.170193
 30
0.0
 11
328.247941
 21
125.170193
 31
0.0
  0
ARC
  5
38B
102
{ACAD_REACTORS
330
456
102
}
330
1F
100
AcDbEntity
  8
LC-008-207-----0
 62
     7
370
    50
100
AcDbCircle
 10
222.272957
 20
102.420193
 30
0.0
 40
29.70000000000005
100
AcDbArc
 50
49.995438
 51
103.301539
  0
LINE
  5
38C
102
{ACAD_REACTORS
330
456
102
}
330
1F
100
AcDbEntity
  8
LC-008-207-----0
 62
     7
370
    50
100
AcDbLine
 10
241.36556
 20
79.670193
 30
0.0
 11
241.36556
 21
125.170193
 31
0.0
  0
LINE
  5
38D
102
{ACAD_REACTORS
330
456
102
}
330
1F
100
AcDbEntity
  8
LC-001-002-----0
 62
     7
370
    50
100
AcDbLine
 10
214.209627
 20
72.543791
 30
0.0
 11
214.209627
 21
70.420193
 31
0.0
  0
LINE
  5
38E
102
{ACAD_REACTORS
330
456
102
}
330
1F
100
AcDbEntity
  8
LC-001-002-----0
 62
     7
370
    50
100
AcDbLine
 10
214.209627
 20
70.420193
 30
0.0
 11
222.272957
 21
70.420193
 31
0.0
  0
LINE
  5
38F
102
{ACAD_REACTORS
330
456
102
}
330
1F
100
AcDbEntity
  8
LC-001-002-----0
 62
     7
370
    50
100
AcDbLine
 10
214.209627
 20
134.420193
 30
0.0
 11
222.272957
 21
134.420193
 31
0.0
  0
INSERT
  5
39E
102
{ACAD_REACTORS
330
452
102
}
330
1F
100
AcDbEntity
  8
LC-002-005-----0
 62
     7
370
    25
100
AcDbBlockReference
  2
*X1924
 10
0.0
 20
0.0
 30
0.0
  0
ARC
  5
39F
102
{ACAD_REACTORS
330
456
102
}
330
1F
100
AcDbEntity
  8
LC-001-002-----0
 62
     7
370
    50
100
AcDbCircle
 10
222.272957
 20
102.420193
 30
0.0
 40
32.00000000000085
100
AcDbArc
 50
270.0
 51
308.624833
  0
ARC
  5
3A0
102
{ACAD_REACTORS
330
456
102
}
330
1F
100
AcDbEntity
  8
LC-001-002-----0
 62
     7
370
    50
100
AcDbCircle
 10
222.272957
 20
102.420193
 30
0.0
 40
31.9999999999997
100
AcDbArc
 50
51.375167
 51
90.0
  0
LINE
  5
3A1
102
{ACAD_REACTORS
330
456
102
}
330
1F
100
AcDbEntity
  8
LC-001-002-----0
 62
     7
370
    50
100
AcDbLine
 10
328.247941
 20
79.670193
 30
0.0
 11
328.247941
 21
78.358015
 31
0.0
  0
LINE
  5
3A2
102
{ACAD_REACTORS
330
456
102
}
330
1F
100
AcDbEntity
  8
LC-001-002-----0
 62
     7
370
    50
100
AcDbLine
 10
324.747941
 20
127.420193
 30
0.0
 11
328.247941
 21
126.482371
 31
0.0
  0
INSERT
  5
3F8
102
{ACAD_REACTORS
330
456
102
}
330
1F
100
AcDbEntity
  8
LC-002-005-----0
 62
     7
370
    25
100
AcDbBlockReference
  2
*X2025
 10
0.0
 20
0.0
 30
0.0
  0
LINE
  5
3F9
102
{ACAD_REACTORS
330
456
102
}
330
1F
100
AcDbEntity
  8
LC-001-002-----0
 62
     7
370
    50
100
AcDbLine
 10
328.247941
 20
126.482371
 30
0.0
 11
328.247941
 21
125.170193
 31
0.0
  0
LINE
  5
3FA
102
{ACAD_REACTORS
330
456
102
}
330
1F
100
AcDbEntity
  8
LC-001-002-----0
 62
     7
370
    50
100
AcDbLine
 10
328.247941
 20
125.170193
 30
0.0
 11
328.247941
 21
79.670193
 31
0.0
  0
LINE
  5
3FB
102
{ACAD_REACTORS
330
456
102
}
330
1F
100
AcDbEntity
  8
LC-001-002-----0
 62
     7
370
    50
100
AcDbLine
 10
214.209627
 20
72.543791
 30
0.0
 11
214.209627
 21
73.936099
 31
0.0
  0
CIRCLE
  5
3FC
102
{ACAD_REACTORS
330
452
102
}
330
1F
100
AcDbEntity
  8
LC-001-002-----0
 62
     7
370
    50
100
AcDbCircle
 10
230.62182
 20
129.420193
 30
0.0
 40
2.0
  0
CIRCLE
  5
3FD
102
{ACAD_REACTORS
330
452
102
}
330
1F
100
AcDbEntity
  8
LC-001-002-----0
 62
     7
370
    50
100
AcDbCircle
 10
230.62182
 20
75.420193
 30
0.0
 40
2.0
  0
LINE
  5
3FE
102
{ACAD_REACTORS
330
452
102
}
330
1F
100
AcDbEntity
  8
LC-001-002-----0
  6
DASHDOT
 62
     7
370
    25
100
AcDbLine
 10
227.404468
 20
102.420193
 30
0.0
 11
233.78654
 21
102.420193
 31
0.0
  0
LINE
  5
3FF
102
{ACAD_REACTORS
330
452
102
}
330
1F
100
AcDbEntity
  8
LC-001-002-----0
 62
     7
370
    50
100
AcDbLine
 10
228.62182
 20
129.420193
 30
0.0
 11
228.62182
 21
127.48718
 31
0.0
  0
LINE
  5
400
102
{ACAD_REACTORS
330
452
102
}
330
1F
100
AcDbEntity
  8
LC-001-002-----0
 62
     7
370
    50
100
AcDbLine
 10
232.62182
 20
77.353206
 30
0.0
 11
232.62182
 21
75.420193
 31
0.0
  0
LINE
  5
401
102
{ACAD_REACTORS
330
452
102
}
330
1F
100
AcDbEntity
  8
LC-001-002-----0
 62
     7
370
    50
100
AcDbLine
 10
232.62182
 20
129.420193
 30
0.0
 11
232.62182
 21
127.48718
 31
0.0
  0
LINE
  5
402
102
{ACAD_REACTORS
330
452
102
}
330
1F
100
AcDbEntity
  8
LC-001-002-----0
 62
     7
370
    50
100
AcDbLine
 10
228.62182
 20
77.353206
 30
0.0
 11
228.62182
 21
75.420193
 31
0.0
  0
CIRCLE
  5
404
102
{ACAD_REACTORS
330
451
102
}
330
1F
100
AcDbEntity
  8
LC-009-221-----0
 62
     7
370
    50
100
AcDbCircle
 10
231.024723
 20
129.959262
 30
0.0
 40
0.4999999999999942
  0
DIMENSION
  5
406
330
1F
100
AcDbEntity
  8
LC-006-003-----0
 62
     7
370
    25
100
AcDbDimension
  2
*D26
 10
39.2
 20
28.120193
 30
0.0
 11
8.4
 21
80.521784
 31
0.0
 70
   160
 71
     5
 42
104.803182
 53
90.0
  3
LC-DIM-L-0140-00-02
100
AcDbAlignedDimension
 13
106.132889
 23
132.923375
 33
0.0
 14
120.194482
 24
28.120193
 34
0.0
 50
90.0
100
AcDbRotatedDimension
  0
LINE
  5
413
102
{ACAD_REACTORS
330
44F
102
}
330
1F
100
AcDbEntity
  8
LC-002-005-----0
 62
     7
370
    25
100
AcDbLine
 10
162.282889
 20
122.684909
 30
0.0
 11
164.782889
 21
125.184909
 31
0.0
  0
LINE
  5
414
102
{ACAD_REACTORS
330
44F
102
}
330
1F
100
AcDbEntity
  8
LC-002-005-----0
 62
     7
370
    25
100
AcDbLine
 10
166.282866
 20
126.684886
 30
0.0
 11
166.282889
 21
126.684909
 31
0.0
  0
LINE
  5
415
102
{ACAD_REACTORS
330
44F
102
}
330
1F
100
AcDbEntity
  8
LC-002-005-----0
 62
     7
370
    25
100
AcDbLine
 10
162.282889
 20
128.341764
 30
0.0
 11
166.282889
 21
132.341764
 31
0.0
  0
LINE
  5
416
102
{ACAD_REACTORS
330
44F
102
}
330
1F
100
AcDbEntity
  8
LC-002-005-----0
 62
     7
370
    25
100
AcDbLine
 10
173.501169
 20
139.560044
 30
0.0
 11
175.108439
 21
141.167314
 31
0.0
  0
LINE
  5
417
102
{ACAD_REACTORS
330
44F
102
}
330
1F
100
AcDbEntity
  8
LC-002-005-----0
 62
     7
370
    25
100
AcDbLine
 10
163.013639
 20
134.729368
 30
0.0
 11
166.047964
 21
137.763693
 31
0.0
  0
LINE
  5
418
102
{ACAD_REACTORS
330
44F
102
}
330
1F
100
AcDbEntity
  8
LC-002-005-----0
 62
     7
370
    25
100
AcDbLine
 10
167.382889
 20
139.098618
 30
0.0
 11
168.593934
 21
140.309663
 31
0.0
  0
LINE
  5
419
102
{ACAD_REACTORS
330
44E
102
}
330
1F
100
AcDbEntity
  8
LC-001-002-----0
  6
DASHED
 62
     7
370
    25
100
AcDbLine
 10
315.295804
 20
51.451072
 30
0.0
 11
318.919271
 21
51.451072
 31
0.0
  0
ARC
  5
41A
102
{ACAD_REACTORS
330
44E
102
}
330
1F
100
AcDbEntity
  8
LC-008-207-----0
 62
     7
370
    50
100
AcDbCircle
 10
222.276349
 20
102.257464
 30
0.0
 40
29.70000000000018
100
AcDbArc
 50
54.721682
 51
89.141305
  0
ARC
  5
41B
102
{ACAD_REACTORS
330
44E
102
}
330
1F
100
AcDbEntity
  8
LC-001-002-----0
  6
DASHED
 62
     7
370
    25
100
AcDbCircle
 10
207.326518
 20
75.443427
 30
0.0
 40
1.000000000000003
100
AcDbArc
 50
60.858695
 51
165.0
  0
LINE
  5
41C
102
{ACAD_REACTORS
330
44E
102
}
330
1F
100
AcDbEntity
  8
LC-001-002-----0
  6
DASHED
 62
     7
370
    25
100
AcDbLine
 10
206.360593
 20
75.702246
 30
0.0
 11
205.783341
 21
73.547915
 31
0.0
  0
LINE
  5
41D
102
{ACAD_REACTORS
330
44E
102
}
330
1F
100
AcDbEntity
  8
LC-001-002-----0
  6
DASHED
 62
     7
370
    25
100
AcDbLine
 10
318.919271
 20
51.451072
 30
0.0
 11
319.258887
 21
52.718538
 31
0.0
  0
LINE
  5
41E
102
{ACAD_REACTORS
330
44E
102
}
330
1F
100
AcDbEntity
  8
LC-001-002-----0
  6
DASHED
 62
     7
370
    25
100
AcDbLine
 10
319.258887
 20
52.718538
 30
0.0
 11
331.035154
 21
96.668163
 31
0.0
  0
LINE
  5
41F
102
{ACAD_REACTORS
330
44E
102
}
330
1F
100
AcDbEntity
  8
LC-001-002-----0
  6
DASHED
 62
     7
370
    25
100
AcDbLine
 10
331.035154
 20
96.668163
 30
0.0
 11
331.37477
 21
97.93563
 31
0.0
  0
LINE
  5
420
102
{ACAD_REACTORS
330
44E
102
}
330
1F
100
AcDbEntity
  8
LC-001-002-----0
  6
DASHDOT
 62
     7
370
    25
100
AcDbLine
 10
325.147021
 20
74.693351
 30
0.0
 11
195.600059
 21
109.405354
 31
0.0
  0
LINE
  5
421
102
{ACAD_REACTORS
330
44E
102
}
330
1F
100
AcDbEntity
  8
LC-001-002-----0
  6
DASHED
 62
     7
370
    25
100
AcDbLine
 10
328.236756
 20
99.747363
 30
0.0
 11
331.37477
 21
97.93563
 31
0.0
  0
ARC
  5
422
102
{ACAD_REACTORS
330
44E
102
}
330
1F
100
AcDbEntity
  8
LC-001-002-----0
  6
DASHED
 62
     7
370
    25
100
AcDbCircle
 10
222.736434
 20
132.954016
 30
0.0
 40
1.00000000000003
100
AcDbArc
 50
165.0
 51
269.141305
  0
LINE
  5
423
102
{ACAD_REACTORS
330
44E
102
}
330
1F
100
AcDbEntity
  8
LC-001-002-----0
  6
DASHED
 62
     7
370
    25
100
AcDbLine
 10
248.137342
 20
121.209936
 30
0.0
 11
328.236756
 21
99.747363
 31
0.0
  0
LINE
  5
424
102
{ACAD_REACTORS
330
44E
102
}
330
1F
100
AcDbEntity
  8
LC-001-002-----0
  6
DASHED
 62
     7
370
    25
100
AcDbLine
 10
235.19639
 20
72.913645
 30
0.0
 11
315.295804
 21
51.451072
 31
0.0
  0
LINE
  5
425
102
{ACAD_REACTORS
330
44E
102
}
330
1F
100
AcDbEntity
  8
LC-001-002-----0
  6
DASHED
 62
     7
370
    25
100
AcDbLine
 10
246.606521
 20
119.290747
 30
0.0
 11
331.035154
 21
96.668163
 31
0.0
  0
LINE
  5
426
102
{ACAD_REACTORS
330
44E
102
}
330
1F
100
AcDbEntity
  8
LC-001-002-----0
  6
DASHED
 62
     7
370
    25
100
AcDbLine
 10
234.830254
 20
75.341122
 30
0.0
 11
319.258887
 21
52.718538
 31
0.0
  0
LINE
  5
427
102
{ACAD_REACTORS
330
44E
102
}
330
1F
100
AcDbEntity
  8
LC-001-002-----0
  6
DASHED
 62
     7
370
    25
100
AcDbLine
 10
221.770509
 20
133.212835
 30
0.0
 11
222.34776
 21
135.367167
 31
0.0
  0
LINE
  5
428
102
{ACAD_REACTORS
330
44E
102
}
330
1F
100
AcDbEntity
  8
LC-001-002-----0
  6
DASHED
 62
     7
370
    25
100
AcDbLine
 10
222.34776
 20
135.367167
 30
0.0
 11
230.55813
 21
133.167206
 31
0.0
  0
LINE
  5
429
102
{ACAD_REACTORS
330
44E
102
}
330
1F
100
AcDbEntity
  8
LC-001-002-----0
  6
DASHED
 62
     7
370
    25
100
AcDbLine
 10
205.783341
 20
73.547915
 30
0.0
 11
214.090303
 21
71.322071
 31
0.0
  0
ARC
  5
42A
102
{ACAD_REACTORS
330
44E
102
}
330
1F
100
AcDbEntity
  8
LC-001-002-----0
  6
DASHED
 62
     7
370
    25
100
AcDbCircle
 10
222.372513
 20
102.231697
 30
0.0
 40
32.00000000000085
100
AcDbArc
 50
36.375167
 51
75.17905
  0
ARC
  5
42B
102
{ACAD_REACTORS
330
44E
102
}
330
1F
100
AcDbEntity
  8
LC-001-002-----0
  6
DASHED
 62
     7
370
    25
100
AcDbCircle
 10
222.372513
 20
102.231697
 30
0.0
 40
32.00000000000124
100
AcDbArc
 50
255.0
 51
293.624833
  0
ARC
  5
42C
102
{ACAD_REACTORS
330
44E
102
}
330
1F
100
AcDbEntity
  8
LC-001-002-----0
  6
DASHED
 62
     7
370
    25
100
AcDbCircle
 10
222.276349
 20
102.257464
 30
0.0
 40
29.7000000000002
100
AcDbArc
 50
34.995438
 51
54.721682
  0
ARC
  5
42D
102
{ACAD_REACTORS
330
44E
102
}
330
1F
100
AcDbEntity
  8
LC-001-002-----0
  6
DASHED
 62
     7
370
    25
100
AcDbCircle
 10
222.276349
 20
102.257464
 30
0.0
 40
29.70000000000012
100
AcDbArc
 50
240.858695
 51
295.004562
  0
LINE
  5
42E
330
1F
100
AcDbEntity
  8
LC-001-002-----0
  6
DASHED
 62
     7
370
    25
100
AcDbLine
 10
246.606521
 20
119.290747
 30
0.0
 11
234.830254
 21
75.341122
 31
0.0
  0
INSERT
  5
44D
330
1F
100
AcDbEntity
  8
LC-006-003-----0
 62
     7
370
    25
100
AcDbBlockReference
  2
LCDIM1
 10
0.0
 20
0.0
 30
0.0
  0
ENDSEC
  0
SECTION
  2
OBJECTS
  0
DICTIONARY
  5
C
330
0
100
AcDbDictionary
281
     1
  3
ACAD_GROUP
350
D
  3
ACAD_LAYOUT
350
1A
  3
ACAD_MLINESTYLE
350
17
  3
ACAD_PLOTSETTINGS
350
19
  3
ACAD_PLOTSTYLENAME
350
E
  0
DICTIONARY
  5
D
102
{ACAD_REACTORS
330
C
102
}
330
C
100
AcDbDictionary
281
     1
  3
LCGROUP151
350
458
  3
LCGROUP152
350
457
  3
LCGROUP196
350
459
  3
LCGROUP201
350
45A
  3
LCGROUP277
350
450
  3
LCGROUP345
350
454
  3
LCGROUP350
350
453
  3
LCGROUP372
350
455
  3
LCGROUP399
350
456
  3
LCGROUP595
350
451
  3
LCGROUP598
350
452
  3
LCGROUP822
350
44F
  3
LCGROUP830
350
44E
  0
DICTIONARY
  5
1A
102
{ACAD_REACTORS
330
C
102
}
330
C
100
AcDbDictionary
281
     1
  3
Layout1
350
1E
  3
Layout2
350
26
  3
Model
350
22
  0
DICTIONARY
  5
17
102
{ACAD_REACTORS
330
C
102
}
330
C
100
AcDbDictionary
281
     1
  3
Standard
350
18
  0
DICTIONARY
  5
19
102
{ACAD_REACTORS
330
C
102
}
330
C
100
AcDbDictionary
281
     1
  0
ACDBDICTIONARYWDFLT
  5
E
102
{ACAD_REACTORS
330
C
102
}
330
C
100
AcDbDictionary
281
     1
  3
Normal
350
F
100
AcDbDictionaryWithDefault
340
F
  0
GROUP
  5
458
102
{ACAD_REACTORS
330
D
102
}
330
D
100
AcDbGroup
300
gehause-LCMaster-LCGROUP153
 70
     1
 71
     1
340
32
340
34
340
4A
340
62
340
63
340
64
340
67
340
68
340
69
340
6A
340
6B
340
6C
340
6D
340
6E
340
6F
340
70
340
71
340
72
340
73
340
74
340
75
340
76
340
77
340
78
340
7E
340
7F
340
D1
340
D2
340
D4
340
F3
340
F4
340
F5
340
F6
340
F7
340
F9
340
FA
340
FB
340
FC
340
FD
340
FE
340
FF
340
100
340
101
340
102
340
103
340
104
340
105
340
106
340
107
340
108
340
109
340
10A
340
10D
340
10E
340
10F
340
110
340
111
340
112
340
113
340
114
340
115
340
116
340
117
340
118
340
119
340
11A
  0
GROUP
  5
457
102
{ACAD_REACTORS
330
D
102
}
330
D
100
AcDbGroup
300
Gehõusedeckel-LCMaster-LCGROUP153
 70
     1
 71
     1
340
33
340
125
340
126
340
137
340
138
340
139
340
13A
340
13B
340
13C
340
13D
340
13E
340
13F
340
140
340
141
340
142
340
143
340
144
340
145
340
146
340
147
340
148
340
149
340
14A
340
14B
340
14C
340
14D
340
14E
340
14F
340
150
340
151
340
152
340
153
340
154
340
155
340
156
340
157
340
158
340
159
340
15A
340
15B
340
15C
340
15D
340
15E
340
15F
340
160
340
166
340
167
340
168
340
169
340
177
340
178
340
191
340
1B0
340
1B1
340
1B2
340
1B3
340
1B4
340
1B5
340
1B6
340
1B7
340
1B8
340
1B9
340
1BA
340
1BB
340
1BC
340
1BD
340
1BE
340
1BF
340
1C0
340
1C1
  0
GROUP
  5
459
102
{ACAD_REACTORS
330
D
102
}
330
D
100
AcDbGroup
300
GRP196
 70
     1
 71
     1
340
1C6
340
1C7
340
1C8
340
1C9
340
1DF
340
1F6
340
1F7
340
1F8
340
1F9
340
1FA
340
1FB
340
1FC
340
1FD
340
1FE
340
1FF
340
200
340
201
340
202
340
203
340
204
340
205
340
206
340
207
340
208
340
209
340
20A
340
20B
340
20C
340
20D
340
20E
340
20F
340
210
340
211
340
212
340
213
340
214
340
215
340
216
  0
GROUP
  5
45A
102
{ACAD_REACTORS
330
D
102
}
330
D
100
AcDbGroup
300
GRP201
 70
     1
 71
     1
340
65
  0
GROUP
  5
450
102
{ACAD_REACTORS
330
D
102
}
330
D
100
AcDbGroup
300
GRP277
 70
     1
 71
     1
340
217
340
218
340
219
340
21A
340
21B
340
229
340
22A
340
22B
340
22C
340
22D
340
22E
340
22F
340
230
340
231
340
232
340
233
340
234
340
235
340
236
340
237
340
238
340
239
340
23A
340
23B
340
23C
340
23D
340
23E
340
23F
340
240
340
241
340
242
340
243
340
244
340
245
340
246
340
247
340
248
340
249
340
296
340
297
340
298
340
299
340
29A
340
29B
340
29C
340
29D
340
29E
340
29F
340
2A0
340
2A1
340
2A2
340
2A3
340
2A4
340
2A5
340
2A6
340
2A7
340
2A8
340
2A9
340
2AA
340
2AB
340
2AC
340
2AD
340
2AE
340
2FD
340
2FE
340
2FF
340
300
340
301
340
302
340
303
340
304
340
305
340
306
340
307
340
308
340
309
  0
GROUP
  5
454
102
{ACAD_REACTORS
330
D
102
}
330
D
100
AcDbGroup
300
GRP345
 70
     1
 71
     1
340
317
340
318
340
319
340
31A
340
31B
340
31C
340
31D
340
31E
340
31F
340
320
340
321
340
322
340
323
340
324
340
32E
340
32F
340
330
340
331
340
332
340
333
340
334
340
335
340
336
340
337
340
338
340
339
340
33A
340
33B
340
33C
340
33D
340
33E
340
33F
340
340
340
341
340
342
340
343
340
344
340
345
340
346
340
347
340
348
340
349
340
34A
340
34B
340
34C
340
34D
340
34E
340
34F
340
350
340
351
340
352
340
353
340
354
  0
GROUP
  5
453
102
{ACAD_REACTORS
330
D
102
}
330
D
100
AcDbGroup
300
O ring
 70
     1
 71
     1
340
355
340
35B
340
35C
340
362
  0
GROUP
  5
455
102
{ACAD_REACTORS
330
D
102
}
330
D
100
AcDbGroup
300
GRP372
 70
     1
 71
     1
340
36E
340
36F
340
370
340
371
340
372
340
373
340
374
340
375
340
376
340
377
340
378
340
379
340
37A
340
37B
340
37C
340
37D
340
37E
340
37F
340
380
340
381
340
382
  0
GROUP
  5
456
102
{ACAD_REACTORS
330
D
102
}
330
D
100
AcDbGroup
300
Stutzen
 70
     1
 71
     1
340
1C2
340
1C3
340
1C5
340
384
340
385
340
386
340
387
340
388
340
389
340
38A
340
38B
340
38C
340
38D
340
38E
340
38F
340
39F
340
3A0
340
3A1
340
3A2
340
3F8
340
3F9
340
3FA
340
3FB
  0
GROUP
  5
451
102
{ACAD_REACTORS
330
D
102
}
330
D
100
AcDbGroup
300
FLEX754-LCMaster-LCGROUP598
 70
     1
 71
     1
340
404
  0
GROUP
  5
452
102
{ACAD_REACTORS
330
D
102
}
330
D
100
AcDbGroup
300
GRP598
 70
     1
 71
     1
340
39E
340
3FC
340
3FD
340
3FE
340
3FF
340
400
340
401
340
402
  0
GROUP
  5
44F
102
{ACAD_REACTORS
330
D
102
}
330
D
100
AcDbGroup
300
GRP822-LCMaster-LCGROUP345
 70
     1
 71
     1
340
413
340
414
340
415
340
416
340
417
340
418
  0
GROUP
  5
44E
102
{ACAD_REACTORS
330
D
102
}
330
D
100
AcDbGroup
300
GRP830
 70
     1
 71
     1
340
419
340
41A
340
41B
340
41C
340
41D
340
41E
340
41F
340
420
340
421
340
422
340
423
340
424
340
425
340
426
340
427
340
428
340
429
340
42A
340
42B
340
42C
340
42D
  0
LAYOUT
  5
1E
102
{ACAD_REACTORS
330
1A
102
}
330
1A
100
AcDbPlotSettings
  1

  2

  4

  6

 40
0.0
 41
0.0
 42
0.0
 43
0.0
 44
0.0
 45
0.0
 46
0.0
 47
0.0
 48
0.0
 49
0.0
140
0.0
141
0.0
142
1.0
143
1.0
 70
   688
 72
     0
 73
     0
 74
     5
  7

 75
    16
147
1.0
148
0.0
149
0.0
100
AcDbLayout
  1
Layout1
 70
     1
 71
     1
 10
-210.0
 20
-148.5
 11
630.0
 21
445.5
 12
0.0
 22
0.0
 32
0.0
 14
-210.0
 24
-148.5
 34
0.0
 15
630.0
 25
445.5
 35
0.0
146
0.0
 13
0.0
 23
0.0
 33
0.0
 16
1.0
 26
0.0
 36
0.0
 17
0.0
 27
1.0
 37
0.0
 76
     0
330
1B
  0
LAYOUT
  5
26
102
{ACAD_REACTORS
330
1A
102
}
330
1A
100
AcDbPlotSettings
  1

  2

  4

  6

 40
0.0
 41
0.0
 42
0.0
 43
0.0
 44
0.0
 45
0.0
 46
0.0
 47
0.0
 48
0.0
 49
0.0
140
0.0
141
0.0
142
1.0
143
1.0
 70
   688
 72
     0
 73
     0
 74
     5
  7

 75
    16
147
1.0
148
0.0
149
0.0
100
AcDbLayout
  1
Layout2
 70
     1
 71
     2
 10
0.0
 20
0.0
 11
0.0
 21
0.0
 12
0.0
 22
0.0
 32
0.0
 14
0.0
 24
0.0
 34
0.0
 15
0.0
 25
0.0
 35
0.0
146
0.0
 13
0.0
 23
0.0
 33
0.0
 16
1.0
 26
0.0
 36
0.0
 17
0.0
 27
1.0
 37
0.0
 76
     0
330
23
  0
LAYOUT
  5
22
102
{ACAD_REACTORS
330
1A
102
}
330
1A
100
AcDbPlotSettings
  1

  2

  4

  6

 40
0.0
 41
0.0
 42
0.0
 43
0.0
 44
0.0
 45
0.0
 46
0.0
 47
0.0
 48
0.0
 49
0.0
140
0.0
141
0.0
142
1.0
143
1.0
 70
  1776
 72
     0
 73
     0
 74
     0
  7

 75
     0
147
1.0
148
0.0
149
0.0
100
AcDbLayout
  1
Model
 70
     1
 71
     0
 10
-210.0
 20
-148.5
 11
630.0
 21
445.5
 12
0.0
 22
0.0
 32
0.0
 14
-210.0
 24
-148.5
 34
0.0
 15
630.0
 25
445.5
 35
0.0
146
0.0
 13
0.0
 23
0.0
 33
0.0
 16
1.0
 26
0.0
 36
0.0
 17
0.0
 27
1.0
 37
0.0
 76
     0
330
1F
  0
MLINESTYLE
  5
18
102
{ACAD_REACTORS
330
17
102
}
330
17
100
AcDbMlineStyle
  2
Standard
 70
     0
  3

 62
   256
 51
90.0
 52
90.0
 71
     2
 49
0.5
 62
   256
  6
BYLAYER
 49
-0.5
 62
   256
  6
BYLAYER
  0
ACDBPLACEHOLDER
  5
F
102
{ACAD_REACTORS
330
E
102
}
330
E
  0
ENDSEC
  0
EOF
