  0
SECTION
  2
HEADER
  9
$ACADVER
  1
AC1009
  9
$INSBASE
 10
0.0
 20
0.0
 30
0.0
  9
$EXTMIN
 10
-231.687089
 20
-82.014
 30
0.0
  9
$EXTMAX
 10
956.312911
 20
757.986
 30
0.0
  9
$LIMMIN
 10
-231.687089
 20
-82.014
  9
$LIMMAX
 10
956.312911
 20
757.986
  9
$ORTHOMODE
 70
     0
  9
$REGENMODE
 70
     1
  9
$FILLMODE
 70
     1
  9
$QTEXTMODE
 70
     0
  9
$MIRRTEXT
 70
     1
  9
$DRAGMODE
 70
     2
  9
$LTSCALE
 40
2.0
  9
$OSMODE
 70
     0
  9
$ATTMODE
 70
     1
  9
$TEXTSIZE
 40
0.2
  9
$TRACEWID
 40
0.05
  9
$TEXTSTYLE
  7
STANDARD
  9
$CLAYER
  8
0
  9
$CELTYPE
  6
BYLAYER
  9
$CECOLOR
 62
     7
  9
$DIMSCALE
 40
2.0
  9
$DIMASZ
 40
3.5
  9
$DIMEXO
 40
0.0625
  9
$DIMDLI
 40
0.38
  9
$DIMRND
 40
0.0
  9
$DIMDLE
 40
0.0
  9
$DIMEXE
 40
0.18
  9
$DIMTP
 40
0.0
  9
$DIMTM
 40
0.0
  9
$DIMTXT
 40
3.5
  9
$DIMCEN
 40
0.09
  9
$DIMTSZ
 40
0.0
  9
$DIMTOL
 70
     0
  9
$DIMLIM
 70
     0
  9
$DIMTIH
 70
     1
  9
$DIMTOH
 70
     1
  9
$DIMSE1
 70
     0
  9
$DIMSE2
 70
     0
  9
$DIMTAD
 70
     1
  9
$DIMZIN
 70
     0
  9
$DIMBLK
  1

  9
$DIMASO
 70
     1
  9
$DIMSHO
 70
     1
  9
$DIMPOST
  1

  9
$DIMAPOST
  1

  9
$DIMALT
 70
     0
  9
$DIMALTD
 70
     2
  9
$DIMALTF
 40
25.4
  9
$DIMLFAC
 40
1.0
  9
$DIMTOFL
 70
     0
  9
$DIMTVP
 40
0.0
  9
$DIMTIX
 70
     0
  9
$DIMSOXD
 70
     0
  9
$DIMSAH
 70
     0
  9
$DIMBLK1
  1

  9
$DIMBLK2
  1

  9
$DIMSTYLE
  2
STANDARD
  9
$DIMCLRD
 70
     0
  9
$DIMCLRE
 70
     0
  9
$DIMCLRT
 70
     0
  9
$DIMTFAC
 40
1.0
  9
$DIMGAP
 40
0.09
  9
$LUNITS
 70
     2
  9
$LUPREC
 70
     2
  9
$AXISMODE
 70
     0
  9
$AXISUNIT
 10
0.0
 20
0.0
  9
$SKETCHINC
 40
0.1
  9
$FILLETRAD
 40
0.0
  9
$AUNITS
 70
     0
  9
$AUPREC
 70
     0
  9
$MENU
  1
acad
  9
$ELEVATION
 40
0.0
  9
$PELEVATION
 40
0.0
  9
$THICKNESS
 40
0.0
  9
$LIMCHECK
 70
     0
  9
$BLIPMODE
 70
     1
  9
$CHAMFERA
 40
0.0
  9
$CHAMFERB
 40
0.0
  9
$SKPOLY
 70
     0
  9
$TDCREATE
 40
0.000000000
  9
$TDUPDATE
 40
0.000000000
  9
$TDINDWG
 40
0.0000000000
  9
$TDUSRTIMER
 40
0.0000000000
  9
$USRTIMER
 70
     1
  9
$ANGBASE
 50
0.0
  9
$ANGDIR
 70
     0
  9
$PDMODE
 70
     0
  9
$PDSIZE
 40
0.0
  9
$PLINEWID
 40
0.0
  9
$COORDS
 70
     0
  9
$SPLFRAME
 70
     0
  9
$SPLINETYPE
 70
     6
  9
$SPLINESEGS
 70
     8
  9
$ATTDIA
 70
     0
  9
$ATTREQ
 70
     1
  9
$HANDLING
 70
     1
  9
$HANDSEED
  5
67C
  9
$SURFTAB1
 70
     6
  9
$SURFTAB2
 70
     6
  9
$SURFTYPE
 70
     6
  9
$SURFU
 70
     6
  9
$SURFV
 70
     6
  9
$UCSNAME
  2

  9
$UCSORG
 10
0.0
 20
0.0
 30
0.0
  9
$UCSXDIR
 10
1.0
 20
0.0
 30
0.0
  9
$UCSYDIR
 10
0.0
 20
1.0
 30
0.0
  9
$PUCSNAME
  2

  9
$PUCSORG
 10
0.0
 20
0.0
 30
0.0
  9
$PUCSXDIR
 10
1.0
 20
0.0
 30
0.0
  9
$PUCSYDIR
 10
0.0
 20
1.0
 30
0.0
  9
$USERI1
 70
     0
  9
$USERI2
 70
     0
  9
$USERI3
 70
     0
  9
$USERI4
 70
     0
  9
$USERI5
 70
     0
  9
$USERR1
 40
0.0
  9
$USERR2
 40
0.0
  9
$USERR3
 40
0.0
  9
$USERR4
 40
0.0
  9
$USERR5
 40
0.0
  9
$WORLDVIEW
 70
     1
  9
$SHADEDGE
 70
     3
  9
$SHADEDIF
 70
    70
  9
$TILEMODE
 70
     1
  9
$MAXACTVP
 70
    16
  9
$PINSBASE
 10
0.0
 20
0.0
 30
0.0
  9
$PLIMCHECK
 70
     0
  9
$PEXTMIN
 10
1.000000E+20
 20
1.000000E+20
 30
1.000000E+20
  9
$PEXTMAX
 10
-1.000000E+20
 20
-1.000000E+20
 30
-1.000000E+20
  9
$PLIMMIN
 10
-231.687089
 20
-82.014
  9
$PLIMMAX
 10
956.312911
 20
757.986
  9
$UNITMODE
 70
     0
  9
$VISRETAIN
 70
     0
  9
$PLINEGEN
 70
     1
  9
$PSLTSCALE
 70
     0
  9
$TREEDEPTH
 70
  3020
  9
$DWGCODEPAGE
  3
dos850
  0
ENDSEC
  0
SECTION
  2
TABLES
  0
TABLE
  2
VPORT
 70
     1
  0
VPORT
  2
*ACTIVE
 70
     0
 10
0.0
 20
0.0
 11
1.0
 21
1.0
 12
594.0
 22
420.0
 13
0.0
 23
0.0
 14
1.0
 24
1.0
 15
0.0
 25
0.0
 16
0.0
 26
0.0
 36
1.0
 17
-231.687089
 27
-82.014
 37
0.0
 40
840.0
 41
1.604229
 42
50.0
 43
0.0
 44
0.0
 50
0.0
 51
0.0
 71
     0
 72
   100
 73
     1
 74
     1
 75
     0
 76
     0
 77
     0
 78
     0
  0
ENDTAB
  0
TABLE
  2
LTYPE
 70
     4
  0
LTYPE
  2
CONTINUOUS
 70
    64
  3
Solid line
 72
    65
 73
     0
 40
0.0
  0
LTYPE
  2
DASHDOT
 70
    64
  3
__ . __ . __ . __ . __
 72
    65
 73
     4
 40
7.5
 49
5.0
 49
-1.25
 49
0.0
 49
-1.25
  0
LTYPE
  2
DASHED
 70
    64
  3
__ __ __ __ __
 72
    65
 73
     2
 40
6.25
 49
5.0
 49
-1.25
  0
LTYPE
  2
CENTER
 70
    64
  3
__ . __ . __ . __ . __
 72
    65
 73
     4
 40
7.5
 49
5.0
 49
-1.25
 49
0.0
 49
-1.25
  0
ENDTAB
  0
TABLE
  2
LAYER
 70
    13
  0
LAYER
  2
0
 70
     0
 62
     7
  6
CONTINUOUS
  0
LAYER
  2
LC-INFO-1-2-MM-A2-0
 70
     1
 62
    -1
  6
CONTINUOUS
  0
LAYER
  2
LC-004-003-MTH-0
 70
     0
 62
     2
  6
CONTINUOUS
  0
LAYER
  2
LC-005-003-MTG-0
 70
     0
 62
     2
  6
CONTINUOUS
  0
LAYER
  2
LC-003-003-----0
 70
     0
 62
     2
  6
CONTINUOUS
  0
LAYER
  2
LC-002-002-----0
 70
     0
 62
     1
  6
CONTINUOUS
  0
LAYER
  2
LC-007-000-----0
 70
     0
 62
     7
  6
CONTINUOUS
  0
LAYER
  2
LC-009-000-----0
 70
     0
 62
     7
  6
CONTINUOUS
  0
LAYER
  2
LC-001-002-RND-0
 70
     0
 62
     1
  6
CONTINUOUS
  0
LAYER
  2
LC-006-002-___-0
 70
     0
 62
     2
  6
DASHED
  0
LAYER
  2
LC-008-001-----0
 70
     0
 62
     2
  6
DASHDOT
  0
LAYER
  2
LC-010-006-MLN-0
 70
     0
 62
     2
  6
CENTER
  0
LAYER
  2
LC-000
 70
     0
 62
     7
  6
CONTINUOUS
  0
ENDTAB
  0
TABLE
  2
STYLE
 70
     3
  0
STYLE
  2
STANDARD
 70
     0
 40
0.0
 41
1.0
 50
0.0
 71
     0
 42
0.0
  3
txt
  4

  0
STYLE
  2
LC-TXTSTYLE-150-400-0-0-A1
 70
    64
 40
0.0
 41
1.0
 50
15.0
 71
     0
 42
3.5
  3
Arial
  4

  0
STYLE
  2
LC-STANDARD
 70
    64
 40
0.0
 41
1.0
 50
0.0
 71
     0
 42
3.5
  3
MONOTXT
  4

  0
ENDTAB
  0
TABLE
  2
VIEW
 70
     0
  0
ENDTAB
  0
TABLE
  2
UCS
 70
     0
  0
ENDTAB
  0
TABLE
  2
APPID
 70
     1
  0
APPID
  2
ACAD
 70
     0
  0
ENDTAB
  0
TABLE
  2
DIMSTYLE
 70
     3
  0
DIMSTYLE
  2
STANDARD
 70
     0
  3

  4

  5

  6

  7

 40
1.0
 41
0.18
 42
0.0625
 43
0.38
 44
0.18
 45
0.0
 46
0.0
 47
0.0
 48
0.0
 71
     0
 72
     0
 73
     1
 74
     1
 75
     0
 76
     0
 77
     0
 78
     0
140
0.18
141
0.09
142
0.0
143
25.4
144
1.0
145
0.0
146
1.0
147
0.09
170
     0
171
     2
172
     0
173
     0
174
     0
175
     0
176
     0
177
     0
178
     0
  0
DIMSTYLE
  2
LC-STANDARD
 70
     0
  3

  4

  5

  6

  7

 40
1.0
 41
3.5
 42
0.0
 43
7.5
 44
1.8
 45
0.0
 46
0.0
 47
0.0
 48
0.0
 71
     0
 72
     0
 73
     0
 74
     0
 75
     0
 76
     0
 77
     1
 78
     8
140
3.5
141
0.0
142
0.0
143
25.4
144
1.0
145
0.0
146
0.71
147
1.5
170
     0
171
     2
172
     1
173
     0
174
     0
175
     0
176
     0
177
     0
178
     3
  0
DIMSTYLE
  2
LC-DIM-L-0140-02-02
 70
     0
  3

  4

  5

  6

  7

 40
2.0
 41
3.5
 42
0.0
 43
7.5
 44
1.8
 45
0.0
 46
0.0
 47
0.0
 48
0.0
 71
     0
 72
     0
 73
     0
 74
     0
 75
     0
 76
     0
 77
     1
 78
     8
140
14.0
141
0.0
142
0.0
143
25.4
144
1.0
145
0.0
146
0.71
147
1.5
170
     0
171
     2
172
     0
173
     0
174
     0
175
     0
176
     2
177
     2
178
     8
  0
ENDTAB
  0
ENDSEC
  0
SECTION
  2
BLOCKS
  0
BLOCK
  8
0
  5
23
  2
*D0
 70
    65
 10
0.0
 20
0.0
 30
0.0
  3
*D0
  0
LINE
  8
LC-004-003-MTH-0
  6
CONTINUOUS
  5
25
 10
233.36978
 20
469.867992
 30
0.0
 11
233.36978
 21
565.6
 31
0.0
  0
LINE
  8
LC-004-003-MTH-0
  6
CONTINUOUS
  5
26
 10
513.36978
 20
469.867992
 30
0.0
 11
513.36978
 21
565.6
 31
0.0
  0
LINE
  8
LC-005-003-MTG-0
  6
CONTINUOUS
  5
28
 10
233.36978
 20
548.8
 30
0.0
 11
513.36978
 21
548.8
 31
0.0
  0
LINE
  8
LC-003-003-----0
  6
CONTINUOUS
  5
2A
 10
261.130236
 20
552.454733
 30
0.0
 11
233.36978
 21
548.8
 31
0.0
  0
LINE
  8
LC-003-003-----0
  6
CONTINUOUS
  5
2B
 10
233.36978
 20
548.8
 30
0.0
 11
261.130236
 21
545.145267
 31
0.0
  0
LINE
  8
LC-003-003-----0
  6
CONTINUOUS
  5
2C
 10
261.130236
 20
545.145267
 30
0.0
 11
261.130236
 21
552.454733
 31
0.0
  0
LINE
  8
LC-003-003-----0
  6
CONTINUOUS
  5
2D
 10
261.192517
 20
551.504503
 30
0.0
 11
240.64978
 21
548.8
 31
0.0
  0
LINE
  8
LC-003-003-----0
  6
CONTINUOUS
  5
2E
 10
240.64978
 20
548.8
 30
0.0
 11
261.192517
 21
546.095497
 31
0.0
  0
LINE
  8
LC-003-003-----0
  6
CONTINUOUS
  5
2F
 10
261.254799
 20
550.554272
 30
0.0
 11
247.92978
 21
548.8
 31
0.0
  0
LINE
  8
LC-003-003-----0
  6
CONTINUOUS
  5
30
 10
247.92978
 20
548.8
 30
0.0
 11
261.254799
 21
547.045728
 31
0.0
  0
LINE
  8
LC-003-003-----0
  6
CONTINUOUS
  5
31
 10
261.31708
 20
549.604041
 30
0.0
 11
255.20978
 21
548.8
 31
0.0
  0
LINE
  8
LC-003-003-----0
  6
CONTINUOUS
  5
32
 10
255.20978
 20
548.8
 30
0.0
 11
261.31708
 21
547.995959
 31
0.0
  0
LINE
  8
LC-003-003-----0
  6
CONTINUOUS
  5
33
 10
485.609324
 20
545.145267
 30
0.0
 11
513.36978
 21
548.8
 31
0.0
  0
LINE
  8
LC-003-003-----0
  6
CONTINUOUS
  5
34
 10
513.36978
 20
548.8
 30
0.0
 11
485.609324
 21
552.454733
 31
0.0
  0
LINE
  8
LC-003-003-----0
  6
CONTINUOUS
  5
35
 10
485.609324
 20
552.454733
 30
0.0
 11
485.609324
 21
545.145267
 31
0.0
  0
LINE
  8
LC-003-003-----0
  6
CONTINUOUS
  5
36
 10
485.547042
 20
546.095497
 30
0.0
 11
506.08978
 21
548.8
 31
0.0
  0
LINE
  8
LC-003-003-----0
  6
CONTINUOUS
  5
37
 10
506.08978
 20
548.8
 30
0.0
 11
485.547042
 21
551.504503
 31
0.0
  0
LINE
  8
LC-003-003-----0
  6
CONTINUOUS
  5
38
 10
485.484761
 20
547.045728
 30
0.0
 11
498.80978
 21
548.8
 31
0.0
  0
LINE
  8
LC-003-003-----0
  6
CONTINUOUS
  5
39
 10
498.80978
 20
548.8
 30
0.0
 11
485.484761
 21
550.554272
 31
0.0
  0
LINE
  8
LC-003-003-----0
  6
CONTINUOUS
  5
3A
 10
485.422479
 20
547.995959
 30
0.0
 11
491.52978
 21
548.8
 31
0.0
  0
LINE
  8
LC-003-003-----0
  6
CONTINUOUS
  5
3B
 10
491.52978
 20
548.8
 30
0.0
 11
485.422479
 21
549.604041
 31
0.0
  0
TEXT
  8
LC-003-003-----0
  6
CONTINUOUS
 62
     8
  5
3C
 10
351.31464
 20
556.627554
 30
0.0
 40
28.0
  1
280
 41
0.9
 51
15.0
  7
LC-TXTSTYLE-150-400-0-0-A0
 72
     1
 11
377.71794
 21
556.627554
 31
0.0
  0
ENDBLK
  8
0
  5
3D
  0
BLOCK
  8
0
  5
3F
  2
*D1
 70
    65
 10
0.0
 20
0.0
 30
0.0
  3
*D1
  0
LINE
  8
LC-004-003-MTH-0
  6
CONTINUOUS
  5
40
 10
-7.511835
 20
377.209984
 30
0.0
 11
-7.511835
 21
296.8
 31
0.0
  0
LINE
  8
LC-004-003-MTH-0
  6
CONTINUOUS
  5
41
 10
93.329174
 20
354.209984
 30
0.0
 11
93.329174
 21
296.8
 31
0.0
  0
LINE
  8
LC-003-003-----0
  6
CONTINUOUS
  5
42
 10
-35.272291
 20
309.945267
 30
0.0
 11
-7.511835
 21
313.6
 31
0.0
  0
LINE
  8
LC-003-003-----0
  6
CONTINUOUS
  5
43
 10
-7.511835
 20
313.6
 30
0.0
 11
-35.272291
 21
317.254733
 31
0.0
  0
LINE
  8
LC-003-003-----0
  6
CONTINUOUS
  5
44
 10
-35.272291
 20
317.254733
 30
0.0
 11
-35.272291
 21
309.945267
 31
0.0
  0
LINE
  8
LC-003-003-----0
  6
CONTINUOUS
  5
45
 10
-35.334572
 20
310.895497
 30
0.0
 11
-14.791835
 21
313.6
 31
0.0
  0
LINE
  8
LC-003-003-----0
  6
CONTINUOUS
  5
46
 10
-14.791835
 20
313.6
 30
0.0
 11
-35.334572
 21
316.304503
 31
0.0
  0
LINE
  8
LC-003-003-----0
  6
CONTINUOUS
  5
47
 10
-35.396854
 20
311.845728
 30
0.0
 11
-22.071835
 21
313.6
 31
0.0
  0
LINE
  8
LC-003-003-----0
  6
CONTINUOUS
  5
48
 10
-22.071835
 20
313.6
 30
0.0
 11
-35.396854
 21
315.354272
 31
0.0
  0
LINE
  8
LC-003-003-----0
  6
CONTINUOUS
  5
49
 10
-35.459135
 20
312.795959
 30
0.0
 11
-29.351835
 21
313.6
 31
0.0
  0
LINE
  8
LC-003-003-----0
  6
CONTINUOUS
  5
4A
 10
-29.351835
 20
313.6
 30
0.0
 11
-35.459135
 21
314.404041
 31
0.0
  0
LINE
  8
LC-003-003-----0
  6
CONTINUOUS
  5
4B
 10
121.08963
 20
317.254733
 30
0.0
 11
93.329174
 21
313.6
 31
0.0
  0
LINE
  8
LC-003-003-----0
  6
CONTINUOUS
  5
4C
 10
93.329174
 20
313.6
 30
0.0
 11
121.08963
 21
309.945267
 31
0.0
  0
LINE
  8
LC-003-003-----0
  6
CONTINUOUS
  5
4D
 10
121.08963
 20
309.945267
 30
0.0
 11
121.08963
 21
317.254733
 31
0.0
  0
LINE
  8
LC-003-003-----0
  6
CONTINUOUS
  5
4E
 10
121.151912
 20
316.304503
 30
0.0
 11
100.609174
 21
313.6
 31
0.0
  0
LINE
  8
LC-003-003-----0
  6
CONTINUOUS
  5
4F
 10
100.609174
 20
313.6
 30
0.0
 11
121.151912
 21
310.895497
 31
0.0
  0
LINE
  8
LC-003-003-----0
  6
CONTINUOUS
  5
50
 10
121.214193
 20
315.354272
 30
0.0
 11
107.889174
 21
313.6
 31
0.0
  0
LINE
  8
LC-003-003-----0
  6
CONTINUOUS
  5
51
 10
107.889174
 20
313.6
 30
0.0
 11
121.214193
 21
311.845728
 31
0.0
  0
LINE
  8
LC-003-003-----0
  6
CONTINUOUS
  5
52
 10
121.276475
 20
314.404041
 30
0.0
 11
115.169174
 21
313.6
 31
0.0
  0
LINE
  8
LC-003-003-----0
  6
CONTINUOUS
  5
53
 10
115.169174
 20
313.6
 30
0.0
 11
121.276475
 21
312.795959
 31
0.0
  0
LINE
  8
LC-005-003-MTG-0
  6
CONTINUOUS
  5
54
 10
-154.217485
 20
313.6
 30
0.0
 11
132.529174
 21
313.6
 31
0.0
  0
TEXT
  8
LC-003-003-----0
  6
CONTINUOUS
 62
     8
  5
55
 10
-139.789325
 20
321.427554
 30
0.0
 40
28.0
  1
73-120
 41
0.9
 51
15.0
  7
LC-TXTSTYLE-150-400-0-0-A0
 72
     2
 11
-41.243675
 21
321.427554
 31
0.0
  0
ENDBLK
  8
0
  5
56
  0
BLOCK
  8
0
  5
58
  2
BLK1
 70
    64
 10
0.0
 20
0.0
 30
0.0
  3
BLK1
  0
ENDBLK
  8
0
  5
59
  0
BLOCK
  8
0
  5
5B
  2
BLK2
 70
    64
 10
0.0
 20
0.0
 30
0.0
  3
BLK2
  0
ENDBLK
  8
0
  5
5C
  0
BLOCK
  8
0
  5
5E
  2
BLK3
 70
    64
 10
0.0
 20
0.0
 30
0.0
  3
BLK3
  0
ARC
  8
LC-002-002-----0
  6
CONTINUOUS
  5
60
 10
-23.349806
 20
427.231913
 30
0.0
 40
9.83811
 50
359.872289
 51
13.365334
  0
ARC
  8
LC-002-002-----0
  6
CONTINUOUS
  5
61
 10
-20.858148
 20
427.867605
 30
0.0
 40
7.267114
 50
13.030219
 51
29.559062
  0
ARC
  8
LC-002-002-----0
  6
CONTINUOUS
  5
62
 10
-18.139135
 20
429.453711
 30
0.0
 40
4.119707
 50
29.026018
 51
53.217709
  0
ARC
  8
LC-002-002-----0
  6
CONTINUOUS
  5
63
 10
-17.049404
 20
430.907185
 30
0.0
 40
2.303092
 50
53.279362
 51
89.063148
  0
ARC
  8
LC-002-002-----0
  6
CONTINUOUS
  5
64
 10
-16.974071
 20
430.907186
 30
0.0
 40
2.303092
 50
90.937358
 51
126.721144
  0
ARC
  8
LC-002-002-----0
  6
CONTINUOUS
  5
65
 10
-15.884326
 20
429.453721
 30
0.0
 40
4.119707
 50
126.782797
 51
150.974488
  0
ARC
  8
LC-002-002-----0
  6
CONTINUOUS
  5
66
 10
-13.1653
 20
427.867638
 30
0.0
 40
7.267114
 50
150.441444
 51
166.970286
  0
ARC
  8
LC-002-002-----0
  6
CONTINUOUS
  5
67
 10
-10.673636
 20
427.231969
 30
0.0
 40
9.83811
 50
166.635171
 51
180.128216
  0
ARC
  8
LC-002-002-----0
  6
CONTINUOUS
  5
68
 10
-10.673636
 20
427.188025
 30
0.0
 40
9.83811
 50
179.872289
 51
193.365334
  0
ARC
  8
LC-002-002-----0
  6
CONTINUOUS
  5
69
 10
-13.165294
 20
426.552333
 30
0.0
 40
7.267114
 50
193.030219
 51
209.559062
  0
ARC
  8
LC-002-002-----0
  6
CONTINUOUS
  5
6A
 10
-15.884307
 20
424.966227
 30
0.0
 40
4.119707
 50
209.026018
 51
233.217709
  0
ARC
  8
LC-002-002-----0
  6
CONTINUOUS
  5
6B
 10
-16.974038
 20
423.512753
 30
0.0
 40
2.303092
 50
233.279362
 51
269.063148
  0
ARC
  8
LC-002-002-----0
  6
CONTINUOUS
  5
6C
 10
-17.049371
 20
423.512752
 30
0.0
 40
2.303092
 50
270.937358
 51
306.721144
  0
ARC
  8
LC-002-002-----0
  6
CONTINUOUS
  5
6D
 10
-18.139115
 20
424.966217
 30
0.0
 40
4.119707
 50
306.782797
 51
330.974488
  0
ARC
  8
LC-002-002-----0
  6
CONTINUOUS
  5
6E
 10
-20.858142
 20
426.5523
 30
0.0
 40
7.267114
 50
330.441444
 51
346.970286
  0
ARC
  8
LC-002-002-----0
  6
CONTINUOUS
  5
6F
 10
-23.349806
 20
427.187969
 30
0.0
 40
9.83811
 50
346.635171
 51
0.128216
  0
ENDBLK
  8
0
  5
70
  0
BLOCK
  8
0
  5
72
  2
BLK4
 70
    64
 10
0.0
 20
0.0
 30
0.0
  3
BLK4
  0
ARC
  8
LC-002-002-----0
  6
CONTINUOUS
  5
73
 10
-19.03903
 20
414.23998
 30
0.0
 40
5.522367
 50
359.802929
 51
23.824283
  0
ARC
  8
LC-002-002-----0
  6
CONTINUOUS
  5
74
 10
-17.797719
 20
414.825016
 30
0.0
 40
4.150652
 50
23.358008
 51
52.474731
  0
ARC
  8
LC-002-002-----0
  6
CONTINUOUS
  5
75
 10
-17.047381
 20
415.79135
 30
0.0
 40
2.927234
 50
52.601501
 51
89.462986
  0
ARC
  8
LC-002-002-----0
  6
CONTINUOUS
  5
76
 10
-16.988281
 20
415.791393
 30
0.0
 40
2.927234
 50
90.619786
 51
127.481271
  0
ARC
  8
LC-002-002-----0
  6
CONTINUOUS
  5
77
 10
-16.236548
 20
414.826144
 30
0.0
 40
4.150652
 50
127.608041
 51
156.724764
  0
ARC
  8
LC-002-002-----0
  6
CONTINUOUS
  5
78
 10
-14.994393
 20
414.242902
 30
0.0
 40
5.522367
 50
156.258489
 51
180.279843
  0
ARC
  8
LC-002-002-----0
  6
CONTINUOUS
  5
79
 10
-14.99436
 20
414.196935
 30
0.0
 40
5.522367
 50
179.802929
 51
203.824283
  0
ARC
  8
LC-002-002-----0
  6
CONTINUOUS
  5
7A
 10
-16.235671
 20
413.611899
 30
0.0
 40
4.150652
 50
203.358008
 51
232.474731
  0
ARC
  8
LC-002-002-----0
  6
CONTINUOUS
  5
7B
 10
-16.986009
 20
412.645565
 30
0.0
 40
2.927234
 50
232.601501
 51
269.462986
  0
ARC
  8
LC-002-002-----0
  6
CONTINUOUS
  5
7C
 10
-17.045109
 20
412.645522
 30
0.0
 40
2.927234
 50
270.619786
 51
307.481271
  0
ARC
  8
LC-002-002-----0
  6
CONTINUOUS
  5
7D
 10
-17.796842
 20
413.610771
 30
0.0
 40
4.150652
 50
307.608041
 51
336.724764
  0
ARC
  8
LC-002-002-----0
  6
CONTINUOUS
  5
7E
 10
-19.038997
 20
414.194014
 30
0.0
 40
5.522367
 50
336.258489
 51
0.279843
  0
ENDBLK
  8
0
  5
7F
  0
BLOCK
  8
0
  5
81
  2
BLK5
 70
    64
 10
0.0
 20
0.0
 30
0.0
  3
BLK5
  0
ARC
  8
LC-002-002-----0
  6
CONTINUOUS
  5
82
 10
-19.040542
 20
440.225684
 30
0.0
 40
5.522367
 50
359.726959
 51
23.748313
  0
ARC
  8
LC-002-002-----0
  6
CONTINUOUS
  5
83
 10
-17.798457
 20
440.809073
 30
0.0
 40
4.150652
 50
23.282038
 51
52.398761
  0
ARC
  8
LC-002-002-----0
  6
CONTINUOUS
  5
84
 10
-17.046838
 20
441.774412
 30
0.0
 40
2.927234
 50
52.525531
 51
89.387016
  0
ARC
  8
LC-002-002-----0
  6
CONTINUOUS
  5
85
 10
-16.987738
 20
441.774376
 30
0.0
 40
2.927234
 50
90.543815
 51
127.405301
  0
ARC
  8
LC-002-002-----0
  6
CONTINUOUS
  5
86
 10
-16.237285
 20
440.808131
 30
0.0
 40
4.150652
 50
127.53207
 51
156.648794
  0
ARC
  8
LC-002-002-----0
  6
CONTINUOUS
  5
87
 10
-14.995905
 20
440.223242
 30
0.0
 40
5.522367
 50
156.182518
 51
180.203873
  0
ARC
  8
LC-002-002-----0
  6
CONTINUOUS
  5
88
 10
-14.995933
 20
440.177276
 30
0.0
 40
5.522367
 50
179.726959
 51
203.748313
  0
ARC
  8
LC-002-002-----0
  6
CONTINUOUS
  5
89
 10
-16.238018
 20
439.593886
 30
0.0
 40
4.150652
 50
203.282038
 51
232.398761
  0
ARC
  8
LC-002-002-----0
  6
CONTINUOUS
  5
8A
 10
-16.989637
 20
438.628548
 30
0.0
 40
2.927234
 50
232.525531
 51
269.387016
  0
ARC
  8
LC-002-002-----0
  6
CONTINUOUS
  5
8B
 10
-17.048737
 20
438.628583
 30
0.0
 40
2.927234
 50
270.543815
 51
307.405301
  0
ARC
  8
LC-002-002-----0
  6
CONTINUOUS
  5
8C
 10
-17.79919
 20
439.594829
 30
0.0
 40
4.150652
 50
307.53207
 51
336.648794
  0
ARC
  8
LC-002-002-----0
  6
CONTINUOUS
  5
8D
 10
-19.04057
 20
440.179717
 30
0.0
 40
5.522367
 50
336.182518
 51
0.203873
  0
ENDBLK
  8
0
  5
8E
  0
BLOCK
  8
0
  5
90
  2
BLK6
 70
    64
 10
0.0
 20
0.0
 30
0.0
  3
BLK6
  0
ENDBLK
  8
0
  5
91
  0
BLOCK
  8
0
  5
93
  2
BLK7
 70
    64
 10
0.0
 20
0.0
 30
0.0
  3
BLK7
  0
ENDBLK
  8
0
  5
94
  0
BLOCK
  8
0
  5
96
  2
BLK8
 70
    64
 10
0.0
 20
0.0
 30
0.0
  3
BLK8
  0
ENDBLK
  8
0
  5
97
  0
BLOCK
  8
0
  5
99
  2
BLK9
 70
    64
 10
0.0
 20
0.0
 30
0.0
  3
BLK9
  0
ENDBLK
  8
0
  5
9A
  0
BLOCK
  8
0
  5
9C
  2
BLK10
 70
    64
 10
0.0
 20
0.0
 30
0.0
  3
BLK10
  0
ENDBLK
  8
0
  5
9D
  0
BLOCK
  8
0
  5
9F
  2
BLK11
 70
    64
 10
0.0
 20
0.0
 30
0.0
  3
BLK11
  0
ENDBLK
  8
0
  5
A0
  0
BLOCK
  8
0
  5
A2
  2
*D13
 70
    65
 10
0.0
 20
0.0
 30
0.0
  3
*D13
  0
LINE
  8
LC-004-003-MTH-0
  6
CONTINUOUS
  5
A3
 10
293.36978
 20
484.505177
 30
0.0
 11
293.36978
 21
526.4
 31
0.0
  0
LINE
  8
LC-004-003-MTH-0
  6
CONTINUOUS
  5
A4
 10
373.36978
 20
484.867992
 30
0.0
 11
373.36978
 21
526.4
 31
0.0
  0
LINE
  8
LC-005-003-MTG-0
  6
CONTINUOUS
  5
A5
 10
293.36978
 20
509.6
 30
0.0
 11
373.36978
 21
509.6
 31
0.0
  0
LINE
  8
LC-003-003-----0
  6
CONTINUOUS
  5
A6
 10
321.130236
 20
513.254733
 30
0.0
 11
293.36978
 21
509.6
 31
0.0
  0
LINE
  8
LC-003-003-----0
  6
CONTINUOUS
  5
A7
 10
293.36978
 20
509.6
 30
0.0
 11
321.130236
 21
505.945267
 31
0.0
  0
LINE
  8
LC-003-003-----0
  6
CONTINUOUS
  5
A8
 10
321.130236
 20
505.945267
 30
0.0
 11
321.130236
 21
513.254733
 31
0.0
  0
LINE
  8
LC-003-003-----0
  6
CONTINUOUS
  5
A9
 10
321.192517
 20
512.304503
 30
0.0
 11
300.64978
 21
509.6
 31
0.0
  0
LINE
  8
LC-003-003-----0
  6
CONTINUOUS
  5
AA
 10
300.64978
 20
509.6
 30
0.0
 11
321.192517
 21
506.895497
 31
0.0
  0
LINE
  8
LC-003-003-----0
  6
CONTINUOUS
  5
AB
 10
321.254799
 20
511.354272
 30
0.0
 11
307.92978
 21
509.6
 31
0.0
  0
LINE
  8
LC-003-003-----0
  6
CONTINUOUS
  5
AC
 10
307.92978
 20
509.6
 30
0.0
 11
321.254799
 21
507.845728
 31
0.0
  0
LINE
  8
LC-003-003-----0
  6
CONTINUOUS
  5
AD
 10
321.31708
 20
510.404041
 30
0.0
 11
315.20978
 21
509.6
 31
0.0
  0
LINE
  8
LC-003-003-----0
  6
CONTINUOUS
  5
AE
 10
315.20978
 20
509.6
 30
0.0
 11
321.31708
 21
508.795959
 31
0.0
  0
LINE
  8
LC-003-003-----0
  6
CONTINUOUS
  5
AF
 10
345.609324
 20
505.945267
 30
0.0
 11
373.36978
 21
509.6
 31
0.0
  0
LINE
  8
LC-003-003-----0
  6
CONTINUOUS
  5
B0
 10
373.36978
 20
509.6
 30
0.0
 11
345.609324
 21
513.254733
 31
0.0
  0
LINE
  8
LC-003-003-----0
  6
CONTINUOUS
  5
B1
 10
345.609324
 20
513.254733
 30
0.0
 11
345.609324
 21
505.945267
 31
0.0
  0
LINE
  8
LC-003-003-----0
  6
CONTINUOUS
  5
B2
 10
345.547042
 20
506.895497
 30
0.0
 11
366.08978
 21
509.6
 31
0.0
  0
LINE
  8
LC-003-003-----0
  6
CONTINUOUS
  5
B3
 10
366.08978
 20
509.6
 30
0.0
 11
345.547042
 21
512.304503
 31
0.0
  0
LINE
  8
LC-003-003-----0
  6
CONTINUOUS
  5
B4
 10
345.484761
 20
507.845728
 30
0.0
 11
358.80978
 21
509.6
 31
0.0
  0
LINE
  8
LC-003-003-----0
  6
CONTINUOUS
  5
B5
 10
358.80978
 20
509.6
 30
0.0
 11
345.484761
 21
511.354272
 31
0.0
  0
LINE
  8
LC-003-003-----0
  6
CONTINUOUS
  5
B6
 10
345.422479
 20
508.795959
 30
0.0
 11
351.52978
 21
509.6
 31
0.0
  0
LINE
  8
LC-003-003-----0
  6
CONTINUOUS
  5
B7
 10
351.52978
 20
509.6
 30
0.0
 11
345.422479
 21
510.404041
 31
0.0
  0
TEXT
  8
LC-003-003-----0
  6
CONTINUOUS
 62
     8
  5
B8
 10
320.11574
 20
517.427554
 30
0.0
 40
28.0
  1
80
 41
0.9
 51
15.0
  7
LC-TXTSTYLE-150-400-0-0-A0
 72
     1
 11
337.71794
 21
517.427554
 31
0.0
  0
ENDBLK
  8
0
  5
B9
  0
BLOCK
  8
0
  5
BB
  2
*D14
 70
    65
 10
0.0
 20
0.0
 30
0.0
  3
*D14
  0
LINE
  8
LC-004-003-MTH-0
  6
CONTINUOUS
  5
BC
 10
373.36978
 20
484.867992
 30
0.0
 11
373.36978
 21
526.4
 31
0.0
  0
LINE
  8
LC-004-003-MTH-0
  6
CONTINUOUS
  5
BD
 10
453.36978
 20
484.505177
 30
0.0
 11
453.36978
 21
526.4
 31
0.0
  0
LINE
  8
LC-005-003-MTG-0
  6
CONTINUOUS
  5
BE
 10
373.36978
 20
509.6
 30
0.0
 11
453.36978
 21
509.6
 31
0.0
  0
LINE
  8
LC-003-003-----0
  6
CONTINUOUS
  5
BF
 10
401.130236
 20
513.254733
 30
0.0
 11
373.36978
 21
509.6
 31
0.0
  0
LINE
  8
LC-003-003-----0
  6
CONTINUOUS
  5
C0
 10
373.36978
 20
509.6
 30
0.0
 11
401.130236
 21
505.945267
 31
0.0
  0
LINE
  8
LC-003-003-----0
  6
CONTINUOUS
  5
C1
 10
401.130236
 20
505.945267
 30
0.0
 11
401.130236
 21
513.254733
 31
0.0
  0
LINE
  8
LC-003-003-----0
  6
CONTINUOUS
  5
C2
 10
401.192517
 20
512.304503
 30
0.0
 11
380.64978
 21
509.6
 31
0.0
  0
LINE
  8
LC-003-003-----0
  6
CONTINUOUS
  5
C3
 10
380.64978
 20
509.6
 30
0.0
 11
401.192517
 21
506.895497
 31
0.0
  0
LINE
  8
LC-003-003-----0
  6
CONTINUOUS
  5
C4
 10
401.254799
 20
511.354272
 30
0.0
 11
387.92978
 21
509.6
 31
0.0
  0
LINE
  8
LC-003-003-----0
  6
CONTINUOUS
  5
C5
 10
387.92978
 20
509.6
 30
0.0
 11
401.254799
 21
507.845728
 31
0.0
  0
LINE
  8
LC-003-003-----0
  6
CONTINUOUS
  5
C6
 10
401.31708
 20
510.404041
 30
0.0
 11
395.20978
 21
509.6
 31
0.0
  0
LINE
  8
LC-003-003-----0
  6
CONTINUOUS
  5
C7
 10
395.20978
 20
509.6
 30
0.0
 11
401.31708
 21
508.795959
 31
0.0
  0
LINE
  8
LC-003-003-----0
  6
CONTINUOUS
  5
C8
 10
425.609324
 20
505.945267
 30
0.0
 11
453.36978
 21
509.6
 31
0.0
  0
LINE
  8
LC-003-003-----0
  6
CONTINUOUS
  5
C9
 10
453.36978
 20
509.6
 30
0.0
 11
425.609324
 21
513.254733
 31
0.0
  0
LINE
  8
LC-003-003-----0
  6
CONTINUOUS
  5
CA
 10
425.609324
 20
513.254733
 30
0.0
 11
425.609324
 21
505.945267
 31
0.0
  0
LINE
  8
LC-003-003-----0
  6
CONTINUOUS
  5
CB
 10
425.547042
 20
506.895497
 30
0.0
 11
446.08978
 21
509.6
 31
0.0
  0
LINE
  8
LC-003-003-----0
  6
CONTINUOUS
  5
CC
 10
446.08978
 20
509.6
 30
0.0
 11
425.547042
 21
512.304503
 31
0.0
  0
LINE
  8
LC-003-003-----0
  6
CONTINUOUS
  5
CD
 10
425.484761
 20
507.845728
 30
0.0
 11
438.80978
 21
509.6
 31
0.0
  0
LINE
  8
LC-003-003-----0
  6
CONTINUOUS
  5
CE
 10
438.80978
 20
509.6
 30
0.0
 11
425.484761
 21
511.354272
 31
0.0
  0
LINE
  8
LC-003-003-----0
  6
CONTINUOUS
  5
CF
 10
425.422479
 20
508.795959
 30
0.0
 11
431.52978
 21
509.6
 31
0.0
  0
LINE
  8
LC-003-003-----0
  6
CONTINUOUS
  5
D0
 10
431.52978
 20
509.6
 30
0.0
 11
425.422479
 21
510.404041
 31
0.0
  0
TEXT
  8
LC-003-003-----0
  6
CONTINUOUS
 62
     8
  5
D1
 10
400.11574
 20
517.427554
 30
0.0
 40
28.0
  1
80
 41
0.9
 51
15.0
  7
LC-TXTSTYLE-150-400-0-0-A0
 72
     1
 11
417.71794
 21
517.427554
 31
0.0
  0
ENDBLK
  8
0
  5
D2
  0
BLOCK
  8
0
  5
D4
  2
*D15
 70
    65
 10
0.0
 20
0.0
 30
0.0
  3
*D15
  0
LINE
  8
LC-004-003-MTH-0
  6
CONTINUOUS
  5
D5
 10
-65.513987
 20
426.211265
 30
0.0
 11
-65.513987
 21
526.4
 31
0.0
  0
LINE
  8
LC-004-003-MTH-0
  6
CONTINUOUS
  5
D6
 10
-12.511835
 20
470.967344
 30
0.0
 11
-12.511835
 21
526.4
 31
0.0
  0
LINE
  8
LC-003-003-----0
  6
CONTINUOUS
  5
D7
 10
-93.274443
 20
505.945267
 30
0.0
 11
-65.513987
 21
509.6
 31
0.0
  0
LINE
  8
LC-003-003-----0
  6
CONTINUOUS
  5
D8
 10
-65.513987
 20
509.6
 30
0.0
 11
-93.274443
 21
513.254733
 31
0.0
  0
LINE
  8
LC-003-003-----0
  6
CONTINUOUS
  5
D9
 10
-93.274443
 20
513.254733
 30
0.0
 11
-93.274443
 21
505.945267
 31
0.0
  0
LINE
  8
LC-003-003-----0
  6
CONTINUOUS
  5
DA
 10
-93.336725
 20
506.895497
 30
0.0
 11
-72.793987
 21
509.6
 31
0.0
  0
LINE
  8
LC-003-003-----0
  6
CONTINUOUS
  5
DB
 10
-72.793987
 20
509.6
 30
0.0
 11
-93.336725
 21
512.304503
 31
0.0
  0
LINE
  8
LC-003-003-----0
  6
CONTINUOUS
  5
DC
 10
-93.399006
 20
507.845728
 30
0.0
 11
-80.073987
 21
509.6
 31
0.0
  0
LINE
  8
LC-003-003-----0
  6
CONTINUOUS
  5
DD
 10
-80.073987
 20
509.6
 30
0.0
 11
-93.399006
 21
511.354272
 31
0.0
  0
LINE
  8
LC-003-003-----0
  6
CONTINUOUS
  5
DE
 10
-93.461288
 20
508.795959
 30
0.0
 11
-87.353987
 21
509.6
 31
0.0
  0
LINE
  8
LC-003-003-----0
  6
CONTINUOUS
  5
DF
 10
-87.353987
 20
509.6
 30
0.0
 11
-93.461288
 21
510.404041
 31
0.0
  0
LINE
  8
LC-003-003-----0
  6
CONTINUOUS
  5
E0
 10
15.248621
 20
513.254733
 30
0.0
 11
-12.511835
 21
509.6
 31
0.0
  0
LINE
  8
LC-003-003-----0
  6
CONTINUOUS
  5
E1
 10
-12.511835
 20
509.6
 30
0.0
 11
15.248621
 21
505.945267
 31
0.0
  0
LINE
  8
LC-003-003-----0
  6
CONTINUOUS
  5
E2
 10
15.248621
 20
505.945267
 30
0.0
 11
15.248621
 21
513.254733
 31
0.0
  0
LINE
  8
LC-003-003-----0
  6
CONTINUOUS
  5
E3
 10
15.310903
 20
512.304503
 30
0.0
 11
-5.231835
 21
509.6
 31
0.0
  0
LINE
  8
LC-003-003-----0
  6
CONTINUOUS
  5
E4
 10
-5.231835
 20
509.6
 30
0.0
 11
15.310903
 21
506.895497
 31
0.0
  0
LINE
  8
LC-003-003-----0
  6
CONTINUOUS
  5
E5
 10
15.373184
 20
511.354272
 30
0.0
 11
2.048165
 21
509.6
 31
0.0
  0
LINE
  8
LC-003-003-----0
  6
CONTINUOUS
  5
E6
 10
2.048165
 20
509.6
 30
0.0
 11
15.373184
 21
507.845728
 31
0.0
  0
LINE
  8
LC-003-003-----0
  6
CONTINUOUS
  5
E7
 10
15.435466
 20
510.404041
 30
0.0
 11
9.328165
 21
509.6
 31
0.0
  0
LINE
  8
LC-003-003-----0
  6
CONTINUOUS
  5
E8
 10
9.328165
 20
509.6
 30
0.0
 11
15.435466
 21
508.795959
 31
0.0
  0
LINE
  8
LC-005-003-MTG-0
  6
CONTINUOUS
  5
E9
 10
-104.713987
 20
509.6
 30
0.0
 11
26.688165
 21
509.6
 31
0.0
  0
TEXT
  8
LC-003-003-----0
  6
CONTINUOUS
 62
     8
  5
EA
 10
-50.311151
 20
517.427554
 30
0.0
 40
28.0
  1
55
 41
0.8
 51
15.0
  7
LC-TXTSTYLE-150-400-0-0-A0
 72
     1
 11
-34.664751
 21
517.427554
 31
0.0
  0
ENDBLK
  8
0
  5
EB
  0
BLOCK
  8
0
  5
ED
  2
BLK12
 70
    64
 10
0.0
 20
0.0
 30
0.0
  3
BLK12
  0
ARC
  8
LC-002-002-----0
  6
CONTINUOUS
  5
EE
 10
456.964655
 20
466.087931
 30
0.0
 40
14.400854
 50
0.005189
 51
9.662961
  0
ARC
  8
LC-002-002-----0
  6
CONTINUOUS
  5
EF
 10
456.72483
 20
466.044614
 30
0.0
 40
14.644547
 50
9.672535
 51
19.222753
  0
ARC
  8
LC-002-002-----0
  6
CONTINUOUS
  5
F0
 10
456.282443
 20
465.888294
 30
0.0
 40
15.113736
 50
19.230154
 51
28.581479
  0
ARC
  8
LC-002-002-----0
  6
CONTINUOUS
  5
F1
 10
455.704772
 20
465.572186
 30
0.0
 40
15.772239
 50
28.585926
 51
37.674859
  0
ENDBLK
  8
0
  5
F2
  0
BLOCK
  8
0
  5
F4
  2
BLK13
 70
    64
 10
0.0
 20
0.0
 30
0.0
  3
BLK13
  0
ARC
  8
LC-002-002-----0
  6
CONTINUOUS
  5
F5
 10
450.880532
 20
465.670031
 30
0.0
 40
15.597112
 50
142.282479
 51
155.979627
  0
ARC
  8
LC-002-002-----0
  6
CONTINUOUS
  5
F6
 10
450.108729
 20
466.019596
 30
0.0
 40
14.749854
 50
155.999522
 51
170.217522
  0
ARC
  8
LC-002-002-----0
  6
CONTINUOUS
  5
F7
 10
449.750271
 20
466.089496
 30
0.0
 40
14.384733
 50
170.249304
 51
184.707463
  0
ARC
  8
LC-002-002-----0
  6
CONTINUOUS
  5
F8
 10
449.927027
 20
466.112681
 30
0.0
 40
14.562798
 50
184.741301
 51
199.081081
  0
ARC
  8
LC-002-002-----0
  6
CONTINUOUS
  5
F9
 10
450.578588
 20
466.345049
 30
0.0
 40
15.254524
 50
199.105878
 51
213.007811
  0
ARC
  8
LC-002-002-----0
  6
CONTINUOUS
  5
FA
 10
451.488012
 20
466.939181
 30
0.0
 40
16.34082
 50
213.01772
 51
226.295138
  0
ARC
  8
LC-002-002-----0
  6
CONTINUOUS
  5
FB
 10
452.373874
 20
467.864172
 30
0.0
 40
17.621584
 50
226.290974
 51
238.915625
  0
ARC
  8
LC-002-002-----0
  6
CONTINUOUS
  5
FC
 10
453.008256
 20
468.907547
 30
0.0
 40
18.842671
 50
238.901649
 51
250.97371
  0
ENDBLK
  8
0
  5
FD
  0
BLOCK
  8
0
  5
FF
  2
BLK14
 70
    64
 10
0.0
 20
0.0
 30
0.0
  3
BLK14
  0
ARC
  8
LC-002-002-----0
  6
CONTINUOUS
  5
100
 10
453.737408
 20
468.873309
 30
0.0
 40
18.805529
 50
289.018108
 51
301.893246
  0
ARC
  8
LC-002-002-----0
  6
CONTINUOUS
  5
101
 10
454.434349
 20
467.76273
 30
0.0
 40
17.494389
 50
301.876984
 51
315.389154
  0
ARC
  8
LC-002-002-----0
  6
CONTINUOUS
  5
102
 10
455.395611
 20
466.815643
 30
0.0
 40
16.144946
 50
315.386112
 51
329.642958
  0
ARC
  8
LC-002-002-----0
  6
CONTINUOUS
  5
103
 10
456.331872
 20
466.262525
 30
0.0
 40
15.057515
 50
329.658586
 51
344.595617
  0
ARC
  8
LC-002-002-----0
  6
CONTINUOUS
  5
104
 10
456.909667
 20
466.094482
 30
0.0
 40
14.455842
 50
344.629413
 51
359.979203
  0
ENDBLK
  8
0
  5
105
  0
BLOCK
  8
0
  5
107
  2
*D19
 70
    65
 10
0.0
 20
0.0
 30
0.0
  3
*D19
  0
LINE
  8
LC-004-003-MTH-0
  6
CONTINUOUS
  5
108
 10
31.829174
 20
290.53454
 30
0.0
 11
31.829174
 21
179.2
 31
0.0
  0
LINE
  8
LC-004-003-MTH-0
  6
CONTINUOUS
  5
109
 10
71.829174
 20
290.709984
 30
0.0
 11
71.829174
 21
179.2
 31
0.0
  0
LINE
  8
LC-003-003-----0
  6
CONTINUOUS
  5
10A
 10
4.068718
 20
192.345267
 30
0.0
 11
31.829174
 21
196.0
 31
0.0
  0
LINE
  8
LC-003-003-----0
  6
CONTINUOUS
  5
10B
 10
31.829174
 20
196.0
 30
0.0
 11
4.068718
 21
199.654733
 31
0.0
  0
LINE
  8
LC-003-003-----0
  6
CONTINUOUS
  5
10C
 10
4.068718
 20
199.654733
 30
0.0
 11
4.068718
 21
192.345267
 31
0.0
  0
LINE
  8
LC-003-003-----0
  6
CONTINUOUS
  5
10D
 10
4.006437
 20
193.295497
 30
0.0
 11
24.549174
 21
196.0
 31
0.0
  0
LINE
  8
LC-003-003-----0
  6
CONTINUOUS
  5
10E
 10
24.549174
 20
196.0
 30
0.0
 11
4.006437
 21
198.704503
 31
0.0
  0
LINE
  8
LC-003-003-----0
  6
CONTINUOUS
  5
10F
 10
3.944155
 20
194.245728
 30
0.0
 11
17.269174
 21
196.0
 31
0.0
  0
LINE
  8
LC-003-003-----0
  6
CONTINUOUS
  5
110
 10
17.269174
 20
196.0
 30
0.0
 11
3.944155
 21
197.754272
 31
0.0
  0
LINE
  8
LC-003-003-----0
  6
CONTINUOUS
  5
111
 10
3.881874
 20
195.195959
 30
0.0
 11
9.989174
 21
196.0
 31
0.0
  0
LINE
  8
LC-003-003-----0
  6
CONTINUOUS
  5
112
 10
9.989174
 20
196.0
 30
0.0
 11
3.881874
 21
196.804041
 31
0.0
  0
LINE
  8
LC-003-003-----0
  6
CONTINUOUS
  5
113
 10
99.58963
 20
199.654733
 30
0.0
 11
71.829174
 21
196.0
 31
0.0
  0
LINE
  8
LC-003-003-----0
  6
CONTINUOUS
  5
114
 10
71.829174
 20
196.0
 30
0.0
 11
99.58963
 21
192.345267
 31
0.0
  0
LINE
  8
LC-003-003-----0
  6
CONTINUOUS
  5
115
 10
99.58963
 20
192.345267
 30
0.0
 11
99.58963
 21
199.654733
 31
0.0
  0
LINE
  8
LC-003-003-----0
  6
CONTINUOUS
  5
116
 10
99.651912
 20
198.704503
 30
0.0
 11
79.109174
 21
196.0
 31
0.0
  0
LINE
  8
LC-003-003-----0
  6
CONTINUOUS
  5
117
 10
79.109174
 20
196.0
 30
0.0
 11
99.651912
 21
193.295497
 31
0.0
  0
LINE
  8
LC-003-003-----0
  6
CONTINUOUS
  5
118
 10
99.714193
 20
197.754272
 30
0.0
 11
86.389174
 21
196.0
 31
0.0
  0
LINE
  8
LC-003-003-----0
  6
CONTINUOUS
  5
119
 10
86.389174
 20
196.0
 30
0.0
 11
99.714193
 21
194.245728
 31
0.0
  0
LINE
  8
LC-003-003-----0
  6
CONTINUOUS
  5
11A
 10
99.776475
 20
196.804041
 30
0.0
 11
93.669174
 21
196.0
 31
0.0
  0
LINE
  8
LC-003-003-----0
  6
CONTINUOUS
  5
11B
 10
93.669174
 20
196.0
 30
0.0
 11
99.776475
 21
195.195959
 31
0.0
  0
LINE
  8
LC-005-003-MTG-0
  6
CONTINUOUS
  5
11C
 10
-7.370826
 20
196.0
 30
0.0
 11
208.624759
 21
196.0
 31
0.0
  0
TEXT
  8
LC-003-003-----0
  6
CONTINUOUS
 62
     8
  5
11D
 10
122.082819
 20
203.827554
 30
0.0
 40
28.0
  1
DN40
 41
0.9
 51
15.0
  7
LC-TXTSTYLE-150-400-0-0-A0
  0
ENDBLK
  8
0
  5
11E
  0
BLOCK
  8
0
  5
120
  2
*D20
 70
    65
 10
0.0
 20
0.0
 30
0.0
  3
*D20
  0
LINE
  8
LC-004-003-MTH-0
  6
CONTINUOUS
  5
121
 10
26.829174
 20
237.709984
 30
0.0
 11
26.829174
 21
140.0
 31
0.0
  0
LINE
  8
LC-004-003-MTH-0
  6
CONTINUOUS
  5
122
 10
76.829174
 20
237.709984
 30
0.0
 11
76.829174
 21
140.0
 31
0.0
  0
LINE
  8
LC-003-003-----0
  6
CONTINUOUS
  5
123
 10
-0.931282
 20
153.145267
 30
0.0
 11
26.829174
 21
156.8
 31
0.0
  0
LINE
  8
LC-003-003-----0
  6
CONTINUOUS
  5
124
 10
26.829174
 20
156.8
 30
0.0
 11
-0.931282
 21
160.454733
 31
0.0
  0
LINE
  8
LC-003-003-----0
  6
CONTINUOUS
  5
125
 10
-0.931282
 20
160.454733
 30
0.0
 11
-0.931282
 21
153.145267
 31
0.0
  0
LINE
  8
LC-003-003-----0
  6
CONTINUOUS
  5
126
 10
-0.993563
 20
154.095497
 30
0.0
 11
19.549174
 21
156.8
 31
0.0
  0
LINE
  8
LC-003-003-----0
  6
CONTINUOUS
  5
127
 10
19.549174
 20
156.8
 30
0.0
 11
-0.993563
 21
159.504503
 31
0.0
  0
LINE
  8
LC-003-003-----0
  6
CONTINUOUS
  5
128
 10
-1.055845
 20
155.045728
 30
0.0
 11
12.269174
 21
156.8
 31
0.0
  0
LINE
  8
LC-003-003-----0
  6
CONTINUOUS
  5
129
 10
12.269174
 20
156.8
 30
0.0
 11
-1.055845
 21
158.554272
 31
0.0
  0
LINE
  8
LC-003-003-----0
  6
CONTINUOUS
  5
12A
 10
-1.118126
 20
155.995959
 30
0.0
 11
4.989174
 21
156.8
 31
0.0
  0
LINE
  8
LC-003-003-----0
  6
CONTINUOUS
  5
12B
 10
4.989174
 20
156.8
 30
0.0
 11
-1.118126
 21
157.604041
 31
0.0
  0
LINE
  8
LC-003-003-----0
  6
CONTINUOUS
  5
12C
 10
104.58963
 20
160.454733
 30
0.0
 11
76.829174
 21
156.8
 31
0.0
  0
LINE
  8
LC-003-003-----0
  6
CONTINUOUS
  5
12D
 10
76.829174
 20
156.8
 30
0.0
 11
104.58963
 21
153.145267
 31
0.0
  0
LINE
  8
LC-003-003-----0
  6
CONTINUOUS
  5
12E
 10
104.58963
 20
153.145267
 30
0.0
 11
104.58963
 21
160.454733
 31
0.0
  0
LINE
  8
LC-003-003-----0
  6
CONTINUOUS
  5
12F
 10
104.651912
 20
159.504503
 30
0.0
 11
84.109174
 21
156.8
 31
0.0
  0
LINE
  8
LC-003-003-----0
  6
CONTINUOUS
  5
130
 10
84.109174
 20
156.8
 30
0.0
 11
104.651912
 21
154.095497
 31
0.0
  0
LINE
  8
LC-003-003-----0
  6
CONTINUOUS
  5
131
 10
104.714193
 20
158.554272
 30
0.0
 11
91.389174
 21
156.8
 31
0.0
  0
LINE
  8
LC-003-003-----0
  6
CONTINUOUS
  5
132
 10
91.389174
 20
156.8
 30
0.0
 11
104.714193
 21
155.045728
 31
0.0
  0
LINE
  8
LC-003-003-----0
  6
CONTINUOUS
  5
133
 10
104.776475
 20
157.604041
 30
0.0
 11
98.669174
 21
156.8
 31
0.0
  0
LINE
  8
LC-003-003-----0
  6
CONTINUOUS
  5
134
 10
98.669174
 20
156.8
 30
0.0
 11
104.776475
 21
155.995959
 31
0.0
  0
LINE
  8
LC-005-003-MTG-0
  6
CONTINUOUS
  5
135
 10
-12.370826
 20
156.8
 30
0.0
 11
205.799274
 21
156.8
 31
0.0
  0
TEXT
  8
LC-003-003-----0
  6
CONTINUOUS
 62
     8
  5
136
 10
119.257334
 20
164.627554
 30
0.0
 40
28.0
  1
DN50
 41
0.9
 51
15.0
  7
LC-TXTSTYLE-150-400-0-0-A0
  0
ENDBLK
  8
0
  5
137
  0
BLOCK
  8
0
  5
139
  2
*D21
 70
    65
 10
0.0
 20
0.0
 30
0.0
  3
*D21
  0
LINE
  8
LC-004-003-MTH-0
  6
CONTINUOUS
  5
13A
 10
349.307602
 20
234.367992
 30
0.0
 11
179.2
 21
234.367992
 31
0.0
  0
LINE
  8
LC-004-003-MTH-0
  6
CONTINUOUS
  5
13B
 10
154.22978
 20
427.367992
 30
0.0
 11
212.8
 21
427.367992
 31
0.0
  0
LINE
  8
LC-005-003-MTG-0
  6
CONTINUOUS
  5
13C
 10
196.0
 20
234.367992
 30
0.0
 11
196.0
 21
427.367992
 31
0.0
  0
LINE
  8
LC-003-003-----0
  6
CONTINUOUS
  5
13D
 10
192.345267
 20
262.128448
 30
0.0
 11
196.0
 21
234.367992
 31
0.0
  0
LINE
  8
LC-003-003-----0
  6
CONTINUOUS
  5
13E
 10
196.0
 20
234.367992
 30
0.0
 11
199.654733
 21
262.128448
 31
0.0
  0
LINE
  8
LC-003-003-----0
  6
CONTINUOUS
  5
13F
 10
199.654733
 20
262.128448
 30
0.0
 11
192.345267
 21
262.128448
 31
0.0
  0
LINE
  8
LC-003-003-----0
  6
CONTINUOUS
  5
140
 10
193.295497
 20
262.19073
 30
0.0
 11
196.0
 21
241.647992
 31
0.0
  0
LINE
  8
LC-003-003-----0
  6
CONTINUOUS
  5
141
 10
196.0
 20
241.647992
 30
0.0
 11
198.704503
 21
262.19073
 31
0.0
  0
LINE
  8
LC-003-003-----0
  6
CONTINUOUS
  5
142
 10
194.245728
 20
262.253011
 30
0.0
 11
196.0
 21
248.927992
 31
0.0
  0
LINE
  8
LC-003-003-----0
  6
CONTINUOUS
  5
143
 10
196.0
 20
248.927992
 30
0.0
 11
197.754272
 21
262.253011
 31
0.0
  0
LINE
  8
LC-003-003-----0
  6
CONTINUOUS
  5
144
 10
195.195959
 20
262.315293
 30
0.0
 11
196.0
 21
256.207992
 31
0.0
  0
LINE
  8
LC-003-003-----0
  6
CONTINUOUS
  5
145
 10
196.0
 20
256.207992
 30
0.0
 11
196.804041
 21
262.315293
 31
0.0
  0
LINE
  8
LC-003-003-----0
  6
CONTINUOUS
  5
146
 10
199.654733
 20
399.607536
 30
0.0
 11
196.0
 21
427.367992
 31
0.0
  0
LINE
  8
LC-003-003-----0
  6
CONTINUOUS
  5
147
 10
196.0
 20
427.367992
 30
0.0
 11
192.345267
 21
399.607536
 31
0.0
  0
LINE
  8
LC-003-003-----0
  6
CONTINUOUS
  5
148
 10
192.345267
 20
399.607536
 30
0.0
 11
199.654733
 21
399.607536
 31
0.0
  0
LINE
  8
LC-003-003-----0
  6
CONTINUOUS
  5
149
 10
198.704503
 20
399.545255
 30
0.0
 11
196.0
 21
420.087992
 31
0.0
  0
LINE
  8
LC-003-003-----0
  6
CONTINUOUS
  5
14A
 10
196.0
 20
420.087992
 30
0.0
 11
193.295497
 21
399.545255
 31
0.0
  0
LINE
  8
LC-003-003-----0
  6
CONTINUOUS
  5
14B
 10
197.754272
 20
399.482973
 30
0.0
 11
196.0
 21
412.807992
 31
0.0
  0
LINE
  8
LC-003-003-----0
  6
CONTINUOUS
  5
14C
 10
196.0
 20
412.807992
 30
0.0
 11
194.245728
 21
399.482973
 31
0.0
  0
LINE
  8
LC-003-003-----0
  6
CONTINUOUS
  5
14D
 10
196.804041
 20
399.420692
 30
0.0
 11
196.0
 21
405.527992
 31
0.0
  0
LINE
  8
LC-003-003-----0
  6
CONTINUOUS
  5
14E
 10
196.0
 20
405.527992
 30
0.0
 11
195.195959
 21
399.420692
 31
0.0
  0
TEXT
  8
LC-003-003-----0
  6
CONTINUOUS
 62
     8
  5
14F
 10
188.172446
 20
308.812852
 30
0.0
 40
28.0
  1
193
 50
90.0
 41
0.9
 51
15.0
  7
LC-TXTSTYLE-150-400-0-0-A0
 72
     1
 11
188.172446
 21
335.216152
 31
0.0
  0
ENDBLK
  8
0
  5
150
  0
BLOCK
  8
0
  5
152
  2
*D22
 70
    65
 10
0.0
 20
0.0
 30
0.0
  3
*D22
  0
LINE
  8
LC-004-003-MTH-0
  6
CONTINUOUS
  5
153
 10
520.86978
 20
377.367992
 30
0.0
 11
604.8
 21
377.367992
 31
0.0
  0
LINE
  8
LC-004-003-MTH-0
  6
CONTINUOUS
  5
154
 10
520.86978
 20
477.367992
 30
0.0
 11
604.8
 21
477.367992
 31
0.0
  0
LINE
  8
LC-003-003-----0
  6
CONTINUOUS
  5
155
 10
591.654733
 20
349.607536
 30
0.0
 11
588.0
 21
377.367992
 31
0.0
  0
LINE
  8
LC-003-003-----0
  6
CONTINUOUS
  5
156
 10
588.0
 20
377.367992
 30
0.0
 11
584.345267
 21
349.607536
 31
0.0
  0
LINE
  8
LC-003-003-----0
  6
CONTINUOUS
  5
157
 10
584.345267
 20
349.607536
 30
0.0
 11
591.654733
 21
349.607536
 31
0.0
  0
LINE
  8
LC-003-003-----0
  6
CONTINUOUS
  5
158
 10
590.704503
 20
349.545255
 30
0.0
 11
588.0
 21
370.087992
 31
0.0
  0
LINE
  8
LC-003-003-----0
  6
CONTINUOUS
  5
159
 10
588.0
 20
370.087992
 30
0.0
 11
585.295497
 21
349.545255
 31
0.0
  0
LINE
  8
LC-003-003-----0
  6
CONTINUOUS
  5
15A
 10
589.754272
 20
349.482973
 30
0.0
 11
588.0
 21
362.807992
 31
0.0
  0
LINE
  8
LC-003-003-----0
  6
CONTINUOUS
  5
15B
 10
588.0
 20
362.807992
 30
0.0
 11
586.245728
 21
349.482973
 31
0.0
  0
LINE
  8
LC-003-003-----0
  6
CONTINUOUS
  5
15C
 10
588.804041
 20
349.420692
 30
0.0
 11
588.0
 21
355.527992
 31
0.0
  0
LINE
  8
LC-003-003-----0
  6
CONTINUOUS
  5
15D
 10
588.0
 20
355.527992
 30
0.0
 11
587.195959
 21
349.420692
 31
0.0
  0
LINE
  8
LC-003-003-----0
  6
CONTINUOUS
  5
15E
 10
584.345267
 20
505.128448
 30
0.0
 11
588.0
 21
477.367992
 31
0.0
  0
LINE
  8
LC-003-003-----0
  6
CONTINUOUS
  5
15F
 10
588.0
 20
477.367992
 30
0.0
 11
591.654733
 21
505.128448
 31
0.0
  0
LINE
  8
LC-003-003-----0
  6
CONTINUOUS
  5
160
 10
591.654733
 20
505.128448
 30
0.0
 11
584.345267
 21
505.128448
 31
0.0
  0
LINE
  8
LC-003-003-----0
  6
CONTINUOUS
  5
161
 10
585.295497
 20
505.19073
 30
0.0
 11
588.0
 21
484.647992
 31
0.0
  0
LINE
  8
LC-003-003-----0
  6
CONTINUOUS
  5
162
 10
588.0
 20
484.647992
 30
0.0
 11
590.704503
 21
505.19073
 31
0.0
  0
LINE
  8
LC-003-003-----0
  6
CONTINUOUS
  5
163
 10
586.245728
 20
505.253011
 30
0.0
 11
588.0
 21
491.927992
 31
0.0
  0
LINE
  8
LC-003-003-----0
  6
CONTINUOUS
  5
164
 10
588.0
 20
491.927992
 30
0.0
 11
589.754272
 21
505.253011
 31
0.0
  0
LINE
  8
LC-003-003-----0
  6
CONTINUOUS
  5
165
 10
587.195959
 20
505.315293
 30
0.0
 11
588.0
 21
499.207992
 31
0.0
  0
LINE
  8
LC-003-003-----0
  6
CONTINUOUS
  5
166
 10
588.0
 20
499.207992
 30
0.0
 11
588.804041
 21
505.315293
 31
0.0
  0
LINE
  8
LC-005-003-MTG-0
  6
CONTINUOUS
  5
167
 10
588.0
 20
338.167992
 30
0.0
 11
588.0
 21
578.334592
 31
0.0
  0
TEXT
  8
LC-003-003-----0
  6
CONTINUOUS
 62
     8
  5
168
 10
580.172446
 20
519.796152
 30
0.0
 40
28.0
  1
100
 50
90.0
 41
0.9
 51
15.0
  7
LC-TXTSTYLE-150-400-0-0-A0
  0
ENDBLK
  8
0
  5
169
  0
BLOCK
  8
0
  5
16B
  2
BLK15
 70
    64
 10
0.0
 20
0.0
 30
0.0
  3
BLK15
  0
ARC
  8
LC-002-002-----0
  6
CONTINUOUS
  5
16C
 10
446.668344
 20
473.554231
 30
0.0
 40
8.30287
 50
180.165993
 51
203.259207
  0
ARC
  8
LC-002-002-----0
  6
CONTINUOUS
  5
16D
 10
448.324277
 20
474.29853
 30
0.0
 40
10.118183
 50
203.42849
 51
223.656308
  0
ARC
  8
LC-002-002-----0
  6
CONTINUOUS
  5
16E
 10
450.684602
 20
476.536708
 30
0.0
 40
13.370951
 50
223.61304
 51
240.397161
  0
ARC
  8
LC-002-002-----0
  6
CONTINUOUS
  5
16F
 10
452.543295
 20
479.741242
 30
0.0
 40
17.075397
 50
240.286137
 51
254.536959
  0
ARC
  8
LC-002-002-----0
  6
CONTINUOUS
  5
170
 10
453.305403
 20
482.355348
 30
0.0
 40
19.798105
 50
254.428268
 51
267.336615
  0
ARC
  8
LC-002-002-----0
  6
CONTINUOUS
  5
171
 10
453.366445
 20
482.899461
 30
0.0
 40
20.344498
 50
267.236098
 51
279.911599
  0
ARC
  8
LC-002-002-----0
  6
CONTINUOUS
  5
172
 10
453.723256
 20
481.052408
 30
0.0
 40
18.463627
 50
279.807471
 51
293.332451
  0
ARC
  8
LC-002-002-----0
  6
CONTINUOUS
  5
173
 10
455.12066
 20
477.8877
 30
0.0
 40
15.004288
 50
293.219054
 51
308.757424
  0
ARC
  8
LC-002-002-----0
  6
CONTINUOUS
  5
174
 10
457.39254
 20
475.085676
 30
0.0
 40
11.397021
 50
308.669528
 51
327.347732
  0
ARC
  8
LC-002-002-----0
  6
CONTINUOUS
  5
175
 10
459.50756
 20
473.719044
 30
0.0
 40
8.878911
 50
327.409128
 51
349.487254
  0
ARC
  8
LC-002-002-----0
  6
CONTINUOUS
  5
176
 10
460.291974
 20
473.531168
 30
0.0
 40
8.073492
 50
349.782503
 51
13.31344
  0
ARC
  8
LC-002-002-----0
  6
CONTINUOUS
  5
177
 10
459.284502
 20
473.248353
 30
0.0
 40
9.119117
 50
13.584966
 51
35.271715
  0
ARC
  8
LC-002-002-----0
  6
CONTINUOUS
  5
178
 10
457.075495
 20
471.67771
 30
0.0
 40
11.829578
 50
35.3042
 51
53.522334
  0
ARC
  8
LC-002-002-----0
  6
CONTINUOUS
  5
179
 10
454.87311
 20
468.742691
 30
0.0
 40
15.498954
 50
53.426157
 51
68.630961
  0
ARC
  8
LC-002-002-----0
  6
CONTINUOUS
  5
17A
 10
453.625565
 20
465.655954
 30
0.0
 40
18.828095
 50
68.518204
 51
81.867535
  0
ARC
  8
LC-002-002-----0
  6
CONTINUOUS
  5
17B
 10
453.364372
 20
464.087548
 30
0.0
 40
20.41771
 50
81.764557
 51
94.409652
  0
ARC
  8
LC-002-002-----0
  6
CONTINUOUS
  5
17C
 10
453.263001
 20
464.95388
 30
0.0
 40
19.546179
 50
94.308634
 51
107.327992
  0
ARC
  8
LC-002-002-----0
  6
CONTINUOUS
  5
17D
 10
452.358857
 20
467.744581
 30
0.0
 40
16.612873
 50
107.217892
 51
121.732891
  0
ARC
  8
LC-002-002-----0
  6
CONTINUOUS
  5
17E
 10
450.380208
 20
470.897881
 30
0.0
 40
12.890294
 50
121.624659
 51
138.825111
  0
ARC
  8
LC-002-002-----0
  6
CONTINUOUS
  5
17F
 10
448.039626
 20
472.939702
 30
0.0
 40
9.784279
 50
138.801343
 51
159.488973
  0
ENDBLK
  8
0
  5
180
  0
BLOCK
  8
0
  5
182
  2
BLK16
 70
    64
 10
0.0
 20
0.0
 30
0.0
  3
BLK16
  0
ENDBLK
  8
0
  5
183
  0
BLOCK
  8
0
  5
185
  2
BLK17
 70
    64
 10
0.0
 20
0.0
 30
0.0
  3
BLK17
  0
ENDBLK
  8
0
  5
186
  0
BLOCK
  8
0
  5
188
  2
BLK18
 70
    64
 10
0.0
 20
0.0
 30
0.0
  3
BLK18
  0
ENDBLK
  8
0
  5
189
  0
BLOCK
  8
0
  5
18B
  2
BLK19
 70
    64
 10
0.0
 20
0.0
 30
0.0
  3
BLK19
  0
ENDBLK
  8
0
  5
18C
  0
BLOCK
  8
0
  5
18E
  2
BLK20
 70
    64
 10
0.0
 20
0.0
 30
0.0
  3
BLK20
  0
ENDBLK
  8
0
  5
18F
  0
BLOCK
  8
0
  5
191
  2
BLK21
 70
    64
 10
0.0
 20
0.0
 30
0.0
  3
BLK21
  0
ENDBLK
  8
0
  5
192
  0
BLOCK
  8
0
  5
194
  2
BLK22
 70
    64
 10
0.0
 20
0.0
 30
0.0
  3
BLK22
  0
ARC
  8
LC-002-002-----0
  6
CONTINUOUS
  5
195
 10
296.968926
 20
466.087931
 30
0.0
 40
14.400854
 50
0.005191
 51
9.662962
  0
ARC
  8
LC-002-002-----0
  6
CONTINUOUS
  5
196
 10
296.729101
 20
466.044614
 30
0.0
 40
14.644547
 50
9.672537
 51
19.222754
  0
ARC
  8
LC-002-002-----0
  6
CONTINUOUS
  5
197
 10
296.286714
 20
465.888294
 30
0.0
 40
15.113736
 50
19.230155
 51
28.58148
  0
ARC
  8
LC-002-002-----0
  6
CONTINUOUS
  5
198
 10
295.709044
 20
465.572186
 30
0.0
 40
15.772239
 50
28.585926
 51
37.674859
  0
ENDBLK
  8
0
  5
199
  0
BLOCK
  8
0
  5
19B
  2
BLK23
 70
    64
 10
0.0
 20
0.0
 30
0.0
  3
BLK23
  0
ARC
  8
LC-002-002-----0
  6
CONTINUOUS
  5
19C
 10
290.884803
 20
465.670031
 30
0.0
 40
15.597112
 50
142.282479
 51
155.979627
  0
ARC
  8
LC-002-002-----0
  6
CONTINUOUS
  5
19D
 10
290.113
 20
466.019596
 30
0.0
 40
14.749854
 50
155.999522
 51
170.217522
  0
ARC
  8
LC-002-002-----0
  6
CONTINUOUS
  5
19E
 10
289.754543
 20
466.089496
 30
0.0
 40
14.384733
 50
170.249304
 51
184.707463
  0
ARC
  8
LC-002-002-----0
  6
CONTINUOUS
  5
19F
 10
289.931298
 20
466.112681
 30
0.0
 40
14.562798
 50
184.741301
 51
199.081081
  0
ARC
  8
LC-002-002-----0
  6
CONTINUOUS
  5
1A0
 10
290.582859
 20
466.345049
 30
0.0
 40
15.254524
 50
199.105878
 51
213.007811
  0
ARC
  8
LC-002-002-----0
  6
CONTINUOUS
  5
1A1
 10
291.492283
 20
466.939181
 30
0.0
 40
16.34082
 50
213.01772
 51
226.295138
  0
ARC
  8
LC-002-002-----0
  6
CONTINUOUS
  5
1A2
 10
292.378145
 20
467.864172
 30
0.0
 40
17.621584
 50
226.290974
 51
238.915625
  0
ARC
  8
LC-002-002-----0
  6
CONTINUOUS
  5
1A3
 10
293.012528
 20
468.907547
 30
0.0
 40
18.842671
 50
238.901649
 51
250.97371
  0
ENDBLK
  8
0
  5
1A4
  0
BLOCK
  8
0
  5
1A6
  2
BLK24
 70
    64
 10
0.0
 20
0.0
 30
0.0
  3
BLK24
  0
ARC
  8
LC-002-002-----0
  6
CONTINUOUS
  5
1A7
 10
293.741679
 20
468.873309
 30
0.0
 40
18.805529
 50
289.018108
 51
301.893247
  0
ARC
  8
LC-002-002-----0
  6
CONTINUOUS
  5
1A8
 10
294.438621
 20
467.76273
 30
0.0
 40
17.494389
 50
301.876985
 51
315.389155
  0
ARC
  8
LC-002-002-----0
  6
CONTINUOUS
  5
1A9
 10
295.399882
 20
466.815643
 30
0.0
 40
16.144946
 50
315.386113
 51
329.642959
  0
ARC
  8
LC-002-002-----0
  6
CONTINUOUS
  5
1AA
 10
296.336143
 20
466.262525
 30
0.0
 40
15.057515
 50
329.658587
 51
344.595619
  0
ARC
  8
LC-002-002-----0
  6
CONTINUOUS
  5
1AB
 10
296.913938
 20
466.094482
 30
0.0
 40
14.455842
 50
344.629415
 51
359.979205
  0
ENDBLK
  8
0
  5
1AC
  0
BLOCK
  8
0
  5
1AE
  2
BLK25
 70
    64
 10
0.0
 20
0.0
 30
0.0
  3
BLK25
  0
ARC
  8
LC-002-002-----0
  6
CONTINUOUS
  5
1AF
 10
300.070301
 20
473.506567
 30
0.0
 40
8.299512
 50
0.162991
 51
23.117573
  0
ARC
  8
LC-002-002-----0
  6
CONTINUOUS
  5
1B0
 10
298.432237
 20
472.775156
 30
0.0
 40
10.093251
 50
23.285282
 51
43.419627
  0
ARC
  8
LC-002-002-----0
  6
CONTINUOUS
  5
1B1
 10
296.086828
 20
470.568755
 30
0.0
 40
13.313357
 50
43.378786
 51
60.106184
  0
ARC
  8
LC-002-002-----0
  6
CONTINUOUS
  5
1B2
 10
294.221562
 20
467.38884
 30
0.0
 40
16.999854
 50
59.997519
 51
74.201372
  0
ARC
  8
LC-002-002-----0
  6
CONTINUOUS
  5
1B3
 10
293.437915
 20
464.754609
 30
0.0
 40
19.747963
 50
74.094438
 51
86.943962
  0
ARC
  8
LC-002-002-----0
  6
CONTINUOUS
  5
1B4
 10
293.36978
 20
464.136776
 30
0.0
 40
20.36858
 50
86.845227
 51
99.431639
  0
ARC
  8
LC-002-002-----0
  6
CONTINUOUS
  5
1B5
 10
293.044121
 20
465.895665
 30
0.0
 40
18.580132
 50
99.329794
 51
112.713891
  0
ARC
  8
LC-002-002-----0
  6
CONTINUOUS
  5
1B6
 10
291.704704
 20
469.019202
 30
0.0
 40
15.181682
 50
112.602759
 51
127.923056
  0
ARC
  8
LC-002-002-----0
  6
CONTINUOUS
  5
1B7
 10
289.470544
 20
471.857271
 30
0.0
 40
11.569802
 50
127.833403
 51
146.208643
  0
ARC
  8
LC-002-002-----0
  6
CONTINUOUS
  5
1B8
 10
287.325323
 20
473.301907
 30
0.0
 40
8.983517
 50
146.256375
 51
168.02458
  0
ARC
  8
LC-002-002-----0
  6
CONTINUOUS
  5
1B9
 10
286.438746
 20
473.530177
 30
0.0
 40
8.068966
 50
168.303951
 51
191.696049
  0
ARC
  8
LC-002-002-----0
  6
CONTINUOUS
  5
1BA
 10
287.325323
 20
473.758446
 30
0.0
 40
8.983517
 50
191.97542
 51
213.743625
  0
ARC
  8
LC-002-002-----0
  6
CONTINUOUS
  5
1BB
 10
289.470544
 20
475.203082
 30
0.0
 40
11.569802
 50
213.791357
 51
232.166597
  0
ARC
  8
LC-002-002-----0
  6
CONTINUOUS
  5
1BC
 10
291.704704
 20
478.041151
 30
0.0
 40
15.181682
 50
232.076944
 51
247.397241
  0
ARC
  8
LC-002-002-----0
  6
CONTINUOUS
  5
1BD
 10
293.044121
 20
481.164688
 30
0.0
 40
18.580132
 50
247.286109
 51
260.670206
  0
ARC
  8
LC-002-002-----0
  6
CONTINUOUS
  5
1BE
 10
293.36978
 20
482.923577
 30
0.0
 40
20.36858
 50
260.568361
 51
273.154773
  0
ARC
  8
LC-002-002-----0
  6
CONTINUOUS
  5
1BF
 10
293.437915
 20
482.305744
 30
0.0
 40
19.747963
 50
273.056038
 51
285.905562
  0
ARC
  8
LC-002-002-----0
  6
CONTINUOUS
  5
1C0
 10
294.221562
 20
479.671513
 30
0.0
 40
16.999854
 50
285.798628
 51
300.002481
  0
ARC
  8
LC-002-002-----0
  6
CONTINUOUS
  5
1C1
 10
296.086828
 20
476.491598
 30
0.0
 40
13.313357
 50
299.893816
 51
316.621214
  0
ARC
  8
LC-002-002-----0
  6
CONTINUOUS
  5
1C2
 10
298.432237
 20
474.285197
 30
0.0
 40
10.093251
 50
316.580373
 51
336.714718
  0
ARC
  8
LC-002-002-----0
  6
CONTINUOUS
  5
1C3
 10
300.070301
 20
473.553786
 30
0.0
 40
8.299512
 50
336.882427
 51
359.837009
  0
ENDBLK
  8
0
  5
1C4
  0
BLOCK
  8
0
  5
1C6
  2
BLK26
 70
    64
 10
0.0
 20
0.0
 30
0.0
  3
BLK26
  0
ENDBLK
  8
0
  5
1C7
  0
BLOCK
  8
0
  5
1C9
  2
BLK27
 70
    64
 10
0.0
 20
0.0
 30
0.0
  3
BLK27
  0
ARC
  8
LC-002-002-----0
  6
CONTINUOUS
  5
1CA
 10
354.763599
 20
445.994512
 30
0.0
 40
7.327509
 50
314.887545
 51
331.575467
  0
ARC
  8
LC-002-002-----0
  6
CONTINUOUS
  5
1CB
 10
355.982796
 20
445.363744
 30
0.0
 40
5.955102
 50
331.329038
 51
350.505655
  0
ARC
  8
LC-002-002-----0
  6
CONTINUOUS
  5
1CC
 10
357.726278
 20
445.088457
 30
0.0
 40
4.190124
 50
350.285885
 51
14.563901
  0
ARC
  8
LC-002-002-----0
  6
CONTINUOUS
  5
1CD
 10
358.803537
 20
445.356627
 30
0.0
 40
3.080067
 50
14.77474
 51
44.63214
  0
ARC
  8
LC-002-002-----0
  6
CONTINUOUS
  5
1CE
 10
358.831503
 20
445.328661
 30
0.0
 40
3.080067
 50
45.36786
 51
75.22526
  0
ARC
  8
LC-002-002-----0
  6
CONTINUOUS
  5
1CF
 10
358.563333
 20
444.251402
 30
0.0
 40
4.190124
 50
75.436099
 51
99.714115
  0
ARC
  8
LC-002-002-----0
  6
CONTINUOUS
  5
1D0
 10
358.838619
 20
442.50792
 30
0.0
 40
5.955102
 50
99.494345
 51
118.670962
  0
ARC
  8
LC-002-002-----0
  6
CONTINUOUS
  5
1D1
 10
359.469387
 20
441.288724
 30
0.0
 40
7.327509
 50
118.424533
 51
135.112455
  0
ARC
  8
LC-002-002-----0
  6
CONTINUOUS
  5
1D2
 10
359.449048
 20
441.268385
 30
0.0
 40
7.327509
 50
134.887545
 51
151.575467
  0
ARC
  8
LC-002-002-----0
  6
CONTINUOUS
  5
1D3
 10
358.229852
 20
441.899153
 30
0.0
 40
5.955102
 50
151.329038
 51
170.505655
  0
ARC
  8
LC-002-002-----0
  6
CONTINUOUS
  5
1D4
 10
356.48637
 20
442.174439
 30
0.0
 40
4.190124
 50
170.285885
 51
194.563901
  0
ARC
  8
LC-002-002-----0
  6
CONTINUOUS
  5
1D5
 10
355.409111
 20
441.906269
 30
0.0
 40
3.080067
 50
194.77474
 51
224.63214
  0
ARC
  8
LC-002-002-----0
  6
CONTINUOUS
  5
1D6
 10
355.381145
 20
441.934236
 30
0.0
 40
3.080067
 50
225.36786
 51
255.22526
  0
ARC
  8
LC-002-002-----0
  6
CONTINUOUS
  5
1D7
 10
355.649315
 20
443.011494
 30
0.0
 40
4.190124
 50
255.436099
 51
279.714115
  0
ARC
  8
LC-002-002-----0
  6
CONTINUOUS
  5
1D8
 10
355.374028
 20
444.754977
 30
0.0
 40
5.955102
 50
279.494345
 51
298.670962
  0
ARC
  8
LC-002-002-----0
  6
CONTINUOUS
  5
1D9
 10
354.74326
 20
445.974173
 30
0.0
 40
7.327509
 50
298.424533
 51
315.112455
  0
ENDBLK
  8
0
  5
1DA
  0
BLOCK
  8
0
  5
1DC
  2
BLK28
 70
    64
 10
0.0
 20
0.0
 30
0.0
  3
BLK28
  0
ARC
  8
LC-002-002-----0
  6
CONTINUOUS
  5
1DD
 10
347.042285
 20
427.382374
 30
0.0
 40
7.327509
 50
359.887545
 51
16.575467
  0
ARC
  8
LC-002-002-----0
  6
CONTINUOUS
  5
1DE
 10
348.350407
 20
427.798456
 30
0.0
 40
5.955102
 50
16.329038
 51
35.505655
  0
ARC
  8
LC-002-002-----0
  6
CONTINUOUS
  5
1DF
 10
349.777893
 20
428.836627
 30
0.0
 40
4.190124
 50
35.285885
 51
59.563901
  0
ARC
  8
LC-002-002-----0
  6
CONTINUOUS
  5
1E0
 10
350.350005
 20
429.787988
 30
0.0
 40
3.080067
 50
59.77474
 51
89.63214
  0
ARC
  8
LC-002-002-----0
  6
CONTINUOUS
  5
1E1
 10
350.389555
 20
429.787988
 30
0.0
 40
3.080067
 50
90.36786
 51
120.22526
  0
ARC
  8
LC-002-002-----0
  6
CONTINUOUS
  5
1E2
 10
350.961667
 20
428.836627
 30
0.0
 40
4.190124
 50
120.436099
 51
144.714115
  0
ARC
  8
LC-002-002-----0
  6
CONTINUOUS
  5
1E3
 10
352.389152
 20
427.798456
 30
0.0
 40
5.955102
 50
144.494345
 51
163.670962
  0
ARC
  8
LC-002-002-----0
  6
CONTINUOUS
  5
1E4
 10
353.697275
 20
427.382374
 30
0.0
 40
7.327509
 50
163.424533
 51
180.112455
  0
ARC
  8
LC-002-002-----0
  6
CONTINUOUS
  5
1E5
 10
353.697275
 20
427.35361
 30
0.0
 40
7.327509
 50
179.887545
 51
196.575467
  0
ARC
  8
LC-002-002-----0
  6
CONTINUOUS
  5
1E6
 10
352.389152
 20
426.937529
 30
0.0
 40
5.955102
 50
196.329038
 51
215.505655
  0
ARC
  8
LC-002-002-----0
  6
CONTINUOUS
  5
1E7
 10
350.961667
 20
425.899358
 30
0.0
 40
4.190124
 50
215.285885
 51
239.563901
  0
ARC
  8
LC-002-002-----0
  6
CONTINUOUS
  5
1E8
 10
350.389555
 20
424.947996
 30
0.0
 40
3.080067
 50
239.77474
 51
269.63214
  0
ARC
  8
LC-002-002-----0
  6
CONTINUOUS
  5
1E9
 10
350.350005
 20
424.947996
 30
0.0
 40
3.080067
 50
270.36786
 51
300.22526
  0
ARC
  8
LC-002-002-----0
  6
CONTINUOUS
  5
1EA
 10
349.777893
 20
425.899358
 30
0.0
 40
4.190124
 50
300.436099
 51
324.714115
  0
ARC
  8
LC-002-002-----0
  6
CONTINUOUS
  5
1EB
 10
348.350407
 20
426.937529
 30
0.0
 40
5.955102
 50
324.494345
 51
343.670962
  0
ARC
  8
LC-002-002-----0
  6
CONTINUOUS
  5
1EC
 10
347.042285
 20
427.35361
 30
0.0
 40
7.327509
 50
343.424533
 51
0.112455
  0
ENDBLK
  8
0
  5
1ED
  0
BLOCK
  8
0
  5
1EF
  2
BLK29
 70
    64
 10
0.0
 20
0.0
 30
0.0
  3
BLK29
  0
ARC
  8
LC-002-002-----0
  6
CONTINUOUS
  5
1F0
 10
358.803537
 20
409.379358
 30
0.0
 40
3.080067
 50
315.36786
 51
345.22526
  0
ARC
  8
LC-002-002-----0
  6
CONTINUOUS
  5
1F1
 10
357.726278
 20
409.647527
 30
0.0
 40
4.190124
 50
345.436099
 51
9.714115
  0
ARC
  8
LC-002-002-----0
  6
CONTINUOUS
  5
1F2
 10
355.982796
 20
409.372241
 30
0.0
 40
5.955102
 50
9.494345
 51
28.670962
  0
ARC
  8
LC-002-002-----0
  6
CONTINUOUS
  5
1F3
 10
354.763599
 20
408.741473
 30
0.0
 40
7.327509
 50
28.424533
 51
45.112455
  0
ARC
  8
LC-002-002-----0
  6
CONTINUOUS
  5
1F4
 10
354.74326
 20
408.761812
 30
0.0
 40
7.327509
 50
44.887545
 51
61.575467
  0
ARC
  8
LC-002-002-----0
  6
CONTINUOUS
  5
1F5
 10
355.374028
 20
409.981008
 30
0.0
 40
5.955102
 50
61.329038
 51
80.505655
  0
ARC
  8
LC-002-002-----0
  6
CONTINUOUS
  5
1F6
 10
355.649315
 20
411.72449
 30
0.0
 40
4.190124
 50
80.285885
 51
104.563901
  0
ARC
  8
LC-002-002-----0
  6
CONTINUOUS
  5
1F7
 10
355.381145
 20
412.801749
 30
0.0
 40
3.080067
 50
104.77474
 51
134.63214
  0
ARC
  8
LC-002-002-----0
  6
CONTINUOUS
  5
1F8
 10
355.409111
 20
412.829715
 30
0.0
 40
3.080067
 50
135.36786
 51
165.22526
  0
ARC
  8
LC-002-002-----0
  6
CONTINUOUS
  5
1F9
 10
356.48637
 20
412.561545
 30
0.0
 40
4.190124
 50
165.436099
 51
189.714115
  0
ARC
  8
LC-002-002-----0
  6
CONTINUOUS
  5
1FA
 10
358.229852
 20
412.836832
 30
0.0
 40
5.955102
 50
189.494345
 51
208.670962
  0
ARC
  8
LC-002-002-----0
  6
CONTINUOUS
  5
1FB
 10
359.449048
 20
413.4676
 30
0.0
 40
7.327509
 50
208.424533
 51
225.112455
  0
ARC
  8
LC-002-002-----0
  6
CONTINUOUS
  5
1FC
 10
359.469387
 20
413.447261
 30
0.0
 40
7.327509
 50
224.887545
 51
241.575467
  0
ARC
  8
LC-002-002-----0
  6
CONTINUOUS
  5
1FD
 10
358.838619
 20
412.228065
 30
0.0
 40
5.955102
 50
241.329038
 51
260.505655
  0
ARC
  8
LC-002-002-----0
  6
CONTINUOUS
  5
1FE
 10
358.563333
 20
410.484582
 30
0.0
 40
4.190124
 50
260.285885
 51
284.563901
  0
ARC
  8
LC-002-002-----0
  6
CONTINUOUS
  5
1FF
 10
358.831503
 20
409.407324
 30
0.0
 40
3.080067
 50
284.77474
 51
314.63214
  0
ENDBLK
  8
0
  5
200
  0
BLOCK
  8
0
  5
202
  2
BLK30
 70
    64
 10
0.0
 20
0.0
 30
0.0
  3
BLK30
  0
ARC
  8
LC-002-002-----0
  6
CONTINUOUS
  5
203
 10
387.290511
 20
413.4676
 30
0.0
 40
7.327509
 50
314.887545
 51
331.575467
  0
ARC
  8
LC-002-002-----0
  6
CONTINUOUS
  5
204
 10
388.509707
 20
412.836832
 30
0.0
 40
5.955102
 50
331.329038
 51
350.505655
  0
ARC
  8
LC-002-002-----0
  6
CONTINUOUS
  5
205
 10
390.25319
 20
412.561545
 30
0.0
 40
4.190124
 50
350.285885
 51
14.563901
  0
ARC
  8
LC-002-002-----0
  6
CONTINUOUS
  5
206
 10
391.330448
 20
412.829715
 30
0.0
 40
3.080067
 50
14.77474
 51
44.63214
  0
ARC
  8
LC-002-002-----0
  6
CONTINUOUS
  5
207
 10
391.358415
 20
412.801749
 30
0.0
 40
3.080067
 50
45.36786
 51
75.22526
  0
ARC
  8
LC-002-002-----0
  6
CONTINUOUS
  5
208
 10
391.090245
 20
411.72449
 30
0.0
 40
4.190124
 50
75.436099
 51
99.714115
  0
ARC
  8
LC-002-002-----0
  6
CONTINUOUS
  5
209
 10
391.365531
 20
409.981008
 30
0.0
 40
5.955102
 50
99.494345
 51
118.670962
  0
ARC
  8
LC-002-002-----0
  6
CONTINUOUS
  5
20A
 10
391.996299
 20
408.761812
 30
0.0
 40
7.327509
 50
118.424533
 51
135.112455
  0
ARC
  8
LC-002-002-----0
  6
CONTINUOUS
  5
20B
 10
391.97596
 20
408.741473
 30
0.0
 40
7.327509
 50
134.887545
 51
151.575467
  0
ARC
  8
LC-002-002-----0
  6
CONTINUOUS
  5
20C
 10
390.756764
 20
409.372241
 30
0.0
 40
5.955102
 50
151.329038
 51
170.505655
  0
ARC
  8
LC-002-002-----0
  6
CONTINUOUS
  5
20D
 10
389.013282
 20
409.647527
 30
0.0
 40
4.190124
 50
170.285885
 51
194.563901
  0
ARC
  8
LC-002-002-----0
  6
CONTINUOUS
  5
20E
 10
387.936023
 20
409.379358
 30
0.0
 40
3.080067
 50
194.77474
 51
224.63214
  0
ARC
  8
LC-002-002-----0
  6
CONTINUOUS
  5
20F
 10
387.908057
 20
409.407324
 30
0.0
 40
3.080067
 50
225.36786
 51
255.22526
  0
ARC
  8
LC-002-002-----0
  6
CONTINUOUS
  5
210
 10
388.176227
 20
410.484582
 30
0.0
 40
4.190124
 50
255.436099
 51
279.714115
  0
ARC
  8
LC-002-002-----0
  6
CONTINUOUS
  5
211
 10
387.90094
 20
412.228065
 30
0.0
 40
5.955102
 50
279.494345
 51
298.670962
  0
ARC
  8
LC-002-002-----0
  6
CONTINUOUS
  5
212
 10
387.270172
 20
413.447261
 30
0.0
 40
7.327509
 50
298.424533
 51
315.112455
  0
ENDBLK
  8
0
  5
213
  0
BLOCK
  8
0
  5
215
  2
BLK31
 70
    64
 10
0.0
 20
0.0
 30
0.0
  3
BLK31
  0
ARC
  8
LC-002-002-----0
  6
CONTINUOUS
  5
216
 10
393.042285
 20
427.382374
 30
0.0
 40
7.327509
 50
359.887545
 51
16.575467
  0
ARC
  8
LC-002-002-----0
  6
CONTINUOUS
  5
217
 10
394.350407
 20
427.798456
 30
0.0
 40
5.955102
 50
16.329038
 51
35.505655
  0
ARC
  8
LC-002-002-----0
  6
CONTINUOUS
  5
218
 10
395.777893
 20
428.836627
 30
0.0
 40
4.190124
 50
35.285885
 51
59.563901
  0
ARC
  8
LC-002-002-----0
  6
CONTINUOUS
  5
219
 10
396.350005
 20
429.787988
 30
0.0
 40
3.080067
 50
59.77474
 51
89.63214
  0
ARC
  8
LC-002-002-----0
  6
CONTINUOUS
  5
21A
 10
396.389555
 20
429.787988
 30
0.0
 40
3.080067
 50
90.36786
 51
120.22526
  0
ARC
  8
LC-002-002-----0
  6
CONTINUOUS
  5
21B
 10
396.961667
 20
428.836627
 30
0.0
 40
4.190124
 50
120.436099
 51
144.714115
  0
ARC
  8
LC-002-002-----0
  6
CONTINUOUS
  5
21C
 10
398.389152
 20
427.798456
 30
0.0
 40
5.955102
 50
144.494345
 51
163.670962
  0
ARC
  8
LC-002-002-----0
  6
CONTINUOUS
  5
21D
 10
399.697275
 20
427.382374
 30
0.0
 40
7.327509
 50
163.424533
 51
180.112455
  0
ARC
  8
LC-002-002-----0
  6
CONTINUOUS
  5
21E
 10
399.697275
 20
427.35361
 30
0.0
 40
7.327509
 50
179.887545
 51
196.575467
  0
ARC
  8
LC-002-002-----0
  6
CONTINUOUS
  5
21F
 10
398.389152
 20
426.937529
 30
0.0
 40
5.955102
 50
196.329038
 51
215.505655
  0
ARC
  8
LC-002-002-----0
  6
CONTINUOUS
  5
220
 10
396.961667
 20
425.899358
 30
0.0
 40
4.190124
 50
215.285885
 51
239.563901
  0
ARC
  8
LC-002-002-----0
  6
CONTINUOUS
  5
221
 10
396.389555
 20
424.947996
 30
0.0
 40
3.080067
 50
239.77474
 51
269.63214
  0
ARC
  8
LC-002-002-----0
  6
CONTINUOUS
  5
222
 10
396.350005
 20
424.947996
 30
0.0
 40
3.080067
 50
270.36786
 51
300.22526
  0
ARC
  8
LC-002-002-----0
  6
CONTINUOUS
  5
223
 10
395.777893
 20
425.899358
 30
0.0
 40
4.190124
 50
300.436099
 51
324.714115
  0
ARC
  8
LC-002-002-----0
  6
CONTINUOUS
  5
224
 10
394.350407
 20
426.937529
 30
0.0
 40
5.955102
 50
324.494345
 51
343.670962
  0
ARC
  8
LC-002-002-----0
  6
CONTINUOUS
  5
225
 10
393.042285
 20
427.35361
 30
0.0
 40
7.327509
 50
343.424533
 51
0.112455
  0
ENDBLK
  8
0
  5
226
  0
BLOCK
  8
0
  5
228
  2
BLK32
 70
    64
 10
0.0
 20
0.0
 30
0.0
  3
BLK32
  0
ARC
  8
LC-002-002-----0
  6
CONTINUOUS
  5
229
 10
391.330448
 20
441.906269
 30
0.0
 40
3.080067
 50
315.36786
 51
345.22526
  0
ARC
  8
LC-002-002-----0
  6
CONTINUOUS
  5
22A
 10
390.25319
 20
442.174439
 30
0.0
 40
4.190124
 50
345.436099
 51
9.714115
  0
ARC
  8
LC-002-002-----0
  6
CONTINUOUS
  5
22B
 10
388.509707
 20
441.899153
 30
0.0
 40
5.955102
 50
9.494345
 51
28.670962
  0
ARC
  8
LC-002-002-----0
  6
CONTINUOUS
  5
22C
 10
387.290511
 20
441.268385
 30
0.0
 40
7.327509
 50
28.424533
 51
45.112455
  0
ARC
  8
LC-002-002-----0
  6
CONTINUOUS
  5
22D
 10
387.270172
 20
441.288724
 30
0.0
 40
7.327509
 50
44.887545
 51
61.575467
  0
ARC
  8
LC-002-002-----0
  6
CONTINUOUS
  5
22E
 10
387.90094
 20
442.50792
 30
0.0
 40
5.955102
 50
61.329038
 51
80.505655
  0
ARC
  8
LC-002-002-----0
  6
CONTINUOUS
  5
22F
 10
388.176227
 20
444.251402
 30
0.0
 40
4.190124
 50
80.285885
 51
104.563901
  0
ARC
  8
LC-002-002-----0
  6
CONTINUOUS
  5
230
 10
387.908057
 20
445.328661
 30
0.0
 40
3.080067
 50
104.77474
 51
134.63214
  0
ARC
  8
LC-002-002-----0
  6
CONTINUOUS
  5
231
 10
387.936023
 20
445.356627
 30
0.0
 40
3.080067
 50
135.36786
 51
165.22526
  0
ARC
  8
LC-002-002-----0
  6
CONTINUOUS
  5
232
 10
389.013282
 20
445.088457
 30
0.0
 40
4.190124
 50
165.436099
 51
189.714115
  0
ARC
  8
LC-002-002-----0
  6
CONTINUOUS
  5
233
 10
390.756764
 20
445.363744
 30
0.0
 40
5.955102
 50
189.494345
 51
208.670962
  0
ARC
  8
LC-002-002-----0
  6
CONTINUOUS
  5
234
 10
391.97596
 20
445.994512
 30
0.0
 40
7.327509
 50
208.424533
 51
225.112455
  0
ARC
  8
LC-002-002-----0
  6
CONTINUOUS
  5
235
 10
391.996299
 20
445.974173
 30
0.0
 40
7.327509
 50
224.887545
 51
241.575467
  0
ARC
  8
LC-002-002-----0
  6
CONTINUOUS
  5
236
 10
391.365531
 20
444.754977
 30
0.0
 40
5.955102
 50
241.329038
 51
260.505655
  0
ARC
  8
LC-002-002-----0
  6
CONTINUOUS
  5
237
 10
391.090245
 20
443.011494
 30
0.0
 40
4.190124
 50
260.285885
 51
284.563901
  0
ARC
  8
LC-002-002-----0
  6
CONTINUOUS
  5
238
 10
391.358415
 20
441.934236
 30
0.0
 40
3.080067
 50
284.77474
 51
314.63214
  0
ENDBLK
  8
0
  5
239
  0
BLOCK
  8
0
  5
23B
  2
BLK33
 70
    64
 10
0.0
 20
0.0
 30
0.0
  3
BLK33
  0
ARC
  8
LC-002-002-----0
  6
CONTINUOUS
  5
23C
 10
375.789776
 20
450.348217
 30
0.0
 40
3.080067
 50
0.36786
 51
30.22526
  0
ARC
  8
LC-002-002-----0
  6
CONTINUOUS
  5
23D
 10
374.838414
 20
449.776105
 30
0.0
 40
4.190124
 50
30.436099
 51
54.714115
  0
ARC
  8
LC-002-002-----0
  6
CONTINUOUS
  5
23E
 10
373.800243
 20
448.34862
 30
0.0
 40
5.955102
 50
54.494345
 51
73.670962
  0
ARC
  8
LC-002-002-----0
  6
CONTINUOUS
  5
23F
 10
373.384162
 20
447.040497
 30
0.0
 40
7.327509
 50
73.424533
 51
90.112455
  0
ARC
  8
LC-002-002-----0
  6
CONTINUOUS
  5
240
 10
373.355398
 20
447.040497
 30
0.0
 40
7.327509
 50
89.887545
 51
106.575467
  0
ARC
  8
LC-002-002-----0
  6
CONTINUOUS
  5
241
 10
372.939316
 20
448.34862
 30
0.0
 40
5.955102
 50
106.329038
 51
125.505655
  0
ARC
  8
LC-002-002-----0
  6
CONTINUOUS
  5
242
 10
371.901145
 20
449.776105
 30
0.0
 40
4.190124
 50
125.285885
 51
149.563901
  0
ARC
  8
LC-002-002-----0
  6
CONTINUOUS
  5
243
 10
370.949784
 20
450.348217
 30
0.0
 40
3.080067
 50
149.77474
 51
179.63214
  0
ARC
  8
LC-002-002-----0
  6
CONTINUOUS
  5
244
 10
370.949784
 20
450.387767
 30
0.0
 40
3.080067
 50
180.36786
 51
210.22526
  0
ARC
  8
LC-002-002-----0
  6
CONTINUOUS
  5
245
 10
371.901145
 20
450.959879
 30
0.0
 40
4.190124
 50
210.436099
 51
234.714115
  0
ARC
  8
LC-002-002-----0
  6
CONTINUOUS
  5
246
 10
372.939316
 20
452.387365
 30
0.0
 40
5.955102
 50
234.494345
 51
253.670962
  0
ARC
  8
LC-002-002-----0
  6
CONTINUOUS
  5
247
 10
373.355398
 20
453.695487
 30
0.0
 40
7.327509
 50
253.424533
 51
270.112455
  0
ARC
  8
LC-002-002-----0
  6
CONTINUOUS
  5
248
 10
373.384162
 20
453.695487
 30
0.0
 40
7.327509
 50
269.887545
 51
286.575467
  0
ARC
  8
LC-002-002-----0
  6
CONTINUOUS
  5
249
 10
373.800243
 20
452.387365
 30
0.0
 40
5.955102
 50
286.329038
 51
305.505655
  0
ARC
  8
LC-002-002-----0
  6
CONTINUOUS
  5
24A
 10
374.838414
 20
450.959879
 30
0.0
 40
4.190124
 50
305.285885
 51
329.563901
  0
ARC
  8
LC-002-002-----0
  6
CONTINUOUS
  5
24B
 10
375.789776
 20
450.387767
 30
0.0
 40
3.080067
 50
329.77474
 51
359.63214
  0
ENDBLK
  8
0
  5
24C
  0
BLOCK
  8
0
  5
24E
  2
BLK34
 70
    64
 10
0.0
 20
0.0
 30
0.0
  3
BLK34
  0
ENDBLK
  8
0
  5
24F
  0
BLOCK
  8
0
  5
251
  2
BLK35
 70
    64
 10
0.0
 20
0.0
 30
0.0
  3
BLK35
  0
ENDBLK
  8
0
  5
252
  0
BLOCK
  8
0
  5
254
  2
BLK36
 70
    64
 10
0.0
 20
0.0
 30
0.0
  3
BLK36
  0
ENDBLK
  8
0
  5
255
  0
BLOCK
  8
0
  5
257
  2
BLK37
 70
    64
 10
0.0
 20
0.0
 30
0.0
  3
BLK37
  0
ENDBLK
  8
0
  5
258
  0
BLOCK
  8
0
  5
25A
  2
BLK38
 70
    64
 10
0.0
 20
0.0
 30
0.0
  3
BLK38
  0
ENDBLK
  8
0
  5
25B
  0
BLOCK
  8
0
  5
25D
  2
BLK39
 70
    64
 10
0.0
 20
0.0
 30
0.0
  3
BLK39
  0
ENDBLK
  8
0
  5
25E
  0
BLOCK
  8
0
  5
260
  2
BLK40
 70
    64
 10
0.0
 20
0.0
 30
0.0
  3
BLK40
  0
ENDBLK
  8
0
  5
261
  0
BLOCK
  8
0
  5
263
  2
BLK41
 70
    64
 10
0.0
 20
0.0
 30
0.0
  3
BLK41
  0
ENDBLK
  8
0
  5
264
  0
BLOCK
  8
0
  5
266
  2
BLK42
 70
    64
 10
0.0
 20
0.0
 30
0.0
  3
BLK42
  0
ENDBLK
  8
0
  5
267
  0
ENDSEC
  0
SECTION
  2
ENTITIES
  0
VIEWPORT
  8
LC-000
  5
660
 67
     1
 68
     1
 10
594.0
 20
420.0
 30
0.0
 40
1188.0
 41
840.0
 69
     1
1001
ACAD
1000
MVIEW
1002
{
1070
    16
1010
0.0
1020
0.0
1030
0.0
1010
0.0
1020
0.0
1030
1.0
1040
0.0
1040
840.0
1040
594.0
1040
420.0
1040
50.0
1040
0.0
1040
0.0
1070
     0
1070
   100
1070
     1
1070
     1
1070
     0
1070
     0
1070
     0
1070
     0
1040
0.0
1040
0.0
1040
0.0
1040
1.0
1040
1.0
1040
0.0
1040
0.0
1070
     0
1002
{
1002
}
1002
}
  0
VIEWPORT
  8
0
  5
661
 67
     1
 68
     1
 10
0.0
 20
0.0
 30
0.0
 40
0.0
 41
0.0
 69
     1
1001
ACAD
1000
MVIEW
1002
{
1070
    16
1010
0.0
1020
0.0
1030
0.0
1010
0.0
1020
0.0
1030
1.0
1040
0.0
1040
840.0
1040
0.0
1040
0.0
1040
50.0
1040
0.0
1040
0.0
1070
     0
1070
   100
1070
     0
1070
     1
1070
     0
1070
     0
1070
     0
1070
     0
1040
0.0
1040
0.0
1040
0.0
1040
0.5
1040
0.5
1040
0.5
1040
0.5
1070
     0
1002
{
1002
}
1002
}
  0
DIMENSION
  8
LC-003-003-----0
  6
CONTINUOUS
  5
268
  2
*D0
 10
373.36978
 20
548.8
 30
0.0
 11
373.36978
 21
548.8
 31
0.0
 13
233.36978
 23
469.867992
 33
0.0
 14
513.36978
 24
469.867992
 34
0.0
  3
LC-DIM-L-0140-02-02
  0
DIMENSION
  8
LC-003-003-----0
  6
CONTINUOUS
  5
269
  2
*D1
 10
-40.40113
 20
313.6
 30
0.0
 11
-40.40113
 21
313.6
 31
0.0
  1
73-120
 13
-7.511835
 23
377.209984
 33
0.0
 14
93.329174
 24
354.209984
 34
0.0
  3
LC-DIM-L-0140-02-02
  0
INSERT
  8
LC-007-000-----0
  5
26B
  2
BLK1
 10
0.0
 20
0.0
 30
0.0
  0
INSERT
  8
LC-007-000-----0
  5
26C
  2
BLK2
 10
0.0
 20
0.0
 30
0.0
  0
INSERT
  8
LC-002-002-----0
  6
CONTINUOUS
  5
26D
  2
BLK3
 10
0.0
 20
0.0
 30
0.0
  0
INSERT
  8
LC-002-002-----0
  6
CONTINUOUS
  5
26E
  2
BLK4
 10
0.0
 20
0.0
 30
0.0
  0
INSERT
  8
LC-002-002-----0
  6
CONTINUOUS
  5
26F
  2
BLK5
 10
0.0
 20
0.0
 30
0.0
  0
INSERT
  8
LC-009-000-----0
  5
271
  2
BLK6
 10
0.0
 20
0.0
 30
0.0
  0
INSERT
  8
LC-009-000-----0
  5
272
  2
BLK7
 10
0.0
 20
0.0
 30
0.0
  0
INSERT
  8
LC-009-000-----0
  5
273
  2
BLK8
 10
0.0
 20
0.0
 30
0.0
  0
INSERT
  8
LC-007-000-----0
  5
274
  2
BLK9
 10
0.0
 20
0.0
 30
0.0
  0
INSERT
  8
LC-007-000-----0
  5
275
  2
BLK10
 10
0.0
 20
0.0
 30
0.0
  0
INSERT
  8
LC-009-000-----0
  5
276
  2
BLK11
 10
0.0
 20
0.0
 30
0.0
  0
DIMENSION
  8
LC-003-003-----0
  6
CONTINUOUS
  5
277
  2
*D13
 10
333.36978
 20
509.6
 30
0.0
 11
333.36978
 21
509.6
 31
0.0
 13
293.36978
 23
484.505177
 33
0.0
 14
373.36978
 24
484.867992
 34
0.0
  3
LC-DIM-L-0140-02-02
  0
DIMENSION
  8
LC-003-003-----0
  6
CONTINUOUS
  5
278
  2
*D14
 10
413.36978
 20
509.6
 30
0.0
 11
413.36978
 21
509.6
 31
0.0
 13
453.36978
 23
484.505177
 33
0.0
 14
373.36978
 24
484.867992
 34
0.0
  3
LC-DIM-L-0140-02-02
  0
DIMENSION
  8
LC-003-003-----0
  6
CONTINUOUS
  5
279
  2
*D15
 10
-39.012911
 20
509.6
 30
0.0
 11
-39.012911
 21
509.6
 31
0.0
  1
55
 13
-65.513987
 23
426.211265
 33
0.0
 14
-12.511835
 24
470.967344
 34
0.0
  3
LC-DIM-L-0140-02-02
  0
INSERT
  8
LC-002-002-----0
  6
CONTINUOUS
  5
27A
  2
BLK12
 10
0.0
 20
0.0
 30
0.0
  0
INSERT
  8
LC-002-002-----0
  6
CONTINUOUS
  5
27B
  2
BLK13
 10
0.0
 20
0.0
 30
0.0
  0
INSERT
  8
LC-002-002-----0
  6
CONTINUOUS
  5
27C
  2
BLK14
 10
0.0
 20
0.0
 30
0.0
  0
DIMENSION
  8
LC-003-003-----0
  6
CONTINUOUS
  5
27D
  2
*D19
 10
158.139709
 20
196.0
 30
0.0
 11
158.139709
 21
196.0
 31
0.0
  1
DN40
 13
31.829174
 23
290.53454
 33
0.0
 14
71.829174
 24
290.709984
 34
0.0
  3
LC-DIM-L-0140-02-02
  0
DIMENSION
  8
LC-003-003-----0
  6
CONTINUOUS
  5
27E
  2
*D20
 10
118.713159
 20
156.8
 30
0.0
 11
118.713159
 21
156.8
 31
0.0
  1
DN50
 13
26.829174
 23
237.709984
 33
0.0
 14
76.829174
 24
237.709984
 34
0.0
  3
LC-DIM-L-0140-02-02
  0
DIMENSION
  8
LC-003-003-----0
  6
CONTINUOUS
  5
27F
  2
*D21
 10
196.0
 20
330.867992
 30
0.0
 11
196.0
 21
330.867992
 31
0.0
 13
154.22978
 23
427.367992
 33
0.0
 14
349.307602
 24
234.367992
 34
0.0
 50
90.0
  3
LC-DIM-L-0140-02-02
  0
DIMENSION
  8
LC-003-003-----0
  6
CONTINUOUS
  5
280
  2
*D22
 10
588.0
 20
500.946
 30
0.0
 11
588.0
 21
500.946
 31
0.0
 13
520.86978
 23
377.367992
 33
0.0
 14
520.86978
 24
477.367992
 34
0.0
 50
90.0
  3
LC-DIM-L-0140-02-02
  0
INSERT
  8
LC-002-002-----0
  6
CONTINUOUS
  5
281
  2
BLK15
 10
0.0
 20
0.0
 30
0.0
  0
INSERT
  8
LC-009-000-----0
  5
282
  2
BLK16
 10
0.0
 20
0.0
 30
0.0
  0
INSERT
  8
LC-009-000-----0
  5
283
  2
BLK17
 10
0.0
 20
0.0
 30
0.0
  0
INSERT
  8
LC-007-000-----0
  5
284
  2
BLK18
 10
0.0
 20
0.0
 30
0.0
  0
INSERT
  8
LC-007-000-----0
  5
285
  2
BLK19
 10
0.0
 20
0.0
 30
0.0
  0
INSERT
  8
LC-009-000-----0
  5
286
  2
BLK20
 10
0.0
 20
0.0
 30
0.0
  0
INSERT
  8
LC-007-000-----0
  5
287
  2
BLK21
 10
0.0
 20
0.0
 30
0.0
  0
INSERT
  8
LC-002-002-----0
  6
CONTINUOUS
  5
288
  2
BLK22
 10
0.0
 20
0.0
 30
0.0
  0
INSERT
  8
LC-002-002-----0
  6
CONTINUOUS
  5
289
  2
BLK23
 10
0.0
 20
0.0
 30
0.0
  0
INSERT
  8
LC-002-002-----0
  6
CONTINUOUS
  5
28A
  2
BLK24
 10
0.0
 20
0.0
 30
0.0
  0
INSERT
  8
LC-002-002-----0
  6
CONTINUOUS
  5
28B
  2
BLK25
 10
0.0
 20
0.0
 30
0.0
  0
INSERT
  8
LC-007-000-----0
  5
28C
  2
BLK26
 10
0.0
 20
0.0
 30
0.0
  0
INSERT
  8
LC-002-002-----0
  6
CONTINUOUS
  5
28D
  2
BLK27
 10
0.0
 20
0.0
 30
0.0
  0
INSERT
  8
LC-002-002-----0
  6
CONTINUOUS
  5
28E
  2
BLK28
 10
0.0
 20
0.0
 30
0.0
  0
INSERT
  8
LC-002-002-----0
  6
CONTINUOUS
  5
28F
  2
BLK29
 10
0.0
 20
0.0
 30
0.0
  0
INSERT
  8
LC-002-002-----0
  6
CONTINUOUS
  5
290
  2
BLK30
 10
0.0
 20
0.0
 30
0.0
  0
INSERT
  8
LC-002-002-----0
  6
CONTINUOUS
  5
291
  2
BLK31
 10
0.0
 20
0.0
 30
0.0
  0
INSERT
  8
LC-002-002-----0
  6
CONTINUOUS
  5
292
  2
BLK32
 10
0.0
 20
0.0
 30
0.0
  0
INSERT
  8
LC-002-002-----0
  6
CONTINUOUS
  5
293
  2
BLK33
 10
0.0
 20
0.0
 30
0.0
  0
INSERT
  8
LC-007-000-----0
  5
294
  2
BLK34
 10
0.0
 20
0.0
 30
0.0
  0
INSERT
  8
LC-007-000-----0
  5
295
  2
BLK35
 10
0.0
 20
0.0
 30
0.0
  0
INSERT
  8
LC-007-000-----0
  5
296
  2
BLK36
 10
0.0
 20
0.0
 30
0.0
  0
INSERT
  8
LC-007-000-----0
  5
297
  2
BLK37
 10
0.0
 20
0.0
 30
0.0
  0
INSERT
  8
LC-007-000-----0
  5
298
  2
BLK38
 10
0.0
 20
0.0
 30
0.0
  0
INSERT
  8
LC-007-000-----0
  5
299
  2
BLK39
 10
0.0
 20
0.0
 30
0.0
  0
INSERT
  8
LC-007-000-----0
  5
29A
  2
BLK40
 10
0.0
 20
0.0
 30
0.0
  0
INSERT
  8
LC-009-000-----0
  5
29B
  2
BLK41
 10
0.0
 20
0.0
 30
0.0
  0
INSERT
  8
LC-009-000-----0
  5
29C
  2
BLK42
 10
0.0
 20
0.0
 30
0.0
  0
ARC
  8
LC-001-002-RND-0
  6
CONTINUOUS
  5
29E
 10
352.36978
 20
284.367992
 30
0.0
 40
4.0
 50
90.0
 51
180.0
  0
LINE
  8
LC-002-002-----0
  6
CONTINUOUS
  5
29F
 10
467.418507
 20
477.367992
 30
0.0
 11
509.86978
 21
477.367992
 31
0.0
  0
LINE
  8
LC-002-002-----0
  6
DASHDOT
 62
     2
  5
2A1
 10
326.36978
 20
432.367992
 30
0.0
 11
326.36978
 21
422.367992
 31
0.0
  0
LINE
  8
LC-002-002-----0
  6
DASHDOT
 62
     2
  5
2A2
 10
453.374051
 20
430.367992
 30
0.0
 11
453.374051
 21
424.367992
 31
0.0
  0
LINE
  8
LC-002-002-----0
  6
DASHDOT
 62
     2
  5
2A3
 10
473.36978
 20
430.367992
 30
0.0
 11
473.36978
 21
424.367992
 31
0.0
  0
LINE
  8
LC-002-002-----0
  6
CONTINUOUS
  5
2A4
 10
344.388258
 20
339.367992
 30
0.0
 11
400.033347
 21
339.367992
 31
0.0
  0
LINE
  8
LC-002-002-----0
  6
CONTINUOUS
  5
2A5
 10
634.22978
 20
452.367992
 30
0.0
 11
634.22978
 21
402.367992
 31
0.0
  0
LINE
  8
LC-002-002-----0
  6
DASHDOT
 62
     2
  5
2A6
 10
420.36978
 20
432.367992
 30
0.0
 11
420.36978
 21
422.367992
 31
0.0
  0
ARC
  8
LC-001-002-RND-0
  6
CONTINUOUS
  5
2A7
 10
394.36978
 20
284.367992
 30
0.0
 40
4.0
 50
360.0
 51
90.0
  0
LINE
  8
LC-002-002-----0
  6
DASHDOT
 62
     2
  5
2A8
 10
414.595858
 20
393.365193
 30
0.0
 11
414.595858
 21
383.365193
 31
0.0
  0
LINE
  8
LC-002-002-----0
  6
CONTINUOUS
  5
2A9
 10
393.36978
 20
339.367992
 30
0.0
 11
393.36978
 21
288.367992
 31
0.0
  0
LINE
  8
LC-002-002-----0
  6
CONTINUOUS
  5
2AA
 10
12.488165
 20
410.709984
 30
0.0
 11
12.488165
 21
443.709984
 31
0.0
  0
LINE
  8
LC-002-002-----0
  6
DASHDOT
 62
     2
  5
2AB
 10
411.995858
 20
388.365193
 30
0.0
 11
419.595858
 21
388.365193
 31
0.0
  0
LINE
  8
LC-002-002-----0
  6
DASHDOT
 62
     2
  5
2AC
 10
323.595858
 20
387.865193
 30
0.0
 11
332.947699
 21
387.865193
 31
0.0
  0
LINE
  8
LC-002-002-----0
  6
DASHDOT
 62
     2
  5
2AD
 10
328.595858
 20
392.865193
 30
0.0
 11
328.595858
 21
382.865193
 31
0.0
  0
LINE
  8
LC-002-002-----0
  6
DASHDOT
 62
     2
  5
2AE
 10
273.374051
 20
430.367992
 30
0.0
 11
273.374051
 21
424.367992
 31
0.0
  0
LINE
  8
LC-002-002-----0
  6
DASHDOT
 62
     2
  5
2AF
 10
313.374051
 20
430.367992
 30
0.0
 11
313.374051
 21
424.367992
 31
0.0
  0
LINE
  8
LC-002-002-----0
  6
CONTINUOUS
  5
2B0
 10
73.329174
 20
429.309984
 30
0.0
 11
73.329174
 21
447.209984
 31
0.0
  0
LINE
  8
LC-002-002-----0
  6
CONTINUOUS
  5
2B1
 10
74.829174
 20
429.309984
 30
0.0
 11
74.829174
 21
447.209984
 31
0.0
  0
LINE
  8
LC-002-002-----0
  6
DASHDOT
 62
     2
  5
2B2
 10
373.36978
 20
288.367992
 30
0.0
 11
373.36978
 21
231.81099
 31
0.0
  0
LINE
  8
LC-002-002-----0
  6
CONTINUOUS
  5
2B3
 10
76.329174
 20
429.309984
 30
0.0
 11
76.329174
 21
447.209984
 31
0.0
  0
ARC
  8
LC-002-002-----0
  6
DASHED
 62
     2
  5
2B5
 10
293.36978
 20
439.867992
 30
0.0
 40
6.0
 50
89.033562
 51
90.966438
  0
CIRCLE
  8
LC-002-002-----0
  6
DASHED
 62
     2
  5
2B6
 10
293.36978
 20
427.367992
 30
0.0
 40
13.5
  0
LINE
  8
LC-002-002-----0
  6
CONTINUOUS
  5
2B7
 10
689.721169
 20
454.367992
 30
0.0
 11
693.721169
 21
454.367992
 31
0.0
  0
LINE
  8
LC-002-002-----0
  6
CONTINUOUS
  5
2B8
 10
693.721169
 20
454.367992
 30
0.0
 11
693.721169
 21
445.367992
 31
0.0
  0
LINE
  8
LC-002-002-----0
  6
CONTINUOUS
  5
2B9
 10
693.721169
 20
437.367992
 30
0.0
 11
693.721169
 21
417.367992
 31
0.0
  0
LINE
  8
LC-002-002-----0
  6
CONTINUOUS
  5
2BA
 10
693.721169
 20
409.367992
 30
0.0
 11
693.721169
 21
365.367992
 31
0.0
  0
LINE
  8
LC-002-002-----0
  6
CONTINUOUS
  5
2BB
 10
693.721169
 20
400.367992
 30
0.0
 11
689.721169
 21
400.367992
 31
0.0
  0
LINE
  8
LC-002-002-----0
  6
CONTINUOUS
  5
2BC
 10
689.721169
 20
400.367992
 30
0.0
 11
689.721169
 21
401.867992
 31
0.0
  0
ARC
  8
LC-002-002-----0
  6
CONTINUOUS
  5
2BD
 10
453.365509
 20
427.367992
 30
0.0
 40
30.5
 50
119.459175
 51
239.456211
  0
ARC
  8
LC-002-002-----0
  6
CONTINUOUS
  5
2BE
 10
453.365509
 20
427.367992
 30
0.0
 40
30.5
 50
301.798913
 51
60.540825
  0
LINE
  8
LC-002-002-----0
  6
CONTINUOUS
  5
2BF
 10
440.365509
 20
410.617992
 30
0.0
 11
466.365509
 21
410.617992
 31
0.0
  0
LINE
  8
LC-002-002-----0
  6
DASHED
 62
     2
  5
2C0
 10
466.86978
 20
454.367992
 30
0.0
 11
439.86978
 21
454.367992
 31
0.0
  0
LINE
  8
LC-002-002-----0
  6
CONTINUOUS
  5
2C1
 10
468.865509
 20
393.617992
 30
0.0
 11
437.865509
 21
393.617992
 31
0.0
  0
LINE
  8
LC-002-002-----0
  6
CONTINUOUS
  5
2C2
 10
437.865509
 20
393.617992
 30
0.0
 11
437.865509
 21
408.117992
 31
0.0
  0
LINE
  8
LC-002-002-----0
  6
CONTINUOUS
  5
2C3
 10
468.865509
 20
408.117992
 30
0.0
 11
468.865509
 21
393.617992
 31
0.0
  0
LINE
  8
LC-002-002-----0
  6
DASHED
 62
     2
  5
2C4
 10
439.86978
 20
436.745779
 30
0.0
 11
439.86978
 21
454.367992
 31
0.0
  0
CIRCLE
  8
LC-002-002-----0
  6
DASHED
 62
     2
  5
2C5
 10
473.36978
 20
427.367992
 30
0.0
 40
3.0
  0
LINE
  8
LC-002-002-----0
  6
DASHED
 62
     2
  5
2C6
 10
406.314345
 20
354.367992
 30
0.0
 11
411.369051
 21
354.367992
 31
0.0
  0
LINE
  8
LC-002-002-----0
  6
DASHED
 62
     2
  5
2C7
 10
466.86978
 20
436.745779
 30
0.0
 11
466.86978
 21
454.367992
 31
0.0
  0
LINE
  8
LC-002-002-----0
  6
CONTINUOUS
  5
2C8
 10
235.86978
 20
477.367992
 30
0.0
 11
279.316781
 21
477.367992
 31
0.0
  0
LINE
  8
LC-002-002-----0
  6
CONTINUOUS
  5
2C9
 10
440.365509
 20
410.617992
 30
0.0
 11
437.865509
 21
408.117992
 31
0.0
  0
LINE
  8
LC-002-002-----0
  6
CONTINUOUS
  5
2CA
 10
791.550802
 20
477.873279
 30
0.0
 11
791.550802
 21
376.862705
 31
0.0
  0
LINE
  8
LC-002-002-----0
  6
CONTINUOUS
  5
2CB
 10
791.550802
 20
477.873279
 30
0.0
 11
795.678834
 21
473.758682
 31
0.0
  0
LINE
  8
LC-002-002-----0
  6
CONTINUOUS
  5
2CC
 10
689.721169
 20
401.867992
 30
0.0
 11
691.721169
 21
401.867992
 31
0.0
  0
LINE
  8
LC-002-002-----0
  6
CONTINUOUS
  5
2CD
 10
691.721169
 20
401.867992
 30
0.0
 11
691.721169
 21
452.867992
 31
0.0
  0
LINE
  8
LC-002-002-----0
  6
CONTINUOUS
  5
2CE
 10
691.721169
 20
452.867992
 30
0.0
 11
689.721169
 21
452.867992
 31
0.0
  0
LINE
  8
LC-002-002-----0
  6
CONTINUOUS
  5
2CF
 10
689.721169
 20
452.867992
 30
0.0
 11
689.721169
 21
454.367992
 31
0.0
  0
LINE
  8
LC-002-002-----0
  6
CONTINUOUS
  5
2D0
 10
693.721169
 20
445.367992
 30
0.0
 11
693.721169
 21
437.367992
 31
0.0
  0
LINE
  8
LC-002-002-----0
  6
CONTINUOUS
  5
2D1
 10
693.721169
 20
417.367992
 30
0.0
 11
693.721169
 21
409.367992
 31
0.0
  0
LINE
  8
LC-002-002-----0
  6
CONTINUOUS
  5
2D2
 10
693.721169
 20
365.367992
 30
0.0
 11
693.721169
 21
354.367992
 31
0.0
  0
LINE
  8
LC-002-002-----0
  6
CONTINUOUS
  5
2D3
 10
466.365509
 20
410.617992
 30
0.0
 11
468.865509
 21
408.117992
 31
0.0
  0
LINE
  8
LC-006-002-___-0
  6
DASHED
  5
2D5
 10
451.83528
 20
418.195462
 30
0.0
 11
442.183703
 21
419.810103
 31
0.0
  0
LINE
  8
LC-006-002-___-0
  6
DASHED
  5
2D6
 10
454.90428
 20
436.540522
 30
0.0
 11
466.86978
 21
434.538778
 31
0.0
  0
LINE
  8
LC-002-002-----0
  6
CONTINUOUS
  5
2D7
 10
693.721169
 20
354.367992
 30
0.0
 11
689.721169
 21
354.367992
 31
0.0
  0
ARC
  8
LC-001-002-RND-0
  6
CONTINUOUS
  5
2D8
 10
889.135012
 20
464.332302
 30
0.0
 40
2.5
 50
315.0
 51
45.0
  0
LINE
  8
LC-002-002-----0
  6
DASHED
 62
     2
  5
2D9
 10
769.721169
 20
437.855513
 30
0.0
 11
769.721169
 21
416.895513
 31
0.0
  0
LINE
  8
LC-002-002-----0
  6
CONTINUOUS
  5
2DA
 10
809.221169
 20
439.867992
 30
0.0
 11
808.221169
 21
440.867992
 31
0.0
  0
LINE
  8
LC-002-002-----0
  6
CONTINUOUS
  5
2DB
 10
689.721169
 20
354.367992
 30
0.0
 11
689.721169
 21
361.367992
 31
0.0
  0
LINE
  8
LC-002-002-----0
  6
CONTINUOUS
  5
2DC
 10
693.721169
 20
389.853173
 30
0.0
 11
689.721169
 21
389.853173
 31
0.0
  0
LINE
  8
LC-002-002-----0
  6
CONTINUOUS
  5
2DD
 10
691.721169
 20
389.853173
 30
0.0
 11
691.721169
 21
354.367992
 31
0.0
  0
LINE
  8
LC-002-002-----0
  6
CONTINUOUS
  5
2DE
 10
705.721169
 20
285.867992
 30
0.0
 11
708.513069
 21
285.867992
 31
0.0
  0
LINE
  8
LC-002-002-----0
  6
CONTINUOUS
  5
2DF
 10
705.721169
 20
288.367992
 30
0.0
 11
705.721169
 21
285.867992
 31
0.0
  0
LINE
  8
LC-002-002-----0
  6
CONTINUOUS
  5
2E0
 10
757.929268
 20
285.867992
 30
0.0
 11
760.721169
 21
285.867992
 31
0.0
  0
LINE
  8
LC-002-002-----0
  6
CONTINUOUS
  5
2E1
 10
760.721169
 20
288.367992
 30
0.0
 11
760.721169
 21
285.867992
 31
0.0
  0
LINE
  8
LC-002-002-----0
  6
CONTINUOUS
  5
2E2
 10
753.221169
 20
290.692548
 30
0.0
 11
753.221169
 21
341.367992
 31
0.0
  0
ARC
  8
LC-001-002-RND-0
  6
CONTINUOUS
  5
2E3
 10
752.221169
 20
343.867992
 30
0.0
 40
2.5
 50
270.0
 51
0.0
  0
LINE
  8
LC-002-002-----0
  6
CONTINUOUS
  5
2E4
 10
756.200443
 20
234.367992
 30
0.0
 11
710.241895
 21
234.367992
 31
0.0
  0
ARC
  8
LC-001-002-RND-0
  6
CONTINUOUS
  5
2E5
 10
710.721169
 20
290.867992
 30
0.0
 40
2.5
 50
270.0
 51
0.0
  0
ARC
  8
LC-001-002-RND-0
  6
CONTINUOUS
  5
2E6
 10
755.721169
 20
290.692548
 30
0.0
 40
2.5
 50
180.0
 51
256.657636
  0
LINE
  8
LC-002-002-----0
  6
CONTINUOUS
  5
2E7
 10
708.221169
 20
237.867992
 30
0.0
 11
708.221169
 21
284.367992
 31
0.0
  0
LINE
  8
LC-002-002-----0
  6
CONTINUOUS
  5
2E8
 10
712.221169
 20
288.367992
 30
0.0
 11
760.721169
 21
288.367992
 31
0.0
  0
LINE
  8
LC-002-002-----0
  6
CONTINUOUS
  5
2E9
 10
809.221169
 20
414.867992
 30
0.0
 11
808.221169
 21
413.867992
 31
0.0
  0
LINE
  8
LC-002-002-----0
  6
CONTINUOUS
  5
2EA
 10
808.221169
 20
440.867992
 30
0.0
 11
808.221169
 21
413.867992
 31
0.0
  0
LINE
  8
LC-002-002-----0
  6
CONTINUOUS
  5
2EB
 10
808.221169
 20
437.87735
 30
0.0
 11
808.221169
 21
416.87735
 31
0.0
  0
ARC
  8
LC-001-002-RND-0
  6
CONTINUOUS
  5
2EC
 10
752.221169
 20
366.367992
 30
0.0
 40
2.5
 50
0.0
 51
10.917885
  0
LINE
  8
LC-002-002-----0
  6
CONTINUOUS
  5
2ED
 10
754.675918
 20
366.841497
 30
0.0
 11
745.604817
 21
413.867992
 31
0.0
  0
ARC
  8
LC-001-002-RND-0
  6
CONTINUOUS
  5
2EE
 10
733.221169
 20
464.867992
 30
0.0
 40
2.5
 50
10.917885
 51
90.0
  0
LINE
  8
LC-002-002-----0
  6
CONTINUOUS
  5
2EF
 10
693.721169
 20
454.367992
 30
0.0
 11
693.721169
 21
467.882811
 31
0.0
  0
LINE
  8
LC-002-002-----0
  6
CONTINUOUS
  5
2F0
 10
693.721169
 20
467.882811
 30
0.0
 11
689.721169
 21
467.882811
 31
0.0
  0
LINE
  8
LC-002-002-----0
  6
CONTINUOUS
  5
2F1
 10
737.792634
 20
454.367992
 30
0.0
 11
735.675918
 21
465.341497
 31
0.0
  0
ARC
  8
LC-002-002-----0
  6
CONTINUOUS
  5
2F2
 10
793.560975
 20
471.633907
 30
0.0
 40
3.0
 50
0.093394
 51
45.093394
  0
LINE
  8
LC-002-002-----0
  6
CONTINUOUS
  5
2F3
 10
689.721169
 20
454.367992
 30
0.0
 11
689.721169
 21
467.882811
 31
0.0
  0
ARC
  8
LC-002-002-----0
  6
CONTINUOUS
  5
2F4
 10
793.560975
 20
383.102078
 30
0.0
 40
3.0
 50
314.906606
 51
359.906606
  0
LINE
  8
LC-002-002-----0
  6
DASHED
 62
     2
  5
2F5
 10
727.721169
 20
390.465193
 30
0.0
 11
714.621169
 21
390.465193
 31
0.0
  0
LINE
  8
LC-002-002-----0
  6
DASHED
 62
     2
  5
2F6
 10
727.721169
 20
385.265193
 30
0.0
 11
714.621169
 21
385.265193
 31
0.0
  0
LINE
  8
LC-002-002-----0
  6
CONTINUOUS
  5
2F7
 10
727.721169
 20
447.367992
 30
0.0
 11
727.721169
 21
449.867992
 31
0.0
  0
LINE
  8
LC-002-002-----0
  6
CONTINUOUS
  5
2F8
 10
791.550802
 20
376.862705
 30
0.0
 11
795.678834
 21
380.977302
 31
0.0
  0
LINE
  8
LC-002-002-----0
  6
DASHDOT
 62
     2
  5
2F9
 10
847.221169
 20
440.096127
 30
0.0
 11
847.221169
 21
378.12735
 31
0.0
  0
LINE
  8
LC-002-002-----0
  6
CONTINUOUS
  5
2FA
 10
834.221169
 20
410.62735
 30
0.0
 11
860.221169
 21
410.62735
 31
0.0
  0
LINE
  8
LC-002-002-----0
  6
CONTINUOUS
  5
2FB
 10
862.721169
 20
393.62735
 30
0.0
 11
831.721169
 21
393.62735
 31
0.0
  0
LINE
  8
LC-002-002-----0
  6
CONTINUOUS
  5
2FC
 10
831.721169
 20
393.62735
 30
0.0
 11
831.721169
 21
408.12735
 31
0.0
  0
LINE
  8
LC-002-002-----0
  6
CONTINUOUS
  5
2FD
 10
862.721169
 20
408.12735
 30
0.0
 11
862.721169
 21
393.62735
 31
0.0
  0
LINE
  8
LC-002-002-----0
  6
CONTINUOUS
  5
2FE
 10
834.221169
 20
410.62735
 30
0.0
 11
831.721169
 21
408.12735
 31
0.0
  0
LINE
  8
LC-002-002-----0
  6
CONTINUOUS
  5
2FF
 10
860.221169
 20
410.62735
 30
0.0
 11
862.721169
 21
408.12735
 31
0.0
  0
LINE
  8
LC-002-002-----0
  6
CONTINUOUS
  5
300
 10
831.721169
 20
408.12735
 30
0.0
 11
862.721169
 21
408.12735
 31
0.0
  0
LINE
  8
LC-002-002-----0
  6
CONTINUOUS
  5
301
 10
859.471169
 20
393.62735
 30
0.0
 11
859.471169
 21
391.12735
 31
0.0
  0
LINE
  8
LC-002-002-----0
  6
CONTINUOUS
  5
302
 10
79.329174
 20
285.709984
 30
0.0
 11
76.537273
 21
285.709984
 31
0.0
  0
LINE
  8
LC-002-002-----0
  6
CONTINUOUS
  5
303
 10
79.329174
 20
288.209984
 30
0.0
 11
79.329174
 21
285.709984
 31
0.0
  0
LINE
  8
LC-002-002-----0
  6
CONTINUOUS
  5
304
 10
27.121075
 20
285.709984
 30
0.0
 11
24.329174
 21
285.709984
 31
0.0
  0
LINE
  8
LC-002-002-----0
  6
CONTINUOUS
  5
305
 10
24.329174
 20
288.209984
 30
0.0
 11
24.329174
 21
285.709984
 31
0.0
  0
LINE
  8
LC-002-002-----0
  6
CONTINUOUS
  5
306
 10
714.621169
 20
447.367992
 30
0.0
 11
727.721169
 21
447.367992
 31
0.0
  0
LINE
  8
LC-002-002-----0
  6
CONTINUOUS
  5
307
 10
31.829174
 20
290.53454
 30
0.0
 11
31.829174
 21
341.209984
 31
0.0
  0
ARC
  8
LC-001-002-RND-0
  6
CONTINUOUS
  5
308
 10
32.829174
 20
343.709984
 30
0.0
 40
2.5
 50
180.0
 51
270.0
  0
LINE
  8
LC-002-002-----0
  6
CONTINUOUS
  5
309
 10
859.471169
 20
391.12735
 30
0.0
 11
834.971169
 21
391.12735
 31
0.0
  0
LINE
  8
LC-002-002-----0
  6
CONTINUOUS
  5
30A
 10
28.8499
 20
234.209984
 30
0.0
 11
74.808448
 21
234.209984
 31
0.0
  0
ARC
  8
LC-001-002-RND-0
  6
CONTINUOUS
  5
30B
 10
74.329174
 20
290.709984
 30
0.0
 40
2.5
 50
180.0
 51
270.0
  0
ARC
  8
LC-001-002-RND-0
  6
CONTINUOUS
  5
30C
 10
29.329174
 20
290.53454
 30
0.0
 40
2.5
 50
283.342364
 51
0.0
  0
LINE
  8
LC-002-002-----0
  6
CONTINUOUS
  5
30D
 10
76.829174
 20
237.709984
 30
0.0
 11
76.829174
 21
284.209984
 31
0.0
  0
LINE
  8
LC-002-002-----0
  6
CONTINUOUS
  5
30E
 10
72.829174
 20
288.209984
 30
0.0
 11
24.329174
 21
288.209984
 31
0.0
  0
LINE
  8
LC-002-002-----0
  6
CONTINUOUS
  5
30F
 10
70.329174
 20
422.209984
 30
0.0
 11
70.329174
 21
432.209984
 31
0.0
  0
LINE
  8
LC-002-002-----0
  6
CONTINUOUS
  5
310
 10
834.971169
 20
391.12735
 30
0.0
 11
834.971169
 21
393.62735
 31
0.0
  0
LINE
  8
LC-002-002-----0
  6
CONTINUOUS
  5
311
 10
45.232328
 20
443.709984
 30
0.0
 11
38.288165
 21
443.709984
 31
0.0
  0
LINE
  8
LC-002-002-----0
  6
CONTINUOUS
  5
312
 10
860.721169
 20
391.12735
 30
0.0
 11
860.721169
 21
386.12735
 31
0.0
  0
LINE
  8
LC-002-002-----0
  6
CONTINUOUS
  5
313
 10
57.329174
 20
422.209984
 30
0.0
 11
57.329174
 21
432.209984
 31
0.0
  0
LINE
  8
LC-002-002-----0
  6
CONTINUOUS
  5
314
 10
860.721169
 20
386.12735
 30
0.0
 11
833.721169
 21
386.12735
 31
0.0
  0
LINE
  8
LC-002-002-----0
  6
CONTINUOUS
  5
315
 10
833.721169
 20
386.12735
 30
0.0
 11
833.721169
 21
391.12735
 31
0.0
  0
LINE
  8
LC-002-002-----0
  6
CONTINUOUS
  5
316
 10
833.721169
 20
391.12735
 30
0.0
 11
834.971169
 21
391.12735
 31
0.0
  0
ARC
  8
LC-001-002-RND-0
  6
CONTINUOUS
  5
317
 10
32.829174
 20
366.209984
 30
0.0
 40
2.5
 50
169.082115
 51
180.0
  0
LINE
  8
LC-002-002-----0
  6
CONTINUOUS
  5
318
 10
30.374425
 20
366.683489
 30
0.0
 11
39.445526
 21
413.709984
 31
0.0
  0
ARC
  8
LC-001-002-RND-0
  6
CONTINUOUS
  5
319
 10
51.829174
 20
464.709984
 30
0.0
 40
2.5
 50
90.0
 51
169.082115
  0
LINE
  8
LC-002-002-----0
  6
CONTINUOUS
  5
31A
 10
47.257708
 20
454.209984
 30
0.0
 11
49.374425
 21
465.183489
 31
0.0
  0
LINE
  8
LC-002-002-----0
  6
CONTINUOUS
  5
31B
 10
57.329174
 20
422.209984
 30
0.0
 11
70.329174
 21
422.209984
 31
0.0
  0
LINE
  8
LC-002-002-----0
  6
CONTINUOUS
  5
31C
 10
859.471169
 20
391.12735
 30
0.0
 11
860.721169
 21
391.12735
 31
0.0
  0
LINE
  8
LC-002-002-----0
  6
CONTINUOUS
  5
31D
 10
57.329174
 20
432.209984
 30
0.0
 11
70.329174
 21
432.209984
 31
0.0
  0
ARC
  8
LC-002-002-----0
  6
CONTINUOUS
  5
31E
 10
835.893776
 20
388.62735
 30
0.0
 40
0.5
 50
136.08159
 51
223.918258
  0
LINE
  8
LC-002-002-----0
  6
DASHED
 62
     2
  5
31F
 10
57.329174
 20
390.307185
 30
0.0
 11
70.429174
 21
390.307185
 31
0.0
  0
LINE
  8
LC-002-002-----0
  6
DASHED
 62
     2
  5
320
 10
57.329174
 20
385.107185
 30
0.0
 11
70.429174
 21
385.107185
 31
0.0
  0
LINE
  8
LC-002-002-----0
  6
CONTINUOUS
  5
321
 10
57.329174
 20
447.209984
 30
0.0
 11
57.329174
 21
449.709984
 31
0.0
  0
ARC
  8
LC-001-002-RND-0
  6
CONTINUOUS
  5
322
 10
712.221169
 20
284.367992
 30
0.0
 40
4.0
 50
90.0
 51
180.0
  0
ARC
  8
LC-001-002-RND-0
  6
CONTINUOUS
  5
323
 10
754.221169
 20
284.367992
 30
0.0
 40
4.0
 50
0.0
 51
76.657636
  0
LINE
  8
LC-002-002-----0
  6
CONTINUOUS
  5
324
 10
708.721169
 20
340.367992
 30
0.0
 11
708.721169
 21
418.067992
 31
0.0
  0
LINE
  8
LC-002-002-----0
  6
CONTINUOUS
  5
325
 10
708.721169
 20
454.367992
 30
0.0
 11
708.721169
 21
468.367992
 31
0.0
  0
ARC
  8
LC-002-002-----0
  6
DASHED
 62
     2
  5
326
 10
-22.179959
 20
398.9256
 30
0.0
 40
8.451553
 50
8.690273
 51
78.599914
  0
ARC
  8
LC-002-002-----0
  6
CONTINUOUS
  5
327
 10
-13.82864
 20
447.527019
 30
0.0
 40
6.690726
 50
87.284886
 51
182.717845
  0
ARC
  8
LC-002-002-----0
  6
CONTINUOUS
  5
328
 10
-13.826228
 20
406.893297
 30
0.0
 40
6.690726
 50
177.288957
 51
272.721915
  0
ARC
  8
LC-002-002-----0
  6
DASHED
 62
     2
  5
329
 10
-22.183316
 20
455.493724
 30
0.0
 40
8.451553
 50
281.406888
 51
351.316528
  0
LINE
  8
LC-002-002-----0
  6
CONTINUOUS
  5
32A
 10
-12.511831
 20
452.132346
 30
0.0
 11
-13.511695
 21
450.750543
 31
0.0
  0
LINE
  8
LC-002-002-----0
  6
CONTINUOUS
  5
32B
 10
-13.511701
 20
454.210234
 30
0.0
 11
-12.511839
 21
453.914088
 31
0.0
  0
LINE
  8
LC-002-002-----0
  6
CONTINUOUS
  5
32C
 10
-12.511147
 20
421.418452
 30
0.0
 11
-12.511835
 21
427.210488
 31
0.0
  0
LINE
  8
LC-002-002-----0
  6
CONTINUOUS
  5
32D
 10
-13.510976
 20
421.122187
 30
0.0
 11
-12.511147
 21
421.418452
 31
0.0
  0
LINE
  8
LC-002-002-----0
  6
CONTINUOUS
  5
32E
 10
710.221169
 20
339.367992
 30
0.0
 11
710.221169
 21
418.067992
 31
0.0
  0
LINE
  8
LC-002-002-----0
  6
CONTINUOUS
  5
32F
 10
710.221169
 20
454.367992
 30
0.0
 11
710.221169
 21
469.367992
 31
0.0
  0
LINE
  8
LC-002-002-----0
  6
CONTINUOUS
  5
330
 10
706.721169
 20
343.367992
 30
0.0
 11
706.721169
 21
447.367992
 31
0.0
  0
LINE
  8
LC-002-002-----0
  6
CONTINUOUS
  5
331
 10
706.721169
 20
447.367992
 30
0.0
 11
706.721169
 21
465.367992
 31
0.0
  0
LINE
  8
LC-002-002-----0
  6
CONTINUOUS
  5
332
 10
737.792634
 20
454.367992
 30
0.0
 11
740.396695
 21
440.867992
 31
0.0
  0
LINE
  8
LC-002-002-----0
  6
CONTINUOUS
  5
333
 10
70.329174
 20
432.209984
 30
0.0
 11
70.329174
 21
422.209984
 31
0.0
  0
LINE
  8
LC-002-002-----0
  6
CONTINUOUS
  5
334
 10
70.429174
 20
447.209984
 30
0.0
 11
57.329174
 21
447.209984
 31
0.0
  0
LINE
  8
LC-002-002-----0
  6
CONTINUOUS
  5
335
 10
714.621169
 20
449.867992
 30
0.0
 11
727.721169
 21
449.867992
 31
0.0
  0
LINE
  8
LC-002-002-----0
  6
CONTINUOUS
  5
336
 10
711.721169
 20
340.367992
 30
0.0
 11
711.721169
 21
415.297278
 31
0.0
  0
ARC
  8
LC-002-002-----0
  6
CONTINUOUS
  5
337
 10
840.596169
 20
384.099225
 30
0.0
 40
7.028125
 50
43.91841
 51
136.081571
  0
LINE
  8
LC-002-002-----0
  6
CONTINUOUS
  5
338
 10
711.721169
 20
454.367992
 30
0.0
 11
711.721169
 21
468.367992
 31
0.0
  0
ARC
  8
LC-002-002-----0
  6
CONTINUOUS
  5
339
 10
845.298562
 20
388.62735
 30
0.0
 40
0.5
 50
316.081648
 51
43.91841
  0
ARC
  8
LC-002-002-----0
  6
CONTINUOUS
  5
33A
 10
840.596169
 20
393.155475
 30
0.0
 40
7.028125
 50
223.918258
 51
316.08159
  0
ARC
  8
LC-002-002-----0
  6
CONTINUOUS
  5
33B
 10
849.143776
 20
388.62735
 30
0.0
 40
0.5
 50
136.08159
 51
223.918258
  0
ARC
  8
LC-002-002-----0
  6
CONTINUOUS
  5
33C
 10
853.846169
 20
384.099225
 30
0.0
 40
7.028125
 50
43.91841
 51
136.081571
  0
ARC
  8
LC-002-002-----0
  6
CONTINUOUS
  5
33D
 10
858.548562
 20
388.62735
 30
0.0
 40
0.5
 50
316.081648
 51
43.91841
  0
ARC
  8
LC-002-002-----0
  6
CONTINUOUS
  5
33E
 10
853.846169
 20
393.155475
 30
0.0
 40
7.028125
 50
223.918258
 51
316.08159
  0
LINE
  8
LC-008-001-----0
  6
DASHDOT
  5
340
 10
860.721169
 20
388.62735
 30
0.0
 11
833.721169
 21
388.62735
 31
0.0
  0
ARC
  8
LC-002-002-----0
  6
CONTINUOUS
  5
341
 10
832.387835
 20
388.62735
 30
0.0
 40
2.833333
 50
298.072604
 51
61.927571
  0
ARC
  8
LC-002-002-----0
  6
CONTINUOUS
  5
342
 10
862.054502
 20
388.62735
 30
0.0
 40
2.833333
 50
118.072449
 51
241.92719
  0
LINE
  8
LC-002-002-----0
  6
CONTINUOUS
  5
343
 10
859.721169
 20
386.12735
 30
0.0
 11
859.721169
 21
378.921035
 31
0.0
  0
LINE
  8
LC-002-002-----0
  6
CONTINUOUS
  5
344
 10
834.721169
 20
383.62735
 30
0.0
 11
834.721169
 21
386.12735
 31
0.0
  0
LINE
  8
LC-002-002-----0
  6
CONTINUOUS
  5
345
 10
845.471169
 20
456.37735
 30
0.0
 11
863.502391
 21
438.346127
 31
0.0
  0
LINE
  8
LC-002-002-----0
  6
DASHDOT
 62
     2
  5
346
 10
882.063944
 20
474.938903
 30
0.0
 11
847.221169
 21
440.096127
 31
0.0
  0
LINE
  8
LC-002-002-----0
  6
CONTINUOUS
 62
     2
  5
347
 10
834.221169
 20
414.62735
 30
0.0
 11
847.221169
 21
427.37735
 31
0.0
  0
LINE
  8
LC-002-002-----0
  6
CONTINUOUS
 62
     2
  5
348
 10
829.221169
 20
440.12735
 30
0.0
 11
829.221169
 21
427.37735
 31
0.0
  0
LINE
  8
LC-002-002-----0
  6
CONTINUOUS
  5
349
 10
827.150101
 20
440.12735
 30
0.0
 11
809.221169
 21
440.12735
 31
0.0
  0
ARC
  8
LC-002-002-----0
  6
CONTINUOUS
  5
34A
 10
827.150101
 20
445.12735
 30
0.0
 40
5.0
 50
270.0
 51
315.000058
  0
LINE
  8
LC-002-002-----0
  6
CONTINUOUS
  5
34B
 10
830.685635
 20
441.591816
 30
0.0
 11
845.471169
 21
456.37735
 31
0.0
  0
LINE
  8
LC-002-002-----0
  6
CONTINUOUS
  5
34C
 10
863.502391
 20
438.346127
 30
0.0
 11
861.685635
 21
436.529371
 31
0.0
  0
ARC
  8
LC-002-002-----0
  6
CONTINUOUS
  5
34D
 10
865.221169
 20
432.993837
 30
0.0
 40
5.0
 50
135.0
 51
179.999848
  0
LINE
  8
LC-002-002-----0
  6
CONTINUOUS
  5
34E
 10
860.221169
 20
410.62735
 30
0.0
 11
860.221169
 21
432.993837
 31
0.0
  0
LINE
  8
LC-002-002-----0
  6
CONTINUOUS
  5
34F
 10
809.221169
 20
414.62735
 30
0.0
 11
832.721169
 21
414.62735
 31
0.0
  0
ARC
  8
LC-002-002-----0
  6
CONTINUOUS
  5
350
 10
832.721169
 20
413.12735
 30
0.0
 40
1.5
 50
0.0
 51
90.0
  0
LINE
  8
LC-002-002-----0
  6
CONTINUOUS
  5
351
 10
834.221169
 20
413.12735
 30
0.0
 11
834.221169
 21
410.62735
 31
0.0
  0
LINE
  8
LC-002-002-----0
  6
CONTINUOUS
  5
352
 10
843.880178
 20
457.968341
 30
0.0
 11
845.471169
 21
456.37735
 31
0.0
  0
LINE
  8
LC-002-002-----0
  6
CONTINUOUS
 62
     2
  5
353
 10
-35.513034
 20
441.085709
 30
0.0
 11
-35.513034
 21
435.085709
 31
0.0
  0
LINE
  8
LC-002-002-----0
  6
CONTINUOUS
  5
354
 10
-13.511699
 20
453.298167
 30
0.0
 11
-12.511835
 21
453.00202
 31
0.0
  0
LINE
  8
LC-002-002-----0
  6
CONTINUOUS
  5
355
 10
865.093382
 20
436.755137
 30
0.0
 11
863.502391
 21
438.346127
 31
0.0
  0
LINE
  8
LC-002-002-----0
  6
CONTINUOUS
  5
356
 10
858.022314
 20
472.110476
 30
0.0
 11
879.235517
 21
450.897273
 31
0.0
  0
LINE
  8
LC-002-002-----0
  6
CONTINUOUS
  5
357
 10
879.235517
 20
450.897273
 30
0.0
 11
865.093382
 21
436.755137
 31
0.0
  0
LINE
  8
LC-002-002-----0
  6
CONTINUOUS
  5
358
 10
-13.511701
 20
454.210234
 30
0.0
 11
-13.511617
 21
400.210235
 31
0.0
  0
LINE
  8
LC-002-002-----0
  6
CONTINUOUS
  5
359
 10
858.022314
 20
472.110476
 30
0.0
 11
843.880178
 21
457.968341
 31
0.0
  0
LINE
  8
LC-002-002-----0
  6
CONTINUOUS
  5
35A
 10
867.214702
 20
481.302864
 30
0.0
 11
888.427906
 21
460.089661
 31
0.0
  0
LINE
  8
LC-002-002-----0
  6
CONTINUOUS
  5
35B
 10
705.721169
 20
288.367992
 30
0.0
 11
710.721169
 21
288.367992
 31
0.0
  0
LINE
  8
LC-002-002-----0
  6
CONTINUOUS
  5
35C
 10
758.221169
 20
284.367992
 30
0.0
 11
758.221169
 21
237.867992
 31
0.0
  0
ARC
  8
LC-002-002-----0
  6
DASHED
 62
     2
  5
35D
 10
20.2185
 20
256.255831
 30
0.0
 40
4.5
 50
278.327207
 51
278.714603
  0
LINE
  8
LC-002-002-----0
  6
CONTINUOUS
  5
35E
 10
713.221169
 20
341.367992
 30
0.0
 11
713.221169
 21
290.867992
 31
0.0
  0
LINE
  8
LC-002-002-----0
  6
CONTINUOUS
  5
35F
 10
754.721169
 20
343.867992
 30
0.0
 11
754.721169
 21
366.367992
 31
0.0
  0
LINE
  8
LC-008-001-----0
  6
CONTINUOUS
 62
     1
  5
360
 10
758.221169
 20
237.867992
 30
0.0
 11
708.221169
 21
237.867992
 31
0.0
  0
LINE
  8
LC-002-002-----0
  6
CONTINUOUS
  5
361
 10
708.221169
 20
237.867992
 30
0.0
 11
710.241895
 21
234.367992
 31
0.0
  0
LINE
  8
LC-002-002-----0
  6
CONTINUOUS
  5
362
 10
758.221169
 20
237.867992
 30
0.0
 11
756.200443
 21
234.367992
 31
0.0
  0
LINE
  8
LC-002-002-----0
  6
DASHDOT
 62
     2
  5
363
 10
733.221169
 20
341.367992
 30
0.0
 11
733.221169
 21
234.367992
 31
0.0
  0
LINE
  8
LC-002-002-----0
  6
CONTINUOUS
  5
364
 10
714.221169
 20
341.367992
 30
0.0
 11
711.721169
 21
341.367992
 31
0.0
  0
ARC
  8
LC-001-002-RND-0
  6
CONTINUOUS
  5
365
 10
710.721169
 20
340.367992
 30
0.0
 40
1.0
 50
270.0
 51
0.0
  0
LINE
  8
LC-002-002-----0
  6
CONTINUOUS
  5
366
 10
709.721169
 20
339.367992
 30
0.0
 11
710.721169
 21
339.367992
 31
0.0
  0
ARC
  8
LC-001-002-RND-0
  6
CONTINUOUS
  5
367
 10
709.721169
 20
340.367992
 30
0.0
 40
1.0
 50
180.0
 51
270.0
  0
ARC
  8
LC-001-002-RND-0
  6
CONTINUOUS
  5
368
 10
709.721169
 20
468.367992
 30
0.0
 40
1.0
 50
90.0
 51
180.0
  0
ARC
  8
LC-001-002-RND-0
  6
CONTINUOUS
  5
369
 10
710.721169
 20
468.367992
 30
0.0
 40
1.0
 50
0.0
 51
90.0
  0
LINE
  8
LC-002-002-----0
  6
CONTINUOUS
  5
36A
 10
710.721169
 20
469.367992
 30
0.0
 11
709.721169
 21
469.367992
 31
0.0
  0
LINE
  8
LC-002-002-----0
  6
CONTINUOUS
  5
36B
 10
714.221169
 20
341.367992
 30
0.0
 11
752.221169
 21
341.367992
 31
0.0
  0
LINE
  8
LC-002-002-----0
  6
CONTINUOUS
  5
36C
 10
711.721169
 20
467.367992
 30
0.0
 11
733.221169
 21
467.367992
 31
0.0
  0
LINE
  8
LC-002-002-----0
  6
CONTINUOUS
  5
36D
 10
689.721169
 20
361.367992
 30
0.0
 11
691.721169
 21
361.367992
 31
0.0
  0
LINE
  8
LC-002-002-----0
  6
DASHED
 62
     2
  5
36E
 10
474.411707
 20
433.277067
 30
0.0
 11
466.86978
 21
434.538778
 31
0.0
  0
LINE
  8
LC-002-002-----0
  6
CONTINUOUS
  5
36F
 10
-13.511699
 20
448.798167
 30
0.0
 11
-12.511835
 21
448.50202
 31
0.0
  0
LINE
  8
LC-002-002-----0
  6
CONTINUOUS
  5
370
 10
689.721169
 20
389.853173
 30
0.0
 11
689.721169
 21
400.367992
 31
0.0
  0
LINE
  8
LC-002-002-----0
  6
CONTINUOUS
  5
371
 10
696.721169
 20
458.367992
 30
0.0
 11
706.721169
 21
458.367992
 31
0.0
  0
LINE
  8
LC-002-002-----0
  6
DASHDOT
 62
     2
  5
372
 10
-55.513987
 20
427.208147
 30
0.0
 11
-55.514019
 21
377.211258
 31
0.0
  0
LINE
  8
LC-002-002-----0
  6
CONTINUOUS
  5
373
 10
706.721169
 20
354.367992
 30
0.0
 11
696.721169
 21
354.367992
 31
0.0
  0
ARC
  8
LC-001-002-RND-0
  6
CONTINUOUS
  5
374
 10
708.721169
 20
343.367992
 30
0.0
 40
2.0
 50
180.0
 51
270.0
  0
ARC
  8
LC-001-002-RND-0
  6
CONTINUOUS
  5
375
 10
708.721169
 20
465.367992
 30
0.0
 40
2.0
 50
90.0
 51
180.0
  0
LINE
  8
LC-002-002-----0
  6
CONTINUOUS
  5
376
 10
714.621169
 20
447.367992
 30
0.0
 11
714.621169
 21
449.867992
 31
0.0
  0
LINE
  8
LC-002-002-----0
  6
CONTINUOUS
  5
377
 10
-45.513994
 20
415.211252
 30
0.0
 11
-55.513987
 21
427.208147
 31
0.0
  0
LINE
  8
LC-002-002-----0
  6
CONTINUOUS
  5
378
 10
714.621169
 20
404.367992
 30
0.0
 11
727.721169
 21
404.367992
 31
0.0
  0
LINE
  8
LC-002-002-----0
  6
CONTINUOUS
  5
379
 10
714.621169
 20
406.867992
 30
0.0
 11
727.721169
 21
406.867992
 31
0.0
  0
LINE
  8
LC-010-006-MLN-0
  6
DASHDOT
  5
37C
 10
293.36978
 20
494.505177
 30
0.0
 11
293.36978
 21
368.117992
 31
0.0
  0
LINE
  8
LC-002-002-----0
  6
CONTINUOUS
  5
37D
 10
727.721169
 20
404.367992
 30
0.0
 11
727.721169
 21
406.867992
 31
0.0
  0
LINE
  8
LC-002-002-----0
  6
CONTINUOUS
  5
37E
 10
714.621169
 20
404.367992
 30
0.0
 11
714.621169
 21
406.867992
 31
0.0
  0
LINE
  8
LC-002-002-----0
  6
CONTINUOUS
  5
37F
 10
714.621169
 20
382.865193
 30
0.0
 11
714.621169
 21
392.865193
 31
0.0
  0
LINE
  8
LC-002-002-----0
  6
CONTINUOUS
  5
380
 10
727.721169
 20
382.865193
 30
0.0
 11
714.621169
 21
382.865193
 31
0.0
  0
LINE
  8
LC-002-002-----0
  6
CONTINUOUS
  5
381
 10
727.721169
 20
382.865193
 30
0.0
 11
727.721169
 21
392.865193
 31
0.0
  0
ARC
  8
LC-002-002-----0
  6
DASHED
 62
     2
  5
382
 10
373.36978
 20
427.367992
 30
0.0
 40
42.0
 50
359.831098
 51
26.765501
  0
LINE
  8
LC-002-002-----0
  6
CONTINUOUS
  5
383
 10
727.721169
 20
392.865193
 30
0.0
 11
714.621169
 21
392.865193
 31
0.0
  0
LINE
  8
LC-002-002-----0
  6
DASHDOT
 62
     2
  5
384
 10
730.228462
 20
387.865193
 30
0.0
 11
713.485989
 21
387.865193
 31
0.0
  0
LINE
  8
LC-002-002-----0
  6
CONTINUOUS
  5
385
 10
888.427906
 20
455.84702
 30
0.0
 11
883.478158
 21
450.897273
 31
0.0
  0
LINE
  8
LC-002-002-----0
  6
CONTINUOUS
  5
386
 10
862.972061
 20
481.302864
 30
0.0
 11
858.022314
 21
476.353117
 31
0.0
  0
ARC
  8
LC-001-002-RND-0
  6
CONTINUOUS
  5
387
 10
865.093382
 20
479.181544
 30
0.0
 40
3.0
 50
45.0
 51
135.0
  0
ARC
  8
LC-001-002-RND-0
  6
CONTINUOUS
  5
388
 10
860.143634
 20
474.231797
 30
0.0
 40
3.0
 50
135.0
 51
225.0
  0
ARC
  8
LC-001-002-RND-0
  6
CONTINUOUS
  5
389
 10
881.356838
 20
453.018593
 30
0.0
 40
3.0
 50
225.0
 51
315.0
  0
ARC
  8
LC-001-002-RND-0
  6
CONTINUOUS
  5
38A
 10
886.306585
 20
457.968341
 30
0.0
 40
3.0
 50
315.0
 51
45.0
  0
LINE
  8
LC-002-002-----0
  6
CONTINUOUS
  5
38B
 10
880.296178
 20
463.978748
 30
0.0
 11
875.34643
 21
459.029001
 31
0.0
  0
LINE
  8
LC-002-002-----0
  6
CONTINUOUS
  5
38C
 10
871.103789
 20
473.171136
 30
0.0
 11
866.154042
 21
468.221389
 31
0.0
  0
LINE
  8
LC-002-002-----0
  6
CONTINUOUS
  5
38D
 10
696.721169
 20
354.367992
 30
0.0
 11
696.721169
 21
458.367992
 31
0.0
  0
LINE
  8
LC-002-002-----0
  6
CONTINUOUS
  5
38E
 10
696.721169
 20
454.36945
 30
0.0
 11
706.721169
 21
454.36945
 31
0.0
  0
LINE
  8
LC-002-002-----0
  6
CONTINUOUS
  5
38F
 10
696.721169
 20
400.36945
 30
0.0
 11
706.721169
 21
400.36945
 31
0.0
  0
LINE
  8
LC-002-002-----0
  6
CONTINUOUS
  5
390
 10
696.721169
 20
458.367992
 30
0.0
 11
693.721169
 21
458.367992
 31
0.0
  0
LINE
  8
LC-002-002-----0
  6
CONTINUOUS
  5
391
 10
696.721169
 20
454.36945
 30
0.0
 11
693.721169
 21
454.36945
 31
0.0
  0
LINE
  8
LC-002-002-----0
  6
CONTINUOUS
  5
392
 10
696.721169
 20
400.36945
 30
0.0
 11
693.721169
 21
400.36945
 31
0.0
  0
LINE
  8
LC-002-002-----0
  6
CONTINUOUS
  5
393
 10
696.721169
 20
354.367992
 30
0.0
 11
693.721169
 21
354.367992
 31
0.0
  0
CIRCLE
  8
LC-002-002-----0
  6
DASHED
 62
     2
  5
394
 10
453.374051
 20
427.367992
 30
0.0
 40
13.5
  0
LINE
  8
LC-002-002-----0
  6
CONTINUOUS
  5
395
 10
706.721169
 20
343.367992
 30
0.0
 11
706.721169
 21
447.367992
 31
0.0
  0
CIRCLE
  8
LC-002-002-----0
  6
CONTINUOUS
  5
396
 10
629.22978
 20
414.867992
 30
0.0
 40
4.25
  0
LINE
  8
LC-002-002-----0
  6
CONTINUOUS
  5
397
 10
404.996078
 20
343.758646
 30
0.0
 11
409.172217
 21
377.367992
 31
0.0
  0
LINE
  8
LC-002-002-----0
  6
CONTINUOUS
 62
     2
  5
398
 10
-35.513039
 20
430.209334
 30
0.0
 11
-21.513985
 21
430.210165
 31
0.0
  0
ARC
  8
LC-002-002-----0
  6
CONTINUOUS
  5
399
 10
400.033347
 20
344.367992
 30
0.0
 40
5.0
 50
270.0
 51
353.0
  0
ARC
  8
LC-002-002-----0
  6
CONTINUOUS
  5
39A
 10
344.388258
 20
349.367992
 30
0.0
 40
10.0
 50
182.183915
 51
270.0
  0
LINE
  8
LC-002-002-----0
  6
CONTINUOUS
 62
     2
  5
39B
 10
-35.512683
 20
424.209334
 30
0.0
 11
-21.513989
 21
424.210165
 31
0.0
  0
LINE
  8
LC-002-002-----0
  6
CONTINUOUS
  5
39C
 10
398.36978
 20
237.867992
 30
0.0
 11
397.431958
 21
234.367992
 31
0.0
  0
LINE
  8
LC-002-002-----0
  6
CONTINUOUS
  5
39D
 10
348.36978
 20
237.867992
 30
0.0
 11
349.307602
 21
234.367992
 31
0.0
  0
CIRCLE
  8
LC-002-002-----0
  6
CONTINUOUS
  5
39E
 10
629.22978
 20
439.867992
 30
0.0
 40
4.25
  0
ARC
  8
LC-002-002-----0
  6
CONTINUOUS
  5
39F
 10
615.08978
 20
441.507992
 30
0.0
 40
3.1
 50
270.0
 51
90.0
  0
LINE
  8
LC-002-002-----0
  6
CONTINUOUS
  5
3A0
 10
603.36978
 20
444.607992
 30
0.0
 11
615.08978
 21
444.607992
 31
0.0
  0
ARC
  8
LC-002-002-----0
  6
CONTINUOUS
  5
3A1
 10
603.36978
 20
441.507992
 30
0.0
 40
3.1
 50
90.0
 51
270.0
  0
ARC
  8
LC-001-002-RND-0
  6
CONTINUOUS
  5
3A2
 10
72.829174
 20
284.209984
 30
0.0
 40
4.0
 50
0.0
 51
90.0
  0
ARC
  8
LC-001-002-RND-0
  6
CONTINUOUS
  5
3A3
 10
30.829174
 20
284.209984
 30
0.0
 40
4.0
 50
103.342364
 51
180.0
  0
LINE
  8
LC-002-002-----0
  6
CONTINUOUS
  5
3A4
 10
76.329174
 20
340.209984
 30
0.0
 11
76.329174
 21
425.109984
 31
0.0
  0
LINE
  8
LC-002-002-----0
  6
CONTINUOUS
  5
3A5
 10
76.329174
 20
447.209984
 30
0.0
 11
76.329174
 21
468.209984
 31
0.0
  0
LINE
  8
LC-002-002-----0
  6
CONTINUOUS
  5
3A6
 10
74.829174
 20
339.209984
 30
0.0
 11
74.829174
 21
425.077426
 31
0.0
  0
LINE
  8
LC-002-002-----0
  6
CONTINUOUS
  5
3A7
 10
74.829174
 20
447.209984
 30
0.0
 11
74.829174
 21
469.209984
 31
0.0
  0
LINE
  8
LC-002-002-----0
  6
CONTINUOUS
  5
3A8
 10
78.329174
 20
343.209984
 30
0.0
 11
78.329174
 21
447.209984
 31
0.0
  0
LINE
  8
LC-002-002-----0
  6
CONTINUOUS
  5
3A9
 10
78.329174
 20
447.209984
 30
0.0
 11
78.329174
 21
465.209984
 31
0.0
  0
LINE
  8
LC-002-002-----0
  6
CONTINUOUS
  5
3AA
 10
47.257708
 20
454.209984
 30
0.0
 11
39.445526
 21
413.709984
 31
0.0
  0
LINE
  8
LC-002-002-----0
  6
CONTINUOUS
  5
3AB
 10
70.429174
 20
449.709984
 30
0.0
 11
57.329174
 21
449.709984
 31
0.0
  0
LINE
  8
LC-002-002-----0
  6
CONTINUOUS
  5
3AC
 10
73.329174
 20
340.209984
 30
0.0
 11
73.329174
 21
425.109984
 31
0.0
  0
LINE
  8
LC-002-002-----0
  6
CONTINUOUS
  5
3AD
 10
-12.511839
 20
453.914088
 30
0.0
 11
-12.511839
 21
452.132346
 31
0.0
  0
LINE
  8
LC-002-002-----0
  6
CONTINUOUS
  5
3AE
 10
73.329174
 20
447.209984
 30
0.0
 11
73.329174
 21
468.209984
 31
0.0
  0
LINE
  8
LC-002-002-----0
  6
CONTINUOUS
  5
3AF
 10
398.36978
 20
284.367992
 30
0.0
 11
398.36978
 21
237.867992
 31
0.0
  0
LINE
  8
LC-002-002-----0
  6
CONTINUOUS
 62
     2
  5
3B0
 10
-35.513034
 20
441.085709
 30
0.0
 11
-21.513979
 21
441.0857
 31
0.0
  0
LINE
  8
LC-002-002-----0
  6
CONTINUOUS
  5
3B1
 10
858.022314
 20
476.353117
 30
0.0
 11
866.154042
 21
468.221389
 31
0.0
  0
LINE
  8
LC-002-002-----0
  6
CONTINUOUS
  5
3B2
 10
348.36978
 20
284.367992
 30
0.0
 11
348.36978
 21
237.867992
 31
0.0
  0
LINE
  8
LC-002-002-----0
  6
CONTINUOUS
  5
3B3
 10
353.36978
 20
339.367992
 30
0.0
 11
353.36978
 21
288.367992
 31
0.0
  0
LINE
  8
LC-002-002-----0
  6
CONTINUOUS
  5
3B4
 10
-21.513999
 20
408.459208
 30
0.0
 11
-21.513974
 21
446.961236
 31
0.0
  0
LINE
  8
LC-002-002-----0
  6
CONTINUOUS
  5
3B5
 10
-21.513974
 20
446.961236
 30
0.0
 11
-20.513974
 21
446.961235
 31
0.0
  0
ARC
  8
LC-002-002-----0
  6
CONTINUOUS
  5
3B6
 10
-35.513976
 20
442.961245
 30
0.0
 40
3.0
 50
89.999963
 51
179.999963
  0
LINE
  8
LC-002-002-----0
  6
CONTINUOUS
  5
3B7
 10
-35.513974
 20
445.961245
 30
0.0
 11
-21.513974
 21
445.961236
 31
0.0
  0
LINE
  8
LC-002-002-----0
  6
CONTINUOUS
  5
3B8
 10
-35.511634
 20
408.459143
 30
0.0
 11
-21.511634
 21
408.459208
 31
0.0
  0
LINE
  8
LC-002-002-----0
  6
CONTINUOUS
  5
3B9
 10
-21.511634
 20
408.459208
 30
0.0
 11
-21.511629
 21
407.459208
 31
0.0
  0
LINE
  8
LC-002-002-----0
  6
CONTINUOUS
  5
3BA
 10
-21.511629
 20
407.459208
 30
0.0
 11
-20.511629
 21
407.459213
 31
0.0
  0
ARC
  8
LC-002-002-----0
  6
CONTINUOUS
  5
3BB
 10
874.668786
 20
467.543745
 30
0.0
 40
8.541667
 50
175.449719
 51
274.550281
  0
LINE
  8
LC-002-002-----0
  6
CONTINUOUS
  5
3BC
 10
858.927484
 20
378.12735
 30
0.0
 11
835.514853
 21
378.12735
 31
0.0
  0
LINE
  8
LC-002-002-----0
  6
CONTINUOUS
 62
     2
  5
3BD
 10
859.721169
 20
386.12735
 30
0.0
 11
834.721169
 21
383.940134
 31
0.0
  0
LINE
  8
LC-002-002-----0
  6
CONTINUOUS
 62
     2
  5
3BE
 10
859.721169
 20
385.123531
 30
0.0
 11
834.721169
 21
382.936314
 31
0.0
  0
LINE
  8
LC-002-002-----0
  6
CONTINUOUS
 62
     2
  5
3BF
 10
859.721169
 20
384.119711
 30
0.0
 11
834.721169
 21
381.932494
 31
0.0
  0
LINE
  8
LC-002-002-----0
  6
CONTINUOUS
 62
     2
  5
3C0
 10
859.721169
 20
383.115891
 30
0.0
 11
834.721169
 21
380.928674
 31
0.0
  0
LINE
  8
LC-002-002-----0
  6
CONTINUOUS
 62
     2
  5
3C1
 10
859.721169
 20
382.112071
 30
0.0
 11
834.721169
 21
379.924854
 31
0.0
  0
LINE
  8
LC-002-002-----0
  6
CONTINUOUS
 62
     2
  5
3C2
 10
859.721169
 20
381.108251
 30
0.0
 11
834.721169
 21
378.921035
 31
0.0
  0
LINE
  8
LC-002-002-----0
  6
CONTINUOUS
 62
     2
  5
3C3
 10
859.721169
 20
380.104431
 30
0.0
 11
837.12303
 21
378.12735
 31
0.0
  0
LINE
  8
LC-002-002-----0
  6
CONTINUOUS
 62
     2
  5
3C4
 10
847.221169
 20
386.037562
 30
0.0
 11
834.721169
 21
384.943954
 31
0.0
  0
LINE
  8
LC-002-002-----0
  6
CONTINUOUS
  5
3C5
 10
834.721169
 20
378.921035
 30
0.0
 11
835.514853
 21
378.12735
 31
0.0
  0
LINE
  8
LC-002-002-----0
  6
CONTINUOUS
  5
3C6
 10
859.721169
 20
378.921035
 30
0.0
 11
858.927484
 21
378.12735
 31
0.0
  0
LINE
  8
LC-002-002-----0
  6
CONTINUOUS
  5
3C7
 10
834.721169
 20
378.921035
 30
0.0
 11
834.721169
 21
383.62735
 31
0.0
  0
LINE
  8
LC-002-002-----0
  6
CONTINUOUS
  5
3C8
 10
875.34643
 20
459.029001
 30
0.0
 11
883.478158
 21
450.897273
 31
0.0
  0
ARC
  8
LC-002-002-----0
  6
CONTINUOUS
  5
3C9
 10
871.781433
 20
464.656392
 30
0.0
 40
8.541667
 50
355.449719
 51
94.550281
  0
LINE
  8
LC-002-002-----0
  6
CONTINUOUS
  5
3CA
 10
862.972061
 20
481.302864
 30
0.0
 11
871.103789
 21
473.171136
 31
0.0
  0
LINE
  8
LC-002-002-----0
  6
CONTINUOUS
  5
3CB
 10
880.296178
 20
463.978748
 30
0.0
 11
888.427906
 21
455.84702
 31
0.0
  0
LINE
  8
LC-002-002-----0
  6
CONTINUOUS
  5
3CC
 10
873.22511
 20
483.777738
 30
0.0
 11
890.902779
 21
466.100069
 31
0.0
  0
LINE
  8
LC-002-002-----0
  6
CONTINUOUS
  5
3CD
 10
890.902779
 20
462.564535
 30
0.0
 11
888.427906
 21
460.089661
 31
0.0
  0
LINE
  8
LC-002-002-----0
  6
CONTINUOUS
  5
3CE
 10
869.689576
 20
483.777738
 30
0.0
 11
867.214702
 21
481.302864
 31
0.0
  0
ARC
  8
LC-001-002-RND-0
  6
CONTINUOUS
  5
3CF
 10
871.457343
 20
482.009971
 30
0.0
 40
2.5
 50
45.0
 51
135.0
  0
LINE
  8
LC-002-002-----0
  6
DASHDOT
 62
     2
  5
3D0
 10
847.221169
 20
427.367992
 30
0.0
 11
791.006304
 21
427.367992
 31
0.0
  0
LINE
  8
LC-002-002-----0
  6
DASHED
 62
     2
  5
3D1
 10
798.188806
 20
437.877843
 30
0.0
 11
808.188806
 21
437.877843
 31
0.0
  0
LINE
  8
LC-002-002-----0
  6
DASHED
 62
     2
  5
3D2
 10
796.188806
 20
418.87735
 30
0.0
 11
796.188806
 21
435.877843
 31
0.0
  0
LINE
  8
LC-002-002-----0
  6
DASHED
 62
     2
  5
3D3
 10
769.721169
 20
416.880471
 30
0.0
 11
809.221169
 21
416.880471
 31
0.0
  0
LINE
  8
LC-002-002-----0
  6
DASHED
 62
     2
  5
3D4
 10
798.188806
 20
416.87735
 30
0.0
 11
796.188806
 21
418.87735
 31
0.0
  0
LINE
  8
LC-002-002-----0
  6
DASHED
 62
     2
  5
3D5
 10
796.188806
 20
435.877843
 30
0.0
 11
798.188806
 21
437.877843
 31
0.0
  0
LINE
  8
LC-002-002-----0
  6
DASHED
 62
     2
  5
3D6
 10
798.188806
 20
416.87735
 30
0.0
 11
798.188806
 21
437.877843
 31
0.0
  0
LINE
  8
LC-002-002-----0
  6
DASHED
 62
     2
  5
3D7
 10
797.188806
 20
436.877843
 30
0.0
 11
808.188806
 21
436.877843
 31
0.0
  0
LINE
  8
LC-002-002-----0
  6
DASHED
 62
     2
  5
3D8
 10
808.221169
 20
417.87735
 30
0.0
 11
797.188806
 21
417.87735
 31
0.0
  0
LINE
  8
LC-002-002-----0
  6
CONTINUOUS
  5
3D9
 10
706.721169
 20
436.667992
 30
0.0
 11
706.721169
 21
418.067992
 31
0.0
  0
LINE
  8
LC-002-002-----0
  6
CONTINUOUS
  5
3DA
 10
710.221169
 20
433.361741
 30
0.0
 11
710.221169
 21
418.867992
 31
0.0
  0
LINE
  8
LC-002-002-----0
  6
CONTINUOUS
  5
3DB
 10
706.721169
 20
418.067992
 30
0.0
 11
710.285583
 21
418.067992
 31
0.0
  0
LINE
  8
LC-002-002-----0
  6
CONTINUOUS
  5
3DC
 10
706.721169
 20
436.667992
 30
0.0
 11
707.221169
 21
436.667992
 31
0.0
  0
LINE
  8
LC-002-002-----0
  6
DASHDOT
 62
     2
  5
3DD
 10
720.721169
 20
454.367992
 30
0.0
 11
720.721169
 21
427.367992
 31
0.0
  0
LINE
  8
LC-002-002-----0
  6
CONTINUOUS
  5
3DE
 10
808.221169
 20
413.867992
 30
0.0
 11
800.42173
 21
413.867992
 31
0.0
  0
LINE
  8
LC-002-002-----0
  6
CONTINUOUS
  5
3DF
 10
707.221169
 20
454.367992
 30
0.0
 11
707.221169
 21
436.667992
 31
0.0
  0
LINE
  8
LC-002-002-----0
  6
CONTINUOUS
  5
3E0
 10
734.221169
 20
454.367992
 30
0.0
 11
734.221169
 21
440.867992
 31
0.0
  0
ARC
  8
LC-002-002-----0
  6
CONTINUOUS
  5
3E1
 10
706.899286
 20
433.361741
 30
0.0
 40
3.321883
 50
0.0
 51
84.439446
  0
ARC
  8
LC-001-002-RND-0
  6
CONTINUOUS
  5
3E2
 10
715.221169
 20
418.867992
 30
0.0
 40
5.0
 50
180.0
 51
270.0
  0
LINE
  8
LC-002-002-----0
  6
CONTINUOUS
  5
3E3
 10
808.221169
 20
440.867992
 30
0.0
 11
800.42173
 21
440.867992
 31
0.0
  0
ARC
  8
LC-001-002-RND-0
  6
DASHED
 62
     2
  5
3E4
 10
721.421169
 20
428.075513
 30
0.0
 40
10.0
 50
180.0
 51
270.0
  0
LINE
  8
LC-002-002-----0
  6
CONTINUOUS
  5
3E5
 10
734.221169
 20
440.867992
 30
0.0
 11
720.721169
 21
427.367992
 31
0.0
  0
LINE
  8
LC-002-002-----0
  6
CONTINUOUS
  5
3E6
 10
809.221169
 20
439.867992
 30
0.0
 11
809.221169
 21
414.867992
 31
0.0
  0
LINE
  8
LC-002-002-----0
  6
DASHED
 62
     2
  5
3E7
 10
769.721169
 20
437.855513
 30
0.0
 11
809.221169
 21
437.855513
 31
0.0
  0
ARC
  8
LC-002-002-----0
  6
CONTINUOUS
  5
3E8
 10
-35.511648
 20
411.459143
 30
0.0
 40
3.0
 50
180.000267
 51
270.000229
  0
LINE
  8
LC-002-002-----0
  6
CONTINUOUS
 62
     2
  5
3E9
 10
-35.513034
 20
435.085709
 30
0.0
 11
-21.513979
 21
435.0857
 31
0.0
  0
LINE
  8
LC-002-002-----0
  6
CONTINUOUS
  5
3EA
 10
-38.513996
 20
412.459129
 30
0.0
 11
-38.513976
 21
442.961247
 31
0.0
  0
LINE
  8
LC-002-002-----0
  6
CONTINUOUS
 62
     2
  5
3EB
 10
-35.512099
 20
419.332958
 30
0.0
 11
-21.513045
 21
419.334629
 31
0.0
  0
LINE
  8
LC-002-002-----0
  6
CONTINUOUS
  5
3EC
 10
-38.511652
 20
412.459129
 30
0.0
 11
-38.511648
 21
411.459129
 31
0.0
  0
LINE
  8
LC-002-002-----0
  6
DASHDOT
 62
     2
  5
3ED
 10
373.36978
 20
339.367992
 30
0.0
 11
373.36978
 21
288.367992
 31
0.0
  0
LINE
  8
LC-002-002-----0
  6
CONTINUOUS
  5
3EE
 10
349.307602
 20
234.367992
 30
0.0
 11
397.431958
 21
234.367992
 31
0.0
  0
LINE
  8
LC-002-002-----0
  6
CONTINUOUS
  5
3EF
 10
348.36978
 20
237.867992
 30
0.0
 11
398.36978
 21
237.867992
 31
0.0
  0
LINE
  8
LC-002-002-----0
  6
CONTINUOUS
  5
3F0
 10
-65.513987
 20
426.211265
 30
0.0
 11
-65.513996
 21
412.211265
 31
0.0
  0
LINE
  8
LC-002-002-----0
  6
CONTINUOUS
  5
3F1
 10
352.36978
 20
288.367992
 30
0.0
 11
394.36978
 21
288.367992
 31
0.0
  0
LINE
  8
LC-002-002-----0
  6
CONTINUOUS
  5
3F2
 10
-45.513994
 20
415.211252
 30
0.0
 11
-45.513996
 21
412.211252
 31
0.0
  0
ARC
  8
LC-001-002-RND-0
  6
CONTINUOUS
  5
3F3
 10
-52.513987
 20
426.211256
 30
0.0
 40
13.0
 50
89.999963
 51
179.999963
  0
LINE
  8
LC-002-002-----0
  6
CONTINUOUS
  5
3F4
 10
-38.513979
 20
439.211247
 30
0.0
 11
-52.513979
 21
439.211256
 31
0.0
  0
LINE
  8
LC-002-002-----0
  6
DASHED
 62
     2
  5
3F5
 10
331.369798
 20
427.329406
 30
0.0
 11
333.299395
 21
377.367992
 31
0.0
  0
LINE
  8
LC-002-002-----0
  6
CONTINUOUS
 62
     2
  5
3F6
 10
-35.511387
 20
413.332958
 30
0.0
 11
-21.512332
 21
413.334629
 31
0.0
  0
LINE
  8
LC-002-002-----0
  6
CONTINUOUS
  5
3F7
 10
-12.509307
 20
405.918452
 30
0.0
 11
-12.510494
 21
415.918452
 31
0.0
  0
LINE
  8
LC-002-002-----0
  6
CONTINUOUS
  5
3F8
 10
-12.511835
 20
448.50202
 30
0.0
 11
-12.511835
 21
438.50202
 31
0.0
  0
LINE
  8
LC-002-002-----0
  6
CONTINUOUS
  5
3F9
 10
-13.511699
 20
433.298167
 30
0.0
 11
-12.511835
 21
433.00202
 31
0.0
  0
LINE
  8
LC-002-002-----0
  6
CONTINUOUS
  5
3FA
 10
-12.511835
 20
433.00202
 30
0.0
 11
-12.511835
 21
427.209984
 31
0.0
  0
LINE
  8
LC-002-002-----0
  6
DASHED
 62
     2
  5
3FB
 10
730.02869
 20
436.675513
 30
0.0
 11
808.041169
 21
436.675513
 31
0.0
  0
LINE
  8
LC-002-002-----0
  6
CONTINUOUS
  5
3FC
 10
-13.510394
 20
416.21448
 30
0.0
 11
-12.510494
 21
415.918452
 31
0.0
  0
LINE
  8
LC-002-002-----0
  6
CONTINUOUS
  5
3FD
 10
-13.511699
 20
438.205873
 30
0.0
 11
-12.511835
 21
438.50202
 31
0.0
  0
LINE
  8
LC-002-002-----0
  6
CONTINUOUS
  5
3FE
 10
-13.509136
 20
405.622187
 30
0.0
 11
-12.509307
 21
405.918452
 31
0.0
  0
LINE
  8
LC-002-002-----0
  6
CONTINUOUS
  5
3FF
 10
-12.508872
 20
402.288126
 30
0.0
 11
-13.508901
 21
403.669811
 31
0.0
  0
LINE
  8
LC-002-002-----0
  6
CONTINUOUS
  5
400
 10
-12.508669
 20
400.506384
 30
0.0
 11
-12.50888
 21
402.288126
 31
0.0
  0
LINE
  8
LC-002-002-----0
  6
CONTINUOUS
  5
401
 10
-13.508602
 20
401.122187
 30
0.0
 11
-12.508773
 21
401.418453
 31
0.0
  0
LINE
  8
LC-002-002-----0
  6
CONTINUOUS
  5
402
 10
-13.508495
 20
400.210119
 30
0.0
 11
-12.508669
 21
400.506384
 31
0.0
  0
LINE
  8
LC-002-002-----0
  6
DASHED
 62
     2
  5
403
 10
721.421169
 20
418.075513
 30
0.0
 11
808.041169
 21
418.075513
 31
0.0
  0
LINE
  8
LC-002-002-----0
  6
CONTINUOUS
  5
404
 10
-7.511835
 20
443.709984
 30
0.0
 11
-7.511835
 21
477.385575
 31
0.0
  0
LINE
  8
LC-002-002-----0
  6
CONTINUOUS
  5
405
 10
79.329174
 20
288.209984
 30
0.0
 11
74.329174
 21
288.209984
 31
0.0
  0
LINE
  8
LC-002-002-----0
  6
CONTINUOUS
  5
406
 10
26.829174
 20
284.209984
 30
0.0
 11
26.829174
 21
237.709984
 31
0.0
  0
LINE
  8
LC-002-002-----0
  6
CONTINUOUS
  5
407
 10
71.829174
 20
341.209984
 30
0.0
 11
71.829174
 21
290.709984
 31
0.0
  0
LINE
  8
LC-002-002-----0
  6
CONTINUOUS
  5
408
 10
30.329174
 20
343.709984
 30
0.0
 11
30.329174
 21
366.209984
 31
0.0
  0
LINE
  8
LC-008-001-----0
  6
CONTINUOUS
 62
     1
  5
409
 10
26.829174
 20
237.709984
 30
0.0
 11
76.829174
 21
237.709984
 31
0.0
  0
LINE
  8
LC-002-002-----0
  6
CONTINUOUS
  5
40A
 10
76.829174
 20
237.709984
 30
0.0
 11
74.808448
 21
234.209984
 31
0.0
  0
LINE
  8
LC-002-002-----0
  6
CONTINUOUS
  5
40B
 10
26.829174
 20
237.709984
 30
0.0
 11
28.8499
 21
234.209984
 31
0.0
  0
LINE
  8
LC-002-002-----0
  6
DASHDOT
 62
     2
  5
40C
 10
51.829174
 20
427.209984
 30
0.0
 11
51.829174
 21
234.209984
 31
0.0
  0
LINE
  8
LC-002-002-----0
  6
CONTINUOUS
  5
40D
 10
70.829174
 20
341.209984
 30
0.0
 11
73.329174
 21
341.209984
 31
0.0
  0
ARC
  8
LC-001-002-RND-0
  6
CONTINUOUS
  5
40E
 10
74.329174
 20
340.209984
 30
0.0
 40
1.0
 50
180.0
 51
270.0
  0
LINE
  8
LC-002-002-----0
  6
CONTINUOUS
  5
40F
 10
75.329174
 20
339.209984
 30
0.0
 11
74.329174
 21
339.209984
 31
0.0
  0
ARC
  8
LC-001-002-RND-0
  6
CONTINUOUS
  5
410
 10
75.329174
 20
340.209984
 30
0.0
 40
1.0
 50
270.0
 51
0.0
  0
ARC
  8
LC-001-002-RND-0
  6
CONTINUOUS
  5
411
 10
75.329174
 20
468.209984
 30
0.0
 40
1.0
 50
0.0
 51
90.0
  0
ARC
  8
LC-001-002-RND-0
  6
CONTINUOUS
  5
412
 10
74.329174
 20
468.209984
 30
0.0
 40
1.0
 50
90.0
 51
180.0
  0
LINE
  8
LC-002-002-----0
  6
CONTINUOUS
  5
413
 10
74.329174
 20
469.209984
 30
0.0
 11
75.329174
 21
469.209984
 31
0.0
  0
LINE
  8
LC-002-002-----0
  6
CONTINUOUS
  5
414
 10
70.829174
 20
341.209984
 30
0.0
 11
32.829174
 21
341.209984
 31
0.0
  0
LINE
  8
LC-002-002-----0
  6
CONTINUOUS
  5
415
 10
73.329174
 20
467.209984
 30
0.0
 11
51.829174
 21
467.209984
 31
0.0
  0
LINE
  8
LC-002-002-----0
  6
DASHED
 62
     2
  5
416
 10
769.721169
 20
416.895513
 30
0.0
 11
809.221169
 21
416.895513
 31
0.0
  0
LINE
  8
LC-002-002-----0
  6
DASHED
 62
     2
  5
417
 10
809.221169
 20
437.855513
 30
0.0
 11
808.041169
 21
436.675513
 31
0.0
  0
LINE
  8
LC-002-002-----0
  6
DASHED
 62
     2
  5
418
 10
809.221169
 20
416.895513
 30
0.0
 11
808.041169
 21
418.075513
 31
0.0
  0
LINE
  8
LC-002-002-----0
  6
CONTINUOUS
  5
419
 10
707.221169
 20
454.367992
 30
0.0
 11
734.221169
 21
454.367992
 31
0.0
  0
LINE
  8
LC-002-002-----0
  6
DASHED
 62
     2
  5
41A
 10
711.421169
 20
454.367992
 30
0.0
 11
711.421169
 21
428.075513
 31
0.0
  0
LINE
  8
LC-002-002-----0
  6
DASHED
 62
     2
  5
41B
 10
730.021169
 20
454.367992
 30
0.0
 11
730.021169
 21
436.675513
 31
0.0
  0
LINE
  8
LC-002-002-----0
  6
DASHDOT
 62
     2
  5
41C
 10
701.160804
 20
427.367992
 30
0.0
 11
813.229241
 21
427.367992
 31
0.0
  0
LINE
  8
LC-002-002-----0
  6
CONTINUOUS
  5
41D
 10
796.560971
 20
471.638797
 30
0.0
 11
796.560971
 21
383.097187
 31
0.0
  0
LINE
  8
LC-002-002-----0
  6
CONTINUOUS
  5
41E
 10
365.067643
 20
378.367992
 30
0.0
 11
305.326096
 21
378.367992
 31
0.0
  0
ARC
  8
LC-002-002-----0
  6
DASHED
 62
     2
  5
41F
 10
473.36978
 20
427.367992
 30
0.0
 40
6.0
 50
279.497234
 51
80.0
  0
LINE
  8
LC-002-002-----0
  6
DASHED
 62
     2
  5
420
 10
474.35978
 20
421.450231
 30
0.0
 11
464.555857
 21
419.810103
 31
0.0
  0
ARC
  8
LC-001-002-RND-0
  6
CONTINUOUS
  5
421
 10
235.86978
 20
379.867992
 30
0.0
 40
2.5
 50
180.0
 51
270.0
  0
LINE
  8
LC-002-002-----0
  6
DASHED
 62
     2
  5
422
 10
432.327853
 20
433.277067
 30
0.0
 11
439.86978
 21
434.538778
 31
0.0
  0
LINE
  8
LC-002-002-----0
  6
CONTINUOUS
  5
423
 10
791.550802
 20
440.867992
 30
0.0
 11
734.221169
 21
440.867992
 31
0.0
  0
LINE
  8
LC-002-002-----0
  6
CONTINUOUS
  5
424
 10
791.550802
 20
413.867992
 30
0.0
 11
715.221169
 21
413.867992
 31
0.0
  0
ARC
  8
LC-002-002-----0
  6
DASHED
 62
     2
  5
425
 10
433.36978
 20
427.367992
 30
0.0
 40
6.0
 50
100.0
 51
260.502766
  0
CIRCLE
  8
LC-002-002-----0
  6
CONTINUOUS
  5
426
 10
159.22978
 20
414.867992
 30
0.0
 40
4.25
  0
CIRCLE
  8
LC-002-002-----0
  6
CONTINUOUS
  5
427
 10
159.22978
 20
439.867992
 30
0.0
 40
4.25
  0
ARC
  8
LC-002-002-----0
  6
CONTINUOUS
  5
428
 10
173.36978
 20
441.507992
 30
0.0
 40
3.1
 50
90.0
 51
270.0
  0
LINE
  8
LC-002-002-----0
  6
CONTINUOUS
  5
429
 10
185.08978
 20
444.607992
 30
0.0
 11
173.36978
 21
444.607992
 31
0.0
  0
LINE
  8
LC-002-002-----0
  6
DASHED
 62
     2
  5
42A
 10
432.37978
 20
421.450231
 30
0.0
 11
442.183703
 21
419.810103
 31
0.0
  0
LINE
  8
LC-006-002-___-0
  6
DASHED
  5
42B
 10
454.90428
 20
418.195462
 30
0.0
 11
464.555857
 21
419.810103
 31
0.0
  0
ARC
  8
LC-002-002-----0
  6
CONTINUOUS
  5
42C
 10
185.08978
 20
441.507992
 30
0.0
 40
3.1
 50
270.0
 51
90.0
  0
ARC
  8
LC-002-002-----0
  6
CONTINUOUS
  5
42D
 10
183.458716
 20
436.907992
 30
0.0
 40
1.5
 50
90.0
 51
156.828899
  0
CIRCLE
  8
LC-002-002-----0
  6
DASHED
 62
     2
  5
42E
 10
433.36978
 20
427.367992
 30
0.0
 40
3.0
  0
ARC
  8
LC-002-002-----0
  6
CONTINUOUS
  5
42F
 10
185.08978
 20
441.507992
 30
0.0
 40
3.1
 50
270.0
 51
90.0
  0
ARC
  8
LC-001-002-RND-0
  6
CONTINUOUS
  5
430
 10
235.86978
 20
474.867992
 30
0.0
 40
2.5
 50
90.0
 51
180.0
  0
ARC
  8
LC-002-002-----0
  6
CONTINUOUS
  5
431
 10
179.22978
 20
438.717992
 30
0.0
 40
3.1
 50
203.171101
 51
336.828899
  0
LINE
  8
LC-006-002-___-0
  6
DASHED
  5
432
 10
451.83528
 20
436.540522
 30
0.0
 11
434.999681
 21
433.724045
 31
0.0
  0
ARC
  8
LC-002-002-----0
  6
CONTINUOUS
  5
433
 10
175.000844
 20
436.907992
 30
0.0
 40
1.5
 50
23.171101
 51
90.0
  0
ARC
  8
LC-002-002-----0
  6
CONTINUOUS
  5
434
 10
173.36978
 20
441.507992
 30
0.0
 40
3.1
 50
90.0
 51
270.0
  0
CIRCLE
  8
LC-002-002-----0
  6
CONTINUOUS
  5
435
 10
189.22978
 20
427.367992
 30
0.0
 40
4.25
  0
LINE
  8
LC-002-002-----0
  6
CONTINUOUS
  5
436
 10
164.97978
 20
431.617992
 30
0.0
 11
173.47978
 21
431.617992
 31
0.0
  0
ARC
  8
LC-002-002-----0
  6
CONTINUOUS
  5
437
 10
164.97978
 20
427.367992
 30
0.0
 40
4.25
 50
90.0
 51
270.0
  0
LINE
  8
LC-002-002-----0
  6
CONTINUOUS
  5
438
 10
437.865509
 20
408.117992
 30
0.0
 11
468.865509
 21
408.117992
 31
0.0
  0
ARC
  8
LC-002-002-----0
  6
CONTINUOUS
  5
439
 10
173.47978
 20
427.367992
 30
0.0
 40
4.25
 50
270.0
 51
90.0
  0
LINE
  8
LC-002-002-----0
  6
CONTINUOUS
  5
43A
 10
465.615509
 20
393.617992
 30
0.0
 11
465.615509
 21
391.117992
 31
0.0
  0
LINE
  8
LC-002-002-----0
  6
CONTINUOUS
  5
43B
 10
465.615509
 20
391.117992
 30
0.0
 11
441.115509
 21
391.117992
 31
0.0
  0
LINE
  8
LC-002-002-----0
  6
CONTINUOUS
  5
43C
 10
441.115509
 20
391.117992
 30
0.0
 11
441.115509
 21
393.617992
 31
0.0
  0
LINE
  8
LC-002-002-----0
  6
CONTINUOUS
  5
43D
 10
466.865509
 20
391.117992
 30
0.0
 11
466.865509
 21
386.117992
 31
0.0
  0
ARC
  8
LC-002-002-----0
  6
CONTINUOUS
  5
43E
 10
605.000844
 20
436.907992
 30
0.0
 40
1.5
 50
23.171101
 51
90.0
  0
ARC
  8
LC-002-002-----0
  6
CONTINUOUS
  5
43F
 10
603.36978
 20
441.507992
 30
0.0
 40
3.1
 50
90.0
 51
270.0
  0
ARC
  8
LC-002-002-----0
  6
CONTINUOUS
  5
440
 10
609.22978
 20
438.717992
 30
0.0
 40
3.1
 50
203.171101
 51
336.828899
  0
ARC
  8
LC-002-002-----0
  6
CONTINUOUS
  5
441
 10
613.458716
 20
436.907992
 30
0.0
 40
1.5
 50
90.0
 51
156.828899
  0
ARC
  8
LC-002-002-----0
  6
CONTINUOUS
  5
442
 10
615.08978
 20
441.507992
 30
0.0
 40
3.1
 50
270.0
 51
90.0
  0
CIRCLE
  8
LC-002-002-----0
  6
CONTINUOUS
  5
443
 10
599.22978
 20
427.367992
 30
0.0
 40
4.25
  0
LINE
  8
LC-002-002-----0
  6
CONTINUOUS
  5
444
 10
623.47978
 20
431.617992
 30
0.0
 11
614.97978
 21
431.617992
 31
0.0
  0
ARC
  8
LC-002-002-----0
  6
CONTINUOUS
  5
445
 10
623.47978
 20
427.367992
 30
0.0
 40
4.25
 50
270.0
 51
90.0
  0
LINE
  8
LC-002-002-----0
  6
CONTINUOUS
  5
446
 10
466.865509
 20
386.117992
 30
0.0
 11
439.865509
 21
386.117992
 31
0.0
  0
LINE
  8
LC-002-002-----0
  6
CONTINUOUS
  5
447
 10
439.865509
 20
386.117992
 30
0.0
 11
439.865509
 21
391.117992
 31
0.0
  0
LINE
  8
LC-002-002-----0
  6
CONTINUOUS
  5
448
 10
439.865509
 20
391.117992
 30
0.0
 11
441.115509
 21
391.117992
 31
0.0
  0
LINE
  8
LC-002-002-----0
  6
CONTINUOUS
  5
449
 10
465.615509
 20
391.117992
 30
0.0
 11
466.865509
 21
391.117992
 31
0.0
  0
ARC
  8
LC-002-002-----0
  6
CONTINUOUS
  5
44A
 10
442.038116
 20
388.617992
 30
0.0
 40
0.5
 50
136.08159
 51
223.918258
  0
ARC
  8
LC-002-002-----0
  6
CONTINUOUS
  5
44B
 10
446.740509
 20
384.089867
 30
0.0
 40
7.028125
 50
43.91841
 51
136.081571
  0
ARC
  8
LC-002-002-----0
  6
CONTINUOUS
  5
44C
 10
451.442902
 20
388.617992
 30
0.0
 40
0.5
 50
316.081648
 51
43.91841
  0
ARC
  8
LC-002-002-----0
  6
CONTINUOUS
  5
44D
 10
614.97978
 20
427.367992
 30
0.0
 40
4.25
 50
90.0
 51
270.0
  0
LINE
  8
LC-002-002-----0
  6
CONTINUOUS
  5
44E
 10
623.47978
 20
423.117992
 30
0.0
 11
614.97978
 21
423.117992
 31
0.0
  0
ARC
  8
LC-002-002-----0
  6
CONTINUOUS
  5
44F
 10
446.740509
 20
393.146117
 30
0.0
 40
7.028125
 50
223.918258
 51
316.08159
  0
LINE
  8
LC-002-002-----0
  6
CONTINUOUS
  5
450
 10
603.36978
 20
410.127992
 30
0.0
 11
615.08978
 21
410.127992
 31
0.0
  0
ARC
  8
LC-002-002-----0
  6
CONTINUOUS
  5
451
 10
455.288116
 20
388.617992
 30
0.0
 40
0.5
 50
136.08159
 51
223.918258
  0
ARC
  8
LC-002-002-----0
  6
CONTINUOUS
  5
452
 10
459.990509
 20
384.089867
 30
0.0
 40
7.028125
 50
43.91841
 51
136.081571
  0
LINE
  8
LC-002-002-----0
  6
CONTINUOUS
  5
453
 10
307.422778
 20
477.367992
 30
0.0
 11
439.557427
 21
477.367992
 31
0.0
  0
LINE
  8
LC-002-002-----0
  6
CONTINUOUS
  5
454
 10
382.09507
 20
377.367992
 30
0.0
 11
280.86978
 21
377.367992
 31
0.0
  0
LINE
  8
LC-002-002-----0
  6
CONTINUOUS
  5
455
 10
280.86978
 20
377.367992
 30
0.0
 11
235.86978
 21
377.367992
 31
0.0
  0
ARC
  8
LC-002-002-----0
  6
CONTINUOUS
  5
456
 10
615.08978
 20
413.227992
 30
0.0
 40
3.1
 50
270.0
 51
90.0
  0
LINE
  8
LC-002-002-----0
  6
CONTINUOUS
  5
457
 10
513.36978
 20
379.867992
 30
0.0
 11
513.36978
 21
469.867992
 31
0.0
  0
LINE
  8
LC-002-002-----0
  6
CONTINUOUS
  5
458
 10
164.97978
 20
423.117992
 30
0.0
 11
173.47978
 21
423.117992
 31
0.0
  0
LINE
  8
LC-002-002-----0
  6
CONTINUOUS
  5
459
 10
185.08978
 20
410.127992
 30
0.0
 11
173.36978
 21
410.127992
 31
0.0
  0
ARC
  8
LC-002-002-----0
  6
CONTINUOUS
  5
45A
 10
173.36978
 20
413.227992
 30
0.0
 40
3.1
 50
90.0
 51
270.0
  0
ARC
  8
LC-002-002-----0
  6
CONTINUOUS
  5
45B
 10
185.08978
 20
413.227992
 30
0.0
 40
3.1
 50
270.0
 51
90.0
  0
ARC
  8
LC-002-002-----0
  6
CONTINUOUS
  5
45C
 10
185.08978
 20
413.227992
 30
0.0
 40
3.1
 50
270.0
 51
90.0
  0
ARC
  8
LC-002-002-----0
  6
CONTINUOUS
  5
45D
 10
183.458716
 20
417.827992
 30
0.0
 40
1.5
 50
203.171101
 51
270.0
  0
ARC
  8
LC-002-002-----0
  6
CONTINUOUS
  5
45E
 10
179.22978
 20
416.017992
 30
0.0
 40
3.1
 50
23.171101
 51
156.828899
  0
ARC
  8
LC-002-002-----0
  6
CONTINUOUS
  5
45F
 10
175.000844
 20
417.827992
 30
0.0
 40
1.5
 50
270.0
 51
336.828899
  0
LINE
  8
LC-002-002-----0
  6
CONTINUOUS
  5
460
 10
173.36978
 20
438.407992
 30
0.0
 11
175.000844
 21
438.407992
 31
0.0
  0
LINE
  8
LC-002-002-----0
  6
CONTINUOUS
  5
461
 10
185.08978
 20
438.407992
 30
0.0
 11
183.458716
 21
438.407992
 31
0.0
  0
LINE
  8
LC-002-002-----0
  6
CONTINUOUS
  5
462
 10
173.36978
 20
416.327992
 30
0.0
 11
175.000844
 21
416.327992
 31
0.0
  0
LINE
  8
LC-002-002-----0
  6
CONTINUOUS
  5
463
 10
185.08978
 20
416.327992
 30
0.0
 11
183.458716
 21
416.327992
 31
0.0
  0
ARC
  8
LC-001-002-RND-0
  6
CONTINUOUS
  5
464
 10
510.86978
 20
379.867992
 30
0.0
 40
2.5
 50
270.0
 51
0.0
  0
ARC
  8
LC-001-002-RND-0
  6
CONTINUOUS
  5
465
 10
510.86978
 20
474.867992
 30
0.0
 40
2.5
 50
0.0
 51
90.0
  0
ARC
  8
LC-002-002-----0
  6
CONTINUOUS
  5
466
 10
535.08978
 20
441.507992
 30
0.0
 40
3.1
 50
270.0
 51
90.0
  0
LINE
  8
LC-002-002-----0
  6
CONTINUOUS
  5
467
 10
523.36978
 20
444.607992
 30
0.0
 11
535.08978
 21
444.607992
 31
0.0
  0
LINE
  8
LC-002-002-----0
  6
CONTINUOUS
  5
468
 10
523.36978
 20
438.407992
 30
0.0
 11
525.000844
 21
438.407992
 31
0.0
  0
LINE
  8
LC-002-002-----0
  6
CONTINUOUS
  5
469
 10
535.08978
 20
438.407992
 30
0.0
 11
533.458716
 21
438.407992
 31
0.0
  0
ARC
  8
LC-002-002-----0
  6
CONTINUOUS
  5
46A
 10
529.22978
 20
438.717992
 30
0.0
 40
3.1
 50
203.171101
 51
336.828899
  0
ARC
  8
LC-002-002-----0
  6
CONTINUOUS
  5
46B
 10
533.458716
 20
436.907992
 30
0.0
 40
1.5
 50
90.0
 51
156.828899
  0
ARC
  8
LC-002-002-----0
  6
CONTINUOUS
  5
46C
 10
525.000844
 20
436.907992
 30
0.0
 40
1.5
 50
23.171101
 51
90.0
  0
ARC
  8
LC-002-002-----0
  6
CONTINUOUS
  5
46D
 10
535.08978
 20
413.227992
 30
0.0
 40
3.1
 50
270.0
 51
90.0
  0
LINE
  8
LC-002-002-----0
  6
CONTINUOUS
  5
46E
 10
523.36978
 20
410.127992
 30
0.0
 11
535.08978
 21
410.127992
 31
0.0
  0
LINE
  8
LC-002-002-----0
  6
CONTINUOUS
  5
46F
 10
523.36978
 20
416.327992
 30
0.0
 11
525.000844
 21
416.327992
 31
0.0
  0
LINE
  8
LC-002-002-----0
  6
CONTINUOUS
  5
470
 10
535.08978
 20
416.327992
 30
0.0
 11
533.458716
 21
416.327992
 31
0.0
  0
ARC
  8
LC-002-002-----0
  6
CONTINUOUS
  5
471
 10
529.22978
 20
416.017992
 30
0.0
 40
3.1
 50
23.171101
 51
156.828899
  0
ARC
  8
LC-002-002-----0
  6
CONTINUOUS
  5
472
 10
533.458716
 20
417.827992
 30
0.0
 40
1.5
 50
203.171101
 51
270.0
  0
ARC
  8
LC-002-002-----0
  6
CONTINUOUS
  5
473
 10
525.000844
 20
417.827992
 30
0.0
 40
1.5
 50
270.0
 51
336.828899
  0
LINE
  8
LC-002-002-----0
  6
CONTINUOUS
  5
474
 10
543.47978
 20
423.117992
 30
0.0
 11
534.97978
 21
423.117992
 31
0.0
  0
LINE
  8
LC-002-002-----0
  6
CONTINUOUS
  5
475
 10
543.47978
 20
431.617992
 30
0.0
 11
534.97978
 21
431.617992
 31
0.0
  0
LINE
  8
LC-002-002-----0
  6
CONTINUOUS
  5
476
 10
513.36978
 20
402.367992
 30
0.0
 11
634.22978
 21
402.367992
 31
0.0
  0
LINE
  8
LC-002-002-----0
  6
CONTINUOUS
  5
477
 10
513.36978
 20
452.367992
 30
0.0
 11
634.22978
 21
452.367992
 31
0.0
  0
ARC
  8
LC-002-002-----0
  6
CONTINUOUS
  5
478
 10
543.47978
 20
427.367992
 30
0.0
 40
4.25
 50
270.0
 51
90.0
  0
ARC
  8
LC-002-002-----0
  6
CONTINUOUS
  5
479
 10
534.97978
 20
427.367992
 30
0.0
 40
4.25
 50
90.0
 51
270.0
  0
ARC
  8
LC-002-002-----0
  6
CONTINUOUS
  5
47A
 10
464.692902
 20
388.617992
 30
0.0
 40
0.5
 50
316.081648
 51
43.91841
  0
ARC
  8
LC-002-002-----0
  6
CONTINUOUS
  5
47B
 10
459.990509
 20
393.146117
 30
0.0
 40
7.028125
 50
223.918258
 51
316.08159
  0
LINE
  8
LC-008-001-----0
  6
DASHDOT
  5
47C
 10
466.865509
 20
388.617992
 30
0.0
 11
439.865509
 21
388.617992
 31
0.0
  0
ARC
  8
LC-002-002-----0
  6
CONTINUOUS
  5
47D
 10
438.532175
 20
388.617992
 30
0.0
 40
2.833333
 50
298.072604
 51
61.927571
  0
ARC
  8
LC-001-002-RND-0
  6
CONTINUOUS
  5
47E
 10
76.329174
 20
343.209984
 30
0.0
 40
2.0
 50
270.0
 51
0.0
  0
ARC
  8
LC-001-002-RND-0
  6
CONTINUOUS
  5
47F
 10
76.329174
 20
465.209984
 30
0.0
 40
2.0
 50
0.0
 51
90.0
  0
ARC
  8
LC-002-002-----0
  6
CONTINUOUS
  5
480
 10
468.198842
 20
388.617992
 30
0.0
 40
2.833333
 50
118.072449
 51
241.92719
  0
LINE
  8
LC-002-002-----0
  6
CONTINUOUS
  5
481
 10
466.365509
 20
410.617992
 30
0.0
 11
466.365509
 21
436.745779
 31
0.0
  0
LINE
  8
LC-002-002-----0
  6
CONTINUOUS
  5
482
 10
440.365509
 20
436.745779
 30
0.0
 11
440.365509
 21
410.617992
 31
0.0
  0
ARC
  8
LC-002-002-----0
  6
CONTINUOUS
  5
483
 10
453.365509
 20
475.16963
 30
0.0
 40
15.089328
 50
201.038766
 51
338.961234
  0
LINE
  8
LC-002-002-----0
  6
CONTINUOUS
  5
484
 10
438.365509
 20
436.745779
 30
0.0
 11
468.365509
 21
436.745779
 31
0.0
  0
LINE
  8
LC-002-002-----0
  6
CONTINUOUS
  5
485
 10
468.365509
 20
457.200681
 30
0.0
 11
468.365509
 21
436.745779
 31
0.0
  0
LINE
  8
LC-002-002-----0
  6
CONTINUOUS
  5
486
 10
438.365509
 20
457.200681
 30
0.0
 11
438.365509
 21
436.745779
 31
0.0
  0
ARC
  8
LC-002-002-----0
  6
CONTINUOUS
  5
487
 10
453.460107
 20
471.122742
 30
0.0
 40
15.285373
 50
170.938229
 51
15.516647
  0
ARC
  8
LC-002-002-----0
  6
CONTINUOUS
  5
488
 10
603.36978
 20
413.227992
 30
0.0
 40
3.1
 50
90.0
 51
270.0
  0
LINE
  8
LC-002-002-----0
  6
CONTINUOUS
  5
489
 10
509.86978
 20
378.367992
 30
0.0
 11
465.865509
 21
378.367992
 31
0.0
  0
ARC
  8
LC-001-002-RND-0
  6
CONTINUOUS
  5
48A
 10
236.86978
 20
380.867992
 30
0.0
 40
2.5
 50
180.0
 51
270.0
  0
LINE
  8
LC-002-002-----0
  6
CONTINUOUS
  5
48B
 10
510.86978
 20
377.367992
 30
0.0
 11
382.09507
 21
377.367992
 31
0.0
  0
LINE
  8
LC-002-002-----0
  6
CONTINUOUS
  5
48C
 10
233.36978
 20
379.867992
 30
0.0
 11
233.36978
 21
476.048707
 31
0.0
  0
ARC
  8
LC-002-002-----0
  6
CONTINUOUS
  5
48D
 10
453.365509
 20
429.169302
 30
0.0
 40
22.868191
 50
73.486718
 51
106.513282
  0
LINE
  8
LC-002-002-----0
  6
CONTINUOUS
  5
48E
 10
797.659674
 20
457.867992
 30
0.0
 11
796.560971
 21
457.867992
 31
0.0
  0
LINE
  8
LC-002-002-----0
  6
CONTINUOUS
  5
48F
 10
796.560971
 20
457.867992
 30
0.0
 11
796.560971
 21
396.867992
 31
0.0
  0
ARC
  8
LC-001-002-RND-0
  6
CONTINUOUS
  5
490
 10
797.659674
 20
455.867992
 30
0.0
 40
2.0
 50
2.898577
 51
90.0
  0
ARC
  8
LC-001-002-RND-0
  6
CONTINUOUS
  5
491
 10
797.659674
 20
398.867992
 30
0.0
 40
2.0
 50
270.0
 51
357.101423
  0
LINE
  8
LC-002-002-----0
  6
CONTINUOUS
 62
     2
  5
492
 10
799.657116
 20
455.969128
 30
0.0
 11
799.657116
 21
398.766856
 31
0.0
  0
LINE
  8
LC-002-002-----0
  6
CONTINUOUS
  5
493
 10
800.560971
 20
438.117992
 30
0.0
 11
800.560971
 21
416.617992
 31
0.0
  0
LINE
  8
LC-002-002-----0
  6
CONTINUOUS
  5
494
 10
799.657116
 20
455.969128
 30
0.0
 11
800.560971
 21
438.117992
 31
0.0
  0
LINE
  8
LC-002-002-----0
  6
CONTINUOUS
  5
495
 10
800.560971
 20
416.617992
 30
0.0
 11
799.657116
 21
398.766856
 31
0.0
  0
LINE
  8
LC-002-002-----0
  6
CONTINUOUS
  5
496
 10
797.659674
 20
396.867992
 30
0.0
 11
796.560971
 21
396.867992
 31
0.0
  0
LINE
  8
LC-002-002-----0
  6
DASHDOT
 62
     2
  5
497
 10
796.560971
 20
427.367992
 30
0.0
 11
800.560971
 21
427.367992
 31
0.0
  0
LINE
  8
LC-002-002-----0
  6
CONTINUOUS
 62
     2
  5
498
 10
465.865509
 20
386.117992
 30
0.0
 11
440.865509
 21
383.930776
 31
0.0
  0
LINE
  8
LC-002-002-----0
  6
CONTINUOUS
 62
     2
  5
499
 10
465.865509
 20
379.091253
 30
0.0
 11
454.741083
 21
378.117992
 31
0.0
  0
LINE
  8
LC-002-002-----0
  6
CONTINUOUS
 62
     2
  5
49A
 10
465.865509
 20
380.095073
 30
0.0
 11
443.26737
 21
378.117992
 31
0.0
  0
LINE
  8
LC-002-002-----0
  6
CONTINUOUS
 62
     2
  5
49B
 10
453.365509
 20
386.028204
 30
0.0
 11
440.865509
 21
384.934595
 31
0.0
  0
LINE
  8
LC-002-002-----0
  6
CONTINUOUS
 62
     2
  5
49C
 10
465.865509
 20
385.114172
 30
0.0
 11
440.865509
 21
382.926956
 31
0.0
  0
LINE
  8
LC-002-002-----0
  6
CONTINUOUS
 62
     2
  5
49D
 10
465.865509
 20
384.110353
 30
0.0
 11
440.865509
 21
381.923136
 31
0.0
  0
LINE
  8
LC-002-002-----0
  6
CONTINUOUS
 62
     2
  5
49E
 10
465.865509
 20
383.106533
 30
0.0
 11
440.865509
 21
380.919316
 31
0.0
  0
LINE
  8
LC-002-002-----0
  6
CONTINUOUS
  5
49F
 10
796.560971
 20
396.867992
 30
0.0
 11
796.560971
 21
396.867992
 31
0.0
  0
ARC
  8
LC-002-002-----0
  6
CONTINUOUS
  5
4A0
 10
293.36978
 20
427.367992
 30
0.0
 40
30.5
 50
119.459175
 51
239.456211
  0
ARC
  8
LC-002-002-----0
  6
CONTINUOUS
  5
4A1
 10
293.36978
 20
427.367992
 30
0.0
 40
30.5
 50
301.798913
 51
60.540825
  0
LINE
  8
LC-002-002-----0
  6
CONTINUOUS
 62
     2
  5
4A2
 10
465.865509
 20
382.102713
 30
0.0
 11
440.865509
 21
379.915496
 31
0.0
  0
LINE
  8
LC-002-002-----0
  6
CONTINUOUS
 62
     2
  5
4A3
 10
465.865509
 20
381.098893
 30
0.0
 11
440.865509
 21
378.911676
 31
0.0
  0
LINE
  8
LC-002-002-----0
  6
CONTINUOUS
  5
4A4
 10
440.865509
 20
378.911676
 30
0.0
 11
440.865509
 21
386.117992
 31
0.0
  0
LINE
  8
LC-002-002-----0
  6
CONTINUOUS
  5
4A5
 10
440.865509
 20
378.911676
 30
0.0
 11
441.659193
 21
378.117992
 31
0.0
  0
LINE
  8
LC-002-002-----0
  6
CONTINUOUS
  5
4A6
 10
465.865509
 20
378.911676
 30
0.0
 11
465.071824
 21
378.117992
 31
0.0
  0
LINE
  8
LC-002-002-----0
  6
CONTINUOUS
  5
4A7
 10
465.071824
 20
378.117992
 30
0.0
 11
441.659193
 21
378.117992
 31
0.0
  0
LINE
  8
LC-002-002-----0
  6
CONTINUOUS
  5
4A8
 10
465.865509
 20
386.117992
 30
0.0
 11
465.865509
 21
378.911676
 31
0.0
  0
LINE
  8
LC-002-002-----0
  6
CONTINUOUS
  5
4A9
 10
467.855393
 20
476.367992
 30
0.0
 11
509.86978
 21
476.367992
 31
0.0
  0
LINE
  8
LC-002-002-----0
  6
CONTINUOUS
  5
4AA
 10
440.865509
 20
378.367992
 30
0.0
 11
380.792972
 21
378.367992
 31
0.0
  0
ARC
  8
LC-002-002-----0
  6
CONTINUOUS
  5
4AB
 10
603.36978
 20
413.227992
 30
0.0
 40
3.1
 50
90.0
 51
270.0
  0
LINE
  8
LC-002-002-----0
  6
DASHED
 62
     2
  5
4AC
 10
416.369051
 20
377.367992
 30
0.0
 11
416.369051
 21
395.36945
 31
0.0
  0
CIRCLE
  8
LC-002-002-----0
  6
DASHED
 62
     2
  5
4AD
 10
473.365509
 20
427.367992
 30
0.0
 40
1.5
  0
CIRCLE
  8
LC-002-002-----0
  6
DASHED
 62
     2
  5
4AE
 10
433.361237
 20
427.367992
 30
0.0
 40
1.5
  0
LINE
  8
LC-002-002-----0
  6
DASHED
 62
     2
  5
4AF
 10
330.379051
 20
377.367992
 30
0.0
 11
330.379051
 21
395.36945
 31
0.0
  0
ARC
  8
LC-002-002-----0
  6
CONTINUOUS
  5
4B0
 10
605.000844
 20
417.827992
 30
0.0
 40
1.5
 50
270.0
 51
336.828899
  0
ARC
  8
LC-002-002-----0
  6
CONTINUOUS
  5
4B1
 10
609.22978
 20
416.017992
 30
0.0
 40
3.1
 50
23.171101
 51
156.828899
  0
ARC
  8
LC-002-002-----0
  6
CONTINUOUS
  5
4B2
 10
613.458716
 20
417.827992
 30
0.0
 40
1.5
 50
203.171101
 51
270.0
  0
LINE
  8
LC-002-002-----0
  6
CONTINUOUS
  5
4B3
 10
615.08978
 20
438.407992
 30
0.0
 11
613.458716
 21
438.407992
 31
0.0
  0
LINE
  8
LC-002-002-----0
  6
CONTINUOUS
  5
4B4
 10
603.36978
 20
438.407992
 30
0.0
 11
605.000844
 21
438.407992
 31
0.0
  0
LINE
  8
LC-002-002-----0
  6
CONTINUOUS
  5
4B5
 10
615.08978
 20
416.327992
 30
0.0
 11
613.458716
 21
416.327992
 31
0.0
  0
LINE
  8
LC-002-002-----0
  6
CONTINUOUS
  5
4B6
 10
603.36978
 20
416.327992
 30
0.0
 11
605.000844
 21
416.327992
 31
0.0
  0
CIRCLE
  8
LC-002-002-----0
  6
CONTINUOUS
  5
4B7
 10
549.22978
 20
439.867992
 30
0.0
 40
4.25
  0
CIRCLE
  8
LC-002-002-----0
  6
CONTINUOUS
  5
4B8
 10
559.22978
 20
427.367992
 30
0.0
 40
4.25
  0
LINE
  8
LC-002-002-----0
  6
CONTINUOUS
  5
4B9
 10
95.329174
 20
454.209984
 30
0.0
 11
91.329174
 21
454.209984
 31
0.0
  0
LINE
  8
LC-002-002-----0
  6
CONTINUOUS
  5
4BA
 10
91.329174
 20
454.209984
 30
0.0
 11
91.329174
 21
445.209984
 31
0.0
  0
CIRCLE
  8
LC-002-002-----0
  6
CONTINUOUS
  5
4BB
 10
549.22978
 20
414.867992
 30
0.0
 40
4.25
  0
LINE
  8
LC-002-002-----0
  6
DASHED
 62
     2
  5
4BC
 10
480.374051
 20
405.367992
 30
0.0
 11
480.374051
 21
449.367992
 31
0.0
  0
LINE
  8
LC-002-002-----0
  6
DASHED
 62
     2
  5
4BD
 10
475.374051
 20
454.367992
 30
0.0
 11
429.374051
 21
454.367992
 31
0.0
  0
LINE
  8
LC-002-002-----0
  6
DASHED
 62
     2
  5
4BE
 10
266.374051
 20
449.367992
 30
0.0
 11
266.374051
 21
405.367992
 31
0.0
  0
CIRCLE
  8
LC-002-002-----0
  6
CONTINUOUS
  5
4BF
 10
589.22978
 20
439.867992
 30
0.0
 40
4.25
  0
CIRCLE
  8
LC-002-002-----0
  6
CONTINUOUS
  5
4C0
 10
589.22978
 20
414.867992
 30
0.0
 40
4.25
  0
LINE
  8
LC-002-002-----0
  6
CONTINUOUS
  5
4C1
 10
91.329174
 20
437.209984
 30
0.0
 11
91.329174
 21
417.209984
 31
0.0
  0
LINE
  8
LC-002-002-----0
  6
CONTINUOUS
  5
4C2
 10
583.47978
 20
423.117992
 30
0.0
 11
574.97978
 21
423.117992
 31
0.0
  0
LINE
  8
LC-002-002-----0
  6
CONTINUOUS
  5
4C3
 10
583.47978
 20
431.617992
 30
0.0
 11
574.97978
 21
431.617992
 31
0.0
  0
LINE
  8
LC-002-002-----0
  6
CONTINUOUS
  5
4C4
 10
91.329174
 20
409.209984
 30
0.0
 11
91.329174
 21
365.209984
 31
0.0
  0
ARC
  8
LC-002-002-----0
  6
CONTINUOUS
  5
4C5
 10
411.374051
 20
359.367992
 30
0.0
 40
5.0
 50
270.0
 51
0.0
  0
LINE
  8
LC-002-002-----0
  6
CONTINUOUS
  5
4C6
 10
91.329174
 20
400.209984
 30
0.0
 11
95.329174
 21
400.209984
 31
0.0
  0
LINE
  8
LC-002-002-----0
  6
CONTINUOUS
  5
4C7
 10
95.329174
 20
400.209984
 30
0.0
 11
95.329174
 21
401.709984
 31
0.0
  0
LINE
  8
LC-002-002-----0
  6
CONTINUOUS
  5
4C8
 10
95.329174
 20
401.709984
 30
0.0
 11
93.329174
 21
401.709984
 31
0.0
  0
LINE
  8
LC-002-002-----0
  6
CONTINUOUS
  5
4C9
 10
93.329174
 20
401.709984
 30
0.0
 11
93.329174
 21
452.709984
 31
0.0
  0
LINE
  8
LC-002-002-----0
  6
CONTINUOUS
  5
4CA
 10
93.329174
 20
452.709984
 30
0.0
 11
95.329174
 21
452.709984
 31
0.0
  0
LINE
  8
LC-002-002-----0
  6
CONTINUOUS
  5
4CB
 10
95.329174
 20
452.709984
 30
0.0
 11
95.329174
 21
454.209984
 31
0.0
  0
LINE
  8
LC-002-002-----0
  6
CONTINUOUS
  5
4CC
 10
91.329174
 20
445.209984
 30
0.0
 11
91.329174
 21
437.209984
 31
0.0
  0
LINE
  8
LC-002-002-----0
  6
CONTINUOUS
  5
4CD
 10
91.329174
 20
417.209984
 30
0.0
 11
91.329174
 21
409.209984
 31
0.0
  0
ARC
  8
LC-002-002-----0
  6
CONTINUOUS
  5
4CE
 10
583.47978
 20
427.367992
 30
0.0
 40
4.25
 50
270.0
 51
90.0
  0
ARC
  8
LC-002-002-----0
  6
CONTINUOUS
  5
4CF
 10
574.97978
 20
427.367992
 30
0.0
 40
4.25
 50
90.0
 51
270.0
  0
ARC
  8
LC-002-002-----0
  6
CONTINUOUS
  5
4D0
 10
563.36978
 20
413.227992
 30
0.0
 40
3.1
 50
90.0
 51
270.0
  0
ARC
  8
LC-002-002-----0
  6
CONTINUOUS
  5
4D1
 10
575.08978
 20
413.227992
 30
0.0
 40
3.1
 50
270.0
 51
90.0
  0
LINE
  8
LC-002-002-----0
  6
CONTINUOUS
  5
4D2
 10
563.36978
 20
410.127992
 30
0.0
 11
575.08978
 21
410.127992
 31
0.0
  0
LINE
  8
LC-002-002-----0
  6
CONTINUOUS
  5
4D3
 10
91.329174
 20
365.209984
 30
0.0
 11
91.329174
 21
354.209984
 31
0.0
  0
LINE
  8
LC-002-002-----0
  6
CONTINUOUS
  5
4D4
 10
91.329174
 20
354.209984
 30
0.0
 11
95.329174
 21
354.209984
 31
0.0
  0
LINE
  8
LC-002-002-----0
  6
CONTINUOUS
  5
4D5
 10
95.329174
 20
354.209984
 30
0.0
 11
95.329174
 21
361.209984
 31
0.0
  0
LINE
  8
LC-002-002-----0
  6
CONTINUOUS
  5
4D6
 10
563.36978
 20
416.327992
 30
0.0
 11
565.000844
 21
416.327992
 31
0.0
  0
LINE
  8
LC-002-002-----0
  6
CONTINUOUS
  5
4D7
 10
91.329174
 20
389.695166
 30
0.0
 11
95.329174
 21
389.695166
 31
0.0
  0
LINE
  8
LC-002-002-----0
  6
CONTINUOUS
  5
4D8
 10
93.329174
 20
389.695166
 30
0.0
 11
93.329174
 21
354.209984
 31
0.0
  0
LINE
  8
LC-002-002-----0
  6
CONTINUOUS
  5
4D9
 10
512.36978
 20
380.554147
 30
0.0
 11
512.36978
 21
474.867992
 31
0.0
  0
LINE
  8
LC-002-002-----0
  6
CONTINUOUS
  5
4DA
 10
70.429174
 20
447.209984
 30
0.0
 11
70.429174
 21
449.709984
 31
0.0
  0
LINE
  8
LC-002-002-----0
  6
CONTINUOUS
  5
4DB
 10
575.08978
 20
416.327992
 30
0.0
 11
573.458716
 21
416.327992
 31
0.0
  0
LINE
  8
LC-002-002-----0
  6
CONTINUOUS
  5
4DC
 10
234.36978
 20
380.867992
 30
0.0
 11
234.36978
 21
473.867992
 31
0.0
  0
ARC
  8
LC-002-002-----0
  6
CONTINUOUS
  5
4DD
 10
569.22978
 20
416.017992
 30
0.0
 40
3.1
 50
23.171101
 51
156.828899
  0
LINE
  8
LC-002-002-----0
  6
CONTINUOUS
  5
4DE
 10
236.86978
 20
476.367992
 30
0.0
 11
278.879896
 21
476.367992
 31
0.0
  0
ARC
  8
LC-002-002-----0
  6
CONTINUOUS
  5
4DF
 10
573.458716
 20
417.827992
 30
0.0
 40
1.5
 50
203.171101
 51
270.0
  0
ARC
  8
LC-001-002-RND-0
  6
CONTINUOUS
  5
4E0
 10
236.86978
 20
473.867992
 30
0.0
 40
2.5
 50
90.0
 51
180.0
  0
ARC
  8
LC-002-002-----0
  6
CONTINUOUS
  5
4E1
 10
565.000844
 20
417.827992
 30
0.0
 40
1.5
 50
270.0
 51
336.828899
  0
ARC
  8
LC-002-002-----0
  6
CONTINUOUS
  5
4E2
 10
563.36978
 20
441.507992
 30
0.0
 40
3.1
 50
90.0
 51
270.0
  0
ARC
  8
LC-002-002-----0
  6
CONTINUOUS
  5
4E3
 10
575.08978
 20
441.507992
 30
0.0
 40
3.1
 50
270.0
 51
90.0
  0
ARC
  8
LC-001-002-RND-0
  6
CONTINUOUS
  5
4E4
 10
509.86978
 20
380.867992
 30
0.0
 40
2.5
 50
270.0
 51
0.0
  0
LINE
  8
LC-002-002-----0
  6
CONTINUOUS
  5
4E5
 10
563.36978
 20
444.607992
 30
0.0
 11
575.08978
 21
444.607992
 31
0.0
  0
LINE
  8
LC-002-002-----0
  6
CONTINUOUS
  5
4E6
 10
563.36978
 20
438.407992
 30
0.0
 11
565.000844
 21
438.407992
 31
0.0
  0
ARC
  8
LC-001-002-RND-0
  6
CONTINUOUS
  5
4E7
 10
509.86978
 20
473.867992
 30
0.0
 40
2.5
 50
0.0
 51
90.0
  0
LINE
  8
LC-002-002-----0
  6
CONTINUOUS
  5
4E8
 10
575.08978
 20
438.407992
 30
0.0
 11
573.458716
 21
438.407992
 31
0.0
  0
LINE
  8
LC-002-002-----0
  6
CONTINUOUS
  5
4E9
 10
307.859664
 20
476.367992
 30
0.0
 11
438.875624
 21
476.367992
 31
0.0
  0
CIRCLE
  8
LC-002-002-----0
  6
DASHED
 62
     2
  5
4EA
 10
326.36978
 20
427.367992
 30
0.0
 40
2.6
  0
ARC
  8
LC-002-002-----0
  6
CONTINUOUS
  5
4EB
 10
569.22978
 20
438.717992
 30
0.0
 40
3.1
 50
203.171101
 51
336.828899
  0
ARC
  8
LC-002-002-----0
  6
CONTINUOUS
  5
4EC
 10
573.458716
 20
436.907992
 30
0.0
 40
1.5
 50
90.0
 51
156.828899
  0
LINE
  8
LC-002-002-----0
  6
CONTINUOUS
  5
4ED
 10
280.86978
 20
378.367992
 30
0.0
 11
236.86978
 21
378.367992
 31
0.0
  0
ARC
  8
LC-002-002-----0
  6
CONTINUOUS
  5
4EE
 10
565.000844
 20
436.907992
 30
0.0
 40
1.5
 50
23.171101
 51
90.0
  0
CIRCLE
  8
LC-002-002-----0
  6
DASHED
 62
     2
  5
4EF
 10
326.36978
 20
427.367992
 30
0.0
 40
5.0
  0
CIRCLE
  8
LC-002-002-----0
  6
DASHED
 62
     2
  5
4F0
 10
420.36978
 20
427.367992
 30
0.0
 40
2.6
  0
LINE
  8
LC-002-002-----0
  6
CONTINUOUS
  5
4F1
 10
70.429174
 20
404.209984
 30
0.0
 11
57.329174
 21
404.209984
 31
0.0
  0
CIRCLE
  8
LC-002-002-----0
  6
DASHED
 62
     2
  5
4F2
 10
420.36978
 20
427.367992
 30
0.0
 40
5.0
  0
LINE
  8
LC-002-002-----0
  6
CONTINUOUS
 62
     2
  5
4F3
 10
520.86978
 20
477.367992
 30
0.0
 11
509.86978
 21
477.367992
 31
0.0
  0
LINE
  8
LC-002-002-----0
  6
CONTINUOUS
 62
     2
  5
4F4
 10
520.86978
 20
377.367992
 30
0.0
 11
509.86978
 21
377.367992
 31
0.0
  0
ARC
  8
LC-002-002-----0
  6
CONTINUOUS
  5
4F5
 10
523.36978
 20
441.507992
 30
0.0
 40
3.1
 50
90.0
 51
270.0
  0
LINE
  8
LC-002-002-----0
  6
DASHED
 62
     2
  5
4F6
 10
345.874051
 20
354.367992
 30
0.0
 11
335.374051
 21
354.367992
 31
0.0
  0
LINE
  8
LC-002-002-----0
  6
CONTINUOUS
  5
4F7
 10
280.36978
 20
410.617992
 30
0.0
 11
306.36978
 21
410.617992
 31
0.0
  0
CIRCLE
  8
LC-002-002-----0
  6
DASHED
 62
     2
  5
4F8
 10
328.595858
 20
387.865193
 30
0.0
 40
2.6
  0
ARC
  8
LC-002-002-----0
  6
CONTINUOUS
  5
4F9
 10
523.36978
 20
413.227992
 30
0.0
 40
3.1
 50
90.0
 51
270.0
  0
CIRCLE
  8
LC-002-002-----0
  6
CONTINUOUS
  5
4FA
 10
519.22978
 20
427.367992
 30
0.0
 40
4.25
  0
LINE
  8
LC-002-002-----0
  6
DASHED
 62
     2
  5
4FB
 10
321.374051
 20
389.853173
 30
0.0
 11
330.374051
 21
389.853173
 31
0.0
  0
ARC
  8
LC-002-002-----0
  6
DASHED
 62
     2
  5
4FC
 10
328.595858
 20
387.865193
 30
0.0
 40
5.0
 50
33.009186
 51
331.414343
  0
CIRCLE
  8
LC-002-002-----0
  6
DASHED
 62
     2
  5
4FD
 10
414.595858
 20
388.365193
 30
0.0
 40
2.6
  0
LINE
  8
LC-002-002-----0
  6
CONTINUOUS
  5
4FE
 10
91.329174
 20
454.209984
 30
0.0
 11
91.329174
 21
467.724803
 31
0.0
  0
LINE
  8
LC-002-002-----0
  6
CONTINUOUS
  5
4FF
 10
91.329174
 20
467.724803
 30
0.0
 11
95.329174
 21
467.724803
 31
0.0
  0
LINE
  8
LC-002-002-----0
  6
CONTINUOUS
  5
500
 10
95.329174
 20
454.209984
 30
0.0
 11
95.329174
 21
467.724803
 31
0.0
  0
ARC
  8
LC-002-002-----0
  6
DASHED
 62
     2
  5
501
 10
414.595858
 20
388.365193
 30
0.0
 40
5.0
 50
209.283206
 51
221.822378
  0
ARC
  8
LC-002-002-----0
  6
DASHED
 62
     2
  5
502
 10
321.374051
 20
394.853173
 30
0.0
 40
5.0
 50
180.0
 51
270.0
  0
LINE
  8
LC-002-002-----0
  6
CONTINUOUS
  5
503
 10
308.86978
 20
393.617992
 30
0.0
 11
277.86978
 21
393.617992
 31
0.0
  0
LINE
  8
LC-002-002-----0
  6
CONTINUOUS
  5
504
 10
277.86978
 20
393.617992
 30
0.0
 11
277.86978
 21
408.117992
 31
0.0
  0
LINE
  8
LC-002-002-----0
  6
CONTINUOUS
  5
505
 10
70.429174
 20
406.709984
 30
0.0
 11
57.329174
 21
406.709984
 31
0.0
  0
LINE
  8
LC-002-002-----0
  6
CONTINUOUS
  5
506
 10
308.86978
 20
408.117992
 30
0.0
 11
308.86978
 21
393.617992
 31
0.0
  0
LINE
  8
LC-002-002-----0
  6
DASHED
 62
     2
  5
507
 10
279.874051
 20
436.745779
 30
0.0
 11
279.874051
 21
454.367992
 31
0.0
  0
ARC
  8
LC-002-002-----0
  6
DASHED
 62
     2
  5
508
 10
325.374051
 20
394.853173
 30
0.0
 40
3.0
 50
270.0
 51
90.0
  0
CIRCLE
  8
LC-002-002-----0
  6
DASHED
 62
     2
  5
509
 10
313.374051
 20
427.367992
 30
0.0
 40
3.0
  0
LINE
  8
LC-002-002-----0
  6
CONTINUOUS
  5
50A
 10
154.22978
 20
452.367992
 30
0.0
 11
154.22978
 21
402.367992
 31
0.0
  0
LINE
  8
LC-002-002-----0
  6
DASHED
 62
     2
  5
50B
 10
306.874051
 20
436.745779
 30
0.0
 11
306.874051
 21
454.367992
 31
0.0
  0
LINE
  8
LC-002-002-----0
  6
CONTINUOUS
  5
50C
 10
280.36978
 20
410.617992
 30
0.0
 11
277.86978
 21
408.117992
 31
0.0
  0
LINE
  8
LC-002-002-----0
  6
CONTINUOUS
  5
50D
 10
306.36978
 20
410.617992
 30
0.0
 11
308.86978
 21
408.117992
 31
0.0
  0
LINE
  8
LC-006-002-___-0
  6
DASHED
  5
50E
 10
291.839551
 20
418.195462
 30
0.0
 11
282.187974
 21
419.810103
 31
0.0
  0
LINE
  8
LC-006-002-___-0
  6
DASHED
  5
50F
 10
294.908551
 20
436.540522
 30
0.0
 11
306.874051
 21
434.538778
 31
0.0
  0
LINE
  8
LC-002-002-----0
  6
DASHED
 62
     2
  5
510
 10
314.415978
 20
433.277067
 30
0.0
 11
306.874051
 21
434.538778
 31
0.0
  0
ARC
  8
LC-002-002-----0
  6
DASHED
 62
     2
  5
511
 10
313.374051
 20
427.367992
 30
0.0
 40
6.0
 50
279.497234
 51
80.0
  0
LINE
  8
LC-002-002-----0
  6
DASHED
 62
     2
  5
512
 10
314.364051
 20
421.450231
 30
0.0
 11
304.560128
 21
419.810103
 31
0.0
  0
LINE
  8
LC-002-002-----0
  6
DASHED
 62
     2
  5
513
 10
272.332124
 20
433.277067
 30
0.0
 11
279.874051
 21
434.538778
 31
0.0
  0
ARC
  8
LC-002-002-----0
  6
DASHED
 62
     2
  5
514
 10
273.374051
 20
427.367992
 30
0.0
 40
6.0
 50
100.0
 51
260.502766
  0
LINE
  8
LC-002-002-----0
  6
DASHED
 62
     2
  5
515
 10
233.36978
 20
402.367992
 30
0.0
 11
512.36978
 21
402.367992
 31
0.0
  0
LINE
  8
LC-002-002-----0
  6
DASHED
 62
     2
  5
516
 10
272.384051
 20
421.450231
 30
0.0
 11
282.187974
 21
419.810103
 31
0.0
  0
LINE
  8
LC-006-002-___-0
  6
DASHED
  5
517
 10
294.908551
 20
418.195462
 30
0.0
 11
304.560128
 21
419.810103
 31
0.0
  0
CIRCLE
  8
LC-002-002-----0
  6
DASHED
 62
     2
  5
518
 10
273.374051
 20
427.367992
 30
0.0
 40
3.0
  0
LINE
  8
LC-006-002-___-0
  6
DASHED
  5
519
 10
291.839551
 20
436.540522
 30
0.0
 11
279.874051
 21
434.538778
 31
0.0
  0
LINE
  8
LC-002-002-----0
  6
CONTINUOUS
  5
51A
 10
95.329174
 20
361.209984
 30
0.0
 11
93.329174
 21
361.209984
 31
0.0
  0
LINE
  8
LC-002-002-----0
  6
CONTINUOUS
  5
51B
 10
95.329174
 20
389.695166
 30
0.0
 11
95.329174
 21
400.209984
 31
0.0
  0
LINE
  8
LC-002-002-----0
  6
DASHED
 62
     2
  5
51C
 10
233.36978
 20
452.367992
 30
0.0
 11
513.36978
 21
452.367992
 31
0.0
  0
LINE
  8
LC-002-002-----0
  6
CONTINUOUS
  5
51D
 10
154.22978
 20
402.367992
 30
0.0
 11
233.36978
 21
402.367992
 31
0.0
  0
LINE
  8
LC-002-002-----0
  6
CONTINUOUS
  5
51E
 10
154.22978
 20
452.367992
 30
0.0
 11
233.36978
 21
452.367992
 31
0.0
  0
LINE
  8
LC-002-002-----0
  6
DASHED
 62
     2
  5
51F
 10
316.374051
 20
394.853173
 30
0.0
 11
316.374051
 21
400.367992
 31
0.0
  0
LINE
  8
LC-002-002-----0
  6
CONTINUOUS
  5
520
 10
333.299395
 20
377.367992
 30
0.0
 11
334.395522
 21
348.986919
 31
0.0
  0
LINE
  8
LC-002-002-----0
  6
DASHED
 62
     2
  5
521
 10
409.172217
 20
377.367992
 30
0.0
 11
415.369597
 21
427.244181
 31
0.0
  0
LINE
  8
LC-002-002-----0
  6
DASHED
 62
     2
  5
522
 10
409.854179
 20
382.856386
 30
0.0
 11
410.86978
 21
391.029887
 31
0.0
  0
ARC
  8
LC-002-002-----0
  6
DASHED
 62
     2
  5
523
 10
414.595858
 20
388.365193
 30
0.0
 40
5.0
 50
221.822378
 51
136.550794
  0
ARC
  8
LC-002-002-----0
  6
DASHED
 62
     2
  5
524
 10
373.36978
 20
427.367992
 30
0.0
 40
42.0
 50
26.765501
 51
180.052638
  0
ARC
  8
LC-002-002-----0
  6
CONTINUOUS
  5
525
 10
373.374051
 20
427.367992
 30
0.0
 40
19.0
 50
309.720187
 51
230.279778
  0
ARC
  8
LC-002-002-----0
  6
CONTINUOUS
  5
526
 10
373.374051
 20
427.367992
 30
0.0
 40
14.0
 50
315.584808
 51
224.415063
  0
ARC
  8
LC-002-002-----0
  6
CONTINUOUS
  5
527
 10
373.374051
 20
427.367992
 30
0.0
 40
13.0
 50
320.28498
 51
219.714892
  0
LINE
  8
LC-002-002-----0
  6
CONTINUOUS
  5
528
 10
382.624051
 20
385.367992
 30
0.0
 11
364.124051
 21
385.367992
 31
0.0
  0
LINE
  8
LC-002-002-----0
  6
CONTINUOUS
  5
529
 10
381.389762
 20
378.367992
 30
0.0
 11
365.336198
 21
378.367992
 31
0.0
  0
LINE
  8
LC-002-002-----0
  6
CONTINUOUS
  5
52A
 10
383.374051
 20
392.367992
 30
0.0
 11
363.374051
 21
392.367992
 31
0.0
  0
LINE
  8
LC-002-002-----0
  6
CONTINUOUS
  5
52B
 10
384.124051
 20
399.367992
 30
0.0
 11
362.624051
 21
399.367992
 31
0.0
  0
LINE
  8
LC-002-002-----0
  6
CONTINUOUS
  5
52C
 10
384.874051
 20
406.367992
 30
0.0
 11
361.874051
 21
406.367992
 31
0.0
  0
LINE
  8
LC-002-002-----0
  6
CONTINUOUS
  5
52D
 10
383.374051
 20
413.367992
 30
0.0
 11
383.374051
 21
419.061368
 31
0.0
  0
LINE
  8
LC-002-002-----0
  6
CONTINUOUS
  5
52E
 10
363.374051
 20
413.367992
 30
0.0
 11
363.374051
 21
419.061368
 31
0.0
  0
LINE
  8
LC-002-002-----0
  6
CONTINUOUS
  5
52F
 10
361.874051
 20
406.367992
 30
0.0
 11
363.10834
 21
399.367992
 31
0.0
  0
LINE
  8
LC-002-002-----0
  6
CONTINUOUS
  5
530
 10
362.624051
 20
399.367992
 30
0.0
 11
363.85834
 21
392.367992
 31
0.0
  0
LINE
  8
LC-002-002-----0
  6
CONTINUOUS
  5
531
 10
363.374051
 20
392.367992
 30
0.0
 11
364.60834
 21
385.367992
 31
0.0
  0
LINE
  8
LC-002-002-----0
  6
CONTINUOUS
  5
532
 10
364.124051
 20
385.367992
 30
0.0
 11
365.336198
 21
378.493563
 31
0.0
  0
LINE
  8
LC-002-002-----0
  6
CONTINUOUS
  5
533
 10
384.874051
 20
406.367992
 30
0.0
 11
383.639762
 21
399.367992
 31
0.0
  0
LINE
  8
LC-002-002-----0
  6
CONTINUOUS
  5
534
 10
384.124051
 20
399.367992
 30
0.0
 11
382.889762
 21
392.367992
 31
0.0
  0
LINE
  8
LC-002-002-----0
  6
CONTINUOUS
  5
535
 10
383.374051
 20
392.367992
 30
0.0
 11
382.139762
 21
385.367992
 31
0.0
  0
LINE
  8
LC-002-002-----0
  6
CONTINUOUS
  5
536
 10
382.624051
 20
385.367992
 30
0.0
 11
381.389762
 21
378.367992
 31
0.0
  0
LINE
  8
LC-008-001-----0
  6
CONTINUOUS
 62
     1
  5
537
 10
384.874051
 20
413.367992
 30
0.0
 11
361.874051
 21
413.367992
 31
0.0
  0
LINE
  8
LC-002-002-----0
  6
CONTINUOUS
  5
538
 10
361.874051
 20
413.367992
 30
0.0
 11
361.124051
 21
413.367992
 31
0.0
  0
LINE
  8
LC-002-002-----0
  6
CONTINUOUS
  5
539
 10
384.874051
 20
413.367992
 30
0.0
 11
385.624051
 21
413.367992
 31
0.0
  0
LINE
  8
LC-002-002-----0
  6
CONTINUOUS
  5
53A
 10
385.624051
 20
413.367992
 30
0.0
 11
384.389762
 21
406.367992
 31
0.0
  0
LINE
  8
LC-002-002-----0
  6
CONTINUOUS
  5
53B
 10
361.124051
 20
413.367992
 30
0.0
 11
362.35834
 21
406.367992
 31
0.0
  0
LINE
  8
LC-002-002-----0
  6
CONTINUOUS
  5
53C
 10
277.86978
 20
408.117992
 30
0.0
 11
308.86978
 21
408.117992
 31
0.0
  0
LINE
  8
LC-002-002-----0
  6
CONTINUOUS
  5
53D
 10
305.61978
 20
393.617992
 30
0.0
 11
305.61978
 21
391.117992
 31
0.0
  0
LINE
  8
LC-002-002-----0
  6
CONTINUOUS
  5
53E
 10
305.61978
 20
391.117992
 30
0.0
 11
281.11978
 21
391.117992
 31
0.0
  0
LINE
  8
LC-002-002-----0
  6
CONTINUOUS
  5
53F
 10
281.11978
 20
391.117992
 30
0.0
 11
281.11978
 21
393.617992
 31
0.0
  0
LINE
  8
LC-002-002-----0
  6
CONTINUOUS
  5
540
 10
306.86978
 20
391.117992
 30
0.0
 11
306.86978
 21
386.117992
 31
0.0
  0
LINE
  8
LC-002-002-----0
  6
CONTINUOUS
  5
541
 10
306.86978
 20
386.117992
 30
0.0
 11
279.86978
 21
386.117992
 31
0.0
  0
LINE
  8
LC-002-002-----0
  6
CONTINUOUS
  5
542
 10
279.86978
 20
386.117992
 30
0.0
 11
279.86978
 21
391.117992
 31
0.0
  0
LINE
  8
LC-002-002-----0
  6
CONTINUOUS
  5
543
 10
279.86978
 20
391.117992
 30
0.0
 11
281.11978
 21
391.117992
 31
0.0
  0
LINE
  8
LC-002-002-----0
  6
CONTINUOUS
  5
544
 10
305.61978
 20
391.117992
 30
0.0
 11
306.86978
 21
391.117992
 31
0.0
  0
ARC
  8
LC-002-002-----0
  6
CONTINUOUS
  5
545
 10
282.042387
 20
388.617992
 30
0.0
 40
0.5
 50
136.08159
 51
223.918258
  0
ARC
  8
LC-002-002-----0
  6
CONTINUOUS
  5
546
 10
286.74478
 20
384.089867
 30
0.0
 40
7.028125
 50
43.91841
 51
136.081571
  0
ARC
  8
LC-002-002-----0
  6
CONTINUOUS
  5
547
 10
291.447173
 20
388.617992
 30
0.0
 40
0.5
 50
316.081648
 51
43.91841
  0
ARC
  8
LC-002-002-----0
  6
CONTINUOUS
  5
548
 10
286.74478
 20
393.146117
 30
0.0
 40
7.028125
 50
223.918258
 51
316.08159
  0
ARC
  8
LC-002-002-----0
  6
CONTINUOUS
  5
549
 10
295.292387
 20
388.617992
 30
0.0
 40
0.5
 50
136.08159
 51
223.918258
  0
ARC
  8
LC-002-002-----0
  6
CONTINUOUS
  5
54A
 10
299.99478
 20
384.089867
 30
0.0
 40
7.028125
 50
43.91841
 51
136.081571
  0
ARC
  8
LC-002-002-----0
  6
CONTINUOUS
  5
54B
 10
304.697173
 20
388.617992
 30
0.0
 40
0.5
 50
316.081648
 51
43.91841
  0
ARC
  8
LC-002-002-----0
  6
CONTINUOUS
  5
54C
 10
299.99478
 20
393.146117
 30
0.0
 40
7.028125
 50
223.918258
 51
316.08159
  0
LINE
  8
LC-008-001-----0
  6
DASHDOT
  5
54D
 10
306.86978
 20
388.617992
 30
0.0
 11
279.86978
 21
388.617992
 31
0.0
  0
ARC
  8
LC-002-002-----0
  6
CONTINUOUS
  5
54E
 10
278.536446
 20
388.617992
 30
0.0
 40
2.833333
 50
298.072604
 51
61.927571
  0
ARC
  8
LC-002-002-----0
  6
CONTINUOUS
  5
54F
 10
308.203113
 20
388.617992
 30
0.0
 40
2.833333
 50
118.072449
 51
241.92719
  0
LINE
  8
LC-002-002-----0
  6
CONTINUOUS
  5
550
 10
306.36978
 20
410.617992
 30
0.0
 11
306.36978
 21
436.745779
 31
0.0
  0
LINE
  8
LC-002-002-----0
  6
CONTINUOUS
  5
551
 10
280.36978
 20
436.745779
 30
0.0
 11
280.36978
 21
410.617992
 31
0.0
  0
LINE
  8
LC-002-002-----0
  6
CONTINUOUS
  5
552
 10
57.329174
 20
404.209984
 30
0.0
 11
57.329174
 21
406.709984
 31
0.0
  0
LINE
  8
LC-002-002-----0
  6
CONTINUOUS
  5
553
 10
70.429174
 20
404.209984
 30
0.0
 11
70.429174
 21
406.709984
 31
0.0
  0
ARC
  8
LC-002-002-----0
  6
CONTINUOUS
  5
554
 10
293.36978
 20
475.16963
 30
0.0
 40
15.089328
 50
201.038766
 51
338.961234
  0
LINE
  8
LC-002-002-----0
  6
CONTINUOUS
  5
555
 10
70.429174
 20
382.707185
 30
0.0
 11
70.429174
 21
392.707185
 31
0.0
  0
LINE
  8
LC-002-002-----0
  6
CONTINUOUS
  5
556
 10
57.329174
 20
382.707185
 30
0.0
 11
70.429174
 21
382.707185
 31
0.0
  0
LINE
  8
LC-002-002-----0
  6
CONTINUOUS
  5
557
 10
278.36978
 20
436.745779
 30
0.0
 11
308.36978
 21
436.745779
 31
0.0
  0
LINE
  8
LC-002-002-----0
  6
CONTINUOUS
  5
558
 10
57.329174
 20
382.707185
 30
0.0
 11
57.329174
 21
392.707185
 31
0.0
  0
LINE
  8
LC-002-002-----0
  6
CONTINUOUS
  5
559
 10
308.36978
 20
457.200681
 30
0.0
 11
308.36978
 21
436.745779
 31
0.0
  0
LINE
  8
LC-002-002-----0
  6
CONTINUOUS
  5
55A
 10
278.36978
 20
457.200681
 30
0.0
 11
278.36978
 21
436.745779
 31
0.0
  0
ARC
  8
LC-002-002-----0
  6
CONTINUOUS
  5
55B
 10
293.464378
 20
471.122742
 30
0.0
 40
15.285373
 50
170.938229
 51
15.516647
  0
LINE
  8
LC-002-002-----0
  6
CONTINUOUS
  5
55C
 10
57.329174
 20
392.707185
 30
0.0
 11
70.429174
 21
392.707185
 31
0.0
  0
LINE
  8
LC-002-002-----0
  6
DASHDOT
 62
     2
  5
55D
 10
54.821881
 20
387.707185
 30
0.0
 11
71.564354
 21
387.707185
 31
0.0
  0
ARC
  8
LC-002-002-----0
  6
CONTINUOUS
  5
55E
 10
293.36978
 20
429.169302
 30
0.0
 40
22.868191
 50
73.486718
 51
106.513282
  0
LINE
  8
LC-002-002-----0
  6
CONTINUOUS
  5
55F
 10
-7.511835
 20
377.209984
 30
0.0
 11
-7.511835
 21
410.709984
 31
0.0
  0
LINE
  8
LC-002-002-----0
  6
CONTINUOUS
 62
     2
  5
560
 10
305.86978
 20
386.117992
 30
0.0
 11
280.86978
 21
383.930776
 31
0.0
  0
LINE
  8
LC-002-002-----0
  6
CONTINUOUS
 62
     2
  5
561
 10
305.86978
 20
379.091253
 30
0.0
 11
294.745354
 21
378.117992
 31
0.0
  0
LINE
  8
LC-002-002-----0
  6
CONTINUOUS
 62
     2
  5
562
 10
305.86978
 20
380.095073
 30
0.0
 11
283.271641
 21
378.117992
 31
0.0
  0
LINE
  8
LC-002-002-----0
  6
CONTINUOUS
 62
     2
  5
563
 10
293.36978
 20
386.028204
 30
0.0
 11
280.86978
 21
384.934595
 31
0.0
  0
LINE
  8
LC-002-002-----0
  6
CONTINUOUS
  5
564
 10
-7.511835
 20
377.209984
 30
0.0
 11
-11.633155
 21
381.331305
 31
0.0
  0
ARC
  8
LC-002-002-----0
  6
CONTINUOUS
  5
565
 10
-9.511835
 20
383.452625
 30
0.0
 40
3.0
 50
180.0
 51
225.0
  0
LINE
  8
LC-002-002-----0
  6
CONTINUOUS
 62
     2
  5
566
 10
305.86978
 20
385.114172
 30
0.0
 11
280.86978
 21
382.926956
 31
0.0
  0
LINE
  8
LC-002-002-----0
  6
CONTINUOUS
 62
     2
  5
567
 10
305.86978
 20
384.110353
 30
0.0
 11
280.86978
 21
381.923136
 31
0.0
  0
LINE
  8
LC-002-002-----0
  6
CONTINUOUS
 62
     2
  5
568
 10
305.86978
 20
383.106533
 30
0.0
 11
280.86978
 21
380.919316
 31
0.0
  0
LINE
  8
LC-002-002-----0
  6
CONTINUOUS
 62
     2
  5
569
 10
305.86978
 20
382.102713
 30
0.0
 11
280.86978
 21
379.915496
 31
0.0
  0
LINE
  8
LC-002-002-----0
  6
CONTINUOUS
 62
     2
  5
56A
 10
305.86978
 20
381.098893
 30
0.0
 11
280.86978
 21
378.911676
 31
0.0
  0
LINE
  8
LC-002-002-----0
  6
CONTINUOUS
  5
56B
 10
280.86978
 20
378.911676
 30
0.0
 11
280.86978
 21
386.117992
 31
0.0
  0
LINE
  8
LC-002-002-----0
  6
CONTINUOUS
  5
56C
 10
280.86978
 20
378.911676
 30
0.0
 11
281.663464
 21
378.117992
 31
0.0
  0
LINE
  8
LC-002-002-----0
  6
CONTINUOUS
  5
56D
 10
305.86978
 20
378.911676
 30
0.0
 11
305.076096
 21
378.117992
 31
0.0
  0
LINE
  8
LC-002-002-----0
  6
CONTINUOUS
  5
56E
 10
305.076096
 20
378.117992
 30
0.0
 11
281.663464
 21
378.117992
 31
0.0
  0
LINE
  8
LC-002-002-----0
  6
CONTINUOUS
  5
56F
 10
305.86978
 20
386.117992
 30
0.0
 11
305.86978
 21
378.911676
 31
0.0
  0
LINE
  8
LC-002-002-----0
  6
CONTINUOUS
  5
570
 10
88.329174
 20
458.209984
 30
0.0
 11
78.329174
 21
458.209984
 31
0.0
  0
LINE
  8
LC-002-002-----0
  6
CONTINUOUS
  5
571
 10
78.329174
 20
458.209984
 30
0.0
 11
78.329174
 21
354.209984
 31
0.0
  0
LINE
  8
LC-002-002-----0
  6
CONTINUOUS
  5
572
 10
78.329174
 20
354.209984
 30
0.0
 11
88.329174
 21
354.209984
 31
0.0
  0
LINE
  8
LC-002-002-----0
  6
CONTINUOUS
  5
573
 10
88.329174
 20
354.209984
 30
0.0
 11
88.329174
 21
458.209984
 31
0.0
  0
LINE
  8
LC-002-002-----0
  6
CONTINUOUS
  5
574
 10
88.329174
 20
454.211442
 30
0.0
 11
78.329174
 21
454.211442
 31
0.0
  0
LINE
  8
LC-002-002-----0
  6
CONTINUOUS
  5
575
 10
88.329174
 20
400.211442
 30
0.0
 11
78.329174
 21
400.211442
 31
0.0
  0
LINE
  8
LC-002-002-----0
  6
CONTINUOUS
  5
576
 10
88.329174
 20
458.209984
 30
0.0
 11
91.329174
 21
458.209984
 31
0.0
  0
LINE
  8
LC-002-002-----0
  6
CONTINUOUS
  5
577
 10
88.329174
 20
454.211442
 30
0.0
 11
91.329174
 21
454.211442
 31
0.0
  0
LINE
  8
LC-002-002-----0
  6
CONTINUOUS
  5
578
 10
88.329174
 20
400.211442
 30
0.0
 11
91.329174
 21
400.211442
 31
0.0
  0
LINE
  8
LC-002-002-----0
  6
CONTINUOUS
  5
579
 10
88.329174
 20
354.209984
 30
0.0
 11
91.329174
 21
354.209984
 31
0.0
  0
LINE
  8
LC-010-006-MLN-0
  6
DASHDOT
  5
57A
 10
373.36978
 20
492.367992
 30
0.0
 11
373.36978
 21
329.367992
 31
0.0
  0
LINE
  8
LC-002-002-----0
  6
DASHED
 62
     2
  5
57B
 10
317.374051
 20
454.367992
 30
0.0
 11
271.374051
 21
454.367992
 31
0.0
  0
ARC
  8
LC-002-002-----0
  6
DASHED
 62
     2
  5
57C
 10
475.374051
 20
405.367992
 30
0.0
 40
5.0
 50
270.0
 51
0.0
  0
ARC
  8
LC-002-002-----0
  6
DASHED
 62
     2
  5
57D
 10
475.374051
 20
449.367992
 30
0.0
 40
5.0
 50
0.0
 51
90.0
  0
ARC
  8
LC-002-002-----0
  6
DASHED
 62
     2
  5
57E
 10
271.374051
 20
405.367992
 30
0.0
 40
5.0
 50
180.0
 51
270.0
  0
LINE
  8
LC-002-002-----0
  6
DASHED
 62
     2
  5
57F
 10
429.374051
 20
462.882811
 30
0.0
 11
429.374051
 21
454.367992
 31
0.0
  0
LINE
  8
LC-002-002-----0
  6
DASHED
 62
     2
  5
580
 10
417.374051
 20
462.882811
 30
0.0
 11
417.374051
 21
454.367992
 31
0.0
  0
LINE
  8
LC-002-002-----0
  6
DASHED
 62
     2
  5
581
 10
420.374051
 20
462.882811
 30
0.0
 11
420.374051
 21
458.882811
 31
0.0
  0
ARC
  8
LC-002-002-----0
  6
DASHED
 62
     2
  5
582
 10
423.374051
 20
462.882811
 30
0.0
 40
3.0
 50
360.0
 51
180.0
  0
LINE
  8
LC-002-002-----0
  6
DASHED
 62
     2
  5
583
 10
426.374051
 20
462.882811
 30
0.0
 11
426.374051
 21
458.882811
 31
0.0
  0
ARC
  8
LC-002-002-----0
  6
DASHED
 62
     2
  5
584
 10
423.374051
 20
458.882811
 30
0.0
 40
3.0
 50
180.0
 51
0.0
  0
ARC
  8
LC-002-002-----0
  6
DASHED
 62
     2
  5
585
 10
425.374051
 20
394.853173
 30
0.0
 40
3.0
 50
270.0
 51
90.0
  0
ARC
  8
LC-002-002-----0
  6
DASHED
 62
     2
  5
586
 10
421.374051
 20
394.853173
 30
0.0
 40
3.0
 50
90.0
 51
270.0
  0
LINE
  8
LC-002-002-----0
  6
DASHED
 62
     2
  5
587
 10
425.374051
 20
391.853173
 30
0.0
 11
421.374051
 21
391.853173
 31
0.0
  0
LINE
  8
LC-002-002-----0
  6
DASHED
 62
     2
  5
588
 10
425.374051
 20
397.853173
 30
0.0
 11
421.374051
 21
397.853173
 31
0.0
  0
LINE
  8
LC-002-002-----0
  6
DASHED
 62
     2
  5
589
 10
425.374051
 20
389.853173
 30
0.0
 11
416.369051
 21
389.853173
 31
0.0
  0
LINE
  8
LC-002-002-----0
  6
DASHED
 62
     2
  5
58A
 10
430.374051
 20
394.853173
 30
0.0
 11
430.374051
 21
400.367992
 31
0.0
  0
ARC
  8
LC-002-002-----0
  6
DASHED
 62
     2
  5
58B
 10
425.374051
 20
394.853173
 30
0.0
 40
5.0
 50
270.0
 51
0.0
  0
LINE
  8
LC-002-002-----0
  6
DASHED
 62
     2
  5
58C
 10
317.374051
 20
462.882811
 30
0.0
 11
317.374051
 21
454.367992
 31
0.0
  0
LINE
  8
LC-002-002-----0
  6
DASHED
 62
     2
  5
58D
 10
320.374051
 20
462.882811
 30
0.0
 11
320.374051
 21
458.882811
 31
0.0
  0
ARC
  8
LC-002-002-----0
  6
DASHED
 62
     2
  5
58E
 10
323.374051
 20
462.882811
 30
0.0
 40
3.0
 50
0.0
 51
180.0
  0
LINE
  8
LC-002-002-----0
  6
DASHED
 62
     2
  5
58F
 10
326.374051
 20
462.882811
 30
0.0
 11
326.374051
 21
458.882811
 31
0.0
  0
ARC
  8
LC-002-002-----0
  6
DASHED
 62
     2
  5
590
 10
323.374051
 20
458.882811
 30
0.0
 40
3.0
 50
180.0
 51
0.0
  0
LINE
  8
LC-002-002-----0
  6
DASHED
 62
     2
  5
591
 10
329.374051
 20
462.882811
 30
0.0
 11
329.374051
 21
454.367992
 31
0.0
  0
ARC
  8
LC-002-002-----0
  6
DASHED
 62
     2
  5
592
 10
321.374051
 20
394.853173
 30
0.0
 40
3.0
 50
90.0
 51
270.0
  0
LINE
  8
LC-002-002-----0
  6
DASHED
 62
     2
  5
593
 10
321.374051
 20
391.853173
 30
0.0
 11
325.374051
 21
391.853173
 31
0.0
  0
LINE
  8
LC-002-002-----0
  6
DASHED
 62
     2
  5
594
 10
321.374051
 20
397.853173
 30
0.0
 11
325.374051
 21
397.853173
 31
0.0
  0
CIRCLE
  8
LC-002-002-----0
  6
DASHED
 62
     2
  5
595
 10
313.36978
 20
427.367992
 30
0.0
 40
1.5
  0
CIRCLE
  8
LC-002-002-----0
  6
DASHED
 62
     2
  5
596
 10
273.365509
 20
427.367992
 30
0.0
 40
1.5
  0
CIRCLE
  8
LC-002-002-----0
  6
DASHED
 62
     2
  5
597
 10
326.36978
 20
427.367992
 30
0.0
 40
1.5
  0
ARC
  8
LC-002-002-----0
  6
DASHED
 62
     2
  5
598
 10
423.374051
 20
462.882811
 30
0.0
 40
6.0
 50
360.0
 51
180.0
  0
ARC
  8
LC-002-002-----0
  6
DASHED
 62
     2
  5
599
 10
323.374051
 20
462.882811
 30
0.0
 40
6.0
 50
0.0
 51
180.0
  0
LINE
  8
LC-002-002-----0
  6
DASHDOT
 62
     2
  5
59A
 10
373.36978
 20
381.867992
 30
0.0
 11
373.36978
 21
378.867992
 31
0.0
  0
CIRCLE
  8
LC-002-002-----0
  6
DASHED
 62
     2
  5
59B
 10
420.36978
 20
427.367992
 30
0.0
 40
1.5
  0
LINE
  8
LC-002-002-----0
  6
DASHDOT
 62
     2
  5
59C
 10
453.36978
 20
484.505176
 30
0.0
 11
453.36978
 21
377.367992
 31
0.0
  0
ARC
  8
LC-002-002-----0
  6
CONTINUOUS
  5
59D
 10
373.36978
 20
427.367992
 30
0.0
 40
27.0
 50
293.677305
 51
246.322695
  0
LINE
  8
LC-002-002-----0
  6
CONTINUOUS
  5
59E
 10
-12.511835
 20
410.209984
 30
0.0
 11
-12.511835
 21
383.452625
 31
0.0
  0
LINE
  8
LC-002-002-----0
  6
CONTINUOUS
  5
59F
 10
-7.511835
 20
477.209984
 30
0.0
 11
-11.633155
 21
473.088664
 31
0.0
  0
ARC
  8
LC-002-002-----0
  6
CONTINUOUS
  5
5A0
 10
-9.511835
 20
470.967344
 30
0.0
 40
3.0
 50
135.0
 51
180.0
  0
LINE
  8
LC-002-002-----0
  6
CONTINUOUS
  5
5A1
 10
-12.511835
 20
470.967344
 30
0.0
 11
-12.511835
 21
410.209984
 31
0.0
  0
LINE
  8
LC-002-002-----0
  6
CONTINUOUS
  5
5A2
 10
-45.513996
 20
412.211252
 30
0.0
 11
-44.013996
 21
412.211251
 31
0.0
  0
LINE
  8
LC-002-002-----0
  6
DASHED
 62
     2
  5
5A3
 10
335.379051
 20
354.367992
 30
0.0
 11
406.314345
 21
354.367992
 31
0.0
  0
LINE
  8
LC-002-002-----0
  6
CONTINUOUS
  5
5A4
 10
-45.513996
 20
412.211252
 30
0.0
 11
-67.013996
 21
412.211266
 31
0.0
  0
LINE
  8
LC-002-002-----0
  6
CONTINUOUS
  5
5A5
 10
-66.514
 20
405.211265
 30
0.0
 11
-45.514
 21
405.211252
 31
0.0
  0
LINE
  8
LC-002-002-----0
  6
CONTINUOUS
  5
5A6
 10
-66.014005
 20
398.211265
 30
0.0
 11
-45.653752
 21
398.211252
 31
0.0
  0
LINE
  8
LC-002-002-----0
  6
CONTINUOUS
  5
5A7
 10
-65.51401
 20
391.211265
 30
0.0
 11
-46.384304
 21
391.211252
 31
0.0
  0
LINE
  8
LC-002-002-----0
  6
CONTINUOUS
  5
5A8
 10
-65.014014
 20
384.211264
 30
0.0
 11
-46.417557
 21
384.211252
 31
0.0
  0
LINE
  8
LC-002-002-----0
  6
CONTINUOUS
  5
5A9
 10
-64.014019
 20
377.211264
 30
0.0
 11
-47.014019
 21
377.211252
 31
0.0
  0
LINE
  8
LC-002-002-----0
  6
CONTINUOUS
  5
5AA
 10
-44.013996
 20
412.211251
 30
0.0
 11
-45.514
 21
405.211252
 31
0.0
  0
LINE
  8
LC-002-002-----0
  6
CONTINUOUS
  5
5AB
 10
-44.514
 20
405.211251
 30
0.0
 11
-45.653752
 21
398.211252
 31
0.0
  0
LINE
  8
LC-002-002-----0
  6
CONTINUOUS
  5
5AC
 10
-45.014005
 20
398.211251
 30
0.0
 11
-46.384304
 21
391.211252
 31
0.0
  0
LINE
  8
LC-002-002-----0
  6
CONTINUOUS
  5
5AD
 10
-45.51401
 20
391.211252
 30
0.0
 11
-46.417557
 21
384.211252
 31
0.0
  0
LINE
  8
LC-002-002-----0
  6
CONTINUOUS
  5
5AE
 10
-46.014014
 20
384.211252
 30
0.0
 11
-47.014019
 21
377.211252
 31
0.0
  0
LINE
  8
LC-002-002-----0
  6
CONTINUOUS
  5
5AF
 10
-67.014266
 20
412.21153
 30
0.0
 11
-65.514266
 21
405.21153
 31
0.0
  0
LINE
  8
LC-002-002-----0
  6
CONTINUOUS
  5
5B0
 10
-66.514266
 20
405.21153
 30
0.0
 11
-65.374518
 21
398.21153
 31
0.0
  0
LINE
  8
LC-002-002-----0
  6
CONTINUOUS
  5
5B1
 10
-66.014266
 20
398.21153
 30
0.0
 11
-64.643971
 21
391.21153
 31
0.0
  0
LINE
  8
LC-002-002-----0
  6
CONTINUOUS
  5
5B2
 10
-65.514266
 20
391.21153
 30
0.0
 11
-64.610723
 21
384.21153
 31
0.0
  0
LINE
  8
LC-002-002-----0
  6
CONTINUOUS
  5
5B3
 10
-65.014266
 20
384.21153
 30
0.0
 11
-64.014266
 21
377.21153
 31
0.0
  0
LINE
  8
LC-002-002-----0
  6
CONTINUOUS
  5
5B4
 10
-45.514
 20
405.211252
 30
0.0
 11
-44.514
 21
405.211251
 31
0.0
  0
LINE
  8
LC-002-002-----0
  6
CONTINUOUS
  5
5B5
 10
-45.653752
 20
398.211252
 30
0.0
 11
-45.014005
 21
398.211251
 31
0.0
  0
LINE
  8
LC-002-002-----0
  6
CONTINUOUS
  5
5B6
 10
-46.384304
 20
391.211252
 30
0.0
 11
-45.51401
 21
391.211252
 31
0.0
  0
LINE
  8
LC-002-002-----0
  6
CONTINUOUS
  5
5B7
 10
-46.417557
 20
384.211252
 30
0.0
 11
-46.014014
 21
384.211252
 31
0.0
  0
LINE
  8
LC-002-002-----0
  6
CONTINUOUS
  5
5B8
 10
-38.513994
 20
415.211247
 30
0.0
 11
-45.513994
 21
415.211252
 31
0.0
  0
LINE
  8
LC-002-002-----0
  6
CONTINUOUS
 62
     2
  5
5B9
 10
12.488165
 20
442.209984
 30
0.0
 11
-7.511835
 21
442.209984
 31
0.0
  0
LINE
  8
LC-002-002-----0
  6
CONTINUOUS
 62
     2
  5
5BA
 10
12.488165
 20
412.209984
 30
0.0
 11
-7.511835
 21
412.209984
 31
0.0
  0
LINE
  8
LC-002-002-----0
  6
CONTINUOUS
  5
5BB
 10
17.488165
 20
438.709984
 30
0.0
 11
20.488165
 21
438.709984
 31
0.0
  0
LINE
  8
LC-002-002-----0
  6
CONTINUOUS
  5
5BC
 10
12.488165
 20
443.709984
 30
0.0
 11
-7.511835
 21
443.709984
 31
0.0
  0
LINE
  8
LC-002-002-----0
  6
CONTINUOUS
  5
5BD
 10
12.488165
 20
410.709984
 30
0.0
 11
-7.511835
 21
410.709984
 31
0.0
  0
LINE
  8
LC-002-002-----0
  6
CONTINUOUS
  5
5BE
 10
15.488165
 20
440.709984
 30
0.0
 11
12.488165
 21
443.709984
 31
0.0
  0
LINE
  8
LC-002-002-----0
  6
CONTINUOUS
  5
5BF
 10
15.488165
 20
413.709984
 30
0.0
 11
12.488165
 21
410.709984
 31
0.0
  0
LINE
  8
LC-002-002-----0
  6
CONTINUOUS
  5
5C0
 10
17.488165
 20
438.709984
 30
0.0
 11
17.488165
 21
415.709984
 31
0.0
  0
LINE
  8
LC-002-002-----0
  6
CONTINUOUS
  5
5C1
 10
17.579598
 20
415.87475
 30
0.0
 11
20.488165
 21
415.87475
 31
0.0
  0
LINE
  8
LC-002-002-----0
  6
CONTINUOUS
  5
5C2
 10
38.288165
 20
446.709984
 30
0.0
 11
38.288165
 21
440.709984
 31
0.0
  0
LINE
  8
LC-002-002-----0
  6
CONTINUOUS
  5
5C3
 10
38.288165
 20
413.709984
 30
0.0
 11
38.288165
 21
407.709984
 31
0.0
  0
LINE
  8
LC-002-002-----0
  6
CONTINUOUS
  5
5C4
 10
36.788165
 20
446.709984
 30
0.0
 11
36.788165
 21
440.709984
 31
0.0
  0
LINE
  8
LC-002-002-----0
  6
CONTINUOUS
  5
5C5
 10
36.788165
 20
413.709984
 30
0.0
 11
36.788165
 21
407.709984
 31
0.0
  0
LINE
  8
LC-002-002-----0
  6
CONTINUOUS
  5
5C6
 10
36.788165
 20
438.137822
 30
0.0
 11
36.788165
 21
416.282147
 31
0.0
  0
LINE
  8
LC-002-002-----0
  6
CONTINUOUS
  5
5C7
 10
38.288165
 20
436.517506
 30
0.0
 11
38.288165
 21
417.917506
 31
0.0
  0
LINE
  8
LC-002-002-----0
  6
CONTINUOUS
  5
5C8
 10
20.488165
 20
444.709984
 30
0.0
 11
20.488165
 21
440.709984
 31
0.0
  0
LINE
  8
LC-002-002-----0
  6
DASHDOT
 62
     2
  5
5C9
 10
-55.513987
 20
427.209984
 30
0.0
 11
90.329174
 21
427.209984
 31
0.0
  0
LINE
  8
LC-002-002-----0
  6
CONTINUOUS
  5
5CA
 10
20.488165
 20
438.709984
 30
0.0
 11
20.488165
 21
415.87475
 31
0.0
  0
LINE
  8
LC-002-002-----0
  6
CONTINUOUS
  5
5CB
 10
20.488165
 20
413.709984
 30
0.0
 11
20.488165
 21
409.709984
 31
0.0
  0
LINE
  8
LC-002-002-----0
  6
CONTINUOUS
  5
5CC
 10
-7.511835
 20
436.517506
 30
0.0
 11
-7.511835
 21
417.917506
 31
0.0
  0
LINE
  8
LC-002-002-----0
  6
CONTINUOUS
  5
5CD
 10
-7.511835
 20
418.243383
 30
0.0
 11
-7.511835
 21
410.709984
 31
0.0
  0
LINE
  8
LC-002-002-----0
  6
CONTINUOUS
  5
5CE
 10
38.288165
 20
410.709984
 30
0.0
 11
38.288165
 21
410.709984
 31
0.0
  0
LINE
  8
LC-002-002-----0
  6
CONTINUOUS
  5
5CF
 10
20.988165
 20
441.701918
 30
0.0
 11
20.988165
 21
444.137555
 31
0.0
  0
LINE
  8
LC-002-002-----0
  6
CONTINUOUS
  5
5D0
 10
38.288165
 20
443.709984
 30
0.0
 11
38.288165
 21
443.709984
 31
0.0
  0
LINE
  8
LC-002-002-----0
  6
CONTINUOUS
  5
5D1
 10
36.788165
 20
419.746248
 30
0.0
 11
20.988165
 21
419.746248
 31
0.0
  0
LINE
  8
LC-002-002-----0
  6
CONTINUOUS
  5
5D2
 10
20.988165
 20
429.209984
 30
0.0
 11
20.988165
 21
425.209984
 31
0.0
  0
LINE
  8
LC-002-002-----0
  6
CONTINUOUS
  5
5D3
 10
36.788165
 20
416.282147
 30
0.0
 11
20.988165
 21
416.282147
 31
0.0
  0
LINE
  8
LC-002-002-----0
  6
CONTINUOUS
  5
5D4
 10
20.988165
 20
419.746248
 30
0.0
 11
20.988165
 21
416.282147
 31
0.0
  0
LINE
  8
LC-002-002-----0
  6
CONTINUOUS
  5
5D5
 10
36.788165
 20
412.718051
 30
0.0
 11
20.988165
 21
412.718051
 31
0.0
  0
LINE
  8
LC-002-002-----0
  6
CONTINUOUS
  5
5D6
 10
20.988165
 20
412.718051
 30
0.0
 11
20.988165
 21
410.282414
 31
0.0
  0
LINE
  8
LC-002-002-----0
  6
CONTINUOUS
  5
5D7
 10
20.988165
 20
434.673721
 30
0.0
 11
20.988165
 21
438.137822
 31
0.0
  0
LINE
  8
LC-002-002-----0
  6
CONTINUOUS
  5
5D8
 10
36.788165
 20
410.282414
 30
0.0
 11
20.988165
 21
410.282414
 31
0.0
  0
LINE
  8
LC-002-002-----0
  6
CONTINUOUS
  5
5D9
 10
36.788165
 20
434.673721
 30
0.0
 11
20.988165
 21
434.673721
 31
0.0
  0
LINE
  8
LC-002-002-----0
  6
CONTINUOUS
  5
5DA
 10
36.788165
 20
438.137822
 30
0.0
 11
20.988165
 21
438.137822
 31
0.0
  0
LINE
  8
LC-002-002-----0
  6
CONTINUOUS
  5
5DB
 10
36.788165
 20
429.209984
 30
0.0
 11
20.988165
 21
429.209984
 31
0.0
  0
LINE
  8
LC-002-002-----0
  6
CONTINUOUS
  5
5DC
 10
36.788165
 20
425.209984
 30
0.0
 11
20.988165
 21
425.209984
 31
0.0
  0
LINE
  8
LC-002-002-----0
  6
CONTINUOUS
  5
5DD
 10
36.788165
 20
441.701918
 30
0.0
 11
20.988165
 21
441.701918
 31
0.0
  0
LINE
  8
LC-002-002-----0
  6
CONTINUOUS
  5
5DE
 10
36.788165
 20
444.137555
 30
0.0
 11
20.988165
 21
444.137555
 31
0.0
  0
ARC
  8
LC-001-002-RND-0
  6
CONTINUOUS
  5
5DF
 10
21.488165
 20
444.709984
 30
0.0
 40
1.0
 50
90.0
 51
180.0
  0
LINE
  8
LC-002-002-----0
  6
CONTINUOUS
  5
5E0
 10
21.488165
 20
445.709984
 30
0.0
 11
36.788165
 21
445.709984
 31
0.0
  0
LINE
  8
LC-002-002-----0
  6
CONTINUOUS
  5
5E1
 10
36.788165
 20
446.709984
 30
0.0
 11
38.288165
 21
446.709984
 31
0.0
  0
LINE
  8
LC-002-002-----0
  6
CONTINUOUS
  5
5E2
 10
36.788165
 20
407.709984
 30
0.0
 11
38.288165
 21
407.709984
 31
0.0
  0
LINE
  8
LC-002-002-----0
  6
CONTINUOUS
  5
5E3
 10
21.488165
 20
408.709984
 30
0.0
 11
36.788165
 21
408.709984
 31
0.0
  0
ARC
  8
LC-001-002-RND-0
  6
CONTINUOUS
  5
5E4
 10
21.488165
 20
409.709984
 30
0.0
 40
1.0
 50
180.0
 51
270.0
  0
LINE
  8
LC-002-002-----0
  6
CONTINUOUS
  5
5E5
 10
38.288165
 20
417.917506
 30
0.0
 11
38.288165
 21
413.709984
 31
0.0
  0
LINE
  8
LC-002-002-----0
  6
CONTINUOUS
  5
5E6
 10
36.76242
 20
413.727374
 30
0.0
 11
36.76242
 21
416.282147
 31
0.0
  0
LINE
  8
LC-002-002-----0
  6
CONTINUOUS
  5
5E7
 10
20.488165
 20
413.709984
 30
0.0
 11
20.488165
 21
415.87475
 31
0.0
  0
LINE
  8
LC-002-002-----0
  6
CONTINUOUS
  5
5E8
 10
17.488165
 20
415.709984
 30
0.0
 11
15.488165
 21
413.709984
 31
0.0
  0
LINE
  8
LC-002-002-----0
  6
CONTINUOUS
  5
5E9
 10
38.288165
 20
436.517506
 30
0.0
 11
38.288165
 21
440.709984
 31
0.0
  0
LINE
  8
LC-002-002-----0
  6
CONTINUOUS
  5
5EA
 10
36.788165
 20
440.709984
 30
0.0
 11
36.788165
 21
438.137822
 31
0.0
  0
LINE
  8
LC-002-002-----0
  6
CONTINUOUS
  5
5EB
 10
20.488165
 20
438.709984
 30
0.0
 11
20.488165
 21
440.709984
 31
0.0
  0
LINE
  8
LC-002-002-----0
  6
CONTINUOUS
  5
5EC
 10
17.488165
 20
438.709984
 30
0.0
 11
15.488165
 21
440.709984
 31
0.0
  0
LINE
  8
LC-002-002-----0
  6
CONTINUOUS
  5
5ED
 10
-7.511835
 20
436.517506
 30
0.0
 11
-7.511835
 21
443.709984
 31
0.0
  0
LINE
  8
LC-002-002-----0
  6
DASHED
 62
     2
  5
5EE
 10
480.369051
 20
449.36945
 30
0.0
 11
480.369051
 21
405.36945
 31
0.0
  0
LINE
  8
LC-002-002-----0
  6
CONTINUOUS
  5
5EF
 10
330.379051
 20
377.367992
 30
0.0
 11
330.379051
 21
359.367992
 31
0.0
  0
ARC
  8
LC-002-002-----0
  6
CONTINUOUS
  5
5F0
 10
335.379051
 20
359.367992
 30
0.0
 40
5.0
 50
180.0
 51
256.149212
  0
ARC
  8
LC-002-002-----0
  6
DASHED
 62
     2
  5
5F1
 10
271.369051
 20
449.36945
 30
0.0
 40
5.0
 50
90.0
 51
180.0
  0
ARC
  8
LC-002-002-----0
  6
DASHED
 62
     2
  5
5F2
 10
271.369051
 20
405.36945
 30
0.0
 40
5.0
 50
180.0
 51
270.0
  0
LINE
  8
LC-002-002-----0
  6
CONTINUOUS
  5
5F3
 10
416.369051
 20
377.367992
 30
0.0
 11
416.369051
 21
359.367992
 31
0.0
  0
LINE
  8
LC-002-002-----0
  6
DASHED
 62
     2
  5
5F4
 10
325.379051
 20
400.36945
 30
0.0
 11
271.369051
 21
400.36945
 31
0.0
  0
ARC
  8
LC-002-002-----0
  6
DASHED
 62
     2
  5
5F5
 10
411.369051
 20
359.367992
 30
0.0
 40
5.0
 50
270.0
 51
0.0
  0
LINE
  8
LC-002-002-----0
  6
CONTINUOUS
  5
5F6
 10
55.829174
 20
432.209984
 30
0.0
 11
55.829174
 21
422.209984
 31
0.0
  0
LINE
  8
LC-002-002-----0
  6
CONTINUOUS
  5
5F7
 10
56.329174
 20
432.709984
 30
0.0
 11
56.829174
 21
432.709984
 31
0.0
  0
LINE
  8
LC-002-002-----0
  6
CONTINUOUS
  5
5F8
 10
56.329174
 20
421.709984
 30
0.0
 11
56.829174
 21
421.709984
 31
0.0
  0
ARC
  8
LC-001-002-RND-0
  6
CONTINUOUS
  5
5F9
 10
56.329174
 20
422.209984
 30
0.0
 40
0.5
 50
180.0
 51
270.0
  0
LINE
  8
LC-002-002-----0
  6
CONTINUOUS
  5
5FA
 10
70.329174
 20
429.309984
 30
0.0
 11
78.329174
 21
429.309984
 31
0.0
  0
LINE
  8
LC-002-002-----0
  6
CONTINUOUS
  5
5FB
 10
70.329174
 20
425.109984
 30
0.0
 11
78.329174
 21
425.109984
 31
0.0
  0
ARC
  8
LC-001-002-RND-0
  6
CONTINUOUS
  5
5FC
 10
56.829174
 20
422.209984
 30
0.0
 40
0.5
 50
270.0
 51
0.0
  0
ARC
  8
LC-002-002-----0
  6
CONTINUOUS
  5
5FD
 10
65.454174
 20
427.209984
 30
0.0
 40
10.625
 50
154.942385
 51
205.057615
  0
ARC
  8
LC-001-002-RND-0
  6
CONTINUOUS
  5
5FE
 10
56.829174
 20
432.209984
 30
0.0
 40
0.5
 50
0.0
 51
90.0
  0
ARC
  8
LC-001-002-RND-0
  6
CONTINUOUS
  5
5FF
 10
56.329174
 20
432.209984
 30
0.0
 40
0.5
 50
90.0
 51
180.0
  0
LINE
  8
LC-002-002-----0
  6
DASHED
 62
     2
  5
600
 10
429.374051
 20
454.36945
 30
0.0
 11
317.374051
 21
454.36945
 31
0.0
  0
LINE
  8
LC-002-002-----0
  6
CONTINUOUS
 62
     2
  5
601
 10
-35.513034
 20
430.209334
 30
0.0
 11
-35.513034
 21
424.209334
 31
0.0
  0
LINE
  8
LC-002-002-----0
  6
CONTINUOUS
  5
602
 10
-20.511633
 20
407.209762
 30
0.0
 11
-20.511809
 21
447.209111
 31
0.0
  0
LINE
  8
LC-002-002-----0
  6
CONTINUOUS
 62
     2
  5
603
 10
-35.513034
 20
419.332958
 30
0.0
 11
-35.513034
 21
413.332958
 31
0.0
  0
LINE
  8
LC-002-002-----0
  6
DASHED
 62
     2
  5
604
 10
475.369051
 20
400.36945
 30
0.0
 11
421.369051
 21
400.36945
 31
0.0
  0
LINE
  8
LC-002-002-----0
  6
DASHED
 62
     2
  5
605
 10
266.369051
 20
449.36945
 30
0.0
 11
266.369051
 21
405.36945
 31
0.0
  0
ARC
  8
LC-002-002-----0
  6
DASHED
 62
     2
  5
606
 10
475.369051
 20
405.36945
 30
0.0
 40
5.0
 50
270.0
 51
360.0
  0
ARC
  8
LC-002-002-----0
  6
CONTINUOUS
  5
607
 10
229.22978
 20
427.367992
 30
0.0
 40
4.25
 50
13.064136
 51
346.935864
  0
CIRCLE
  8
LC-002-002-----0
  6
DASHED
 62
     2
  5
608
 10
346.374051
 20
454.367992
 30
0.0
 40
1.5
  0
ARC
  8
LC-002-002-----0
  6
DASHED
 62
     2
  5
609
 10
475.369051
 20
449.36945
 30
0.0
 40
5.0
 50
360.0
 51
90.0
  0
ARC
  8
LC-002-002-----0
  6
DASHED
 62
     2
  5
60A
 10
421.369051
 20
395.36945
 30
0.0
 40
5.0
 50
90.0
 51
180.0
  0
ARC
  8
LC-002-002-----0
  6
DASHED
 62
     2
  5
60B
 10
325.379051
 20
395.36945
 30
0.0
 40
5.0
 50
360.0
 51
90.0
  0
ARC
  8
LC-002-002-----0
  6
DASHED
 62
     2
  5
60C
 10
346.374051
 20
454.367992
 30
0.0
 40
4.0
 50
0.0
 51
180.0
  0
CIRCLE
  8
LC-002-002-----0
  6
CONTINUOUS
  5
60D
 10
199.22978
 20
439.867992
 30
0.0
 40
4.25
  0
CIRCLE
  8
LC-002-002-----0
  6
CONTINUOUS
  5
60E
 10
199.22978
 20
414.867992
 30
0.0
 40
4.25
  0
LINE
  8
LC-002-002-----0
  6
DASHDOT
 62
     2
  5
60F
 10
154.22978
 20
427.367992
 30
0.0
 11
634.22978
 21
427.367992
 31
0.0
  0
LINE
  8
LC-002-002-----0
  6
CONTINUOUS
  5
610
 10
204.97978
 20
423.117992
 30
0.0
 11
213.47978
 21
423.117992
 31
0.0
  0
LINE
  8
LC-002-002-----0
  6
CONTINUOUS
  5
611
 10
204.97978
 20
431.617992
 30
0.0
 11
213.47978
 21
431.617992
 31
0.0
  0
ARC
  8
LC-002-002-----0
  6
CONTINUOUS
  5
612
 10
204.97978
 20
427.367992
 30
0.0
 40
4.25
 50
90.0
 51
270.0
  0
ARC
  8
LC-002-002-----0
  6
CONTINUOUS
  5
613
 10
213.47978
 20
427.367992
 30
0.0
 40
4.25
 50
270.0
 51
90.0
  0
ARC
  8
LC-002-002-----0
  6
CONTINUOUS
  5
614
 10
225.08978
 20
413.227992
 30
0.0
 40
3.1
 50
270.0
 51
90.0
  0
ARC
  8
LC-002-002-----0
  6
CONTINUOUS
  5
615
 10
213.36978
 20
413.227992
 30
0.0
 40
3.1
 50
90.0
 51
270.0
  0
LINE
  8
LC-002-002-----0
  6
CONTINUOUS
  5
616
 10
225.08978
 20
410.127992
 30
0.0
 11
213.36978
 21
410.127992
 31
0.0
  0
LINE
  8
LC-002-002-----0
  6
CONTINUOUS
  5
617
 10
225.08978
 20
416.327992
 30
0.0
 11
223.458716
 21
416.327992
 31
0.0
  0
LINE
  8
LC-002-002-----0
  6
CONTINUOUS
  5
618
 10
213.36978
 20
416.327992
 30
0.0
 11
215.000844
 21
416.327992
 31
0.0
  0
ARC
  8
LC-002-002-----0
  6
CONTINUOUS
  5
619
 10
219.22978
 20
416.017992
 30
0.0
 40
3.1
 50
23.171101
 51
156.828899
  0
ARC
  8
LC-002-002-----0
  6
CONTINUOUS
  5
61A
 10
215.000844
 20
417.827992
 30
0.0
 40
1.5
 50
270.0
 51
336.828899
  0
ARC
  8
LC-002-002-----0
  6
CONTINUOUS
  5
61B
 10
223.458716
 20
417.827992
 30
0.0
 40
1.5
 50
203.171101
 51
270.0
  0
ARC
  8
LC-002-002-----0
  6
CONTINUOUS
  5
61C
 10
225.08978
 20
441.507992
 30
0.0
 40
3.1
 50
270.0
 51
90.0
  0
ARC
  8
LC-002-002-----0
  6
CONTINUOUS
  5
61D
 10
213.36978
 20
441.507992
 30
0.0
 40
3.1
 50
90.0
 51
270.0
  0
LINE
  8
LC-002-002-----0
  6
CONTINUOUS
  5
61E
 10
225.08978
 20
444.607992
 30
0.0
 11
213.36978
 21
444.607992
 31
0.0
  0
LINE
  8
LC-002-002-----0
  6
CONTINUOUS
  5
61F
 10
225.08978
 20
438.407992
 30
0.0
 11
223.458716
 21
438.407992
 31
0.0
  0
LINE
  8
LC-002-002-----0
  6
CONTINUOUS
  5
620
 10
213.36978
 20
438.407992
 30
0.0
 11
215.000844
 21
438.407992
 31
0.0
  0
ARC
  8
LC-002-002-----0
  6
CONTINUOUS
  5
621
 10
219.22978
 20
438.717992
 30
0.0
 40
3.1
 50
203.171101
 51
336.828899
  0
ARC
  8
LC-002-002-----0
  6
CONTINUOUS
  5
622
 10
215.000844
 20
436.907992
 30
0.0
 40
1.5
 50
23.171101
 51
90.0
  0
ARC
  8
LC-002-002-----0
  6
CONTINUOUS
  5
623
 10
223.458716
 20
436.907992
 30
0.0
 40
1.5
 50
90.0
 51
156.828899
  0
LINE
  8
LC-002-002-----0
  6
DASHDOT
 62
     2
  5
624
 10
373.36978
 20
465.845895
 30
0.0
 11
373.36978
 21
448.473349
 31
0.0
  0
ARC
  8
LC-001-002-RND-0
  6
CONTINUOUS
  5
625
 10
-104.084669
 20
464.174294
 30
0.0
 40
2.5
 50
135.0
 51
225.0
  0
LINE
  8
LC-002-002-----0
  6
CONTINUOUS
  5
626
 10
-60.420826
 20
456.219343
 30
0.0
 11
-78.452049
 21
438.18812
 31
0.0
  0
LINE
  8
LC-002-002-----0
  6
DASHDOT
 62
     2
  5
627
 10
-97.013602
 20
474.780896
 30
0.0
 11
-62.170826
 21
439.93812
 31
0.0
  0
LINE
  8
LC-002-002-----0
  6
CONTINUOUS
  5
628
 10
-78.452049
 20
438.18812
 30
0.0
 11
-76.635292
 21
436.371363
 31
0.0
  0
ARC
  8
LC-002-002-----0
  6
CONTINUOUS
  5
629
 10
-80.170826
 20
432.835829
 30
0.0
 40
5.0
 50
0.000152
 51
45.0
  0
LINE
  8
LC-002-002-----0
  6
CONTINUOUS
  5
62A
 10
-75.170826
 20
410.469343
 30
0.0
 11
-75.170826
 21
432.835829
 31
0.0
  0
LINE
  8
LC-002-002-----0
  6
CONTINUOUS
  5
62B
 10
-80.043039
 20
436.597129
 30
0.0
 11
-78.452049
 21
438.18812
 31
0.0
  0
LINE
  8
LC-002-002-----0
  6
CONTINUOUS
  5
62C
 10
-72.971971
 20
471.952468
 30
0.0
 11
-94.185175
 21
450.739265
 31
0.0
  0
LINE
  8
LC-002-002-----0
  6
CONTINUOUS
  5
62D
 10
-94.185175
 20
450.739265
 30
0.0
 11
-80.043039
 21
436.597129
 31
0.0
  0
LINE
  8
LC-002-002-----0
  6
CONTINUOUS
  5
62E
 10
-72.971971
 20
471.952468
 30
0.0
 11
-58.829835
 21
457.810333
 31
0.0
  0
LINE
  8
LC-002-002-----0
  6
CONTINUOUS
  5
62F
 10
-82.164359
 20
481.144857
 30
0.0
 11
-103.377563
 21
459.931653
 31
0.0
  0
LINE
  8
LC-002-002-----0
  6
CONTINUOUS
  5
630
 10
-103.377563
 20
455.689013
 30
0.0
 11
-98.427815
 21
450.739265
 31
0.0
  0
LINE
  8
LC-002-002-----0
  6
CONTINUOUS
  5
631
 10
-77.921719
 20
481.144857
 30
0.0
 11
-72.971971
 21
476.195109
 31
0.0
  0
ARC
  8
LC-001-002-RND-0
  6
CONTINUOUS
  5
632
 10
-80.043039
 20
479.023536
 30
0.0
 40
3.0
 50
45.0
 51
135.0
  0
ARC
  8
LC-001-002-RND-0
  6
CONTINUOUS
  5
633
 10
-75.093291
 20
474.073789
 30
0.0
 40
3.0
 50
315.0
 51
45.0
  0
ARC
  8
LC-001-002-RND-0
  6
CONTINUOUS
  5
634
 10
-96.306495
 20
452.860585
 30
0.0
 40
3.0
 50
225.0
 51
315.0
  0
ARC
  8
LC-001-002-RND-0
  6
CONTINUOUS
  5
635
 10
-101.256242
 20
457.810333
 30
0.0
 40
3.0
 50
135.0
 51
225.0
  0
LINE
  8
LC-002-002-----0
  6
CONTINUOUS
  5
636
 10
-95.245835
 20
463.82074
 30
0.0
 11
-90.296087
 21
458.870993
 31
0.0
  0
LINE
  8
LC-002-002-----0
  6
CONTINUOUS
  5
637
 10
-86.053447
 20
473.013129
 30
0.0
 11
-81.103699
 21
468.063381
 31
0.0
  0
LINE
  8
LC-002-002-----0
  6
CONTINUOUS
  5
638
 10
-72.971971
 20
476.195109
 30
0.0
 11
-81.103699
 21
468.063381
 31
0.0
  0
ARC
  8
LC-002-002-----0
  6
CONTINUOUS
  5
639
 10
-89.618443
 20
467.385737
 30
0.0
 40
8.541667
 50
265.449719
 51
4.550281
  0
LINE
  8
LC-002-002-----0
  6
CONTINUOUS
  5
63A
 10
-90.296087
 20
458.870993
 30
0.0
 11
-98.427815
 21
450.739265
 31
0.0
  0
ARC
  8
LC-002-002-----0
  6
CONTINUOUS
  5
63B
 10
-86.731091
 20
464.498384
 30
0.0
 40
8.541667
 50
85.449719
 51
184.550281
  0
LINE
  8
LC-002-002-----0
  6
CONTINUOUS
  5
63C
 10
-77.921719
 20
481.144857
 30
0.0
 11
-86.053447
 21
473.013129
 31
0.0
  0
LINE
  8
LC-002-002-----0
  6
CONTINUOUS
  5
63D
 10
-95.245835
 20
463.82074
 30
0.0
 11
-103.377563
 21
455.689013
 31
0.0
  0
LINE
  8
LC-002-002-----0
  6
CONTINUOUS
  5
63E
 10
-88.174767
 20
483.61973
 30
0.0
 11
-105.852436
 21
465.942061
 31
0.0
  0
LINE
  8
LC-002-002-----0
  6
CONTINUOUS
  5
63F
 10
-105.852436
 20
462.406527
 30
0.0
 11
-103.377563
 21
459.931653
 31
0.0
  0
LINE
  8
LC-002-002-----0
  6
CONTINUOUS
  5
640
 10
-84.639233
 20
483.61973
 30
0.0
 11
-82.164359
 21
481.144857
 31
0.0
  0
ARC
  8
LC-001-002-RND-0
  6
CONTINUOUS
  5
641
 10
-86.407
 20
481.851963
 30
0.0
 40
2.5
 50
45.0
 51
135.0
  0
LINE
  8
LC-002-002-----0
  6
CONTINUOUS
  5
642
 10
-45.635292
 20
441.433809
 30
0.0
 11
-60.420826
 21
456.219343
 31
0.0
  0
ARC
  8
LC-002-002-----0
  6
CONTINUOUS
  5
643
 10
-42.099758
 20
444.969343
 30
0.0
 40
5.0
 50
224.999942
 51
270.0
  0
LINE
  8
LC-002-002-----0
  6
CONTINUOUS
  5
644
 10
-42.099758
 20
439.969343
 30
0.0
 11
-38.513978
 21
439.96934
 31
0.0
  0
LINE
  8
LC-002-002-----0
  6
CONTINUOUS
  5
645
 10
-66.64094
 20
410.469343
 30
0.0
 11
-75.170826
 21
410.469343
 31
0.0
  0
LINE
  8
LC-002-002-----0
  6
CONTINUOUS
  5
646
 10
-66.105225
 20
407.969343
 30
0.0
 11
-77.670826
 21
407.969343
 31
0.0
  0
LINE
  8
LC-002-002-----0
  6
CONTINUOUS
  5
647
 10
-75.170826
 20
410.469343
 30
0.0
 11
-77.670826
 21
407.969343
 31
0.0
  0
LINE
  8
LC-002-002-----0
  6
CONTINUOUS
  5
648
 10
-77.670826
 20
407.969343
 30
0.0
 11
-77.670826
 21
393.469343
 31
0.0
  0
LINE
  8
LC-002-002-----0
  6
CONTINUOUS
  5
649
 10
-77.670826
 20
393.469343
 30
0.0
 11
-65.085952
 21
393.469343
 31
0.0
  0
LINE
  8
LC-002-002-----0
  6
CONTINUOUS
  5
64A
 10
-74.420826
 20
393.469343
 30
0.0
 11
-74.420826
 21
390.969343
 31
0.0
  0
LINE
  8
LC-002-002-----0
  6
CONTINUOUS
  5
64B
 10
-75.670826
 20
390.969343
 30
0.0
 11
-75.670826
 21
385.969343
 31
0.0
  0
LINE
  8
LC-002-002-----0
  6
CONTINUOUS
  5
64C
 10
-74.420826
 20
390.969343
 30
0.0
 11
-75.670826
 21
390.969343
 31
0.0
  0
ARC
  8
LC-002-002-----0
  6
CONTINUOUS
  5
64D
 10
-68.795826
 20
383.941218
 30
0.0
 40
7.028125
 50
60.8064
 51
136.08159
  0
ARC
  8
LC-002-002-----0
  6
CONTINUOUS
  5
64E
 10
-73.498219
 20
388.469343
 30
0.0
 40
0.5
 50
136.08159
 51
223.918352
  0
ARC
  8
LC-002-002-----0
  6
CONTINUOUS
  5
64F
 10
-68.795826
 20
392.997468
 30
0.0
 40
7.028125
 50
223.91841
 51
302.857159
  0
LINE
  8
LC-008-001-----0
  6
DASHDOT
  5
650
 10
-75.670826
 20
388.469343
 30
0.0
 11
-65.160311
 21
388.469343
 31
0.0
  0
ARC
  8
LC-002-002-----0
  6
CONTINUOUS
  5
651
 10
-77.004159
 20
388.469343
 30
0.0
 40
2.833333
 50
298.07281
 51
61.927551
  0
LINE
  8
LC-002-002-----0
  6
CONTINUOUS
  5
652
 10
-74.670826
 20
385.969343
 30
0.0
 11
-74.670826
 21
378.763027
 31
0.0
  0
LINE
  8
LC-002-002-----0
  6
CONTINUOUS
  5
653
 10
-73.877142
 20
377.969343
 30
0.0
 11
-64.122525
 21
377.969343
 31
0.0
  0
LINE
  8
LC-002-002-----0
  6
CONTINUOUS
 62
     2
  5
654
 10
-74.670826
 20
385.969343
 30
0.0
 11
-64.725304
 21
385.099222
 31
0.0
  0
LINE
  8
LC-002-002-----0
  6
CONTINUOUS
 62
     2
  5
655
 10
-74.670826
 20
384.965523
 30
0.0
 11
-65.001123
 21
384.119533
 31
0.0
  0
LINE
  8
LC-002-002-----0
  6
CONTINUOUS
 62
     2
  5
656
 10
-74.670826
 20
383.961703
 30
0.0
 11
-64.855905
 21
383.103009
 31
0.0
  0
LINE
  8
LC-002-002-----0
  6
CONTINUOUS
 62
     2
  5
657
 10
-74.670826
 20
382.957883
 30
0.0
 11
-64.710688
 21
382.086484
 31
0.0
  0
LINE
  8
LC-002-002-----0
  6
CONTINUOUS
 62
     2
  5
658
 10
-74.670826
 20
381.954063
 30
0.0
 11
-64.56547
 21
381.069959
 31
0.0
  0
LINE
  8
LC-002-002-----0
  6
CONTINUOUS
 62
     2
  5
659
 10
-74.670826
 20
380.950243
 30
0.0
 11
-64.420252
 21
380.053434
 31
0.0
  0
LINE
  8
LC-002-002-----0
  6
CONTINUOUS
 62
     2
  5
65A
 10
-74.670826
 20
379.946424
 30
0.0
 11
-64.275034
 21
379.03691
 31
0.0
  0
LINE
  8
LC-002-002-----0
  6
CONTINUOUS
  5
65B
 10
-74.670826
 20
378.763027
 30
0.0
 11
-73.877142
 21
377.969343
 31
0.0
  0
LINE
  8
LC-002-002-----0
  6
CONTINUOUS
  5
65C
 10
-74.420826
 20
390.969343
 30
0.0
 11
-65.483005
 21
390.969343
 31
0.0
  0
LINE
  8
LC-002-002-----0
  6
CONTINUOUS
  5
65D
 10
-75.670826
 20
385.969343
 30
0.0
 11
-64.837617
 21
385.969343
 31
0.0
  0
LINE
  8
LC-002-002-----0
  6
CONTINUOUS
  5
65E
 10
-74.670826
 20
378.763027
 30
0.0
 11
-64.235908
 21
378.763027
 31
0.0
  0
ENDSEC
  0
EOF
