  0
SECTION
  2
HEADER
  9
$ACADVER
  1
AC1009
  9
$INSBASE
 10
-64.799712
 20
522.134
 30
0.0
  9
$EXTMIN
 10
-64.799712
 20
522.134
 30
0.0
  9
$EXTMAX
 10
775.200288
 20
1116.134
 30
0.0
  9
$LIMMIN
 10
-64.799712
 20
522.134
  9
$LIMMAX
 10
775.200288
 20
1116.134
  9
$ORTHOMODE
 70
     0
  9
$REGENMODE
 70
     1
  9
$FILLMODE
 70
     1
  9
$QTEXTMODE
 70
     0
  9
$MIRRTEXT
 70
     1
  9
$DRAGMODE
 70
     2
  9
$LTSCALE
 40
2.0
  9
$OSMODE
 70
     0
  9
$ATTMODE
 70
     1
  9
$TEXTSIZE
 40
0.2
  9
$TRACEWID
 40
0.05
  9
$TEXTSTYLE
  7
STANDARD
  9
$CLAYER
  8
0
  9
$CELTYPE
  6
BYLAYER
  9
$CECOLOR
 62
     7
  9
$DIMSCALE
 40
2.0
  9
$DIMASZ
 40
3.5
  9
$DIMEXO
 40
0.0625
  9
$DIMDLI
 40
0.38
  9
$DIMRND
 40
0.0
  9
$DIMDLE
 40
0.0
  9
$DIMEXE
 40
0.18
  9
$DIMTP
 40
0.0
  9
$DIMTM
 40
0.0
  9
$DIMTXT
 40
3.5
  9
$DIMCEN
 40
0.09
  9
$DIMTSZ
 40
0.0
  9
$DIMTOL
 70
     0
  9
$DIMLIM
 70
     0
  9
$DIMTIH
 70
     1
  9
$DIMTOH
 70
     1
  9
$DIMSE1
 70
     0
  9
$DIMSE2
 70
     0
  9
$DIMTAD
 70
     1
  9
$DIMZIN
 70
     0
  9
$DIMBLK
  1

  9
$DIMASO
 70
     1
  9
$DIMSHO
 70
     1
  9
$DIMPOST
  1

  9
$DIMAPOST
  1

  9
$DIMALT
 70
     0
  9
$DIMALTD
 70
     2
  9
$DIMALTF
 40
25.4
  9
$DIMLFAC
 40
1.0
  9
$DIMTOFL
 70
     0
  9
$DIMTVP
 40
0.0
  9
$DIMTIX
 70
     0
  9
$DIMSOXD
 70
     0
  9
$DIMSAH
 70
     0
  9
$DIMBLK1
  1

  9
$DIMBLK2
  1

  9
$DIMSTYLE
  2
STANDARD
  9
$DIMCLRD
 70
     0
  9
$DIMCLRE
 70
     0
  9
$DIMCLRT
 70
     0
  9
$DIMTFAC
 40
1.0
  9
$DIMGAP
 40
0.09
  9
$LUNITS
 70
     2
  9
$LUPREC
 70
     2
  9
$AXISMODE
 70
     0
  9
$AXISUNIT
 10
0.0
 20
0.0
  9
$SKETCHINC
 40
0.1
  9
$FILLETRAD
 40
0.0
  9
$AUNITS
 70
     0
  9
$AUPREC
 70
     0
  9
$MENU
  1
acad
  9
$ELEVATION
 40
0.0
  9
$PELEVATION
 40
0.0
  9
$THICKNESS
 40
0.0
  9
$LIMCHECK
 70
     0
  9
$BLIPMODE
 70
     1
  9
$CHAMFERA
 40
0.0
  9
$CHAMFERB
 40
0.0
  9
$SKPOLY
 70
     0
  9
$TDCREATE
 40
0.000000000
  9
$TDUPDATE
 40
0.000000000
  9
$TDINDWG
 40
0.0000000000
  9
$TDUSRTIMER
 40
0.0000000000
  9
$USRTIMER
 70
     1
  9
$ANGBASE
 50
0.0
  9
$ANGDIR
 70
     0
  9
$PDMODE
 70
     0
  9
$PDSIZE
 40
0.0
  9
$PLINEWID
 40
0.0
  9
$COORDS
 70
     0
  9
$SPLFRAME
 70
     0
  9
$SPLINETYPE
 70
     6
  9
$SPLINESEGS
 70
     8
  9
$ATTDIA
 70
     0
  9
$ATTREQ
 70
     1
  9
$HANDLING
 70
     1
  9
$HANDSEED
  5
1FA
  9
$SURFTAB1
 70
     6
  9
$SURFTAB2
 70
     6
  9
$SURFTYPE
 70
     6
  9
$SURFU
 70
     6
  9
$SURFV
 70
     6
  9
$UCSNAME
  2

  9
$UCSORG
 10
0.0
 20
0.0
 30
0.0
  9
$UCSXDIR
 10
1.0
 20
0.0
 30
0.0
  9
$UCSYDIR
 10
0.0
 20
1.0
 30
0.0
  9
$PUCSNAME
  2

  9
$PUCSORG
 10
0.0
 20
0.0
 30
0.0
  9
$PUCSXDIR
 10
1.0
 20
0.0
 30
0.0
  9
$PUCSYDIR
 10
0.0
 20
1.0
 30
0.0
  9
$USERI1
 70
     0
  9
$USERI2
 70
     0
  9
$USERI3
 70
     0
  9
$USERI4
 70
     0
  9
$USERI5
 70
     0
  9
$USERR1
 40
0.0
  9
$USERR2
 40
0.0
  9
$USERR3
 40
0.0
  9
$USERR4
 40
0.0
  9
$USERR5
 40
0.0
  9
$WORLDVIEW
 70
     1
  9
$SHADEDGE
 70
     3
  9
$SHADEDIF
 70
    70
  9
$TILEMODE
 70
     1
  9
$MAXACTVP
 70
    16
  9
$PINSBASE
 10
0.0
 20
0.0
 30
0.0
  9
$PLIMCHECK
 70
     0
  9
$PEXTMIN
 10
1.000000E+20
 20
1.000000E+20
 30
1.000000E+20
  9
$PEXTMAX
 10
-1.000000E+20
 20
-1.000000E+20
 30
-1.000000E+20
  9
$PLIMMIN
 10
-64.799712
 20
522.134
  9
$PLIMMAX
 10
775.200288
 20
1116.134
  9
$UNITMODE
 70
     0
  9
$VISRETAIN
 70
     0
  9
$PLINEGEN
 70
     1
  9
$PSLTSCALE
 70
     0
  9
$TREEDEPTH
 70
  3020
  9
$DWGCODEPAGE
  3
dos850
  0
ENDSEC
  0
SECTION
  2
TABLES
  0
TABLE
  2
VPORT
 70
     1
  0
VPORT
  2
*ACTIVE
 70
     0
 10
0.0
 20
0.0
 11
1.0
 21
1.0
 12
420.0
 22
297.0
 13
0.0
 23
0.0
 14
1.0
 24
1.0
 15
0.0
 25
0.0
 16
0.0
 26
0.0
 36
1.0
 17
-64.799712
 27
522.134
 37
0.0
 40
594.0
 41
1.604229
 42
50.0
 43
0.0
 44
0.0
 50
0.0
 51
0.0
 71
     0
 72
   100
 73
     1
 74
     1
 75
     0
 76
     0
 77
     0
 78
     0
  0
ENDTAB
  0
TABLE
  2
LTYPE
 70
     3
  0
LTYPE
  2
CONTINUOUS
 70
    64
  3
Solid line
 72
    65
 73
     0
 40
0.0
  0
LTYPE
  2
DASHED
 70
    64
  3
__ __ __ __ __
 72
    65
 73
     2
 40
6.25
 49
5.0
 49
-1.25
  0
LTYPE
  2
DASHDOT
 70
    64
  3
__ . __ . __ . __ . __
 72
    65
 73
     4
 40
7.5
 49
5.0
 49
-1.25
 49
0.0
 49
-1.25
  0
ENDTAB
  0
TABLE
  2
LAYER
 70
    11
  0
LAYER
  2
0
 70
     0
 62
     7
  6
CONTINUOUS
  0
LAYER
  2
LC-INFO-1-2-MM-A3-0
 70
     1
 62
    -1
  6
CONTINUOUS
  0
LAYER
  2
LC-003-003-MTH-0
 70
     0
 62
     2
  6
CONTINUOUS
  0
LAYER
  2
LC-004-003-MTG-0
 70
     0
 62
     2
  6
CONTINUOUS
  0
LAYER
  2
LC-002-003-----0
 70
     0
 62
     2
  6
CONTINUOUS
  0
LAYER
  2
LC-007-005-----0
 70
     0
 62
     2
  6
CONTINUOUS
  0
LAYER
  2
LC-005-000-----0
 70
     0
 62
     7
  6
CONTINUOUS
  0
LAYER
  2
LC-008-000-----0
 70
     0
 62
     7
  6
CONTINUOUS
  0
LAYER
  2
LC-001-002-----0
 70
     0
 62
     2
  6
DASHED
  0
LAYER
  2
LC-006-002-RND-0
 70
     0
 62
     1
  6
CONTINUOUS
  0
LAYER
  2
LC-000
 70
     0
 62
     7
  6
CONTINUOUS
  0
ENDTAB
  0
TABLE
  2
STYLE
 70
     4
  0
STYLE
  2
STANDARD
 70
     0
 40
0.0
 41
1.0
 50
0.0
 71
     0
 42
0.0
  3
txt
  4

  0
STYLE
  2
LC-STANDARD
 70
    64
 40
0.0
 41
1.0
 50
0.0
 71
     0
 42
3.5
  3
MONOTXT
  4

  0
STYLE
  2
LC-TXTSTYLE-150-400-0-0-D2
 70
    64
 40
0.0
 41
1.0
 50
15.0
 71
     0
 42
3.5
  3
MONOTXT
  4

  0
STYLE
  2
LC-TXTSTYLE-150-400-0-0-D3
 70
    64
 40
0.0
 41
1.0
 50
15.0
 71
     0
 42
3.5
  3
LC-STANDARD
  4

  0
ENDTAB
  0
TABLE
  2
VIEW
 70
     0
  0
ENDTAB
  0
TABLE
  2
UCS
 70
     0
  0
ENDTAB
  0
TABLE
  2
APPID
 70
     1
  0
APPID
  2
ACAD
 70
     0
  0
ENDTAB
  0
TABLE
  2
DIMSTYLE
 70
     3
  0
DIMSTYLE
  2
STANDARD
 70
     0
  3

  4

  5

  6

  7

 40
1.0
 41
0.18
 42
0.0625
 43
0.38
 44
0.18
 45
0.0
 46
0.0
 47
0.0
 48
0.0
 71
     0
 72
     0
 73
     1
 74
     1
 75
     0
 76
     0
 77
     0
 78
     0
140
0.18
141
0.09
142
0.0
143
25.4
144
1.0
145
0.0
146
1.0
147
0.09
170
     0
171
     2
172
     0
173
     0
174
     0
175
     0
176
     0
177
     0
178
     0
  0
DIMSTYLE
  2
LC-STANDARD
 70
     0
  3

  4

  5

  6

  7

 40
1.0
 41
3.5
 42
0.0
 43
7.5
 44
1.8
 45
0.0
 46
0.0
 47
0.0
 48
0.0
 71
     0
 72
     0
 73
     0
 74
     0
 75
     0
 76
     0
 77
     1
 78
     8
140
3.5
141
0.0
142
0.0
143
25.4
144
1.0
145
0.0
146
0.71
147
1.5
170
     0
171
     2
172
     1
173
     0
174
     0
175
     0
176
     0
177
     0
178
     3
  0
DIMSTYLE
  2
LC-DIM-L-0090-02-02
 70
     0
  3

  4

  5

  6

  7

 40
2.0
 41
3.5
 42
0.0
 43
7.5
 44
1.8
 45
0.0
 46
0.0
 47
0.0
 48
0.0
 71
     0
 72
     0
 73
     0
 74
     0
 75
     0
 76
     0
 77
     1
 78
     8
140
9.0
141
0.0
142
0.0
143
25.4
144
1.0
145
0.0
146
0.71
147
1.5
170
     0
171
     2
172
     0
173
     0
174
     0
175
     0
176
     2
177
     2
178
     6
  0
ENDTAB
  0
ENDSEC
  0
SECTION
  2
BLOCKS
  0
BLOCK
  8
0
  5
23
  2
*D0
 70
    65
 10
0.0
 20
0.0
 30
0.0
  3
*D0
  0
LINE
  8
LC-003-003-MTH-0
  6
CONTINUOUS
  5
25
 10
475.565663
 20
843.55
 30
0.0
 11
550.8
 21
843.55
 31
0.0
  0
LINE
  8
LC-003-003-MTH-0
  6
CONTINUOUS
  5
26
 10
439.565663
 20
993.55
 30
0.0
 11
550.8
 21
993.55
 31
0.0
  0
LINE
  8
LC-004-003-MTG-0
  6
CONTINUOUS
  5
28
 10
540.0
 20
843.55
 30
0.0
 11
540.0
 21
993.55
 31
0.0
  0
LINE
  8
LC-002-003-----0
  6
CONTINUOUS
  5
2A
 10
537.650529
 20
861.396008
 30
0.0
 11
540.0
 21
843.55
 31
0.0
  0
LINE
  8
LC-002-003-----0
  6
CONTINUOUS
  5
2B
 10
540.0
 20
843.55
 30
0.0
 11
542.349471
 21
861.396008
 31
0.0
  0
LINE
  8
LC-002-003-----0
  6
CONTINUOUS
  5
2C
 10
542.349471
 20
861.396008
 30
0.0
 11
537.650529
 21
861.396008
 31
0.0
  0
LINE
  8
LC-002-003-----0
  6
CONTINUOUS
  5
2D
 10
538.261391
 20
861.436046
 30
0.0
 11
540.0
 21
848.23
 31
0.0
  0
LINE
  8
LC-002-003-----0
  6
CONTINUOUS
  5
2E
 10
540.0
 20
848.23
 30
0.0
 11
541.738609
 21
861.436046
 31
0.0
  0
LINE
  8
LC-002-003-----0
  6
CONTINUOUS
  5
2F
 10
538.872254
 20
861.476084
 30
0.0
 11
540.0
 21
852.91
 31
0.0
  0
LINE
  8
LC-002-003-----0
  6
CONTINUOUS
  5
30
 10
540.0
 20
852.91
 30
0.0
 11
541.127746
 21
861.476084
 31
0.0
  0
LINE
  8
LC-002-003-----0
  6
CONTINUOUS
  5
31
 10
539.483116
 20
861.516122
 30
0.0
 11
540.0
 21
857.59
 31
0.0
  0
LINE
  8
LC-002-003-----0
  6
CONTINUOUS
  5
32
 10
540.0
 20
857.59
 30
0.0
 11
540.516884
 21
861.516122
 31
0.0
  0
LINE
  8
LC-002-003-----0
  6
CONTINUOUS
  5
33
 10
542.349471
 20
975.703992
 30
0.0
 11
540.0
 21
993.55
 31
0.0
  0
LINE
  8
LC-002-003-----0
  6
CONTINUOUS
  5
34
 10
540.0
 20
993.55
 30
0.0
 11
537.650529
 21
975.703992
 31
0.0
  0
LINE
  8
LC-002-003-----0
  6
CONTINUOUS
  5
35
 10
537.650529
 20
975.703992
 30
0.0
 11
542.349471
 21
975.703992
 31
0.0
  0
LINE
  8
LC-002-003-----0
  6
CONTINUOUS
  5
36
 10
541.738609
 20
975.663954
 30
0.0
 11
540.0
 21
988.87
 31
0.0
  0
LINE
  8
LC-002-003-----0
  6
CONTINUOUS
  5
37
 10
540.0
 20
988.87
 30
0.0
 11
538.261391
 21
975.663954
 31
0.0
  0
LINE
  8
LC-002-003-----0
  6
CONTINUOUS
  5
38
 10
541.127746
 20
975.623916
 30
0.0
 11
540.0
 21
984.19
 31
0.0
  0
LINE
  8
LC-002-003-----0
  6
CONTINUOUS
  5
39
 10
540.0
 20
984.19
 30
0.0
 11
538.872254
 21
975.623916
 31
0.0
  0
LINE
  8
LC-002-003-----0
  6
CONTINUOUS
  5
3A
 10
540.516884
 20
975.583878
 30
0.0
 11
540.0
 21
979.51
 31
0.0
  0
LINE
  8
LC-002-003-----0
  6
CONTINUOUS
  5
3B
 10
540.0
 20
979.51
 30
0.0
 11
539.483116
 21
975.583878
 31
0.0
  0
TEXT
  8
LC-002-003-----0
  6
CONTINUOUS
 62
     6
  5
3D
 10
529.568001
 20
895.459387
 30
0.0
 40
18.0
  1
150
 50
90.0
 41
0.9
 51
15.0
  7
LC-TXTSTYLE-150-400-0-0-D0
 72
     1
 11
529.568001
 21
914.593246
 31
0.0
  0
ENDBLK
  8
0
  5
3E
  0
BLOCK
  8
0
  5
40
  2
*D1
 70
    65
 10
0.0
 20
0.0
 30
0.0
  3
*D1
  0
LINE
  8
LC-003-003-MTH-0
  6
CONTINUOUS
  5
41
 10
383.565663
 20
938.961312
 30
0.0
 11
383.565663
 21
1018.8
 31
0.0
  0
LINE
  8
LC-003-003-MTH-0
  6
CONTINUOUS
  5
42
 10
495.565663
 20
937.55
 30
0.0
 11
495.565663
 21
1018.8
 31
0.0
  0
LINE
  8
LC-004-003-MTG-0
  6
CONTINUOUS
  5
43
 10
383.565663
 20
1008.0
 30
0.0
 11
495.565663
 21
1008.0
 31
0.0
  0
LINE
  8
LC-002-003-----0
  6
CONTINUOUS
  5
44
 10
401.411671
 20
1010.349471
 30
0.0
 11
383.565663
 21
1008.0
 31
0.0
  0
LINE
  8
LC-002-003-----0
  6
CONTINUOUS
  5
45
 10
383.565663
 20
1008.0
 30
0.0
 11
401.411671
 21
1005.650529
 31
0.0
  0
LINE
  8
LC-002-003-----0
  6
CONTINUOUS
  5
46
 10
401.411671
 20
1005.650529
 30
0.0
 11
401.411671
 21
1010.349471
 31
0.0
  0
LINE
  8
LC-002-003-----0
  6
CONTINUOUS
  5
47
 10
401.451709
 20
1009.738609
 30
0.0
 11
388.245663
 21
1008.0
 31
0.0
  0
LINE
  8
LC-002-003-----0
  6
CONTINUOUS
  5
48
 10
388.245663
 20
1008.0
 30
0.0
 11
401.451709
 21
1006.261391
 31
0.0
  0
LINE
  8
LC-002-003-----0
  6
CONTINUOUS
  5
49
 10
401.491747
 20
1009.127746
 30
0.0
 11
392.925663
 21
1008.0
 31
0.0
  0
LINE
  8
LC-002-003-----0
  6
CONTINUOUS
  5
4A
 10
392.925663
 20
1008.0
 30
0.0
 11
401.491747
 21
1006.872254
 31
0.0
  0
LINE
  8
LC-002-003-----0
  6
CONTINUOUS
  5
4B
 10
401.531785
 20
1008.516884
 30
0.0
 11
397.605663
 21
1008.0
 31
0.0
  0
LINE
  8
LC-002-003-----0
  6
CONTINUOUS
  5
4C
 10
397.605663
 20
1008.0
 30
0.0
 11
401.531785
 21
1007.483116
 31
0.0
  0
LINE
  8
LC-002-003-----0
  6
CONTINUOUS
  5
4D
 10
477.719656
 20
1005.650529
 30
0.0
 11
495.565663
 21
1008.0
 31
0.0
  0
LINE
  8
LC-002-003-----0
  6
CONTINUOUS
  5
4E
 10
495.565663
 20
1008.0
 30
0.0
 11
477.719656
 21
1010.349471
 31
0.0
  0
LINE
  8
LC-002-003-----0
  6
CONTINUOUS
  5
4F
 10
477.719656
 20
1010.349471
 30
0.0
 11
477.719656
 21
1005.650529
 31
0.0
  0
LINE
  8
LC-002-003-----0
  6
CONTINUOUS
  5
50
 10
477.679618
 20
1006.261391
 30
0.0
 11
490.885663
 21
1008.0
 31
0.0
  0
LINE
  8
LC-002-003-----0
  6
CONTINUOUS
  5
51
 10
490.885663
 20
1008.0
 30
0.0
 11
477.679618
 21
1009.738609
 31
0.0
  0
LINE
  8
LC-002-003-----0
  6
CONTINUOUS
  5
52
 10
477.63958
 20
1006.872254
 30
0.0
 11
486.205663
 21
1008.0
 31
0.0
  0
LINE
  8
LC-002-003-----0
  6
CONTINUOUS
  5
53
 10
486.205663
 20
1008.0
 30
0.0
 11
477.63958
 21
1009.127746
 31
0.0
  0
LINE
  8
LC-002-003-----0
  6
CONTINUOUS
  5
54
 10
477.599542
 20
1007.483116
 30
0.0
 11
481.525663
 21
1008.0
 31
0.0
  0
LINE
  8
LC-002-003-----0
  6
CONTINUOUS
  5
55
 10
481.525663
 20
1008.0
 30
0.0
 11
477.599542
 21
1008.516884
 31
0.0
  0
TEXT
  8
LC-002-003-----0
  6
CONTINUOUS
 62
     6
  5
56
 10
409.296771
 20
1018.431999
 30
0.0
 40
18.0
  1
112
 51
15.0
  7
LC-TXTSTYLE-150-400-0-0-D0
  0
ENDBLK
  8
0
  5
57
  0
BLOCK
  8
0
  5
59
  2
*D2
 70
    65
 10
0.0
 20
0.0
 30
0.0
  3
*D2
  0
LINE
  8
LC-003-003-MTH-0
  6
CONTINUOUS
  5
5A
 10
178.381404
 20
847.55
 30
0.0
 11
178.381404
 21
709.2
 31
0.0
  0
LINE
  8
LC-003-003-MTH-0
  6
CONTINUOUS
  5
5B
 10
230.381404
 20
843.55
 30
0.0
 11
230.381404
 21
709.2
 31
0.0
  0
LINE
  8
LC-002-003-----0
  6
CONTINUOUS
  5
5C
 10
160.535396
 20
717.650529
 30
0.0
 11
178.381404
 21
720.0
 31
0.0
  0
LINE
  8
LC-002-003-----0
  6
CONTINUOUS
  5
5D
 10
178.381404
 20
720.0
 30
0.0
 11
160.535396
 21
722.349471
 31
0.0
  0
LINE
  8
LC-002-003-----0
  6
CONTINUOUS
  5
5E
 10
160.535396
 20
722.349471
 30
0.0
 11
160.535396
 21
717.650529
 31
0.0
  0
LINE
  8
LC-002-003-----0
  6
CONTINUOUS
  5
5F
 10
160.495358
 20
718.261391
 30
0.0
 11
173.701404
 21
720.0
 31
0.0
  0
LINE
  8
LC-002-003-----0
  6
CONTINUOUS
  5
60
 10
173.701404
 20
720.0
 30
0.0
 11
160.495358
 21
721.738609
 31
0.0
  0
LINE
  8
LC-002-003-----0
  6
CONTINUOUS
  5
61
 10
160.45532
 20
718.872254
 30
0.0
 11
169.021404
 21
720.0
 31
0.0
  0
LINE
  8
LC-002-003-----0
  6
CONTINUOUS
  5
62
 10
169.021404
 20
720.0
 30
0.0
 11
160.45532
 21
721.127746
 31
0.0
  0
LINE
  8
LC-002-003-----0
  6
CONTINUOUS
  5
63
 10
160.415282
 20
719.483116
 30
0.0
 11
164.341404
 21
720.0
 31
0.0
  0
LINE
  8
LC-002-003-----0
  6
CONTINUOUS
  5
64
 10
164.341404
 20
720.0
 30
0.0
 11
160.415282
 21
720.516884
 31
0.0
  0
LINE
  8
LC-002-003-----0
  6
CONTINUOUS
  5
65
 10
248.227411
 20
722.349471
 30
0.0
 11
230.381404
 21
720.0
 31
0.0
  0
LINE
  8
LC-002-003-----0
  6
CONTINUOUS
  5
66
 10
230.381404
 20
720.0
 30
0.0
 11
248.227411
 21
717.650529
 31
0.0
  0
LINE
  8
LC-002-003-----0
  6
CONTINUOUS
  5
67
 10
248.227411
 20
717.650529
 30
0.0
 11
248.227411
 21
722.349471
 31
0.0
  0
LINE
  8
LC-002-003-----0
  6
CONTINUOUS
  5
68
 10
248.26745
 20
721.738609
 30
0.0
 11
235.061404
 21
720.0
 31
0.0
  0
LINE
  8
LC-002-003-----0
  6
CONTINUOUS
  5
69
 10
235.061404
 20
720.0
 30
0.0
 11
248.26745
 21
718.261391
 31
0.0
  0
LINE
  8
LC-002-003-----0
  6
CONTINUOUS
  5
6A
 10
248.307488
 20
721.127746
 30
0.0
 11
239.741404
 21
720.0
 31
0.0
  0
LINE
  8
LC-002-003-----0
  6
CONTINUOUS
  5
6B
 10
239.741404
 20
720.0
 30
0.0
 11
248.307488
 21
718.872254
 31
0.0
  0
LINE
  8
LC-002-003-----0
  6
CONTINUOUS
  5
6C
 10
248.347526
 20
720.516884
 30
0.0
 11
244.421404
 21
720.0
 31
0.0
  0
LINE
  8
LC-002-003-----0
  6
CONTINUOUS
  5
6D
 10
244.421404
 20
720.0
 30
0.0
 11
248.347526
 21
719.483116
 31
0.0
  0
LINE
  8
LC-004-003-MTG-0
  6
CONTINUOUS
  5
6E
 10
153.181404
 20
720.0
 30
0.0
 11
288.383924
 21
720.0
 31
0.0
  0
TEXT
  8
LC-002-003-----0
  6
CONTINUOUS
 62
     6
  5
6F
 10
257.65665
 20
730.431999
 30
0.0
 40
18.0
  1
52
 51
15.0
  7
LC-TXTSTYLE-150-400-0-0-D0
  0
ENDBLK
  8
0
  5
70
  0
BLOCK
  8
0
  5
72
  2
*D3
 70
    65
 10
0.0
 20
0.0
 30
0.0
  3
*D3
  0
LINE
  8
LC-003-003-MTH-0
  6
CONTINUOUS
  5
73
 10
183.455342
 20
794.05
 30
0.0
 11
183.455342
 21
745.2
 31
0.0
  0
LINE
  8
LC-003-003-MTH-0
  6
CONTINUOUS
  5
74
 10
223.455342
 20
794.05
 30
0.0
 11
223.455342
 21
745.2
 31
0.0
  0
LINE
  8
LC-002-003-----0
  6
CONTINUOUS
  5
75
 10
165.609334
 20
753.650529
 30
0.0
 11
183.455342
 21
756.0
 31
0.0
  0
LINE
  8
LC-002-003-----0
  6
CONTINUOUS
  5
76
 10
183.455342
 20
756.0
 30
0.0
 11
165.609334
 21
758.349471
 31
0.0
  0
LINE
  8
LC-002-003-----0
  6
CONTINUOUS
  5
77
 10
165.609334
 20
758.349471
 30
0.0
 11
165.609334
 21
753.650529
 31
0.0
  0
LINE
  8
LC-002-003-----0
  6
CONTINUOUS
  5
78
 10
165.569296
 20
754.261391
 30
0.0
 11
178.775342
 21
756.0
 31
0.0
  0
LINE
  8
LC-002-003-----0
  6
CONTINUOUS
  5
79
 10
178.775342
 20
756.0
 30
0.0
 11
165.569296
 21
757.738609
 31
0.0
  0
LINE
  8
LC-002-003-----0
  6
CONTINUOUS
  5
7A
 10
165.529258
 20
754.872254
 30
0.0
 11
174.095342
 21
756.0
 31
0.0
  0
LINE
  8
LC-002-003-----0
  6
CONTINUOUS
  5
7B
 10
174.095342
 20
756.0
 30
0.0
 11
165.529258
 21
757.127746
 31
0.0
  0
LINE
  8
LC-002-003-----0
  6
CONTINUOUS
  5
7C
 10
165.48922
 20
755.483116
 30
0.0
 11
169.415342
 21
756.0
 31
0.0
  0
LINE
  8
LC-002-003-----0
  6
CONTINUOUS
  5
7D
 10
169.415342
 20
756.0
 30
0.0
 11
165.48922
 21
756.516884
 31
0.0
  0
LINE
  8
LC-002-003-----0
  6
CONTINUOUS
  5
7E
 10
241.301349
 20
758.349471
 30
0.0
 11
223.455342
 21
756.0
 31
0.0
  0
LINE
  8
LC-002-003-----0
  6
CONTINUOUS
  5
7F
 10
223.455342
 20
756.0
 30
0.0
 11
241.301349
 21
753.650529
 31
0.0
  0
LINE
  8
LC-002-003-----0
  6
CONTINUOUS
  5
80
 10
241.301349
 20
753.650529
 30
0.0
 11
241.301349
 21
758.349471
 31
0.0
  0
LINE
  8
LC-002-003-----0
  6
CONTINUOUS
  5
81
 10
241.341387
 20
757.738609
 30
0.0
 11
228.135342
 21
756.0
 31
0.0
  0
LINE
  8
LC-002-003-----0
  6
CONTINUOUS
  5
82
 10
228.135342
 20
756.0
 30
0.0
 11
241.341387
 21
754.261391
 31
0.0
  0
LINE
  8
LC-002-003-----0
  6
CONTINUOUS
  5
83
 10
241.381425
 20
757.127746
 30
0.0
 11
232.815342
 21
756.0
 31
0.0
  0
LINE
  8
LC-002-003-----0
  6
CONTINUOUS
  5
84
 10
232.815342
 20
756.0
 30
0.0
 11
241.381425
 21
754.872254
 31
0.0
  0
LINE
  8
LC-002-003-----0
  6
CONTINUOUS
  5
85
 10
241.421463
 20
756.516884
 30
0.0
 11
237.495342
 21
756.0
 31
0.0
  0
LINE
  8
LC-002-003-----0
  6
CONTINUOUS
  5
86
 10
237.495342
 20
756.0
 30
0.0
 11
241.421463
 21
755.483116
 31
0.0
  0
LINE
  8
LC-004-003-MTG-0
  6
CONTINUOUS
  5
87
 10
158.255342
 20
756.0
 30
0.0
 11
313.857861
 21
756.0
 31
0.0
  0
TEXT
  8
LC-002-003-----0
  6
CONTINUOUS
 62
     6
  5
88
 10
250.730587
 20
766.431999
 30
0.0
 40
18.0
  1
DN40
 51
15.0
  7
LC-TXTSTYLE-150-400-0-0-D0
  0
ENDBLK
  8
0
  5
89
  0
BLOCK
  8
0
  5
8B
  2
*D4
 70
    65
 10
0.0
 20
0.0
 30
0.0
  3
*D4
  0
LINE
  8
LC-003-003-MTH-0
  6
CONTINUOUS
  5
8C
 10
222.517519
 20
790.55
 30
0.0
 11
334.8
 21
790.55
 31
0.0
  0
LINE
  8
LC-003-003-MTH-0
  6
CONTINUOUS
  5
8D
 10
230.381404
 20
935.55
 30
0.0
 11
334.8
 21
935.55
 31
0.0
  0
LINE
  8
LC-004-003-MTG-0
  6
CONTINUOUS
  5
8E
 10
324.0
 20
790.55
 30
0.0
 11
324.0
 21
935.55
 31
0.0
  0
LINE
  8
LC-002-003-----0
  6
CONTINUOUS
  5
8F
 10
321.650529
 20
808.396008
 30
0.0
 11
324.0
 21
790.55
 31
0.0
  0
LINE
  8
LC-002-003-----0
  6
CONTINUOUS
  5
90
 10
324.0
 20
790.55
 30
0.0
 11
326.349471
 21
808.396008
 31
0.0
  0
LINE
  8
LC-002-003-----0
  6
CONTINUOUS
  5
91
 10
326.349471
 20
808.396008
 30
0.0
 11
321.650529
 21
808.396008
 31
0.0
  0
LINE
  8
LC-002-003-----0
  6
CONTINUOUS
  5
92
 10
322.261391
 20
808.436046
 30
0.0
 11
324.0
 21
795.23
 31
0.0
  0
LINE
  8
LC-002-003-----0
  6
CONTINUOUS
  5
93
 10
324.0
 20
795.23
 30
0.0
 11
325.738609
 21
808.436046
 31
0.0
  0
LINE
  8
LC-002-003-----0
  6
CONTINUOUS
  5
94
 10
322.872254
 20
808.476084
 30
0.0
 11
324.0
 21
799.91
 31
0.0
  0
LINE
  8
LC-002-003-----0
  6
CONTINUOUS
  5
95
 10
324.0
 20
799.91
 30
0.0
 11
325.127746
 21
808.476084
 31
0.0
  0
LINE
  8
LC-002-003-----0
  6
CONTINUOUS
  5
96
 10
323.483116
 20
808.516122
 30
0.0
 11
324.0
 21
804.59
 31
0.0
  0
LINE
  8
LC-002-003-----0
  6
CONTINUOUS
  5
97
 10
324.0
 20
804.59
 30
0.0
 11
324.516884
 21
808.516122
 31
0.0
  0
LINE
  8
LC-002-003-----0
  6
CONTINUOUS
  5
98
 10
326.349471
 20
917.703992
 30
0.0
 11
324.0
 21
935.55
 31
0.0
  0
LINE
  8
LC-002-003-----0
  6
CONTINUOUS
  5
99
 10
324.0
 20
935.55
 30
0.0
 11
321.650529
 21
917.703992
 31
0.0
  0
LINE
  8
LC-002-003-----0
  6
CONTINUOUS
  5
9A
 10
321.650529
 20
917.703992
 30
0.0
 11
326.349471
 21
917.703992
 31
0.0
  0
LINE
  8
LC-002-003-----0
  6
CONTINUOUS
  5
9B
 10
325.738609
 20
917.663954
 30
0.0
 11
324.0
 21
930.87
 31
0.0
  0
LINE
  8
LC-002-003-----0
  6
CONTINUOUS
  5
9C
 10
324.0
 20
930.87
 30
0.0
 11
322.261391
 21
917.663954
 31
0.0
  0
LINE
  8
LC-002-003-----0
  6
CONTINUOUS
  5
9D
 10
325.127746
 20
917.623916
 30
0.0
 11
324.0
 21
926.19
 31
0.0
  0
LINE
  8
LC-002-003-----0
  6
CONTINUOUS
  5
9E
 10
324.0
 20
926.19
 30
0.0
 11
322.872254
 21
917.623916
 31
0.0
  0
LINE
  8
LC-002-003-----0
  6
CONTINUOUS
  5
9F
 10
324.516884
 20
917.583878
 30
0.0
 11
324.0
 21
921.51
 31
0.0
  0
LINE
  8
LC-002-003-----0
  6
CONTINUOUS
  5
A0
 10
324.0
 20
921.51
 30
0.0
 11
323.483116
 21
917.583878
 31
0.0
  0
TEXT
  8
LC-002-003-----0
  6
CONTINUOUS
 62
     6
  5
A1
 10
313.568001
 20
831.901387
 30
0.0
 40
18.0
  1
145
 50
90.0
 51
15.0
  7
LC-TXTSTYLE-150-400-0-0-D0
 72
     1
 11
313.568001
 21
851.035246
 31
0.0
  0
ENDBLK
  8
0
  5
A2
  0
BLOCK
  8
0
  5
A4
  2
*D5
 70
    65
 10
0.0
 20
0.0
 30
0.0
  3
*D5
  0
LINE
  8
LC-003-003-MTH-0
  6
CONTINUOUS
  5
A5
 10
222.517519
 20
790.55
 30
0.0
 11
298.8
 21
790.55
 31
0.0
  0
LINE
  8
LC-003-003-MTH-0
  6
CONTINUOUS
  5
A6
 10
230.381404
 20
843.55
 30
0.0
 11
298.8
 21
843.55
 31
0.0
  0
LINE
  8
LC-004-003-MTG-0
  6
CONTINUOUS
  5
A7
 10
288.0
 20
790.55
 30
0.0
 11
288.0
 21
843.55
 31
0.0
  0
LINE
  8
LC-002-003-----0
  6
CONTINUOUS
  5
A8
 10
285.650529
 20
808.396008
 30
0.0
 11
288.0
 21
790.55
 31
0.0
  0
LINE
  8
LC-002-003-----0
  6
CONTINUOUS
  5
A9
 10
288.0
 20
790.55
 30
0.0
 11
290.349471
 21
808.396008
 31
0.0
  0
LINE
  8
LC-002-003-----0
  6
CONTINUOUS
  5
AA
 10
290.349471
 20
808.396008
 30
0.0
 11
285.650529
 21
808.396008
 31
0.0
  0
LINE
  8
LC-002-003-----0
  6
CONTINUOUS
  5
AB
 10
286.261391
 20
808.436046
 30
0.0
 11
288.0
 21
795.23
 31
0.0
  0
LINE
  8
LC-002-003-----0
  6
CONTINUOUS
  5
AC
 10
288.0
 20
795.23
 30
0.0
 11
289.738609
 21
808.436046
 31
0.0
  0
LINE
  8
LC-002-003-----0
  6
CONTINUOUS
  5
AD
 10
286.872254
 20
808.476084
 30
0.0
 11
288.0
 21
799.91
 31
0.0
  0
LINE
  8
LC-002-003-----0
  6
CONTINUOUS
  5
AE
 10
288.0
 20
799.91
 30
0.0
 11
289.127746
 21
808.476084
 31
0.0
  0
LINE
  8
LC-002-003-----0
  6
CONTINUOUS
  5
AF
 10
287.483116
 20
808.516122
 30
0.0
 11
288.0
 21
804.59
 31
0.0
  0
LINE
  8
LC-002-003-----0
  6
CONTINUOUS
  5
B0
 10
288.0
 20
804.59
 30
0.0
 11
288.516884
 21
808.516122
 31
0.0
  0
LINE
  8
LC-002-003-----0
  6
CONTINUOUS
  5
B1
 10
290.349471
 20
825.703992
 30
0.0
 11
288.0
 21
843.55
 31
0.0
  0
LINE
  8
LC-002-003-----0
  6
CONTINUOUS
  5
B2
 10
288.0
 20
843.55
 30
0.0
 11
285.650529
 21
825.703992
 31
0.0
  0
LINE
  8
LC-002-003-----0
  6
CONTINUOUS
  5
B3
 10
285.650529
 20
825.703992
 30
0.0
 11
290.349471
 21
825.703992
 31
0.0
  0
LINE
  8
LC-002-003-----0
  6
CONTINUOUS
  5
B4
 10
289.738609
 20
825.663954
 30
0.0
 11
288.0
 21
838.87
 31
0.0
  0
LINE
  8
LC-002-003-----0
  6
CONTINUOUS
  5
B5
 10
288.0
 20
838.87
 30
0.0
 11
286.261391
 21
825.663954
 31
0.0
  0
LINE
  8
LC-002-003-----0
  6
CONTINUOUS
  5
B6
 10
289.127746
 20
825.623916
 30
0.0
 11
288.0
 21
834.19
 31
0.0
  0
LINE
  8
LC-002-003-----0
  6
CONTINUOUS
  5
B7
 10
288.0
 20
834.19
 30
0.0
 11
286.872254
 21
825.623916
 31
0.0
  0
LINE
  8
LC-002-003-----0
  6
CONTINUOUS
  5
B8
 10
288.516884
 20
825.583878
 30
0.0
 11
288.0
 21
829.51
 31
0.0
  0
LINE
  8
LC-002-003-----0
  6
CONTINUOUS
  5
B9
 10
288.0
 20
829.51
 30
0.0
 11
287.483116
 21
825.583878
 31
0.0
  0
TEXT
  8
LC-002-003-----0
  6
CONTINUOUS
 62
     6
  5
BA
 10
277.568001
 20
803.532254
 30
0.0
 40
18.0
  1
53
 50
90.0
 51
15.0
  7
LC-TXTSTYLE-150-400-0-0-D0
 72
     1
 11
277.568001
 21
815.395246
 31
0.0
  0
ENDBLK
  8
0
  5
BB
  0
BLOCK
  8
0
  5
BD
  2
BLK1
 70
    64
 10
0.0
 20
0.0
 30
0.0
  3
BLK1
  0
ENDBLK
  8
0
  5
BE
  0
BLOCK
  8
0
  5
C0
  2
*X7
 70
    65
 10
183.682347
 20
952.55
 30
0.0
  3
*X7
  0
LINE
  8
LC-007-005-----0
  6
CONTINUOUS
  5
C2
 10
188.874676
 20
952.55
 30
0.0
 11
189.110312
 21
952.785636
 31
0.0
  0
LINE
  8
LC-007-005-----0
  6
CONTINUOUS
  5
C3
 10
191.027379
 20
954.702702
 30
0.0
 11
195.529645
 21
959.204969
 31
0.0
  0
LINE
  8
LC-007-005-----0
  6
CONTINUOUS
  5
C4
 10
227.874676
 20
991.55
 30
0.0
 11
229.874676
 21
993.55
 31
0.0
  0
LINE
  8
LC-007-005-----0
  6
CONTINUOUS
  5
C5
 10
186.452403
 20
952.956153
 30
0.0
 11
190.240498
 21
956.744249
 31
0.0
  0
LINE
  8
LC-007-005-----0
  6
CONTINUOUS
  5
C6
 10
193.632156
 20
960.135907
 30
0.0
 11
196.078655
 21
962.582405
 31
0.0
  0
LINE
  8
LC-007-005-----0
  6
CONTINUOUS
  5
C7
 10
225.046249
 20
991.55
 30
0.0
 11
227.046249
 21
993.55
 31
0.0
  0
LINE
  8
LC-007-005-----0
  6
CONTINUOUS
  5
C8
 10
186.452403
 20
955.784581
 30
0.0
 11
187.217822
 21
956.55
 31
0.0
  0
LINE
  8
LC-007-005-----0
  6
CONTINUOUS
  5
C9
 10
194.204836
 20
963.537014
 30
0.0
 11
196.610422
 21
965.9426
 31
0.0
  0
LINE
  8
LC-007-005-----0
  6
CONTINUOUS
  5
CA
 10
222.217822
 20
991.55
 30
0.0
 11
224.217822
 21
993.55
 31
0.0
  0
LINE
  8
LC-007-005-----0
  6
CONTINUOUS
  5
CB
 10
194.736604
 20
966.897209
 30
0.0
 11
197.142189
 21
969.302794
 31
0.0
  0
LINE
  8
LC-007-005-----0
  6
CONTINUOUS
  5
CC
 10
219.389395
 20
991.55
 30
0.0
 11
221.389395
 21
993.55
 31
0.0
  0
LINE
  8
LC-007-005-----0
  6
CONTINUOUS
  5
CD
 10
195.268371
 20
970.257403
 30
0.0
 11
197.673956
 21
972.662988
 31
0.0
  0
LINE
  8
LC-007-005-----0
  6
CONTINUOUS
  5
CE
 10
216.560968
 20
991.55
 30
0.0
 11
218.560968
 21
993.55
 31
0.0
  0
LINE
  8
LC-007-005-----0
  6
CONTINUOUS
  5
CF
 10
195.800138
 20
973.617597
 30
0.0
 11
198.205723
 21
976.023182
 31
0.0
  0
LINE
  8
LC-007-005-----0
  6
CONTINUOUS
  5
D0
 10
213.561288
 20
991.378747
 30
0.0
 11
215.730166
 21
993.547626
 31
0.0
  0
LINE
  8
LC-007-005-----0
  6
CONTINUOUS
  5
D1
 10
196.334769
 20
976.980656
 30
0.0
 11
199.160678
 21
979.806564
 31
0.0
  0
LINE
  8
LC-007-005-----0
  6
CONTINUOUS
  5
D2
 10
209.781774
 20
990.42766
 30
0.0
 11
212.607682
 21
993.253568
 31
0.0
  0
LINE
  8
LC-007-005-----0
  6
CONTINUOUS
  5
D3
 10
197.445846
 20
980.920159
 30
0.0
 11
208.668178
 21
992.142492
 31
0.0
  0
ENDBLK
  8
0
  5
D4
  0
BLOCK
  8
0
  5
D6
  2
*X8
 70
    65
 10
178.381404
 20
843.55
 30
0.0
  3
*X8
  0
LINE
  8
LC-007-005-----0
  6
CONTINUOUS
  5
D7
 10
181.748449
 20
843.600396
 30
0.0
 11
182.381404
 21
844.233351
 31
0.0
  0
LINE
  8
LC-007-005-----0
  6
CONTINUOUS
  5
D8
 10
179.807642
 20
844.488016
 30
0.0
 11
181.232529
 21
845.912903
 31
0.0
  0
LINE
  8
LC-007-005-----0
  6
CONTINUOUS
  5
D9
 10
178.636256
 20
846.145057
 30
0.0
 11
180.381404
 21
847.890205
 31
0.0
  0
LINE
  8
LC-007-005-----0
  6
CONTINUOUS
  5
DA
 10
178.381404
 20
848.718633
 30
0.0
 11
180.381404
 21
850.718633
 31
0.0
  0
LINE
  8
LC-007-005-----0
  6
CONTINUOUS
  5
DB
 10
178.381404
 20
851.54706
 30
0.0
 11
180.381404
 21
853.54706
 31
0.0
  0
LINE
  8
LC-007-005-----0
  6
CONTINUOUS
  5
DC
 10
178.381404
 20
854.375487
 30
0.0
 11
180.381404
 21
856.375487
 31
0.0
  0
LINE
  8
LC-007-005-----0
  6
CONTINUOUS
  5
DD
 10
178.381404
 20
857.203914
 30
0.0
 11
180.381404
 21
859.203914
 31
0.0
  0
LINE
  8
LC-007-005-----0
  6
CONTINUOUS
  5
DE
 10
178.381404
 20
860.032341
 30
0.0
 11
180.381404
 21
862.032341
 31
0.0
  0
LINE
  8
LC-007-005-----0
  6
CONTINUOUS
  5
DF
 10
178.381404
 20
862.860768
 30
0.0
 11
180.381404
 21
864.860768
 31
0.0
  0
LINE
  8
LC-007-005-----0
  6
CONTINUOUS
  5
E0
 10
178.381404
 20
865.689195
 30
0.0
 11
180.381404
 21
867.689195
 31
0.0
  0
LINE
  8
LC-007-005-----0
  6
CONTINUOUS
  5
E1
 10
178.381404
 20
868.517622
 30
0.0
 11
180.696461
 21
870.832679
 31
0.0
  0
LINE
  8
LC-007-005-----0
  6
CONTINUOUS
  5
E2
 10
178.836347
 20
871.800993
 30
0.0
 11
181.301953
 21
874.266599
 31
0.0
  0
LINE
  8
LC-007-005-----0
  6
CONTINUOUS
  5
E3
 10
179.44184
 20
875.234913
 30
0.0
 11
181.907446
 21
877.700519
 31
0.0
  0
LINE
  8
LC-007-005-----0
  6
CONTINUOUS
  5
E4
 10
180.047333
 20
878.668833
 30
0.0
 11
182.512939
 21
881.134439
 31
0.0
  0
LINE
  8
LC-007-005-----0
  6
CONTINUOUS
  5
E5
 10
180.652825
 20
882.102752
 30
0.0
 11
183.118432
 21
884.568359
 31
0.0
  0
LINE
  8
LC-007-005-----0
  6
CONTINUOUS
  5
E6
 10
181.258318
 20
885.536672
 30
0.0
 11
183.723924
 21
888.002278
 31
0.0
  0
LINE
  8
LC-007-005-----0
  6
CONTINUOUS
  5
E7
 10
181.863811
 20
888.970592
 30
0.0
 11
184.329417
 21
891.436198
 31
0.0
  0
LINE
  8
LC-007-005-----0
  6
CONTINUOUS
  5
E8
 10
182.469304
 20
892.404512
 30
0.0
 11
184.93491
 21
894.870118
 31
0.0
  0
LINE
  8
LC-007-005-----0
  6
CONTINUOUS
  5
E9
 10
183.074796
 20
895.838432
 30
0.0
 11
185.540402
 21
898.304038
 31
0.0
  0
LINE
  8
LC-007-005-----0
  6
CONTINUOUS
  5
EA
 10
183.680289
 20
899.272352
 30
0.0
 11
186.145895
 21
901.737958
 31
0.0
  0
LINE
  8
LC-007-005-----0
  6
CONTINUOUS
  5
EB
 10
184.285782
 20
902.706271
 30
0.0
 11
186.751388
 21
905.171878
 31
0.0
  0
LINE
  8
LC-007-005-----0
  6
CONTINUOUS
  5
EC
 10
184.891275
 20
906.140191
 30
0.0
 11
187.356881
 21
908.605797
 31
0.0
  0
LINE
  8
LC-007-005-----0
  6
CONTINUOUS
  5
ED
 10
185.496767
 20
909.574111
 30
0.0
 11
187.962373
 21
912.039717
 31
0.0
  0
LINE
  8
LC-007-005-----0
  6
CONTINUOUS
  5
EE
 10
186.10226
 20
913.008031
 30
0.0
 11
188.567866
 21
915.473637
 31
0.0
  0
LINE
  8
LC-007-005-----0
  6
CONTINUOUS
  5
EF
 10
186.452403
 20
916.186601
 30
0.0
 11
188.815802
 21
918.55
 31
0.0
  0
ENDBLK
  8
0
  5
F0
  0
BLOCK
  8
0
  5
F2
  2
BLK2
 70
    64
 10
0.0
 20
0.0
 30
0.0
  3
BLK2
  0
ENDBLK
  8
0
  5
F3
  0
BLOCK
  8
0
  5
F5
  2
BLK3
 70
    64
 10
0.0
 20
0.0
 30
0.0
  3
BLK3
  0
ENDBLK
  8
0
  5
F6
  0
BLOCK
  8
0
  5
F8
  2
BLK4
 70
    64
 10
0.0
 20
0.0
 30
0.0
  3
BLK4
  0
ENDBLK
  8
0
  5
F9
  0
BLOCK
  8
0
  5
FB
  2
BLK5
 70
    64
 10
0.0
 20
0.0
 30
0.0
  3
BLK5
  0
ENDBLK
  8
0
  5
FC
  0
BLOCK
  8
0
  5
FE
  2
BLK6
 70
    64
 10
0.0
 20
0.0
 30
0.0
  3
BLK6
  0
ENDBLK
  8
0
  5
FF
  0
BLOCK
  8
0
  5
101
  2
BLK7
 70
    64
 10
0.0
 20
0.0
 30
0.0
  3
BLK7
  0
ENDBLK
  8
0
  5
102
  0
ENDSEC
  0
SECTION
  2
ENTITIES
  0
VIEWPORT
  8
LC-000
  5
1F0
 67
     1
 68
     1
 10
420.0
 20
297.0
 30
0.0
 40
840.0
 41
594.0
 69
     1
1001
ACAD
1000
MVIEW
1002
{
1070
    16
1010
0.0
1020
0.0
1030
0.0
1010
0.0
1020
0.0
1030
1.0
1040
0.0
1040
594.0
1040
420.0
1040
297.0
1040
50.0
1040
0.0
1040
0.0
1070
     0
1070
   100
1070
     1
1070
     1
1070
     0
1070
     0
1070
     0
1070
     0
1040
0.0
1040
0.0
1040
0.0
1040
1.0
1040
1.0
1040
0.0
1040
0.0
1070
     0
1002
{
1002
}
1002
}
  0
VIEWPORT
  8
0
  5
1F1
 67
     1
 68
     1
 10
0.0
 20
0.0
 30
0.0
 40
0.0
 41
0.0
 69
     1
1001
ACAD
1000
MVIEW
1002
{
1070
    16
1010
0.0
1020
0.0
1030
0.0
1010
0.0
1020
0.0
1030
1.0
1040
0.0
1040
594.0
1040
0.0
1040
0.0
1040
50.0
1040
0.0
1040
0.0
1070
     0
1070
   100
1070
     0
1070
     1
1070
     0
1070
     0
1070
     0
1070
     0
1040
0.0
1040
0.0
1040
0.0
1040
0.5
1040
0.5
1040
0.5
1040
0.5
1070
     0
1002
{
1002
}
1002
}
  0
DIMENSION
  8
0
  5
103
  2
*D0
 10
540.0
 20
911.798
 30
0.0
 11
540.0
 21
911.798
 31
0.0
 13
439.565663
 23
993.55
 33
0.0
 14
475.565663
 24
843.55
 34
0.0
 50
90.0
  3
LC-DIM-L-0090-02-02
  0
DIMENSION
  8
0
  5
104
  2
*D1
 10
400.021526
 20
1008.0
 30
0.0
 11
400.021526
 21
1008.0
 31
0.0
 13
383.565663
 23
938.961312
 33
0.0
 14
495.565663
 24
937.55
 34
0.0
  3
LC-DIM-L-0090-02-02
  0
DIMENSION
  8
0
  5
105
  2
*D2
 10
234.22325
 20
720.0
 30
0.0
 11
234.22325
 21
720.0
 31
0.0
 13
178.381404
 23
847.55
 33
0.0
 14
230.381404
 24
843.55
 34
0.0
  3
LC-DIM-L-0090-02-02
  0
DIMENSION
  8
0
  5
106
  2
*D3
 10
203.455342
 20
756.0
 30
0.0
 11
203.455342
 21
756.0
 31
0.0
  1
DN40
 13
183.455342
 23
794.05
 33
0.0
 14
223.455342
 24
794.05
 34
0.0
  3
LC-DIM-L-0090-02-02
  0
DIMENSION
  8
0
  5
107
  2
*D4
 10
324.0
 20
848.24
 30
0.0
 11
324.0
 21
848.24
 31
0.0
 13
230.381404
 23
935.55
 33
0.0
 14
222.517519
 24
790.55
 34
0.0
 50
90.0
  3
LC-DIM-L-0090-02-02
  0
DIMENSION
  8
0
  5
108
  2
*D5
 10
288.0
 20
812.6
 30
0.0
 11
288.0
 21
812.6
 31
0.0
 13
222.517519
 23
790.55
 33
0.0
 14
230.381404
 24
843.55
 34
0.0
 50
90.0
  3
LC-DIM-L-0090-02-02
  0
INSERT
  8
0
  5
10A
  2
BLK1
 10
0.0
 20
0.0
 30
0.0
  0
INSERT
  8
0
  5
10B
  2
*X7
 10
183.682347
 20
952.55
 30
0.0
  0
INSERT
  8
0
  5
10C
  2
*X8
 10
178.381404
 20
843.55
 30
0.0
  0
INSERT
  8
0
  5
10D
  2
BLK2
 10
0.0
 20
0.0
 30
0.0
  0
INSERT
  8
0
  5
10E
  2
BLK3
 10
0.0
 20
0.0
 30
0.0
  0
INSERT
  8
0
  5
10F
  2
BLK4
 10
0.0
 20
0.0
 30
0.0
  0
INSERT
  8
0
  5
111
  2
BLK5
 10
0.0
 20
0.0
 30
0.0
  0
INSERT
  8
0
  5
112
  2
BLK6
 10
0.0
 20
0.0
 30
0.0
  0
INSERT
  8
0
  5
113
  2
BLK7
 10
0.0
 20
0.0
 30
0.0
  0
LINE
  8
LC-001-002-----0
  5
116
 10
400.591593
 20
857.16407
 30
0.0
 11
397.565681
 21
935.511414
 31
0.0
  0
LINE
  8
LC-001-002-----0
  5
117
 10
419.565663
 20
843.55
 30
0.0
 11
419.565663
 21
847.55
 31
0.0
  0
LINE
  8
LC-001-002-----0
  5
118
 10
459.565663
 20
843.55
 30
0.0
 11
459.565663
 21
847.55
 31
0.0
  0
LINE
  8
LC-001-002-----0
  5
119
 10
410.584143
 20
847.55
 30
0.0
 11
465.030202
 21
847.55
 31
0.0
  0
ARC
  8
LC-001-002-----0
  5
11A
 10
410.584143
 20
857.55
 30
0.0
 40
10.0
 50
182.211764
 51
270.0
  0
LINE
  8
LC-001-002-----0
  6
CONTINUOUS
 62
     1
  5
11B
 10
430.315663
 20
928.717175
 30
0.0
 11
439.565663
 21
935.55
 31
0.0
  0
LINE
  8
LC-001-002-----0
  6
CONTINUOUS
 62
     1
  5
11C
 10
439.565663
 20
935.55
 30
0.0
 11
448.815663
 21
928.717175
 31
0.0
  0
LINE
  8
LC-001-002-----0
  6
CONTINUOUS
 62
     1
  5
11D
 10
420.503486
 20
790.55
 30
0.0
 11
458.627841
 21
790.55
 31
0.0
  0
LINE
  8
LC-001-002-----0
  6
CONTINUOUS
 62
     1
  5
11E
 10
183.455342
 20
794.05
 30
0.0
 11
223.455342
 21
794.05
 31
0.0
  0
LINE
  8
LC-001-002-----0
  6
CONTINUOUS
 62
     1
  5
11F
 10
184.393164
 20
790.55
 30
0.0
 11
222.517519
 21
790.55
 31
0.0
  0
LINE
  8
LC-001-002-----0
  6
CONTINUOUS
 62
     1
  5
120
 10
183.455342
 20
794.05
 30
0.0
 11
184.393164
 21
790.55
 31
0.0
  0
LINE
  8
LC-001-002-----0
  6
CONTINUOUS
 62
     1
  5
121
 10
459.565663
 20
843.55
 30
0.0
 11
459.565663
 21
794.05
 31
0.0
  0
LINE
  8
LC-001-002-----0
  6
CONTINUOUS
 62
     1
  5
122
 10
419.565663
 20
794.05
 30
0.0
 11
459.565663
 21
794.05
 31
0.0
  0
LINE
  8
LC-001-002-----0
  6
CONTINUOUS
 62
     1
  5
123
 10
419.565663
 20
794.05
 30
0.0
 11
420.503486
 21
790.55
 31
0.0
  0
LINE
  8
LC-001-002-----0
  6
DASHDOT
  5
125
 10
392.565663
 20
940.55
 30
0.0
 11
392.565663
 21
930.55
 31
0.0
  0
LINE
  8
LC-001-002-----0
  6
DASHDOT
  5
126
 10
486.565663
 20
940.55
 30
0.0
 11
486.565663
 21
930.55
 31
0.0
  0
LINE
  8
LC-001-002-----0
  6
DASHDOT
  5
127
 10
480.791742
 20
901.547201
 30
0.0
 11
480.791742
 21
891.547201
 31
0.0
  0
LINE
  8
LC-001-002-----0
  6
DASHDOT
  5
128
 10
485.791742
 20
896.547201
 30
0.0
 11
478.191742
 21
896.547201
 31
0.0
  0
LINE
  8
LC-001-002-----0
  6
DASHDOT
  5
129
 10
394.791742
 20
901.047201
 30
0.0
 11
394.791742
 21
891.047201
 31
0.0
  0
LINE
  8
LC-001-002-----0
  6
DASHDOT
  5
12A
 10
389.791742
 20
896.047201
 30
0.0
 11
399.961909
 21
896.047201
 31
0.0
  0
ARC
  8
LC-001-002-----0
  5
12B
 10
439.565663
 20
935.55
 30
0.0
 40
42.0
 50
359.831098
 51
26.765501
  0
LINE
  8
LC-001-002-----0
  5
12C
 10
471.191962
 20
851.940653
 30
0.0
 11
476.050063
 21
891.038394
 31
0.0
  0
ARC
  8
LC-001-002-----0
  5
12D
 10
466.229231
 20
852.55
 30
0.0
 40
5.0
 50
270.0
 51
353.0
  0
LINE
  8
LC-001-002-----0
  6
CONTINUOUS
 62
     1
  5
12E
 10
223.455342
 20
794.05
 30
0.0
 11
222.517519
 21
790.55
 31
0.0
  0
LINE
  8
LC-001-002-----0
  6
DASHDOT
  5
12F
 10
203.455342
 20
826.537376
 30
0.0
 11
203.455342
 21
790.55
 31
0.0
  0
LINE
  8
LC-001-002-----0
  6
CONTINUOUS
 62
     1
  5
130
 10
459.565663
 20
794.05
 30
0.0
 11
458.627841
 21
790.55
 31
0.0
  0
LINE
  8
LC-001-002-----0
  6
CONTINUOUS
 62
     1
  5
131
 10
419.565663
 20
843.55
 30
0.0
 11
419.565663
 21
794.05
 31
0.0
  0
CIRCLE
  8
LC-001-002-----0
  5
132
 10
392.565663
 20
935.55
 30
0.0
 40
2.6
  0
CIRCLE
  8
LC-001-002-----0
  5
133
 10
392.565663
 20
935.55
 30
0.0
 40
5.0
  0
CIRCLE
  8
LC-001-002-----0
  5
134
 10
486.565663
 20
935.55
 30
0.0
 40
2.6
  0
CIRCLE
  8
LC-001-002-----0
  5
135
 10
486.565663
 20
935.55
 30
0.0
 40
5.0
  0
CIRCLE
  8
LC-001-002-----0
  5
136
 10
394.791742
 20
896.047201
 30
0.0
 40
2.6
  0
ARC
  8
LC-001-002-----0
  5
137
 10
394.791742
 20
896.047201
 30
0.0
 40
5.0
 50
33.009186
 51
331.414343
  0
CIRCLE
  8
LC-001-002-----0
  5
138
 10
480.791742
 20
896.547201
 30
0.0
 40
2.6
  0
LINE
  8
LC-001-002-----0
  5
139
 10
476.050063
 20
891.038394
 30
0.0
 11
481.580634
 21
935.54814
 31
0.0
  0
ARC
  8
LC-001-002-----0
  5
13A
 10
480.791742
 20
896.547201
 30
0.0
 40
5.0
 50
221.822378
 51
136.550794
  0
ARC
  8
LC-001-002-----0
  5
13B
 10
439.565663
 20
935.55
 30
0.0
 40
42.0
 50
26.765501
 51
180.052638
  0
LINE
  8
LC-001-002-----0
  6
CONTINUOUS
 62
     1
  5
13C
 10
223.455342
 20
822.353517
 30
0.0
 11
223.455342
 21
812.522578
 31
0.0
  0
LINE
  8
LC-001-002-----0
  6
CONTINUOUS
 62
     1
  5
13D
 10
183.455342
 20
822.353517
 30
0.0
 11
183.455342
 21
812.459288
 31
0.0
  0
LINE
  8
LC-001-002-----0
  6
DASHDOT
  5
13E
 10
439.565663
 20
993.55
 30
0.0
 11
439.565663
 21
790.55
 31
0.0
  0
LINE
  8
LC-001-002-----0
  6
DASHDOT
  5
13F
 10
185.952403
 20
935.55
 30
0.0
 11
191.899323
 21
935.55
 31
0.0
  0
ARC
  8
LC-006-002-RND-0
  6
CONTINUOUS
  5
141
 10
403.565663
 20
863.55
 30
0.0
 40
20.0
 50
180.0
 51
270.0
  0
LINE
  8
LC-001-002-----0
  6
CONTINUOUS
 62
     1
  5
142
 10
495.565663
 20
937.55
 30
0.0
 11
495.565663
 21
863.55
 31
0.0
  0
ARC
  8
LC-006-002-RND-0
  6
CONTINUOUS
  5
143
 10
475.565663
 20
863.55
 30
0.0
 40
20.0
 50
270.0
 51
0.0
  0
LINE
  8
LC-001-002-----0
  6
CONTINUOUS
 62
     1
  5
144
 10
383.565663
 20
938.961312
 30
0.0
 11
383.565663
 21
863.55
 31
0.0
  0
LINE
  8
LC-001-002-----0
  6
DASHDOT
  5
145
 10
387.565663
 20
935.55
 30
0.0
 11
491.565663
 21
935.55
 31
0.0
  0
LINE
  8
LC-001-002-----0
  6
CONTINUOUS
 62
     1
  5
146
 10
475.565663
 20
843.55
 30
0.0
 11
403.565663
 21
843.55
 31
0.0
  0
LINE
  8
LC-001-002-----0
  6
CONTINUOUS
 62
     1
  5
147
 10
230.381404
 20
993.55
 30
0.0
 11
216.038338
 21
993.55
 31
0.0
  0
ARC
  8
LC-001-002-----0
  6
CONTINUOUS
 62
     1
  5
148
 10
439.565663
 20
937.55
 30
0.0
 40
56.0
 50
0.0
 51
180.0
  0
LINE
  8
LC-001-002-----0
  6
CONTINUOUS
 62
     1
  5
149
 10
230.381404
 20
993.55
 30
0.0
 11
230.381404
 21
843.55
 31
0.0
  0
LINE
  8
LC-001-002-----0
  6
CONTINUOUS
 62
     1
  5
14A
 10
230.381404
 20
843.55
 30
0.0
 11
223.455342
 21
843.55
 31
0.0
  0
LINE
  8
LC-001-002-----0
  6
CONTINUOUS
 62
     1
  5
14B
 10
178.381404
 20
869.220881
 30
0.0
 11
178.381404
 21
847.55
 31
0.0
  0
ARC
  8
LC-006-002-RND-0
  6
CONTINUOUS
  5
14C
 10
216.038338
 20
973.55
 30
0.0
 40
20.0
 50
90.0
 51
171.007242
  0
LINE
  8
LC-001-002-----0
  6
CONTINUOUS
 62
     1
  5
14D
 10
189.110312
 20
918.55
 30
0.0
 11
180.381404
 21
869.045903
 31
0.0
  0
LINE
  8
LC-001-002-----0
  6
CONTINUOUS
 62
     1
  5
14E
 10
186.452403
 20
914.993789
 30
0.0
 11
178.381404
 21
869.220881
 31
0.0
  0
LINE
  8
LC-001-002-----0
  6
CONTINUOUS
 62
     1
  5
14F
 10
230.381404
 20
991.55
 30
0.0
 11
216.038338
 21
991.55
 31
0.0
  0
LINE
  8
LC-001-002-----0
  6
CONTINUOUS
 62
     1
  5
150
 10
189.110312
 20
952.55
 30
0.0
 11
189.110312
 21
954.55
 31
0.0
  0
LINE
  8
LC-001-002-----0
  6
CONTINUOUS
 62
     1
  5
151
 10
230.381404
 20
845.55
 30
0.0
 11
223.455342
 21
845.55
 31
0.0
  0
LINE
  8
LC-001-002-----0
  6
CONTINUOUS
 62
     1
  5
152
 10
180.381404
 20
869.045903
 30
0.0
 11
180.381404
 21
847.55
 31
0.0
  0
ARC
  8
LC-006-002-RND-0
  6
CONTINUOUS
  5
153
 10
216.038338
 20
973.55
 30
0.0
 40
18.0
 50
90.0
 51
171.007242
  0
LINE
  8
LC-001-002-----0
  6
CONTINUOUS
 62
     1
  5
154
 10
182.381404
 20
845.55
 30
0.0
 11
182.381404
 21
843.55
 31
0.0
  0
ARC
  8
LC-006-002-RND-0
  6
CONTINUOUS
  5
155
 10
182.381404
 20
847.55
 30
0.0
 40
4.0
 50
180.0
 51
270.0
  0
ARC
  8
LC-006-002-RND-0
  6
CONTINUOUS
  5
156
 10
182.381404
 20
847.55
 30
0.0
 40
2.0
 50
180.0
 51
270.0
  0
LINE
  8
LC-001-002-----0
  6
CONTINUOUS
 62
     1
  5
157
 10
189.110312
 20
952.55
 30
0.0
 11
186.452403
 21
952.55
 31
0.0
  0
LINE
  8
LC-001-002-----0
  6
CONTINUOUS
 62
     1
  5
158
 10
189.110312
 20
956.55
 30
0.0
 11
186.452403
 21
956.55
 31
0.0
  0
LINE
  8
LC-001-002-----0
  6
CONTINUOUS
 62
     1
  5
159
 10
189.110312
 20
918.55
 30
0.0
 11
186.452403
 21
918.55
 31
0.0
  0
LINE
  8
LC-001-002-----0
  6
CONTINUOUS
 62
     1
  5
15A
 10
189.682347
 20
954.55
 30
0.0
 11
189.110312
 21
954.55
 31
0.0
  0
ARC
  8
LC-001-002-----0
  6
CONTINUOUS
 62
     1
  5
15B
 10
188.834043
 20
961.542362
 30
0.0
 40
5.0
 50
273.167416
 51
347.973443
  0
ARC
  8
LC-006-002-RND-0
  6
CONTINUOUS
  5
15C
 10
189.682347
 20
960.55
 30
0.0
 40
6.0
 50
270.0
 51
351.007242
  0
LINE
  8
LC-001-002-----0
  6
CONTINUOUS
 62
     1
  5
15D
 10
181.955342
 20
874.788915
 30
0.0
 11
199.357969
 21
973.48412
 31
0.0
  0
LINE
  8
LC-001-002-----0
  6
DASHDOT
  5
15E
 10
191.899323
 20
935.55
 30
0.0
 11
230.381404
 21
935.55
 31
0.0
  0
LINE
  8
LC-001-002-----0
  6
CONTINUOUS
 62
     1
  5
15F
 10
186.452403
 20
914.993789
 30
0.0
 11
186.452403
 21
918.55
 31
0.0
  0
LINE
  8
LC-001-002-----0
  6
CONTINUOUS
 62
     1
  5
160
 10
193.724299
 20
960.500537
 30
0.0
 11
196.284175
 21
976.676192
 31
0.0
  0
LINE
  8
LC-001-002-----0
  6
CONTINUOUS
 62
     1
  5
161
 10
195.608596
 20
959.612142
 30
0.0
 11
198.259592
 21
976.363573
 31
0.0
  0
LINE
  8
LC-001-002-----0
  6
CONTINUOUS
 62
     1
  5
162
 10
222.055342
 20
961.55
 30
0.0
 11
208.955342
 21
961.55
 31
0.0
  0
LINE
  8
LC-001-002-----0
  6
CONTINUOUS
 62
     1
  5
163
 10
222.055342
 20
965.55
 30
0.0
 11
208.955342
 21
965.55
 31
0.0
  0
LINE
  8
LC-001-002-----0
  6
CONTINUOUS
 62
     1
  5
164
 10
208.955342
 20
961.55
 30
0.0
 11
208.955342
 21
965.55
 31
0.0
  0
LINE
  8
LC-001-002-----0
  6
CONTINUOUS
 62
     1
  5
165
 10
222.055342
 20
961.55
 30
0.0
 11
222.055342
 21
965.55
 31
0.0
  0
LINE
  8
LC-001-002-----0
  6
CONTINUOUS
 62
     1
  5
166
 10
186.452403
 20
952.55
 30
0.0
 11
186.452403
 21
956.55
 31
0.0
  0
ARC
  8
LC-006-002-RND-0
  6
CONTINUOUS
  5
167
 10
201.819989
 20
973.05
 30
0.0
 40
2.5
 50
90.0
 51
170.0
  0
LINE
  8
LC-001-002-----0
  6
CONTINUOUS
 62
     1
  5
168
 10
168.952403
 20
948.55
 30
0.0
 11
168.952403
 21
922.55
 31
0.0
  0
LINE
  8
LC-001-002-----0
  6
CONTINUOUS
 62
     1
  5
169
 10
183.455342
 20
843.55
 30
0.0
 11
182.381404
 21
843.55
 31
0.0
  0
LINE
  8
LC-001-002-----0
  6
CONTINUOUS
 62
     1
  5
16A
 10
183.455342
 20
845.55
 30
0.0
 11
182.381404
 21
845.55
 31
0.0
  0
LINE
  8
LC-001-002-----0
  6
CONTINUOUS
 62
     1
  5
16B
 10
224.955342
 20
937.65
 30
0.0
 11
224.955342
 21
955.55
 31
0.0
  0
LINE
  8
LC-001-002-----0
  6
CONTINUOUS
 62
     1
  5
16C
 10
226.455342
 20
937.65
 30
0.0
 11
226.455342
 21
955.55
 31
0.0
  0
LINE
  8
LC-001-002-----0
  6
CONTINUOUS
 62
     1
  5
16D
 10
168.952403
 20
951.55
 30
0.0
 11
168.952403
 21
948.55
 31
0.0
  0
LINE
  8
LC-001-002-----0
  6
CONTINUOUS
 62
     1
  5
16E
 10
227.955342
 20
937.65
 30
0.0
 11
227.955342
 21
955.55
 31
0.0
  0
LINE
  8
LC-001-002-----0
  6
CONTINUOUS
 62
     1
  5
16F
 10
168.952403
 20
919.55
 30
0.0
 11
168.952403
 21
922.55
 31
0.0
  0
LINE
  8
LC-001-002-----0
  6
CONTINUOUS
 62
     1
  5
170
 10
185.952403
 20
955.55
 30
0.0
 11
185.952403
 21
915.55
 31
0.0
  0
LINE
  8
LC-001-002-----0
  6
CONTINUOUS
 62
     1
  5
171
 10
185.952403
 20
915.55
 30
0.0
 11
183.452403
 21
915.55
 31
0.0
  0
LINE
  8
LC-001-002-----0
  6
CONTINUOUS
 62
     1
  5
172
 10
183.452403
 20
915.55
 30
0.0
 11
183.452403
 21
955.55
 31
0.0
  0
LINE
  8
LC-001-002-----0
  6
CONTINUOUS
 62
     1
  5
173
 10
183.452403
 20
955.55
 30
0.0
 11
185.952403
 21
955.55
 31
0.0
  0
LINE
  8
LC-001-002-----0
  6
CONTINUOUS
 62
     1
  5
174
 10
183.452403
 20
954.55
 30
0.0
 11
173.452403
 21
954.55
 31
0.0
  0
LINE
  8
LC-001-002-----0
  6
CONTINUOUS
 62
     1
  5
175
 10
168.952403
 20
953.55
 30
0.0
 11
168.952403
 21
951.55
 31
0.0
  0
LINE
  8
LC-001-002-----0
  6
CONTINUOUS
 62
     1
  5
176
 10
183.452403
 20
916.55
 30
0.0
 11
173.452403
 21
916.55
 31
0.0
  0
LINE
  8
LC-001-002-----0
  6
CONTINUOUS
 62
     1
  5
177
 10
168.952403
 20
917.55
 30
0.0
 11
168.952403
 21
919.55
 31
0.0
  0
LINE
  8
LC-001-002-----0
  6
CONTINUOUS
 62
     1
  5
178
 10
173.452403
 20
954.55
 30
0.0
 11
173.452403
 21
950.05
 31
0.0
  0
LINE
  8
LC-001-002-----0
  6
CONTINUOUS
 62
     1
  5
179
 10
183.452403
 20
953.55
 30
0.0
 11
168.952403
 21
953.55
 31
0.0
  0
LINE
  8
LC-001-002-----0
  6
CONTINUOUS
 62
     1
  5
17A
 10
183.452403
 20
917.55
 30
0.0
 11
168.952403
 21
917.55
 31
0.0
  0
LINE
  8
LC-001-002-----0
  6
CONTINUOUS
 62
     1
  5
17B
 10
183.452403
 20
939.05
 30
0.0
 11
173.452403
 21
939.05
 31
0.0
  0
LINE
  8
LC-001-002-----0
  6
CONTINUOUS
 62
     1
  5
17C
 10
183.452403
 20
932.05
 30
0.0
 11
173.452403
 21
932.05
 31
0.0
  0
LINE
  8
LC-001-002-----0
  6
CONTINUOUS
 62
     1
  5
17D
 10
183.452403
 20
929.55
 30
0.0
 11
173.452403
 21
929.55
 31
0.0
  0
LINE
  8
LC-001-002-----0
  6
CONTINUOUS
 62
     1
  5
17E
 10
183.452403
 20
941.55
 30
0.0
 11
173.452403
 21
941.55
 31
0.0
  0
LINE
  8
LC-001-002-----0
  6
CONTINUOUS
 62
     1
  5
17F
 10
183.452403
 20
923.05
 30
0.0
 11
173.452403
 21
923.05
 31
0.0
  0
LINE
  8
LC-001-002-----0
  6
CONTINUOUS
 62
     1
  5
180
 10
183.452403
 20
948.05
 30
0.0
 11
173.452403
 21
948.05
 31
0.0
  0
LINE
  8
LC-001-002-----0
  6
CONTINUOUS
 62
     1
  5
181
 10
183.452403
 20
950.05
 30
0.0
 11
173.452403
 21
950.05
 31
0.0
  0
LINE
  8
LC-001-002-----0
  6
CONTINUOUS
 62
     1
  5
182
 10
183.452403
 20
921.05
 30
0.0
 11
173.452403
 21
921.05
 31
0.0
  0
LINE
  8
LC-001-002-----0
  6
CONTINUOUS
 62
     1
  5
183
 10
173.452403
 20
939.05
 30
0.0
 11
173.452403
 21
932.05
 31
0.0
  0
LINE
  8
LC-001-002-----0
  6
CONTINUOUS
 62
     1
  5
184
 10
173.452403
 20
948.05
 30
0.0
 11
173.452403
 21
941.55
 31
0.0
  0
LINE
  8
LC-001-002-----0
  6
CONTINUOUS
 62
     1
  5
185
 10
173.452403
 20
929.55
 30
0.0
 11
173.452403
 21
923.05
 31
0.0
  0
LINE
  8
LC-001-002-----0
  6
CONTINUOUS
 62
     1
  5
186
 10
173.452403
 20
921.05
 30
0.0
 11
173.452403
 21
916.55
 31
0.0
  0
LINE
  8
LC-001-002-----0
  6
CONTINUOUS
 62
     1
  5
187
 10
168.952403
 20
946.8
 30
0.0
 11
166.952403
 21
946.8
 31
0.0
  0
LINE
  8
LC-001-002-----0
  6
CONTINUOUS
 62
     1
  5
188
 10
166.952403
 20
946.8
 30
0.0
 11
166.952403
 21
924.3
 31
0.0
  0
LINE
  8
LC-001-002-----0
  6
CONTINUOUS
 62
     1
  5
189
 10
166.952403
 20
924.3
 30
0.0
 11
168.952403
 21
924.3
 31
0.0
  0
LINE
  8
LC-001-002-----0
  6
CONTINUOUS
 62
     1
  5
18A
 10
166.952403
 20
946.8
 30
0.0
 11
166.952403
 21
947.3
 31
0.0
  0
LINE
  8
LC-001-002-----0
  6
CONTINUOUS
 62
     1
  5
18B
 10
166.952403
 20
924.3
 30
0.0
 11
166.952403
 21
923.8
 31
0.0
  0
LINE
  8
LC-001-002-----0
  6
CONTINUOUS
 62
     1
  5
18C
 10
166.952403
 20
923.8
 30
0.0
 11
159.452403
 21
923.8
 31
0.0
  0
LINE
  8
LC-001-002-----0
  6
CONTINUOUS
 62
     1
  5
18D
 10
159.452403
 20
923.8
 30
0.0
 11
159.452403
 21
917.8
 31
0.0
  0
LINE
  8
LC-001-002-----0
  6
CONTINUOUS
 62
     1
  5
18E
 10
159.452403
 20
917.8
 30
0.0
 11
140.952403
 21
917.8
 31
0.0
  0
LINE
  8
LC-001-002-----0
  6
CONTINUOUS
 62
     1
  5
18F
 10
140.952403
 20
917.8
 30
0.0
 11
138.452403
 21
917.8
 31
0.0
  0
LINE
  8
LC-001-002-----0
  6
CONTINUOUS
 62
     1
  5
190
 10
159.452403
 20
917.8
 30
0.0
 11
161.952403
 21
917.8
 31
0.0
  0
LINE
  8
LC-001-002-----0
  6
CONTINUOUS
 62
     1
  5
191
 10
139.202403
 20
910.8
 30
0.0
 11
161.202403
 21
910.8
 31
0.0
  0
LINE
  8
LC-001-002-----0
  6
CONTINUOUS
 62
     1
  5
192
 10
139.702403
 20
903.8
 30
0.0
 11
160.702403
 21
903.8
 31
0.0
  0
LINE
  8
LC-001-002-----0
  6
CONTINUOUS
 62
     1
  5
193
 10
140.452403
 20
896.8
 30
0.0
 11
159.952403
 21
896.8
 31
0.0
  0
LINE
  8
LC-001-002-----0
  6
CONTINUOUS
 62
     1
  5
194
 10
141.202403
 20
889.8
 30
0.0
 11
159.202403
 21
889.8
 31
0.0
  0
LINE
  8
LC-001-002-----0
  6
CONTINUOUS
 62
     1
  5
195
 10
141.952403
 20
882.8
 30
0.0
 11
158.452403
 21
882.8
 31
0.0
  0
LINE
  8
LC-001-002-----0
  6
CONTINUOUS
 62
     1
  5
196
 10
159.202403
 20
889.8
 30
0.0
 11
158.452403
 21
882.8
 31
0.0
  0
LINE
  8
LC-001-002-----0
  6
CONTINUOUS
 62
     1
  5
197
 10
141.202403
 20
889.8
 30
0.0
 11
141.952403
 21
882.8
 31
0.0
  0
LINE
  8
LC-001-002-----0
  6
CONTINUOUS
 62
     1
  5
198
 10
161.952403
 20
917.8
 30
0.0
 11
159.702403
 21
910.8
 31
0.0
  0
LINE
  8
LC-001-002-----0
  6
CONTINUOUS
 62
     1
  5
199
 10
138.452403
 20
917.8
 30
0.0
 11
140.702403
 21
910.8
 31
0.0
  0
LINE
  8
LC-001-002-----0
  6
CONTINUOUS
 62
     1
  5
19A
 10
161.202403
 20
910.8
 30
0.0
 11
159.452403
 21
903.8
 31
0.0
  0
LINE
  8
LC-001-002-----0
  6
CONTINUOUS
 62
     1
  5
19B
 10
139.202403
 20
910.8
 30
0.0
 11
140.952403
 21
903.8
 31
0.0
  0
LINE
  8
LC-001-002-----0
  6
CONTINUOUS
 62
     1
  5
19C
 10
139.702403
 20
903.8
 30
0.0
 11
141.202403
 21
896.8
 31
0.0
  0
LINE
  8
LC-001-002-----0
  6
CONTINUOUS
 62
     1
  5
19D
 10
160.702403
 20
903.8
 30
0.0
 11
159.202403
 21
896.8
 31
0.0
  0
LINE
  8
LC-001-002-----0
  6
CONTINUOUS
 62
     1
  5
19E
 10
159.952403
 20
896.8
 30
0.0
 11
158.952403
 21
889.8
 31
0.0
  0
LINE
  8
LC-001-002-----0
  6
CONTINUOUS
 62
     1
  5
19F
 10
140.452403
 20
896.8
 30
0.0
 11
141.452403
 21
889.8
 31
0.0
  0
LINE
  8
LC-001-002-----0
  6
CONTINUOUS
 62
     1
  5
1A0
 10
140.952403
 20
932.3
 30
0.0
 11
140.952403
 21
917.8
 31
0.0
  0
ARC
  8
LC-001-002-----0
  6
CONTINUOUS
 62
     1
  5
1A1
 10
155.952403
 20
932.3
 30
0.0
 40
15.0
 50
90.000019
 51
180.0
  0
LINE
  8
LC-001-002-----0
  6
CONTINUOUS
 62
     1
  5
1A2
 10
166.952403
 20
947.3
 30
0.0
 11
155.952403
 21
947.3
 31
0.0
  0
LINE
  8
LC-001-002-----0
  6
DASHDOT
  5
1A3
 10
150.202403
 20
931.05
 30
0.0
 11
150.202403
 21
882.8
 31
0.0
  0
ARC
  8
LC-001-002-----0
  6
DASHDOT
  5
1A4
 10
154.702403
 20
931.05
 30
0.0
 40
4.5
 50
90.000019
 51
180.0
  0
LINE
  8
LC-001-002-----0
  6
DASHDOT
  5
1A5
 10
185.952403
 20
935.55
 30
0.0
 11
154.702403
 21
935.55
 31
0.0
  0
LINE
  8
LC-001-002-----0
  6
CONTINUOUS
  5
1A6
 10
159.452403
 20
923.8
 30
0.0
 11
140.952403
 21
932.3
 31
0.0
  0
LINE
  8
LC-001-002-----0
  6
CONTINUOUS
  5
1A7
 10
388.119072
 20
869.220881
 30
0.0
 11
491.855641
 21
869.220881
 31
0.0
  0
LINE
  8
LC-001-002-----0
  6
CONTINUOUS
 62
     1
  5
1A8
 10
183.455342
 20
794.05
 30
0.0
 11
183.455342
 21
849.758712
 31
0.0
  0
ARC
  8
LC-006-002-RND-0
  6
CONTINUOUS
  5
1A9
 10
184.455342
 20
852.05
 30
0.0
 40
2.5
 50
180.0
 51
270.0
  0
LINE
  8
LC-001-002-----0
  6
CONTINUOUS
 62
     1
  5
1AA
 10
221.955342
 20
930.55
 30
0.0
 11
221.955342
 21
940.55
 31
0.0
  0
LINE
  8
LC-001-002-----0
  6
CONTINUOUS
 62
     1
  5
1AB
 10
208.955342
 20
930.55
 30
0.0
 11
208.955342
 21
940.55
 31
0.0
  0
ARC
  8
LC-006-002-RND-0
  6
CONTINUOUS
  5
1AC
 10
184.455342
 20
874.55
 30
0.0
 40
2.5
 50
169.082115
 51
180.0
  0
LINE
  8
LC-001-002-----0
  6
CONTINUOUS
 62
     1
  5
1AD
 10
430.315663
 20
917.8
 30
0.0
 11
448.815663
 21
917.8
 31
0.0
  0
LINE
  8
LC-001-002-----0
  6
CONTINUOUS
 62
     1
  5
1AE
 10
208.955342
 20
930.55
 30
0.0
 11
221.955342
 21
930.55
 31
0.0
  0
LINE
  8
LC-001-002-----0
  6
CONTINUOUS
 62
     1
  5
1AF
 10
208.955342
 20
940.55
 30
0.0
 11
221.955342
 21
940.55
 31
0.0
  0
LINE
  8
LC-001-002-----0
  6
CONTINUOUS
 62
     1
  5
1B0
 10
208.955342
 20
955.55
 30
0.0
 11
208.955342
 21
958.05
 31
0.0
  0
LINE
  8
LC-001-002-----0
  6
CONTINUOUS
 62
     1
  5
1B1
 10
221.955342
 20
940.55
 30
0.0
 11
221.955342
 21
930.55
 31
0.0
  0
LINE
  8
LC-001-002-----0
  6
CONTINUOUS
 62
     1
  5
1B2
 10
222.055342
 20
955.55
 30
0.0
 11
208.955342
 21
955.55
 31
0.0
  0
LINE
  8
LC-001-002-----0
  6
CONTINUOUS
 62
     1
  5
1B3
 10
448.815663
 20
917.8
 30
0.0
 11
451.315663
 21
917.8
 31
0.0
  0
LINE
  8
LC-001-002-----0
  6
CONTINUOUS
 62
     1
  5
1B4
 10
430.315663
 20
917.8
 30
0.0
 11
427.815663
 21
917.8
 31
0.0
  0
LINE
  8
LC-001-002-----0
  6
CONTINUOUS
 62
     1
  5
1B5
 10
450.565663
 20
910.8
 30
0.0
 11
428.565663
 21
910.8
 31
0.0
  0
LINE
  8
LC-001-002-----0
  6
CONTINUOUS
 62
     1
  5
1B6
 10
450.065663
 20
903.8
 30
0.0
 11
429.065663
 21
903.8
 31
0.0
  0
LINE
  8
LC-001-002-----0
  6
CONTINUOUS
 62
     1
  5
1B7
 10
227.955342
 20
848.55
 30
0.0
 11
227.955342
 21
937.956719
 31
0.0
  0
LINE
  8
LC-001-002-----0
  6
CONTINUOUS
 62
     1
  5
1B8
 10
227.955342
 20
955.55
 30
0.0
 11
227.955342
 21
976.55
 31
0.0
  0
LINE
  8
LC-001-002-----0
  6
CONTINUOUS
 62
     1
  5
1B9
 10
226.455342
 20
847.55
 30
0.0
 11
226.455342
 21
938.31574
 31
0.0
  0
LINE
  8
LC-001-002-----0
  6
CONTINUOUS
 62
     1
  5
1BA
 10
226.455342
 20
955.55
 30
0.0
 11
226.455342
 21
977.55
 31
0.0
  0
LINE
  8
LC-001-002-----0
  6
CONTINUOUS
 62
     1
  5
1BB
 10
449.315663
 20
896.8
 30
0.0
 11
429.815663
 21
896.8
 31
0.0
  0
LINE
  8
LC-001-002-----0
  6
CONTINUOUS
 62
     1
  5
1BC
 10
229.955342
 20
851.41736
 30
0.0
 11
229.955342
 21
973.55
 31
0.0
  0
LINE
  8
LC-001-002-----0
  6
CONTINUOUS
 62
     1
  5
1BD
 10
448.565663
 20
889.8
 30
0.0
 11
430.565663
 21
889.8
 31
0.0
  0
LINE
  8
LC-001-002-----0
  6
CONTINUOUS
 62
     1
  5
1BE
 10
222.055342
 20
958.05
 30
0.0
 11
208.955342
 21
958.05
 31
0.0
  0
LINE
  8
LC-001-002-----0
  6
CONTINUOUS
 62
     1
  5
1BF
 10
224.955342
 20
848.55
 30
0.0
 11
224.955342
 21
937.65
 31
0.0
  0
LINE
  8
LC-001-002-----0
  6
CONTINUOUS
 62
     1
  5
1C0
 10
224.955342
 20
955.55
 30
0.0
 11
224.955342
 21
976.55
 31
0.0
  0
LINE
  8
LC-001-002-----0
  6
CONTINUOUS
 62
     1
  5
1C1
 10
223.455342
 20
849.55
 30
0.0
 11
223.455342
 21
794.05
 31
0.0
  0
LINE
  8
LC-001-002-----0
  6
CONTINUOUS
 62
     1
  5
1C2
 10
181.955342
 20
852.05
 30
0.0
 11
181.955342
 21
874.558137
 31
0.0
  0
LINE
  8
LC-001-002-----0
  6
DASHDOT
  5
1C3
 10
203.455342
 20
849.55
 30
0.0
 11
203.455342
 21
826.537376
 31
0.0
  0
LINE
  8
LC-001-002-----0
  6
CONTINUOUS
 62
     1
  5
1C4
 10
222.455342
 20
849.55
 30
0.0
 11
224.955342
 21
849.55
 31
0.0
  0
ARC
  8
LC-006-002-RND-0
  6
CONTINUOUS
  5
1C5
 10
225.955342
 20
848.55
 30
0.0
 40
1.0
 50
180.0
 51
270.0
  0
LINE
  8
LC-001-002-----0
  6
CONTINUOUS
 62
     1
  5
1C6
 10
226.955342
 20
847.55
 30
0.0
 11
225.955342
 21
847.55
 31
0.0
  0
ARC
  8
LC-006-002-RND-0
  6
CONTINUOUS
  5
1C7
 10
226.955342
 20
848.55
 30
0.0
 40
1.0
 50
270.0
 51
0.0
  0
ARC
  8
LC-006-002-RND-0
  6
CONTINUOUS
  5
1C8
 10
226.955342
 20
976.55
 30
0.0
 40
1.0
 50
0.0
 51
90.0
  0
ARC
  8
LC-006-002-RND-0
  6
CONTINUOUS
  5
1C9
 10
225.955342
 20
976.55
 30
0.0
 40
1.0
 50
90.0
 51
180.0
  0
LINE
  8
LC-001-002-----0
  6
CONTINUOUS
 62
     1
  5
1CA
 10
225.955342
 20
977.55
 30
0.0
 11
226.955342
 21
977.55
 31
0.0
  0
LINE
  8
LC-001-002-----0
  6
CONTINUOUS
 62
     1
  5
1CB
 10
222.455342
 20
849.55
 30
0.0
 11
184.455342
 21
849.55
 31
0.0
  0
LINE
  8
LC-001-002-----0
  6
CONTINUOUS
 62
     1
  5
1CC
 10
224.955342
 20
975.55
 30
0.0
 11
201.819989
 21
975.55
 31
0.0
  0
LINE
  8
LC-001-002-----0
  6
CONTINUOUS
 62
     1
  5
1CD
 10
447.815663
 20
882.8
 30
0.0
 11
431.315663
 21
882.8
 31
0.0
  0
LINE
  8
LC-001-002-----0
  6
CONTINUOUS
 62
     1
  5
1CE
 10
430.565663
 20
889.8
 30
0.0
 11
431.315663
 21
882.8
 31
0.0
  0
LINE
  8
LC-001-002-----0
  6
CONTINUOUS
 62
     1
  5
1CF
 10
448.565663
 20
889.8
 30
0.0
 11
447.815663
 21
882.8
 31
0.0
  0
LINE
  8
LC-001-002-----0
  6
CONTINUOUS
 62
     1
  5
1D0
 10
427.815663
 20
917.8
 30
0.0
 11
430.065663
 21
910.8
 31
0.0
  0
ARC
  8
LC-006-002-RND-0
  6
CONTINUOUS
  5
1D1
 10
227.955342
 20
851.55
 30
0.0
 40
2.0
 50
270.0
 51
0.0
  0
ARC
  8
LC-006-002-RND-0
  6
CONTINUOUS
  5
1D2
 10
227.955342
 20
973.55
 30
0.0
 40
2.0
 50
0.0
 51
90.0
  0
LINE
  8
LC-001-002-----0
  6
CONTINUOUS
 62
     1
  5
1D3
 10
222.055342
 20
955.55
 30
0.0
 11
222.055342
 21
958.05
 31
0.0
  0
LINE
  8
LC-001-002-----0
  6
CONTINUOUS
 62
     1
  5
1D4
 10
222.055342
 20
912.55
 30
0.0
 11
208.955342
 21
912.55
 31
0.0
  0
LINE
  8
LC-001-002-----0
  6
CONTINUOUS
 62
     1
  5
1D5
 10
222.055342
 20
915.05
 30
0.0
 11
208.955342
 21
915.05
 31
0.0
  0
LINE
  8
LC-001-002-----0
  6
CONTINUOUS
 62
     1
  5
1D6
 10
208.955342
 20
912.55
 30
0.0
 11
208.955342
 21
915.05
 31
0.0
  0
LINE
  8
LC-001-002-----0
  6
CONTINUOUS
 62
     1
  5
1D7
 10
222.055342
 20
912.55
 30
0.0
 11
222.055342
 21
915.05
 31
0.0
  0
LINE
  8
LC-001-002-----0
  6
CONTINUOUS
 62
     1
  5
1D8
 10
222.055342
 20
891.047201
 30
0.0
 11
222.055342
 21
901.047201
 31
0.0
  0
LINE
  8
LC-001-002-----0
  6
CONTINUOUS
 62
     1
  5
1D9
 10
208.955342
 20
891.047201
 30
0.0
 11
222.055342
 21
891.047201
 31
0.0
  0
LINE
  8
LC-001-002-----0
  6
CONTINUOUS
 62
     1
  5
1DA
 10
208.955342
 20
891.047201
 30
0.0
 11
208.955342
 21
901.047201
 31
0.0
  0
LINE
  8
LC-001-002-----0
  6
CONTINUOUS
 62
     1
  5
1DB
 10
208.955342
 20
901.047201
 30
0.0
 11
222.055342
 21
901.047201
 31
0.0
  0
LINE
  8
LC-001-002-----0
  6
DASHDOT
  5
1DC
 10
208.955342
 20
896.047201
 30
0.0
 11
222.055342
 21
896.047201
 31
0.0
  0
LINE
  8
LC-001-002-----0
  6
CONTINUOUS
 62
     1
  5
1DD
 10
451.315663
 20
917.8
 30
0.0
 11
449.065663
 21
910.8
 31
0.0
  0
LINE
  8
LC-001-002-----0
  6
CONTINUOUS
 62
     1
  5
1DE
 10
428.565663
 20
910.8
 30
0.0
 11
430.315663
 21
903.8
 31
0.0
  0
LINE
  8
LC-001-002-----0
  6
CONTINUOUS
 62
     1
  5
1DF
 10
450.565663
 20
910.8
 30
0.0
 11
448.815663
 21
903.8
 31
0.0
  0
LINE
  8
LC-001-002-----0
  6
CONTINUOUS
 62
     1
  5
1E0
 10
450.065663
 20
903.8
 30
0.0
 11
448.565663
 21
896.8
 31
0.0
  0
LINE
  8
LC-001-002-----0
  6
CONTINUOUS
 62
     1
  5
1E1
 10
429.065663
 20
903.8
 30
0.0
 11
430.565663
 21
896.8
 31
0.0
  0
LINE
  8
LC-001-002-----0
  6
CONTINUOUS
 62
     1
  5
1E2
 10
429.815663
 20
896.8
 30
0.0
 11
430.815663
 21
889.8
 31
0.0
  0
LINE
  8
LC-001-002-----0
  6
CONTINUOUS
 62
     1
  5
1E3
 10
449.315663
 20
896.8
 30
0.0
 11
448.315663
 21
889.8
 31
0.0
  0
LINE
  8
LC-001-002-----0
  6
CONTINUOUS
 62
     1
  5
1E4
 10
448.815663
 20
928.717175
 30
0.0
 11
448.815663
 21
917.8
 31
0.0
  0
ARC
  8
LC-001-002-----0
  6
CONTINUOUS
 62
     1
  5
1E5
 10
439.565663
 20
935.55
 30
0.0
 40
11.5
 50
323.547435
 51
216.452378
  0
LINE
  8
LC-001-002-----0
  6
CONTINUOUS
 62
     1
  5
1E6
 10
430.315663
 20
928.717175
 30
0.0
 11
430.315663
 21
917.8
 31
0.0
  0
ARC
  8
LC-001-002-----0
  6
CONTINUOUS
 62
     1
  5
1E7
 10
439.565663
 20
935.55
 30
0.0
 40
25.5
 50
292.850084
 51
247.149728
  0
ARC
  8
LC-001-002-----0
  6
CONTINUOUS
 62
     1
  5
1E8
 10
439.565663
 20
935.55
 30
0.0
 40
20.0
 50
297.525343
 51
242.45115
  0
ARC
  8
LC-001-002-----0
  6
CONTINUOUS
 62
     1
  5
1E9
 10
439.565663
 20
935.55
 30
0.0
 40
18.0
 50
300.923332
 51
239.07648
  0
LINE
  8
LC-001-002-----0
  6
CONTINUOUS
  5
1EA
 10
195.314065
 20
950.55
 30
0.0
 11
185.952403
 21
950.55
 31
0.0
  0
LINE
  8
LC-001-002-----0
  6
CONTINUOUS
  5
1EB
 10
190.024256
 20
920.55
 30
0.0
 11
185.952403
 21
920.55
 31
0.0
  0
LINE
  8
LC-001-002-----0
  6
CONTINUOUS
 62
     1
  5
1EC
 10
195.578556
 20
952.05
 30
0.0
 11
185.952403
 21
952.05
 31
0.0
  0
LINE
  8
LC-001-002-----0
  6
CONTINUOUS
 62
     1
  5
1ED
 10
189.759765
 20
919.05
 30
0.0
 11
185.952403
 21
919.05
 31
0.0
  0
LINE
  8
LC-001-002-----0
  6
CONTINUOUS
 62
     1
  5
1EE
 10
189.914333
 20
919.05
 30
0.0
 11
189.914333
 21
919.05
 31
0.0
  0
ENDSEC
  0
EOF
