  0
SECTION
  2
HEADER
  9
$ACADVER
  1
AC1009
  9
$INSBASE
 10
0.0
 20
0.0
 30
0.0
  9
$EXTMIN
 10
0.0
 20
0.0
 30
0.0
  9
$EXTMAX
 10
840.0
 20
594.0
 30
0.0
  9
$LIMMIN
 10
0.0
 20
0.0
  9
$LIMMAX
 10
840.0
 20
594.0
  9
$ORTHOMODE
 70
     0
  9
$REGENMODE
 70
     1
  9
$FILLMODE
 70
     1
  9
$QTEXTMODE
 70
     0
  9
$MIRRTEXT
 70
     1
  9
$DRAGMODE
 70
     2
  9
$LTSCALE
 40
2.0
  9
$OSMODE
 70
     0
  9
$ATTMODE
 70
     1
  9
$TEXTSIZE
 40
0.2
  9
$TRACEWID
 40
0.05
  9
$TEXTSTYLE
  7
STANDARD
  9
$CLAYER
  8
0
  9
$CELTYPE
  6
BYLAYER
  9
$CECOLOR
 62
     7
  9
$DIMSCALE
 40
2.0
  9
$DIMASZ
 40
3.5
  9
$DIMEXO
 40
0.0625
  9
$DIMDLI
 40
0.38
  9
$DIMRND
 40
0.0
  9
$DIMDLE
 40
0.0
  9
$DIMEXE
 40
0.18
  9
$DIMTP
 40
0.0
  9
$DIMTM
 40
0.0
  9
$DIMTXT
 40
3.5
  9
$DIMCEN
 40
0.09
  9
$DIMTSZ
 40
0.0
  9
$DIMTOL
 70
     0
  9
$DIMLIM
 70
     0
  9
$DIMTIH
 70
     1
  9
$DIMTOH
 70
     1
  9
$DIMSE1
 70
     0
  9
$DIMSE2
 70
     0
  9
$DIMTAD
 70
     1
  9
$DIMZIN
 70
     0
  9
$DIMBLK
  1

  9
$DIMASO
 70
     1
  9
$DIMSHO
 70
     1
  9
$DIMPOST
  1

  9
$DIMAPOST
  1

  9
$DIMALT
 70
     0
  9
$DIMALTD
 70
     2
  9
$DIMALTF
 40
25.4
  9
$DIMLFAC
 40
1.0
  9
$DIMTOFL
 70
     0
  9
$DIMTVP
 40
0.0
  9
$DIMTIX
 70
     0
  9
$DIMSOXD
 70
     0
  9
$DIMSAH
 70
     0
  9
$DIMBLK1
  1

  9
$DIMBLK2
  1

  9
$DIMSTYLE
  2
STANDARD
  9
$DIMCLRD
 70
     0
  9
$DIMCLRE
 70
     0
  9
$DIMCLRT
 70
     0
  9
$DIMTFAC
 40
1.0
  9
$DIMGAP
 40
0.09
  9
$LUNITS
 70
     2
  9
$LUPREC
 70
     2
  9
$AXISMODE
 70
     0
  9
$AXISUNIT
 10
0.0
 20
0.0
  9
$SKETCHINC
 40
0.1
  9
$FILLETRAD
 40
0.0
  9
$AUNITS
 70
     0
  9
$AUPREC
 70
     0
  9
$MENU
  1
acad
  9
$ELEVATION
 40
0.0
  9
$PELEVATION
 40
0.0
  9
$THICKNESS
 40
0.0
  9
$LIMCHECK
 70
     0
  9
$BLIPMODE
 70
     1
  9
$CHAMFERA
 40
0.0
  9
$CHAMFERB
 40
0.0
  9
$SKPOLY
 70
     0
  9
$TDCREATE
 40
0.000000000
  9
$TDUPDATE
 40
0.000000000
  9
$TDINDWG
 40
0.0000000000
  9
$TDUSRTIMER
 40
0.0000000000
  9
$USRTIMER
 70
     1
  9
$ANGBASE
 50
0.0
  9
$ANGDIR
 70
     0
  9
$PDMODE
 70
     0
  9
$PDSIZE
 40
0.0
  9
$PLINEWID
 40
0.0
  9
$COORDS
 70
     0
  9
$SPLFRAME
 70
     0
  9
$SPLINETYPE
 70
     6
  9
$SPLINESEGS
 70
     8
  9
$ATTDIA
 70
     0
  9
$ATTREQ
 70
     1
  9
$HANDLING
 70
     1
  9
$HANDSEED
  5
144
  9
$SURFTAB1
 70
     6
  9
$SURFTAB2
 70
     6
  9
$SURFTYPE
 70
     6
  9
$SURFU
 70
     6
  9
$SURFV
 70
     6
  9
$UCSNAME
  2

  9
$UCSORG
 10
0.0
 20
0.0
 30
0.0
  9
$UCSXDIR
 10
1.0
 20
0.0
 30
0.0
  9
$UCSYDIR
 10
0.0
 20
1.0
 30
0.0
  9
$PUCSNAME
  2

  9
$PUCSORG
 10
0.0
 20
0.0
 30
0.0
  9
$PUCSXDIR
 10
1.0
 20
0.0
 30
0.0
  9
$PUCSYDIR
 10
0.0
 20
1.0
 30
0.0
  9
$USERI1
 70
     0
  9
$USERI2
 70
     0
  9
$USERI3
 70
     0
  9
$USERI4
 70
     0
  9
$USERI5
 70
     0
  9
$USERR1
 40
0.0
  9
$USERR2
 40
0.0
  9
$USERR3
 40
0.0
  9
$USERR4
 40
0.0
  9
$USERR5
 40
0.0
  9
$WORLDVIEW
 70
     1
  9
$SHADEDGE
 70
     3
  9
$SHADEDIF
 70
    70
  9
$TILEMODE
 70
     1
  9
$MAXACTVP
 70
    16
  9
$PINSBASE
 10
0.0
 20
0.0
 30
0.0
  9
$PLIMCHECK
 70
     0
  9
$PEXTMIN
 10
1.000000E+20
 20
1.000000E+20
 30
1.000000E+20
  9
$PEXTMAX
 10
-1.000000E+20
 20
-1.000000E+20
 30
-1.000000E+20
  9
$PLIMMIN
 10
0.0
 20
0.0
  9
$PLIMMAX
 10
840.0
 20
594.0
  9
$UNITMODE
 70
     0
  9
$VISRETAIN
 70
     0
  9
$PLINEGEN
 70
     1
  9
$PSLTSCALE
 70
     0
  9
$TREEDEPTH
 70
  3020
  9
$DWGCODEPAGE
  3
dos850
  0
ENDSEC
  0
SECTION
  2
TABLES
  0
TABLE
  2
VPORT
 70
     1
  0
VPORT
  2
*ACTIVE
 70
     0
 10
0.0
 20
0.0
 11
1.0
 21
1.0
 12
420.0
 22
297.0
 13
0.0
 23
0.0
 14
1.0
 24
1.0
 15
0.0
 25
0.0
 16
0.0
 26
0.0
 36
1.0
 17
0.0
 27
0.0
 37
0.0
 40
594.0
 41
1.604229
 42
50.0
 43
0.0
 44
0.0
 50
0.0
 51
0.0
 71
     0
 72
   100
 73
     1
 74
     1
 75
     0
 76
     0
 77
     0
 78
     0
  0
ENDTAB
  0
TABLE
  2
LTYPE
 70
     2
  0
LTYPE
  2
CONTINUOUS
 70
    64
  3
Solid line
 72
    65
 73
     0
 40
0.0
  0
LTYPE
  2
DASHDOT
 70
    64
  3
__ . __ . __ . __ . __
 72
    65
 73
     4
 40
7.5
 49
5.0
 49
-1.25
 49
0.0
 49
-1.25
  0
ENDTAB
  0
TABLE
  2
LAYER
 70
     9
  0
LAYER
  2
0
 70
     0
 62
     7
  6
CONTINUOUS
  0
LAYER
  2
LC-INFO-1-2-MM-A3-0
 70
     1
 62
    -1
  6
CONTINUOUS
  0
LAYER
  2
LC-003-005-----0
 70
     0
 62
     2
  6
CONTINUOUS
  0
LAYER
  2
LC-005-003-MTH-0
 70
     0
 62
     2
  6
CONTINUOUS
  0
LAYER
  2
LC-004-003-----0
 70
     0
 62
     2
  6
CONTINUOUS
  0
LAYER
  2
LC-006-003-MTG-0
 70
     0
 62
     2
  6
CONTINUOUS
  0
LAYER
  2
LC-002-000-----0
 70
     0
 62
     7
  6
CONTINUOUS
  0
LAYER
  2
LC-001-002-----0
 70
     0
 62
     1
  6
CONTINUOUS
  0
LAYER
  2
LC-000
 70
     0
 62
     7
  6
CONTINUOUS
  0
ENDTAB
  0
TABLE
  2
STYLE
 70
     4
  0
STYLE
  2
STANDARD
 70
     0
 40
0.0
 41
1.0
 50
0.0
 71
     0
 42
0.0
  3
txt
  4

  0
STYLE
  2
LC-STANDARD
 70
    64
 40
0.0
 41
1.0
 50
0.0
 71
     0
 42
3.5
  3
MONOTXT
  4

  0
STYLE
  2
LC-TXTSTYLE-150-400-0-0-D2
 70
    64
 40
0.0
 41
1.0
 50
15.0
 71
     0
 42
3.5
  3
MONOTXT
  4

  0
STYLE
  2
LC-TXTSTYLE-150-400-0-0-D3
 70
    64
 40
0.0
 41
1.0
 50
15.0
 71
     0
 42
3.5
  3
LC-STANDARD
  4

  0
ENDTAB
  0
TABLE
  2
VIEW
 70
     0
  0
ENDTAB
  0
TABLE
  2
UCS
 70
     0
  0
ENDTAB
  0
TABLE
  2
APPID
 70
     1
  0
APPID
  2
ACAD
 70
     0
  0
ENDTAB
  0
TABLE
  2
DIMSTYLE
 70
     3
  0
DIMSTYLE
  2
STANDARD
 70
     0
  3

  4

  5

  6

  7

 40
1.0
 41
0.18
 42
0.0625
 43
0.38
 44
0.18
 45
0.0
 46
0.0
 47
0.0
 48
0.0
 71
     0
 72
     0
 73
     1
 74
     1
 75
     0
 76
     0
 77
     0
 78
     0
140
0.18
141
0.09
142
0.0
143
25.4
144
1.0
145
0.0
146
1.0
147
0.09
170
     0
171
     2
172
     0
173
     0
174
     0
175
     0
176
     0
177
     0
178
     0
  0
DIMSTYLE
  2
LC-STANDARD
 70
     0
  3

  4

  5

  6

  7

 40
1.0
 41
3.5
 42
0.0
 43
7.5
 44
1.8
 45
0.0
 46
0.0
 47
0.0
 48
0.0
 71
     0
 72
     0
 73
     0
 74
     0
 75
     0
 76
     0
 77
     1
 78
     8
140
3.5
141
0.0
142
0.0
143
25.4
144
1.0
145
0.0
146
0.71
147
1.5
170
     0
171
     2
172
     1
173
     0
174
     0
175
     0
176
     0
177
     0
178
     3
  0
DIMSTYLE
  2
LC-DIM-L-0090-02-02
 70
     0
  3

  4

  5

  6

  7

 40
2.0
 41
3.5
 42
0.0
 43
7.5
 44
1.8
 45
0.0
 46
0.0
 47
0.0
 48
0.0
 71
     0
 72
     0
 73
     0
 74
     0
 75
     0
 76
     0
 77
     1
 78
     8
140
9.0
141
0.0
142
0.0
143
25.4
144
1.0
145
0.0
146
0.71
147
1.5
170
     0
171
     2
172
     0
173
     0
174
     0
175
     0
176
     2
177
     2
178
     6
  0
ENDTAB
  0
ENDSEC
  0
SECTION
  2
BLOCKS
  0
BLOCK
  8
0
  5
23
  2
BLK1
 70
    64
 10
0.0
 20
0.0
 30
0.0
  3
BLK1
  0
ENDBLK
  8
0
  5
24
  0
BLOCK
  8
0
  5
26
  2
*X1
 70
    65
 10
301.3714
 20
411.015206
 30
0.0
  3
*X1
  0
LINE
  8
LC-003-005-----0
  6
CONTINUOUS
  5
28
 10
314.431766
 20
416.255143
 30
0.0
 11
314.813889
 21
416.637265
 31
0.0
  0
LINE
  8
LC-003-005-----0
  6
CONTINUOUS
  5
29
 10
304.949188
 20
411.015206
 30
0.0
 11
306.871401
 21
412.937418
 31
0.0
  0
LINE
  8
LC-003-005-----0
  6
CONTINUOUS
  5
2A
 10
310.795218
 20
416.861235
 30
0.0
 11
312.142598
 21
418.208615
 31
0.0
  0
LINE
  8
LC-003-005-----0
  6
CONTINUOUS
  5
2B
 10
302.871401
 20
413.180059
 30
0.0
 11
309.57795
 21
419.886608
 31
0.0
  0
LINE
  8
LC-003-005-----0
  6
CONTINUOUS
  5
2C
 10
302.871401
 20
417.422699
 30
0.0
 11
307.729324
 21
422.280623
 31
0.0
  0
LINE
  8
LC-003-005-----0
  6
CONTINUOUS
  5
2D
 10
302.871401
 20
421.66534
 30
0.0
 11
306.874334
 21
425.668273
 31
0.0
  0
LINE
  8
LC-003-005-----0
  6
CONTINUOUS
  5
2E
 10
315.221266
 20
434.015206
 30
0.0
 11
315.462053
 21
434.255992
 31
0.0
  0
LINE
  8
LC-003-005-----0
  6
CONTINUOUS
  5
2F
 10
302.871401
 20
425.907981
 30
0.0
 11
306.871401
 21
429.907981
 31
0.0
  0
LINE
  8
LC-003-005-----0
  6
CONTINUOUS
  5
30
 10
310.978626
 20
434.015206
 30
0.0
 11
312.790762
 21
435.827342
 31
0.0
  0
LINE
  8
LC-003-005-----0
  6
CONTINUOUS
  5
31
 10
302.871401
 20
430.150621
 30
0.0
 11
310.119471
 21
437.398692
 31
0.0
  0
LINE
  8
LC-003-005-----0
  6
CONTINUOUS
  5
32
 10
302.871401
 20
434.393262
 30
0.0
 11
307.448181
 21
438.970042
 31
0.0
  0
LINE
  8
LC-003-005-----0
  6
CONTINUOUS
  5
33
 10
301.3714
 20
437.135902
 30
0.0
 11
303.250704
 21
439.015206
 31
0.0
  0
ENDBLK
  8
0
  5
34
  0
BLOCK
  8
0
  5
36
  2
*X2
 70
    65
 10
349.871387
 20
411.015206
 30
0.0
  3
*X2
  0
LINE
  8
LC-003-005-----0
  6
CONTINUOUS
  5
37
 10
368.588799
 20
411.015206
 30
0.0
 11
369.871401
 21
412.297808
 31
0.0
  0
LINE
  8
LC-003-005-----0
  6
CONTINUOUS
  5
38
 10
365.871391
 20
412.540438
 30
0.0
 11
369.871401
 21
416.540448
 31
0.0
  0
LINE
  8
LC-003-005-----0
  6
CONTINUOUS
  5
39
 10
365.458949
 20
416.370637
 30
0.0
 11
369.871401
 21
420.783089
 31
0.0
  0
LINE
  8
LC-003-005-----0
  6
CONTINUOUS
  5
3A
 10
361.658745
 20
416.813074
 30
0.0
 11
369.871401
 21
425.02573
 31
0.0
  0
LINE
  8
LC-003-005-----0
  6
CONTINUOUS
  5
3B
 10
365.845558
 20
425.242528
 30
0.0
 11
369.871401
 21
429.26837
 31
0.0
  0
LINE
  8
LC-003-005-----0
  6
CONTINUOUS
  5
3C
 10
365.871392
 20
429.511002
 30
0.0
 11
369.871401
 21
433.511011
 31
0.0
  0
LINE
  8
LC-003-005-----0
  6
CONTINUOUS
  5
3D
 10
365.410312
 20
433.292563
 30
0.0
 11
371.132955
 21
439.015206
 31
0.0
  0
LINE
  8
LC-003-005-----0
  6
CONTINUOUS
  5
3E
 10
361.890281
 20
434.015172
 30
0.0
 11
366.890314
 21
439.015206
 31
0.0
  0
LINE
  8
LC-003-005-----0
  6
CONTINUOUS
  5
3F
 10
357.647645
 20
434.015178
 30
0.0
 11
358.756647
 21
435.12418
 31
0.0
  0
ENDBLK
  8
0
  5
40
  0
BLOCK
  8
0
  5
42
  2
*X3
 70
    65
 10
297.871402
 20
400.015206
 30
0.0
  3
*X3
  0
LINE
  8
LC-003-005-----0
  6
CONTINUOUS
  5
43
 10
297.871402
 20
402.164311
 30
0.0
 11
299.871402
 21
400.164311
 31
0.0
  0
LINE
  8
LC-003-005-----0
  6
CONTINUOUS
  5
44
 10
297.871402
 20
406.406952
 30
0.0
 11
299.871402
 21
404.406952
 31
0.0
  0
LINE
  8
LC-003-005-----0
  6
CONTINUOUS
  5
45
 10
297.871402
 20
410.649592
 30
0.0
 11
299.871402
 21
408.649592
 31
0.0
  0
LINE
  8
LC-003-005-----0
  6
CONTINUOUS
  5
46
 10
297.871402
 20
414.892233
 30
0.0
 11
299.871402
 21
412.892233
 31
0.0
  0
LINE
  8
LC-003-005-----0
  6
CONTINUOUS
  5
47
 10
297.871402
 20
419.134874
 30
0.0
 11
299.871402
 21
417.134874
 31
0.0
  0
LINE
  8
LC-003-005-----0
  6
CONTINUOUS
  5
48
 10
297.871402
 20
423.377514
 30
0.0
 11
299.871402
 21
421.377514
 31
0.0
  0
LINE
  8
LC-003-005-----0
  6
CONTINUOUS
  5
49
 10
297.871402
 20
427.620155
 30
0.0
 11
299.871402
 21
425.620155
 31
0.0
  0
LINE
  8
LC-003-005-----0
  6
CONTINUOUS
  5
4A
 10
297.871402
 20
431.862796
 30
0.0
 11
299.871402
 21
429.862796
 31
0.0
  0
LINE
  8
LC-003-005-----0
  6
CONTINUOUS
  5
4B
 10
297.871402
 20
436.105436
 30
0.0
 11
299.871402
 21
434.105436
 31
0.0
  0
LINE
  8
LC-003-005-----0
  6
CONTINUOUS
  5
4C
 10
297.871402
 20
440.348077
 30
0.0
 11
299.871402
 21
438.348077
 31
0.0
  0
LINE
  8
LC-003-005-----0
  6
CONTINUOUS
  5
4D
 10
300.946915
 20
441.515206
 30
0.0
 11
302.946915
 21
439.515206
 31
0.0
  0
LINE
  8
LC-003-005-----0
  6
CONTINUOUS
  5
4E
 10
305.189555
 20
441.515206
 30
0.0
 11
307.189555
 21
439.515206
 31
0.0
  0
LINE
  8
LC-003-005-----0
  6
CONTINUOUS
  5
4F
 10
309.432196
 20
441.515206
 30
0.0
 11
310.371404
 21
440.575998
 31
0.0
  0
ENDBLK
  8
0
  5
50
  0
BLOCK
  8
0
  5
52
  2
*X4
 70
    65
 10
362.371404
 20
400.015206
 30
0.0
  3
*X4
  0
LINE
  8
LC-003-005-----0
  6
CONTINUOUS
  5
53
 10
372.871402
 20
403.531843
 30
0.0
 11
374.871402
 21
401.531843
 31
0.0
  0
LINE
  8
LC-003-005-----0
  6
CONTINUOUS
  5
54
 10
372.871402
 20
407.774484
 30
0.0
 11
374.871402
 21
405.774484
 31
0.0
  0
LINE
  8
LC-003-005-----0
  6
CONTINUOUS
  5
55
 10
372.871402
 20
412.017125
 30
0.0
 11
374.871402
 21
410.017125
 31
0.0
  0
LINE
  8
LC-003-005-----0
  6
CONTINUOUS
  5
56
 10
372.871402
 20
416.259765
 30
0.0
 11
374.871402
 21
414.259765
 31
0.0
  0
LINE
  8
LC-003-005-----0
  6
CONTINUOUS
  5
57
 10
372.871402
 20
420.502406
 30
0.0
 11
374.871402
 21
418.502406
 31
0.0
  0
LINE
  8
LC-003-005-----0
  6
CONTINUOUS
  5
58
 10
372.871402
 20
424.745047
 30
0.0
 11
374.871402
 21
422.745047
 31
0.0
  0
LINE
  8
LC-003-005-----0
  6
CONTINUOUS
  5
59
 10
372.871402
 20
428.987687
 30
0.0
 11
374.871402
 21
426.987687
 31
0.0
  0
LINE
  8
LC-003-005-----0
  6
CONTINUOUS
  5
5A
 10
364.586525
 20
441.515206
 30
0.0
 11
366.586525
 21
439.515206
 31
0.0
  0
LINE
  8
LC-003-005-----0
  6
CONTINUOUS
  5
5B
 10
372.871402
 20
433.230328
 30
0.0
 11
374.871402
 21
431.230328
 31
0.0
  0
LINE
  8
LC-003-005-----0
  6
CONTINUOUS
  5
5C
 10
368.829166
 20
441.515206
 30
0.0
 11
370.829166
 21
439.515206
 31
0.0
  0
LINE
  8
LC-003-005-----0
  6
CONTINUOUS
  5
5D
 10
372.871402
 20
437.472969
 30
0.0
 11
374.871402
 21
435.472969
 31
0.0
  0
LINE
  8
LC-003-005-----0
  6
CONTINUOUS
  5
5E
 10
373.071806
 20
441.515206
 30
0.0
 11
374.871402
 21
439.715609
 31
0.0
  0
ENDBLK
  8
0
  5
5F
  0
BLOCK
  8
0
  5
61
  2
*X5
 70
    65
 10
300.37137
 20
294.015221
 30
0.0
  3
*X5
  0
LINE
  8
LC-003-005-----0
  6
CONTINUOUS
  5
62
 10
311.371308
 20
294.400745
 30
0.0
 11
313.371309
 21
296.400746
 31
0.0
  0
LINE
  8
LC-003-005-----0
  6
CONTINUOUS
  5
63
 10
311.371311
 20
298.643389
 30
0.0
 11
313.371312
 21
300.64339
 31
0.0
  0
LINE
  8
LC-003-005-----0
  6
CONTINUOUS
  5
64
 10
311.371313
 20
302.886032
 30
0.0
 11
313.371315
 21
304.886033
 31
0.0
  0
LINE
  8
LC-003-005-----0
  6
CONTINUOUS
  5
65
 10
311.371316
 20
307.128676
 30
0.0
 11
313.371318
 21
309.128677
 31
0.0
  0
LINE
  8
LC-003-005-----0
  6
CONTINUOUS
  5
66
 10
311.371319
 20
311.371319
 30
0.0
 11
313.37132
 21
313.37132
 31
0.0
  0
LINE
  8
LC-003-005-----0
  6
CONTINUOUS
  5
67
 10
311.371322
 20
315.613962
 30
0.0
 11
313.371323
 21
317.613964
 31
0.0
  0
LINE
  8
LC-003-005-----0
  6
CONTINUOUS
  5
68
 10
311.371325
 20
319.856606
 30
0.0
 11
313.371326
 21
321.856607
 31
0.0
  0
LINE
  8
LC-003-005-----0
  6
CONTINUOUS
  5
69
 10
311.371327
 20
324.099249
 30
0.0
 11
313.371329
 21
326.099251
 31
0.0
  0
LINE
  8
LC-003-005-----0
  6
CONTINUOUS
  5
6A
 10
311.37133
 20
328.341893
 30
0.0
 11
313.371331
 21
330.341894
 31
0.0
  0
LINE
  8
LC-003-005-----0
  6
CONTINUOUS
  5
6B
 10
311.371333
 20
332.584536
 30
0.0
 11
313.371334
 21
334.584538
 31
0.0
  0
LINE
  8
LC-003-005-----0
  6
CONTINUOUS
  5
6C
 10
311.371336
 20
336.82718
 30
0.0
 11
313.371337
 21
338.827181
 31
0.0
  0
LINE
  8
LC-003-005-----0
  6
CONTINUOUS
  5
6D
 10
311.371338
 20
341.069823
 30
0.0
 11
313.37134
 21
343.069825
 31
0.0
  0
LINE
  8
LC-003-005-----0
  6
CONTINUOUS
  5
6E
 10
311.371341
 20
345.312467
 30
0.0
 11
313.371343
 21
347.312468
 31
0.0
  0
LINE
  8
LC-003-005-----0
  6
CONTINUOUS
  5
6F
 10
311.371344
 20
349.55511
 30
0.0
 11
313.371345
 21
351.555111
 31
0.0
  0
LINE
  8
LC-003-005-----0
  6
CONTINUOUS
  5
70
 10
311.371347
 20
353.797754
 30
0.0
 11
313.371348
 21
355.797755
 31
0.0
  0
LINE
  8
LC-003-005-----0
  6
CONTINUOUS
  5
71
 10
311.37135
 20
358.040397
 30
0.0
 11
313.371351
 21
360.040398
 31
0.0
  0
LINE
  8
LC-003-005-----0
  6
CONTINUOUS
  5
72
 10
311.371352
 20
362.283041
 30
0.0
 11
313.371354
 21
364.283042
 31
0.0
  0
LINE
  8
LC-003-005-----0
  6
CONTINUOUS
  5
73
 10
311.371355
 20
366.525684
 30
0.0
 11
313.371356
 21
368.525685
 31
0.0
  0
LINE
  8
LC-003-005-----0
  6
CONTINUOUS
  5
74
 10
311.371358
 20
370.768327
 30
0.0
 11
313.371359
 21
372.768329
 31
0.0
  0
LINE
  8
LC-003-005-----0
  6
CONTINUOUS
  5
75
 10
311.371361
 20
375.010971
 30
0.0
 11
313.371362
 21
377.010972
 31
0.0
  0
LINE
  8
LC-003-005-----0
  6
CONTINUOUS
  5
76
 10
311.371363
 20
379.253614
 30
0.0
 11
313.371365
 21
381.253616
 31
0.0
  0
LINE
  8
LC-003-005-----0
  6
CONTINUOUS
  5
77
 10
311.371366
 20
383.496258
 30
0.0
 11
313.371367
 21
385.496259
 31
0.0
  0
LINE
  8
LC-003-005-----0
  6
CONTINUOUS
  5
78
 10
311.371369
 20
387.738901
 30
0.0
 11
313.37137
 21
389.738903
 31
0.0
  0
LINE
  8
LC-003-005-----0
  6
CONTINUOUS
  5
79
 10
309.888201
 20
390.498374
 30
0.0
 11
311.302415
 21
391.912588
 31
0.0
  0
LINE
  8
LC-003-005-----0
  6
CONTINUOUS
  5
7A
 10
307.766881
 20
392.619695
 30
0.0
 11
309.181094
 21
394.033908
 31
0.0
  0
LINE
  8
LC-003-005-----0
  6
CONTINUOUS
  5
7B
 10
305.64556
 20
394.741015
 30
0.0
 11
307.059774
 21
396.155228
 31
0.0
  0
LINE
  8
LC-003-005-----0
  6
CONTINUOUS
  5
7C
 10
303.52424
 20
396.862335
 30
0.0
 11
304.938454
 21
398.276549
 31
0.0
  0
LINE
  8
LC-003-005-----0
  6
CONTINUOUS
  5
7D
 10
301.40292
 20
398.983656
 30
0.0
 11
302.817133
 21
400.397869
 31
0.0
  0
LINE
  8
LC-003-005-----0
  6
CONTINUOUS
  5
7E
 10
300.37137
 20
402.194746
 30
0.0
 11
302.37137
 21
404.194746
 31
0.0
  0
LINE
  8
LC-003-005-----0
  6
CONTINUOUS
  5
7F
 10
300.37137
 20
406.437387
 30
0.0
 11
302.37137
 21
408.437387
 31
0.0
  0
LINE
  8
LC-003-005-----0
  6
CONTINUOUS
  5
80
 10
300.37137
 20
410.680028
 30
0.0
 11
302.37137
 21
412.680028
 31
0.0
  0
LINE
  8
LC-003-005-----0
  6
CONTINUOUS
  5
81
 10
300.37137
 20
414.922668
 30
0.0
 11
302.37137
 21
416.922668
 31
0.0
  0
LINE
  8
LC-003-005-----0
  6
CONTINUOUS
  5
82
 10
300.37137
 20
419.165309
 30
0.0
 11
302.37137
 21
421.165309
 31
0.0
  0
LINE
  8
LC-003-005-----0
  6
CONTINUOUS
  5
83
 10
300.37137
 20
423.40795
 30
0.0
 11
302.37137
 21
425.40795
 31
0.0
  0
LINE
  8
LC-003-005-----0
  6
CONTINUOUS
  5
84
 10
300.37137
 20
427.65059
 30
0.0
 11
302.37137
 21
429.65059
 31
0.0
  0
LINE
  8
LC-003-005-----0
  6
CONTINUOUS
  5
85
 10
300.37137
 20
431.893231
 30
0.0
 11
302.37137
 21
433.893231
 31
0.0
  0
ENDBLK
  8
0
  5
86
  0
BLOCK
  8
0
  5
88
  2
*X6
 70
    65
 10
359.371308
 20
294.015189
 30
0.0
  3
*X6
  0
LINE
  8
LC-003-005-----0
  6
CONTINUOUS
  5
89
 10
359.371309
 20
295.731698
 30
0.0
 11
361.37131
 21
297.7317
 31
0.0
  0
LINE
  8
LC-003-005-----0
  6
CONTINUOUS
  5
8A
 10
359.371312
 20
299.974342
 30
0.0
 11
361.371313
 21
301.974343
 31
0.0
  0
LINE
  8
LC-003-005-----0
  6
CONTINUOUS
  5
8B
 10
359.371314
 20
304.216985
 30
0.0
 11
361.371316
 21
306.216987
 31
0.0
  0
LINE
  8
LC-003-005-----0
  6
CONTINUOUS
  5
8C
 10
359.371317
 20
308.459629
 30
0.0
 11
361.371318
 21
310.45963
 31
0.0
  0
LINE
  8
LC-003-005-----0
  6
CONTINUOUS
  5
8D
 10
359.37132
 20
312.702272
 30
0.0
 11
361.371321
 21
314.702274
 31
0.0
  0
LINE
  8
LC-003-005-----0
  6
CONTINUOUS
  5
8E
 10
359.371323
 20
316.944916
 30
0.0
 11
361.371324
 21
318.944917
 31
0.0
  0
LINE
  8
LC-003-005-----0
  6
CONTINUOUS
  5
8F
 10
359.371325
 20
321.187559
 30
0.0
 11
361.371327
 21
323.187561
 31
0.0
  0
LINE
  8
LC-003-005-----0
  6
CONTINUOUS
  5
90
 10
359.371328
 20
325.430203
 30
0.0
 11
361.37133
 21
327.430204
 31
0.0
  0
LINE
  8
LC-003-005-----0
  6
CONTINUOUS
  5
91
 10
359.371331
 20
329.672846
 30
0.0
 11
361.371332
 21
331.672847
 31
0.0
  0
LINE
  8
LC-003-005-----0
  6
CONTINUOUS
  5
92
 10
359.371334
 20
333.91549
 30
0.0
 11
361.371335
 21
335.915491
 31
0.0
  0
LINE
  8
LC-003-005-----0
  6
CONTINUOUS
  5
93
 10
359.371337
 20
338.158133
 30
0.0
 11
361.371338
 21
340.158134
 31
0.0
  0
LINE
  8
LC-003-005-----0
  6
CONTINUOUS
  5
94
 10
359.371339
 20
342.400777
 30
0.0
 11
361.371341
 21
344.400778
 31
0.0
  0
LINE
  8
LC-003-005-----0
  6
CONTINUOUS
  5
95
 10
359.371342
 20
346.64342
 30
0.0
 11
361.371343
 21
348.643421
 31
0.0
  0
LINE
  8
LC-003-005-----0
  6
CONTINUOUS
  5
96
 10
359.371345
 20
350.886063
 30
0.0
 11
361.371346
 21
352.886065
 31
0.0
  0
LINE
  8
LC-003-005-----0
  6
CONTINUOUS
  5
97
 10
359.371348
 20
355.128707
 30
0.0
 11
361.371349
 21
357.128708
 31
0.0
  0
LINE
  8
LC-003-005-----0
  6
CONTINUOUS
  5
98
 10
359.37135
 20
359.37135
 30
0.0
 11
361.371352
 21
361.371352
 31
0.0
  0
LINE
  8
LC-003-005-----0
  6
CONTINUOUS
  5
99
 10
359.371353
 20
363.613994
 30
0.0
 11
361.371354
 21
365.613995
 31
0.0
  0
LINE
  8
LC-003-005-----0
  6
CONTINUOUS
  5
9A
 10
359.371356
 20
367.856637
 30
0.0
 11
361.371357
 21
369.856639
 31
0.0
  0
LINE
  8
LC-003-005-----0
  6
CONTINUOUS
  5
9B
 10
359.371359
 20
372.099281
 30
0.0
 11
361.37136
 21
374.099282
 31
0.0
  0
LINE
  8
LC-003-005-----0
  6
CONTINUOUS
  5
9C
 10
359.371361
 20
376.341924
 30
0.0
 11
361.371363
 21
378.341926
 31
0.0
  0
LINE
  8
LC-003-005-----0
  6
CONTINUOUS
  5
9D
 10
359.371364
 20
380.584568
 30
0.0
 11
361.371366
 21
382.584569
 31
0.0
  0
LINE
  8
LC-003-005-----0
  6
CONTINUOUS
  5
9E
 10
359.371367
 20
384.827211
 30
0.0
 11
361.371368
 21
386.827212
 31
0.0
  0
LINE
  8
LC-003-005-----0
  6
CONTINUOUS
  5
9F
 10
359.37137
 20
389.069855
 30
0.0
 11
372.37137
 21
402.069855
 31
0.0
  0
LINE
  8
LC-003-005-----0
  6
CONTINUOUS
  5
A0
 10
370.37137
 20
404.312495
 30
0.0
 11
372.37137
 21
406.312495
 31
0.0
  0
LINE
  8
LC-003-005-----0
  6
CONTINUOUS
  5
A1
 10
370.37137
 20
408.555136
 30
0.0
 11
372.37137
 21
410.555136
 31
0.0
  0
LINE
  8
LC-003-005-----0
  6
CONTINUOUS
  5
A2
 10
370.37137
 20
412.797777
 30
0.0
 11
372.37137
 21
414.797777
 31
0.0
  0
LINE
  8
LC-003-005-----0
  6
CONTINUOUS
  5
A3
 10
370.37137
 20
417.040417
 30
0.0
 11
372.37137
 21
419.040417
 31
0.0
  0
LINE
  8
LC-003-005-----0
  6
CONTINUOUS
  5
A4
 10
370.37137
 20
421.283058
 30
0.0
 11
372.37137
 21
423.283058
 31
0.0
  0
LINE
  8
LC-003-005-----0
  6
CONTINUOUS
  5
A5
 10
370.37137
 20
425.525699
 30
0.0
 11
372.37137
 21
427.525699
 31
0.0
  0
LINE
  8
LC-003-005-----0
  6
CONTINUOUS
  5
A6
 10
370.37137
 20
429.768339
 30
0.0
 11
372.37137
 21
431.768339
 31
0.0
  0
LINE
  8
LC-003-005-----0
  6
CONTINUOUS
  5
A7
 10
370.37137
 20
434.01098
 30
0.0
 11
372.37137
 21
436.01098
 31
0.0
  0
ENDBLK
  8
0
  5
A8
  0
BLOCK
  8
0
  5
AA
  2
*D7
 70
    65
 10
0.0
 20
0.0
 30
0.0
  3
*D7
  0
LINE
  8
LC-005-003-MTH-0
  6
CONTINUOUS
  5
AC
 10
311.371308
 20
294.015222
 30
0.0
 11
311.371308
 21
241.2
 31
0.0
  0
LINE
  8
LC-005-003-MTH-0
  6
CONTINUOUS
  5
AD
 10
361.371308
 20
294.015189
 30
0.0
 11
361.371308
 21
241.2
 31
0.0
  0
LINE
  8
LC-004-003-----0
  6
CONTINUOUS
  5
AF
 10
293.5253
 20
249.650529
 30
0.0
 11
311.371308
 21
252.0
 31
0.0
  0
LINE
  8
LC-004-003-----0
  6
CONTINUOUS
  5
B0
 10
311.371308
 20
252.0
 30
0.0
 11
293.5253
 21
254.349471
 31
0.0
  0
LINE
  8
LC-004-003-----0
  6
CONTINUOUS
  5
B1
 10
293.5253
 20
254.349471
 30
0.0
 11
293.5253
 21
249.650529
 31
0.0
  0
LINE
  8
LC-004-003-----0
  6
CONTINUOUS
  5
B2
 10
293.485262
 20
250.261391
 30
0.0
 11
306.691308
 21
252.0
 31
0.0
  0
LINE
  8
LC-004-003-----0
  6
CONTINUOUS
  5
B3
 10
306.691308
 20
252.0
 30
0.0
 11
293.485262
 21
253.738609
 31
0.0
  0
LINE
  8
LC-004-003-----0
  6
CONTINUOUS
  5
B4
 10
293.445224
 20
250.872254
 30
0.0
 11
302.011308
 21
252.0
 31
0.0
  0
LINE
  8
LC-004-003-----0
  6
CONTINUOUS
  5
B5
 10
302.011308
 20
252.0
 30
0.0
 11
293.445224
 21
253.127746
 31
0.0
  0
LINE
  8
LC-004-003-----0
  6
CONTINUOUS
  5
B6
 10
293.405186
 20
251.483116
 30
0.0
 11
297.331308
 21
252.0
 31
0.0
  0
LINE
  8
LC-004-003-----0
  6
CONTINUOUS
  5
B7
 10
297.331308
 20
252.0
 30
0.0
 11
293.405186
 21
252.516884
 31
0.0
  0
LINE
  8
LC-004-003-----0
  6
CONTINUOUS
  5
B8
 10
379.217315
 20
254.349471
 30
0.0
 11
361.371308
 21
252.0
 31
0.0
  0
LINE
  8
LC-004-003-----0
  6
CONTINUOUS
  5
B9
 10
361.371308
 20
252.0
 30
0.0
 11
379.217315
 21
249.650529
 31
0.0
  0
LINE
  8
LC-004-003-----0
  6
CONTINUOUS
  5
BA
 10
379.217315
 20
249.650529
 30
0.0
 11
379.217315
 21
254.349471
 31
0.0
  0
LINE
  8
LC-004-003-----0
  6
CONTINUOUS
  5
BB
 10
379.257353
 20
253.738609
 30
0.0
 11
366.051308
 21
252.0
 31
0.0
  0
LINE
  8
LC-004-003-----0
  6
CONTINUOUS
  5
BC
 10
366.051308
 20
252.0
 30
0.0
 11
379.257353
 21
250.261391
 31
0.0
  0
LINE
  8
LC-004-003-----0
  6
CONTINUOUS
  5
BD
 10
379.297391
 20
253.127746
 30
0.0
 11
370.731308
 21
252.0
 31
0.0
  0
LINE
  8
LC-004-003-----0
  6
CONTINUOUS
  5
BE
 10
370.731308
 20
252.0
 30
0.0
 11
379.297391
 21
250.872254
 31
0.0
  0
LINE
  8
LC-004-003-----0
  6
CONTINUOUS
  5
BF
 10
379.337429
 20
252.516884
 30
0.0
 11
375.411308
 21
252.0
 31
0.0
  0
LINE
  8
LC-004-003-----0
  6
CONTINUOUS
  5
C0
 10
375.411308
 20
252.0
 30
0.0
 11
379.337429
 21
251.483116
 31
0.0
  0
LINE
  8
LC-006-003-MTG-0
  6
CONTINUOUS
  5
C2
 10
286.171308
 20
252.0
 30
0.0
 11
451.773827
 21
252.0
 31
0.0
  0
TEXT
  8
LC-004-003-----0
  6
CONTINUOUS
 62
     6
  5
C4
 10
388.646553
 20
262.431999
 30
0.0
 40
18.0
  1
DN50
 41
0.9
 51
15.0
  7
LC-TXTSTYLE-150-400-0-0-D0
  0
ENDBLK
  8
0
  5
C5
  0
BLOCK
  8
0
  5
C7
  2
*D8
 70
    65
 10
0.0
 20
0.0
 30
0.0
  3
*D8
  0
LINE
  8
LC-005-003-MTH-0
  6
CONTINUOUS
  5
C8
 10
359.371308
 20
294.015191
 30
0.0
 11
478.8
 21
294.015191
 31
0.0
  0
LINE
  8
LC-005-003-MTH-0
  6
CONTINUOUS
  5
C9
 10
374.871402
 20
441.515206
 30
0.0
 11
478.8
 21
441.515206
 31
0.0
  0
LINE
  8
LC-006-003-MTG-0
  6
CONTINUOUS
  5
CA
 10
468.0
 20
294.015191
 30
0.0
 11
468.0
 21
441.515206
 31
0.0
  0
LINE
  8
LC-004-003-----0
  6
CONTINUOUS
  5
CB
 10
465.650529
 20
311.861198
 30
0.0
 11
468.0
 21
294.015191
 31
0.0
  0
LINE
  8
LC-004-003-----0
  6
CONTINUOUS
  5
CC
 10
468.0
 20
294.015191
 30
0.0
 11
470.349471
 21
311.861198
 31
0.0
  0
LINE
  8
LC-004-003-----0
  6
CONTINUOUS
  5
CD
 10
470.349471
 20
311.861198
 30
0.0
 11
465.650529
 21
311.861198
 31
0.0
  0
LINE
  8
LC-004-003-----0
  6
CONTINUOUS
  5
CE
 10
466.261391
 20
311.901236
 30
0.0
 11
468.0
 21
298.695191
 31
0.0
  0
LINE
  8
LC-004-003-----0
  6
CONTINUOUS
  5
CF
 10
468.0
 20
298.695191
 30
0.0
 11
469.738609
 21
311.901236
 31
0.0
  0
LINE
  8
LC-004-003-----0
  6
CONTINUOUS
  5
D0
 10
466.872254
 20
311.941274
 30
0.0
 11
468.0
 21
303.375191
 31
0.0
  0
LINE
  8
LC-004-003-----0
  6
CONTINUOUS
  5
D1
 10
468.0
 20
303.375191
 30
0.0
 11
469.127746
 21
311.941274
 31
0.0
  0
LINE
  8
LC-004-003-----0
  6
CONTINUOUS
  5
D2
 10
467.483116
 20
311.981312
 30
0.0
 11
468.0
 21
308.055191
 31
0.0
  0
LINE
  8
LC-004-003-----0
  6
CONTINUOUS
  5
D3
 10
468.0
 20
308.055191
 30
0.0
 11
468.516884
 21
311.981312
 31
0.0
  0
LINE
  8
LC-004-003-----0
  6
CONTINUOUS
  5
D4
 10
470.349471
 20
423.669198
 30
0.0
 11
468.0
 21
441.515206
 31
0.0
  0
LINE
  8
LC-004-003-----0
  6
CONTINUOUS
  5
D5
 10
468.0
 20
441.515206
 30
0.0
 11
465.650529
 21
423.669198
 31
0.0
  0
LINE
  8
LC-004-003-----0
  6
CONTINUOUS
  5
D6
 10
465.650529
 20
423.669198
 30
0.0
 11
470.349471
 21
423.669198
 31
0.0
  0
LINE
  8
LC-004-003-----0
  6
CONTINUOUS
  5
D7
 10
469.738609
 20
423.62916
 30
0.0
 11
468.0
 21
436.835206
 31
0.0
  0
LINE
  8
LC-004-003-----0
  6
CONTINUOUS
  5
D8
 10
468.0
 20
436.835206
 30
0.0
 11
466.261391
 21
423.62916
 31
0.0
  0
LINE
  8
LC-004-003-----0
  6
CONTINUOUS
  5
D9
 10
469.127746
 20
423.589122
 30
0.0
 11
468.0
 21
432.155206
 31
0.0
  0
LINE
  8
LC-004-003-----0
  6
CONTINUOUS
  5
DA
 10
468.0
 20
432.155206
 30
0.0
 11
466.872254
 21
423.589122
 31
0.0
  0
LINE
  8
LC-004-003-----0
  6
CONTINUOUS
  5
DB
 10
468.516884
 20
423.549084
 30
0.0
 11
468.0
 21
427.475206
 31
0.0
  0
LINE
  8
LC-004-003-----0
  6
CONTINUOUS
  5
DC
 10
468.0
 20
427.475206
 30
0.0
 11
467.483116
 21
423.549084
 31
0.0
  0
TEXT
  8
LC-004-003-----0
  6
CONTINUOUS
 62
     6
  5
DD
 10
457.568001
 20
339.141837
 30
0.0
 40
18.0
  1
146
 50
90.0
 51
15.0
  7
LC-TXTSTYLE-150-400-0-0-D0
 72
     1
 11
457.568001
 21
358.275695
 31
0.0
  0
ENDBLK
  8
0
  5
DE
  0
BLOCK
  8
0
  5
E0
  2
*D9
 70
    65
 10
0.0
 20
0.0
 30
0.0
  3
*D9
  0
LINE
  8
LC-005-003-MTH-0
  6
CONTINUOUS
  5
E1
 10
361.371308
 20
294.015189
 30
0.0
 11
416.8
 21
294.015189
 31
0.0
  0
LINE
  8
LC-005-003-MTH-0
  6
CONTINUOUS
  5
E2
 10
361.37137
 20
389.015206
 30
0.0
 11
416.8
 21
389.015206
 31
0.0
  0
LINE
  8
LC-006-003-MTG-0
  6
CONTINUOUS
  5
E3
 10
406.0
 20
294.015189
 30
0.0
 11
406.0
 21
389.015206
 31
0.0
  0
LINE
  8
LC-004-003-----0
  6
CONTINUOUS
  5
E4
 10
403.650529
 20
311.861197
 30
0.0
 11
406.0
 21
294.015189
 31
0.0
  0
LINE
  8
LC-004-003-----0
  6
CONTINUOUS
  5
E5
 10
406.0
 20
294.015189
 30
0.0
 11
408.349471
 21
311.861197
 31
0.0
  0
LINE
  8
LC-004-003-----0
  6
CONTINUOUS
  5
E6
 10
408.349471
 20
311.861197
 30
0.0
 11
403.650529
 21
311.861197
 31
0.0
  0
LINE
  8
LC-004-003-----0
  6
CONTINUOUS
  5
E7
 10
404.261391
 20
311.901235
 30
0.0
 11
406.0
 21
298.695189
 31
0.0
  0
LINE
  8
LC-004-003-----0
  6
CONTINUOUS
  5
E8
 10
406.0
 20
298.695189
 30
0.0
 11
407.738609
 21
311.901235
 31
0.0
  0
LINE
  8
LC-004-003-----0
  6
CONTINUOUS
  5
E9
 10
404.872254
 20
311.941273
 30
0.0
 11
406.0
 21
303.375189
 31
0.0
  0
LINE
  8
LC-004-003-----0
  6
CONTINUOUS
  5
EA
 10
406.0
 20
303.375189
 30
0.0
 11
407.127746
 21
311.941273
 31
0.0
  0
LINE
  8
LC-004-003-----0
  6
CONTINUOUS
  5
EB
 10
405.483116
 20
311.981311
 30
0.0
 11
406.0
 21
308.055189
 31
0.0
  0
LINE
  8
LC-004-003-----0
  6
CONTINUOUS
  5
EC
 10
406.0
 20
308.055189
 30
0.0
 11
406.516884
 21
311.981311
 31
0.0
  0
LINE
  8
LC-004-003-----0
  6
CONTINUOUS
  5
ED
 10
408.349471
 20
371.169198
 30
0.0
 11
406.0
 21
389.015206
 31
0.0
  0
LINE
  8
LC-004-003-----0
  6
CONTINUOUS
  5
EE
 10
406.0
 20
389.015206
 30
0.0
 11
403.650529
 21
371.169198
 31
0.0
  0
LINE
  8
LC-004-003-----0
  6
CONTINUOUS
  5
EF
 10
403.650529
 20
371.169198
 30
0.0
 11
408.349471
 21
371.169198
 31
0.0
  0
LINE
  8
LC-004-003-----0
  6
CONTINUOUS
  5
F0
 10
407.738609
 20
371.12916
 30
0.0
 11
406.0
 21
384.335206
 31
0.0
  0
LINE
  8
LC-004-003-----0
  6
CONTINUOUS
  5
F1
 10
406.0
 20
384.335206
 30
0.0
 11
404.261391
 21
371.12916
 31
0.0
  0
LINE
  8
LC-004-003-----0
  6
CONTINUOUS
  5
F2
 10
407.127746
 20
371.089122
 30
0.0
 11
406.0
 21
379.655206
 31
0.0
  0
LINE
  8
LC-004-003-----0
  6
CONTINUOUS
  5
F3
 10
406.0
 20
379.655206
 30
0.0
 11
404.872254
 21
371.089122
 31
0.0
  0
LINE
  8
LC-004-003-----0
  6
CONTINUOUS
  5
F4
 10
406.516884
 20
371.049084
 30
0.0
 11
406.0
 21
374.975206
 31
0.0
  0
LINE
  8
LC-004-003-----0
  6
CONTINUOUS
  5
F5
 10
406.0
 20
374.975206
 30
0.0
 11
405.483116
 21
371.049084
 31
0.0
  0
TEXT
  8
LC-004-003-----0
  6
CONTINUOUS
 62
     6
  5
F6
 10
395.568001
 20
332.447451
 30
0.0
 40
18.0
  1
95
 50
90.0
 51
15.0
  7
LC-TXTSTYLE-150-400-0-0-D0
 72
     1
 11
395.568001
 21
344.310443
 31
0.0
  0
ENDBLK
  8
0
  5
F7
  0
ENDSEC
  0
SECTION
  2
ENTITIES
  0
VIEWPORT
  8
LC-000
  5
13F
 67
     1
 68
     1
 10
420.0
 20
297.0
 30
0.0
 40
840.0
 41
594.0
 69
     1
1001
ACAD
1000
MVIEW
1002
{
1070
    16
1010
0.0
1020
0.0
1030
0.0
1010
0.0
1020
0.0
1030
1.0
1040
0.0
1040
594.0
1040
420.0
1040
297.0
1040
50.0
1040
0.0
1040
0.0
1070
     0
1070
   100
1070
     1
1070
     1
1070
     0
1070
     0
1070
     0
1070
     0
1040
0.0
1040
0.0
1040
0.0
1040
1.0
1040
1.0
1040
0.0
1040
0.0
1070
     0
1002
{
1002
}
1002
}
  0
VIEWPORT
  8
0
  5
140
 67
     1
 68
     1
 10
0.0
 20
0.0
 30
0.0
 40
0.0
 41
0.0
 69
     1
1001
ACAD
1000
MVIEW
1002
{
1070
    16
1010
0.0
1020
0.0
1030
0.0
1010
0.0
1020
0.0
1030
1.0
1040
0.0
1040
594.0
1040
0.0
1040
0.0
1040
50.0
1040
0.0
1040
0.0
1070
     0
1070
   100
1070
     0
1070
     1
1070
     0
1070
     0
1070
     0
1070
     0
1040
0.0
1040
0.0
1040
0.0
1040
0.5
1040
0.5
1040
0.5
1040
0.5
1070
     0
1002
{
1002
}
1002
}
  0
INSERT
  8
0
  5
F9
  2
BLK1
 10
0.0
 20
0.0
 30
0.0
  0
INSERT
  8
0
  5
FA
  2
*X1
 10
301.3714
 20
411.015206
 30
0.0
  0
INSERT
  8
0
  5
FB
  2
*X2
 10
349.871387
 20
411.015206
 30
0.0
  0
INSERT
  8
0
  5
FC
  2
*X3
 10
297.871402
 20
400.015206
 30
0.0
  0
INSERT
  8
0
  5
FD
  2
*X4
 10
362.371404
 20
400.015206
 30
0.0
  0
INSERT
  8
0
  5
FE
  2
*X5
 10
300.37137
 20
294.015221
 30
0.0
  0
INSERT
  8
0
  5
FF
  2
*X6
 10
359.371308
 20
294.015189
 30
0.0
  0
DIMENSION
  8
0
  5
100
  2
*D7
 10
391.347544
 20
252.0
 30
0.0
 11
391.347544
 21
252.0
 31
0.0
  1
DN50
 13
311.371308
 23
294.015222
 33
0.0
 14
361.371308
 24
294.015189
 34
0.0
  3
LC-DIM-L-0090-02-02
  0
DIMENSION
  8
0
  5
101
  2
*D8
 10
468.0
 20
355.48045
 30
0.0
 11
468.0
 21
355.48045
 31
0.0
  1
146
 13
359.371308
 23
294.015191
 33
0.0
 14
374.871402
 24
441.515206
 34
0.0
 50
90.0
  3
LC-DIM-L-0090-02-02
  0
DIMENSION
  8
0
  5
102
  2
*D9
 10
406.0
 20
341.515197
 30
0.0
 11
406.0
 21
341.515197
 31
0.0
 13
361.37137
 23
389.015206
 33
0.0
 14
361.371308
 24
294.015189
 34
0.0
 50
90.0
  3
LC-DIM-L-0090-02-02
  0
LINE
  8
LC-001-002-----0
  6
CONTINUOUS
  5
104
 10
311.371308
 20
294.015222
 30
0.0
 11
361.371308
 21
294.015189
 31
0.0
  0
LINE
  8
LC-001-002-----0
  6
CONTINUOUS
  5
105
 10
361.371308
 20
294.015189
 30
0.0
 11
361.37137
 21
389.015206
 31
0.0
  0
LINE
  8
LC-001-002-----0
  6
DASHDOT
 62
     2
  5
107
 10
336.371308
 20
294.015206
 30
0.0
 11
336.371404
 21
441.515206
 31
0.0
  0
LINE
  8
LC-001-002-----0
  6
CONTINUOUS
  5
108
 10
311.37137
 20
389.015206
 30
0.0
 11
311.371308
 21
294.015222
 31
0.0
  0
LINE
  8
LC-001-002-----0
  6
CONTINUOUS
  5
109
 10
313.37137
 20
389.843632
 30
0.0
 11
313.371308
 21
294.015221
 31
0.0
  0
LINE
  8
LC-001-002-----0
  6
CONTINUOUS
  5
10A
 10
359.371308
 20
294.015191
 30
0.0
 11
359.37137
 21
389.843633
 31
0.0
  0
LINE
  8
LC-001-002-----0
  6
CONTINUOUS
  5
10B
 10
372.37137
 20
436.015206
 30
0.0
 11
370.37137
 21
436.015206
 31
0.0
  0
LINE
  8
LC-001-002-----0
  6
CONTINUOUS
  5
10C
 10
300.37137
 20
436.015206
 30
0.0
 11
300.37137
 21
400.015206
 31
0.0
  0
LINE
  8
LC-001-002-----0
  6
CONTINUOUS
  5
10D
 10
372.37137
 20
436.015206
 30
0.0
 11
372.37137
 21
400.015206
 31
0.0
  0
LINE
  8
LC-001-002-----0
  6
CONTINUOUS
  5
10E
 10
300.37137
 20
400.015206
 30
0.0
 11
311.37137
 21
389.015206
 31
0.0
  0
LINE
  8
LC-001-002-----0
  6
CONTINUOUS
  5
10F
 10
361.37137
 20
389.015206
 30
0.0
 11
372.37137
 21
400.015206
 31
0.0
  0
LINE
  8
LC-001-002-----0
  6
CONTINUOUS
  5
110
 10
302.37137
 20
436.015206
 30
0.0
 11
302.37137
 21
400.843633
 31
0.0
  0
LINE
  8
LC-001-002-----0
  6
CONTINUOUS
  5
111
 10
370.37137
 20
436.015206
 30
0.0
 11
370.37137
 21
400.843633
 31
0.0
  0
LINE
  8
LC-001-002-----0
  6
CONTINUOUS
  5
112
 10
359.37137
 20
389.843633
 30
0.0
 11
370.37137
 21
400.843633
 31
0.0
  0
LINE
  8
LC-001-002-----0
  6
CONTINUOUS
  5
113
 10
302.37137
 20
400.843633
 30
0.0
 11
313.37137
 21
389.843632
 31
0.0
  0
LINE
  8
LC-001-002-----0
  6
CONTINUOUS
  5
114
 10
302.37137
 20
400.843633
 30
0.0
 11
370.37137
 21
400.843633
 31
0.0
  0
LINE
  8
LC-001-002-----0
  6
CONTINUOUS
  5
115
 10
313.37137
 20
389.843632
 30
0.0
 11
359.37137
 21
389.843632
 31
0.0
  0
LINE
  8
LC-001-002-----0
  6
CONTINUOUS
  5
116
 10
371.3714
 20
436.515206
 30
0.0
 11
371.3714
 21
439.015206
 31
0.0
  0
LINE
  8
LC-001-002-----0
  6
CONTINUOUS
  5
117
 10
371.3714
 20
439.015206
 30
0.0
 11
301.3714
 21
439.015206
 31
0.0
  0
LINE
  8
LC-001-002-----0
  6
CONTINUOUS
  5
118
 10
301.3714
 20
439.015206
 30
0.0
 11
301.3714
 21
436.515206
 31
0.0
  0
LINE
  8
LC-001-002-----0
  6
CONTINUOUS
  5
119
 10
301.3714
 20
436.515206
 30
0.0
 11
302.871401
 21
436.515206
 31
0.0
  0
LINE
  8
LC-001-002-----0
  6
CONTINUOUS
  5
11A
 10
369.871401
 20
436.515206
 30
0.0
 11
369.871401
 21
411.015206
 31
0.0
  0
LINE
  8
LC-001-002-----0
  6
CONTINUOUS
  5
11B
 10
369.871401
 20
411.015206
 30
0.0
 11
302.871401
 21
411.015206
 31
0.0
  0
LINE
  8
LC-001-002-----0
  6
CONTINUOUS
  5
11C
 10
302.871401
 20
411.015206
 30
0.0
 11
302.871401
 21
436.515206
 31
0.0
  0
LINE
  8
LC-001-002-----0
  6
CONTINUOUS
  5
11D
 10
302.37137
 20
436.015206
 30
0.0
 11
300.37137
 21
436.015206
 31
0.0
  0
LINE
  8
LC-001-002-----0
  6
CONTINUOUS
  5
11E
 10
365.871401
 20
411.015206
 30
0.0
 11
365.871401
 21
415.154248
 31
0.0
  0
LINE
  8
LC-001-002-----0
  6
CONTINUOUS
  5
11F
 10
356.871388
 20
416.015206
 30
0.0
 11
315.871388
 21
416.015206
 31
0.0
  0
LINE
  8
LC-001-002-----0
  6
CONTINUOUS
  5
120
 10
356.871388
 20
416.015206
 30
0.0
 11
363.54257
 21
417.127068
 31
0.0
  0
LINE
  8
LC-001-002-----0
  6
CONTINUOUS
  5
121
 10
356.871388
 20
434.015206
 30
0.0
 11
315.871388
 21
434.015206
 31
0.0
  0
LINE
  8
LC-001-002-----0
  6
CONTINUOUS
  5
122
 10
365.371402
 20
439.015206
 30
0.0
 11
315.871388
 21
439.015206
 31
0.0
  0
LINE
  8
LC-001-002-----0
  6
CONTINUOUS
  5
123
 10
307.371402
 20
439.015206
 30
0.0
 11
315.871388
 21
434.015206
 31
0.0
  0
LINE
  8
LC-001-002-----0
  6
CONTINUOUS
  5
124
 10
365.371402
 20
439.015206
 30
0.0
 11
356.871388
 21
434.015206
 31
0.0
  0
LINE
  8
LC-001-002-----0
  6
CONTINUOUS
  5
125
 10
369.871401
 20
436.515206
 30
0.0
 11
371.3714
 21
436.515206
 31
0.0
  0
LINE
  8
LC-001-002-----0
  6
CONTINUOUS
  5
126
 10
361.927532
 20
418.989403
 30
0.0
 11
356.871388
 21
416.015206
 31
0.0
  0
ARC
  8
LC-001-002-----0
  6
CONTINUOUS
  5
127
 10
314.871401
 20
425.884889
 30
0.0
 40
8.0
 50
180.0
 51
239.534262
  0
LINE
  8
LC-001-002-----0
  6
CONTINUOUS
  5
128
 10
310.815235
 20
418.989419
 30
0.0
 11
315.871388
 21
416.015206
 31
0.0
  0
LINE
  8
LC-001-002-----0
  6
CONTINUOUS
  5
129
 10
309.200199
 20
417.127072
 30
0.0
 11
315.871388
 21
416.015206
 31
0.0
  0
ARC
  8
LC-001-002-----0
  6
CONTINUOUS
  5
12A
 10
308.871401
 20
415.154284
 30
0.0
 40
2.0
 50
80.537665
 51
179.999848
  0
LINE
  8
LC-001-002-----0
  6
CONTINUOUS
  5
12B
 10
306.871401
 20
411.015206
 30
0.0
 11
306.871401
 21
415.154284
 31
0.0
  0
LINE
  8
LC-001-002-----0
  6
CONTINUOUS
  5
12C
 10
306.871401
 20
425.884889
 30
0.0
 11
306.871401
 21
432.015206
 31
0.0
  0
ARC
  8
LC-001-002-----0
  6
CONTINUOUS
  5
12D
 10
308.871401
 20
432.015206
 30
0.0
 40
2.0
 50
89.999981
 51
180.0
  0
LINE
  8
LC-001-002-----0
  6
CONTINUOUS
  5
12E
 10
308.871401
 20
434.015206
 30
0.0
 11
315.871388
 21
434.015206
 31
0.0
  0
LINE
  8
LC-001-002-----0
  6
CONTINUOUS
  5
12F
 10
365.871387
 20
425.884851
 30
0.0
 11
365.871395
 21
432.015167
 31
0.0
  0
ARC
  8
LC-001-002-----0
  6
CONTINUOUS
  5
130
 10
363.871395
 20
432.01517
 30
0.0
 40
2.0
 50
359.999925
 51
89.99985
  0
LINE
  8
LC-001-002-----0
  6
CONTINUOUS
  5
131
 10
363.871398
 20
434.01517
 30
0.0
 11
356.87141
 21
434.015179
 31
0.0
  0
ARC
  8
LC-001-002-----0
  6
CONTINUOUS
  5
132
 10
357.871387
 20
425.884861
 30
0.0
 40
8.0
 50
300.46557
 51
359.999925
  0
ARC
  8
LC-001-002-----0
  6
CONTINUOUS
  5
133
 10
363.871373
 20
415.154248
 30
0.0
 40
2.0
 50
0.000058
 51
99.46226
  0
LINE
  8
LC-001-002-----0
  6
CONTINUOUS
  5
134
 10
372.871402
 20
439.515206
 30
0.0
 11
372.871402
 21
400.015206
 31
0.0
  0
LINE
  8
LC-001-002-----0
  6
CONTINUOUS
  5
135
 10
372.871402
 20
400.015206
 30
0.0
 11
374.871402
 21
400.015206
 31
0.0
  0
LINE
  8
LC-001-002-----0
  6
CONTINUOUS
  5
136
 10
374.871402
 20
400.015206
 30
0.0
 11
374.871402
 21
441.515206
 31
0.0
  0
LINE
  8
LC-001-002-----0
  6
CONTINUOUS
  5
137
 10
374.871402
 20
441.515206
 30
0.0
 11
297.871402
 21
441.515206
 31
0.0
  0
LINE
  8
LC-001-002-----0
  6
CONTINUOUS
  5
138
 10
297.871402
 20
441.515206
 30
0.0
 11
297.871402
 21
400.015206
 31
0.0
  0
LINE
  8
LC-001-002-----0
  6
CONTINUOUS
  5
139
 10
297.871402
 20
400.015206
 30
0.0
 11
299.871402
 21
400.015206
 31
0.0
  0
LINE
  8
LC-001-002-----0
  6
CONTINUOUS
  5
13A
 10
299.871402
 20
400.015206
 30
0.0
 11
299.871402
 21
439.515206
 31
0.0
  0
LINE
  8
LC-001-002-----0
  6
CONTINUOUS
  5
13B
 10
299.871402
 20
439.515206
 30
0.0
 11
372.871402
 21
439.515206
 31
0.0
  0
LINE
  8
LC-001-002-----0
  6
CONTINUOUS
  5
13C
 10
362.371404
 20
441.515206
 30
0.0
 11
362.371404
 21
439.515206
 31
0.0
  0
LINE
  8
LC-001-002-----0
  6
CONTINUOUS
  5
13D
 10
310.371404
 20
441.515206
 30
0.0
 11
310.371404
 21
439.515206
 31
0.0
  0
ENDSEC
  0
EOF
