  0
SECTION
  2
HEADER
  9
$ACADVER
  1
AC1009
  9
$INSBASE
 10
0.0
 20
0.0
 30
0.0
  9
$EXTMIN
 10
0.0
 20
0.0
 30
0.0
  9
$EXTMAX
 10
840.0
 20
594.0
 30
0.0
  9
$LIMMIN
 10
0.0
 20
0.0
  9
$LIMMAX
 10
840.0
 20
594.0
  9
$ORTHOMODE
 70
     0
  9
$REGENMODE
 70
     1
  9
$FILLMODE
 70
     1
  9
$QTEXTMODE
 70
     0
  9
$MIRRTEXT
 70
     1
  9
$DRAGMODE
 70
     2
  9
$LTSCALE
 40
2.0
  9
$OSMODE
 70
     0
  9
$ATTMODE
 70
     1
  9
$TEXTSIZE
 40
0.2
  9
$TRACEWID
 40
0.05
  9
$TEXTSTYLE
  7
STANDARD
  9
$CLAYER
  8
0
  9
$CELTYPE
  6
BYLAYER
  9
$CECOLOR
 62
     7
  9
$DIMSCALE
 40
2.0
  9
$DIMASZ
 40
3.5
  9
$DIMEXO
 40
0.0625
  9
$DIMDLI
 40
0.38
  9
$DIMRND
 40
0.0
  9
$DIMDLE
 40
0.0
  9
$DIMEXE
 40
0.18
  9
$DIMTP
 40
0.0
  9
$DIMTM
 40
0.0
  9
$DIMTXT
 40
3.5
  9
$DIMCEN
 40
0.09
  9
$DIMTSZ
 40
0.0
  9
$DIMTOL
 70
     0
  9
$DIMLIM
 70
     0
  9
$DIMTIH
 70
     1
  9
$DIMTOH
 70
     1
  9
$DIMSE1
 70
     0
  9
$DIMSE2
 70
     0
  9
$DIMTAD
 70
     1
  9
$DIMZIN
 70
     0
  9
$DIMBLK
  1

  9
$DIMASO
 70
     1
  9
$DIMSHO
 70
     1
  9
$DIMPOST
  1

  9
$DIMAPOST
  1

  9
$DIMALT
 70
     0
  9
$DIMALTD
 70
     2
  9
$DIMALTF
 40
25.4
  9
$DIMLFAC
 40
1.0
  9
$DIMTOFL
 70
     0
  9
$DIMTVP
 40
0.0
  9
$DIMTIX
 70
     0
  9
$DIMSOXD
 70
     0
  9
$DIMSAH
 70
     0
  9
$DIMBLK1
  1

  9
$DIMBLK2
  1

  9
$DIMSTYLE
  2
STANDARD
  9
$DIMCLRD
 70
     0
  9
$DIMCLRE
 70
     0
  9
$DIMCLRT
 70
     0
  9
$DIMTFAC
 40
1.0
  9
$DIMGAP
 40
0.09
  9
$LUNITS
 70
     2
  9
$LUPREC
 70
     2
  9
$AXISMODE
 70
     0
  9
$AXISUNIT
 10
0.0
 20
0.0
  9
$SKETCHINC
 40
0.1
  9
$FILLETRAD
 40
0.0
  9
$AUNITS
 70
     0
  9
$AUPREC
 70
     0
  9
$MENU
  1
acad
  9
$ELEVATION
 40
0.0
  9
$PELEVATION
 40
0.0
  9
$THICKNESS
 40
0.0
  9
$LIMCHECK
 70
     0
  9
$BLIPMODE
 70
     1
  9
$CHAMFERA
 40
0.0
  9
$CHAMFERB
 40
0.0
  9
$SKPOLY
 70
     0
  9
$TDCREATE
 40
0.000000000
  9
$TDUPDATE
 40
0.000000000
  9
$TDINDWG
 40
0.0000000000
  9
$TDUSRTIMER
 40
0.0000000000
  9
$USRTIMER
 70
     1
  9
$ANGBASE
 50
0.0
  9
$ANGDIR
 70
     0
  9
$PDMODE
 70
     0
  9
$PDSIZE
 40
0.0
  9
$PLINEWID
 40
0.0
  9
$COORDS
 70
     0
  9
$SPLFRAME
 70
     0
  9
$SPLINETYPE
 70
     6
  9
$SPLINESEGS
 70
     8
  9
$ATTDIA
 70
     0
  9
$ATTREQ
 70
     1
  9
$HANDLING
 70
     1
  9
$HANDSEED
  5
2F7
  9
$SURFTAB1
 70
     6
  9
$SURFTAB2
 70
     6
  9
$SURFTYPE
 70
     6
  9
$SURFU
 70
     6
  9
$SURFV
 70
     6
  9
$UCSNAME
  2

  9
$UCSORG
 10
0.0
 20
0.0
 30
0.0
  9
$UCSXDIR
 10
1.0
 20
0.0
 30
0.0
  9
$UCSYDIR
 10
0.0
 20
1.0
 30
0.0
  9
$PUCSNAME
  2

  9
$PUCSORG
 10
0.0
 20
0.0
 30
0.0
  9
$PUCSXDIR
 10
1.0
 20
0.0
 30
0.0
  9
$PUCSYDIR
 10
0.0
 20
1.0
 30
0.0
  9
$USERI1
 70
     0
  9
$USERI2
 70
     0
  9
$USERI3
 70
     0
  9
$USERI4
 70
     0
  9
$USERI5
 70
     0
  9
$USERR1
 40
0.0
  9
$USERR2
 40
0.0
  9
$USERR3
 40
0.0
  9
$USERR4
 40
0.0
  9
$USERR5
 40
0.0
  9
$WORLDVIEW
 70
     1
  9
$SHADEDGE
 70
     3
  9
$SHADEDIF
 70
    70
  9
$TILEMODE
 70
     1
  9
$MAXACTVP
 70
    16
  9
$PINSBASE
 10
0.0
 20
0.0
 30
0.0
  9
$PLIMCHECK
 70
     0
  9
$PEXTMIN
 10
1.000000E+20
 20
1.000000E+20
 30
1.000000E+20
  9
$PEXTMAX
 10
-1.000000E+20
 20
-1.000000E+20
 30
-1.000000E+20
  9
$PLIMMIN
 10
0.0
 20
0.0
  9
$PLIMMAX
 10
840.0
 20
594.0
  9
$UNITMODE
 70
     0
  9
$VISRETAIN
 70
     0
  9
$PLINEGEN
 70
     1
  9
$PSLTSCALE
 70
     0
  9
$TREEDEPTH
 70
  3020
  9
$DWGCODEPAGE
  3
dos850
  0
ENDSEC
  0
SECTION
  2
TABLES
  0
TABLE
  2
VPORT
 70
     1
  0
VPORT
  2
*ACTIVE
 70
     0
 10
0.0
 20
0.0
 11
1.0
 21
1.0
 12
420.0
 22
297.0
 13
0.0
 23
0.0
 14
1.0
 24
1.0
 15
0.0
 25
0.0
 16
0.0
 26
0.0
 36
1.0
 17
0.0
 27
0.0
 37
0.0
 40
594.0
 41
1.604229
 42
50.0
 43
0.0
 44
0.0
 50
0.0
 51
0.0
 71
     0
 72
   100
 73
     1
 74
     1
 75
     0
 76
     0
 77
     0
 78
     0
  0
ENDTAB
  0
TABLE
  2
LTYPE
 70
     2
  0
LTYPE
  2
CONTINUOUS
 70
    64
  3
Solid line
 72
    65
 73
     0
 40
0.0
  0
LTYPE
  2
DASHDOT
 70
    64
  3
__ . __ . __ . __ . __
 72
    65
 73
     4
 40
7.5
 49
5.0
 49
-1.25
 49
0.0
 49
-1.25
  0
ENDTAB
  0
TABLE
  2
LAYER
 70
    11
  0
LAYER
  2
0
 70
     0
 62
     7
  6
CONTINUOUS
  0
LAYER
  2
LC-INFO-1-2-MM-A3-0
 70
     1
 62
    -1
  6
CONTINUOUS
  0
LAYER
  2
LC-003-005-----0
 70
     0
 62
     2
  6
CONTINUOUS
  0
LAYER
  2
LC-005-003-MTH-0
 70
     0
 62
     2
  6
CONTINUOUS
  0
LAYER
  2
LC-004-003-----0
 70
     0
 62
     2
  6
CONTINUOUS
  0
LAYER
  2
LC-006-003-MTG-0
 70
     0
 62
     2
  6
CONTINUOUS
  0
LAYER
  2
LC-008-000-----0
 70
     0
 62
     7
  6
CONTINUOUS
  0
LAYER
  2
LC-001-002-----0
 70
     0
 62
     2
  6
DASHDOT
  0
LAYER
  2
LC-002-002-RND-0
 70
     0
 62
     1
  6
CONTINUOUS
  0
LAYER
  2
LC-007-001-----0
 70
     0
 62
     1
  6
CONTINUOUS
  0
LAYER
  2
LC-000
 70
     0
 62
     7
  6
CONTINUOUS
  0
ENDTAB
  0
TABLE
  2
STYLE
 70
     4
  0
STYLE
  2
STANDARD
 70
     0
 40
0.0
 41
1.0
 50
0.0
 71
     0
 42
0.0
  3
txt
  4

  0
STYLE
  2
LC-STANDARD
 70
    64
 40
0.0
 41
1.0
 50
0.0
 71
     0
 42
3.5
  3
MONOTXT
  4

  0
STYLE
  2
LC-TXTSTYLE-150-400-0-0-D2
 70
    64
 40
0.0
 41
1.0
 50
15.0
 71
     0
 42
3.5
  3
MONOTXT
  4

  0
STYLE
  2
LC-TXTSTYLE-150-400-0-0-D3
 70
    64
 40
0.0
 41
1.0
 50
15.0
 71
     0
 42
3.5
  3
LC-STANDARD
  4

  0
ENDTAB
  0
TABLE
  2
VIEW
 70
     0
  0
ENDTAB
  0
TABLE
  2
UCS
 70
     0
  0
ENDTAB
  0
TABLE
  2
APPID
 70
     1
  0
APPID
  2
ACAD
 70
     0
  0
ENDTAB
  0
TABLE
  2
DIMSTYLE
 70
     3
  0
DIMSTYLE
  2
STANDARD
 70
     0
  3

  4

  5

  6

  7

 40
1.0
 41
0.18
 42
0.0625
 43
0.38
 44
0.18
 45
0.0
 46
0.0
 47
0.0
 48
0.0
 71
     0
 72
     0
 73
     1
 74
     1
 75
     0
 76
     0
 77
     0
 78
     0
140
0.18
141
0.09
142
0.0
143
25.4
144
1.0
145
0.0
146
1.0
147
0.09
170
     0
171
     2
172
     0
173
     0
174
     0
175
     0
176
     0
177
     0
178
     0
  0
DIMSTYLE
  2
LC-STANDARD
 70
     0
  3

  4

  5

  6

  7

 40
1.0
 41
3.5
 42
0.0
 43
7.5
 44
1.8
 45
0.0
 46
0.0
 47
0.0
 48
0.0
 71
     0
 72
     0
 73
     0
 74
     0
 75
     0
 76
     0
 77
     1
 78
     8
140
3.5
141
0.0
142
0.0
143
25.4
144
1.0
145
0.0
146
0.71
147
1.5
170
     0
171
     2
172
     1
173
     0
174
     0
175
     0
176
     0
177
     0
178
     3
  0
DIMSTYLE
  2
LC-DIM-L-0090-02-02
 70
     0
  3

  4

  5

  6

  7

 40
2.0
 41
3.5
 42
0.0
 43
7.5
 44
1.8
 45
0.0
 46
0.0
 47
0.0
 48
0.0
 71
     0
 72
     0
 73
     0
 74
     0
 75
     0
 76
     0
 77
     1
 78
     8
140
9.0
141
0.0
142
0.0
143
25.4
144
1.0
145
0.0
146
0.71
147
1.5
170
     0
171
     2
172
     0
173
     0
174
     0
175
     0
176
     2
177
     2
178
     6
  0
ENDTAB
  0
ENDSEC
  0
SECTION
  2
BLOCKS
  0
BLOCK
  8
0
  5
23
  2
*X0
 70
    65
 10
279.0955
 20
146.089285
 30
0.0
  3
*X0
  0
LINE
  8
LC-003-005-----0
  6
CONTINUOUS
  5
25
 10
319.379943
 20
146.845888
 30
0.0
 11
320.136546
 21
147.602492
 31
0.0
  0
LINE
  8
LC-003-005-----0
  6
CONTINUOUS
  5
26
 10
317.965729
 20
148.260102
 30
0.0
 11
320.136546
 21
150.430919
 31
0.0
  0
LINE
  8
LC-003-005-----0
  6
CONTINUOUS
  5
27
 10
317.636546
 20
150.759346
 30
0.0
 11
320.136546
 21
153.259346
 31
0.0
  0
LINE
  8
LC-003-005-----0
  6
CONTINUOUS
  5
28
 10
317.636546
 20
153.587773
 30
0.0
 11
320.136546
 21
156.087773
 31
0.0
  0
LINE
  8
LC-003-005-----0
  6
CONTINUOUS
  5
29
 10
317.636546
 20
156.4162
 30
0.0
 11
320.136546
 21
158.9162
 31
0.0
  0
LINE
  8
LC-003-005-----0
  6
CONTINUOUS
  5
2A
 10
317.636546
 20
159.244627
 30
0.0
 11
320.136546
 21
161.744627
 31
0.0
  0
LINE
  8
LC-003-005-----0
  6
CONTINUOUS
  5
2B
 10
317.636546
 20
162.073055
 30
0.0
 11
320.136546
 21
164.573055
 31
0.0
  0
LINE
  8
LC-003-005-----0
  6
CONTINUOUS
  5
2C
 10
317.636546
 20
164.901482
 30
0.0
 11
320.136546
 21
167.401482
 31
0.0
  0
LINE
  8
LC-003-005-----0
  6
CONTINUOUS
  5
2D
 10
317.636546
 20
167.729909
 30
0.0
 11
320.136546
 21
170.229909
 31
0.0
  0
LINE
  8
LC-003-005-----0
  6
CONTINUOUS
  5
2E
 10
317.636546
 20
170.558336
 30
0.0
 11
320.136546
 21
173.058336
 31
0.0
  0
LINE
  8
LC-003-005-----0
  6
CONTINUOUS
  5
2F
 10
317.636546
 20
173.386763
 30
0.0
 11
320.136546
 21
175.886763
 31
0.0
  0
LINE
  8
LC-003-005-----0
  6
CONTINUOUS
  5
30
 10
317.636546
 20
176.21519
 30
0.0
 11
320.136546
 21
178.71519
 31
0.0
  0
LINE
  8
LC-003-005-----0
  6
CONTINUOUS
  5
31
 10
317.636546
 20
179.043617
 30
0.0
 11
320.136546
 21
181.543617
 31
0.0
  0
LINE
  8
LC-003-005-----0
  6
CONTINUOUS
  5
32
 10
317.636546
 20
181.872044
 30
0.0
 11
320.136546
 21
184.372044
 31
0.0
  0
LINE
  8
LC-003-005-----0
  6
CONTINUOUS
  5
33
 10
317.636546
 20
184.700472
 30
0.0
 11
320.136546
 21
187.200472
 31
0.0
  0
LINE
  8
LC-003-005-----0
  6
CONTINUOUS
  5
34
 10
317.636546
 20
187.528899
 30
0.0
 11
320.136546
 21
190.028899
 31
0.0
  0
LINE
  8
LC-003-005-----0
  6
CONTINUOUS
  5
35
 10
317.636546
 20
190.357326
 30
0.0
 11
320.136546
 21
192.857326
 31
0.0
  0
LINE
  8
LC-003-005-----0
  6
CONTINUOUS
  5
36
 10
317.636546
 20
193.185753
 30
0.0
 11
320.136546
 21
195.685753
 31
0.0
  0
LINE
  8
LC-003-005-----0
  6
CONTINUOUS
  5
37
 10
317.636546
 20
196.01418
 30
0.0
 11
320.136546
 21
198.51418
 31
0.0
  0
LINE
  8
LC-003-005-----0
  6
CONTINUOUS
  5
38
 10
317.636546
 20
198.842607
 30
0.0
 11
320.136546
 21
201.342607
 31
0.0
  0
LINE
  8
LC-003-005-----0
  6
CONTINUOUS
  5
39
 10
317.636546
 20
201.671034
 30
0.0
 11
320.136546
 21
204.171034
 31
0.0
  0
LINE
  8
LC-003-005-----0
  6
CONTINUOUS
  5
3A
 10
317.636546
 20
204.499461
 30
0.0
 11
320.136546
 21
206.999461
 31
0.0
  0
LINE
  8
LC-003-005-----0
  6
CONTINUOUS
  5
3B
 10
317.636546
 20
207.327889
 30
0.0
 11
320.136546
 21
209.827889
 31
0.0
  0
LINE
  8
LC-003-005-----0
  6
CONTINUOUS
  5
3C
 10
317.636546
 20
210.156316
 30
0.0
 11
320.136546
 21
212.656316
 31
0.0
  0
LINE
  8
LC-003-005-----0
  6
CONTINUOUS
  5
3D
 10
317.636546
 20
212.984743
 30
0.0
 11
320.136546
 21
215.484743
 31
0.0
  0
LINE
  8
LC-003-005-----0
  6
CONTINUOUS
  5
3E
 10
317.636546
 20
215.81317
 30
0.0
 11
320.136546
 21
218.31317
 31
0.0
  0
LINE
  8
LC-003-005-----0
  6
CONTINUOUS
  5
3F
 10
317.636546
 20
218.641597
 30
0.0
 11
320.136546
 21
221.141597
 31
0.0
  0
LINE
  8
LC-003-005-----0
  6
CONTINUOUS
  5
40
 10
317.636546
 20
221.470024
 30
0.0
 11
320.136546
 21
223.970024
 31
0.0
  0
LINE
  8
LC-003-005-----0
  6
CONTINUOUS
  5
41
 10
317.636546
 20
224.298451
 30
0.0
 11
320.136546
 21
226.798451
 31
0.0
  0
LINE
  8
LC-003-005-----0
  6
CONTINUOUS
  5
42
 10
317.636546
 20
227.126878
 30
0.0
 11
320.136546
 21
229.626878
 31
0.0
  0
LINE
  8
LC-003-005-----0
  6
CONTINUOUS
  5
43
 10
317.636546
 20
229.955306
 30
0.0
 11
320.136546
 21
232.455306
 31
0.0
  0
LINE
  8
LC-003-005-----0
  6
CONTINUOUS
  5
44
 10
317.636546
 20
232.783733
 30
0.0
 11
320.136546
 21
235.283733
 31
0.0
  0
LINE
  8
LC-003-005-----0
  6
CONTINUOUS
  5
45
 10
317.636546
 20
235.61216
 30
0.0
 11
320.136546
 21
238.11216
 31
0.0
  0
LINE
  8
LC-003-005-----0
  6
CONTINUOUS
  5
46
 10
317.636546
 20
238.440587
 30
0.0
 11
320.136546
 21
240.940587
 31
0.0
  0
LINE
  8
LC-003-005-----0
  6
CONTINUOUS
  5
47
 10
317.636546
 20
241.269014
 30
0.0
 11
320.136546
 21
243.769014
 31
0.0
  0
LINE
  8
LC-003-005-----0
  6
CONTINUOUS
  5
48
 10
317.636546
 20
244.097441
 30
0.0
 11
320.136546
 21
246.597441
 31
0.0
  0
LINE
  8
LC-003-005-----0
  6
CONTINUOUS
  5
49
 10
317.636546
 20
246.925868
 30
0.0
 11
320.136546
 21
249.425868
 31
0.0
  0
LINE
  8
LC-003-005-----0
  6
CONTINUOUS
  5
4A
 10
317.636546
 20
249.754295
 30
0.0
 11
320.136546
 21
252.254295
 31
0.0
  0
LINE
  8
LC-003-005-----0
  6
CONTINUOUS
  5
4B
 10
317.636546
 20
252.582723
 30
0.0
 11
320.136546
 21
255.082723
 31
0.0
  0
LINE
  8
LC-003-005-----0
  6
CONTINUOUS
  5
4C
 10
317.636546
 20
255.41115
 30
0.0
 11
320.136546
 21
257.91115
 31
0.0
  0
LINE
  8
LC-003-005-----0
  6
CONTINUOUS
  5
4D
 10
317.636546
 20
258.239577
 30
0.0
 11
320.136546
 21
260.739577
 31
0.0
  0
LINE
  8
LC-003-005-----0
  6
CONTINUOUS
  5
4E
 10
317.636546
 20
261.068004
 30
0.0
 11
320.136546
 21
263.568004
 31
0.0
  0
LINE
  8
LC-003-005-----0
  6
CONTINUOUS
  5
4F
 10
317.636546
 20
263.896431
 30
0.0
 11
320.136546
 21
266.396431
 31
0.0
  0
LINE
  8
LC-003-005-----0
  6
CONTINUOUS
  5
50
 10
317.636546
 20
266.724858
 30
0.0
 11
320.136546
 21
269.224858
 31
0.0
  0
LINE
  8
LC-003-005-----0
  6
CONTINUOUS
  5
51
 10
317.636546
 20
269.553285
 30
0.0
 11
320.136546
 21
272.053285
 31
0.0
  0
LINE
  8
LC-003-005-----0
  6
CONTINUOUS
  5
52
 10
317.636546
 20
272.381712
 30
0.0
 11
320.136546
 21
274.881712
 31
0.0
  0
LINE
  8
LC-003-005-----0
  6
CONTINUOUS
  5
53
 10
317.636546
 20
275.21014
 30
0.0
 11
320.136546
 21
277.71014
 31
0.0
  0
LINE
  8
LC-003-005-----0
  6
CONTINUOUS
  5
54
 10
316.371318
 20
276.773338
 30
0.0
 11
318.00431
 21
278.406331
 31
0.0
  0
LINE
  8
LC-003-005-----0
  6
CONTINUOUS
  5
55
 10
314.140609
 20
277.371056
 30
0.0
 11
315.773601
 21
279.004049
 31
0.0
  0
LINE
  8
LC-003-005-----0
  6
CONTINUOUS
  5
56
 10
311.9099
 20
277.968774
 30
0.0
 11
313.542892
 21
279.601767
 31
0.0
  0
LINE
  8
LC-003-005-----0
  6
CONTINUOUS
  5
57
 10
309.679191
 20
278.566493
 30
0.0
 11
311.312184
 21
280.199485
 31
0.0
  0
LINE
  8
LC-003-005-----0
  6
CONTINUOUS
  5
58
 10
307.448482
 20
279.164211
 30
0.0
 11
309.081475
 21
280.797203
 31
0.0
  0
LINE
  8
LC-003-005-----0
  6
CONTINUOUS
  5
59
 10
305.217773
 20
279.761929
 30
0.0
 11
306.850766
 21
281.394922
 31
0.0
  0
LINE
  8
LC-003-005-----0
  6
CONTINUOUS
  5
5A
 10
302.987064
 20
280.359647
 30
0.0
 11
304.620057
 21
281.99264
 31
0.0
  0
LINE
  8
LC-003-005-----0
  6
CONTINUOUS
  5
5B
 10
300.756355
 20
280.957365
 30
0.0
 11
302.389348
 21
282.590358
 31
0.0
  0
LINE
  8
LC-003-005-----0
  6
CONTINUOUS
  5
5C
 10
298.525646
 20
281.555084
 30
0.0
 11
300.158639
 21
283.188076
 31
0.0
  0
LINE
  8
LC-003-005-----0
  6
CONTINUOUS
  5
5D
 10
296.294938
 20
282.152802
 30
0.0
 11
297.92793
 21
283.785794
 31
0.0
  0
LINE
  8
LC-003-005-----0
  6
CONTINUOUS
  5
5E
 10
292.839484
 20
281.525776
 30
0.0
 11
295.697221
 21
284.383513
 31
0.0
  0
LINE
  8
LC-003-005-----0
  6
CONTINUOUS
  5
5F
 10
290.608775
 20
282.123494
 30
0.0
 11
293.466512
 21
284.981231
 31
0.0
  0
LINE
  8
LC-003-005-----0
  6
CONTINUOUS
  5
60
 10
288.378066
 20
282.721212
 30
0.0
 11
291.235803
 21
285.578949
 31
0.0
  0
LINE
  8
LC-003-005-----0
  6
CONTINUOUS
  5
61
 10
286.147357
 20
283.31893
 30
0.0
 11
289.005094
 21
286.176667
 31
0.0
  0
LINE
  8
LC-003-005-----0
  6
CONTINUOUS
  5
62
 10
283.916649
 20
283.916649
 30
0.0
 11
286.774386
 21
286.774386
 31
0.0
  0
LINE
  8
LC-003-005-----0
  6
CONTINUOUS
  5
63
 10
281.68594
 20
284.514367
 30
0.0
 11
284.543677
 21
287.372104
 31
0.0
  0
LINE
  8
LC-003-005-----0
  6
CONTINUOUS
  5
64
 10
279.455231
 20
285.112085
 30
0.0
 11
282.312968
 21
287.969822
 31
0.0
  0
LINE
  8
LC-003-005-----0
  6
CONTINUOUS
  5
65
 10
279.963827
 20
288.449108
 30
0.0
 11
280.082259
 21
288.56754
 31
0.0
  0
ENDBLK
  8
0
  5
66
  0
BLOCK
  8
0
  5
68
  2
*X1
 70
    65
 10
286.73068
 20
303.716907
 30
0.0
  3
*X1
  0
LINE
  8
LC-003-005-----0
  6
CONTINUOUS
  5
69
 10
318.340337
 20
304.198201
 30
0.0
 11
323.136546
 21
308.994411
 31
0.0
  0
LINE
  8
LC-003-005-----0
  6
CONTINUOUS
  5
6A
 10
316.109628
 20
304.795919
 30
0.0
 11
318.559117
 21
307.245408
 31
0.0
  0
LINE
  8
LC-003-005-----0
  6
CONTINUOUS
  5
6B
 10
320.636546
 20
309.322838
 30
0.0
 11
323.136546
 21
311.822838
 31
0.0
  0
LINE
  8
LC-003-005-----0
  6
CONTINUOUS
  5
6C
 10
313.878919
 20
305.393638
 30
0.0
 11
316.328408
 21
307.843127
 31
0.0
  0
LINE
  8
LC-003-005-----0
  6
CONTINUOUS
  5
6D
 10
320.636546
 20
312.151265
 30
0.0
 11
323.136546
 21
314.651265
 31
0.0
  0
LINE
  8
LC-003-005-----0
  6
CONTINUOUS
  5
6E
 10
311.64821
 20
305.991356
 30
0.0
 11
314.097699
 21
308.440845
 31
0.0
  0
LINE
  8
LC-003-005-----0
  6
CONTINUOUS
  5
6F
 10
319.636546
 20
313.979692
 30
0.0
 11
321.240854
 21
315.584
 31
0.0
  0
LINE
  8
LC-003-005-----0
  6
CONTINUOUS
  5
70
 10
309.417501
 20
306.589074
 30
0.0
 11
311.86699
 21
309.038563
 31
0.0
  0
LINE
  8
LC-003-005-----0
  6
CONTINUOUS
  5
71
 10
307.186792
 20
307.186792
 30
0.0
 11
309.636281
 21
309.636281
 31
0.0
  0
LINE
  8
LC-003-005-----0
  6
CONTINUOUS
  5
72
 10
304.956083
 20
307.784511
 30
0.0
 11
307.405572
 21
310.233999
 31
0.0
  0
LINE
  8
LC-003-005-----0
  6
CONTINUOUS
  5
73
 10
302.725375
 20
308.382229
 30
0.0
 11
305.174863
 21
310.831718
 31
0.0
  0
LINE
  8
LC-003-005-----0
  6
CONTINUOUS
  5
74
 10
300.494666
 20
308.979947
 30
0.0
 11
302.944154
 21
311.429436
 31
0.0
  0
LINE
  8
LC-003-005-----0
  6
CONTINUOUS
  5
75
 10
298.263957
 20
309.577665
 30
0.0
 11
301.93819
 21
313.251898
 31
0.0
  0
LINE
  8
LC-003-005-----0
  6
CONTINUOUS
  5
76
 10
296.033248
 20
310.175383
 30
0.0
 11
299.707481
 21
313.849617
 31
0.0
  0
LINE
  8
LC-003-005-----0
  6
CONTINUOUS
  5
77
 10
293.802539
 20
310.773102
 30
0.0
 11
297.476772
 21
314.447335
 31
0.0
  0
LINE
  8
LC-003-005-----0
  6
CONTINUOUS
  5
78
 10
291.57183
 20
311.37082
 30
0.0
 11
295.246063
 21
315.045053
 31
0.0
  0
LINE
  8
LC-003-005-----0
  6
CONTINUOUS
  5
79
 10
289.341121
 20
311.968538
 30
0.0
 11
293.015354
 21
315.642771
 31
0.0
  0
LINE
  8
LC-003-005-----0
  6
CONTINUOUS
  5
7A
 10
287.926908
 20
313.382753
 30
0.0
 11
290.784645
 21
316.240489
 31
0.0
  0
LINE
  8
LC-003-005-----0
  6
CONTINUOUS
  5
7B
 10
287.210786
 20
315.495057
 30
0.0
 11
288.553936
 21
316.838208
 31
0.0
  0
ENDBLK
  8
0
  5
7C
  0
BLOCK
  8
0
  5
7E
  2
*X2
 70
    65
 10
315.136546
 20
310.372247
 30
0.0
  3
*X2
  0
LINE
  8
LC-003-005-----0
  6
CONTINUOUS
  5
7F
 10
318.386546
 20
326.494838
 30
0.0
 11
317.009137
 21
327.872247
 31
0.0
  0
LINE
  8
LC-003-005-----0
  6
CONTINUOUS
  5
80
 10
318.386546
 20
323.666411
 30
0.0
 11
316.636546
 21
325.416411
 31
0.0
  0
LINE
  8
LC-003-005-----0
  6
CONTINUOUS
  5
81
 10
315.68071
 20
326.372247
 30
0.0
 11
315.136546
 21
326.916411
 31
0.0
  0
LINE
  8
LC-003-005-----0
  6
CONTINUOUS
  5
82
 10
318.386546
 20
320.837984
 30
0.0
 11
316.636546
 21
322.587984
 31
0.0
  0
LINE
  8
LC-003-005-----0
  6
CONTINUOUS
  5
83
 10
318.386546
 20
318.009557
 30
0.0
 11
316.636546
 21
319.759557
 31
0.0
  0
LINE
  8
LC-003-005-----0
  6
CONTINUOUS
  5
84
 10
318.386546
 20
315.18113
 30
0.0
 11
316.636546
 21
316.93113
 31
0.0
  0
LINE
  8
LC-003-005-----0
  6
CONTINUOUS
  5
85
 10
319.92025
 20
310.818999
 30
0.0
 11
318.617002
 21
312.122247
 31
0.0
  0
LINE
  8
LC-003-005-----0
  6
CONTINUOUS
  5
86
 10
318.386546
 20
312.352702
 30
0.0
 11
316.636546
 21
314.102702
 31
0.0
  0
ENDBLK
  8
0
  5
87
  0
BLOCK
  8
0
  5
89
  2
*X3
 70
    65
 10
320.136546
 20
316.084
 30
0.0
  3
*X3
  0
LINE
  8
LC-003-005-----0
  6
CONTINUOUS
  5
8A
 10
324.136546
 20
317.916411
 30
0.0
 11
323.968957
 21
318.084
 31
0.0
  0
LINE
  8
LC-003-005-----0
  6
CONTINUOUS
  5
8B
 10
324.136546
 20
316.502197
 30
0.0
 11
322.554744
 21
318.084
 31
0.0
  0
LINE
  8
LC-003-005-----0
  6
CONTINUOUS
  5
8C
 10
323.14053
 20
316.084
 30
0.0
 11
321.14053
 21
318.084
 31
0.0
  0
LINE
  8
LC-003-005-----0
  6
CONTINUOUS
  5
8D
 10
321.726317
 20
316.084
 30
0.0
 11
320.136546
 21
317.67377
 31
0.0
  0
LINE
  8
LC-003-005-----0
  6
CONTINUOUS
  5
8E
 10
320.312103
 20
316.084
 30
0.0
 11
320.136546
 21
316.259557
 31
0.0
  0
ENDBLK
  8
0
  5
8F
  0
BLOCK
  8
0
  5
91
  2
*X4
 70
    65
 10
361.136546
 20
316.084
 30
0.0
  3
*X4
  0
LINE
  8
LC-003-005-----0
  6
CONTINUOUS
  5
92
 10
365.136546
 20
317.928604
 30
0.0
 11
364.981151
 21
318.084
 31
0.0
  0
LINE
  8
LC-003-005-----0
  6
CONTINUOUS
  5
93
 10
365.136546
 20
316.514391
 30
0.0
 11
363.566937
 21
318.084
 31
0.0
  0
LINE
  8
LC-003-005-----0
  6
CONTINUOUS
  5
94
 10
364.152724
 20
316.084
 30
0.0
 11
362.152724
 21
318.084
 31
0.0
  0
LINE
  8
LC-003-005-----0
  6
CONTINUOUS
  5
95
 10
362.73851
 20
316.084
 30
0.0
 11
361.136546
 21
317.685964
 31
0.0
  0
LINE
  8
LC-003-005-----0
  6
CONTINUOUS
  5
96
 10
361.324296
 20
316.084
 30
0.0
 11
361.136546
 21
316.27175
 31
0.0
  0
ENDBLK
  8
0
  5
97
  0
BLOCK
  8
0
  5
99
  2
*X5
 70
    65
 10
364.636546
 20
310.372247
 30
0.0
  3
*X5
  0
LINE
  8
LC-003-005-----0
  6
CONTINUOUS
  5
9A
 10
369.420826
 20
326.372247
 30
0.0
 11
367.920826
 21
327.872247
 31
0.0
  0
LINE
  8
LC-003-005-----0
  6
CONTINUOUS
  5
9B
 10
368.636546
 20
324.328099
 30
0.0
 11
366.886546
 21
326.078099
 31
0.0
  0
LINE
  8
LC-003-005-----0
  6
CONTINUOUS
  5
9C
 10
368.636546
 20
321.499672
 30
0.0
 11
366.886546
 21
323.249672
 31
0.0
  0
LINE
  8
LC-003-005-----0
  6
CONTINUOUS
  5
9D
 10
368.636546
 20
318.671245
 30
0.0
 11
366.886546
 21
320.421245
 31
0.0
  0
LINE
  8
LC-003-005-----0
  6
CONTINUOUS
  5
9E
 10
368.636546
 20
315.842818
 30
0.0
 11
366.886546
 21
317.592818
 31
0.0
  0
LINE
  8
LC-003-005-----0
  6
CONTINUOUS
  5
9F
 10
368.636546
 20
313.014391
 30
0.0
 11
366.886546
 21
314.764391
 31
0.0
  0
LINE
  8
LC-003-005-----0
  6
CONTINUOUS
  5
A0
 10
367.954548
 20
310.867962
 30
0.0
 11
366.700263
 21
312.122247
 31
0.0
  0
ENDBLK
  8
0
  5
A1
  0
BLOCK
  8
0
  5
A3
  2
*D6
 70
    65
 10
0.0
 20
0.0
 30
0.0
  3
*D6
  0
LINE
  8
LC-005-003-MTH-0
  6
CONTINUOUS
  5
A5
 10
317.636546
 20
148.589285
 30
0.0
 11
317.636546
 21
69.2
 31
0.0
  0
LINE
  8
LC-005-003-MTH-0
  6
CONTINUOUS
  5
A6
 10
367.636546
 20
148.589285
 30
0.0
 11
367.636546
 21
69.2
 31
0.0
  0
LINE
  8
LC-004-003-----0
  6
CONTINUOUS
  5
A8
 10
299.790539
 20
77.650529
 30
0.0
 11
317.636546
 21
80.0
 31
0.0
  0
LINE
  8
LC-004-003-----0
  6
CONTINUOUS
  5
A9
 10
317.636546
 20
80.0
 30
0.0
 11
299.790539
 21
82.349471
 31
0.0
  0
LINE
  8
LC-004-003-----0
  6
CONTINUOUS
  5
AA
 10
299.790539
 20
82.349471
 30
0.0
 11
299.790539
 21
77.650529
 31
0.0
  0
LINE
  8
LC-004-003-----0
  6
CONTINUOUS
  5
AB
 10
299.750501
 20
78.261391
 30
0.0
 11
312.956546
 21
80.0
 31
0.0
  0
LINE
  8
LC-004-003-----0
  6
CONTINUOUS
  5
AC
 10
312.956546
 20
80.0
 30
0.0
 11
299.750501
 21
81.738609
 31
0.0
  0
LINE
  8
LC-004-003-----0
  6
CONTINUOUS
  5
AD
 10
299.710463
 20
78.872254
 30
0.0
 11
308.276546
 21
80.0
 31
0.0
  0
LINE
  8
LC-004-003-----0
  6
CONTINUOUS
  5
AE
 10
308.276546
 20
80.0
 30
0.0
 11
299.710463
 21
81.127746
 31
0.0
  0
LINE
  8
LC-004-003-----0
  6
CONTINUOUS
  5
AF
 10
299.670425
 20
79.483116
 30
0.0
 11
303.596546
 21
80.0
 31
0.0
  0
LINE
  8
LC-004-003-----0
  6
CONTINUOUS
  5
B0
 10
303.596546
 20
80.0
 30
0.0
 11
299.670425
 21
80.516884
 31
0.0
  0
LINE
  8
LC-004-003-----0
  6
CONTINUOUS
  5
B1
 10
385.482554
 20
82.349471
 30
0.0
 11
367.636546
 21
80.0
 31
0.0
  0
LINE
  8
LC-004-003-----0
  6
CONTINUOUS
  5
B2
 10
367.636546
 20
80.0
 30
0.0
 11
385.482554
 21
77.650529
 31
0.0
  0
LINE
  8
LC-004-003-----0
  6
CONTINUOUS
  5
B3
 10
385.482554
 20
77.650529
 30
0.0
 11
385.482554
 21
82.349471
 31
0.0
  0
LINE
  8
LC-004-003-----0
  6
CONTINUOUS
  5
B4
 10
385.522592
 20
81.738609
 30
0.0
 11
372.316546
 21
80.0
 31
0.0
  0
LINE
  8
LC-004-003-----0
  6
CONTINUOUS
  5
B5
 10
372.316546
 20
80.0
 30
0.0
 11
385.522592
 21
78.261391
 31
0.0
  0
LINE
  8
LC-004-003-----0
  6
CONTINUOUS
  5
B6
 10
385.56263
 20
81.127746
 30
0.0
 11
376.996546
 21
80.0
 31
0.0
  0
LINE
  8
LC-004-003-----0
  6
CONTINUOUS
  5
B7
 10
376.996546
 20
80.0
 30
0.0
 11
385.56263
 21
78.872254
 31
0.0
  0
LINE
  8
LC-004-003-----0
  6
CONTINUOUS
  5
B8
 10
385.602668
 20
80.516884
 30
0.0
 11
381.676546
 21
80.0
 31
0.0
  0
LINE
  8
LC-004-003-----0
  6
CONTINUOUS
  5
B9
 10
381.676546
 20
80.0
 30
0.0
 11
385.602668
 21
79.483116
 31
0.0
  0
LINE
  8
LC-006-003-MTG-0
  6
CONTINUOUS
  5
BB
 10
292.436546
 20
80.0
 30
0.0
 11
501.83295
 21
80.0
 31
0.0
  0
TEXT
  8
LC-004-003-----0
  6
CONTINUOUS
 62
     6
  5
BD
 10
438.705676
 20
90.431999
 30
0.0
 40
18.0
  1
DN50
 41
0.9
 51
15.0
  7
LC-TXTSTYLE-150-400-0-0-D0
  0
ENDBLK
  8
0
  5
BE
  0
BLOCK
  8
0
  5
C0
  2
*X7
 70
    65
 10
362.091899
 20
303.716907
 30
0.0
  3
*X7
  0
LINE
  8
LC-003-005-----0
  6
CONTINUOUS
  5
C1
 10
389.419475
 20
310.223515
 30
0.0
 11
391.432753
 21
312.236794
 31
0.0
  0
LINE
  8
LC-003-005-----0
  6
CONTINUOUS
  5
C2
 10
385.555768
 20
309.188235
 30
0.0
 11
390.835035
 21
314.467503
 31
0.0
  0
LINE
  8
LC-003-005-----0
  6
CONTINUOUS
  5
C3
 10
381.692061
 20
308.152955
 30
0.0
 11
388.056029
 21
314.516924
 31
0.0
  0
LINE
  8
LC-003-005-----0
  6
CONTINUOUS
  5
C4
 10
377.828354
 20
307.117676
 30
0.0
 11
384.192322
 21
313.481644
 31
0.0
  0
LINE
  8
LC-003-005-----0
  6
CONTINUOUS
  5
C5
 10
373.964647
 20
306.082396
 30
0.0
 11
380.328615
 21
312.446364
 31
0.0
  0
LINE
  8
LC-003-005-----0
  6
CONTINUOUS
  5
C6
 10
370.10094
 20
305.047116
 30
0.0
 11
374.343585
 21
309.289761
 31
0.0
  0
LINE
  8
LC-003-005-----0
  6
CONTINUOUS
  5
C7
 10
375.380222
 20
310.326398
 30
0.0
 11
376.464908
 21
311.411084
 31
0.0
  0
LINE
  8
LC-003-005-----0
  6
CONTINUOUS
  5
C8
 10
366.237233
 20
304.011836
 30
0.0
 11
370.479878
 21
308.254481
 31
0.0
  0
LINE
  8
LC-003-005-----0
  6
CONTINUOUS
  5
C9
 10
364.43707
 20
305.0401
 30
0.0
 11
366.616171
 21
307.219201
 31
0.0
  0
LINE
  8
LC-003-005-----0
  6
CONTINUOUS
  5
CA
 10
363.061772
 20
306.493229
 30
0.0
 11
364.830208
 21
308.261665
 31
0.0
  0
LINE
  8
LC-003-005-----0
  6
CONTINUOUS
  5
CB
 10
362.136546
 20
308.396431
 30
0.0
 11
364.636546
 21
310.896431
 31
0.0
  0
LINE
  8
LC-003-005-----0
  6
CONTINUOUS
  5
CC
 10
362.136546
 20
311.224858
 30
0.0
 11
365.535895
 21
314.624207
 31
0.0
  0
LINE
  8
LC-003-005-----0
  6
CONTINUOUS
  5
CD
 10
362.136546
 20
314.053285
 30
0.0
 11
363.667261
 21
315.584
 31
0.0
  0
ENDBLK
  8
0
  5
CE
  0
BLOCK
  8
0
  5
D0
  2
*X8
 70
    65
 10
365.136546
 20
146.089285
 30
0.0
  3
*X8
  0
LINE
  8
LC-003-005-----0
  6
CONTINUOUS
  5
D1
 10
365.136546
 20
147.347658
 30
0.0
 11
367.636546
 21
149.847658
 31
0.0
  0
LINE
  8
LC-003-005-----0
  6
CONTINUOUS
  5
D2
 10
365.136546
 20
150.176085
 30
0.0
 11
367.636546
 21
152.676085
 31
0.0
  0
LINE
  8
LC-003-005-----0
  6
CONTINUOUS
  5
D3
 10
365.136546
 20
153.004512
 30
0.0
 11
367.636546
 21
155.504512
 31
0.0
  0
LINE
  8
LC-003-005-----0
  6
CONTINUOUS
  5
D4
 10
365.136546
 20
155.832939
 30
0.0
 11
367.636546
 21
158.332939
 31
0.0
  0
LINE
  8
LC-003-005-----0
  6
CONTINUOUS
  5
D5
 10
365.136546
 20
158.661366
 30
0.0
 11
367.636546
 21
161.161366
 31
0.0
  0
LINE
  8
LC-003-005-----0
  6
CONTINUOUS
  5
D6
 10
365.136546
 20
161.489793
 30
0.0
 11
367.636546
 21
163.989793
 31
0.0
  0
LINE
  8
LC-003-005-----0
  6
CONTINUOUS
  5
D7
 10
365.136546
 20
164.318221
 30
0.0
 11
367.636546
 21
166.818221
 31
0.0
  0
LINE
  8
LC-003-005-----0
  6
CONTINUOUS
  5
D8
 10
365.136546
 20
167.146648
 30
0.0
 11
367.636546
 21
169.646648
 31
0.0
  0
LINE
  8
LC-003-005-----0
  6
CONTINUOUS
  5
D9
 10
365.136546
 20
169.975075
 30
0.0
 11
367.636546
 21
172.475075
 31
0.0
  0
LINE
  8
LC-003-005-----0
  6
CONTINUOUS
  5
DA
 10
365.136546
 20
172.803502
 30
0.0
 11
367.636546
 21
175.303502
 31
0.0
  0
LINE
  8
LC-003-005-----0
  6
CONTINUOUS
  5
DB
 10
365.136546
 20
175.631929
 30
0.0
 11
367.636546
 21
178.131929
 31
0.0
  0
LINE
  8
LC-003-005-----0
  6
CONTINUOUS
  5
DC
 10
365.136546
 20
178.460356
 30
0.0
 11
367.636546
 21
180.960356
 31
0.0
  0
LINE
  8
LC-003-005-----0
  6
CONTINUOUS
  5
DD
 10
365.136546
 20
181.288783
 30
0.0
 11
367.636546
 21
183.788783
 31
0.0
  0
LINE
  8
LC-003-005-----0
  6
CONTINUOUS
  5
DE
 10
365.136546
 20
184.11721
 30
0.0
 11
367.636546
 21
186.61721
 31
0.0
  0
LINE
  8
LC-003-005-----0
  6
CONTINUOUS
  5
DF
 10
365.136546
 20
186.945638
 30
0.0
 11
367.636546
 21
189.445638
 31
0.0
  0
LINE
  8
LC-003-005-----0
  6
CONTINUOUS
  5
E0
 10
365.136546
 20
189.774065
 30
0.0
 11
367.636546
 21
192.274065
 31
0.0
  0
LINE
  8
LC-003-005-----0
  6
CONTINUOUS
  5
E1
 10
365.136546
 20
192.602492
 30
0.0
 11
367.636546
 21
195.102492
 31
0.0
  0
LINE
  8
LC-003-005-----0
  6
CONTINUOUS
  5
E2
 10
365.136546
 20
195.430919
 30
0.0
 11
367.636546
 21
197.930919
 31
0.0
  0
LINE
  8
LC-003-005-----0
  6
CONTINUOUS
  5
E3
 10
365.136546
 20
198.259346
 30
0.0
 11
367.636546
 21
200.759346
 31
0.0
  0
LINE
  8
LC-003-005-----0
  6
CONTINUOUS
  5
E4
 10
365.136546
 20
201.087773
 30
0.0
 11
367.636546
 21
203.587773
 31
0.0
  0
LINE
  8
LC-003-005-----0
  6
CONTINUOUS
  5
E5
 10
365.136546
 20
203.9162
 30
0.0
 11
367.636546
 21
206.4162
 31
0.0
  0
LINE
  8
LC-003-005-----0
  6
CONTINUOUS
  5
E6
 10
365.136546
 20
206.744627
 30
0.0
 11
367.636546
 21
209.244627
 31
0.0
  0
LINE
  8
LC-003-005-----0
  6
CONTINUOUS
  5
E7
 10
365.136546
 20
209.573055
 30
0.0
 11
367.636546
 21
212.073055
 31
0.0
  0
LINE
  8
LC-003-005-----0
  6
CONTINUOUS
  5
E8
 10
365.136546
 20
212.401482
 30
0.0
 11
367.636546
 21
214.901482
 31
0.0
  0
LINE
  8
LC-003-005-----0
  6
CONTINUOUS
  5
E9
 10
365.136546
 20
215.229909
 30
0.0
 11
367.636546
 21
217.729909
 31
0.0
  0
LINE
  8
LC-003-005-----0
  6
CONTINUOUS
  5
EA
 10
365.136546
 20
218.058336
 30
0.0
 11
367.636546
 21
220.558336
 31
0.0
  0
LINE
  8
LC-003-005-----0
  6
CONTINUOUS
  5
EB
 10
365.136546
 20
220.886763
 30
0.0
 11
367.636546
 21
223.386763
 31
0.0
  0
LINE
  8
LC-003-005-----0
  6
CONTINUOUS
  5
EC
 10
365.136546
 20
223.71519
 30
0.0
 11
367.636546
 21
226.21519
 31
0.0
  0
LINE
  8
LC-003-005-----0
  6
CONTINUOUS
  5
ED
 10
365.136546
 20
226.543617
 30
0.0
 11
367.636546
 21
229.043617
 31
0.0
  0
LINE
  8
LC-003-005-----0
  6
CONTINUOUS
  5
EE
 10
365.136546
 20
229.372044
 30
0.0
 11
367.636546
 21
231.872044
 31
0.0
  0
LINE
  8
LC-003-005-----0
  6
CONTINUOUS
  5
EF
 10
365.136546
 20
232.200472
 30
0.0
 11
367.636546
 21
234.700472
 31
0.0
  0
LINE
  8
LC-003-005-----0
  6
CONTINUOUS
  5
F0
 10
365.136546
 20
235.028899
 30
0.0
 11
367.636546
 21
237.528899
 31
0.0
  0
LINE
  8
LC-003-005-----0
  6
CONTINUOUS
  5
F1
 10
365.136546
 20
237.857326
 30
0.0
 11
367.636546
 21
240.357326
 31
0.0
  0
LINE
  8
LC-003-005-----0
  6
CONTINUOUS
  5
F2
 10
365.136546
 20
240.685753
 30
0.0
 11
367.636546
 21
243.185753
 31
0.0
  0
LINE
  8
LC-003-005-----0
  6
CONTINUOUS
  5
F3
 10
365.136546
 20
243.51418
 30
0.0
 11
367.636546
 21
246.01418
 31
0.0
  0
LINE
  8
LC-003-005-----0
  6
CONTINUOUS
  5
F4
 10
365.136546
 20
246.342607
 30
0.0
 11
367.636546
 21
248.842607
 31
0.0
  0
LINE
  8
LC-003-005-----0
  6
CONTINUOUS
  5
F5
 10
365.136546
 20
249.171034
 30
0.0
 11
367.636546
 21
251.671034
 31
0.0
  0
LINE
  8
LC-003-005-----0
  6
CONTINUOUS
  5
F6
 10
365.136546
 20
251.999461
 30
0.0
 11
367.636546
 21
254.499461
 31
0.0
  0
LINE
  8
LC-003-005-----0
  6
CONTINUOUS
  5
F7
 10
395.478827
 20
282.341742
 30
0.0
 11
398.605372
 21
285.468287
 31
0.0
  0
LINE
  8
LC-003-005-----0
  6
CONTINUOUS
  5
F8
 10
365.136546
 20
254.827889
 30
0.0
 11
367.636546
 21
257.327889
 31
0.0
  0
LINE
  8
LC-003-005-----0
  6
CONTINUOUS
  5
F9
 10
391.61512
 20
281.306462
 30
0.0
 11
396.564873
 21
286.256215
 31
0.0
  0
LINE
  8
LC-003-005-----0
  6
CONTINUOUS
  5
FA
 10
365.136546
 20
257.656316
 30
0.0
 11
367.636546
 21
260.156316
 31
0.0
  0
LINE
  8
LC-003-005-----0
  6
CONTINUOUS
  5
FB
 10
387.751413
 20
280.271182
 30
0.0
 11
392.701166
 21
285.220935
 31
0.0
  0
LINE
  8
LC-003-005-----0
  6
CONTINUOUS
  5
FC
 10
365.136546
 20
260.484743
 30
0.0
 11
367.636546
 21
262.984743
 31
0.0
  0
LINE
  8
LC-003-005-----0
  6
CONTINUOUS
  5
FD
 10
383.887706
 20
279.235902
 30
0.0
 11
388.837459
 21
284.185655
 31
0.0
  0
LINE
  8
LC-003-005-----0
  6
CONTINUOUS
  5
FE
 10
365.136546
 20
263.31317
 30
0.0
 11
367.636546
 21
265.81317
 31
0.0
  0
LINE
  8
LC-003-005-----0
  6
CONTINUOUS
  5
FF
 10
382.145321
 20
280.321945
 30
0.0
 11
384.973752
 21
283.150375
 31
0.0
  0
LINE
  8
LC-003-005-----0
  6
CONTINUOUS
  5
100
 10
365.136546
 20
266.141597
 30
0.0
 11
367.636546
 21
268.641597
 31
0.0
  0
LINE
  8
LC-003-005-----0
  6
CONTINUOUS
  5
101
 10
378.281614
 20
279.286665
 30
0.0
 11
381.110045
 21
282.115095
 31
0.0
  0
LINE
  8
LC-003-005-----0
  6
CONTINUOUS
  5
102
 10
365.136546
 20
268.970024
 30
0.0
 11
367.636546
 21
271.470024
 31
0.0
  0
LINE
  8
LC-003-005-----0
  6
CONTINUOUS
  5
103
 10
374.417907
 20
278.251385
 30
0.0
 11
377.246338
 21
281.079815
 31
0.0
  0
LINE
  8
LC-003-005-----0
  6
CONTINUOUS
  5
104
 10
365.136546
 20
271.798451
 30
0.0
 11
367.636546
 21
274.298451
 31
0.0
  0
LINE
  8
LC-003-005-----0
  6
CONTINUOUS
  5
105
 10
370.5542
 20
277.216105
 30
0.0
 11
373.382631
 21
280.044535
 31
0.0
  0
LINE
  8
LC-003-005-----0
  6
CONTINUOUS
  5
106
 10
365.136546
 20
274.626878
 30
0.0
 11
369.518924
 21
279.009256
 31
0.0
  0
LINE
  8
LC-003-005-----0
  6
CONTINUOUS
  5
107
 10
365.136546
 20
277.455306
 30
0.0
 11
365.655217
 21
277.973976
 31
0.0
  0
ENDBLK
  8
0
  5
108
  0
BLOCK
  8
0
  5
10A
  2
*D9
 70
    65
 10
0.0
 20
0.0
 30
0.0
  3
*D9
  0
LINE
  8
LC-005-003-MTH-0
  6
CONTINUOUS
  5
10B
 10
365.136546
 20
146.089285
 30
0.0
 11
486.8
 21
146.089285
 31
0.0
  0
LINE
  8
LC-005-003-MTH-0
  6
CONTINUOUS
  5
10C
 10
370.136546
 20
327.872247
 30
0.0
 11
486.8
 21
327.872247
 31
0.0
  0
LINE
  8
LC-006-003-MTG-0
  6
CONTINUOUS
  5
10D
 10
476.0
 20
146.089285
 30
0.0
 11
476.0
 21
327.872247
 31
0.0
  0
LINE
  8
LC-004-003-----0
  6
CONTINUOUS
  5
10E
 10
473.650529
 20
163.935292
 30
0.0
 11
476.0
 21
146.089285
 31
0.0
  0
LINE
  8
LC-004-003-----0
  6
CONTINUOUS
  5
10F
 10
476.0
 20
146.089285
 30
0.0
 11
478.349471
 21
163.935292
 31
0.0
  0
LINE
  8
LC-004-003-----0
  6
CONTINUOUS
  5
110
 10
478.349471
 20
163.935292
 30
0.0
 11
473.650529
 21
163.935292
 31
0.0
  0
LINE
  8
LC-004-003-----0
  6
CONTINUOUS
  5
111
 10
474.261391
 20
163.97533
 30
0.0
 11
476.0
 21
150.769285
 31
0.0
  0
LINE
  8
LC-004-003-----0
  6
CONTINUOUS
  5
112
 10
476.0
 20
150.769285
 30
0.0
 11
477.738609
 21
163.97533
 31
0.0
  0
LINE
  8
LC-004-003-----0
  6
CONTINUOUS
  5
113
 10
474.872254
 20
164.015369
 30
0.0
 11
476.0
 21
155.449285
 31
0.0
  0
LINE
  8
LC-004-003-----0
  6
CONTINUOUS
  5
114
 10
476.0
 20
155.449285
 30
0.0
 11
477.127746
 21
164.015369
 31
0.0
  0
LINE
  8
LC-004-003-----0
  6
CONTINUOUS
  5
115
 10
475.483116
 20
164.055407
 30
0.0
 11
476.0
 21
160.129285
 31
0.0
  0
LINE
  8
LC-004-003-----0
  6
CONTINUOUS
  5
116
 10
476.0
 20
160.129285
 30
0.0
 11
476.516884
 21
164.055407
 31
0.0
  0
LINE
  8
LC-004-003-----0
  6
CONTINUOUS
  5
117
 10
478.349471
 20
310.026239
 30
0.0
 11
476.0
 21
327.872247
 31
0.0
  0
LINE
  8
LC-004-003-----0
  6
CONTINUOUS
  5
118
 10
476.0
 20
327.872247
 30
0.0
 11
473.650529
 21
310.026239
 31
0.0
  0
LINE
  8
LC-004-003-----0
  6
CONTINUOUS
  5
119
 10
473.650529
 20
310.026239
 30
0.0
 11
478.349471
 21
310.026239
 31
0.0
  0
LINE
  8
LC-004-003-----0
  6
CONTINUOUS
  5
11A
 10
477.738609
 20
309.986201
 30
0.0
 11
476.0
 21
323.192247
 31
0.0
  0
LINE
  8
LC-004-003-----0
  6
CONTINUOUS
  5
11B
 10
476.0
 20
323.192247
 30
0.0
 11
474.261391
 21
309.986201
 31
0.0
  0
LINE
  8
LC-004-003-----0
  6
CONTINUOUS
  5
11C
 10
477.127746
 20
309.946163
 30
0.0
 11
476.0
 21
318.512247
 31
0.0
  0
LINE
  8
LC-004-003-----0
  6
CONTINUOUS
  5
11D
 10
476.0
 20
318.512247
 30
0.0
 11
474.872254
 21
309.946163
 31
0.0
  0
LINE
  8
LC-004-003-----0
  6
CONTINUOUS
  5
11E
 10
476.516884
 20
309.906125
 30
0.0
 11
476.0
 21
313.832247
 31
0.0
  0
LINE
  8
LC-004-003-----0
  6
CONTINUOUS
  5
11F
 10
476.0
 20
313.832247
 30
0.0
 11
475.483116
 21
309.906125
 31
0.0
  0
TEXT
  8
LC-004-003-----0
  6
CONTINUOUS
 62
     6
  5
120
 10
465.568001
 20
220.642153
 30
0.0
 40
18.0
  1
180
 50
90.0
 51
15.0
  7
LC-TXTSTYLE-150-400-0-0-D0
 72
     1
 11
465.568001
 21
239.776012
 31
0.0
  0
ENDBLK
  8
0
  5
121
  0
BLOCK
  8
0
  5
123
  2
*D10
 70
    65
 10
0.0
 20
0.0
 30
0.0
  3
*D10
  0
LINE
  8
LC-005-003-MTH-0
  6
CONTINUOUS
  5
124
 10
249.174676
 20
258.543998
 30
0.0
 11
249.174676
 21
29.2
 31
0.0
  0
LINE
  8
LC-005-003-MTH-0
  6
CONTINUOUS
  5
125
 10
429.098394
 20
256.668343
 30
0.0
 11
429.098394
 21
29.2
 31
0.0
  0
LINE
  8
LC-006-003-MTG-0
  6
CONTINUOUS
  5
126
 10
249.174676
 20
40.0
 30
0.0
 11
429.098394
 21
40.0
 31
0.0
  0
LINE
  8
LC-004-003-----0
  6
CONTINUOUS
  5
127
 10
267.020684
 20
42.349471
 30
0.0
 11
249.174676
 21
40.0
 31
0.0
  0
LINE
  8
LC-004-003-----0
  6
CONTINUOUS
  5
128
 10
249.174676
 20
40.0
 30
0.0
 11
267.020684
 21
37.650529
 31
0.0
  0
LINE
  8
LC-004-003-----0
  6
CONTINUOUS
  5
129
 10
267.020684
 20
37.650529
 30
0.0
 11
267.020684
 21
42.349471
 31
0.0
  0
LINE
  8
LC-004-003-----0
  6
CONTINUOUS
  5
12A
 10
267.060722
 20
41.738609
 30
0.0
 11
253.854676
 21
40.0
 31
0.0
  0
LINE
  8
LC-004-003-----0
  6
CONTINUOUS
  5
12B
 10
253.854676
 20
40.0
 30
0.0
 11
267.060722
 21
38.261391
 31
0.0
  0
LINE
  8
LC-004-003-----0
  6
CONTINUOUS
  5
12C
 10
267.10076
 20
41.127746
 30
0.0
 11
258.534676
 21
40.0
 31
0.0
  0
LINE
  8
LC-004-003-----0
  6
CONTINUOUS
  5
12D
 10
258.534676
 20
40.0
 30
0.0
 11
267.10076
 21
38.872254
 31
0.0
  0
LINE
  8
LC-004-003-----0
  6
CONTINUOUS
  5
12E
 10
267.140798
 20
40.516884
 30
0.0
 11
263.214676
 21
40.0
 31
0.0
  0
LINE
  8
LC-004-003-----0
  6
CONTINUOUS
  5
12F
 10
263.214676
 20
40.0
 30
0.0
 11
267.140798
 21
39.483116
 31
0.0
  0
LINE
  8
LC-004-003-----0
  6
CONTINUOUS
  5
130
 10
411.252386
 20
37.650529
 30
0.0
 11
429.098394
 21
40.0
 31
0.0
  0
LINE
  8
LC-004-003-----0
  6
CONTINUOUS
  5
131
 10
429.098394
 20
40.0
 30
0.0
 11
411.252386
 21
42.349471
 31
0.0
  0
LINE
  8
LC-004-003-----0
  6
CONTINUOUS
  5
132
 10
411.252386
 20
42.349471
 30
0.0
 11
411.252386
 21
37.650529
 31
0.0
  0
LINE
  8
LC-004-003-----0
  6
CONTINUOUS
  5
133
 10
411.212348
 20
38.261391
 30
0.0
 11
424.418394
 21
40.0
 31
0.0
  0
LINE
  8
LC-004-003-----0
  6
CONTINUOUS
  5
134
 10
424.418394
 20
40.0
 30
0.0
 11
411.212348
 21
41.738609
 31
0.0
  0
LINE
  8
LC-004-003-----0
  6
CONTINUOUS
  5
135
 10
411.17231
 20
38.872254
 30
0.0
 11
419.738394
 21
40.0
 31
0.0
  0
LINE
  8
LC-004-003-----0
  6
CONTINUOUS
  5
136
 10
419.738394
 20
40.0
 30
0.0
 11
411.17231
 21
41.127746
 31
0.0
  0
LINE
  8
LC-004-003-----0
  6
CONTINUOUS
  5
137
 10
411.132272
 20
39.483116
 30
0.0
 11
415.058394
 21
40.0
 31
0.0
  0
LINE
  8
LC-004-003-----0
  6
CONTINUOUS
  5
138
 10
415.058394
 20
40.0
 30
0.0
 11
411.132272
 21
40.516884
 31
0.0
  0
TEXT
  8
LC-004-003-----0
  6
CONTINUOUS
 62
     6
  5
139
 10
320.887625
 20
50.431999
 30
0.0
 40
18.0
  1
180
 51
15.0
  7
LC-TXTSTYLE-150-400-0-0-D0
 72
     1
 11
340.021483
 21
50.431999
 31
0.0
  0
ENDBLK
  8
0
  5
13A
  0
BLOCK
  8
0
  5
13C
  2
*D11
 70
    65
 10
0.0
 20
0.0
 30
0.0
  3
*D11
  0
LINE
  8
LC-005-003-MTH-0
  6
CONTINUOUS
  5
13D
 10
318.386546
 20
327.872247
 30
0.0
 11
318.386546
 21
360.8
 31
0.0
  0
LINE
  8
LC-005-003-MTH-0
  6
CONTINUOUS
  5
13E
 10
366.886546
 20
327.872247
 30
0.0
 11
366.886546
 21
360.8
 31
0.0
  0
LINE
  8
LC-004-003-----0
  6
CONTINUOUS
  5
13F
 10
300.540539
 20
347.650529
 30
0.0
 11
318.386546
 21
350.0
 31
0.0
  0
LINE
  8
LC-004-003-----0
  6
CONTINUOUS
  5
140
 10
318.386546
 20
350.0
 30
0.0
 11
300.540539
 21
352.349471
 31
0.0
  0
LINE
  8
LC-004-003-----0
  6
CONTINUOUS
  5
141
 10
300.540539
 20
352.349471
 30
0.0
 11
300.540539
 21
347.650529
 31
0.0
  0
LINE
  8
LC-004-003-----0
  6
CONTINUOUS
  5
142
 10
300.500501
 20
348.261391
 30
0.0
 11
313.706546
 21
350.0
 31
0.0
  0
LINE
  8
LC-004-003-----0
  6
CONTINUOUS
  5
143
 10
313.706546
 20
350.0
 30
0.0
 11
300.500501
 21
351.738609
 31
0.0
  0
LINE
  8
LC-004-003-----0
  6
CONTINUOUS
  5
144
 10
300.460463
 20
348.872254
 30
0.0
 11
309.026546
 21
350.0
 31
0.0
  0
LINE
  8
LC-004-003-----0
  6
CONTINUOUS
  5
145
 10
309.026546
 20
350.0
 30
0.0
 11
300.460463
 21
351.127746
 31
0.0
  0
LINE
  8
LC-004-003-----0
  6
CONTINUOUS
  5
146
 10
300.420425
 20
349.483116
 30
0.0
 11
304.346546
 21
350.0
 31
0.0
  0
LINE
  8
LC-004-003-----0
  6
CONTINUOUS
  5
147
 10
304.346546
 20
350.0
 30
0.0
 11
300.420425
 21
350.516884
 31
0.0
  0
LINE
  8
LC-004-003-----0
  6
CONTINUOUS
  5
148
 10
384.732554
 20
352.349471
 30
0.0
 11
366.886546
 21
350.0
 31
0.0
  0
LINE
  8
LC-004-003-----0
  6
CONTINUOUS
  5
149
 10
366.886546
 20
350.0
 30
0.0
 11
384.732554
 21
347.650529
 31
0.0
  0
LINE
  8
LC-004-003-----0
  6
CONTINUOUS
  5
14A
 10
384.732554
 20
347.650529
 30
0.0
 11
384.732554
 21
352.349471
 31
0.0
  0
LINE
  8
LC-004-003-----0
  6
CONTINUOUS
  5
14B
 10
384.772592
 20
351.738609
 30
0.0
 11
371.566546
 21
350.0
 31
0.0
  0
LINE
  8
LC-004-003-----0
  6
CONTINUOUS
  5
14C
 10
371.566546
 20
350.0
 30
0.0
 11
384.772592
 21
348.261391
 31
0.0
  0
LINE
  8
LC-004-003-----0
  6
CONTINUOUS
  5
14D
 10
384.81263
 20
351.127746
 30
0.0
 11
376.246546
 21
350.0
 31
0.0
  0
LINE
  8
LC-004-003-----0
  6
CONTINUOUS
  5
14E
 10
376.246546
 20
350.0
 30
0.0
 11
384.81263
 21
348.872254
 31
0.0
  0
LINE
  8
LC-004-003-----0
  6
CONTINUOUS
  5
14F
 10
384.852668
 20
350.516884
 30
0.0
 11
380.926546
 21
350.0
 31
0.0
  0
LINE
  8
LC-004-003-----0
  6
CONTINUOUS
  5
150
 10
380.926546
 20
350.0
 30
0.0
 11
384.852668
 21
349.483116
 31
0.0
  0
LINE
  8
LC-006-003-MTG-0
  6
CONTINUOUS
  5
151
 10
293.186546
 20
350.0
 30
0.0
 11
489.689066
 21
350.0
 31
0.0
  0
TEXT
  8
LC-004-003-----0
  6
CONTINUOUS
 62
     6
  5
152
 10
394.161792
 20
360.431999
 30
0.0
 40
18.0
  1
1 1/2"
 51
15.0
  7
LC-TXTSTYLE-150-400-0-0-D0
  0
ENDBLK
  8
0
  5
153
  0
BLOCK
  8
0
  5
155
  2
*X12
 70
    65
 10
241.158221
 20
261.20959
 30
0.0
  3
*X12
  0
LINE
  8
LC-003-005-----0
  6
CONTINUOUS
  5
156
 10
241.281867
 20
262.494736
 30
0.0
 11
242.903116
 21
264.115983
 31
0.0
  0
LINE
  8
LC-003-005-----0
  6
CONTINUOUS
  5
157
 10
241.86304
 20
267.318547
 30
0.0
 11
244.456034
 21
269.911537
 31
0.0
  0
LINE
  8
LC-003-005-----0
  6
CONTINUOUS
  5
158
 10
242.96865
 20
272.666793
 30
0.0
 11
246.008952
 21
275.707091
 31
0.0
  0
LINE
  8
LC-003-005-----0
  6
CONTINUOUS
  5
159
 10
282.74404
 20
312.44213
 30
0.0
 11
284.89985
 21
314.597937
 31
0.0
  0
LINE
  8
LC-003-005-----0
  6
CONTINUOUS
  5
15A
 10
244.391434
 20
278.332213
 30
0.0
 11
247.56187
 21
281.502645
 31
0.0
  0
LINE
  8
LC-003-005-----0
  6
CONTINUOUS
  5
15B
 10
279.397975
 20
313.338707
 30
0.0
 11
281.030969
 21
314.9717
 31
0.0
  0
LINE
  8
LC-003-005-----0
  6
CONTINUOUS
  5
15C
 10
245.431639
 20
283.615055
 30
0.0
 11
249.114788
 21
287.298199
 31
0.0
  0
LINE
  8
LC-003-005-----0
  6
CONTINUOUS
  5
15D
 10
276.051911
 20
314.235285
 30
0.0
 11
277.684905
 21
315.868277
 31
0.0
  0
LINE
  8
LC-003-005-----0
  6
CONTINUOUS
  5
15E
 10
245.906888
 20
288.33294
 30
0.0
 11
246.577938
 21
289.003989
 31
0.0
  0
LINE
  8
LC-003-005-----0
  6
CONTINUOUS
  5
15F
 10
246.981931
 20
289.407982
 30
0.0
 11
250.667706
 21
293.093752
 31
0.0
  0
LINE
  8
LC-003-005-----0
  6
CONTINUOUS
  5
160
 10
272.705846
 20
315.131863
 30
0.0
 11
274.33884
 21
316.764855
 31
0.0
  0
LINE
  8
LC-003-005-----0
  6
CONTINUOUS
  5
161
 10
247.208754
 20
293.877443
 30
0.0
 11
252.220624
 21
298.889306
 31
0.0
  0
LINE
  8
LC-003-005-----0
  6
CONTINUOUS
  5
162
 10
269.354959
 20
316.023618
 30
0.0
 11
270.992775
 21
317.661433
 31
0.0
  0
LINE
  8
LC-003-005-----0
  6
CONTINUOUS
  5
163
 10
250.238006
 20
301.149329
 30
0.0
 11
253.773542
 21
304.68486
 31
0.0
  0
LINE
  8
LC-003-005-----0
  6
CONTINUOUS
  5
164
 10
265.396371
 20
316.307673
 30
0.0
 11
267.423977
 21
318.335277
 31
0.0
  0
LINE
  8
LC-003-005-----0
  6
CONTINUOUS
  5
165
 10
251.790924
 20
306.944882
 30
0.0
 11
262.786239
 21
317.940183
 31
0.0
  0
ENDBLK
  8
0
  5
166
  0
BLOCK
  8
0
  5
168
  2
*X13
 70
    65
 10
256.613233
 20
257.068475
 30
0.0
  3
*X13
  0
LINE
  8
LC-003-005-----0
  6
CONTINUOUS
  5
169
 10
257.176665
 20
257.176324
 30
0.0
 11
257.959711
 21
257.959369
 31
0.0
  0
LINE
  8
LC-003-005-----0
  6
CONTINUOUS
  5
16A
 10
257.904661
 20
262.146957
 30
0.0
 11
260.339858
 21
264.58215
 31
0.0
  0
LINE
  8
LC-003-005-----0
  6
CONTINUOUS
  5
16B
 10
259.457579
 20
267.942511
 30
0.0
 11
261.915495
 21
270.400423
 31
0.0
  0
LINE
  8
LC-003-005-----0
  6
CONTINUOUS
  5
16C
 10
261.010497
 20
273.738064
 30
0.0
 11
264.373339
 21
277.100902
 31
0.0
  0
LINE
  8
LC-003-005-----0
  6
CONTINUOUS
  5
16D
 10
276.566856
 20
289.294403
 30
0.0
 11
278.57361
 21
291.301154
 31
0.0
  0
LINE
  8
LC-003-005-----0
  6
CONTINUOUS
  5
16E
 10
262.563415
 20
279.533618
 30
0.0
 11
266.654326
 21
283.624523
 31
0.0
  0
LINE
  8
LC-003-005-----0
  6
CONTINUOUS
  5
16F
 10
273.594551
 20
290.56474
 30
0.0
 11
275.227546
 21
292.197732
 31
0.0
  0
LINE
  8
LC-003-005-----0
  6
CONTINUOUS
  5
170
 10
264.116333
 20
285.329172
 30
0.0
 11
269.023741
 21
290.236573
 31
0.0
  0
LINE
  8
LC-003-005-----0
  6
CONTINUOUS
  5
171
 10
270.248487
 20
291.461317
 30
0.0
 11
271.881481
 21
293.09431
 31
0.0
  0
LINE
  8
LC-003-005-----0
  6
CONTINUOUS
  5
172
 10
265.669251
 20
291.124726
 30
0.0
 11
268.535416
 21
293.990887
 31
0.0
  0
ENDBLK
  8
0
  5
173
  0
BLOCK
  8
0
  5
175
  2
*X14
 70
    65
 10
281.482794
 20
314.006627
 30
0.0
  3
*X14
  0
LINE
  8
LC-003-005-----0
  6
CONTINUOUS
  5
176
 10
281.77046
 20
316.441854
 30
0.0
 11
282.995205
 21
315.217111
 31
0.0
  0
LINE
  8
LC-003-005-----0
  6
CONTINUOUS
  5
177
 10
283.127108
 20
319.327845
 30
0.0
 11
284.34007
 21
318.114885
 31
0.0
  0
LINE
  8
LC-003-005-----0
  6
CONTINUOUS
  5
178
 10
287.155235
 20
319.542361
 30
0.0
 11
289.983671
 21
316.71393
 31
0.0
  0
LINE
  8
LC-003-005-----0
  6
CONTINUOUS
  5
179
 10
292.950803
 20
317.98944
 30
0.0
 11
295.779238
 21
315.161008
 31
0.0
  0
LINE
  8
LC-003-005-----0
  6
CONTINUOUS
  5
17A
 10
298.74637
 20
316.436518
 30
0.0
 11
300.053705
 21
315.129185
 31
0.0
  0
ENDBLK
  8
0
  5
17B
  0
BLOCK
  8
0
  5
17D
  2
*X15
 70
    65
 10
273.876526
 20
278.831404
 30
0.0
  3
*X15
  0
LINE
  8
LC-003-005-----0
  6
CONTINUOUS
  5
17E
 10
273.912143
 20
286.116419
 30
0.0
 11
276.440131
 21
283.588435
 31
0.0
  0
LINE
  8
LC-003-005-----0
  6
CONTINUOUS
  5
17F
 10
274.599752
 20
289.671449
 30
0.0
 11
275.824501
 21
288.446702
 31
0.0
  0
LINE
  8
LC-003-005-----0
  6
CONTINUOUS
  5
180
 10
279.407244
 20
284.863964
 30
0.0
 11
282.235653
 21
282.035558
 31
0.0
  0
LINE
  8
LC-003-005-----0
  6
CONTINUOUS
  5
181
 10
285.202766
 20
283.311087
 30
0.0
 11
288.031175
 21
280.482682
 31
0.0
  0
LINE
  8
LC-003-005-----0
  6
CONTINUOUS
  5
182
 10
289.376797
 20
279.137062
 30
0.0
 11
289.44538
 21
279.068479
 31
0.0
  0
LINE
  8
LC-003-005-----0
  6
CONTINUOUS
  5
183
 10
290.998288
 20
281.758211
 30
0.0
 11
291.089858
 21
281.666641
 31
0.0
  0
ENDBLK
  8
0
  5
184
  0
BLOCK
  8
0
  5
186
  2
*X16
 70
    65
 10
284.634742
 20
282.374645
 30
0.0
  3
*X16
  0
LINE
  8
LC-003-005-----0
  6
CONTINUOUS
  5
187
 10
329.902307
 20
287.475491
 30
0.0
 11
331.316522
 21
288.889703
 31
0.0
  0
LINE
  8
LC-003-005-----0
  6
CONTINUOUS
  5
188
 10
330.891401
 20
292.707221
 30
0.0
 11
331.81796
 21
293.633779
 31
0.0
  0
LINE
  8
LC-003-005-----0
  6
CONTINUOUS
  5
189
 10
330.075025
 20
296.133484
 30
0.0
 11
330.823928
 21
296.882386
 31
0.0
  0
LINE
  8
LC-003-005-----0
  6
CONTINUOUS
  5
18A
 10
328.348899
 20
298.649999
 30
0.0
 11
329.056068
 21
299.357166
 31
0.0
  0
LINE
  8
LC-003-005-----0
  6
CONTINUOUS
  5
18B
 10
325.894616
 20
300.438357
 30
0.0
 11
326.636642
 21
301.180381
 31
0.0
  0
LINE
  8
LC-003-005-----0
  6
CONTINUOUS
  5
18C
 10
322.692691
 20
301.479074
 30
0.0
 11
323.509188
 21
302.29557
 31
0.0
  0
LINE
  8
LC-003-005-----0
  6
CONTINUOUS
  5
18D
 10
319.346627
 20
302.375651
 30
0.0
 11
320.163124
 21
303.192148
 31
0.0
  0
LINE
  8
LC-003-005-----0
  6
CONTINUOUS
  5
18E
 10
316.000562
 20
303.272229
 30
0.0
 11
316.817059
 21
304.088725
 31
0.0
  0
LINE
  8
LC-003-005-----0
  6
CONTINUOUS
  5
18F
 10
312.654497
 20
304.168807
 30
0.0
 11
313.470995
 21
304.985303
 31
0.0
  0
LINE
  8
LC-003-005-----0
  6
CONTINUOUS
  5
190
 10
309.308433
 20
305.065384
 30
0.0
 11
310.12493
 21
305.881881
 31
0.0
  0
LINE
  8
LC-003-005-----0
  6
CONTINUOUS
  5
191
 10
305.962368
 20
305.961962
 30
0.0
 11
306.778865
 21
306.778458
 31
0.0
  0
LINE
  8
LC-003-005-----0
  6
CONTINUOUS
  5
192
 10
302.616303
 20
306.85854
 30
0.0
 11
303.432801
 21
307.675036
 31
0.0
  0
LINE
  8
LC-003-005-----0
  6
CONTINUOUS
  5
193
 10
299.270239
 20
307.755117
 30
0.0
 11
300.086736
 21
308.571614
 31
0.0
  0
LINE
  8
LC-003-005-----0
  6
CONTINUOUS
  5
194
 10
295.924174
 20
308.651695
 30
0.0
 11
296.740671
 21
309.468191
 31
0.0
  0
LINE
  8
LC-003-005-----0
  6
CONTINUOUS
  5
195
 10
292.578109
 20
309.548273
 30
0.0
 11
293.394607
 21
310.364769
 31
0.0
  0
LINE
  8
LC-003-005-----0
  6
CONTINUOUS
  5
196
 10
289.232045
 20
310.44485
 30
0.0
 11
290.048542
 21
311.261346
 31
0.0
  0
LINE
  8
LC-003-005-----0
  6
CONTINUOUS
  5
197
 10
285.88598
 20
311.341428
 30
0.0
 11
286.702477
 21
312.157924
 31
0.0
  0
LINE
  8
LC-003-005-----0
  6
CONTINUOUS
  5
198
 10
285.606958
 20
315.305044
 30
0.0
 11
285.805904
 21
315.50399
 31
0.0
  0
ENDBLK
  8
0
  5
199
  0
BLOCK
  8
0
  5
19B
  2
*X17
 70
    65
 10
278.164251
 20
280.327591
 30
0.0
  3
*X17
  0
LINE
  8
LC-003-005-----0
  6
CONTINUOUS
  5
19C
 10
310.605387
 20
280.906509
 30
0.0
 11
311.421884
 21
281.723006
 31
0.0
  0
LINE
  8
LC-003-005-----0
  6
CONTINUOUS
  5
19D
 10
307.259322
 20
281.803087
 30
0.0
 11
308.075819
 21
282.619583
 31
0.0
  0
LINE
  8
LC-003-005-----0
  6
CONTINUOUS
  5
19E
 10
303.913257
 20
282.699665
 30
0.0
 11
304.729755
 21
283.516161
 31
0.0
  0
LINE
  8
LC-003-005-----0
  6
CONTINUOUS
  5
19F
 10
300.567193
 20
283.596242
 30
0.0
 11
301.38369
 21
284.412739
 31
0.0
  0
LINE
  8
LC-003-005-----0
  6
CONTINUOUS
  5
1A0
 10
297.221128
 20
284.49282
 30
0.0
 11
298.037625
 21
285.309316
 31
0.0
  0
LINE
  8
LC-003-005-----0
  6
CONTINUOUS
  5
1A1
 10
293.875063
 20
285.389398
 30
0.0
 11
294.691561
 21
286.205894
 31
0.0
  0
LINE
  8
LC-003-005-----0
  6
CONTINUOUS
  5
1A2
 10
290.528999
 20
286.285975
 30
0.0
 11
291.345496
 21
287.102472
 31
0.0
  0
LINE
  8
LC-003-005-----0
  6
CONTINUOUS
  5
1A3
 10
287.182934
 20
287.182553
 30
0.0
 11
287.999431
 21
287.999049
 31
0.0
  0
LINE
  8
LC-003-005-----0
  6
CONTINUOUS
  5
1A4
 10
283.83687
 20
288.079131
 30
0.0
 11
284.653367
 21
288.895627
 31
0.0
  0
LINE
  8
LC-003-005-----0
  6
CONTINUOUS
  5
1A5
 10
278.857811
 20
287.342716
 30
0.0
 11
279.256582
 21
287.741487
 31
0.0
  0
LINE
  8
LC-003-005-----0
  6
CONTINUOUS
  5
1A6
 10
280.490805
 20
288.975708
 30
0.0
 11
281.307302
 21
289.792204
 31
0.0
  0
ENDBLK
  8
0
  5
1A7
  0
BLOCK
  8
0
  5
1A9
  2
BLK1
 70
    64
 10
0.0
 20
0.0
 30
0.0
  3
BLK1
  0
ENDBLK
  8
0
  5
1AA
  0
BLOCK
  8
0
  5
1AC
  2
*X19
 70
    65
 10
392.956602
 20
259.333935
 30
0.0
  3
*X19
  0
LINE
  8
LC-003-005-----0
  6
CONTINUOUS
  5
1AD
 10
435.543051
 20
261.594321
 30
0.0
 11
436.730627
 21
262.781895
 31
0.0
  0
LINE
  8
LC-003-005-----0
  6
CONTINUOUS
  5
1AE
 10
434.646474
 20
264.940383
 30
0.0
 11
436.274435
 21
266.568341
 31
0.0
  0
LINE
  8
LC-003-005-----0
  6
CONTINUOUS
  5
1AF
 10
433.749897
 20
268.286445
 30
0.0
 11
435.416867
 21
269.953412
 31
0.0
  0
LINE
  8
LC-003-005-----0
  6
CONTINUOUS
  5
1B0
 10
432.853321
 20
271.632507
 30
0.0
 11
434.645953
 21
273.425137
 31
0.0
  0
LINE
  8
LC-003-005-----0
  6
CONTINUOUS
  5
1B1
 10
431.956744
 20
274.978569
 30
0.0
 11
433.852949
 21
276.874772
 31
0.0
  0
LINE
  8
LC-003-005-----0
  6
CONTINUOUS
  5
1B2
 10
431.060167
 20
278.324631
 30
0.0
 11
432.990921
 21
280.255383
 31
0.0
  0
LINE
  8
LC-003-005-----0
  6
CONTINUOUS
  5
1B3
 10
430.16359
 20
281.670693
 30
0.0
 11
432.602657
 21
284.109757
 31
0.0
  0
LINE
  8
LC-003-005-----0
  6
CONTINUOUS
  5
1B4
 10
429.267013
 20
285.016755
 30
0.0
 11
431.314875
 21
287.064615
 31
0.0
  0
LINE
  8
LC-003-005-----0
  6
CONTINUOUS
  5
1B5
 10
428.370436
 20
288.362817
 30
0.0
 11
431.109962
 21
291.10234
 31
0.0
  0
LINE
  8
LC-003-005-----0
  6
CONTINUOUS
  5
1B6
 10
427.473859
 20
291.70888
 30
0.0
 11
429.571122
 21
293.80614
 31
0.0
  0
LINE
  8
LC-003-005-----0
  6
CONTINUOUS
  5
1B7
 10
426.577282
 20
295.054942
 30
0.0
 11
428.618523
 21
297.09618
 31
0.0
  0
LINE
  8
LC-003-005-----0
  6
CONTINUOUS
  5
1B8
 10
425.680705
 20
298.401004
 30
0.0
 11
427.721946
 21
300.442242
 31
0.0
  0
LINE
  8
LC-003-005-----0
  6
CONTINUOUS
  5
1B9
 10
424.784128
 20
301.747066
 30
0.0
 11
426.825369
 21
303.788304
 31
0.0
  0
LINE
  8
LC-003-005-----0
  6
CONTINUOUS
  5
1BA
 10
423.887551
 20
305.093128
 30
0.0
 11
425.844468
 21
307.050042
 31
0.0
  0
LINE
  8
LC-003-005-----0
  6
CONTINUOUS
  5
1BB
 10
422.669933
 20
308.11815
 30
0.0
 11
424.382316
 21
309.83053
 31
0.0
  0
LINE
  8
LC-003-005-----0
  6
CONTINUOUS
  5
1BC
 10
420.870184
 20
310.561041
 30
0.0
 11
422.464708
 21
312.155563
 31
0.0
  0
LINE
  8
LC-003-005-----0
  6
CONTINUOUS
  5
1BD
 10
418.553086
 20
312.486584
 30
0.0
 11
420.11849
 21
314.051985
 31
0.0
  0
LINE
  8
LC-003-005-----0
  6
CONTINUOUS
  5
1BE
 10
415.68021
 20
313.85635
 30
0.0
 11
417.313889
 21
315.490027
 31
0.0
  0
LINE
  8
LC-003-005-----0
  6
CONTINUOUS
  5
1BF
 10
412.058293
 20
314.477075
 30
0.0
 11
413.940382
 21
316.359162
 31
0.0
  0
LINE
  8
LC-003-005-----0
  6
CONTINUOUS
  5
1C0
 10
406.970894
 20
313.632321
 30
0.0
 11
409.667121
 21
316.328544
 31
0.0
  0
LINE
  8
LC-003-005-----0
  6
CONTINUOUS
  5
1C1
 10
401.175327
 20
312.079399
 30
0.0
 11
404.003762
 21
314.907831
 31
0.0
  0
LINE
  8
LC-003-005-----0
  6
CONTINUOUS
  5
1C2
 10
395.379759
 20
310.526477
 30
0.0
 11
398.208195
 21
313.354909
 31
0.0
  0
LINE
  8
LC-003-005-----0
  6
CONTINUOUS
  5
1C3
 10
393.364704
 20
312.754063
 30
0.0
 11
394.589449
 21
313.978806
 31
0.0
  0
ENDBLK
  8
0
  5
1C4
  0
BLOCK
  8
0
  5
1C6
  2
*X20
 70
    65
 10
399.621209
 20
255.19282
 30
0.0
  3
*X20
  0
LINE
  8
LC-003-005-----0
  6
CONTINUOUS
  5
1C7
 10
420.68264
 20
255.219205
 30
0.0
 11
421.50245
 21
256.039014
 31
0.0
  0
LINE
  8
LC-003-005-----0
  6
CONTINUOUS
  5
1C8
 10
419.41279
 20
258.191994
 30
0.0
 11
420.605873
 21
259.385076
 31
0.0
  0
LINE
  8
LC-003-005-----0
  6
CONTINUOUS
  5
1C9
 10
418.142939
 20
261.164783
 30
0.0
 11
419.709296
 21
262.731138
 31
0.0
  0
LINE
  8
LC-003-005-----0
  6
CONTINUOUS
  5
1CA
 10
417.207254
 20
264.471737
 30
0.0
 11
418.812719
 21
266.0772
 31
0.0
  0
LINE
  8
LC-003-005-----0
  6
CONTINUOUS
  5
1CB
 10
415.970911
 20
267.478034
 30
0.0
 11
417.916142
 21
269.423262
 31
0.0
  0
LINE
  8
LC-003-005-----0
  6
CONTINUOUS
  5
1CC
 10
415.259872
 20
271.009634
 30
0.0
 11
417.019565
 21
272.769324
 31
0.0
  0
LINE
  8
LC-003-005-----0
  6
CONTINUOUS
  5
1CD
 10
413.865836
 20
273.858237
 30
0.0
 11
416.122988
 21
276.115386
 31
0.0
  0
LINE
  8
LC-003-005-----0
  6
CONTINUOUS
  5
1CE
 10
412.996192
 20
277.231232
 30
0.0
 11
415.226411
 21
279.461448
 31
0.0
  0
LINE
  8
LC-003-005-----0
  6
CONTINUOUS
  5
1CF
 10
411.678659
 20
280.156339
 30
0.0
 11
414.329834
 21
282.80751
 31
0.0
  0
LINE
  8
LC-003-005-----0
  6
CONTINUOUS
  5
1D0
 10
411.027425
 20
283.747744
 30
0.0
 11
413.433257
 21
286.153572
 31
0.0
  0
LINE
  8
LC-003-005-----0
  6
CONTINUOUS
  5
1D1
 10
409.591486
 20
286.554444
 30
0.0
 11
412.53668
 21
289.499635
 31
0.0
  0
LINE
  8
LC-003-005-----0
  6
CONTINUOUS
  5
1D2
 10
408.51018
 20
289.715778
 30
0.0
 11
411.338616
 21
292.544209
 31
0.0
  0
LINE
  8
LC-003-005-----0
  6
CONTINUOUS
  5
1D3
 10
400.53732
 20
285.985566
 30
0.0
 11
401.762065
 21
287.210309
 31
0.0
  0
LINE
  8
LC-003-005-----0
  6
CONTINUOUS
  5
1D4
 10
402.714613
 20
288.162856
 30
0.0
 11
405.543048
 21
290.991288
 31
0.0
  0
LINE
  8
LC-003-005-----0
  6
CONTINUOUS
  5
1D5
 10
399.640743
 20
289.331628
 30
0.0
 11
399.747481
 21
289.438366
 31
0.0
  0
ENDBLK
  8
0
  5
1D6
  0
BLOCK
  8
0
  5
1D8
  2
*X21
 70
    65
 10
377.721286
 20
312.130971
 30
0.0
  3
*X21
  0
LINE
  8
LC-003-005-----0
  6
CONTINUOUS
  5
1D9
 10
378.190968
 20
313.359507
 30
0.0
 11
379.158757
 21
312.39172
 31
0.0
  0
LINE
  8
LC-003-005-----0
  6
CONTINUOUS
  5
1DA
 10
380.871827
 20
314.921289
 30
0.0
 11
382.504821
 21
313.288297
 31
0.0
  0
LINE
  8
LC-003-005-----0
  6
CONTINUOUS
  5
1DB
 10
384.217892
 20
315.817867
 30
0.0
 11
385.850886
 21
314.184875
 31
0.0
  0
LINE
  8
LC-003-005-----0
  6
CONTINUOUS
  5
1DC
 10
387.563956
 20
316.714445
 30
0.0
 11
389.196951
 21
315.081453
 31
0.0
  0
LINE
  8
LC-003-005-----0
  6
CONTINUOUS
  5
1DD
 10
390.910021
 20
317.611022
 30
0.0
 11
392.543015
 21
315.97803
 31
0.0
  0
LINE
  8
LC-003-005-----0
  6
CONTINUOUS
  5
1DE
 10
395.313835
 20
313.207214
 30
0.0
 11
395.400755
 21
313.120294
 31
0.0
  0
ENDBLK
  8
0
  5
1DF
  0
BLOCK
  8
0
  5
1E1
  2
*X22
 70
    65
 10
387.166454
 20
276.955748
 30
0.0
  3
*X22
  0
LINE
  8
LC-003-005-----0
  6
CONTINUOUS
  5
1E2
 10
387.505137
 20
278.589523
 30
0.0
 11
388.886169
 21
277.208493
 31
0.0
  0
LINE
  8
LC-003-005-----0
  6
CONTINUOUS
  5
1E3
 10
389.78275
 20
280.554551
 30
0.0
 11
391.415749
 21
278.921554
 31
0.0
  0
LINE
  8
LC-003-005-----0
  6
CONTINUOUS
  5
1E4
 10
393.12883
 20
281.451114
 30
0.0
 11
394.761829
 21
279.818117
 31
0.0
  0
LINE
  8
LC-003-005-----0
  6
CONTINUOUS
  5
1E5
 10
396.474909
 20
282.347676
 30
0.0
 11
398.107909
 21
280.714679
 31
0.0
  0
LINE
  8
LC-003-005-----0
  6
CONTINUOUS
  5
1E6
 10
399.820989
 20
283.244239
 30
0.0
 11
401.453988
 21
281.611242
 31
0.0
  0
LINE
  8
LC-003-005-----0
  6
CONTINUOUS
  5
1E7
 10
402.819096
 20
284.488774
 30
0.0
 11
404.03464
 21
283.273231
 31
0.0
  0
ENDBLK
  8
0
  5
1E8
  0
BLOCK
  8
0
  5
1EA
  2
BLK2
 70
    64
 10
0.0
 20
0.0
 30
0.0
  3
BLK2
  0
ENDBLK
  8
0
  5
1EB
  0
ENDSEC
  0
SECTION
  2
ENTITIES
  0
VIEWPORT
  8
LC-000
  5
2F1
 67
     1
 68
     1
 10
420.0
 20
297.0
 30
0.0
 40
840.0
 41
594.0
 69
     1
1001
ACAD
1000
MVIEW
1002
{
1070
    16
1010
0.0
1020
0.0
1030
0.0
1010
0.0
1020
0.0
1030
1.0
1040
0.0
1040
594.0
1040
420.0
1040
297.0
1040
50.0
1040
0.0
1040
0.0
1070
     0
1070
   100
1070
     1
1070
     1
1070
     0
1070
     0
1070
     0
1070
     0
1040
0.0
1040
0.0
1040
0.0
1040
1.0
1040
1.0
1040
0.0
1040
0.0
1070
     0
1002
{
1002
}
1002
}
  0
VIEWPORT
  8
0
  5
2F2
 67
     1
 68
     1
 10
0.0
 20
0.0
 30
0.0
 40
0.0
 41
0.0
 69
     1
1001
ACAD
1000
MVIEW
1002
{
1070
    16
1010
0.0
1020
0.0
1030
0.0
1010
0.0
1020
0.0
1030
1.0
1040
0.0
1040
594.0
1040
0.0
1040
0.0
1040
50.0
1040
0.0
1040
0.0
1070
     0
1070
   100
1070
     0
1070
     1
1070
     0
1070
     0
1070
     0
1070
     0
1040
0.0
1040
0.0
1040
0.0
1040
0.5
1040
0.5
1040
0.5
1040
0.5
1070
     0
1002
{
1002
}
1002
}
  0
INSERT
  8
0
  5
1EC
  2
*X0
 10
279.0955
 20
146.089285
 30
0.0
  0
INSERT
  8
0
  5
1ED
  2
*X1
 10
286.73068
 20
303.716907
 30
0.0
  0
INSERT
  8
0
  5
1EE
  2
*X2
 10
315.136546
 20
310.372247
 30
0.0
  0
INSERT
  8
0
  5
1EF
  2
*X3
 10
320.136546
 20
316.084
 30
0.0
  0
INSERT
  8
0
  5
1F0
  2
*X4
 10
361.136546
 20
316.084
 30
0.0
  0
INSERT
  8
0
  5
1F1
  2
*X5
 10
364.636546
 20
310.372247
 30
0.0
  0
DIMENSION
  8
0
  5
1F2
  2
*D6
 10
465.63169
 20
80.0
 30
0.0
 11
465.63169
 21
80.0
 31
0.0
  1
DN50
 13
317.636546
 23
148.589285
 33
0.0
 14
367.636546
 24
148.589285
 34
0.0
  3
LC-DIM-L-0090-02-02
  0
INSERT
  8
0
  5
1F3
  2
*X7
 10
362.091899
 20
303.716907
 30
0.0
  0
INSERT
  8
0
  5
1F4
  2
*X8
 10
365.136546
 20
146.089285
 30
0.0
  0
DIMENSION
  8
0
  5
1F5
  2
*D9
 10
476.0
 20
236.980766
 30
0.0
 11
476.0
 21
236.980766
 31
0.0
  1
180
 13
370.136546
 23
327.872247
 33
0.0
 14
365.136546
 24
146.089285
 34
0.0
 50
90.0
  3
LC-DIM-L-0090-02-02
  0
DIMENSION
  8
0
  5
1F6
  2
*D10
 10
337.226237
 20
40.0
 30
0.0
 11
337.226237
 21
40.0
 31
0.0
  1
180
 13
249.174676
 23
258.543998
 33
0.0
 14
429.098394
 24
256.668343
 34
0.0
  3
LC-DIM-L-0090-02-02
  0
DIMENSION
  8
0
  5
1F7
  2
*D11
 10
342.636546
 20
350.0
 30
0.0
 11
342.636546
 21
350.0
 31
0.0
  1
1 1/2"
 13
318.386546
 23
327.872247
 33
0.0
 14
366.886546
 24
327.872247
 34
0.0
  3
LC-DIM-L-0090-02-02
  0
INSERT
  8
0
  5
1F8
  2
*X12
 10
241.158221
 20
261.20959
 30
0.0
  0
INSERT
  8
0
  5
1F9
  2
*X13
 10
256.613233
 20
257.068475
 30
0.0
  0
INSERT
  8
0
  5
1FA
  2
*X14
 10
281.482794
 20
314.006627
 30
0.0
  0
INSERT
  8
0
  5
1FB
  2
*X15
 10
273.876526
 20
278.831404
 30
0.0
  0
INSERT
  8
0
  5
1FC
  2
*X16
 10
284.634742
 20
282.374645
 30
0.0
  0
INSERT
  8
0
  5
1FD
  2
*X17
 10
278.164251
 20
280.327591
 30
0.0
  0
INSERT
  8
0
  5
1FF
  2
BLK1
 10
0.0
 20
0.0
 30
0.0
  0
INSERT
  8
0
  5
200
  2
*X19
 10
392.956602
 20
259.333935
 30
0.0
  0
INSERT
  8
0
  5
201
  2
*X20
 10
399.621209
 20
255.19282
 30
0.0
  0
INSERT
  8
0
  5
202
  2
*X21
 10
377.721286
 20
312.130971
 30
0.0
  0
INSERT
  8
0
  5
203
  2
*X22
 10
387.166454
 20
276.955748
 30
0.0
  0
INSERT
  8
0
  5
204
  2
BLK2
 10
0.0
 20
0.0
 30
0.0
  0
LINE
  8
LC-001-002-----0
  5
207
 10
342.636546
 20
327.872247
 30
0.0
 11
342.636546
 21
146.089285
 31
0.0
  0
LINE
  8
LC-001-002-----0
  6
CONTINUOUS
 62
     1
  5
208
 10
367.636546
 20
276.43432
 30
0.0
 11
367.636546
 21
148.589285
 31
0.0
  0
LINE
  8
LC-001-002-----0
  6
CONTINUOUS
 62
     1
  5
209
 10
317.636546
 20
276.43432
 30
0.0
 11
317.636546
 21
148.589285
 31
0.0
  0
LINE
  8
LC-001-002-----0
  6
CONTINUOUS
 62
     1
  5
20A
 10
365.136546
 20
304.301038
 30
0.0
 11
365.136546
 21
303.716907
 31
0.0
  0
LINE
  8
LC-001-002-----0
  6
CONTINUOUS
 62
     1
  5
20B
 10
320.136546
 20
304.301038
 30
0.0
 11
320.136546
 21
303.716907
 31
0.0
  0
LINE
  8
LC-001-002-----0
  6
CONTINUOUS
 62
     1
  5
20C
 10
320.136546
 20
146.089285
 30
0.0
 11
365.136546
 21
146.089285
 31
0.0
  0
LINE
  8
LC-001-002-----0
  6
CONTINUOUS
 62
     1
  5
20D
 10
320.136546
 20
146.089285
 30
0.0
 11
317.636546
 21
148.589285
 31
0.0
  0
LINE
  8
LC-001-002-----0
  6
CONTINUOUS
 62
     1
  5
20E
 10
365.136546
 20
146.089285
 30
0.0
 11
367.636546
 21
148.589285
 31
0.0
  0
LINE
  8
LC-001-002-----0
  6
CONTINUOUS
 62
     1
  5
20F
 10
365.978538
 20
307.048348
 30
0.0
 11
364.636546
 21
308.466286
 31
0.0
  0
LINE
  8
LC-001-002-----0
  6
CONTINUOUS
 62
     1
  5
210
 10
320.636546
 20
313.084
 30
0.0
 11
320.636546
 21
308.466286
 31
0.0
  0
LINE
  8
LC-001-002-----0
  6
CONTINUOUS
 62
     1
  5
211
 10
323.136546
 20
315.584
 30
0.0
 11
323.136546
 21
307.560245
 31
0.0
  0
LINE
  8
LC-001-002-----0
  6
CONTINUOUS
 62
     1
  5
212
 10
321.136546
 20
315.584
 30
0.0
 11
364.136546
 21
315.584
 31
0.0
  0
LINE
  8
LC-001-002-----0
  6
CONTINUOUS
 62
     1
  5
213
 10
320.136546
 20
304.301038
 30
0.0
 11
323.181194
 21
307.517989
 31
0.0
  0
LINE
  8
LC-001-002-----0
  6
CONTINUOUS
 62
     1
  5
214
 10
362.136546
 20
315.584
 30
0.0
 11
362.136546
 21
307.560245
 31
0.0
  0
LINE
  8
LC-001-002-----0
  6
CONTINUOUS
 62
     1
  5
215
 10
319.294554
 20
307.048348
 30
0.0
 11
320.636546
 21
308.466286
 31
0.0
  0
LINE
  8
LC-001-002-----0
  6
CONTINUOUS
 62
     1
  5
216
 10
364.636546
 20
313.084
 30
0.0
 11
364.636546
 21
308.466286
 31
0.0
  0
LINE
  8
LC-001-002-----0
  6
CONTINUOUS
 62
     1
  5
217
 10
323.181194
 20
307.517989
 30
0.0
 11
362.091899
 21
307.517989
 31
0.0
  0
LINE
  8
LC-001-002-----0
  6
CONTINUOUS
 62
     1
  5
218
 10
320.136546
 20
277.834998
 30
0.0
 11
320.136546
 21
146.089285
 31
0.0
  0
LINE
  8
LC-001-002-----0
  6
CONTINUOUS
 62
     1
  5
219
 10
320.136546
 20
304.301038
 30
0.0
 11
365.136546
 21
304.301038
 31
0.0
  0
LINE
  8
LC-001-002-----0
  6
CONTINUOUS
 62
     1
  5
21A
 10
365.636546
 20
314.084
 30
0.0
 11
365.636546
 21
313.084
 31
0.0
  0
LINE
  8
LC-001-002-----0
  6
CONTINUOUS
 62
     1
  5
21B
 10
319.636546
 20
314.084
 30
0.0
 11
319.636546
 21
313.084
 31
0.0
  0
LINE
  8
LC-001-002-----0
  6
CONTINUOUS
 62
     1
  5
21C
 10
319.636546
 20
313.084
 30
0.0
 11
320.636546
 21
313.084
 31
0.0
  0
LINE
  8
LC-001-002-----0
  6
CONTINUOUS
 62
     1
  5
21D
 10
364.636546
 20
313.084
 30
0.0
 11
365.636546
 21
313.084
 31
0.0
  0
ARC
  8
LC-002-002-RND-0
  6
CONTINUOUS
  5
21F
 10
321.136546
 20
314.084
 30
0.0
 40
1.5
 50
90.0
 51
180.0
  0
ARC
  8
LC-002-002-RND-0
  6
CONTINUOUS
  5
220
 10
364.136546
 20
314.084
 30
0.0
 40
1.5
 50
0.0
 51
90.0
  0
LINE
  8
LC-001-002-----0
  6
CONTINUOUS
 62
     1
  5
221
 10
368.636546
 20
326.372247
 30
0.0
 11
368.636546
 21
312.372247
 31
0.0
  0
LINE
  8
LC-001-002-----0
  6
CONTINUOUS
 62
     1
  5
222
 10
316.636546
 20
326.372247
 30
0.0
 11
316.636546
 21
312.372247
 31
0.0
  0
LINE
  8
LC-001-002-----0
  6
CONTINUOUS
 62
     1
  5
223
 10
318.636546
 20
310.372247
 30
0.0
 11
318.85223
 21
310.372247
 31
0.0
  0
LINE
  8
LC-001-002-----0
  6
CONTINUOUS
 62
     1
  5
224
 10
315.136546
 20
327.872247
 30
0.0
 11
370.136546
 21
327.872247
 31
0.0
  0
LINE
  8
LC-001-002-----0
  6
CONTINUOUS
 62
     1
  5
225
 10
315.136546
 20
326.372247
 30
0.0
 11
316.636546
 21
326.372247
 31
0.0
  0
LINE
  8
LC-001-002-----0
  6
CONTINUOUS
 62
     1
  5
226
 10
370.136546
 20
327.872247
 30
0.0
 11
370.136546
 21
326.372247
 31
0.0
  0
LINE
  8
LC-001-002-----0
  6
CONTINUOUS
 62
     1
  5
227
 10
315.136546
 20
327.872247
 30
0.0
 11
315.136546
 21
326.372247
 31
0.0
  0
LINE
  8
LC-001-002-----0
  6
CONTINUOUS
 62
     1
  5
228
 10
368.636546
 20
326.372247
 30
0.0
 11
370.136546
 21
326.372247
 31
0.0
  0
LINE
  8
LC-001-002-----0
  6
CONTINUOUS
 62
     1
  5
229
 10
365.136546
 20
277.834998
 30
0.0
 11
365.136546
 21
146.089285
 31
0.0
  0
LINE
  8
LC-001-002-----0
  6
CONTINUOUS
 62
     1
  5
22A
 10
319.636546
 20
326.622247
 30
0.0
 11
319.636546
 21
313.372247
 31
0.0
  0
LINE
  8
LC-001-002-----0
  6
CONTINUOUS
 62
     1
  5
22B
 10
318.386546
 20
327.872247
 30
0.0
 11
318.386546
 21
312.122247
 31
0.0
  0
LINE
  8
LC-001-002-----0
  6
CONTINUOUS
 62
     1
  5
22C
 10
318.386546
 20
312.122247
 30
0.0
 11
320.35223
 21
312.122247
 31
0.0
  0
LINE
  8
LC-001-002-----0
  6
CONTINUOUS
 62
     1
  5
22D
 10
320.35223
 20
311.872247
 30
0.0
 11
320.35223
 21
312.122247
 31
0.0
  0
ARC
  8
LC-002-002-RND-0
  6
CONTINUOUS
  5
22E
 10
318.636546
 20
312.372247
 30
0.0
 40
2.0
 50
180.0
 51
270.0
  0
ARC
  8
LC-002-002-RND-0
  6
CONTINUOUS
  5
22F
 10
318.85223
 20
311.872247
 30
0.0
 40
1.5
 50
270.0
 51
0.0
  0
LINE
  8
LC-001-002-----0
  6
CONTINUOUS
 62
     1
  5
230
 10
318.386546
 20
327.872247
 30
0.0
 11
319.636546
 21
326.622247
 31
0.0
  0
LINE
  8
LC-001-002-----0
  6
CONTINUOUS
 62
     1
  5
231
 10
318.386546
 20
312.122247
 30
0.0
 11
319.636546
 21
313.372247
 31
0.0
  0
LINE
  8
LC-001-002-----0
  6
CONTINUOUS
 62
     1
  5
232
 10
319.636546
 20
326.622247
 30
0.0
 11
342.636546
 21
326.622247
 31
0.0
  0
LINE
  8
LC-001-002-----0
  6
CONTINUOUS
 62
     1
  5
233
 10
320.136546
 20
316.084
 30
0.0
 11
342.636546
 21
316.084
 31
0.0
  0
LINE
  8
LC-001-002-----0
  6
CONTINUOUS
 62
     1
  5
234
 10
320.136546
 20
318.084
 30
0.0
 11
342.636546
 21
318.084
 31
0.0
  0
LINE
  8
LC-001-002-----0
  6
CONTINUOUS
 62
     1
  5
235
 10
320.136546
 20
318.084
 30
0.0
 11
320.136546
 21
316.084
 31
0.0
  0
LINE
  8
LC-001-002-----0
  6
CONTINUOUS
 62
     1
  5
236
 10
324.136546
 20
318.084
 30
0.0
 11
324.136546
 21
316.084
 31
0.0
  0
LINE
  8
LC-001-002-----0
  6
CONTINUOUS
 62
     1
  5
237
 10
365.136546
 20
318.084
 30
0.0
 11
342.636546
 21
318.084
 31
0.0
  0
LINE
  8
LC-001-002-----0
  6
CONTINUOUS
 62
     1
  5
238
 10
365.136546
 20
316.084
 30
0.0
 11
342.636546
 21
316.084
 31
0.0
  0
LINE
  8
LC-001-002-----0
  6
CONTINUOUS
 62
     1
  5
239
 10
361.136546
 20
318.084
 30
0.0
 11
361.136546
 21
316.084
 31
0.0
  0
LINE
  8
LC-001-002-----0
  6
CONTINUOUS
 62
     1
  5
23A
 10
365.136546
 20
318.084
 30
0.0
 11
365.136546
 21
316.084
 31
0.0
  0
ARC
  8
LC-002-002-RND-0
  6
CONTINUOUS
  5
23B
 10
366.636546
 20
312.372247
 30
0.0
 40
2.0
 50
270.0
 51
0.0
  0
ARC
  8
LC-002-002-RND-0
  6
CONTINUOUS
  5
23C
 10
366.420863
 20
311.872247
 30
0.0
 40
1.5
 50
180.0
 51
270.0
  0
LINE
  8
LC-001-002-----0
  6
CONTINUOUS
 62
     1
  5
23D
 10
366.886546
 20
312.122247
 30
0.0
 11
364.920863
 21
312.122247
 31
0.0
  0
LINE
  8
LC-001-002-----0
  6
CONTINUOUS
 62
     1
  5
23E
 10
366.886546
 20
327.872247
 30
0.0
 11
366.886546
 21
312.122247
 31
0.0
  0
LINE
  8
LC-001-002-----0
  6
CONTINUOUS
 62
     1
  5
23F
 10
366.886546
 20
312.122247
 30
0.0
 11
365.636546
 21
313.372247
 31
0.0
  0
LINE
  8
LC-001-002-----0
  6
CONTINUOUS
 62
     1
  5
240
 10
365.636546
 20
326.622247
 30
0.0
 11
365.636546
 21
313.372247
 31
0.0
  0
LINE
  8
LC-001-002-----0
  6
CONTINUOUS
 62
     1
  5
241
 10
366.886546
 20
327.872247
 30
0.0
 11
365.636546
 21
326.622247
 31
0.0
  0
LINE
  8
LC-001-002-----0
  6
CONTINUOUS
 62
     1
  5
242
 10
365.636546
 20
326.622247
 30
0.0
 11
342.636546
 21
326.622247
 31
0.0
  0
LINE
  8
LC-001-002-----0
  6
CONTINUOUS
 62
     1
  5
243
 10
364.920863
 20
311.872247
 30
0.0
 11
364.920863
 21
312.122247
 31
0.0
  0
LINE
  8
LC-001-002-----0
  6
CONTINUOUS
 62
     1
  5
244
 10
366.420863
 20
310.372247
 30
0.0
 11
366.636546
 21
310.372247
 31
0.0
  0
LINE
  8
LC-001-002-----0
  6
CONTINUOUS
 62
     1
  5
245
 10
365.136546
 20
304.301038
 30
0.0
 11
362.091899
 21
307.517989
 31
0.0
  0
ARC
  8
LC-001-002-----0
  6
CONTINUOUS
 62
     1
  5
246
 10
382.201814
 20
290.775953
 30
0.0
 40
21.417088
 50
142.505331
 51
217.173814
  0
LINE
  8
LC-001-002-----0
  6
CONTINUOUS
 62
     1
  5
247
 10
287.636549
 20
317.084022
 30
0.0
 11
286.73068
 21
313.703282
 31
0.0
  0
LINE
  8
LC-001-002-----0
  6
CONTINUOUS
 62
     1
  5
248
 10
303.09136
 20
312.942907
 30
0.0
 11
302.70313
 21
311.494018
 31
0.0
  0
LINE
  8
LC-001-002-----0
  6
CONTINUOUS
 62
     1
  5
249
 10
294.55031
 20
281.06736
 30
0.0
 11
279.0955
 21
285.208475
 31
0.0
  0
LINE
  8
LC-001-002-----0
  6
CONTINUOUS
 62
     1
  5
24A
 10
302.70313
 20
311.494018
 30
0.0
 11
319.294554
 21
307.048348
 31
0.0
  0
LINE
  8
LC-001-002-----0
  6
CONTINUOUS
 62
     1
  5
24B
 10
294.93854
 20
282.516249
 30
0.0
 11
317.636546
 21
276.43432
 31
0.0
  0
LINE
  8
LC-007-001-----0
  6
CONTINUOUS
  5
24D
 10
286.73068
 20
313.703282
 30
0.0
 11
288.662531
 21
313.185642
 31
0.0
  0
LINE
  8
LC-007-001-----0
  6
CONTINUOUS
  5
24E
 10
280.001369
 20
288.589215
 30
0.0
 11
320.136546
 21
277.834998
 31
0.0
  0
LINE
  8
LC-001-002-----0
  6
CONTINUOUS
 62
     1
  5
24F
 10
294.93854
 20
282.516249
 30
0.0
 11
294.55031
 21
281.06736
 31
0.0
  0
LINE
  8
LC-007-001-----0
  6
CONTINUOUS
  5
250
 10
288.403712
 20
312.219717
 30
0.0
 11
320.136546
 21
303.716907
 31
0.0
  0
LINE
  8
LC-001-002-----0
  6
CONTINUOUS
 62
     1
  5
251
 10
286.635947
 20
315.28158
 30
0.0
 11
285.670021
 21
315.5404
 31
0.0
  0
LINE
  8
LC-001-002-----0
  6
CONTINUOUS
 62
     1
  5
252
 10
285.670021
 20
315.5404
 30
0.0
 11
284.634742
 21
311.676697
 31
0.0
  0
LINE
  8
LC-001-002-----0
  6
CONTINUOUS
 62
     1
  5
253
 10
278.164251
 20
287.528556
 30
0.0
 11
279.130176
 21
287.269736
 31
0.0
  0
LINE
  8
LC-001-002-----0
  6
CONTINUOUS
 62
     1
  5
254
 10
279.130176
 20
287.269736
 30
0.0
 11
279.647816
 21
289.201587
 31
0.0
  0
LINE
  8
LC-001-002-----0
  6
CONTINUOUS
 62
     1
  5
255
 10
279.647816
 20
289.201587
 30
0.0
 11
312.765934
 21
280.327591
 31
0.0
  0
LINE
  8
LC-001-002-----0
  6
CONTINUOUS
 62
     1
  5
256
 10
288.662531
 20
313.185642
 30
0.0
 11
288.403712
 21
312.219717
 31
0.0
  0
LINE
  8
LC-001-002-----0
  6
CONTINUOUS
 62
     1
  5
257
 10
280.001369
 20
288.589215
 30
0.0
 11
279.0955
 21
285.208475
 31
0.0
  0
LINE
  8
LC-001-002-----0
  6
CONTINUOUS
 62
     1
  5
258
 10
278.94071
 20
290.426333
 30
0.0
 11
313.024754
 21
281.293517
 31
0.0
  0
LINE
  8
LC-001-002-----0
  6
CONTINUOUS
 62
     1
  5
259
 10
285.859488
 20
312.383803
 30
0.0
 11
286.635947
 21
315.28158
 31
0.0
  0
LINE
  8
LC-007-001-----0
  6
CONTINUOUS
  5
25A
 10
331.556804
 20
289.786448
 30
0.0
 11
330.780345
 21
286.888671
 31
0.0
  0
ARC
  8
LC-007-001-----0
  6
CONTINUOUS
  5
25B
 10
321.897548
 20
292.374645
 30
0.0
 40
10.0
 50
344.999963
 51
74.999888
  0
LINE
  8
LC-001-002-----0
  6
CONTINUOUS
 62
     1
  5
25C
 10
285.859488
 20
312.383803
 30
0.0
 11
324.485745
 21
302.033902
 31
0.0
  0
LINE
  8
LC-001-002-----0
  6
CONTINUOUS
 62
     1
  5
25D
 10
284.634742
 20
311.676697
 30
0.0
 11
324.226925
 21
301.067976
 31
0.0
  0
ARC
  8
LC-001-002-----0
  6
CONTINUOUS
 62
     1
  5
25E
 10
321.897548
 20
292.374645
 30
0.0
 40
9.0
 50
345.000096
 51
74.999963
  0
LINE
  8
LC-007-001-----0
  6
CONTINUOUS
  5
25F
 10
330.590879
 20
290.045268
 30
0.0
 11
329.764971
 21
286.962948
 31
0.0
  0
LINE
  8
LC-007-001-----0
  6
CONTINUOUS
  5
260
 10
312.765934
 20
280.327591
 30
0.0
 11
314.836492
 21
288.054996
 31
0.0
  0
LINE
  8
LC-001-002-----0
  6
CONTINUOUS
 62
     1
  5
261
 10
330.780345
 20
286.888671
 30
0.0
 11
329.764971
 21
286.962948
 31
0.0
  0
LINE
  8
LC-001-002-----0
  6
CONTINUOUS
 62
     1
  5
262
 10
285.316468
 20
316.152772
 30
0.0
 11
283.86758
 21
316.541002
 31
0.0
  0
LINE
  8
LC-001-002-----0
  6
CONTINUOUS
 62
     1
  5
263
 10
276.102989
 20
287.563232
 30
0.0
 11
277.551878
 21
287.175003
 31
0.0
  0
LINE
  8
LC-001-002-----0
  6
CONTINUOUS
 62
     1
  5
264
 10
283.86758
 20
316.541002
 30
0.0
 11
283.285235
 21
314.367669
 31
0.0
  0
LINE
  8
LC-001-002-----0
  6
CONTINUOUS
 62
     1
  5
265
 10
276.685334
 20
289.736565
 30
0.0
 11
268.474966
 21
291.936532
 31
0.0
  0
LINE
  8
LC-001-002-----0
  6
CONTINUOUS
 62
     1
  5
266
 10
278.651861
 20
291.280187
 30
0.0
 11
266.577791
 21
294.515433
 31
0.0
  0
LINE
  8
LC-001-002-----0
  6
CONTINUOUS
 62
     1
  5
267
 10
276.685334
 20
289.736565
 30
0.0
 11
276.102989
 21
287.563232
 31
0.0
  0
LINE
  8
LC-001-002-----0
  6
CONTINUOUS
 62
     1
  5
268
 10
268.474966
 20
291.936532
 30
0.0
 11
268.086736
 21
290.487644
 31
0.0
  0
LINE
  8
LC-007-001-----0
  6
CONTINUOUS
  5
269
 10
266.577791
 20
294.515433
 30
0.0
 11
256.613233
 21
257.327295
 31
0.0
  0
LINE
  8
LC-001-002-----0
  6
CONTINUOUS
 62
     1
  5
26A
 10
251.874059
 20
307.255145
 30
0.0
 11
248.768223
 21
295.664037
 31
0.0
  0
ARC
  8
LC-001-002-----0
  6
CONTINUOUS
 62
     1
  5
26B
 10
266.362944
 20
303.37285
 30
0.0
 40
15.0
 50
74.999963
 51
164.999963
  0
LINE
  8
LC-001-002-----0
  6
CONTINUOUS
 62
     1
  5
26C
 10
283.285235
 20
314.367669
 30
0.0
 11
270.245239
 21
317.861735
 31
0.0
  0
LINE
  8
LC-007-001-----0
  6
CONTINUOUS
  5
26D
 10
254.418283
 20
307.091059
 30
0.0
 11
242.124348
 21
261.20959
 31
0.0
  0
ARC
  8
LC-007-001-----0
  6
CONTINUOUS
  5
26E
 10
266.492354
 20
303.855813
 30
0.0
 40
12.5
 50
74.999963
 51
164.999963
  0
LINE
  8
LC-001-002-----0
  6
CONTINUOUS
 62
     1
  5
26F
 10
284.216485
 20
312.047588
 30
0.0
 11
269.7276
 21
315.929884
 31
0.0
  0
LINE
  8
LC-007-001-----0
  6
DASHDOT
 62
     2
  5
270
 10
330.202649
 20
288.59638
 30
0.0
 11
264.530474
 21
306.193232
 31
0.0
  0
ARC
  8
LC-007-001-----0
  6
DASHDOT
 62
     2
  5
271
 10
263.883425
 20
303.778418
 30
0.0
 40
2.5
 50
74.999963
 51
164.999944
  0
LINE
  8
LC-001-002-----0
  5
272
 10
261.468611
 20
304.425467
 30
0.0
 11
249.174676
 21
258.543998
 31
0.0
  0
LINE
  8
LC-001-002-----0
  6
CONTINUOUS
 62
     1
  5
273
 10
268.086736
 20
290.487644
 30
0.0
 11
269.535625
 21
290.099414
 31
0.0
  0
LINE
  8
LC-001-002-----0
  6
CONTINUOUS
 62
     1
  5
274
 10
248.768223
 20
295.664037
 30
0.0
 11
247.319334
 21
296.052267
 31
0.0
  0
LINE
  8
LC-001-002-----0
  6
CONTINUOUS
 62
     1
  5
275
 10
245.99056
 20
289.161377
 30
0.0
 11
246.956229
 21
288.902626
 31
0.0
  0
LINE
  8
LC-001-002-----0
  6
CONTINUOUS
 62
     1
  5
276
 10
244.661785
 20
282.270488
 30
0.0
 11
245.279481
 21
282.104976
 31
0.0
  0
LINE
  8
LC-001-002-----0
  6
CONTINUOUS
 62
     1
  5
277
 10
243.33301
 20
275.379598
 30
0.0
 11
244.173402
 21
275.154415
 31
0.0
  0
LINE
  8
LC-001-002-----0
  6
CONTINUOUS
 62
     1
  5
278
 10
242.004235
 20
268.488709
 30
0.0
 11
242.393818
 21
268.38432
 31
0.0
  0
LINE
  8
LC-001-002-----0
  6
CONTINUOUS
 62
     1
  5
279
 10
241.158423
 20
261.46841
 30
0.0
 11
257.579159
 21
257.068475
 31
0.0
  0
LINE
  8
LC-001-002-----0
  6
CONTINUOUS
 62
     1
  5
27A
 10
269.535625
 20
290.099414
 30
0.0
 11
266.274998
 21
283.726164
 31
0.0
  0
LINE
  8
LC-001-002-----0
  6
CONTINUOUS
 62
     1
  5
27B
 10
267.240924
 20
283.467344
 30
0.0
 11
264.328275
 21
277.000854
 31
0.0
  0
LINE
  8
LC-001-002-----0
  6
CONTINUOUS
 62
     1
  5
27C
 10
264.946223
 20
276.835275
 30
0.0
 11
261.810883
 21
270.428454
 31
0.0
  0
LINE
  8
LC-001-002-----0
  6
CONTINUOUS
 62
     1
  5
27D
 10
262.651523
 20
270.203205
 30
0.0
 11
259.96703
 21
263.67558
 31
0.0
  0
LINE
  8
LC-001-002-----0
  6
CONTINUOUS
 62
     1
  5
27E
 10
260.356822
 20
263.571135
 30
0.0
 11
257.579159
 21
257.068475
 31
0.0
  0
LINE
  8
LC-001-002-----0
  6
CONTINUOUS
 62
     1
  5
27F
 10
247.319142
 20
296.052592
 30
0.0
 11
246.956298
 21
288.902882
 31
0.0
  0
LINE
  8
LC-001-002-----0
  6
CONTINUOUS
 62
     1
  5
280
 10
245.990372
 20
289.161701
 30
0.0
 11
245.27955
 21
282.105232
 31
0.0
  0
LINE
  8
LC-001-002-----0
  6
CONTINUOUS
 62
     1
  5
281
 10
244.661601
 20
282.270811
 30
0.0
 11
244.173471
 21
275.154672
 31
0.0
  0
LINE
  8
LC-001-002-----0
  6
CONTINUOUS
 62
     1
  5
282
 10
243.332831
 20
275.379921
 30
0.0
 11
242.393853
 21
268.384586
 31
0.0
  0
LINE
  8
LC-001-002-----0
  6
CONTINUOUS
 62
     1
  5
283
 10
242.004061
 20
268.48903
 30
0.0
 11
241.158253
 21
261.468731
 31
0.0
  0
LINE
  8
LC-001-002-----0
  6
CONTINUOUS
 62
     1
  5
284
 10
266.274998
 20
283.726164
 30
0.0
 11
267.240924
 21
283.467344
 31
0.0
  0
LINE
  8
LC-001-002-----0
  6
CONTINUOUS
 62
     1
  5
285
 10
264.328275
 20
277.000854
 30
0.0
 11
264.946223
 21
276.835275
 31
0.0
  0
LINE
  8
LC-001-002-----0
  6
CONTINUOUS
 62
     1
  5
286
 10
261.810883
 20
270.428454
 30
0.0
 11
262.651523
 21
270.203205
 31
0.0
  0
LINE
  8
LC-001-002-----0
  6
CONTINUOUS
 62
     1
  5
287
 10
259.96703
 20
263.67558
 30
0.0
 11
260.356822
 21
263.571135
 31
0.0
  0
LINE
  8
LC-001-002-----0
  6
CONTINUOUS
  5
288
 10
266.577791
 20
294.515433
 30
0.0
 11
262.82742
 21
305.657072
 31
0.0
  0
LINE
  8
LC-001-002-----0
  6
CONTINUOUS
 62
     1
  5
289
 10
299.327038
 20
316.280928
 30
0.0
 11
299.585858
 21
317.246854
 31
0.0
  0
LINE
  8
LC-001-002-----0
  6
CONTINUOUS
 62
     1
  5
28A
 10
299.585858
 20
317.246854
 30
0.0
 11
300.551784
 21
316.988034
 31
0.0
  0
LINE
  8
LC-001-002-----0
  6
CONTINUOUS
 62
     1
  5
28B
 10
300.551784
 20
316.988034
 30
0.0
 11
299.775325
 21
314.090257
 31
0.0
  0
LINE
  8
LC-001-002-----0
  6
CONTINUOUS
 62
     1
  5
28C
 10
299.775325
 20
314.090257
 30
0.0
 11
298.809399
 21
314.349077
 31
0.0
  0
ARC
  8
LC-001-002-----0
  6
CONTINUOUS
 62
     1
  5
28D
 10
285.02762
 20
317.006627
 30
0.0
 40
3.0
 50
74.999963
 51
164.999963
  0
LINE
  8
LC-001-002-----0
  6
CONTINUOUS
 62
     1
  5
28E
 10
285.804079
 20
319.904403
 30
0.0
 11
299.327038
 21
316.280928
 31
0.0
  0
LINE
  8
LC-001-002-----0
  6
CONTINUOUS
 62
     1
  5
28F
 10
282.931682
 20
314.980042
 30
0.0
 11
283.578732
 21
317.394856
 31
0.0
  0
ARC
  8
LC-001-002-----0
  6
CONTINUOUS
 62
     1
  5
290
 10
284.544657
 20
317.136036
 30
0.0
 40
1.0
 50
74.999963
 51
164.999963
  0
LINE
  8
LC-001-002-----0
  6
CONTINUOUS
 62
     1
  5
291
 10
284.803477
 20
318.101962
 30
0.0
 11
298.809399
 21
314.349077
 31
0.0
  0
LINE
  8
LC-001-002-----0
  6
CONTINUOUS
 62
     1
  5
292
 10
276.100082
 20
283.679549
 30
0.0
 11
289.62306
 21
280.056145
 31
0.0
  0
LINE
  8
LC-001-002-----0
  6
CONTINUOUS
 62
     1
  5
293
 10
289.62306
 20
280.056145
 30
0.0
 11
289.364246
 21
279.090218
 31
0.0
  0
LINE
  8
LC-001-002-----0
  6
CONTINUOUS
 62
     1
  5
294
 10
289.364246
 20
279.090218
 30
0.0
 11
290.330173
 21
278.831404
 31
0.0
  0
LINE
  8
LC-001-002-----0
  6
CONTINUOUS
 62
     1
  5
295
 10
290.330173
 20
278.831404
 30
0.0
 11
291.106616
 21
281.729185
 31
0.0
  0
LINE
  8
LC-001-002-----0
  6
CONTINUOUS
 62
     1
  5
296
 10
276.134747
 20
285.74081
 30
0.0
 11
290.140689
 21
281.987999
 31
0.0
  0
LINE
  8
LC-001-002-----0
  6
CONTINUOUS
 62
     1
  5
297
 10
291.106616
 20
281.729185
 30
0.0
 11
290.140689
 21
281.987999
 31
0.0
  0
ARC
  8
LC-001-002-----0
  6
CONTINUOUS
 62
     1
  5
298
 10
276.876526
 20
286.57733
 30
0.0
 40
3.0
 50
165.000267
 51
255.000229
  0
LINE
  8
LC-001-002-----0
  6
CONTINUOUS
 62
     1
  5
299
 10
276.074671
 20
289.38037
 30
0.0
 11
275.427635
 21
286.965552
 31
0.0
  0
ARC
  8
LC-001-002-----0
  6
CONTINUOUS
 62
     1
  5
29A
 10
276.393562
 20
286.706737
 30
0.0
 40
1.0
 50
165.000267
 51
255.000229
  0
LINE
  8
LC-001-002-----0
  6
CONTINUOUS
 62
     1
  5
29B
 10
303.09136
 20
312.942907
 30
0.0
 11
287.636549
 21
317.084022
 31
0.0
  0
LINE
  8
LC-001-002-----0
  6
CONTINUOUS
 62
     1
  5
29C
 10
285.316468
 20
316.152772
 30
0.0
 11
277.551878
 21
287.175003
 31
0.0
  0
LINE
  8
LC-001-002-----0
  6
CONTINUOUS
 62
     1
  5
29D
 10
329.764971
 20
286.962948
 30
0.0
 11
314.836492
 21
288.054996
 31
0.0
  0
LINE
  8
LC-001-002-----0
  6
CONTINUOUS
 62
     1
  5
29E
 10
284.634742
 20
311.676697
 30
0.0
 11
278.94071
 21
290.426333
 31
0.0
  0
LINE
  8
LC-001-002-----0
  6
CONTINUOUS
 62
     1
  5
29F
 10
278.94071
 20
290.426333
 30
0.0
 11
278.164251
 21
287.528556
 31
0.0
  0
LINE
  8
LC-001-002-----0
  6
CONTINUOUS
 62
     1
  5
2A0
 10
281.871023
 20
316.81716
 30
0.0
 11
282.129843
 21
317.783086
 31
0.0
  0
ARC
  8
LC-001-002-----0
  6
CONTINUOUS
 62
     1
  5
2A1
 10
283.319912
 20
316.42893
 30
0.0
 40
1.5
 50
164.999963
 51
254.999811
  0
LINE
  8
LC-001-002-----0
  6
CONTINUOUS
 62
     1
  5
2A2
 10
282.931682
 20
314.980042
 30
0.0
 11
282.931682
 21
314.980042
 31
0.0
  0
LINE
  8
LC-001-002-----0
  6
CONTINUOUS
 62
     1
  5
2A3
 10
274.237559
 20
288.319701
 30
0.0
 11
273.978744
 21
287.353774
 31
0.0
  0
ARC
  8
LC-001-002-----0
  6
CONTINUOUS
 62
     1
  5
2A4
 10
275.68645
 20
287.931479
 30
0.0
 40
1.5
 50
75.000267
 51
165.000267
  0
LINE
  8
LC-001-002-----0
  6
CONTINUOUS
 62
     1
  5
2A5
 10
276.074671
 20
289.38037
 30
0.0
 11
276.074671
 21
289.38037
 31
0.0
  0
LINE
  8
LC-001-002-----0
  6
CONTINUOUS
 62
     1
  5
2A6
 10
390.636521
 20
315.208366
 30
0.0
 11
398.271701
 21
286.713559
 31
0.0
  0
LINE
  8
LC-001-002-----0
  6
CONTINUOUS
 62
     1
  5
2A7
 10
375.181711
 20
311.067251
 30
0.0
 11
375.56994
 21
309.618363
 31
0.0
  0
LINE
  8
LC-001-002-----0
  6
CONTINUOUS
 62
     1
  5
2A8
 10
383.72276
 20
279.191705
 30
0.0
 11
399.17757
 21
283.33282
 31
0.0
  0
LINE
  8
LC-001-002-----0
  6
CONTINUOUS
 62
     1
  5
2A9
 10
375.56994
 20
309.618363
 30
0.0
 11
365.978538
 21
307.048348
 31
0.0
  0
LINE
  8
LC-001-002-----0
  6
CONTINUOUS
 62
     1
  5
2AA
 10
383.33453
 20
280.640593
 30
0.0
 11
367.636546
 21
276.43432
 31
0.0
  0
LINE
  8
LC-007-001-----0
  6
CONTINUOUS
  5
2AB
 10
398.271701
 20
286.713559
 30
0.0
 11
365.136546
 21
277.834998
 31
0.0
  0
LINE
  8
LC-001-002-----0
  6
CONTINUOUS
 62
     1
  5
2AC
 10
383.33453
 20
280.640593
 30
0.0
 11
383.72276
 21
279.191705
 31
0.0
  0
LINE
  8
LC-007-001-----0
  6
CONTINUOUS
  5
2AD
 10
391.80121
 20
310.861701
 30
0.0
 11
365.282579
 21
303.756037
 31
0.0
  0
LINE
  8
LC-001-002-----0
  6
CONTINUOUS
 62
     1
  5
2AE
 10
398.271701
 20
286.713559
 30
0.0
 11
399.17757
 21
283.33282
 31
0.0
  0
LINE
  8
LC-001-002-----0
  6
CONTINUOUS
 62
     1
  5
2AF
 10
392.956602
 20
314.277117
 30
0.0
 11
394.40549
 21
314.665347
 31
0.0
  0
LINE
  8
LC-001-002-----0
  6
CONTINUOUS
 62
     1
  5
2B0
 10
402.170081
 20
285.687577
 30
0.0
 11
400.721192
 21
285.299347
 31
0.0
  0
LINE
  8
LC-001-002-----0
  6
CONTINUOUS
 62
     1
  5
2B1
 10
394.40549
 20
314.665347
 30
0.0
 11
394.987835
 21
312.492014
 31
0.0
  0
LINE
  8
LC-001-002-----0
  6
CONTINUOUS
 62
     1
  5
2B2
 10
401.587736
 20
287.86091
 30
0.0
 11
409.798104
 21
290.060877
 31
0.0
  0
LINE
  8
LC-001-002-----0
  6
CONTINUOUS
 62
     1
  5
2B3
 10
399.621209
 20
289.404531
 30
0.0
 11
411.695279
 21
292.639777
 31
0.0
  0
LINE
  8
LC-001-002-----0
  6
CONTINUOUS
 62
     1
  5
2B4
 10
401.587736
 20
287.86091
 30
0.0
 11
402.170081
 21
285.687577
 31
0.0
  0
LINE
  8
LC-001-002-----0
  6
CONTINUOUS
 62
     1
  5
2B5
 10
409.798104
 20
290.060877
 30
0.0
 11
410.186334
 21
288.611988
 31
0.0
  0
LINE
  8
LC-007-001-----0
  6
CONTINUOUS
  5
2B6
 10
411.695279
 20
292.639777
 30
0.0
 11
421.659837
 21
255.45164
 31
0.0
  0
LINE
  8
LC-001-002-----0
  6
CONTINUOUS
 62
     1
  5
2B7
 10
426.399011
 20
305.37949
 30
0.0
 11
429.504847
 21
293.788382
 31
0.0
  0
ARC
  8
LC-001-002-----0
  6
CONTINUOUS
 62
     1
  5
2B8
 10
411.910126
 20
301.497195
 30
0.0
 40
15.0
 50
15.000037
 51
105.000037
  0
LINE
  8
LC-001-002-----0
  6
CONTINUOUS
 62
     1
  5
2B9
 10
394.987835
 20
312.492014
 30
0.0
 11
408.027831
 21
315.98608
 31
0.0
  0
LINE
  8
LC-007-001-----0
  6
CONTINUOUS
  5
2BA
 10
423.854787
 20
305.215403
 30
0.0
 11
436.148722
 21
259.333935
 31
0.0
  0
ARC
  8
LC-007-001-----0
  6
CONTINUOUS
  5
2BB
 10
411.780716
 20
301.980157
 30
0.0
 40
12.5
 50
15.000037
 51
105.000037
  0
LINE
  8
LC-001-002-----0
  6
CONTINUOUS
 62
     1
  5
2BC
 10
394.056585
 20
310.171933
 30
0.0
 11
408.54547
 21
314.054228
 31
0.0
  0
LINE
  8
LC-007-001-----0
  6
DASHDOT
 62
     2
  5
2BD
 10
360.794465
 20
290.130131
 30
0.0
 11
413.742596
 21
304.317577
 31
0.0
  0
ARC
  8
LC-007-001-----0
  6
DASHDOT
 62
     2
  5
2BE
 10
414.389645
 20
301.902762
 30
0.0
 40
2.5
 50
15.000056
 51
105.000037
  0
LINE
  8
LC-001-002-----0
  5
2BF
 10
416.804459
 20
302.549812
 30
0.0
 11
429.098394
 21
256.668343
 31
0.0
  0
LINE
  8
LC-001-002-----0
  6
CONTINUOUS
 62
     1
  5
2C0
 10
410.186334
 20
288.611988
 30
0.0
 11
408.737445
 21
288.223759
 31
0.0
  0
LINE
  8
LC-001-002-----0
  6
CONTINUOUS
 62
     1
  5
2C1
 10
429.504847
 20
293.788382
 30
0.0
 11
430.953736
 21
294.176611
 31
0.0
  0
LINE
  8
LC-001-002-----0
  6
CONTINUOUS
 62
     1
  5
2C2
 10
432.282511
 20
287.285722
 30
0.0
 11
431.316841
 21
287.026971
 31
0.0
  0
LINE
  8
LC-001-002-----0
  6
CONTINUOUS
 62
     1
  5
2C3
 10
433.611285
 20
280.394833
 30
0.0
 11
432.993589
 21
280.229321
 31
0.0
  0
LINE
  8
LC-001-002-----0
  6
CONTINUOUS
 62
     1
  5
2C4
 10
434.94006
 20
273.503943
 30
0.0
 11
434.099668
 21
273.27876
 31
0.0
  0
LINE
  8
LC-001-002-----0
  6
CONTINUOUS
 62
     1
  5
2C5
 10
436.268835
 20
266.613054
 30
0.0
 11
435.879252
 21
266.508665
 31
0.0
  0
LINE
  8
LC-001-002-----0
  6
CONTINUOUS
 62
     1
  5
2C6
 10
437.114647
 20
259.592754
 30
0.0
 11
420.693911
 21
255.19282
 31
0.0
  0
LINE
  8
LC-001-002-----0
  6
CONTINUOUS
 62
     1
  5
2C7
 10
408.737445
 20
288.223759
 30
0.0
 11
411.998072
 21
281.850509
 31
0.0
  0
LINE
  8
LC-001-002-----0
  6
CONTINUOUS
 62
     1
  5
2C8
 10
411.032146
 20
281.591689
 30
0.0
 11
413.944795
 21
275.125199
 31
0.0
  0
LINE
  8
LC-001-002-----0
  6
CONTINUOUS
 62
     1
  5
2C9
 10
413.326847
 20
274.959619
 30
0.0
 11
416.462187
 21
268.552799
 31
0.0
  0
LINE
  8
LC-001-002-----0
  6
CONTINUOUS
 62
     1
  5
2CA
 10
415.621547
 20
268.32755
 30
0.0
 11
418.30604
 21
261.799925
 31
0.0
  0
LINE
  8
LC-001-002-----0
  6
CONTINUOUS
 62
     1
  5
2CB
 10
417.916248
 20
261.69548
 30
0.0
 11
420.693911
 21
255.19282
 31
0.0
  0
LINE
  8
LC-001-002-----0
  6
CONTINUOUS
 62
     1
  5
2CC
 10
430.953928
 20
294.176936
 30
0.0
 11
431.316772
 21
287.027227
 31
0.0
  0
LINE
  8
LC-001-002-----0
  6
CONTINUOUS
 62
     1
  5
2CD
 10
432.282698
 20
287.286046
 30
0.0
 11
432.99352
 21
280.229577
 31
0.0
  0
LINE
  8
LC-001-002-----0
  6
CONTINUOUS
 62
     1
  5
2CE
 10
433.611469
 20
280.395156
 30
0.0
 11
434.099599
 21
273.279017
 31
0.0
  0
LINE
  8
LC-001-002-----0
  6
CONTINUOUS
 62
     1
  5
2CF
 10
434.940239
 20
273.504265
 30
0.0
 11
435.879217
 21
266.50893
 31
0.0
  0
LINE
  8
LC-001-002-----0
  6
CONTINUOUS
 62
     1
  5
2D0
 10
436.269009
 20
266.613375
 30
0.0
 11
437.114817
 21
259.593075
 31
0.0
  0
LINE
  8
LC-001-002-----0
  6
CONTINUOUS
 62
     1
  5
2D1
 10
411.998072
 20
281.850509
 30
0.0
 11
411.032146
 21
281.591689
 31
0.0
  0
LINE
  8
LC-001-002-----0
  6
CONTINUOUS
 62
     1
  5
2D2
 10
413.944795
 20
275.125199
 30
0.0
 11
413.326847
 21
274.959619
 31
0.0
  0
LINE
  8
LC-001-002-----0
  6
CONTINUOUS
 62
     1
  5
2D3
 10
416.462187
 20
268.552799
 30
0.0
 11
415.621547
 21
268.32755
 31
0.0
  0
LINE
  8
LC-001-002-----0
  6
CONTINUOUS
 62
     1
  5
2D4
 10
418.30604
 20
261.799925
 30
0.0
 11
417.916248
 21
261.69548
 31
0.0
  0
LINE
  8
LC-001-002-----0
  6
CONTINUOUS
  5
2D5
 10
411.695279
 20
292.639777
 30
0.0
 11
415.44565
 21
303.781417
 31
0.0
  0
LINE
  8
LC-001-002-----0
  6
CONTINUOUS
 62
     1
  5
2D6
 10
378.946032
 20
314.405273
 30
0.0
 11
378.687212
 21
315.371198
 31
0.0
  0
LINE
  8
LC-001-002-----0
  6
CONTINUOUS
 62
     1
  5
2D7
 10
378.687212
 20
315.371198
 30
0.0
 11
377.721286
 21
315.112379
 31
0.0
  0
LINE
  8
LC-001-002-----0
  6
CONTINUOUS
 62
     1
  5
2D8
 10
377.721286
 20
315.112379
 30
0.0
 11
378.497745
 21
312.214602
 31
0.0
  0
LINE
  8
LC-001-002-----0
  6
CONTINUOUS
 62
     1
  5
2D9
 10
378.497745
 20
312.214602
 30
0.0
 11
379.463671
 21
312.473421
 31
0.0
  0
ARC
  8
LC-001-002-----0
  6
CONTINUOUS
 62
     1
  5
2DA
 10
393.24545
 20
315.130971
 30
0.0
 40
3.0
 50
15.000037
 51
105.000037
  0
LINE
  8
LC-001-002-----0
  6
CONTINUOUS
 62
     1
  5
2DB
 10
392.468991
 20
318.028748
 30
0.0
 11
378.946032
 21
314.405273
 31
0.0
  0
LINE
  8
LC-001-002-----0
  6
CONTINUOUS
 62
     1
  5
2DC
 10
395.341388
 20
313.104387
 30
0.0
 11
394.694338
 21
315.519201
 31
0.0
  0
ARC
  8
LC-001-002-----0
  6
CONTINUOUS
 62
     1
  5
2DD
 10
393.728413
 20
315.260381
 30
0.0
 40
1.0
 50
15.000037
 51
105.000037
  0
LINE
  8
LC-001-002-----0
  6
CONTINUOUS
 62
     1
  5
2DE
 10
393.469593
 20
316.226307
 30
0.0
 11
379.463671
 21
312.473421
 31
0.0
  0
LINE
  8
LC-001-002-----0
  6
CONTINUOUS
 62
     1
  5
2DF
 10
402.172988
 20
281.803894
 30
0.0
 11
388.65001
 21
278.18049
 31
0.0
  0
LINE
  8
LC-001-002-----0
  6
CONTINUOUS
 62
     1
  5
2E0
 10
388.65001
 20
278.18049
 30
0.0
 11
388.908824
 21
277.214563
 31
0.0
  0
LINE
  8
LC-001-002-----0
  6
CONTINUOUS
 62
     1
  5
2E1
 10
388.908824
 20
277.214563
 30
0.0
 11
387.942897
 21
276.955748
 31
0.0
  0
LINE
  8
LC-001-002-----0
  6
CONTINUOUS
 62
     1
  5
2E2
 10
387.942897
 20
276.955748
 30
0.0
 11
387.166454
 21
279.85353
 31
0.0
  0
LINE
  8
LC-001-002-----0
  6
CONTINUOUS
 62
     1
  5
2E3
 10
402.138323
 20
283.865155
 30
0.0
 11
388.132381
 21
280.112344
 31
0.0
  0
LINE
  8
LC-001-002-----0
  6
CONTINUOUS
 62
     1
  5
2E4
 10
387.166454
 20
279.85353
 30
0.0
 11
388.132381
 21
280.112344
 31
0.0
  0
ARC
  8
LC-001-002-----0
  6
CONTINUOUS
 62
     1
  5
2E5
 10
401.396545
 20
284.701675
 30
0.0
 40
3.0
 50
284.999771
 51
14.999733
  0
LINE
  8
LC-001-002-----0
  6
CONTINUOUS
 62
     1
  5
2E6
 10
402.198399
 20
287.504714
 30
0.0
 11
402.845435
 21
285.089897
 31
0.0
  0
ARC
  8
LC-001-002-----0
  6
CONTINUOUS
 62
     1
  5
2E7
 10
401.879508
 20
284.831082
 30
0.0
 40
1.0
 50
284.999771
 51
14.999733
  0
LINE
  8
LC-001-002-----0
  6
CONTINUOUS
 62
     1
  5
2E8
 10
375.181711
 20
311.067251
 30
0.0
 11
390.636521
 21
315.208366
 31
0.0
  0
LINE
  8
LC-001-002-----0
  6
CONTINUOUS
 62
     1
  5
2E9
 10
392.956602
 20
314.277117
 30
0.0
 11
400.721192
 21
285.299347
 31
0.0
  0
LINE
  8
LC-001-002-----0
  6
CONTINUOUS
 62
     1
  5
2EA
 10
396.402047
 20
314.941505
 30
0.0
 11
396.143227
 21
315.90743
 31
0.0
  0
ARC
  8
LC-001-002-----0
  6
CONTINUOUS
 62
     1
  5
2EB
 10
394.953158
 20
314.553275
 30
0.0
 40
1.5
 50
285.000189
 51
15.000037
  0
LINE
  8
LC-001-002-----0
  6
CONTINUOUS
 62
     1
  5
2EC
 10
395.341388
 20
313.104387
 30
0.0
 11
395.341388
 21
313.104387
 31
0.0
  0
LINE
  8
LC-001-002-----0
  6
CONTINUOUS
 62
     1
  5
2ED
 10
404.035511
 20
286.444045
 30
0.0
 11
404.294326
 21
285.478118
 31
0.0
  0
ARC
  8
LC-001-002-----0
  6
CONTINUOUS
 62
     1
  5
2EE
 10
402.586621
 20
286.055824
 30
0.0
 40
1.5
 50
14.999733
 51
104.999733
  0
LINE
  8
LC-001-002-----0
  6
CONTINUOUS
 62
     1
  5
2EF
 10
402.198399
 20
287.504714
 30
0.0
 11
402.198399
 21
287.504714
 31
0.0
  0
ENDSEC
  0
EOF
