  0
SECTION
  2
HEADER
  9
$ACADVER
  1
AC1015
  9
$ACADMAINTVER
 70
     6
  9
$DWGCODEPAGE
  3
ANSI_1252
  9
$INSBASE
 10
0.0
 20
0.0
 30
0.0
  9
$EXTMIN
 10
0.0
 20
0.0
 30
0.0
  9
$EXTMAX
 10
840.0
 20
594.0
 30
0.0
  9
$LIMMIN
 10
0.0
 20
0.0
  9
$LIMMAX
 10
840.0
 20
594.0
  9
$ORTHOMODE
 70
     0
  9
$REGENMODE
 70
     1
  9
$FILLMODE
 70
     1
  9
$QTEXTMODE
 70
     0
  9
$MIRRTEXT
 70
     1
  9
$LTSCALE
 40
2.0
  9
$ATTMODE
 70
     1
  9
$TEXTSIZE
 40
2.5
  9
$TRACEWID
 40
1.0
  9
$TEXTSTYLE
  7
Standard
  9
$CLAYER
  8
0
  9
$CELTYPE
  6
ByLayer
  9
$CECOLOR
 62
     7
  9
$CELTSCALE
 40
1.0
  9
$DISPSILH
 70
     0
  9
$DIMSCALE
 40
2.0
  9
$DIMASZ
 40
3.5
  9
$DIMEXO
 40
0.625
  9
$DIMDLI
 40
3.75
  9
$DIMRND
 40
0.0
  9
$DIMDLE
 40
0.0
  9
$DIMEXE
 40
1.25
  9
$DIMTP
 40
0.0
  9
$DIMTM
 40
0.0
  9
$DIMTXT
 40
3.5
  9
$DIMCEN
 40
2.5
  9
$DIMTSZ
 40
0.0
  9
$DIMTOL
 70
     0
  9
$DIMLIM
 70
     0
  9
$DIMTIH
 70
     0
  9
$DIMTOH
 70
     0
  9
$DIMSE1
 70
     0
  9
$DIMSE2
 70
     0
  9
$DIMTAD
 70
     1
  9
$DIMZIN
 70
     8
  9
$DIMBLK
  1

  9
$DIMASO
 70
     1
  9
$DIMSHO
 70
     1
  9
$DIMPOST
  1

  9
$DIMAPOST
  1

  9
$DIMALT
 70
     0
  9
$DIMALTD
 70
     3
  9
$DIMALTF
 40
0.03937
  9
$DIMLFAC
 40
1.0
  9
$DIMTOFL
 70
     1
  9
$DIMTVP
 40
0.0
  9
$DIMTIX
 70
     0
  9
$DIMSOXD
 70
     0
  9
$DIMSAH
 70
     0
  9
$DIMBLK1
  1

  9
$DIMBLK2
  1

  9
$DIMSTYLE
  2
ISO-25
  9
$DIMCLRD
 70
     0
  9
$DIMCLRE
 70
     0
  9
$DIMCLRT
 70
     0
  9
$DIMTFAC
 40
1.0
  9
$DIMGAP
 40
0.625
  9
$DIMJUST
 70
     0
  9
$DIMSD1
 70
     0
  9
$DIMSD2
 70
     0
  9
$DIMTOLJ
 70
     0
  9
$DIMTZIN
 70
     8
  9
$DIMALTZ
 70
     0
  9
$DIMALTTZ
 70
     0
  9
$DIMUPT
 70
     0
  9
$DIMDEC
 70
     2
  9
$DIMTDEC
 70
     2
  9
$DIMALTU
 70
     2
  9
$DIMALTTD
 70
     3
  9
$DIMTXSTY
  7
Standard
  9
$DIMAUNIT
 70
     0
  9
$DIMADEC
 70
     0
  9
$DIMALTRND
 40
0.0
  9
$DIMAZIN
 70
     0
  9
$DIMDSEP
 70
    44
  9
$DIMATFIT
 70
     3
  9
$DIMFRAC
 70
     0
  9
$DIMLDRBLK
  1

  9
$DIMLUNIT
 70
     2
  9
$DIMLWD
 70
    -2
  9
$DIMLWE
 70
    -2
  9
$DIMTMOVE
 70
     0
  9
$LUNITS
 70
     2
  9
$LUPREC
 70
     4
  9
$SKETCHINC
 40
1.0
  9
$FILLETRAD
 40
10.0
  9
$AUNITS
 70
     0
  9
$AUPREC
 70
     0
  9
$MENU
  1
.
  9
$ELEVATION
 40
0.0
  9
$PELEVATION
 40
0.0
  9
$THICKNESS
 40
0.0
  9
$LIMCHECK
 70
     0
  9
$CHAMFERA
 40
10.0
  9
$CHAMFERB
 40
10.0
  9
$CHAMFERC
 40
20.0
  9
$CHAMFERD
 40
0.0
  9
$SKPOLY
 70
     0
  9
$TDCREATE
 40
2456013.332772998
  9
$TDUCREATE
 40
2456013.249439664
  9
$TDUPDATE
 40
2456013.332773009
  9
$TDUUPDATE
 40
2456013.249439676
  9
$TDINDWG
 40
0.0000000116
  9
$TDUSRTIMER
 40
0.0000000116
  9
$USRTIMER
 70
     1
  9
$ANGBASE
 50
0.0
  9
$ANGDIR
 70
     0
  9
$PDMODE
 70
     0
  9
$PDSIZE
 40
0.0
  9
$PLINEWID
 40
0.0
  9
$SPLFRAME
 70
     0
  9
$SPLINETYPE
 70
     6
  9
$SPLINESEGS
 70
     8
  9
$HANDSEED
  5
206
  9
$SURFTAB1
 70
     6
  9
$SURFTAB2
 70
     6
  9
$SURFTYPE
 70
     6
  9
$SURFU
 70
     6
  9
$SURFV
 70
     6
  9
$UCSBASE
  2

  9
$UCSNAME
  2

  9
$UCSORG
 10
0.0
 20
0.0
 30
0.0
  9
$UCSXDIR
 10
1.0
 20
0.0
 30
0.0
  9
$UCSYDIR
 10
0.0
 20
1.0
 30
0.0
  9
$UCSORTHOREF
  2

  9
$UCSORTHOVIEW
 70
     0
  9
$UCSORGTOP
 10
0.0
 20
0.0
 30
0.0
  9
$UCSORGBOTTOM
 10
0.0
 20
0.0
 30
0.0
  9
$UCSORGLEFT
 10
0.0
 20
0.0
 30
0.0
  9
$UCSORGRIGHT
 10
0.0
 20
0.0
 30
0.0
  9
$UCSORGFRONT
 10
0.0
 20
0.0
 30
0.0
  9
$UCSORGBACK
 10
0.0
 20
0.0
 30
0.0
  9
$PUCSBASE
  2

  9
$PUCSNAME
  2

  9
$PUCSORG
 10
0.0
 20
0.0
 30
0.0
  9
$PUCSXDIR
 10
1.0
 20
0.0
 30
0.0
  9
$PUCSYDIR
 10
0.0
 20
1.0
 30
0.0
  9
$PUCSORTHOREF
  2

  9
$PUCSORTHOVIEW
 70
     0
  9
$PUCSORGTOP
 10
0.0
 20
0.0
 30
0.0
  9
$PUCSORGBOTTOM
 10
0.0
 20
0.0
 30
0.0
  9
$PUCSORGLEFT
 10
0.0
 20
0.0
 30
0.0
  9
$PUCSORGRIGHT
 10
0.0
 20
0.0
 30
0.0
  9
$PUCSORGFRONT
 10
0.0
 20
0.0
 30
0.0
  9
$PUCSORGBACK
 10
0.0
 20
0.0
 30
0.0
  9
$USERI1
 70
     0
  9
$USERI2
 70
     0
  9
$USERI3
 70
     0
  9
$USERI4
 70
     0
  9
$USERI5
 70
     0
  9
$USERR1
 40
0.0
  9
$USERR2
 40
0.0
  9
$USERR3
 40
0.0
  9
$USERR4
 40
0.0
  9
$USERR5
 40
0.0
  9
$WORLDVIEW
 70
     1
  9
$SHADEDGE
 70
     3
  9
$SHADEDIF
 70
    70
  9
$TILEMODE
 70
     1
  9
$MAXACTVP
 70
    64
  9
$PINSBASE
 10
0.0
 20
0.0
 30
0.0
  9
$PLIMCHECK
 70
     0
  9
$PEXTMIN
 10
0.0
 20
0.0
 30
0.0
  9
$PEXTMAX
 10
840.0
 20
594.0
 30
0.0
  9
$PLIMMIN
 10
0.0
 20
0.0
  9
$PLIMMAX
 10
840.0
 20
594.0
  9
$UNITMODE
 70
     0
  9
$VISRETAIN
 70
     1
  9
$PLINEGEN
 70
     0
  9
$PSLTSCALE
 70
     1
  9
$TREEDEPTH
 70
  3020
  9
$CMLSTYLE
  2
Standard
  9
$CMLJUST
 70
     0
  9
$CMLSCALE
 40
20.0
  9
$PROXYGRAPHICS
 70
     1
  9
$MEASUREMENT
 70
     1
  9
$CELWEIGHT
370
    -1
  9
$ENDCAPS
280
     0
  9
$JOINSTYLE
280
     0
  9
$LWDISPLAY
290
     0
  9
$INSUNITS
 70
     4
  9
$HYPERLINKBASE
  1

  9
$STYLESHEET
  1

  9
$XEDIT
290
     1
  9
$CEPSNTYPE
380
     0
  9
$PSTYLEMODE
290
     1
  9
$FINGERPRINTGUID
  2
{FAEB1C30-E019-11D5-929B-00C0DF256EC4}
  9
$VERSIONGUID
  2
{FAEB1C32-E019-11D5-929B-00C0DF256EC4}
  9
$EXTNAMES
290
     1
  9
$PSVPSCALE
 40
0.0
  9
$OLESTARTUP
290
     0
  0
ENDSEC
  0
SECTION
  2
CLASSES
  0
CLASS
  1
ACDBDICTIONARYWDFLT
  2
AcDbDictionaryWithDefault
  3
ObjectDBX Classes
 90
        0
280
     0
281
     0
  0
CLASS
  1
ACDBPLACEHOLDER
  2
AcDbPlaceHolder
  3
ObjectDBX Classes
 90
        0
280
     0
281
     0
  0
CLASS
  1
LAYOUT
  2
AcDbLayout
  3
ObjectDBX Classes
 90
        0
280
     0
281
     0
  0
ENDSEC
  0
SECTION
  2
TABLES
  0
TABLE
  2
VPORT
  5
8
330
0
100
AcDbSymbolTable
 70
     2
  0
VPORT
  5
29
330
8
100
AcDbSymbolTableRecord
100
AcDbViewportTableRecord
  2
*ACTIVE
 70
     0
 10
0.0
 20
0.0
 11
1.0
 21
1.0
 12
420.0
 22
297.0
 13
0.0
 23
0.0
 14
1.0
 24
1.0
 15
0.0
 25
0.0
 16
0.0
 26
0.0
 36
1.0
 17
0.0
 27
0.0
 37
0.0
 40
594.0
 41
1.414141
 42
50.0
 43
0.0
 44
0.0
 50
0.0
 51
0.0
 71
    16
 72
   100
 73
     1
 74
     0
 75
     0
 76
     0
 77
     0
 78
     0
281
     0
 65
     0
110
0.0
120
0.0
130
0.0
111
1.0
121
0.0
131
0.0
112
0.0
122
1.0
132
0.0
 79
     0
146
0.0
  0
ENDTAB
  0
TABLE
  2
LTYPE
  5
5
330
0
100
AcDbSymbolTable
 70
     3
  0
LTYPE
  5
14
330
5
100
AcDbSymbolTableRecord
100
AcDbLinetypeTableRecord
  2
ByBlock
 70
     0
  3

 72
    65
 73
     0
 40
0.0
  0
LTYPE
  5
15
330
5
100
AcDbSymbolTableRecord
100
AcDbLinetypeTableRecord
  2
ByLayer
 70
     0
  3

 72
    65
 73
     0
 40
0.0
  0
LTYPE
  5
16
330
5
100
AcDbSymbolTableRecord
100
AcDbLinetypeTableRecord
  2
Continuous
 70
     0
  3
Solid line
 72
    65
 73
     0
 40
0.0
  0
LTYPE
  5
2A
330
5
100
AcDbSymbolTableRecord
100
AcDbLinetypeTableRecord
  2
DASHED
 70
     0
  3
__ __ __ __ __
 72
    65
 73
     2
 40
6.25
 49
5.0
 74
     4
 75
     0
340
0
 46
1.0
 50
0.0
 44
0.0
 45
0.0
 49
-1.25
 74
     4
 75
     0
340
0
 46
1.0
 50
0.0
 44
0.0
 45
0.0
  0
LTYPE
  5
30
330
5
100
AcDbSymbolTableRecord
100
AcDbLinetypeTableRecord
  2
DASHDOT
 70
     0
  3
__ . __ . __ . __ . __
 72
    65
 73
     4
 40
7.5
 49
5.0
 74
     4
 75
     0
340
0
 46
1.0
 50
0.0
 44
0.0
 45
0.0
 49
-1.25
 74
     4
 75
     0
340
0
 46
1.0
 50
0.0
 44
0.0
 45
0.0
 49
0.0
 74
     4
 75
     0
340
0
 46
1.0
 50
0.0
 44
0.0
 45
0.0
 49
-1.25
 74
     4
 75
     0
340
0
 46
1.0
 50
0.0
 44
0.0
 45
0.0
  0
ENDTAB
  0
TABLE
  2
LAYER
  5
2
330
0
100
AcDbSymbolTable
 70
    10
  0
LAYER
  5
10
330
2
100
AcDbSymbolTableRecord
100
AcDbLayerTableRecord
  2
0
 70
     0
 62
     7
  6
Continuous
370
    -3
390
F
  0
LAYER
  5
2B
330
2
100
AcDbSymbolTableRecord
100
AcDbLayerTableRecord
  2
LC-INFO-1-2-mm-A3-0
 70
     1
 62
     7
  6
ByBlock
370
    -3
390
F
  0
LAYER
  5
2C
330
2
100
AcDbSymbolTableRecord
100
AcDbLayerTableRecord
  2
LC-CUT-HIDDEN
 70
     0
 62
     7
  6
DASHED
370
    -3
390
F
  0
LAYER
  5
2D
330
2
100
AcDbSymbolTableRecord
100
AcDbLayerTableRecord
  2
LC-VIEWPORT
 70
     0
 62
     7
  6
ByBlock
370
    -3
390
F
  0
LAYER
  5
2E
330
2
100
AcDbSymbolTableRecord
100
AcDbLayerTableRecord
  2
LC-3D-HIDDEN
 70
     0
 62
     9
  6
DASHED
370
    -3
390
F
  0
LAYER
  5
31
330
2
100
AcDbSymbolTableRecord
100
AcDbLayerTableRecord
  2
LC-001-002-----0
 70
     0
 62
     2
  6
DASHDOT
370
    -3
390
F
  0
LAYER
  5
38
330
2
100
AcDbSymbolTableRecord
100
AcDbLayerTableRecord
  2
LC-002-002-RND-0
 70
     0
 62
     1
  6
ByBlock
370
    -3
390
F
  0
LAYER
  5
85
330
2
100
AcDbSymbolTableRecord
100
AcDbLayerTableRecord
  2
LC-003-005-----0
 70
     0
 62
     2
  6
ByBlock
370
    -3
390
F
  0
LAYER
  5
190
330
2
100
AcDbSymbolTableRecord
100
AcDbLayerTableRecord
  2
LC-004-003-----0
 70
     0
 62
     2
  6
ByBlock
370
    -3
390
F
  0
LAYER
  5
192
330
2
100
AcDbSymbolTableRecord
100
AcDbLayerTableRecord
  2
Defpoints
 70
     0
 62
     7
  6
Continuous
290
     0
370
    -3
390
F
  0
ENDTAB
  0
TABLE
  2
STYLE
  5
3
330
0
100
AcDbSymbolTable
 70
     3
  0
STYLE
  5
11
330
3
100
AcDbSymbolTableRecord
100
AcDbTextStyleTableRecord
  2
Standard
 70
     0
 40
0.0
 41
1.0
 50
0.0
 71
     0
 42
2.5
  3
txt
  4

  0
STYLE
  5
2F
330
3
100
AcDbSymbolTableRecord
100
AcDbTextStyleTableRecord
  2
LCTX15-400-0-0-Arial
 70
     0
 40
0.0
 41
0.9
 50
0.0
 71
     0
 42
3.5
  3

  4

1001
ACAD
1000
Arial
1071
 16777218
  0
STYLE
  5
18E
330
3
100
AcDbSymbolTableRecord
100
AcDbTextStyleTableRecord
  2
LCTX15-400-0-0pDIN-Schrift
 70
     0
 40
2.5
 41
0.8
 50
15.0
 71
     0
 42
3.5
  3
STANDARD
  4

  0
ENDTAB
  0
TABLE
  2
VIEW
  5
6
330
0
100
AcDbSymbolTable
 70
     0
  0
ENDTAB
  0
TABLE
  2
UCS
  5
7
330
0
100
AcDbSymbolTable
 70
     0
  0
ENDTAB
  0
TABLE
  2
APPID
  5
9
330
0
100
AcDbSymbolTable
 70
     1
  0
APPID
  5
12
330
9
100
AcDbSymbolTableRecord
100
AcDbRegAppTableRecord
  2
ACAD
 70
     0
  0
ENDTAB
  0
TABLE
  2
DIMSTYLE
  5
A
330
0
100
AcDbSymbolTable
 70
     2
100
AcDbDimStyleTable
  0
DIMSTYLE
105
27
330
A
100
AcDbSymbolTableRecord
100
AcDbDimStyleTableRecord
  2
ISO-25
 70
     0
 41
2.5
 42
0.625
 43
3.75
 44
1.25
 73
     0
 74
     0
 77
     1
 78
     8
140
2.5
141
2.5
143
0.03937
147
0.625
171
     3
172
     1
271
     2
272
     2
274
     3
278
    44
283
     0
284
     8
340
11
  0
DIMSTYLE
105
18F
102
{ACAD_REACTORS
330
191
330
19F
330
1AC
330
1BA
330
1C8
330
1D5
330
1F3
102
}
330
A
100
AcDbSymbolTableRecord
100
AcDbDimStyleTableRecord
  2
LC-DIM-L-0140-02-02
 70
     0
 40
2.0
 41
14.0
 42
0.0
 43
7.5
 44
1.8
 73
     0
 74
     0
 77
     1
 78
     8
 79
     2
140
14.0
141
0.0
146
0.71
147
1.5
176
     2
177
     2
178
     2
179
     2
271
     2
278
    44
289
     1
340
18E
  0
ENDTAB
  0
TABLE
  2
BLOCK_RECORD
  5
1
330
0
100
AcDbSymbolTable
 70
    15
  0
BLOCK_RECORD
  5
1F
330
1
100
AcDbSymbolTableRecord
100
AcDbBlockTableRecord
  2
*Model_Space
340
22
  0
BLOCK_RECORD
  5
1B
330
1
100
AcDbSymbolTableRecord
100
AcDbBlockTableRecord
  2
*Paper_Space
340
1E
  0
BLOCK_RECORD
  5
23
330
1
100
AcDbSymbolTableRecord
100
AcDbBlockTableRecord
  2
*Paper_Space0
340
26
  0
BLOCK_RECORD
  5
82
330
1
100
AcDbSymbolTableRecord
100
AcDbBlockTableRecord
  2
*X11
340
0
102
{BLKREFS
331
A1
102
}
  0
BLOCK_RECORD
  5
A2
330
1
100
AcDbSymbolTableRecord
100
AcDbBlockTableRecord
  2
*X22
340
0
102
{BLKREFS
331
111
102
}
  0
BLOCK_RECORD
  5
112
330
1
100
AcDbSymbolTableRecord
100
AcDbBlockTableRecord
  2
*X33
340
0
102
{BLKREFS
331
117
102
}
  0
BLOCK_RECORD
  5
118
330
1
100
AcDbSymbolTableRecord
100
AcDbBlockTableRecord
  2
*X44
340
0
102
{BLKREFS
331
11D
102
}
  0
BLOCK_RECORD
  5
11F
330
1
100
AcDbSymbolTableRecord
100
AcDbBlockTableRecord
  2
*X55
340
0
102
{BLKREFS
331
155
102
}
  0
BLOCK_RECORD
  5
157
330
1
100
AcDbSymbolTableRecord
100
AcDbBlockTableRecord
  2
*X66
340
0
102
{BLKREFS
331
17C
102
}
  0
BLOCK_RECORD
  5
17D
330
1
100
AcDbSymbolTableRecord
100
AcDbBlockTableRecord
  2
*X77
340
0
102
{BLKREFS
331
189
102
}
  0
BLOCK_RECORD
  5
193
330
1
100
AcDbSymbolTableRecord
100
AcDbBlockTableRecord
  2
*D8
340
0
  0
BLOCK_RECORD
  5
1A0
330
1
100
AcDbSymbolTableRecord
100
AcDbBlockTableRecord
  2
*D9
340
0
  0
BLOCK_RECORD
  5
1AD
330
1
100
AcDbSymbolTableRecord
100
AcDbBlockTableRecord
  2
*D10
340
0
  0
BLOCK_RECORD
  5
1BB
330
1
100
AcDbSymbolTableRecord
100
AcDbBlockTableRecord
  2
*D11
340
0
  0
BLOCK_RECORD
  5
1C9
330
1
100
AcDbSymbolTableRecord
100
AcDbBlockTableRecord
  2
*D12
340
0
  0
BLOCK_RECORD
  5
1D6
330
1
100
AcDbSymbolTableRecord
100
AcDbBlockTableRecord
  2
*D13
340
0
  0
BLOCK_RECORD
  5
1F4
330
1
100
AcDbSymbolTableRecord
100
AcDbBlockTableRecord
  2
*D14
340
0
  0
ENDTAB
  0
ENDSEC
  0
SECTION
  2
BLOCKS
  0
BLOCK
  5
20
330
1F
100
AcDbEntity
  8
0
100
AcDbBlockBegin
  2
*Model_Space
 70
     0
 71
     0
 10
0.0
 20
0.0
 30
0.0
  3
*Model_Space
  1

  0
ENDBLK
  5
21
330
1F
100
AcDbEntity
  8
0
100
AcDbBlockEnd
  0
BLOCK
  5
1C
330
1B
100
AcDbEntity
 67
     1
  8
0
100
AcDbBlockBegin
  2
*Paper_Space
 70
     0
 71
     0
 10
0.0
 20
0.0
 30
0.0
  3
*Paper_Space
  1

  0
ENDBLK
  5
1D
330
1B
100
AcDbEntity
 67
     1
  8
0
100
AcDbBlockEnd
  0
BLOCK
  5
24
330
23
100
AcDbEntity
  8
0
100
AcDbBlockBegin
  2
*Paper_Space0
 70
     0
 71
     0
 10
0.0
 20
0.0
 30
0.0
  3
*Paper_Space0
  1

  0
ENDBLK
  5
25
330
23
100
AcDbEntity
  8
0
100
AcDbBlockEnd
  0
BLOCK
  5
83
330
82
100
AcDbEntity
  8
0
100
AcDbBlockBegin
  2
*X11
 70
     1
 71
     0
 10
0.0
 20
0.0
 30
0.0
  3
*X11
  1

  4
*X1
  0
LINE
  5
86
330
82
100
AcDbEntity
  8
LC-003-005-----0
 62
     7
370
    25
100
AcDbLine
 10
515.323856
 20
365.417218
 30
0.0
 11
517.323856
 21
367.417218
 31
0.0
  0
LINE
  5
87
330
82
100
AcDbEntity
  8
LC-003-005-----0
 62
     7
370
    25
100
AcDbLine
 10
512.495429
 20
365.417218
 30
0.0
 11
514.495429
 21
367.417218
 31
0.0
  0
LINE
  5
88
330
82
100
AcDbEntity
  8
LC-003-005-----0
 62
     7
370
    25
100
AcDbLine
 10
509.667002
 20
365.417218
 30
0.0
 11
511.667002
 21
367.417218
 31
0.0
  0
LINE
  5
89
330
82
100
AcDbEntity
  8
LC-003-005-----0
 62
     7
370
    25
100
AcDbLine
 10
506.838575
 20
365.417218
 30
0.0
 11
508.838575
 21
367.417218
 31
0.0
  0
LINE
  5
8A
330
82
100
AcDbEntity
  8
LC-003-005-----0
 62
     7
370
    25
100
AcDbLine
 10
504.010147
 20
365.417218
 30
0.0
 11
506.010147
 21
367.417218
 31
0.0
  0
LINE
  5
8B
330
82
100
AcDbEntity
  8
LC-003-005-----0
 62
     7
370
    25
100
AcDbLine
 10
501.18172
 20
365.417218
 30
0.0
 11
503.18172
 21
367.417218
 31
0.0
  0
LINE
  5
8C
330
82
100
AcDbEntity
  8
LC-003-005-----0
 62
     7
370
    25
100
AcDbLine
 10
498.353293
 20
365.417218
 30
0.0
 11
500.353293
 21
367.417218
 31
0.0
  0
LINE
  5
8D
330
82
100
AcDbEntity
  8
LC-003-005-----0
 62
     7
370
    25
100
AcDbLine
 10
495.524866
 20
365.417218
 30
0.0
 11
497.524866
 21
367.417218
 31
0.0
  0
LINE
  5
8E
330
82
100
AcDbEntity
  8
LC-003-005-----0
 62
     7
370
    25
100
AcDbLine
 10
492.696439
 20
365.417218
 30
0.0
 11
494.696439
 21
367.417218
 31
0.0
  0
LINE
  5
8F
330
82
100
AcDbEntity
  8
LC-003-005-----0
 62
     7
370
    25
100
AcDbLine
 10
489.868012
 20
365.417218
 30
0.0
 11
491.868012
 21
367.417218
 31
0.0
  0
LINE
  5
90
330
82
100
AcDbEntity
  8
LC-003-005-----0
 62
     7
370
    25
100
AcDbLine
 10
487.039585
 20
365.417218
 30
0.0
 11
489.039585
 21
367.417218
 31
0.0
  0
LINE
  5
91
330
82
100
AcDbEntity
  8
LC-003-005-----0
 62
     7
370
    25
100
AcDbLine
 10
484.211158
 20
365.417218
 30
0.0
 11
486.211158
 21
367.417218
 31
0.0
  0
LINE
  5
92
330
82
100
AcDbEntity
  8
LC-003-005-----0
 62
     7
370
    25
100
AcDbLine
 10
481.38273
 20
365.417218
 30
0.0
 11
483.38273
 21
367.417218
 31
0.0
  0
LINE
  5
93
330
82
100
AcDbEntity
  8
LC-003-005-----0
 62
     7
370
    25
100
AcDbLine
 10
478.554303
 20
365.417218
 30
0.0
 11
480.554303
 21
367.417218
 31
0.0
  0
LINE
  5
94
330
82
100
AcDbEntity
  8
LC-003-005-----0
 62
     7
370
    25
100
AcDbLine
 10
475.725876
 20
365.417218
 30
0.0
 11
477.725876
 21
367.417218
 31
0.0
  0
LINE
  5
95
330
82
100
AcDbEntity
  8
LC-003-005-----0
 62
     7
370
    25
100
AcDbLine
 10
472.897449
 20
365.417218
 30
0.0
 11
474.897449
 21
367.417218
 31
0.0
  0
LINE
  5
96
330
82
100
AcDbEntity
  8
LC-003-005-----0
 62
     7
370
    25
100
AcDbLine
 10
470.069022
 20
365.417218
 30
0.0
 11
472.069022
 21
367.417218
 31
0.0
  0
LINE
  5
97
330
82
100
AcDbEntity
  8
LC-003-005-----0
 62
     7
370
    25
100
AcDbLine
 10
467.240595
 20
365.417218
 30
0.0
 11
469.240595
 21
367.417218
 31
0.0
  0
LINE
  5
98
330
82
100
AcDbEntity
  8
LC-003-005-----0
 62
     7
370
    25
100
AcDbLine
 10
464.412168
 20
365.417218
 30
0.0
 11
466.412168
 21
367.417218
 31
0.0
  0
LINE
  5
99
330
82
100
AcDbEntity
  8
LC-003-005-----0
 62
     7
370
    25
100
AcDbLine
 10
461.583741
 20
365.417218
 30
0.0
 11
463.583741
 21
367.417218
 31
0.0
  0
LINE
  5
9A
330
82
100
AcDbEntity
  8
LC-003-005-----0
 62
     7
370
    25
100
AcDbLine
 10
458.755313
 20
365.417218
 30
0.0
 11
460.755313
 21
367.417218
 31
0.0
  0
LINE
  5
9B
330
82
100
AcDbEntity
  8
LC-003-005-----0
 62
     7
370
    25
100
AcDbLine
 10
455.926886
 20
365.417218
 30
0.0
 11
457.926886
 21
367.417218
 31
0.0
  0
LINE
  5
9C
330
82
100
AcDbEntity
  8
LC-003-005-----0
 62
     7
370
    25
100
AcDbLine
 10
453.098459
 20
365.417218
 30
0.0
 11
455.098459
 21
367.417218
 31
0.0
  0
LINE
  5
9D
330
82
100
AcDbEntity
  8
LC-003-005-----0
 62
     7
370
    25
100
AcDbLine
 10
450.270032
 20
365.417218
 30
0.0
 11
452.270032
 21
367.417218
 31
0.0
  0
LINE
  5
9E
330
82
100
AcDbEntity
  8
LC-003-005-----0
 62
     7
370
    25
100
AcDbLine
 10
448.755031
 20
366.730645
 30
0.0
 11
451.106277
 21
369.08189
 31
0.0
  0
LINE
  5
9F
330
82
100
AcDbEntity
  8
LC-003-005-----0
 62
     7
370
    25
100
AcDbLine
 10
448.943593
 20
369.747634
 30
0.0
 11
451.294839
 21
372.098879
 31
0.0
  0
LINE
  5
A0
330
82
100
AcDbEntity
  8
LC-003-005-----0
 62
     7
370
    25
100
AcDbLine
 10
449.132155
 20
372.764622
 30
0.0
 11
451.284751
 21
374.917218
 31
0.0
  0
ENDBLK
  5
84
330
82
100
AcDbEntity
  8
0
100
AcDbBlockEnd
  0
BLOCK
  5
A3
330
A2
100
AcDbEntity
  8
0
100
AcDbBlockBegin
  2
*X22
 70
     1
 71
     0
 10
0.0
 20
0.0
 30
0.0
  3
*X22
  1

  4
*X2
  0
LINE
  5
A5
330
A2
100
AcDbEntity
  8
LC-003-005-----0
 62
     7
370
    25
100
AcDbLine
 10
516.436554
 20
335.417218
 30
0.0
 11
517.470985
 21
336.451649
 31
0.0
  0
LINE
  5
A6
330
A2
100
AcDbEntity
  8
LC-003-005-----0
 62
     7
370
    25
100
AcDbLine
 10
513.608127
 20
335.417218
 30
0.0
 11
515.608127
 21
337.417218
 31
0.0
  0
LINE
  5
A7
330
A2
100
AcDbEntity
  8
LC-003-005-----0
 62
     7
370
    25
100
AcDbLine
 10
510.7797
 20
335.417218
 30
0.0
 11
512.7797
 21
337.417218
 31
0.0
  0
LINE
  5
A8
330
A2
100
AcDbEntity
  8
LC-003-005-----0
 62
     7
370
    25
100
AcDbLine
 10
507.951273
 20
335.417218
 30
0.0
 11
509.951273
 21
337.417218
 31
0.0
  0
LINE
  5
A9
330
A2
100
AcDbEntity
  8
LC-003-005-----0
 62
     7
370
    25
100
AcDbLine
 10
505.122846
 20
335.417218
 30
0.0
 11
507.122846
 21
337.417218
 31
0.0
  0
LINE
  5
AA
330
A2
100
AcDbEntity
  8
LC-003-005-----0
 62
     7
370
    25
100
AcDbLine
 10
438.124484
 20
271.247284
 30
0.0
 11
445.246407
 21
278.369207
 31
0.0
  0
LINE
  5
AB
330
A2
100
AcDbEntity
  8
LC-003-005-----0
 62
     7
370
    25
100
AcDbLine
 10
502.294419
 20
335.417218
 30
0.0
 11
504.294419
 21
337.417218
 31
0.0
  0
LINE
  5
AC
330
A2
100
AcDbEntity
  8
LC-003-005-----0
 62
     7
370
    25
100
AcDbLine
 10
434.965992
 20
270.917218
 30
0.0
 11
437.376542
 21
273.327768
 31
0.0
  0
LINE
  5
AD
330
A2
100
AcDbEntity
  8
LC-003-005-----0
 62
     7
370
    25
100
AcDbLine
 10
443.165923
 20
279.117149
 30
0.0
 11
445.637984
 21
281.589211
 31
0.0
  0
LINE
  5
AE
330
A2
100
AcDbEntity
  8
LC-003-005-----0
 62
     7
370
    25
100
AcDbLine
 10
499.465992
 20
335.417218
 30
0.0
 11
501.465992
 21
337.417218
 31
0.0
  0
LINE
  5
AF
330
A2
100
AcDbEntity
  8
LC-003-005-----0
 62
     7
370
    25
100
AcDbLine
 10
432.137564
 20
270.917218
 30
0.0
 11
434.337564
 21
273.117218
 31
0.0
  0
LINE
  5
B0
330
A2
100
AcDbEntity
  8
LC-003-005-----0
 62
     7
370
    25
100
AcDbLine
 10
443.475301
 20
282.254954
 30
0.0
 11
445.826546
 21
284.6062
 31
0.0
  0
LINE
  5
B1
330
A2
100
AcDbEntity
  8
LC-003-005-----0
 62
     7
370
    25
100
AcDbLine
 10
496.637564
 20
335.417218
 30
0.0
 11
498.637564
 21
337.417218
 31
0.0
  0
LINE
  5
B2
330
A2
100
AcDbEntity
  8
LC-003-005-----0
 62
     7
370
    25
100
AcDbLine
 10
429.309137
 20
270.917218
 30
0.0
 11
431.509137
 21
273.117218
 31
0.0
  0
LINE
  5
B3
330
A2
100
AcDbEntity
  8
LC-003-005-----0
 62
     7
370
    25
100
AcDbLine
 10
443.663862
 20
285.271943
 30
0.0
 11
446.015108
 21
287.623189
 31
0.0
  0
LINE
  5
B4
330
A2
100
AcDbEntity
  8
LC-003-005-----0
 62
     7
370
    25
100
AcDbLine
 10
493.809137
 20
335.417218
 30
0.0
 11
495.809137
 21
337.417218
 31
0.0
  0
LINE
  5
B5
330
A2
100
AcDbEntity
  8
LC-003-005-----0
 62
     7
370
    25
100
AcDbLine
 10
426.48071
 20
270.917218
 30
0.0
 11
428.68071
 21
273.117218
 31
0.0
  0
LINE
  5
B6
330
A2
100
AcDbEntity
  8
LC-003-005-----0
 62
     7
370
    25
100
AcDbLine
 10
443.852424
 20
288.288932
 30
0.0
 11
446.20367
 21
290.640178
 31
0.0
  0
LINE
  5
B7
330
A2
100
AcDbEntity
  8
LC-003-005-----0
 62
     7
370
    25
100
AcDbLine
 10
490.98071
 20
335.417218
 30
0.0
 11
492.98071
 21
337.417218
 31
0.0
  0
LINE
  5
B8
330
A2
100
AcDbEntity
  8
LC-003-005-----0
 62
     7
370
    25
100
AcDbLine
 10
423.652283
 20
270.917218
 30
0.0
 11
425.852283
 21
273.117218
 31
0.0
  0
LINE
  5
B9
330
A2
100
AcDbEntity
  8
LC-003-005-----0
 62
     7
370
    25
100
AcDbLine
 10
444.040986
 20
291.305921
 30
0.0
 11
446.392232
 21
293.657167
 31
0.0
  0
LINE
  5
BA
330
A2
100
AcDbEntity
  8
LC-003-005-----0
 62
     7
370
    25
100
AcDbLine
 10
488.152283
 20
335.417218
 30
0.0
 11
490.152283
 21
337.417218
 31
0.0
  0
LINE
  5
BB
330
A2
100
AcDbEntity
  8
LC-003-005-----0
 62
     7
370
    25
100
AcDbLine
 10
420.823856
 20
270.917218
 30
0.0
 11
423.023856
 21
273.117218
 31
0.0
  0
LINE
  5
BC
330
A2
100
AcDbEntity
  8
LC-003-005-----0
 62
     7
370
    25
100
AcDbLine
 10
444.229548
 20
294.32291
 30
0.0
 11
446.580793
 21
296.674156
 31
0.0
  0
LINE
  5
BD
330
A2
100
AcDbEntity
  8
LC-003-005-----0
 62
     7
370
    25
100
AcDbLine
 10
485.323856
 20
335.417218
 30
0.0
 11
487.323856
 21
337.417218
 31
0.0
  0
LINE
  5
BE
330
A2
100
AcDbEntity
  8
LC-003-005-----0
 62
     7
370
    25
100
AcDbLine
 10
417.995429
 20
270.917218
 30
0.0
 11
420.195429
 21
273.117218
 31
0.0
  0
LINE
  5
BF
330
A2
100
AcDbEntity
  8
LC-003-005-----0
 62
     7
370
    25
100
AcDbLine
 10
444.41811
 20
297.339899
 30
0.0
 11
446.769355
 21
299.691145
 31
0.0
  0
LINE
  5
C0
330
A2
100
AcDbEntity
  8
LC-003-005-----0
 62
     7
370
    25
100
AcDbLine
 10
482.495429
 20
335.417218
 30
0.0
 11
484.495429
 21
337.417218
 31
0.0
  0
LINE
  5
C1
330
A2
100
AcDbEntity
  8
LC-003-005-----0
 62
     7
370
    25
100
AcDbLine
 10
415.167002
 20
270.917218
 30
0.0
 11
417.367002
 21
273.117218
 31
0.0
  0
LINE
  5
C2
330
A2
100
AcDbEntity
  8
LC-003-005-----0
 62
     7
370
    25
100
AcDbLine
 10
444.606671
 20
300.356888
 30
0.0
 11
446.957917
 21
302.708134
 31
0.0
  0
LINE
  5
C3
330
A2
100
AcDbEntity
  8
LC-003-005-----0
 62
     7
370
    25
100
AcDbLine
 10
479.667002
 20
335.417218
 30
0.0
 11
481.667002
 21
337.417218
 31
0.0
  0
LINE
  5
C4
330
A2
100
AcDbEntity
  8
LC-003-005-----0
 62
     7
370
    25
100
AcDbLine
 10
412.338575
 20
270.917218
 30
0.0
 11
414.538575
 21
273.117218
 31
0.0
  0
LINE
  5
C5
330
A2
100
AcDbEntity
  8
LC-003-005-----0
 62
     7
370
    25
100
AcDbLine
 10
444.795233
 20
303.373877
 30
0.0
 11
447.146479
 21
305.725123
 31
0.0
  0
LINE
  5
C6
330
A2
100
AcDbEntity
  8
LC-003-005-----0
 62
     7
370
    25
100
AcDbLine
 10
476.838575
 20
335.417218
 30
0.0
 11
478.838575
 21
337.417218
 31
0.0
  0
LINE
  5
C7
330
A2
100
AcDbEntity
  8
LC-003-005-----0
 62
     7
370
    25
100
AcDbLine
 10
409.510147
 20
270.917218
 30
0.0
 11
411.710147
 21
273.117218
 31
0.0
  0
LINE
  5
C8
330
A2
100
AcDbEntity
  8
LC-003-005-----0
 62
     7
370
    25
100
AcDbLine
 10
444.983795
 20
306.390866
 30
0.0
 11
447.335041
 21
308.742111
 31
0.0
  0
LINE
  5
C9
330
A2
100
AcDbEntity
  8
LC-003-005-----0
 62
     7
370
    25
100
AcDbLine
 10
474.010147
 20
335.417218
 30
0.0
 11
476.010147
 21
337.417218
 31
0.0
  0
LINE
  5
CA
330
A2
100
AcDbEntity
  8
LC-003-005-----0
 62
     7
370
    25
100
AcDbLine
 10
406.68172
 20
270.917218
 30
0.0
 11
408.88172
 21
273.117218
 31
0.0
  0
LINE
  5
CB
330
A2
100
AcDbEntity
  8
LC-003-005-----0
 62
     7
370
    25
100
AcDbLine
 10
445.172357
 20
309.407855
 30
0.0
 11
447.523602
 21
311.7591
 31
0.0
  0
LINE
  5
CC
330
A2
100
AcDbEntity
  8
LC-003-005-----0
 62
     7
370
    25
100
AcDbLine
 10
471.18172
 20
335.417218
 30
0.0
 11
473.18172
 21
337.417218
 31
0.0
  0
LINE
  5
CD
330
A2
100
AcDbEntity
  8
LC-003-005-----0
 62
     7
370
    25
100
AcDbLine
 10
403.853293
 20
270.917218
 30
0.0
 11
406.053293
 21
273.117218
 31
0.0
  0
LINE
  5
CE
330
A2
100
AcDbEntity
  8
LC-003-005-----0
 62
     7
370
    25
100
AcDbLine
 10
445.360919
 20
312.424844
 30
0.0
 11
447.712164
 21
314.776089
 31
0.0
  0
LINE
  5
CF
330
A2
100
AcDbEntity
  8
LC-003-005-----0
 62
     7
370
    25
100
AcDbLine
 10
468.353293
 20
335.417218
 30
0.0
 11
470.353293
 21
337.417218
 31
0.0
  0
LINE
  5
D0
330
A2
100
AcDbEntity
  8
LC-003-005-----0
 62
     7
370
    25
100
AcDbLine
 10
401.024866
 20
270.917218
 30
0.0
 11
403.224866
 21
273.117218
 31
0.0
  0
LINE
  5
D1
330
A2
100
AcDbEntity
  8
LC-003-005-----0
 62
     7
370
    25
100
AcDbLine
 10
445.54948
 20
315.441833
 30
0.0
 11
447.900726
 21
317.793078
 31
0.0
  0
LINE
  5
D2
330
A2
100
AcDbEntity
  8
LC-003-005-----0
 62
     7
370
    25
100
AcDbLine
 10
465.524866
 20
335.417218
 30
0.0
 11
467.524866
 21
337.417218
 31
0.0
  0
LINE
  5
D3
330
A2
100
AcDbEntity
  8
LC-003-005-----0
 62
     7
370
    25
100
AcDbLine
 10
398.196439
 20
270.917218
 30
0.0
 11
400.396439
 21
273.117218
 31
0.0
  0
LINE
  5
D4
330
A2
100
AcDbEntity
  8
LC-003-005-----0
 62
     7
370
    25
100
AcDbLine
 10
445.738042
 20
318.458822
 30
0.0
 11
448.089288
 21
320.810067
 31
0.0
  0
LINE
  5
D5
330
A2
100
AcDbEntity
  8
LC-003-005-----0
 62
     7
370
    25
100
AcDbLine
 10
462.696439
 20
335.417218
 30
0.0
 11
464.696439
 21
337.417218
 31
0.0
  0
LINE
  5
D6
330
A2
100
AcDbEntity
  8
LC-003-005-----0
 62
     7
370
    25
100
AcDbLine
 10
395.368012
 20
270.917218
 30
0.0
 11
397.568012
 21
273.117218
 31
0.0
  0
LINE
  5
D7
330
A2
100
AcDbEntity
  8
LC-003-005-----0
 62
     7
370
    25
100
AcDbLine
 10
445.926604
 20
321.475811
 30
0.0
 11
448.27785
 21
323.827056
 31
0.0
  0
LINE
  5
D8
330
A2
100
AcDbEntity
  8
LC-003-005-----0
 62
     7
370
    25
100
AcDbLine
 10
459.868012
 20
335.417218
 30
0.0
 11
461.868012
 21
337.417218
 31
0.0
  0
LINE
  5
D9
330
A2
100
AcDbEntity
  8
LC-003-005-----0
 62
     7
370
    25
100
AcDbLine
 10
392.539585
 20
270.917218
 30
0.0
 11
394.739585
 21
273.117218
 31
0.0
  0
LINE
  5
DA
330
A2
100
AcDbEntity
  8
LC-003-005-----0
 62
     7
370
    25
100
AcDbLine
 10
446.115166
 20
324.4928
 30
0.0
 11
448.466411
 21
326.844045
 31
0.0
  0
LINE
  5
DB
330
A2
100
AcDbEntity
  8
LC-003-005-----0
 62
     7
370
    25
100
AcDbLine
 10
457.039585
 20
335.417218
 30
0.0
 11
459.039585
 21
337.417218
 31
0.0
  0
LINE
  5
DC
330
A2
100
AcDbEntity
  8
LC-003-005-----0
 62
     7
370
    25
100
AcDbLine
 10
389.711158
 20
270.917218
 30
0.0
 11
391.911158
 21
273.117218
 31
0.0
  0
LINE
  5
DD
330
A2
100
AcDbEntity
  8
LC-003-005-----0
 62
     7
370
    25
100
AcDbLine
 10
446.303728
 20
327.509788
 30
0.0
 11
448.654973
 21
329.861034
 31
0.0
  0
LINE
  5
DE
330
A2
100
AcDbEntity
  8
LC-003-005-----0
 62
     7
370
    25
100
AcDbLine
 10
454.211158
 20
335.417218
 30
0.0
 11
456.211158
 21
337.417218
 31
0.0
  0
LINE
  5
DF
330
A2
100
AcDbEntity
  8
LC-003-005-----0
 62
     7
370
    25
100
AcDbLine
 10
386.88273
 20
270.917218
 30
0.0
 11
389.08273
 21
273.117218
 31
0.0
  0
LINE
  5
E0
330
A2
100
AcDbEntity
  8
LC-003-005-----0
 62
     7
370
    25
100
AcDbLine
 10
446.49229
 20
330.526777
 30
0.0
 11
448.843535
 21
332.878023
 31
0.0
  0
LINE
  5
E1
330
A2
100
AcDbEntity
  8
LC-003-005-----0
 62
     7
370
    25
100
AcDbLine
 10
451.38273
 20
335.417218
 30
0.0
 11
453.38273
 21
337.417218
 31
0.0
  0
LINE
  5
E2
330
A2
100
AcDbEntity
  8
LC-003-005-----0
 62
     7
370
    25
100
AcDbLine
 10
384.054303
 20
270.917218
 30
0.0
 11
386.254303
 21
273.117218
 31
0.0
  0
LINE
  5
E3
330
A2
100
AcDbEntity
  8
LC-003-005-----0
 62
     7
370
    25
100
AcDbLine
 10
446.680851
 20
333.543766
 30
0.0
 11
450.554303
 21
337.417218
 31
0.0
  0
LINE
  5
E4
330
A2
100
AcDbEntity
  8
LC-003-005-----0
 62
     7
370
    25
100
AcDbLine
 10
381.225876
 20
270.917218
 30
0.0
 11
383.425876
 21
273.117218
 31
0.0
  0
LINE
  5
E5
330
A2
100
AcDbEntity
  8
LC-003-005-----0
 62
     7
370
    25
100
AcDbLine
 10
446.869413
 20
336.560755
 30
0.0
 11
449.220659
 21
338.912001
 31
0.0
  0
LINE
  5
E6
330
A2
100
AcDbEntity
  8
LC-003-005-----0
 62
     7
370
    25
100
AcDbLine
 10
378.561513
 20
271.081282
 30
0.0
 11
380.597449
 21
273.117218
 31
0.0
  0
LINE
  5
E7
330
A2
100
AcDbEntity
  8
LC-003-005-----0
 62
     7
370
    25
100
AcDbLine
 10
447.057975
 20
339.577744
 30
0.0
 11
448.897449
 21
341.417218
 31
0.0
  0
LINE
  5
E8
330
A2
100
AcDbEntity
  8
LC-003-005-----0
 62
     7
370
    25
100
AcDbLine
 10
376.392244
 20
271.74044
 30
0.0
 11
378.104047
 21
273.452244
 31
0.0
  0
LINE
  5
E9
330
A2
100
AcDbEntity
  8
LC-003-005-----0
 62
     7
370
    25
100
AcDbLine
 10
374.582413
 20
272.759036
 30
0.0
 11
376.166978
 21
274.343601
 31
0.0
  0
LINE
  5
EA
330
A2
100
AcDbEntity
  8
LC-003-005-----0
 62
     7
370
    25
100
AcDbLine
 10
373.071398
 20
274.076449
 30
0.0
 11
374.628059
 21
275.63311
 31
0.0
  0
LINE
  5
EB
330
A2
100
AcDbEntity
  8
LC-003-005-----0
 62
     7
370
    25
100
AcDbLine
 10
371.846573
 20
275.68005
 30
0.0
 11
373.458926
 21
277.292404
 31
0.0
  0
LINE
  5
EC
330
A2
100
AcDbEntity
  8
LC-003-005-----0
 62
     7
370
    25
100
AcDbLine
 10
370.933383
 20
277.595288
 30
0.0
 11
372.718411
 21
279.380316
 31
0.0
  0
LINE
  5
ED
330
A2
100
AcDbEntity
  8
LC-003-005-----0
 62
     7
370
    25
100
AcDbLine
 10
370.416656
 20
279.906988
 30
0.0
 11
372.484196
 21
281.974528
 31
0.0
  0
LINE
  5
EE
330
A2
100
AcDbEntity
  8
LC-003-005-----0
 62
     7
370
    25
100
AcDbLine
 10
370.243189
 20
282.561948
 30
0.0
 11
372.317818
 21
284.636577
 31
0.0
  0
LINE
  5
EF
330
A2
100
AcDbEntity
  8
LC-003-005-----0
 62
     7
370
    25
100
AcDbLine
 10
370.076811
 20
285.223997
 30
0.0
 11
372.151439
 21
287.298626
 31
0.0
  0
LINE
  5
F0
330
A2
100
AcDbEntity
  8
LC-003-005-----0
 62
     7
370
    25
100
AcDbLine
 10
369.910433
 20
287.886046
 30
0.0
 11
371.985061
 21
289.960675
 31
0.0
  0
LINE
  5
F1
330
A2
100
AcDbEntity
  8
LC-003-005-----0
 62
     7
370
    25
100
AcDbLine
 10
369.744055
 20
290.548095
 30
0.0
 11
371.818683
 21
292.622724
 31
0.0
  0
LINE
  5
F2
330
A2
100
AcDbEntity
  8
LC-003-005-----0
 62
     7
370
    25
100
AcDbLine
 10
369.577677
 20
293.210145
 30
0.0
 11
371.652305
 21
295.284773
 31
0.0
  0
LINE
  5
F3
330
A2
100
AcDbEntity
  8
LC-003-005-----0
 62
     7
370
    25
100
AcDbLine
 10
369.411299
 20
295.872194
 30
0.0
 11
371.485927
 21
297.946822
 31
0.0
  0
LINE
  5
F4
330
A2
100
AcDbEntity
  8
LC-003-005-----0
 62
     7
370
    25
100
AcDbLine
 10
369.244921
 20
298.534243
 30
0.0
 11
371.319549
 21
300.608871
 31
0.0
  0
LINE
  5
F5
330
A2
100
AcDbEntity
  8
LC-003-005-----0
 62
     7
370
    25
100
AcDbLine
 10
369.078543
 20
301.196292
 30
0.0
 11
371.153171
 21
303.27092
 31
0.0
  0
LINE
  5
F6
330
A2
100
AcDbEntity
  8
LC-003-005-----0
 62
     7
370
    25
100
AcDbLine
 10
368.912165
 20
303.858341
 30
0.0
 11
370.986793
 21
305.932969
 31
0.0
  0
LINE
  5
F7
330
A2
100
AcDbEntity
  8
LC-003-005-----0
 62
     7
370
    25
100
AcDbLine
 10
368.745787
 20
306.52039
 30
0.0
 11
370.820415
 21
308.595018
 31
0.0
  0
LINE
  5
F8
330
A2
100
AcDbEntity
  8
LC-003-005-----0
 62
     7
370
    25
100
AcDbLine
 10
368.579408
 20
309.182439
 30
0.0
 11
370.654037
 21
311.257067
 31
0.0
  0
LINE
  5
F9
330
A2
100
AcDbEntity
  8
LC-003-005-----0
 62
     7
370
    25
100
AcDbLine
 10
368.41303
 20
311.844488
 30
0.0
 11
370.487659
 21
313.919116
 31
0.0
  0
LINE
  5
FA
330
A2
100
AcDbEntity
  8
LC-003-005-----0
 62
     7
370
    25
100
AcDbLine
 10
368.246652
 20
314.506537
 30
0.0
 11
370.321281
 21
316.581165
 31
0.0
  0
LINE
  5
FB
330
A2
100
AcDbEntity
  8
LC-003-005-----0
 62
     7
370
    25
100
AcDbLine
 10
368.080274
 20
317.168586
 30
0.0
 11
370.154903
 21
319.243214
 31
0.0
  0
LINE
  5
FC
330
A2
100
AcDbEntity
  8
LC-003-005-----0
 62
     7
370
    25
100
AcDbLine
 10
367.913896
 20
319.830635
 30
0.0
 11
369.988525
 21
321.905264
 31
0.0
  0
LINE
  5
FD
330
A2
100
AcDbEntity
  8
LC-003-005-----0
 62
     7
370
    25
100
AcDbLine
 10
367.747518
 20
322.492684
 30
0.0
 11
369.822147
 21
324.567313
 31
0.0
  0
LINE
  5
FE
330
A2
100
AcDbEntity
  8
LC-003-005-----0
 62
     7
370
    25
100
AcDbLine
 10
367.58114
 20
325.154733
 30
0.0
 11
369.655768
 21
327.229362
 31
0.0
  0
LINE
  5
FF
330
A2
100
AcDbEntity
  8
LC-003-005-----0
 62
     7
370
    25
100
AcDbLine
 10
367.414762
 20
327.816782
 30
0.0
 11
369.48939
 21
329.891411
 31
0.0
  0
LINE
  5
100
330
A2
100
AcDbEntity
  8
LC-003-005-----0
 62
     7
370
    25
100
AcDbLine
 10
367.248384
 20
330.478831
 30
0.0
 11
369.323012
 21
332.55346
 31
0.0
  0
LINE
  5
101
330
A2
100
AcDbEntity
  8
LC-003-005-----0
 62
     7
370
    25
100
AcDbLine
 10
367.082006
 20
333.14088
 30
0.0
 11
369.156634
 21
335.215509
 31
0.0
  0
LINE
  5
102
330
A2
100
AcDbEntity
  8
LC-003-005-----0
 62
     7
370
    25
100
AcDbLine
 10
366.915628
 20
335.802929
 30
0.0
 11
368.990256
 21
337.877558
 31
0.0
  0
LINE
  5
103
330
A2
100
AcDbEntity
  8
LC-003-005-----0
 62
     7
370
    25
100
AcDbLine
 10
366.74925
 20
338.464979
 30
0.0
 11
368.823878
 21
340.539607
 31
0.0
  0
LINE
  5
104
330
A2
100
AcDbEntity
  8
LC-003-005-----0
 62
     7
370
    25
100
AcDbLine
 10
366.582872
 20
341.127028
 30
0.0
 11
368.6575
 21
343.201656
 31
0.0
  0
LINE
  5
105
330
A2
100
AcDbEntity
  8
LC-003-005-----0
 62
     7
370
    25
100
AcDbLine
 10
366.416494
 20
343.789077
 30
0.0
 11
368.491122
 21
345.863705
 31
0.0
  0
LINE
  5
106
330
A2
100
AcDbEntity
  8
LC-003-005-----0
 62
     7
370
    25
100
AcDbLine
 10
366.250116
 20
346.451126
 30
0.0
 11
368.324744
 21
348.525754
 31
0.0
  0
LINE
  5
107
330
A2
100
AcDbEntity
  8
LC-003-005-----0
 62
     7
370
    25
100
AcDbLine
 10
366.083737
 20
349.113175
 30
0.0
 11
368.158366
 21
351.187803
 31
0.0
  0
LINE
  5
108
330
A2
100
AcDbEntity
  8
LC-003-005-----0
 62
     7
370
    25
100
AcDbLine
 10
365.917359
 20
351.775224
 30
0.0
 11
367.991988
 21
353.849852
 31
0.0
  0
LINE
  5
109
330
A2
100
AcDbEntity
  8
LC-003-005-----0
 62
     7
370
    25
100
AcDbLine
 10
365.750981
 20
354.437273
 30
0.0
 11
367.82561
 21
356.511901
 31
0.0
  0
LINE
  5
10A
330
A2
100
AcDbEntity
  8
LC-003-005-----0
 62
     7
370
    25
100
AcDbLine
 10
365.584603
 20
357.099322
 30
0.0
 11
367.659232
 21
359.17395
 31
0.0
  0
LINE
  5
10B
330
A2
100
AcDbEntity
  8
LC-003-005-----0
 62
     7
370
    25
100
AcDbLine
 10
365.418225
 20
359.761371
 30
0.0
 11
367.492854
 21
361.835999
 31
0.0
  0
LINE
  5
10C
330
A2
100
AcDbEntity
  8
LC-003-005-----0
 62
     7
370
    25
100
AcDbLine
 10
365.251847
 20
362.42342
 30
0.0
 11
367.326476
 21
364.498048
 31
0.0
  0
LINE
  5
10D
330
A2
100
AcDbEntity
  8
LC-003-005-----0
 62
     7
370
    25
100
AcDbLine
 10
365.085469
 20
365.085469
 30
0.0
 11
367.160098
 21
367.160098
 31
0.0
  0
LINE
  5
10E
330
A2
100
AcDbEntity
  8
LC-003-005-----0
 62
     7
370
    25
100
AcDbLine
 10
364.919091
 20
367.747518
 30
0.0
 11
366.993719
 21
369.822147
 31
0.0
  0
LINE
  5
10F
330
A2
100
AcDbEntity
  8
LC-003-005-----0
 62
     7
370
    25
100
AcDbLine
 10
364.752713
 20
370.409567
 30
0.0
 11
366.827341
 21
372.484196
 31
0.0
  0
LINE
  5
110
330
A2
100
AcDbEntity
  8
LC-003-005-----0
 62
     7
370
    25
100
AcDbLine
 10
364.586335
 20
373.071616
 30
0.0
 11
366.431937
 21
374.917218
 31
0.0
  0
ENDBLK
  5
A4
330
A2
100
AcDbEntity
  8
0
100
AcDbBlockEnd
  0
BLOCK
  5
113
330
112
100
AcDbEntity
  8
0
100
AcDbBlockBegin
  2
*X33
 70
     1
 71
     0
 10
0.0
 20
0.0
 30
0.0
  3
*X33
  1

  4
*X3
  0
LINE
  5
115
330
112
100
AcDbEntity
  8
LC-003-005-----0
 62
     7
370
    25
100
AcDbLine
 10
407.149683
 20
336.086756
 30
0.0
 11
407.270985
 21
336.189349
 31
0.0
  0
LINE
  5
116
330
112
100
AcDbEntity
  8
LC-003-005-----0
 62
     7
370
    25
100
AcDbLine
 10
407.270985
 20
336.189349
 30
0.0
 11
407.149683
 21
336.086756
 31
0.0
  0
ENDBLK
  5
114
330
112
100
AcDbEntity
  8
0
100
AcDbBlockEnd
  0
BLOCK
  5
119
330
118
100
AcDbEntity
  8
0
100
AcDbBlockBegin
  2
*X44
 70
     1
 71
     0
 10
0.0
 20
0.0
 30
0.0
  3
*X44
  1

  4
*X4
  0
LINE
  5
11B
330
118
100
AcDbEntity
  8
LC-003-005-----0
 62
     7
370
    25
100
AcDbLine
 10
407.149683
 20
336.086756
 30
0.0
 11
407.270985
 21
336.189349
 31
0.0
  0
LINE
  5
11C
330
118
100
AcDbEntity
  8
LC-003-005-----0
 62
     7
370
    25
100
AcDbLine
 10
407.270985
 20
336.189349
 30
0.0
 11
407.149683
 21
336.086756
 31
0.0
  0
ENDBLK
  5
11A
330
118
100
AcDbEntity
  8
0
100
AcDbBlockEnd
  0
BLOCK
  5
120
330
11F
100
AcDbEntity
  8
0
100
AcDbBlockBegin
  2
*X55
 70
     1
 71
     0
 10
0.0
 20
0.0
 30
0.0
  3
*X55
  1

  4
*X5
  0
LINE
  5
122
330
11F
100
AcDbEntity
  8
LC-003-005-----0
 62
     7
370
    25
100
AcDbLine
 10
450.983502
 20
374.917218
 30
0.0
 11
448.783502
 21
377.117218
 31
0.0
  0
LINE
  5
123
330
11F
100
AcDbEntity
  8
LC-003-005-----0
 62
     7
370
    25
100
AcDbLine
 10
448.155075
 20
374.917218
 30
0.0
 11
445.955075
 21
377.117218
 31
0.0
  0
LINE
  5
124
330
11F
100
AcDbEntity
  8
LC-003-005-----0
 62
     7
370
    25
100
AcDbLine
 10
448.870688
 20
371.373178
 30
0.0
 11
445.470985
 21
374.772881
 31
0.0
  0
LINE
  5
125
330
11F
100
AcDbEntity
  8
LC-003-005-----0
 62
     7
370
    25
100
AcDbLine
 10
447.338306
 20
370.077133
 30
0.0
 11
445.470985
 21
371.944454
 31
0.0
  0
LINE
  5
126
330
11F
100
AcDbEntity
  8
LC-003-005-----0
 62
     7
370
    25
100
AcDbLine
 10
445.805923
 20
368.781089
 30
0.0
 11
444.386781
 21
370.20023
 31
0.0
  0
LINE
  5
127
330
11F
100
AcDbEntity
  8
LC-003-005-----0
 62
     7
370
    25
100
AcDbLine
 10
444.273541
 20
367.485044
 30
0.0
 11
442.854399
 21
368.904186
 31
0.0
  0
LINE
  5
128
330
11F
100
AcDbEntity
  8
LC-003-005-----0
 62
     7
370
    25
100
AcDbLine
 10
442.741159
 20
366.188999
 30
0.0
 11
441.322017
 21
367.608141
 31
0.0
  0
LINE
  5
129
330
11F
100
AcDbEntity
  8
LC-003-005-----0
 62
     7
370
    25
100
AcDbLine
 10
441.208776
 20
364.892954
 30
0.0
 11
439.789634
 21
366.312096
 31
0.0
  0
LINE
  5
12A
330
11F
100
AcDbEntity
  8
LC-003-005-----0
 62
     7
370
    25
100
AcDbLine
 10
439.676394
 20
363.596909
 30
0.0
 11
438.257252
 21
365.016051
 31
0.0
  0
LINE
  5
12B
330
11F
100
AcDbEntity
  8
LC-003-005-----0
 62
     7
370
    25
100
AcDbLine
 10
438.144012
 20
362.300865
 30
0.0
 11
436.72487
 21
363.720007
 31
0.0
  0
LINE
  5
12C
330
11F
100
AcDbEntity
  8
LC-003-005-----0
 62
     7
370
    25
100
AcDbLine
 10
436.611629
 20
361.00482
 30
0.0
 11
435.192487
 21
362.423962
 31
0.0
  0
LINE
  5
12D
330
11F
100
AcDbEntity
  8
LC-003-005-----0
 62
     7
370
    25
100
AcDbLine
 10
435.079247
 20
359.708775
 30
0.0
 11
433.660105
 21
361.127917
 31
0.0
  0
LINE
  5
12E
330
11F
100
AcDbEntity
  8
LC-003-005-----0
 62
     7
370
    25
100
AcDbLine
 10
433.546865
 20
358.41273
 30
0.0
 11
432.127723
 21
359.831872
 31
0.0
  0
LINE
  5
12F
330
11F
100
AcDbEntity
  8
LC-003-005-----0
 62
     7
370
    25
100
AcDbLine
 10
432.014482
 20
357.116686
 30
0.0
 11
430.59534
 21
358.535827
 31
0.0
  0
LINE
  5
130
330
11F
100
AcDbEntity
  8
LC-003-005-----0
 62
     7
370
    25
100
AcDbLine
 10
430.4821
 20
355.820641
 30
0.0
 11
429.062958
 21
357.239783
 31
0.0
  0
LINE
  5
131
330
11F
100
AcDbEntity
  8
LC-003-005-----0
 62
     7
370
    25
100
AcDbLine
 10
428.949718
 20
354.524596
 30
0.0
 11
427.530576
 21
355.943738
 31
0.0
  0
LINE
  5
132
330
11F
100
AcDbEntity
  8
LC-003-005-----0
 62
     7
370
    25
100
AcDbLine
 10
427.417335
 20
353.228551
 30
0.0
 11
425.998193
 21
354.647693
 31
0.0
  0
LINE
  5
133
330
11F
100
AcDbEntity
  8
LC-003-005-----0
 62
     7
370
    25
100
AcDbLine
 10
425.884953
 20
351.932506
 30
0.0
 11
424.465811
 21
353.351648
 31
0.0
  0
LINE
  5
134
330
11F
100
AcDbEntity
  8
LC-003-005-----0
 62
     7
370
    25
100
AcDbLine
 10
424.352571
 20
350.636462
 30
0.0
 11
422.933429
 21
352.055604
 31
0.0
  0
LINE
  5
135
330
11F
100
AcDbEntity
  8
LC-003-005-----0
 62
     7
370
    25
100
AcDbLine
 10
422.820188
 20
349.340417
 30
0.0
 11
421.401046
 21
350.759559
 31
0.0
  0
LINE
  5
136
330
11F
100
AcDbEntity
  8
LC-003-005-----0
 62
     7
370
    25
100
AcDbLine
 10
421.287806
 20
348.044372
 30
0.0
 11
419.868664
 21
349.463514
 31
0.0
  0
LINE
  5
137
330
11F
100
AcDbEntity
  8
LC-003-005-----0
 62
     7
370
    25
100
AcDbLine
 10
419.755423
 20
346.748327
 30
0.0
 11
418.336282
 21
348.167469
 31
0.0
  0
LINE
  5
138
330
11F
100
AcDbEntity
  8
LC-003-005-----0
 62
     7
370
    25
100
AcDbLine
 10
418.223041
 20
345.452283
 30
0.0
 11
416.803899
 21
346.871425
 31
0.0
  0
LINE
  5
139
330
11F
100
AcDbEntity
  8
LC-003-005-----0
 62
     7
370
    25
100
AcDbLine
 10
416.690659
 20
344.156238
 30
0.0
 11
415.271517
 21
345.57538
 31
0.0
  0
LINE
  5
13A
330
11F
100
AcDbEntity
  8
LC-003-005-----0
 62
     7
370
    25
100
AcDbLine
 10
415.158276
 20
342.860193
 30
0.0
 11
413.739134
 21
344.279335
 31
0.0
  0
LINE
  5
13B
330
11F
100
AcDbEntity
  8
LC-003-005-----0
 62
     7
370
    25
100
AcDbLine
 10
413.625894
 20
341.564148
 30
0.0
 11
412.206752
 21
342.98329
 31
0.0
  0
LINE
  5
13C
330
11F
100
AcDbEntity
  8
LC-003-005-----0
 62
     7
370
    25
100
AcDbLine
 10
412.093512
 20
340.268103
 30
0.0
 11
410.67437
 21
341.687245
 31
0.0
  0
LINE
  5
13D
330
11F
100
AcDbEntity
  8
LC-003-005-----0
 62
     7
370
    25
100
AcDbLine
 10
410.561129
 20
338.972059
 30
0.0
 11
409.141987
 21
340.391201
 31
0.0
  0
LINE
  5
13E
330
11F
100
AcDbEntity
  8
LC-003-005-----0
 62
     7
370
    25
100
AcDbLine
 10
409.028747
 20
337.676014
 30
0.0
 11
407.609605
 21
339.095156
 31
0.0
  0
LINE
  5
13F
330
11F
100
AcDbEntity
  8
LC-003-005-----0
 62
     7
370
    25
100
AcDbLine
 10
407.496365
 20
336.379969
 30
0.0
 11
406.077223
 21
337.799111
 31
0.0
  0
LINE
  5
140
330
11F
100
AcDbEntity
  8
LC-003-005-----0
 62
     7
370
    25
100
AcDbLine
 10
407.270985
 20
333.776922
 30
0.0
 11
405.270985
 21
335.776922
 31
0.0
  0
LINE
  5
141
330
11F
100
AcDbEntity
  8
LC-003-005-----0
 62
     7
370
    25
100
AcDbLine
 10
407.270985
 20
330.948495
 30
0.0
 11
405.270985
 21
332.948495
 31
0.0
  0
LINE
  5
142
330
11F
100
AcDbEntity
  8
LC-003-005-----0
 62
     7
370
    25
100
AcDbLine
 10
407.270985
 20
328.120068
 30
0.0
 11
405.270985
 21
330.120068
 31
0.0
  0
LINE
  5
143
330
11F
100
AcDbEntity
  8
LC-003-005-----0
 62
     7
370
    25
100
AcDbLine
 10
407.270985
 20
325.291641
 30
0.0
 11
405.270985
 21
327.291641
 31
0.0
  0
LINE
  5
144
330
11F
100
AcDbEntity
  8
LC-003-005-----0
 62
     7
370
    25
100
AcDbLine
 10
407.270985
 20
322.463213
 30
0.0
 11
405.270985
 21
324.463213
 31
0.0
  0
LINE
  5
145
330
11F
100
AcDbEntity
  8
LC-003-005-----0
 62
     7
370
    25
100
AcDbLine
 10
407.270985
 20
319.634786
 30
0.0
 11
405.270985
 21
321.634786
 31
0.0
  0
LINE
  5
146
330
11F
100
AcDbEntity
  8
LC-003-005-----0
 62
     7
370
    25
100
AcDbLine
 10
407.270985
 20
316.806359
 30
0.0
 11
405.270985
 21
318.806359
 31
0.0
  0
LINE
  5
147
330
11F
100
AcDbEntity
  8
LC-003-005-----0
 62
     7
370
    25
100
AcDbLine
 10
407.270985
 20
313.977932
 30
0.0
 11
405.270985
 21
315.977932
 31
0.0
  0
LINE
  5
148
330
11F
100
AcDbEntity
  8
LC-003-005-----0
 62
     7
370
    25
100
AcDbLine
 10
407.270985
 20
311.149505
 30
0.0
 11
405.270985
 21
313.149505
 31
0.0
  0
LINE
  5
149
330
11F
100
AcDbEntity
  8
LC-003-005-----0
 62
     7
370
    25
100
AcDbLine
 10
407.270985
 20
308.321078
 30
0.0
 11
405.270985
 21
310.321078
 31
0.0
  0
LINE
  5
14A
330
11F
100
AcDbEntity
  8
LC-003-005-----0
 62
     7
370
    25
100
AcDbLine
 10
407.270985
 20
305.492651
 30
0.0
 11
405.270985
 21
307.492651
 31
0.0
  0
LINE
  5
14B
330
11F
100
AcDbEntity
  8
LC-003-005-----0
 62
     7
370
    25
100
AcDbLine
 10
407.270985
 20
302.664224
 30
0.0
 11
405.270985
 21
304.664224
 31
0.0
  0
LINE
  5
14C
330
11F
100
AcDbEntity
  8
LC-003-005-----0
 62
     7
370
    25
100
AcDbLine
 10
412.970985
 20
294.135796
 30
0.0
 11
411.989563
 21
295.117218
 31
0.0
  0
LINE
  5
14D
330
11F
100
AcDbEntity
  8
LC-003-005-----0
 62
     7
370
    25
100
AcDbLine
 10
407.270985
 20
299.835796
 30
0.0
 11
405.270985
 21
301.835796
 31
0.0
  0
LINE
  5
14E
330
11F
100
AcDbEntity
  8
LC-003-005-----0
 62
     7
370
    25
100
AcDbLine
 10
412.970985
 20
291.307369
 30
0.0
 11
409.161136
 21
295.117218
 31
0.0
  0
LINE
  5
14F
330
11F
100
AcDbEntity
  8
LC-003-005-----0
 62
     7
370
    25
100
AcDbLine
 10
407.270985
 20
297.007369
 30
0.0
 11
405.270985
 21
299.007369
 31
0.0
  0
LINE
  5
150
330
11F
100
AcDbEntity
  8
LC-003-005-----0
 62
     7
370
    25
100
AcDbLine
 10
408.332709
 20
293.117218
 30
0.0
 11
405.270985
 21
296.178942
 31
0.0
  0
LINE
  5
151
330
11F
100
AcDbEntity
  8
LC-003-005-----0
 62
     7
370
    25
100
AcDbLine
 10
407.270985
 20
291.350515
 30
0.0
 11
405.270985
 21
293.350515
 31
0.0
  0
LINE
  5
152
330
11F
100
AcDbEntity
  8
LC-003-005-----0
 62
     7
370
    25
100
AcDbLine
 10
407.270985
 20
288.522088
 30
0.0
 11
405.270985
 21
290.522088
 31
0.0
  0
LINE
  5
153
330
11F
100
AcDbEntity
  8
LC-003-005-----0
 62
     7
370
    25
100
AcDbLine
 10
407.270985
 20
285.693661
 30
0.0
 11
405.270985
 21
287.693661
 31
0.0
  0
LINE
  5
154
330
11F
100
AcDbEntity
  8
LC-003-005-----0
 62
     7
370
    25
100
AcDbLine
 10
406.019
 20
284.117218
 30
0.0
 11
405.270985
 21
284.865234
 31
0.0
  0
ENDBLK
  5
121
330
11F
100
AcDbEntity
  8
0
100
AcDbBlockEnd
  0
BLOCK
  5
158
330
157
100
AcDbEntity
  8
0
100
AcDbBlockBegin
  2
*X66
 70
     1
 71
     0
 10
0.0
 20
0.0
 30
0.0
  3
*X66
  1

  4
*X6
  0
LINE
  5
15A
330
157
100
AcDbEntity
  8
LC-003-005-----0
 62
     7
370
    25
100
AcDbLine
 10
369.995747
 20
376.709014
 30
0.0
 11
369.587543
 21
377.117218
 31
0.0
  0
LINE
  5
15B
330
157
100
AcDbEntity
  8
LC-003-005-----0
 62
     7
370
    25
100
AcDbLine
 10
369.995747
 20
373.880587
 30
0.0
 11
366.759116
 21
377.117218
 31
0.0
  0
LINE
  5
15C
330
157
100
AcDbEntity
  8
LC-003-005-----0
 62
     7
370
    25
100
AcDbLine
 10
370.020153
 20
371.027754
 30
0.0
 11
367.278688
 21
373.769219
 31
0.0
  0
LINE
  5
15D
330
157
100
AcDbEntity
  8
LC-003-005-----0
 62
     7
370
    25
100
AcDbLine
 10
366.130688
 20
374.917218
 30
0.0
 11
364.812665
 21
376.235242
 31
0.0
  0
LINE
  5
15E
330
157
100
AcDbEntity
  8
LC-003-005-----0
 62
     7
370
    25
100
AcDbLine
 10
371.081208
 20
367.138272
 30
0.0
 11
368.230427
 21
369.989053
 31
0.0
  0
LINE
  5
15F
330
157
100
AcDbEntity
  8
LC-003-005-----0
 62
     7
370
    25
100
AcDbLine
 10
372.142263
 20
363.248789
 30
0.0
 11
369.291482
 21
366.099571
 31
0.0
  0
LINE
  5
160
330
157
100
AcDbEntity
  8
LC-003-005-----0
 62
     7
370
    25
100
AcDbLine
 10
373.203318
 20
359.359307
 30
0.0
 11
370.352537
 21
362.210089
 31
0.0
  0
LINE
  5
161
330
157
100
AcDbEntity
  8
LC-003-005-----0
 62
     7
370
    25
100
AcDbLine
 10
374.264373
 20
355.469825
 30
0.0
 11
371.413592
 21
358.320606
 31
0.0
  0
LINE
  5
162
330
157
100
AcDbEntity
  8
LC-003-005-----0
 62
     7
370
    25
100
AcDbLine
 10
375.325428
 20
351.580343
 30
0.0
 11
372.474647
 21
354.431124
 31
0.0
  0
LINE
  5
163
330
157
100
AcDbEntity
  8
LC-003-005-----0
 62
     7
370
    25
100
AcDbLine
 10
376.386483
 20
347.690861
 30
0.0
 11
373.535702
 21
350.541642
 31
0.0
  0
LINE
  5
164
330
157
100
AcDbEntity
  8
LC-003-005-----0
 62
     7
370
    25
100
AcDbLine
 10
377.447538
 20
343.801378
 30
0.0
 11
374.596757
 21
346.65216
 31
0.0
  0
LINE
  5
165
330
157
100
AcDbEntity
  8
LC-003-005-----0
 62
     7
370
    25
100
AcDbLine
 10
378.508594
 20
339.911896
 30
0.0
 11
375.657812
 21
342.762678
 31
0.0
  0
LINE
  5
166
330
157
100
AcDbEntity
  8
LC-003-005-----0
 62
     7
370
    25
100
AcDbLine
 10
379.270985
 20
336.321078
 30
0.0
 11
376.718867
 21
338.873195
 31
0.0
  0
LINE
  5
167
330
157
100
AcDbEntity
  8
LC-003-005-----0
 62
     7
370
    25
100
AcDbLine
 10
379.270985
 20
333.492651
 30
0.0
 11
377.270985
 21
335.492651
 31
0.0
  0
LINE
  5
168
330
157
100
AcDbEntity
  8
LC-003-005-----0
 62
     7
370
    25
100
AcDbLine
 10
379.270985
 20
330.664224
 30
0.0
 11
377.270985
 21
332.664224
 31
0.0
  0
LINE
  5
169
330
157
100
AcDbEntity
  8
LC-003-005-----0
 62
     7
370
    25
100
AcDbLine
 10
379.270985
 20
327.835796
 30
0.0
 11
377.270985
 21
329.835796
 31
0.0
  0
LINE
  5
16A
330
157
100
AcDbEntity
  8
LC-003-005-----0
 62
     7
370
    25
100
AcDbLine
 10
379.270985
 20
325.007369
 30
0.0
 11
377.270985
 21
327.007369
 31
0.0
  0
LINE
  5
16B
330
157
100
AcDbEntity
  8
LC-003-005-----0
 62
     7
370
    25
100
AcDbLine
 10
379.270985
 20
322.178942
 30
0.0
 11
377.270985
 21
324.178942
 31
0.0
  0
LINE
  5
16C
330
157
100
AcDbEntity
  8
LC-003-005-----0
 62
     7
370
    25
100
AcDbLine
 10
379.270985
 20
319.350515
 30
0.0
 11
377.270985
 21
321.350515
 31
0.0
  0
LINE
  5
16D
330
157
100
AcDbEntity
  8
LC-003-005-----0
 62
     7
370
    25
100
AcDbLine
 10
379.270985
 20
316.522088
 30
0.0
 11
377.270985
 21
318.522088
 31
0.0
  0
LINE
  5
16E
330
157
100
AcDbEntity
  8
LC-003-005-----0
 62
     7
370
    25
100
AcDbLine
 10
379.270985
 20
313.693661
 30
0.0
 11
377.270985
 21
315.693661
 31
0.0
  0
LINE
  5
16F
330
157
100
AcDbEntity
  8
LC-003-005-----0
 62
     7
370
    25
100
AcDbLine
 10
379.270985
 20
310.865234
 30
0.0
 11
377.270985
 21
312.865234
 31
0.0
  0
LINE
  5
170
330
157
100
AcDbEntity
  8
LC-003-005-----0
 62
     7
370
    25
100
AcDbLine
 10
379.270985
 20
308.036807
 30
0.0
 11
377.270985
 21
310.036807
 31
0.0
  0
LINE
  5
171
330
157
100
AcDbEntity
  8
LC-003-005-----0
 62
     7
370
    25
100
AcDbLine
 10
379.270985
 20
305.208379
 30
0.0
 11
377.270985
 21
307.208379
 31
0.0
  0
LINE
  5
172
330
157
100
AcDbEntity
  8
LC-003-005-----0
 62
     7
370
    25
100
AcDbLine
 10
379.270985
 20
302.379952
 30
0.0
 11
377.270985
 21
304.379952
 31
0.0
  0
LINE
  5
173
330
157
100
AcDbEntity
  8
LC-003-005-----0
 62
     7
370
    25
100
AcDbLine
 10
379.270985
 20
299.551525
 30
0.0
 11
377.270985
 21
301.551525
 31
0.0
  0
LINE
  5
174
330
157
100
AcDbEntity
  8
LC-003-005-----0
 62
     7
370
    25
100
AcDbLine
 10
379.270985
 20
296.723098
 30
0.0
 11
377.270985
 21
298.723098
 31
0.0
  0
LINE
  5
175
330
157
100
AcDbEntity
  8
LC-003-005-----0
 62
     7
370
    25
100
AcDbLine
 10
379.270985
 20
293.894671
 30
0.0
 11
377.270985
 21
295.894671
 31
0.0
  0
LINE
  5
176
330
157
100
AcDbEntity
  8
LC-003-005-----0
 62
     7
370
    25
100
AcDbLine
 10
379.270985
 20
291.066244
 30
0.0
 11
377.270985
 21
293.066244
 31
0.0
  0
LINE
  5
177
330
157
100
AcDbEntity
  8
LC-003-005-----0
 62
     7
370
    25
100
AcDbLine
 10
379.270985
 20
288.237817
 30
0.0
 11
377.270985
 21
290.237817
 31
0.0
  0
LINE
  5
178
330
157
100
AcDbEntity
  8
LC-003-005-----0
 62
     7
370
    25
100
AcDbLine
 10
379.270985
 20
285.40939
 30
0.0
 11
377.270985
 21
287.40939
 31
0.0
  0
LINE
  5
179
330
157
100
AcDbEntity
  8
LC-003-005-----0
 62
     7
370
    25
100
AcDbLine
 10
376.563156
 20
288.117218
 30
0.0
 11
374.563156
 21
290.117218
 31
0.0
  0
LINE
  5
17A
330
157
100
AcDbEntity
  8
LC-003-005-----0
 62
     7
370
    25
100
AcDbLine
 10
377.734729
 20
284.117218
 30
0.0
 11
377.270985
 21
284.580962
 31
0.0
  0
LINE
  5
17B
330
157
100
AcDbEntity
  8
LC-003-005-----0
 62
     7
370
    25
100
AcDbLine
 10
372.484729
 20
289.367218
 30
0.0
 11
372.089662
 21
289.762285
 31
0.0
  0
ENDBLK
  5
159
330
157
100
AcDbEntity
  8
0
100
AcDbBlockEnd
  0
BLOCK
  5
17E
330
17D
100
AcDbEntity
  8
0
100
AcDbBlockBegin
  2
*X77
 70
     1
 71
     0
 10
0.0
 20
0.0
 30
0.0
  3
*X77
  1

  4
*X7
  0
LINE
  5
180
330
17D
100
AcDbEntity
  8
LC-003-005-----0
 62
     7
370
    25
100
AcDbLine
 10
443.195407
 20
289.367218
 30
0.0
 11
442.445407
 21
290.117218
 31
0.0
  0
LINE
  5
181
330
17D
100
AcDbEntity
  8
LC-003-005-----0
 62
     7
370
    25
100
AcDbLine
 10
438.670985
 20
293.891641
 30
0.0
 11
437.445407
 21
295.117218
 31
0.0
  0
LINE
  5
182
330
17D
100
AcDbEntity
  8
LC-003-005-----0
 62
     7
370
    25
100
AcDbLine
 10
441.170985
 20
288.563213
 30
0.0
 11
439.61698
 21
290.117218
 31
0.0
  0
LINE
  5
183
330
17D
100
AcDbEntity
  8
LC-003-005-----0
 62
     7
370
    25
100
AcDbLine
 10
438.670985
 20
291.063213
 30
0.0
 11
436.670985
 21
293.063213
 31
0.0
  0
LINE
  5
184
330
17D
100
AcDbEntity
  8
LC-003-005-----0
 62
     7
370
    25
100
AcDbLine
 10
436.61698
 20
293.117218
 30
0.0
 11
434.61698
 21
295.117218
 31
0.0
  0
LINE
  5
185
330
17D
100
AcDbEntity
  8
LC-003-005-----0
 62
     7
370
    25
100
AcDbLine
 10
438.890307
 20
288.015464
 30
0.0
 11
436.670985
 21
290.234786
 31
0.0
  0
LINE
  5
186
330
17D
100
AcDbEntity
  8
LC-003-005-----0
 62
     7
370
    25
100
AcDbLine
 10
434.721107
 20
292.184664
 30
0.0
 11
432.970985
 21
293.934786
 31
0.0
  0
LINE
  5
187
330
17D
100
AcDbEntity
  8
LC-003-005-----0
 62
     7
370
    25
100
AcDbLine
 10
438.670985
 20
285.406359
 30
0.0
 11
436.670985
 21
287.406359
 31
0.0
  0
LINE
  5
188
330
17D
100
AcDbEntity
  8
LC-003-005-----0
 62
     7
370
    25
100
AcDbLine
 10
437.131699
 20
284.117218
 30
0.0
 11
436.670985
 21
284.577932
 31
0.0
  0
ENDBLK
  5
17F
330
17D
100
AcDbEntity
  8
0
100
AcDbBlockEnd
  0
BLOCK
  5
19D
330
193
100
AcDbEntity
  8
0
100
AcDbBlockBegin
  2
*D8
 70
     1
 71
     0
 10
0.0
 20
0.0
 30
0.0
  3
*D8
  1

  0
LINE
  5
194
330
193
100
AcDbEntity
  8
LC-004-003-----0
 62
     2
370
    -2
100
AcDbLine
 10
364.470985
 20
375.117218
 30
0.0
 11
364.470985
 21
434.8
 31
0.0
  0
LINE
  5
195
330
193
100
AcDbEntity
  8
LC-004-003-----0
 62
     2
370
    -2
100
AcDbLine
 10
451.470985
 20
374.917218
 30
0.0
 11
451.470985
 21
434.8
 31
0.0
  0
LINE
  5
196
330
193
100
AcDbEntity
  8
LC-004-003-----0
 62
     2
370
    -2
100
AcDbLine
 10
392.470985
 20
431.2
 30
0.0
 11
423.470985
 21
431.2
 31
0.0
  0
SOLID
  5
197
330
193
100
AcDbEntity
  8
LC-004-003-----0
 62
     2
100
AcDbTrace
 10
392.470985
 20
435.866667
 30
0.0
 11
392.470985
 21
426.533333
 31
0.0
 12
364.470985
 22
431.2
 32
0.0
 13
364.470985
 23
431.2
 33
0.0
  0
SOLID
  5
198
330
193
100
AcDbEntity
  8
LC-004-003-----0
 62
     2
100
AcDbTrace
 10
423.470985
 20
426.533333
 30
0.0
 11
423.470985
 21
435.866667
 31
0.0
 12
451.470985
 22
431.2
 32
0.0
 13
451.470985
 23
431.2
 33
0.0
  0
MTEXT
  5
199
330
193
100
AcDbEntity
  8
LC-004-003-----0
 62
     2
100
AcDbMText
 10
407.970985
 20
462.0
 30
0.0
 40
28.0
 41
0.0
 71
     5
 72
     1
  1
\A1;88
  7
LCTX15-400-0-0pDIN-Schrift
 73
     1
 44
1.0
  0
POINT
  5
19A
330
193
100
AcDbEntity
  8
Defpoints
 62
     0
100
AcDbPoint
 10
364.470985
 20
375.117218
 30
0.0
  0
POINT
  5
19B
330
193
100
AcDbEntity
  8
Defpoints
 62
     0
100
AcDbPoint
 10
451.470985
 20
374.917218
 30
0.0
  0
POINT
  5
19C
330
193
100
AcDbEntity
  8
Defpoints
 62
     0
100
AcDbPoint
 10
451.470985
 20
431.2
 30
0.0
  0
ENDBLK
  5
19E
330
193
100
AcDbEntity
  8
0
100
AcDbBlockEnd
  0
BLOCK
  5
1AA
330
1A0
100
AcDbEntity
  8
0
100
AcDbBlockBegin
  2
*D9
 70
     1
 71
     0
 10
0.0
 20
0.0
 30
0.0
  3
*D9
  1

  0
LINE
  5
1A1
330
1A0
100
AcDbEntity
  8
LC-004-003-----0
 62
     2
370
    -2
100
AcDbLine
 10
451.470985
 20
374.917218
 30
0.0
 11
451.470985
 21
434.8
 31
0.0
  0
LINE
  5
1A2
330
1A0
100
AcDbEntity
  8
LC-004-003-----0
 62
     2
370
    -2
100
AcDbLine
 10
517.470985
 20
367.417218
 30
0.0
 11
517.470985
 21
434.8
 31
0.0
  0
LINE
  5
1A3
330
1A0
100
AcDbEntity
  8
LC-004-003-----0
 62
     2
370
    -2
100
AcDbLine
 10
479.470985
 20
431.2
 30
0.0
 11
489.470985
 21
431.2
 31
0.0
  0
SOLID
  5
1A4
330
1A0
100
AcDbEntity
  8
LC-004-003-----0
 62
     2
100
AcDbTrace
 10
479.470985
 20
435.866667
 30
0.0
 11
479.470985
 21
426.533333
 31
0.0
 12
451.470985
 22
431.2
 32
0.0
 13
451.470985
 23
431.2
 33
0.0
  0
SOLID
  5
1A5
330
1A0
100
AcDbEntity
  8
LC-004-003-----0
 62
     2
100
AcDbTrace
 10
489.470985
 20
426.533333
 30
0.0
 11
489.470985
 21
435.866667
 31
0.0
 12
517.470985
 22
431.2
 32
0.0
 13
517.470985
 23
431.2
 33
0.0
  0
MTEXT
  5
1A6
330
1A0
100
AcDbEntity
  8
LC-004-003-----0
 62
     2
100
AcDbMText
 10
484.470985
 20
462.0
 30
0.0
 40
28.0
 41
0.0
 71
     5
 72
     1
  1
\A1;63
  7
LCTX15-400-0-0pDIN-Schrift
 73
     1
 44
1.0
  0
POINT
  5
1A7
330
1A0
100
AcDbEntity
  8
Defpoints
 62
     0
100
AcDbPoint
 10
451.470985
 20
374.917218
 30
0.0
  0
POINT
  5
1A8
330
1A0
100
AcDbEntity
  8
Defpoints
 62
     0
100
AcDbPoint
 10
517.470985
 20
367.417218
 30
0.0
  0
POINT
  5
1A9
330
1A0
100
AcDbEntity
  8
Defpoints
 62
     0
100
AcDbPoint
 10
517.470985
 20
431.2
 30
0.0
  0
ENDBLK
  5
1AB
330
1A0
100
AcDbEntity
  8
0
100
AcDbBlockEnd
  0
BLOCK
  5
1B8
330
1AD
100
AcDbEntity
  8
0
100
AcDbBlockBegin
  2
*D10
 70
     1
 71
     0
 10
0.0
 20
0.0
 30
0.0
  3
*D10
  1

  0
LINE
  5
1AE
330
1AD
100
AcDbEntity
  8
LC-004-003-----0
 62
     2
370
    -2
100
AcDbLine
 10
449.377235
 20
341.417218
 30
0.0
 11
513.2
 21
341.417218
 31
0.0
  0
LINE
  5
1AF
330
1AD
100
AcDbEntity
  8
LC-004-003-----0
 62
     2
370
    -2
100
AcDbLine
 10
438.670985
 20
284.117218
 30
0.0
 11
513.2
 21
284.117218
 31
0.0
  0
LINE
  5
1B0
330
1AD
100
AcDbEntity
  8
LC-004-003-----0
 62
     2
370
    -2
100
AcDbLine
 10
509.6
 20
369.417218
 30
0.0
 11
509.6
 21
397.417218
 31
0.0
  0
LINE
  5
1B1
330
1AD
100
AcDbEntity
  8
LC-004-003-----0
 62
     2
370
    -2
100
AcDbLine
 10
509.6
 20
256.117218
 30
0.0
 11
509.6
 21
248.829808
 31
0.0
  0
SOLID
  5
1B2
330
1AD
100
AcDbEntity
  8
LC-004-003-----0
 62
     2
100
AcDbTrace
 10
504.933333
 20
369.417218
 30
0.0
 11
514.266667
 21
369.417218
 31
0.0
 12
509.6
 22
341.417218
 32
0.0
 13
509.6
 23
341.417218
 33
0.0
  0
SOLID
  5
1B3
330
1AD
100
AcDbEntity
  8
LC-004-003-----0
 62
     2
100
AcDbTrace
 10
514.266667
 20
256.117218
 30
0.0
 11
504.933333
 21
256.117218
 31
0.0
 12
509.6
 22
284.117218
 32
0.0
 13
509.6
 23
284.117218
 33
0.0
  0
MTEXT
  5
1B4
330
1AD
100
AcDbEntity
  8
LC-004-003-----0
 62
     2
100
AcDbMText
 10
478.8
 20
270.864
 30
0.0
 40
28.0
 41
0.0
 71
     5
 72
     1
  1
\A1;60
  7
LCTX15-400-0-0pDIN-Schrift
 11
6.123031769111886E-17
 21
1.0
 31
0.0
 73
     1
 44
1.0
  0
POINT
  5
1B5
330
1AD
100
AcDbEntity
  8
Defpoints
 62
     0
100
AcDbPoint
 10
449.377235
 20
341.417218
 30
0.0
  0
POINT
  5
1B6
330
1AD
100
AcDbEntity
  8
Defpoints
 62
     0
100
AcDbPoint
 10
438.670985
 20
284.117218
 30
0.0
  0
POINT
  5
1B7
330
1AD
100
AcDbEntity
  8
Defpoints
 62
     0
100
AcDbPoint
 10
509.6
 20
284.117218
 30
0.0
  0
ENDBLK
  5
1B9
330
1AD
100
AcDbEntity
  8
0
100
AcDbBlockEnd
  0
BLOCK
  5
1C6
330
1BB
100
AcDbEntity
  8
0
100
AcDbBlockBegin
  2
*D11
 70
     1
 71
     0
 10
0.0
 20
0.0
 30
0.0
  3
*D11
  1

  0
LINE
  5
1BC
330
1BB
100
AcDbEntity
  8
LC-004-003-----0
 62
     2
370
    -2
100
AcDbLine
 10
517.470985
 20
367.417218
 30
0.0
 11
591.6
 21
367.417218
 31
0.0
  0
LINE
  5
1BD
330
1BB
100
AcDbEntity
  8
LC-004-003-----0
 62
     2
370
    -2
100
AcDbLine
 10
517.470985
 20
335.417218
 30
0.0
 11
591.6
 21
335.417218
 31
0.0
  0
LINE
  5
1BE
330
1BB
100
AcDbEntity
  8
LC-004-003-----0
 62
     2
370
    -2
100
AcDbLine
 10
588.0
 20
307.417218
 30
0.0
 11
588.0
 21
279.417218
 31
0.0
  0
LINE
  5
1BF
330
1BB
100
AcDbEntity
  8
LC-004-003-----0
 62
     2
370
    -2
100
AcDbLine
 10
588.0
 20
395.417218
 30
0.0
 11
588.0
 21
451.144758
 31
0.0
  0
SOLID
  5
1C0
330
1BB
100
AcDbEntity
  8
LC-004-003-----0
 62
     2
100
AcDbTrace
 10
583.333333
 20
395.417218
 30
0.0
 11
592.666667
 21
395.417218
 31
0.0
 12
588.0
 22
367.417218
 32
0.0
 13
588.0
 23
367.417218
 33
0.0
  0
SOLID
  5
1C1
330
1BB
100
AcDbEntity
  8
LC-004-003-----0
 62
     2
100
AcDbTrace
 10
592.666667
 20
307.417218
 30
0.0
 11
583.333333
 21
307.417218
 31
0.0
 12
588.0
 22
335.417218
 32
0.0
 13
588.0
 23
335.417218
 33
0.0
  0
MTEXT
  5
1C2
330
1BB
100
AcDbEntity
  8
LC-004-003-----0
 62
     2
100
AcDbMText
 10
557.2
 20
405.108
 30
0.0
 40
28.0
 41
0.0
 71
     5
 72
     1
  1
\A1;DN32
  7
LCTX15-400-0-0pDIN-Schrift
 11
6.123031769111886E-17
 21
1.0
 31
0.0
 73
     1
 44
1.0
  0
POINT
  5
1C3
330
1BB
100
AcDbEntity
  8
Defpoints
 62
     0
100
AcDbPoint
 10
517.470985
 20
367.417218
 30
0.0
  0
POINT
  5
1C4
330
1BB
100
AcDbEntity
  8
Defpoints
 62
     0
100
AcDbPoint
 10
517.470985
 20
335.417218
 30
0.0
  0
POINT
  5
1C5
330
1BB
100
AcDbEntity
  8
Defpoints
 62
     0
100
AcDbPoint
 10
588.0
 20
335.417218
 30
0.0
  0
ENDBLK
  5
1C7
330
1BB
100
AcDbEntity
  8
0
100
AcDbBlockEnd
  0
BLOCK
  5
1D3
330
1C9
100
AcDbEntity
  8
0
100
AcDbBlockBegin
  2
*D12
 70
     1
 71
     0
 10
0.0
 20
0.0
 30
0.0
  3
*D12
  1

  0
LINE
  5
1CA
330
1C9
100
AcDbEntity
  8
LC-004-003-----0
 62
     2
370
    -2
100
AcDbLine
 10
366.470985
 20
377.117218
 30
0.0
 11
310.0
 21
377.117218
 31
0.0
  0
LINE
  5
1CB
330
1C9
100
AcDbEntity
  8
LC-004-003-----0
 62
     2
370
    -2
100
AcDbLine
 10
380.365497
 20
270.917218
 30
0.0
 11
310.0
 21
270.917218
 31
0.0
  0
LINE
  5
1CC
330
1C9
100
AcDbEntity
  8
LC-004-003-----0
 62
     2
370
    -2
100
AcDbLine
 10
313.6
 20
349.117218
 30
0.0
 11
313.6
 21
298.917218
 31
0.0
  0
SOLID
  5
1CD
330
1C9
100
AcDbEntity
  8
LC-004-003-----0
 62
     2
100
AcDbTrace
 10
318.266667
 20
349.117218
 30
0.0
 11
308.933333
 21
349.117218
 31
0.0
 12
313.6
 22
377.117218
 32
0.0
 13
313.6
 23
377.117218
 33
0.0
  0
SOLID
  5
1CE
330
1C9
100
AcDbEntity
  8
LC-004-003-----0
 62
     2
100
AcDbTrace
 10
308.933333
 20
298.917218
 30
0.0
 11
318.266667
 21
298.917218
 31
0.0
 12
313.6
 22
270.917218
 32
0.0
 13
313.6
 23
270.917218
 33
0.0
  0
MTEXT
  5
1CF
330
1C9
100
AcDbEntity
  8
LC-004-003-----0
 62
     2
100
AcDbMText
 10
282.8
 20
324.017218
 30
0.0
 40
28.0
 41
0.0
 71
     5
 72
     1
  1
\A1;104
  7
LCTX15-400-0-0pDIN-Schrift
 11
6.123031769111886E-17
 21
1.0
 31
0.0
 73
     1
 44
1.0
  0
POINT
  5
1D0
330
1C9
100
AcDbEntity
  8
Defpoints
 62
     0
100
AcDbPoint
 10
366.470985
 20
377.117218
 30
0.0
  0
POINT
  5
1D1
330
1C9
100
AcDbEntity
  8
Defpoints
 62
     0
100
AcDbPoint
 10
380.365497
 20
270.917218
 30
0.0
  0
POINT
  5
1D2
330
1C9
100
AcDbEntity
  8
Defpoints
 62
     0
100
AcDbPoint
 10
313.6
 20
270.917218
 30
0.0
  0
ENDBLK
  5
1D4
330
1C9
100
AcDbEntity
  8
0
100
AcDbBlockEnd
  0
BLOCK
  5
1E0
330
1D6
100
AcDbEntity
  8
0
100
AcDbBlockBegin
  2
*D13
 70
     1
 71
     0
 10
0.0
 20
0.0
 30
0.0
  3
*D13
  1

  0
LINE
  5
1D7
330
1D6
100
AcDbEntity
  8
LC-004-003-----0
 62
     2
370
    -2
100
AcDbLine
 10
435.576473
 20
270.917218
 30
0.0
 11
630.8
 21
270.917218
 31
0.0
  0
LINE
  5
1D8
330
1D6
100
AcDbEntity
  8
LC-004-003-----0
 62
     2
370
    -2
100
AcDbLine
 10
517.470985
 20
351.417218
 30
0.0
 11
630.8
 21
351.417218
 31
0.0
  0
LINE
  5
1D9
330
1D6
100
AcDbEntity
  8
LC-004-003-----0
 62
     2
370
    -2
100
AcDbLine
 10
627.2
 20
298.917218
 30
0.0
 11
627.2
 21
323.417218
 31
0.0
  0
SOLID
  5
1DA
330
1D6
100
AcDbEntity
  8
LC-004-003-----0
 62
     2
100
AcDbTrace
 10
622.533333
 20
298.917218
 30
0.0
 11
631.866667
 21
298.917218
 31
0.0
 12
627.2
 22
270.917218
 32
0.0
 13
627.2
 23
270.917218
 33
0.0
  0
SOLID
  5
1DB
330
1D6
100
AcDbEntity
  8
LC-004-003-----0
 62
     2
100
AcDbTrace
 10
631.866667
 20
323.417218
 30
0.0
 11
622.533333
 21
323.417218
 31
0.0
 12
627.2
 22
351.417218
 32
0.0
 13
627.2
 23
351.417218
 33
0.0
  0
MTEXT
  5
1DC
330
1D6
100
AcDbEntity
  8
LC-004-003-----0
 62
     2
100
AcDbMText
 10
596.4
 20
304.722
 30
0.0
 40
28.0
 41
0.0
 71
     5
 72
     1
  1
\A1;81
  7
LCTX15-400-0-0pDIN-Schrift
 11
6.123031769111886E-17
 21
1.0
 31
0.0
 73
     1
 44
1.0
  0
POINT
  5
1DD
330
1D6
100
AcDbEntity
  8
Defpoints
 62
     0
100
AcDbPoint
 10
435.576473
 20
270.917218
 30
0.0
  0
POINT
  5
1DE
330
1D6
100
AcDbEntity
  8
Defpoints
 62
     0
100
AcDbPoint
 10
517.470985
 20
351.417218
 30
0.0
  0
POINT
  5
1DF
330
1D6
100
AcDbEntity
  8
Defpoints
 62
     0
100
AcDbPoint
 10
627.2
 20
351.417218
 30
0.0
  0
ENDBLK
  5
1E1
330
1D6
100
AcDbEntity
  8
0
100
AcDbBlockEnd
  0
BLOCK
  5
200
330
1F4
100
AcDbEntity
  8
0
100
AcDbBlockBegin
  2
*D14
 70
     1
 71
     0
 10
0.0
 20
0.0
 30
0.0
  3
*D14
  1

  0
LINE
  5
1F5
330
1F4
100
AcDbEntity
  8
LC-004-003-----0
 62
     2
370
    -2
100
AcDbLine
 10
391.970985
 20
155.821229
 30
0.0
 11
339.457976
 21
155.821229
 31
0.0
  0
LINE
  5
1F6
330
1F4
100
AcDbEntity
  8
LC-004-003-----0
 62
     2
370
    -2
100
AcDbLine
 10
391.970985
 20
100.821229
 30
0.0
 11
339.457976
 21
100.821229
 31
0.0
  0
LINE
  5
1F7
330
1F4
100
AcDbEntity
  8
LC-004-003-----0
 62
     2
370
    -2
100
AcDbLine
 10
343.057976
 20
183.821229
 30
0.0
 11
343.057976
 21
211.821229
 31
0.0
  0
LINE
  5
1F8
330
1F4
100
AcDbEntity
  8
LC-004-003-----0
 62
     2
370
    -2
100
AcDbLine
 10
343.057976
 20
72.821229
 30
0.0
 11
343.057976
 21
44.821229
 31
0.0
  0
LINE
  5
1F9
330
1F4
100
AcDbEntity
  8
LC-004-003-----0
 62
     2
370
    -2
100
AcDbLine
 10
343.057976
 20
155.821229
 30
0.0
 11
343.057976
 21
100.821229
 31
0.0
  0
SOLID
  5
1FA
330
1F4
100
AcDbEntity
  8
LC-004-003-----0
 62
     2
100
AcDbTrace
 10
338.39131
 20
183.821229
 30
0.0
 11
347.724643
 21
183.821229
 31
0.0
 12
343.057976
 22
155.821229
 32
0.0
 13
343.057976
 23
155.821229
 33
0.0
  0
SOLID
  5
1FB
330
1F4
100
AcDbEntity
  8
LC-004-003-----0
 62
     2
100
AcDbTrace
 10
347.724643
 20
72.821229
 30
0.0
 11
338.39131
 21
72.821229
 31
0.0
 12
343.057976
 22
100.821229
 32
0.0
 13
343.057976
 23
100.821229
 33
0.0
  0
MTEXT
  5
1FC
330
1F4
100
AcDbEntity
  8
LC-004-003-----0
 62
     2
100
AcDbMText
 10
312.257976
 20
130.68
 30
0.0
 40
28.0
 41
0.0
 71
     5
 72
     1
  1
\A1;55
  7
LCTX15-400-0-0pDIN-Schrift
 11
6.123031769111886E-17
 21
1.0
 31
0.0
 73
     1
 44
1.0
  0
POINT
  5
1FD
330
1F4
100
AcDbEntity
  8
Defpoints
 62
     0
100
AcDbPoint
 10
391.970985
 20
155.821229
 30
0.0
  0
POINT
  5
1FE
330
1F4
100
AcDbEntity
  8
Defpoints
 62
     0
100
AcDbPoint
 10
391.970985
 20
100.821229
 30
0.0
  0
POINT
  5
1FF
330
1F4
100
AcDbEntity
  8
Defpoints
 62
     0
100
AcDbPoint
 10
343.057976
 20
100.821229
 30
0.0
  0
ENDBLK
  5
201
330
1F4
100
AcDbEntity
  8
0
100
AcDbBlockEnd
  0
ENDSEC
  0
SECTION
  2
ENTITIES
  0
LINE
  5
32
330
1F
100
AcDbEntity
  8
LC-001-002-----0
 62
     7
370
    25
100
AcDbLine
 10
517.470985
 20
351.417218
 30
0.0
 11
450.002235
 21
351.417218
 31
0.0
  0
LINE
  5
33
330
1F
100
AcDbEntity
  8
LC-001-002-----0
  6
ByBlock
 62
     7
370
    50
100
AcDbLine
 10
517.470985
 20
367.417218
 30
0.0
 11
451.002235
 21
367.417218
 31
0.0
  0
LINE
  5
34
330
1F
100
AcDbEntity
  8
LC-001-002-----0
  6
ByBlock
 62
     7
370
    50
100
AcDbLine
 10
517.470985
 20
335.417218
 30
0.0
 11
449.002235
 21
335.417218
 31
0.0
  0
LINE
  5
35
330
1F
100
AcDbEntity
  8
LC-001-002-----0
  6
ByBlock
 62
     7
370
    50
100
AcDbLine
 10
517.470985
 20
367.417218
 30
0.0
 11
517.470985
 21
335.417218
 31
0.0
  0
LINE
  5
36
330
1F
100
AcDbEntity
  8
LC-001-002-----0
  6
ByBlock
 62
     7
370
    50
100
AcDbLine
 10
517.470985
 20
365.417218
 30
0.0
 11
448.672942
 21
365.417218
 31
0.0
  0
LINE
  5
37
330
1F
100
AcDbEntity
  8
LC-001-002-----0
  6
ByBlock
 62
     7
370
    50
100
AcDbLine
 10
517.470985
 20
337.417218
 30
0.0
 11
449.127235
 21
337.417218
 31
0.0
  0
ARC
  5
39
330
1F
100
AcDbEntity
  8
LC-002-002-RND-0
 62
     7
370
    50
100
AcDbCircle
 10
380.365497
 20
280.917218
 30
0.0
 40
10.00000000000001
100
AcDbArc
 50
183.576334
 51
270.0
  0
LINE
  5
3A
330
1F
100
AcDbEntity
  8
LC-001-002-----0
  6
ByBlock
 62
     7
370
    50
100
AcDbLine
 10
456.470985
 20
374.917218
 30
0.0
 11
447.946223
 21
374.917218
 31
0.0
  0
ARC
  5
3B
330
1F
100
AcDbEntity
  8
LC-002-002-RND-0
 62
     7
370
    50
100
AcDbCircle
 10
435.576473
 20
280.917218
 30
0.0
 40
10.0
100
AcDbArc
 50
270.0
 51
356.423666
  0
LINE
  5
3C
330
1F
100
AcDbEntity
  8
LC-001-002-----0
  6
ByBlock
 62
     7
370
    50
100
AcDbLine
 10
435.576473
 20
270.917218
 30
0.0
 11
380.365497
 21
270.917218
 31
0.0
  0
LINE
  5
3D
330
1F
100
AcDbEntity
  8
LC-001-002-----0
 62
     7
370
    25
100
AcDbLine
 10
407.970985
 20
377.117218
 30
0.0
 11
407.970985
 21
349.731689
 31
0.0
  0
LINE
  5
3E
330
1F
100
AcDbEntity
  8
LC-001-002-----0
  6
ByBlock
 62
     7
370
    50
100
AcDbLine
 10
366.675277
 20
374.917218
 30
0.0
 11
366.931293
 21
370.820968
 31
0.0
  0
LINE
  5
3F
330
1F
100
AcDbEntity
  8
LC-001-002-----0
  6
ByBlock
 62
     7
370
    50
100
AcDbLine
 10
435.576473
 20
273.117218
 30
0.0
 11
380.365497
 21
273.117218
 31
0.0
  0
LINE
  5
40
330
1F
100
AcDbEntity
  8
LC-001-002-----0
  6
ByBlock
 62
     7
370
    50
100
AcDbLine
 10
364.470985
 20
374.917218
 30
0.0
 11
370.384971
 21
280.293435
 31
0.0
  0
LINE
  5
41
330
1F
100
AcDbEntity
  8
LC-001-002-----0
  6
ByBlock
 62
     7
370
    50
100
AcDbLine
 10
451.470985
 20
374.917218
 30
0.0
 11
451.002235
 21
367.417218
 31
0.0
  0
LINE
  5
42
330
1F
100
AcDbEntity
  8
LC-001-002-----0
  6
ByBlock
 62
     7
370
    50
100
AcDbLine
 10
449.266692
 20
374.917218
 30
0.0
 11
448.672942
 21
365.417218
 31
0.0
  0
ARC
  5
43
330
1F
100
AcDbEntity
  8
LC-002-002-RND-0
 62
     7
370
    50
100
AcDbCircle
 10
380.365497
 20
280.917218
 30
0.0
 40
7.800000000000022
100
AcDbArc
 50
183.576334
 51
270.0
  0
ARC
  5
44
330
1F
100
AcDbEntity
  8
LC-002-002-RND-0
 62
     7
370
    50
100
AcDbCircle
 10
435.576473
 20
280.917218
 30
0.0
 40
7.800000000000011
100
AcDbArc
 50
270.0
 51
356.423666
  0
LINE
  5
45
330
1F
100
AcDbEntity
  8
LC-001-002-----0
  6
ByBlock
 62
     7
370
    50
100
AcDbLine
 10
449.377235
 20
341.417218
 30
0.0
 11
447.172942
 21
341.417218
 31
0.0
  0
LINE
  5
46
330
1F
100
AcDbEntity
  8
LC-001-002-----0
  6
ByBlock
 62
     7
370
    50
100
AcDbLine
 10
449.377235
 20
341.417218
 30
0.0
 11
449.127235
 21
337.417218
 31
0.0
  0
LINE
  5
47
330
1F
100
AcDbEntity
  8
LC-001-002-----0
  6
ByBlock
 62
     7
370
    50
100
AcDbLine
 10
449.002235
 20
335.417218
 30
0.0
 11
445.556998
 21
280.293435
 31
0.0
  0
LINE
  5
48
330
1F
100
AcDbEntity
  8
LC-001-002-----0
  6
ByBlock
 62
     7
370
    50
100
AcDbLine
 10
447.172942
 20
341.417218
 30
0.0
 11
443.361283
 21
280.430668
 31
0.0
  0
LINE
  5
49
330
1F
100
AcDbEntity
  8
LC-001-002-----0
  6
ByBlock
 62
     7
370
    50
100
AcDbLine
 10
454.470985
 20
377.117218
 30
0.0
 11
366.470985
 21
377.117218
 31
0.0
  0
LINE
  5
4A
330
1F
100
AcDbEntity
  8
LC-001-002-----0
  6
ByBlock
 62
     7
370
    50
100
AcDbLine
 10
364.470985
 20
374.917218
 30
0.0
 11
364.470985
 21
375.117218
 31
0.0
  0
LINE
  5
4B
330
1F
100
AcDbEntity
  8
LC-001-002-----0
  6
ByBlock
 62
     7
370
    50
100
AcDbLine
 10
456.470985
 20
374.917218
 30
0.0
 11
456.470985
 21
375.117218
 31
0.0
  0
ARC
  5
4C
330
1F
100
AcDbEntity
  8
LC-002-002-RND-0
 62
     7
370
    50
100
AcDbCircle
 10
366.470985
 20
375.117218
 30
0.0
 40
2.0
100
AcDbArc
 50
90.0
 51
180.0
  0
ARC
  5
4D
330
1F
100
AcDbEntity
  8
LC-002-002-RND-0
 62
     7
370
    50
100
AcDbCircle
 10
454.470985
 20
375.117218
 30
0.0
 40
2.0
100
AcDbArc
 50
0.0
 51
90.0
  0
LINE
  5
4E
330
1F
100
AcDbEntity
  8
LC-001-002-----0
  6
ByBlock
 62
     7
370
    50
100
AcDbLine
 10
405.270985
 20
337.117218
 30
0.0
 11
379.270985
 21
337.117218
 31
0.0
  0
LINE
  5
4F
330
1F
100
AcDbEntity
  8
LC-001-002-----0
  6
ByBlock
 62
     7
370
    50
100
AcDbLine
 10
438.670985
 20
284.117218
 30
0.0
 11
436.670985
 21
284.117218
 31
0.0
  0
LINE
  5
50
330
1F
100
AcDbEntity
  8
LC-001-002-----0
  6
ByBlock
 62
     7
370
    50
100
AcDbLine
 10
407.270985
 20
284.117218
 30
0.0
 11
407.270985
 21
293.117218
 31
0.0
  0
LINE
  5
51
330
1F
100
AcDbEntity
  8
LC-001-002-----0
  6
ByBlock
 62
     7
370
    50
100
AcDbLine
 10
377.270985
 20
284.117218
 30
0.0
 11
377.270985
 21
288.107846
 31
0.0
  0
LINE
  5
52
330
1F
100
AcDbEntity
  8
LC-001-002-----0
 62
     7
370
    25
100
AcDbLine
 10
392.270985
 20
337.117218
 30
0.0
 11
392.270985
 21
284.117218
 31
0.0
  0
LINE
  5
53
330
1F
100
AcDbEntity
  8
LC-001-002-----0
  6
ByBlock
 62
     7
370
    50
100
AcDbLine
 10
445.470985
 20
371.117218
 30
0.0
 11
369.995747
 21
371.117218
 31
0.0
  0
LINE
  5
54
330
1F
100
AcDbEntity
  8
LC-001-002-----0
  6
ByBlock
 62
     7
370
    50
100
AcDbLine
 10
367.995747
 20
374.917218
 30
0.0
 11
364.470985
 21
374.917218
 31
0.0
  0
LINE
  5
55
330
1F
100
AcDbEntity
  8
LC-001-002-----0
  6
ByBlock
 62
     7
370
    50
100
AcDbLine
 10
405.270985
 20
337.117218
 30
0.0
 11
445.470985
 21
371.117218
 31
0.0
  0
LINE
  5
56
330
1F
100
AcDbEntity
  8
LC-001-002-----0
  6
ByBlock
 62
     7
370
    50
100
AcDbLine
 10
445.470985
 20
371.117218
 30
0.0
 11
445.470985
 21
377.117218
 31
0.0
  0
LINE
  5
57
330
1F
100
AcDbEntity
  8
LC-001-002-----0
  6
ByBlock
 62
     7
370
    50
100
AcDbLine
 10
369.995747
 20
377.117218
 30
0.0
 11
369.995747
 21
371.117218
 31
0.0
  0
LINE
  5
58
330
1F
100
AcDbEntity
  8
LC-001-002-----0
  6
ByBlock
 62
     7
370
    50
100
AcDbLine
 10
377.341493
 20
336.590851
 30
0.0
 11
367.978704
 21
370.911786
 31
0.0
  0
LINE
  5
59
330
1F
100
AcDbEntity
  8
LC-001-002-----0
  6
ByBlock
 62
     7
370
    50
100
AcDbLine
 10
407.270985
 20
336.189349
 30
0.0
 11
448.970553
 21
371.457641
 31
0.0
  0
LINE
  5
5A
330
1F
100
AcDbEntity
  8
LC-001-002-----0
  6
ByBlock
 62
     7
370
    50
100
AcDbLine
 10
367.995747
 20
374.917218
 30
0.0
 11
367.995747
 21
373.917218
 31
0.0
  0
LINE
  5
5B
330
1F
100
AcDbEntity
  8
LC-001-002-----0
  6
ByBlock
 62
     7
370
    50
100
AcDbLine
 10
367.995747
 20
373.917218
 30
0.0
 11
367.802229
 21
373.917218
 31
0.0
  0
LINE
  5
5C
330
1F
100
AcDbEntity
  8
LC-001-002-----0
  6
ByBlock
 62
     7
370
    50
100
AcDbLine
 10
367.995747
 20
370.905636
 30
0.0
 11
367.865453
 21
370.905636
 31
0.0
  0
LINE
  5
5D
330
1F
100
AcDbEntity
  8
LC-001-002-----0
  6
ByBlock
 62
     7
370
    50
100
AcDbLine
 10
366.926001
 20
370.905636
 30
0.0
 11
372.580687
 21
280.430668
 31
0.0
  0
LINE
  5
5E
330
1F
100
AcDbEntity
  8
LC-001-002-----0
  6
ByBlock
 62
     7
370
    50
100
AcDbLine
 10
366.8674
 20
371.843257
 30
0.0
 11
366.804176
 21
372.85484
 31
0.0
  0
ARC
  5
5F
330
1F
100
AcDbEntity
  8
LC-002-002-RND-0
 62
     7
370
    50
100
AcDbCircle
 10
367.802229
 20
372.917218
 30
0.0
 40
1.0
100
AcDbArc
 50
90.0
 51
183.576334
  0
ARC
  5
60
330
1F
100
AcDbEntity
  8
LC-002-002-RND-0
 62
     7
370
    50
100
AcDbCircle
 10
367.865453
 20
371.905636
 30
0.0
 40
0.999999999999993
100
AcDbArc
 50
183.576334
 51
276.498459
  0
LINE
  5
61
330
1F
100
AcDbEntity
  8
LC-001-002-----0
  6
ByBlock
 62
     7
370
    50
100
AcDbLine
 10
447.946223
 20
374.917218
 30
0.0
 11
447.946223
 21
373.917218
 31
0.0
  0
LINE
  5
62
330
1F
100
AcDbEntity
  8
LC-001-002-----0
  6
ByBlock
 62
     7
370
    50
100
AcDbLine
 10
447.946223
 20
373.917218
 30
0.0
 11
448.139741
 21
373.917218
 31
0.0
  0
ARC
  5
63
330
1F
100
AcDbEntity
  8
LC-002-002-RND-0
 62
     7
370
    50
100
AcDbCircle
 10
448.139741
 20
372.917218
 30
0.0
 40
0.9999999999999824
100
AcDbArc
 50
356.423666
 51
90.0
  0
LINE
  5
64
330
1F
100
AcDbEntity
  8
LC-001-002-----0
  6
ByBlock
 62
     7
370
    50
100
AcDbLine
 10
449.07457
 20
371.843257
 30
0.0
 11
449.137793
 21
372.85484
 31
0.0
  0
ARC
  5
65
330
1F
100
AcDbEntity
  8
LC-002-002-RND-0
 62
     7
370
    50
100
AcDbCircle
 10
448.076517
 20
371.905636
 30
0.0
 40
0.9999999999999996
100
AcDbArc
 50
310.240839
 51
356.423666
  0
LINE
  5
66
330
1F
100
AcDbEntity
  8
LC-001-002-----0
  6
ByBlock
 62
     7
370
    50
100
AcDbLine
 10
377.270985
 20
290.117218
 30
0.0
 11
372.089662
 21
290.117218
 31
0.0
  0
LINE
  5
67
330
1F
100
AcDbEntity
  8
LC-001-002-----0
  6
ByBlock
 62
     7
370
    50
100
AcDbLine
 10
379.270985
 20
284.117218
 30
0.0
 11
379.270985
 21
337.117218
 31
0.0
  0
LINE
  5
68
330
1F
100
AcDbEntity
  8
LC-001-002-----0
  6
ByBlock
 62
     7
370
    50
100
AcDbLine
 10
405.270985
 20
284.117218
 30
0.0
 11
405.270985
 21
337.117218
 31
0.0
  0
LINE
  5
69
330
1F
100
AcDbEntity
  8
LC-001-002-----0
  6
ByBlock
 62
     7
370
    50
100
AcDbLine
 10
374.770985
 20
289.367218
 30
0.0
 11
372.089662
 21
289.367218
 31
0.0
  0
LINE
  5
6A
330
1F
100
AcDbEntity
  8
LC-001-002-----0
  6
ByBlock
 62
     7
370
    50
100
AcDbLine
 10
379.270985
 20
337.117218
 30
0.0
 11
369.995747
 21
371.117218
 31
0.0
  0
LINE
  5
6B
330
1F
100
AcDbEntity
  8
LC-001-002-----0
  6
ByBlock
 62
     7
370
    50
100
AcDbLine
 10
374.770985
 20
288.117218
 30
0.0
 11
374.770985
 21
289.367218
 31
0.0
  0
LINE
  5
6C
330
1F
100
AcDbEntity
  8
LC-001-002-----0
  6
ByBlock
 62
     7
370
    50
100
AcDbLine
 10
377.270985
 20
288.117218
 30
0.0
 11
374.770985
 21
288.117218
 31
0.0
  0
LINE
  5
6D
330
1F
100
AcDbEntity
  8
LC-001-002-----0
  6
ByBlock
 62
     7
370
    50
100
AcDbLine
 10
377.270985
 20
290.117218
 30
0.0
 11
377.270985
 21
337.117218
 31
0.0
  0
LINE
  5
6E
330
1F
100
AcDbEntity
  8
LC-001-002-----0
  6
ByBlock
 62
     7
370
    50
100
AcDbLine
 10
372.089662
 20
290.117218
 30
0.0
 11
372.089662
 21
289.367218
 31
0.0
  0
LINE
  5
6F
330
1F
100
AcDbEntity
  8
LC-001-002-----0
  6
ByBlock
 62
     7
370
    50
100
AcDbLine
 10
438.670985
 20
290.117218
 30
0.0
 11
443.852308
 21
290.117218
 31
0.0
  0
LINE
  5
70
330
1F
100
AcDbEntity
  8
LC-001-002-----0
  6
ByBlock
 62
     7
370
    50
100
AcDbLine
 10
441.170985
 20
289.367218
 30
0.0
 11
443.852308
 21
289.367218
 31
0.0
  0
LINE
  5
71
330
1F
100
AcDbEntity
  8
LC-001-002-----0
  6
ByBlock
 62
     7
370
    50
100
AcDbLine
 10
441.170985
 20
288.117218
 30
0.0
 11
441.170985
 21
289.367218
 31
0.0
  0
LINE
  5
72
330
1F
100
AcDbEntity
  8
LC-001-002-----0
  6
ByBlock
 62
     7
370
    50
100
AcDbLine
 10
438.670985
 20
288.117218
 30
0.0
 11
441.170985
 21
288.117218
 31
0.0
  0
LINE
  5
73
330
1F
100
AcDbEntity
  8
LC-001-002-----0
  6
ByBlock
 62
     7
370
    50
100
AcDbLine
 10
443.852308
 20
290.117218
 30
0.0
 11
443.852308
 21
289.367218
 31
0.0
  0
LINE
  5
74
330
1F
100
AcDbEntity
  8
LC-001-002-----0
  6
ByBlock
 62
     7
370
    50
100
AcDbLine
 10
438.670985
 20
295.117218
 30
0.0
 11
438.670985
 21
290.117218
 31
0.0
  0
LINE
  5
75
330
1F
100
AcDbEntity
  8
LC-001-002-----0
  6
ByBlock
 62
     7
370
    50
100
AcDbLine
 10
438.670985
 20
295.117218
 30
0.0
 11
432.970985
 21
295.117218
 31
0.0
  0
LINE
  5
76
330
1F
100
AcDbEntity
  8
LC-001-002-----0
  6
ByBlock
 62
     7
370
    50
100
AcDbLine
 10
438.670985
 20
288.005678
 30
0.0
 11
438.670985
 21
284.117218
 31
0.0
  0
ARC
  5
77
330
1F
100
AcDbEntity
  8
LC-001-002-----0
  6
ByBlock
 62
     7
370
    25
100
AcDbCircle
 10
422.970985
 20
302.617218
 30
0.0
 40
1.361456348865244
100
AcDbArc
 50
240.050366
 51
44.249127
  0
LINE
  5
78
330
1F
100
AcDbEntity
  8
LC-001-002-----0
  6
ByBlock
 62
     7
370
    50
100
AcDbLine
 10
432.970985
 20
295.117218
 30
0.0
 11
432.970985
 21
291.117218
 31
0.0
  0
LINE
  5
79
330
1F
100
AcDbEntity
  8
LC-001-002-----0
  6
ByBlock
 62
     7
370
    50
100
AcDbLine
 10
412.970985
 20
295.117218
 30
0.0
 11
412.970985
 21
291.117218
 31
0.0
  0
LINE
  5
7A
330
1F
100
AcDbEntity
  8
LC-001-002-----0
  6
ByBlock
 62
     7
370
    50
100
AcDbLine
 10
434.435086
 20
291.117218
 30
0.0
 11
427.869964
 21
291.117218
 31
0.0
  0
LINE
  5
7B
330
1F
100
AcDbEntity
  8
LC-001-002-----0
  6
ByBlock
 62
     7
370
    50
100
AcDbLine
 10
407.270985
 20
295.117218
 30
0.0
 11
407.270985
 21
336.189349
 31
0.0
  0
LINE
  5
7C
330
1F
100
AcDbEntity
  8
LC-001-002-----0
  6
ByBlock
 62
     7
370
    50
100
AcDbLine
 10
434.970985
 20
293.117218
 30
0.0
 11
434.435086
 21
291.117218
 31
0.0
  0
LINE
  5
7D
330
1F
100
AcDbEntity
  8
LC-001-002-----0
  6
ByBlock
 62
     7
370
    50
100
AcDbLine
 10
410.970985
 20
293.117218
 30
0.0
 11
407.270985
 21
293.117218
 31
0.0
  0
LINE
  5
7E
330
1F
100
AcDbEntity
  8
LC-001-002-----0
  6
ByBlock
 62
     7
370
    50
100
AcDbLine
 10
434.970985
 20
293.117218
 30
0.0
 11
436.670985
 21
293.117218
 31
0.0
  0
LINE
  5
7F
330
1F
100
AcDbEntity
  8
LC-001-002-----0
  6
ByBlock
 62
     7
370
    50
100
AcDbLine
 10
436.670985
 20
293.117218
 30
0.0
 11
436.670985
 21
284.117218
 31
0.0
  0
LINE
  5
80
330
1F
100
AcDbEntity
  8
LC-001-002-----0
  6
ByBlock
 62
     7
370
    50
100
AcDbLine
 10
410.970985
 20
293.117218
 30
0.0
 11
411.506883
 21
291.117218
 31
0.0
  0
ARC
  5
81
330
1F
100
AcDbEntity
  8
LC-001-002-----0
  6
ByBlock
 62
     7
370
    50
100
AcDbCircle
 10
461.863154
 20
352.545955
 30
0.0
 40
18.4296255020074
100
AcDbArc
 50
135.701168
 51
217.146163
  0
INSERT
  5
A1
330
1F
100
AcDbEntity
  8
LC-003-005-----0
 62
     7
370
    25
100
AcDbBlockReference
  2
*X11
 10
0.0
 20
0.0
 30
0.0
  0
INSERT
  5
111
330
1F
100
AcDbEntity
  8
LC-003-005-----0
 62
     7
370
    25
100
AcDbBlockReference
  2
*X22
 10
0.0
 20
0.0
 30
0.0
  0
INSERT
  5
117
330
1F
100
AcDbEntity
  8
LC-003-005-----0
 62
     7
370
    25
100
AcDbBlockReference
  2
*X33
 10
0.0
 20
0.0
 30
0.0
  0
INSERT
  5
11D
330
1F
100
AcDbEntity
  8
LC-003-005-----0
 62
     7
370
    25
100
AcDbBlockReference
  2
*X44
 10
0.0
 20
0.0
 30
0.0
  0
LINE
  5
11E
330
1F
100
AcDbEntity
  8
LC-001-002-----0
  6
ByBlock
 62
     7
370
    50
100
AcDbLine
 10
405.270985
 20
284.117218
 30
0.0
 11
377.270985
 21
284.117218
 31
0.0
  0
INSERT
  5
155
330
1F
100
AcDbEntity
  8
LC-003-005-----0
 62
     7
370
    25
100
AcDbBlockReference
  2
*X55
 10
0.0
 20
0.0
 30
0.0
  0
LINE
  5
156
330
1F
100
AcDbEntity
  8
LC-001-002-----0
  6
ByBlock
 62
     7
370
    50
100
AcDbLine
 10
436.670985
 20
284.117218
 30
0.0
 11
405.270985
 21
284.117218
 31
0.0
  0
INSERT
  5
17C
330
1F
100
AcDbEntity
  8
LC-003-005-----0
 62
     7
370
    25
100
AcDbBlockReference
  2
*X66
 10
0.0
 20
0.0
 30
0.0
  0
INSERT
  5
189
330
1F
100
AcDbEntity
  8
LC-003-005-----0
 62
     7
370
    25
100
AcDbBlockReference
  2
*X77
 10
0.0
 20
0.0
 30
0.0
  0
CIRCLE
  5
18A
330
1F
100
AcDbEntity
  8
LC-001-002-----0
  6
ByBlock
 62
     7
370
    50
100
AcDbCircle
 10
422.970985
 20
302.617218
 30
0.0
 40
12.5
  0
LINE
  5
18B
330
1F
100
AcDbEntity
  8
LC-001-002-----0
  6
ByBlock
 62
     7
370
    50
100
AcDbLine
 10
412.970985
 20
295.117218
 30
0.0
 11
407.270985
 21
295.117218
 31
0.0
  0
LINE
  5
18C
330
1F
100
AcDbEntity
  8
LC-001-002-----0
  6
ByBlock
 62
     7
370
    50
100
AcDbLine
 10
418.072005
 20
291.117218
 30
0.0
 11
411.506883
 21
291.117218
 31
0.0
  0
ARC
  5
18D
330
1F
100
AcDbEntity
  8
LC-001-002-----0
  6
ByBlock
 62
     7
370
    25
100
AcDbCircle
 10
422.970985
 20
302.617218
 30
0.0
 40
7.546840180904867
100
AcDbArc
 50
48.905926
 51
288.997535
  0
DIMENSION
  5
191
330
1F
100
AcDbEntity
  8
LC-004-003-----0
 62
     7
370
    25
100
AcDbDimension
  2
*D8
 10
451.470985
 20
431.2
 30
0.0
 11
407.970985
 21
462.0
 31
0.0
 70
   160
  1
88
 71
     5
 42
87.0
  3
LC-DIM-L-0140-02-02
100
AcDbAlignedDimension
 13
364.470985
 23
375.117218
 33
0.0
 14
451.470985
 24
374.917218
 34
0.0
100
AcDbRotatedDimension
  0
DIMENSION
  5
19F
330
1F
100
AcDbEntity
  8
LC-004-003-----0
 62
     7
370
    25
100
AcDbDimension
  2
*D9
 10
517.470985
 20
431.2
 30
0.0
 11
484.470985
 21
462.0
 31
0.0
 70
   160
  1
63
 71
     5
 42
66.0
  3
LC-DIM-L-0140-02-02
100
AcDbAlignedDimension
 13
451.470985
 23
374.917218
 33
0.0
 14
517.470985
 24
367.417218
 34
0.0
100
AcDbRotatedDimension
  0
DIMENSION
  5
1AC
330
1F
100
AcDbEntity
  8
LC-004-003-----0
 62
     7
370
    25
100
AcDbDimension
  2
*D10
 10
509.6
 20
284.117218
 30
0.0
 11
478.8
 21
270.864
 31
0.0
 70
   160
  1
60
 71
     5
 42
57.3
 53
90.0
  3
LC-DIM-L-0140-02-02
100
AcDbAlignedDimension
 13
449.377235
 23
341.417218
 33
0.0
 14
438.670985
 24
284.117218
 34
0.0
 50
90.0
100
AcDbRotatedDimension
  0
DIMENSION
  5
1BA
330
1F
100
AcDbEntity
  8
LC-004-003-----0
 62
     7
370
    25
100
AcDbDimension
  2
*D11
 10
588.0
 20
335.417218
 30
0.0
 11
557.2
 21
405.108
 31
0.0
 70
   160
  1
DN32
 71
     5
 42
32.0
 53
90.0
  3
LC-DIM-L-0140-02-02
100
AcDbAlignedDimension
 13
517.470985
 23
367.417218
 33
0.0
 14
517.470985
 24
335.417218
 34
0.0
 50
90.0
100
AcDbRotatedDimension
  0
DIMENSION
  5
1C8
330
1F
100
AcDbEntity
  8
LC-004-003-----0
 62
     7
370
    25
100
AcDbDimension
  2
*D12
 10
313.6
 20
270.917218
 30
0.0
 11
282.8
 21
324.017218
 31
0.0
 70
   160
  1
104
 71
     5
 42
106.2
 53
90.0
  3
LC-DIM-L-0140-02-02
100
AcDbAlignedDimension
 13
366.470985
 23
377.117218
 33
0.0
 14
380.365497
 24
270.917218
 34
0.0
 50
90.0
100
AcDbRotatedDimension
  0
DIMENSION
  5
1D5
330
1F
100
AcDbEntity
  8
LC-004-003-----0
 62
     7
370
    25
100
AcDbDimension
  2
*D13
 10
627.2
 20
351.417218
 30
0.0
 11
596.4
 21
304.722
 31
0.0
 70
   160
  1
81
 71
     5
 42
80.5
 53
90.0
  3
LC-DIM-L-0140-02-02
100
AcDbAlignedDimension
 13
435.576473
 23
270.917218
 33
0.0
 14
517.470985
 24
351.417218
 34
0.0
 50
90.0
100
AcDbRotatedDimension
  0
LINE
  5
1E2
330
1F
100
AcDbEntity
  8
LC-001-002-----0
 62
     7
370
    25
100
AcDbLine
 10
364.470985
 20
128.321229
 30
0.0
 11
517.470985
 21
128.321229
 31
0.0
  0
CIRCLE
  5
1E3
330
1F
100
AcDbEntity
  8
LC-001-002-----0
  6
ByBlock
 62
     7
370
    50
100
AcDbCircle
 10
392.270985
 20
128.321229
 30
0.0
 40
13.0
  0
LINE
  5
1E4
330
1F
100
AcDbEntity
  8
LC-001-002-----0
  6
ByBlock
 62
     7
370
    50
100
AcDbLine
 10
451.012619
 20
133.321229
 30
0.0
 11
451.470985
 21
133.321229
 31
0.0
  0
LINE
  5
1E5
330
1F
100
AcDbEntity
  8
LC-001-002-----0
  6
ByBlock
 62
     7
370
    50
100
AcDbLine
 10
517.470985
 20
144.321229
 30
0.0
 11
517.470985
 21
111.820771
 31
0.0
  0
LINE
  5
1E6
330
1F
100
AcDbEntity
  8
LC-001-002-----0
  6
ByBlock
 62
     7
370
    50
100
AcDbLine
 10
446.337254
 20
144.321229
 30
0.0
 11
517.470985
 21
144.321229
 31
0.0
  0
LINE
  5
1E7
330
1F
100
AcDbEntity
  8
LC-001-002-----0
  6
ByBlock
 62
     7
370
    50
100
AcDbLine
 10
446.337254
 20
112.321229
 30
0.0
 11
517.470985
 21
112.321229
 31
0.0
  0
LINE
  5
1E8
330
1F
100
AcDbEntity
  8
LC-001-002-----0
  6
ByBlock
 62
     7
370
    50
100
AcDbLine
 10
391.970985
 20
155.821229
 30
0.0
 11
423.970985
 21
155.821229
 31
0.0
  0
LINE
  5
1E9
330
1F
100
AcDbEntity
  8
LC-001-002-----0
  6
ByBlock
 62
     7
370
    50
100
AcDbLine
 10
391.970985
 20
100.821229
 30
0.0
 11
423.970985
 21
100.821229
 31
0.0
  0
LINE
  5
1EA
330
1F
100
AcDbEntity
  8
LC-001-002-----0
  6
ByBlock
 62
     7
370
    50
100
AcDbLine
 10
391.970985
 20
150.296467
 30
0.0
 11
423.970985
 21
150.296467
 31
0.0
  0
ARC
  5
1EB
330
1F
100
AcDbEntity
  8
LC-001-002-----0
  6
ByBlock
 62
     7
370
    50
100
AcDbCircle
 10
391.970985
 20
128.321229
 30
0.0
 40
27.5
100
AcDbArc
 50
90.0
 51
270.0
  0
LINE
  5
1EC
330
1F
100
AcDbEntity
  8
LC-001-002-----0
  6
ByBlock
 62
     7
370
    50
100
AcDbLine
 10
451.012619
 20
123.321229
 30
0.0
 11
451.470985
 21
123.321229
 31
0.0
  0
LINE
  5
1ED
330
1F
100
AcDbEntity
  8
LC-001-002-----0
  6
ByBlock
 62
     7
370
    25
100
AcDbLine
 10
451.470985
 20
374.917218
 30
0.0
 11
451.470985
 21
375.528406
 31
0.0
  0
ARC
  5
1EE
330
1F
100
AcDbEntity
  8
LC-001-002-----0
  6
ByBlock
 62
     7
370
    50
100
AcDbCircle
 10
391.970985
 20
128.321229
 30
0.0
 40
21.97523783581474
100
AcDbArc
 50
90.0
 51
270.0
  0
ARC
  5
1EF
330
1F
100
AcDbEntity
  8
LC-001-002-----0
  6
ByBlock
 62
     7
370
    50
100
AcDbCircle
 10
423.970985
 20
128.321229
 30
0.0
 40
27.5
100
AcDbArc
 50
270.0
 51
349.524318
  0
LINE
  5
1F0
330
1F
100
AcDbEntity
  8
LC-001-002-----0
  6
ByBlock
 62
     7
370
    50
100
AcDbLine
 10
456.470985
 20
128.321229
 30
0.0
 11
456.470985
 21
128.321229
 31
0.0
  0
LINE
  5
1F1
330
1F
100
AcDbEntity
  8
LC-001-002-----0
  6
ByBlock
 62
     7
370
    50
100
AcDbLine
 10
391.970985
 20
106.345991
 30
0.0
 11
423.970985
 21
106.345991
 31
0.0
  0
ARC
  5
1F2
330
1F
100
AcDbEntity
  8
LC-001-002-----0
  6
ByBlock
 62
     7
370
    50
100
AcDbCircle
 10
423.970985
 20
128.321229
 30
0.0
 40
21.97523783581471
100
AcDbArc
 50
270.0
 51
90.0
  0
DIMENSION
  5
1F3
330
1F
100
AcDbEntity
  8
LC-004-003-----0
 62
     7
370
    25
100
AcDbDimension
  2
*D14
 10
343.057976
 20
100.821229
 30
0.0
 11
312.257976
 21
130.68
 31
0.0
 70
   160
 71
     5
 42
55.0
 53
90.0
  3
LC-DIM-L-0140-02-02
100
AcDbAlignedDimension
 13
391.970985
 23
155.821229
 33
0.0
 14
391.970985
 24
100.821229
 34
0.0
 50
90.0
100
AcDbRotatedDimension
  0
ARC
  5
202
330
1F
100
AcDbEntity
  8
LC-001-002-----0
  6
ByBlock
 62
     7
370
    50
100
AcDbCircle
 10
423.970985
 20
128.321229
 30
0.0
 40
27.49999999999999
100
AcDbArc
 50
10.475682
 51
90.0
  0
ARC
  5
203
330
1F
100
AcDbEntity
  8
LC-002-002-RND-0
 62
     7
370
    50
100
AcDbCircle
 10
451.470985
 20
128.321229
 30
0.0
 40
5.0
100
AcDbArc
 50
0.0
 51
90.0
  0
ARC
  5
204
330
1F
100
AcDbEntity
  8
LC-002-002-RND-0
 62
     7
370
    50
100
AcDbCircle
 10
451.470985
 20
128.321229
 30
0.0
 40
5.0
100
AcDbArc
 50
270.0
 51
0.0
  0
LINE
  5
205
330
1F
100
AcDbEntity
  8
LC-001-002-----0
 62
     7
370
    25
100
AcDbLine
 10
392.270985
 20
141.321229
 30
0.0
 11
392.270985
 21
115.321229
 31
0.0
  0
ENDSEC
  0
SECTION
  2
OBJECTS
  0
DICTIONARY
  5
C
330
0
100
AcDbDictionary
281
     1
  3
ACAD_GROUP
350
D
  3
ACAD_LAYOUT
350
1A
  3
ACAD_MLINESTYLE
350
17
  3
ACAD_PLOTSETTINGS
350
19
  3
ACAD_PLOTSTYLENAME
350
E
  0
DICTIONARY
  5
D
102
{ACAD_REACTORS
330
C
102
}
330
C
100
AcDbDictionary
281
     1
  0
DICTIONARY
  5
1A
102
{ACAD_REACTORS
330
C
102
}
330
C
100
AcDbDictionary
281
     1
  3
Layout1
350
1E
  3
Layout2
350
26
  3
Model
350
22
  0
DICTIONARY
  5
17
102
{ACAD_REACTORS
330
C
102
}
330
C
100
AcDbDictionary
281
     1
  3
Standard
350
18
  0
DICTIONARY
  5
19
102
{ACAD_REACTORS
330
C
102
}
330
C
100
AcDbDictionary
281
     1
  0
ACDBDICTIONARYWDFLT
  5
E
102
{ACAD_REACTORS
330
C
102
}
330
C
100
AcDbDictionary
281
     1
  3
Normal
350
F
100
AcDbDictionaryWithDefault
340
F
  0
LAYOUT
  5
1E
102
{ACAD_REACTORS
330
1A
102
}
330
1A
100
AcDbPlotSettings
  1

  2

  4

  6

 40
0.0
 41
0.0
 42
0.0
 43
0.0
 44
0.0
 45
0.0
 46
0.0
 47
0.0
 48
0.0
 49
0.0
140
0.0
141
0.0
142
1.0
143
1.0
 70
   688
 72
     0
 73
     0
 74
     5
  7

 75
    16
147
1.0
148
0.0
149
0.0
100
AcDbLayout
  1
Layout1
 70
     1
 71
     1
 10
0.0
 20
0.0
 11
840.0
 21
594.0
 12
0.0
 22
0.0
 32
0.0
 14
0.0
 24
0.0
 34
0.0
 15
840.0
 25
594.0
 35
0.0
146
0.0
 13
0.0
 23
0.0
 33
0.0
 16
1.0
 26
0.0
 36
0.0
 17
0.0
 27
1.0
 37
0.0
 76
     0
330
1B
  0
LAYOUT
  5
26
102
{ACAD_REACTORS
330
1A
102
}
330
1A
100
AcDbPlotSettings
  1

  2

  4

  6

 40
0.0
 41
0.0
 42
0.0
 43
0.0
 44
0.0
 45
0.0
 46
0.0
 47
0.0
 48
0.0
 49
0.0
140
0.0
141
0.0
142
1.0
143
1.0
 70
   688
 72
     0
 73
     0
 74
     5
  7

 75
    16
147
1.0
148
0.0
149
0.0
100
AcDbLayout
  1
Layout2
 70
     1
 71
     2
 10
0.0
 20
0.0
 11
0.0
 21
0.0
 12
0.0
 22
0.0
 32
0.0
 14
0.0
 24
0.0
 34
0.0
 15
0.0
 25
0.0
 35
0.0
146
0.0
 13
0.0
 23
0.0
 33
0.0
 16
1.0
 26
0.0
 36
0.0
 17
0.0
 27
1.0
 37
0.0
 76
     0
330
23
  0
LAYOUT
  5
22
102
{ACAD_REACTORS
330
1A
102
}
330
1A
100
AcDbPlotSettings
  1

  2

  4

  6

 40
0.0
 41
0.0
 42
0.0
 43
0.0
 44
0.0
 45
0.0
 46
0.0
 47
0.0
 48
0.0
 49
0.0
140
0.0
141
0.0
142
1.0
143
1.0
 70
  1776
 72
     0
 73
     0
 74
     0
  7

 75
     0
147
1.0
148
0.0
149
0.0
100
AcDbLayout
  1
Model
 70
     1
 71
     0
 10
0.0
 20
0.0
 11
840.0
 21
594.0
 12
0.0
 22
0.0
 32
0.0
 14
0.0
 24
0.0
 34
0.0
 15
840.0
 25
594.0
 35
0.0
146
0.0
 13
0.0
 23
0.0
 33
0.0
 16
1.0
 26
0.0
 36
0.0
 17
0.0
 27
1.0
 37
0.0
 76
     0
330
1F
  0
MLINESTYLE
  5
18
102
{ACAD_REACTORS
330
17
102
}
330
17
100
AcDbMlineStyle
  2
Standard
 70
     0
  3

 62
   256
 51
90.0
 52
90.0
 71
     2
 49
0.5
 62
   256
  6
BYLAYER
 49
-0.5
 62
   256
  6
BYLAYER
  0
ACDBPLACEHOLDER
  5
F
102
{ACAD_REACTORS
330
E
102
}
330
E
  0
ENDSEC
  0
EOF
