  0
SECTION
  2
HEADER
  9
$ACADVER
  1
AC1015
  9
$ACADMAINTVER
 70
     6
  9
$DWGCODEPAGE
  3
DOS850
  9
$INSBASE
 10
86.626536
 20
69.211637
 30
0.0
  9
$EXTMIN
 10
-123.373464
 20
-79.288363
 30
0.0
  9
$EXTMAX
 10
716.626536
 20
514.711637
 30
0.0
  9
$LIMMIN
 10
-123.373464
 20
-79.288363
  9
$LIMMAX
 10
716.626536
 20
514.711637
  9
$ORTHOMODE
 70
     0
  9
$REGENMODE
 70
     1
  9
$FILLMODE
 70
     1
  9
$QTEXTMODE
 70
     0
  9
$MIRRTEXT
 70
     1
  9
$LTSCALE
 40
2.0
  9
$ATTMODE
 70
     1
  9
$TEXTSIZE
 40
2.5
  9
$TRACEWID
 40
1.0
  9
$TEXTSTYLE
  7
Standard
  9
$CLAYER
  8
0
  9
$CELTYPE
  6
ByLayer
  9
$CECOLOR
 62
     7
  9
$CELTSCALE
 40
1.0
  9
$DISPSILH
 70
     0
  9
$DIMSCALE
 40
2.0
  9
$DIMASZ
 40
3.5
  9
$DIMEXO
 40
0.625
  9
$DIMDLI
 40
3.75
  9
$DIMRND
 40
0.0
  9
$DIMDLE
 40
0.0
  9
$DIMEXE
 40
1.25
  9
$DIMTP
 40
0.0
  9
$DIMTM
 40
0.0
  9
$DIMTXT
 40
3.5
  9
$DIMCEN
 40
2.5
  9
$DIMTSZ
 40
0.0
  9
$DIMTOL
 70
     0
  9
$DIMLIM
 70
     0
  9
$DIMTIH
 70
     0
  9
$DIMTOH
 70
     0
  9
$DIMSE1
 70
     0
  9
$DIMSE2
 70
     0
  9
$DIMTAD
 70
     1
  9
$DIMZIN
 70
     8
  9
$DIMBLK
  1

  9
$DIMASO
 70
     1
  9
$DIMSHO
 70
     1
  9
$DIMPOST
  1

  9
$DIMAPOST
  1

  9
$DIMALT
 70
     0
  9
$DIMALTD
 70
     3
  9
$DIMALTF
 40
0.03937
  9
$DIMLFAC
 40
1.0
  9
$DIMTOFL
 70
     1
  9
$DIMTVP
 40
0.0
  9
$DIMTIX
 70
     0
  9
$DIMSOXD
 70
     0
  9
$DIMSAH
 70
     0
  9
$DIMBLK1
  1

  9
$DIMBLK2
  1

  9
$DIMSTYLE
  2
ISO-25
  9
$DIMCLRD
 70
     0
  9
$DIMCLRE
 70
     0
  9
$DIMCLRT
 70
     0
  9
$DIMTFAC
 40
1.0
  9
$DIMGAP
 40
0.625
  9
$DIMJUST
 70
     0
  9
$DIMSD1
 70
     0
  9
$DIMSD2
 70
     0
  9
$DIMTOLJ
 70
     0
  9
$DIMTZIN
 70
     8
  9
$DIMALTZ
 70
     0
  9
$DIMALTTZ
 70
     0
  9
$DIMUPT
 70
     0
  9
$DIMDEC
 70
     2
  9
$DIMTDEC
 70
     2
  9
$DIMALTU
 70
     2
  9
$DIMALTTD
 70
     3
  9
$DIMTXSTY
  7
Standard
  9
$DIMAUNIT
 70
     0
  9
$DIMADEC
 70
     0
  9
$DIMALTRND
 40
0.0
  9
$DIMAZIN
 70
     0
  9
$DIMDSEP
 70
    44
  9
$DIMATFIT
 70
     3
  9
$DIMFRAC
 70
     0
  9
$DIMLDRBLK
  1

  9
$DIMLUNIT
 70
     2
  9
$DIMLWD
 70
    -2
  9
$DIMLWE
 70
    -2
  9
$DIMTMOVE
 70
     0
  9
$LUNITS
 70
     2
  9
$LUPREC
 70
     4
  9
$SKETCHINC
 40
1.0
  9
$FILLETRAD
 40
10.0
  9
$AUNITS
 70
     0
  9
$AUPREC
 70
     0
  9
$MENU
  1
.
  9
$ELEVATION
 40
0.0
  9
$PELEVATION
 40
0.0
  9
$THICKNESS
 40
0.0
  9
$LIMCHECK
 70
     0
  9
$CHAMFERA
 40
10.0
  9
$CHAMFERB
 40
10.0
  9
$CHAMFERC
 40
20.0
  9
$CHAMFERD
 40
0.0
  9
$SKPOLY
 70
     0
  9
$TDCREATE
 40
2453663.409795382
  9
$TDUCREATE
 40
2453663.326462049
  9
$TDUPDATE
 40
2453663.409795394
  9
$TDUUPDATE
 40
2453663.32646206
  9
$TDINDWG
 40
0.0000000116
  9
$TDUSRTIMER
 40
0.0000000116
  9
$USRTIMER
 70
     1
  9
$ANGBASE
 50
0.0
  9
$ANGDIR
 70
     0
  9
$PDMODE
 70
     0
  9
$PDSIZE
 40
0.0
  9
$PLINEWID
 40
0.0
  9
$SPLFRAME
 70
     0
  9
$SPLINETYPE
 70
     6
  9
$SPLINESEGS
 70
     8
  9
$HANDSEED
  5
11D
  9
$SURFTAB1
 70
     6
  9
$SURFTAB2
 70
     6
  9
$SURFTYPE
 70
     6
  9
$SURFU
 70
     6
  9
$SURFV
 70
     6
  9
$UCSBASE
  2

  9
$UCSNAME
  2

  9
$UCSORG
 10
0.0
 20
0.0
 30
0.0
  9
$UCSXDIR
 10
1.0
 20
0.0
 30
0.0
  9
$UCSYDIR
 10
0.0
 20
1.0
 30
0.0
  9
$UCSORTHOREF
  2

  9
$UCSORTHOVIEW
 70
     0
  9
$UCSORGTOP
 10
0.0
 20
0.0
 30
0.0
  9
$UCSORGBOTTOM
 10
0.0
 20
0.0
 30
0.0
  9
$UCSORGLEFT
 10
0.0
 20
0.0
 30
0.0
  9
$UCSORGRIGHT
 10
0.0
 20
0.0
 30
0.0
  9
$UCSORGFRONT
 10
0.0
 20
0.0
 30
0.0
  9
$UCSORGBACK
 10
0.0
 20
0.0
 30
0.0
  9
$PUCSBASE
  2

  9
$PUCSNAME
  2

  9
$PUCSORG
 10
0.0
 20
0.0
 30
0.0
  9
$PUCSXDIR
 10
1.0
 20
0.0
 30
0.0
  9
$PUCSYDIR
 10
0.0
 20
1.0
 30
0.0
  9
$PUCSORTHOREF
  2

  9
$PUCSORTHOVIEW
 70
     0
  9
$PUCSORGTOP
 10
0.0
 20
0.0
 30
0.0
  9
$PUCSORGBOTTOM
 10
0.0
 20
0.0
 30
0.0
  9
$PUCSORGLEFT
 10
0.0
 20
0.0
 30
0.0
  9
$PUCSORGRIGHT
 10
0.0
 20
0.0
 30
0.0
  9
$PUCSORGFRONT
 10
0.0
 20
0.0
 30
0.0
  9
$PUCSORGBACK
 10
0.0
 20
0.0
 30
0.0
  9
$USERI1
 70
     0
  9
$USERI2
 70
     0
  9
$USERI3
 70
     0
  9
$USERI4
 70
     0
  9
$USERI5
 70
     0
  9
$USERR1
 40
0.0
  9
$USERR2
 40
0.0
  9
$USERR3
 40
0.0
  9
$USERR4
 40
0.0
  9
$USERR5
 40
0.0
  9
$WORLDVIEW
 70
     1
  9
$SHADEDGE
 70
     3
  9
$SHADEDIF
 70
    70
  9
$TILEMODE
 70
     1
  9
$MAXACTVP
 70
    64
  9
$PINSBASE
 10
0.0
 20
0.0
 30
0.0
  9
$PLIMCHECK
 70
     0
  9
$PEXTMIN
 10
-123.373464
 20
-79.288363
 30
0.0
  9
$PEXTMAX
 10
716.626536
 20
514.711637
 30
0.0
  9
$PLIMMIN
 10
-123.373464
 20
-79.288363
  9
$PLIMMAX
 10
716.626536
 20
514.711637
  9
$UNITMODE
 70
     0
  9
$VISRETAIN
 70
     1
  9
$PLINEGEN
 70
     0
  9
$PSLTSCALE
 70
     1
  9
$TREEDEPTH
 70
  3020
  9
$CMLSTYLE
  2
Standard
  9
$CMLJUST
 70
     0
  9
$CMLSCALE
 40
20.0
  9
$PROXYGRAPHICS
 70
     1
  9
$MEASUREMENT
 70
     1
  9
$CELWEIGHT
370
    -1
  9
$ENDCAPS
280
     0
  9
$JOINSTYLE
280
     0
  9
$LWDISPLAY
290
     0
  9
$INSUNITS
 70
     4
  9
$HYPERLINKBASE
  1

  9
$STYLESHEET
  1

  9
$XEDIT
290
     1
  9
$CEPSNTYPE
380
     0
  9
$PSTYLEMODE
290
     1
  9
$FINGERPRINTGUID
  2
{FAEB1C30-E019-11D5-929B-00C0DF256EC4}
  9
$VERSIONGUID
  2
{FAEB1C32-E019-11D5-929B-00C0DF256EC4}
  9
$EXTNAMES
290
     1
  9
$PSVPSCALE
 40
0.0
  9
$OLESTARTUP
290
     0
  0
ENDSEC
  0
SECTION
  2
CLASSES
  0
CLASS
  1
ACDBDICTIONARYWDFLT
  2
AcDbDictionaryWithDefault
  3
ObjectDBX Classes
 90
        0
280
     0
281
     0
  0
CLASS
  1
ACDBPLACEHOLDER
  2
AcDbPlaceHolder
  3
ObjectDBX Classes
 90
        0
280
     0
281
     0
  0
CLASS
  1
LAYOUT
  2
AcDbLayout
  3
ObjectDBX Classes
 90
        0
280
     0
281
     0
  0
ENDSEC
  0
SECTION
  2
TABLES
  0
TABLE
  2
VPORT
  5
8
330
0
100
AcDbSymbolTable
 70
     2
  0
VPORT
  5
29
330
8
100
AcDbSymbolTableRecord
100
AcDbViewportTableRecord
  2
*ACTIVE
 70
     0
 10
0.0
 20
0.0
 11
1.0
 21
1.0
 12
296.626536
 22
217.711637
 13
0.0
 23
0.0
 14
1.0
 24
1.0
 15
0.0
 25
0.0
 16
0.0
 26
0.0
 36
1.0
 17
0.0
 27
0.0
 37
0.0
 40
594.0
 41
1.414141
 42
50.0
 43
0.0
 44
0.0
 50
0.0
 51
0.0
 71
    16
 72
   100
 73
     1
 74
     0
 75
     0
 76
     0
 77
     0
 78
     0
281
     0
 65
     0
110
0.0
120
0.0
130
0.0
111
1.0
121
0.0
131
0.0
112
0.0
122
1.0
132
0.0
 79
     0
146
0.0
  0
ENDTAB
  0
TABLE
  2
LTYPE
  5
5
330
0
100
AcDbSymbolTable
 70
     3
  0
LTYPE
  5
14
330
5
100
AcDbSymbolTableRecord
100
AcDbLinetypeTableRecord
  2
ByBlock
 70
     0
  3

 72
    65
 73
     0
 40
0.0
  0
LTYPE
  5
15
330
5
100
AcDbSymbolTableRecord
100
AcDbLinetypeTableRecord
  2
ByLayer
 70
     0
  3

 72
    65
 73
     0
 40
0.0
  0
LTYPE
  5
16
330
5
100
AcDbSymbolTableRecord
100
AcDbLinetypeTableRecord
  2
Continuous
 70
     0
  3
Solid line
 72
    65
 73
     0
 40
0.0
  0
LTYPE
  5
2A
330
5
100
AcDbSymbolTableRecord
100
AcDbLinetypeTableRecord
  2
DASHED
 70
     0
  3
__ __ __ __ __
 72
    65
 73
     2
 40
6.25
 49
5.0
 74
     4
 75
     0
340
0
 46
1.0
 50
0.0
 44
0.0
 45
0.0
 49
-1.25
 74
     4
 75
     0
340
0
 46
1.0
 50
0.0
 44
0.0
 45
0.0
  0
LTYPE
  5
42
330
5
100
AcDbSymbolTableRecord
100
AcDbLinetypeTableRecord
  2
CENTER
 70
     0
  3
__ . __ . __ . __ . __
 72
    65
 73
     4
 40
7.5
 49
5.0
 74
     4
 75
     0
340
0
 46
1.0
 50
0.0
 44
0.0
 45
0.0
 49
-1.25
 74
     4
 75
     0
340
0
 46
1.0
 50
0.0
 44
0.0
 45
0.0
 49
0.0
 74
     4
 75
     0
340
0
 46
1.0
 50
0.0
 44
0.0
 45
0.0
 49
-1.25
 74
     4
 75
     0
340
0
 46
1.0
 50
0.0
 44
0.0
 45
0.0
  0
ENDTAB
  0
TABLE
  2
LAYER
  5
2
330
0
100
AcDbSymbolTable
 70
    11
  0
LAYER
  5
10
330
2
100
AcDbSymbolTableRecord
100
AcDbLayerTableRecord
  2
0
 70
     0
 62
     7
  6
Continuous
370
    -3
390
F
  0
LAYER
  5
2B
330
2
100
AcDbSymbolTableRecord
100
AcDbLayerTableRecord
  2
LC-INFO-1-2-mm-A3-0
 70
     1
 62
     7
  6
ByBlock
370
    -3
390
F
  0
LAYER
  5
2C
330
2
100
AcDbSymbolTableRecord
100
AcDbLayerTableRecord
  2
LC-CUT-HIDDEN
 70
     0
 62
     7
  6
DASHED
370
    -3
390
F
  0
LAYER
  5
2D
330
2
100
AcDbSymbolTableRecord
100
AcDbLayerTableRecord
  2
LC-VIEWPORT
 70
     0
 62
     7
  6
ByBlock
370
    -3
390
F
  0
LAYER
  5
2E
330
2
100
AcDbSymbolTableRecord
100
AcDbLayerTableRecord
  2
LC-3D-HIDDEN
 70
     0
 62
     9
  6
DASHED
370
    -3
390
F
  0
LAYER
  5
30
330
2
100
AcDbSymbolTableRecord
100
AcDbLayerTableRecord
  2
LC-001-002-----0
 70
     0
 62
     1
  6
ByBlock
370
    -3
390
F
  0
LAYER
  5
32
330
2
100
AcDbSymbolTableRecord
100
AcDbLayerTableRecord
  2
LC-002-002-RND-0
 70
     0
 62
     1
  6
ByBlock
370
    -3
390
F
  0
LAYER
  5
43
330
2
100
AcDbSymbolTableRecord
100
AcDbLayerTableRecord
  2
LC-003-006-MLN-0
 70
     0
 62
     2
  6
CENTER
370
    -3
390
F
  0
LAYER
  5
49
330
2
100
AcDbSymbolTableRecord
100
AcDbLayerTableRecord
  2
LC-004-003-----0
 70
     0
 62
     2
  6
ByBlock
370
    -3
390
F
  0
LAYER
  5
4B
330
2
100
AcDbSymbolTableRecord
100
AcDbLayerTableRecord
  2
Defpoints
 70
     0
 62
     7
  6
Continuous
290
     0
370
    -3
390
F
  0
LAYER
  5
62
330
2
100
AcDbSymbolTableRecord
100
AcDbLayerTableRecord
  2
LC-005-005-----0
 70
     0
 62
     2
  6
ByBlock
370
    -3
390
F
  0
ENDTAB
  0
TABLE
  2
STYLE
  5
3
330
0
100
AcDbSymbolTable
 70
     3
  0
STYLE
  5
11
330
3
100
AcDbSymbolTableRecord
100
AcDbTextStyleTableRecord
  2
Standard
 70
     0
 40
0.0
 41
1.0
 50
0.0
 71
     0
 42
2.5
  3
txt
  4

  0
STYLE
  5
2F
330
3
100
AcDbSymbolTableRecord
100
AcDbTextStyleTableRecord
  2
LCTX15-400-0-0-Arial
 70
     0
 40
0.0
 41
0.9
 50
0.0
 71
     0
 42
3.5
  3

  4

1001
ACAD
1000
Arial
1071
 16777218
  0
STYLE
  5
47
330
3
100
AcDbSymbolTableRecord
100
AcDbTextStyleTableRecord
  2
LCTX15-400-0-0pDIN-Schrift
 70
     0
 40
2.5
 41
0.8
 50
15.0
 71
     0
 42
3.5
  3
STANDARD
  4

  0
ENDTAB
  0
TABLE
  2
VIEW
  5
6
330
0
100
AcDbSymbolTable
 70
     0
  0
ENDTAB
  0
TABLE
  2
UCS
  5
7
330
0
100
AcDbSymbolTable
 70
     0
  0
ENDTAB
  0
TABLE
  2
APPID
  5
9
330
0
100
AcDbSymbolTable
 70
     1
  0
APPID
  5
12
330
9
100
AcDbSymbolTableRecord
100
AcDbRegAppTableRecord
  2
ACAD
 70
     0
  0
ENDTAB
  0
TABLE
  2
DIMSTYLE
  5
A
330
0
100
AcDbSymbolTable
 70
     3
100
AcDbDimStyleTable
  0
DIMSTYLE
105
27
330
A
100
AcDbSymbolTableRecord
100
AcDbDimStyleTableRecord
  2
ISO-25
 70
     0
 41
2.5
 42
0.625
 43
3.75
 44
1.25
 73
     0
 74
     0
 77
     1
 78
     8
140
2.5
141
2.5
143
0.03937
147
0.625
171
     3
172
     1
271
     2
272
     2
274
     3
278
    44
283
     0
284
     8
340
11
  0
DIMSTYLE
105
48
102
{ACAD_REACTORS
330
4A
330
AE
102
}
330
A
100
AcDbSymbolTableRecord
100
AcDbDimStyleTableRecord
  2
LC-DIM-L-0140-02-02
 70
     0
 40
2.0
 41
14.0
 42
0.0
 43
7.5
 44
1.8
 73
     0
 74
     0
 77
     1
 78
     8
 79
     2
140
14.0
141
0.0
146
0.71
147
1.5
176
     2
177
     2
178
     2
179
     2
271
     2
278
    44
289
     1
340
47
  0
DIMSTYLE
105
F5
102
{ACAD_REACTORS
330
F6
102
}
330
A
100
AcDbSymbolTableRecord
100
AcDbDimStyleTableRecord
  2
LC-DIM-L-0140-01-02
 70
     0
 40
2.0
 41
14.0
 42
0.0
 43
7.5
 44
1.8
 73
     0
 74
     0
 77
     1
 78
     8
 79
     2
140
14.0
141
0.0
146
0.71
147
1.5
176
     2
177
     2
178
     2
179
     1
271
     1
278
    44
289
     1
340
47
  0
ENDTAB
  0
TABLE
  2
BLOCK_RECORD
  5
1
330
0
100
AcDbSymbolTable
 70
     8
  0
BLOCK_RECORD
  5
1F
330
1
100
AcDbSymbolTableRecord
100
AcDbBlockTableRecord
  2
*Model_Space
340
22
  0
BLOCK_RECORD
  5
1B
330
1
100
AcDbSymbolTableRecord
100
AcDbBlockTableRecord
  2
*Paper_Space
340
1E
  0
BLOCK_RECORD
  5
23
330
1
100
AcDbSymbolTableRecord
100
AcDbBlockTableRecord
  2
*Paper_Space0
340
26
  0
BLOCK_RECORD
  5
4C
330
1
100
AcDbSymbolTableRecord
100
AcDbBlockTableRecord
  2
*D1
340
0
  0
BLOCK_RECORD
  5
5F
330
1
100
AcDbSymbolTableRecord
100
AcDbBlockTableRecord
  2
*X12
340
0
102
{BLKREFS
331
AD
102
}
  0
BLOCK_RECORD
  5
AF
330
1
100
AcDbSymbolTableRecord
100
AcDbBlockTableRecord
  2
*D3
340
0
  0
BLOCK_RECORD
  5
CA
330
1
100
AcDbSymbolTableRecord
100
AcDbBlockTableRecord
  2
*X24
340
0
102
{BLKREFS
331
E0
102
}
  0
BLOCK_RECORD
  5
E1
330
1
100
AcDbSymbolTableRecord
100
AcDbBlockTableRecord
  2
*X35
340
0
102
{BLKREFS
331
F4
102
}
  0
BLOCK_RECORD
  5
F7
330
1
100
AcDbSymbolTableRecord
100
AcDbBlockTableRecord
  2
*D6
340
0
  0
BLOCK_RECORD
  5
103
330
1
100
AcDbSymbolTableRecord
100
AcDbBlockTableRecord
  2
*X47
340
0
102
{BLKREFS
331
116
102
}
  0
ENDTAB
  0
ENDSEC
  0
SECTION
  2
BLOCKS
  0
BLOCK
  5
20
330
1F
100
AcDbEntity
  8
0
100
AcDbBlockBegin
  2
*Model_Space
 70
     0
 71
     0
 10
0.0
 20
0.0
 30
0.0
  3
*Model_Space
  1

  0
ENDBLK
  5
21
330
1F
100
AcDbEntity
  8
0
100
AcDbBlockEnd
  0
BLOCK
  5
1C
330
1B
100
AcDbEntity
 67
     1
  8
0
100
AcDbBlockBegin
  2
*Paper_Space
 70
     0
 71
     0
 10
0.0
 20
0.0
 30
0.0
  3
*Paper_Space
  1

  0
ENDBLK
  5
1D
330
1B
100
AcDbEntity
 67
     1
  8
0
100
AcDbBlockEnd
  0
BLOCK
  5
24
330
23
100
AcDbEntity
  8
0
100
AcDbBlockBegin
  2
*Paper_Space0
 70
     0
 71
     0
 10
0.0
 20
0.0
 30
0.0
  3
*Paper_Space0
  1

  0
ENDBLK
  5
25
330
23
100
AcDbEntity
  8
0
100
AcDbBlockEnd
  0
BLOCK
  5
58
330
4C
100
AcDbEntity
  8
0
100
AcDbBlockBegin
  2
*D1
 70
     1
 71
     0
 10
0.0
 20
0.0
 30
0.0
  3
*D1
  1

  0
LINE
  5
4D
330
4C
100
AcDbEntity
  8
LC-004-003-----0
 62
     2
370
    -2
100
AcDbLine
 10
210.877314
 20
278.116324
 30
0.0
 11
112.075944
 21
278.116324
 31
0.0
  0
LINE
  5
4E
330
4C
100
AcDbEntity
  8
LC-004-003-----0
 62
     2
370
    -2
100
AcDbLine
 10
182.877314
 20
228.116324
 30
0.0
 11
112.075944
 21
228.116324
 31
0.0
  0
LINE
  5
4F
330
4C
100
AcDbEntity
  8
LC-004-003-----0
 62
     2
370
    -2
100
AcDbLine
 10
115.675944
 20
306.116324
 30
0.0
 11
115.675944
 21
334.116324
 31
0.0
  0
LINE
  5
50
330
4C
100
AcDbEntity
  8
LC-004-003-----0
 62
     2
370
    -2
100
AcDbLine
 10
115.675944
 20
200.116324
 30
0.0
 11
115.675944
 21
172.116324
 31
0.0
  0
LINE
  5
51
330
4C
100
AcDbEntity
  8
LC-004-003-----0
 62
     2
370
    -2
100
AcDbLine
 10
115.675944
 20
278.116324
 30
0.0
 11
115.675944
 21
228.116324
 31
0.0
  0
SOLID
  5
52
330
4C
100
AcDbEntity
  8
LC-004-003-----0
 62
     2
100
AcDbTrace
 10
111.009277
 20
306.116324
 30
0.0
 11
120.342611
 21
306.116324
 31
0.0
 12
115.675944
 22
278.116324
 32
0.0
 13
115.675944
 23
278.116324
 33
0.0
  0
SOLID
  5
53
330
4C
100
AcDbEntity
  8
LC-004-003-----0
 62
     2
100
AcDbTrace
 10
120.342611
 20
200.116324
 30
0.0
 11
111.009277
 21
200.116324
 31
0.0
 12
115.675944
 22
228.116324
 32
0.0
 13
115.675944
 23
228.116324
 33
0.0
  0
MTEXT
  5
54
330
4C
100
AcDbEntity
  8
LC-004-003-----0
 62
     2
100
AcDbMText
 10
84.875944
 20
253.116324
 30
0.0
 40
28.0
 41
0.0
 71
     5
 72
     1
  1
\A1;50
  7
LCTX15-400-0-0pDIN-Schrift
 11
6.123031769111886E-17
 21
1.0
 31
0.0
 73
     1
 44
1.0
  0
POINT
  5
55
330
4C
100
AcDbEntity
  8
Defpoints
 62
     0
100
AcDbPoint
 10
210.877314
 20
278.116324
 30
0.0
  0
POINT
  5
56
330
4C
100
AcDbEntity
  8
Defpoints
 62
     0
100
AcDbPoint
 10
182.877314
 20
228.116324
 30
0.0
  0
POINT
  5
57
330
4C
100
AcDbEntity
  8
Defpoints
 62
     0
100
AcDbPoint
 10
115.675944
 20
228.116324
 30
0.0
  0
ENDBLK
  5
59
330
4C
100
AcDbEntity
  8
0
100
AcDbBlockEnd
  0
BLOCK
  5
60
330
5F
100
AcDbEntity
  8
0
100
AcDbBlockBegin
  2
*X12
 70
     1
 71
     0
 10
0.0
 20
0.0
 30
0.0
  3
*X12
  1

  4
*X1
  0
LINE
  5
63
330
5F
100
AcDbEntity
  8
LC-005-005-----0
 62
     7
370
    25
100
AcDbLine
 10
541.071735
 20
227.116324
 30
0.0
 11
542.071735
 21
228.116324
 31
0.0
  0
LINE
  5
64
330
5F
100
AcDbEntity
  8
LC-005-005-----0
 62
     7
370
    25
100
AcDbLine
 10
536.829094
 20
227.116324
 30
0.0
 11
537.829094
 21
228.116324
 31
0.0
  0
LINE
  5
65
330
5F
100
AcDbEntity
  8
LC-005-005-----0
 62
     7
370
    25
100
AcDbLine
 10
532.586454
 20
227.116324
 30
0.0
 11
533.586454
 21
228.116324
 31
0.0
  0
LINE
  5
66
330
5F
100
AcDbEntity
  8
LC-005-005-----0
 62
     7
370
    25
100
AcDbLine
 10
528.343813
 20
227.116324
 30
0.0
 11
529.343813
 21
228.116324
 31
0.0
  0
LINE
  5
67
330
5F
100
AcDbEntity
  8
LC-005-005-----0
 62
     7
370
    25
100
AcDbLine
 10
524.101172
 20
227.116324
 30
0.0
 11
525.101172
 21
228.116324
 31
0.0
  0
LINE
  5
68
330
5F
100
AcDbEntity
  8
LC-005-005-----0
 62
     7
370
    25
100
AcDbLine
 10
519.858531
 20
227.116324
 30
0.0
 11
520.858531
 21
228.116324
 31
0.0
  0
LINE
  5
69
330
5F
100
AcDbEntity
  8
LC-005-005-----0
 62
     7
370
    25
100
AcDbLine
 10
515.615891
 20
227.116324
 30
0.0
 11
516.615891
 21
228.116324
 31
0.0
  0
LINE
  5
6A
330
5F
100
AcDbEntity
  8
LC-005-005-----0
 62
     7
370
    25
100
AcDbLine
 10
511.37325
 20
227.116324
 30
0.0
 11
512.37325
 21
228.116324
 31
0.0
  0
LINE
  5
6B
330
5F
100
AcDbEntity
  8
LC-005-005-----0
 62
     7
370
    25
100
AcDbLine
 10
507.130609
 20
227.116324
 30
0.0
 11
508.130609
 21
228.116324
 31
0.0
  0
LINE
  5
6C
330
5F
100
AcDbEntity
  8
LC-005-005-----0
 62
     7
370
    25
100
AcDbLine
 10
502.887969
 20
227.116324
 30
0.0
 11
503.887969
 21
228.116324
 31
0.0
  0
LINE
  5
6D
330
5F
100
AcDbEntity
  8
LC-005-005-----0
 62
     7
370
    25
100
AcDbLine
 10
498.645328
 20
227.116324
 30
0.0
 11
499.645328
 21
228.116324
 31
0.0
  0
LINE
  5
6E
330
5F
100
AcDbEntity
  8
LC-005-005-----0
 62
     7
370
    25
100
AcDbLine
 10
494.402687
 20
227.116324
 30
0.0
 11
495.402687
 21
228.116324
 31
0.0
  0
LINE
  5
6F
330
5F
100
AcDbEntity
  8
LC-005-005-----0
 62
     7
370
    25
100
AcDbLine
 10
490.160047
 20
227.116324
 30
0.0
 11
491.160047
 21
228.116324
 31
0.0
  0
LINE
  5
70
330
5F
100
AcDbEntity
  8
LC-005-005-----0
 62
     7
370
    25
100
AcDbLine
 10
485.917406
 20
227.116324
 30
0.0
 11
486.917406
 21
228.116324
 31
0.0
  0
LINE
  5
71
330
5F
100
AcDbEntity
  8
LC-005-005-----0
 62
     7
370
    25
100
AcDbLine
 10
481.674765
 20
227.116324
 30
0.0
 11
482.674765
 21
228.116324
 31
0.0
  0
LINE
  5
72
330
5F
100
AcDbEntity
  8
LC-005-005-----0
 62
     7
370
    25
100
AcDbLine
 10
477.432125
 20
227.116324
 30
0.0
 11
478.432125
 21
228.116324
 31
0.0
  0
LINE
  5
73
330
5F
100
AcDbEntity
  8
LC-005-005-----0
 62
     7
370
    25
100
AcDbLine
 10
473.189484
 20
227.116324
 30
0.0
 11
474.189484
 21
228.116324
 31
0.0
  0
LINE
  5
74
330
5F
100
AcDbEntity
  8
LC-005-005-----0
 62
     7
370
    25
100
AcDbLine
 10
468.946843
 20
227.116324
 30
0.0
 11
469.946843
 21
228.116324
 31
0.0
  0
LINE
  5
75
330
5F
100
AcDbEntity
  8
LC-005-005-----0
 62
     7
370
    25
100
AcDbLine
 10
464.704203
 20
227.116324
 30
0.0
 11
465.704203
 21
228.116324
 31
0.0
  0
LINE
  5
76
330
5F
100
AcDbEntity
  8
LC-005-005-----0
 62
     7
370
    25
100
AcDbLine
 10
460.461562
 20
227.116324
 30
0.0
 11
461.461562
 21
228.116324
 31
0.0
  0
LINE
  5
77
330
5F
100
AcDbEntity
  8
LC-005-005-----0
 62
     7
370
    25
100
AcDbLine
 10
456.218921
 20
227.116324
 30
0.0
 11
457.218921
 21
228.116324
 31
0.0
  0
LINE
  5
78
330
5F
100
AcDbEntity
  8
LC-005-005-----0
 62
     7
370
    25
100
AcDbLine
 10
451.97628
 20
227.116324
 30
0.0
 11
452.97628
 21
228.116324
 31
0.0
  0
LINE
  5
79
330
5F
100
AcDbEntity
  8
LC-005-005-----0
 62
     7
370
    25
100
AcDbLine
 10
447.73364
 20
227.116324
 30
0.0
 11
448.73364
 21
228.116324
 31
0.0
  0
LINE
  5
7A
330
5F
100
AcDbEntity
  8
LC-005-005-----0
 62
     7
370
    25
100
AcDbLine
 10
443.490999
 20
227.116324
 30
0.0
 11
444.490999
 21
228.116324
 31
0.0
  0
LINE
  5
7B
330
5F
100
AcDbEntity
  8
LC-005-005-----0
 62
     7
370
    25
100
AcDbLine
 10
439.248358
 20
227.116324
 30
0.0
 11
440.248358
 21
228.116324
 31
0.0
  0
LINE
  5
7C
330
5F
100
AcDbEntity
  8
LC-005-005-----0
 62
     7
370
    25
100
AcDbLine
 10
435.005718
 20
227.116324
 30
0.0
 11
436.005718
 21
228.116324
 31
0.0
  0
LINE
  5
7D
330
5F
100
AcDbEntity
  8
LC-005-005-----0
 62
     7
370
    25
100
AcDbLine
 10
430.763077
 20
227.116324
 30
0.0
 11
431.763077
 21
228.116324
 31
0.0
  0
LINE
  5
7E
330
5F
100
AcDbEntity
  8
LC-005-005-----0
 62
     7
370
    25
100
AcDbLine
 10
426.520436
 20
227.116324
 30
0.0
 11
427.520436
 21
228.116324
 31
0.0
  0
LINE
  5
7F
330
5F
100
AcDbEntity
  8
LC-005-005-----0
 62
     7
370
    25
100
AcDbLine
 10
422.277796
 20
227.116324
 30
0.0
 11
423.277796
 21
228.116324
 31
0.0
  0
LINE
  5
80
330
5F
100
AcDbEntity
  8
LC-005-005-----0
 62
     7
370
    25
100
AcDbLine
 10
418.035155
 20
227.116324
 30
0.0
 11
419.035155
 21
228.116324
 31
0.0
  0
LINE
  5
81
330
5F
100
AcDbEntity
  8
LC-005-005-----0
 62
     7
370
    25
100
AcDbLine
 10
413.792514
 20
227.116324
 30
0.0
 11
414.792514
 21
228.116324
 31
0.0
  0
LINE
  5
82
330
5F
100
AcDbEntity
  8
LC-005-005-----0
 62
     7
370
    25
100
AcDbLine
 10
409.549874
 20
227.116324
 30
0.0
 11
410.549874
 21
228.116324
 31
0.0
  0
LINE
  5
83
330
5F
100
AcDbEntity
  8
LC-005-005-----0
 62
     7
370
    25
100
AcDbLine
 10
405.307233
 20
227.116324
 30
0.0
 11
406.307233
 21
228.116324
 31
0.0
  0
LINE
  5
84
330
5F
100
AcDbEntity
  8
LC-005-005-----0
 62
     7
370
    25
100
AcDbLine
 10
401.064592
 20
227.116324
 30
0.0
 11
402.064592
 21
228.116324
 31
0.0
  0
LINE
  5
85
330
5F
100
AcDbEntity
  8
LC-005-005-----0
 62
     7
370
    25
100
AcDbLine
 10
396.821952
 20
227.116324
 30
0.0
 11
397.821952
 21
228.116324
 31
0.0
  0
LINE
  5
86
330
5F
100
AcDbEntity
  8
LC-005-005-----0
 62
     7
370
    25
100
AcDbLine
 10
392.579311
 20
227.116324
 30
0.0
 11
393.579311
 21
228.116324
 31
0.0
  0
LINE
  5
87
330
5F
100
AcDbEntity
  8
LC-005-005-----0
 62
     7
370
    25
100
AcDbLine
 10
388.33667
 20
227.116324
 30
0.0
 11
389.33667
 21
228.116324
 31
0.0
  0
LINE
  5
88
330
5F
100
AcDbEntity
  8
LC-005-005-----0
 62
     7
370
    25
100
AcDbLine
 10
197.417839
 20
227.116324
 30
0.0
 11
198.417839
 21
228.116324
 31
0.0
  0
LINE
  5
89
330
5F
100
AcDbEntity
  8
LC-005-005-----0
 62
     7
370
    25
100
AcDbLine
 10
193.175199
 20
227.116324
 30
0.0
 11
194.175199
 21
228.116324
 31
0.0
  0
LINE
  5
8A
330
5F
100
AcDbEntity
  8
LC-005-005-----0
 62
     7
370
    25
100
AcDbLine
 10
188.932558
 20
227.116324
 30
0.0
 11
189.932558
 21
228.116324
 31
0.0
  0
LINE
  5
8B
330
5F
100
AcDbEntity
  8
LC-005-005-----0
 62
     7
370
    25
100
AcDbLine
 10
184.689917
 20
227.116324
 30
0.0
 11
185.689917
 21
228.116324
 31
0.0
  0
LINE
  5
8C
330
5F
100
AcDbEntity
  8
LC-005-005-----0
 62
     7
370
    25
100
AcDbLine
 10
180.447276
 20
227.116324
 30
0.0
 11
181.447276
 21
228.116324
 31
0.0
  0
LINE
  5
8D
330
5F
100
AcDbEntity
  8
LC-005-005-----0
 62
     7
370
    25
100
AcDbLine
 10
176.204636
 20
227.116324
 30
0.0
 11
177.204636
 21
228.116324
 31
0.0
  0
LINE
  5
8E
330
5F
100
AcDbEntity
  8
LC-005-005-----0
 62
     7
370
    25
100
AcDbLine
 10
171.961995
 20
227.116324
 30
0.0
 11
172.961995
 21
228.116324
 31
0.0
  0
LINE
  5
8F
330
5F
100
AcDbEntity
  8
LC-005-005-----0
 62
     7
370
    25
100
AcDbLine
 10
167.719354
 20
227.116324
 30
0.0
 11
168.719354
 21
228.116324
 31
0.0
  0
LINE
  5
90
330
5F
100
AcDbEntity
  8
LC-005-005-----0
 62
     7
370
    25
100
AcDbLine
 10
163.476714
 20
227.116324
 30
0.0
 11
164.476714
 21
228.116324
 31
0.0
  0
LINE
  5
91
330
5F
100
AcDbEntity
  8
LC-005-005-----0
 62
     7
370
    25
100
AcDbLine
 10
159.234073
 20
227.116324
 30
0.0
 11
160.234073
 21
228.116324
 31
0.0
  0
LINE
  5
92
330
5F
100
AcDbEntity
  8
LC-005-005-----0
 62
     7
370
    25
100
AcDbLine
 10
154.991432
 20
227.116324
 30
0.0
 11
155.991432
 21
228.116324
 31
0.0
  0
LINE
  5
93
330
5F
100
AcDbEntity
  8
LC-005-005-----0
 62
     7
370
    25
100
AcDbLine
 10
150.748792
 20
227.116324
 30
0.0
 11
151.748792
 21
228.116324
 31
0.0
  0
LINE
  5
94
330
5F
100
AcDbEntity
  8
LC-005-005-----0
 62
     7
370
    25
100
AcDbLine
 10
146.506151
 20
227.116324
 30
0.0
 11
147.506151
 21
228.116324
 31
0.0
  0
LINE
  5
95
330
5F
100
AcDbEntity
  8
LC-005-005-----0
 62
     7
370
    25
100
AcDbLine
 10
142.26351
 20
227.116324
 30
0.0
 11
143.26351
 21
228.116324
 31
0.0
  0
LINE
  5
96
330
5F
100
AcDbEntity
  8
LC-005-005-----0
 62
     7
370
    25
100
AcDbLine
 10
138.02087
 20
227.116324
 30
0.0
 11
139.02087
 21
228.116324
 31
0.0
  0
LINE
  5
97
330
5F
100
AcDbEntity
  8
LC-005-005-----0
 62
     7
370
    25
100
AcDbLine
 10
133.778229
 20
227.116324
 30
0.0
 11
134.778229
 21
228.116324
 31
0.0
  0
LINE
  5
98
330
5F
100
AcDbEntity
  8
LC-005-005-----0
 62
     7
370
    25
100
AcDbLine
 10
129.535588
 20
227.116324
 30
0.0
 11
130.535588
 21
228.116324
 31
0.0
  0
LINE
  5
99
330
5F
100
AcDbEntity
  8
LC-005-005-----0
 62
     7
370
    25
100
AcDbLine
 10
125.292948
 20
227.116324
 30
0.0
 11
126.292948
 21
228.116324
 31
0.0
  0
LINE
  5
9A
330
5F
100
AcDbEntity
  8
LC-005-005-----0
 62
     7
370
    25
100
AcDbLine
 10
121.050307
 20
227.116324
 30
0.0
 11
122.050307
 21
228.116324
 31
0.0
  0
LINE
  5
9B
330
5F
100
AcDbEntity
  8
LC-005-005-----0
 62
     7
370
    25
100
AcDbLine
 10
116.807666
 20
227.116324
 30
0.0
 11
117.807666
 21
228.116324
 31
0.0
  0
LINE
  5
9C
330
5F
100
AcDbEntity
  8
LC-005-005-----0
 62
     7
370
    25
100
AcDbLine
 10
112.565025
 20
227.116324
 30
0.0
 11
113.565025
 21
228.116324
 31
0.0
  0
LINE
  5
9D
330
5F
100
AcDbEntity
  8
LC-005-005-----0
 62
     7
370
    25
100
AcDbLine
 10
108.322385
 20
227.116324
 30
0.0
 11
109.322385
 21
228.116324
 31
0.0
  0
LINE
  5
9E
330
5F
100
AcDbEntity
  8
LC-005-005-----0
 62
     7
370
    25
100
AcDbLine
 10
104.079744
 20
227.116324
 30
0.0
 11
105.079744
 21
228.116324
 31
0.0
  0
LINE
  5
9F
330
5F
100
AcDbEntity
  8
LC-005-005-----0
 62
     7
370
    25
100
AcDbLine
 10
99.837103
 20
227.116324
 30
0.0
 11
100.837103
 21
228.116324
 31
0.0
  0
LINE
  5
A0
330
5F
100
AcDbEntity
  8
LC-005-005-----0
 62
     7
370
    25
100
AcDbLine
 10
95.594463
 20
227.116324
 30
0.0
 11
96.594463
 21
228.116324
 31
0.0
  0
LINE
  5
A1
330
5F
100
AcDbEntity
  8
LC-005-005-----0
 62
     7
370
    25
100
AcDbLine
 10
91.351822
 20
227.116324
 30
0.0
 11
92.351822
 21
228.116324
 31
0.0
  0
LINE
  5
A2
330
5F
100
AcDbEntity
  8
LC-005-005-----0
 62
     7
370
    25
100
AcDbLine
 10
87.109181
 20
227.116324
 30
0.0
 11
88.109181
 21
228.116324
 31
0.0
  0
LINE
  5
A3
330
5F
100
AcDbEntity
  8
LC-005-005-----0
 62
     7
370
    25
100
AcDbLine
 10
82.866541
 20
227.116324
 30
0.0
 11
83.866541
 21
228.116324
 31
0.0
  0
LINE
  5
A4
330
5F
100
AcDbEntity
  8
LC-005-005-----0
 62
     7
370
    25
100
AcDbLine
 10
78.6239
 20
227.116324
 30
0.0
 11
79.6239
 21
228.116324
 31
0.0
  0
LINE
  5
A5
330
5F
100
AcDbEntity
  8
LC-005-005-----0
 62
     7
370
    25
100
AcDbLine
 10
74.381259
 20
227.116324
 30
0.0
 11
75.381259
 21
228.116324
 31
0.0
  0
LINE
  5
A6
330
5F
100
AcDbEntity
  8
LC-005-005-----0
 62
     7
370
    25
100
AcDbLine
 10
70.138619
 20
227.116324
 30
0.0
 11
71.138619
 21
228.116324
 31
0.0
  0
LINE
  5
A7
330
5F
100
AcDbEntity
  8
LC-005-005-----0
 62
     7
370
    25
100
AcDbLine
 10
65.895978
 20
227.116324
 30
0.0
 11
66.895978
 21
228.116324
 31
0.0
  0
LINE
  5
A8
330
5F
100
AcDbEntity
  8
LC-005-005-----0
 62
     7
370
    25
100
AcDbLine
 10
61.653337
 20
227.116324
 30
0.0
 11
62.653337
 21
228.116324
 31
0.0
  0
LINE
  5
A9
330
5F
100
AcDbEntity
  8
LC-005-005-----0
 62
     7
370
    25
100
AcDbLine
 10
57.410697
 20
227.116324
 30
0.0
 11
58.410697
 21
228.116324
 31
0.0
  0
LINE
  5
AA
330
5F
100
AcDbEntity
  8
LC-005-005-----0
 62
     7
370
    25
100
AcDbLine
 10
53.168056
 20
227.116324
 30
0.0
 11
54.168056
 21
228.116324
 31
0.0
  0
LINE
  5
AB
330
5F
100
AcDbEntity
  8
LC-005-005-----0
 62
     7
370
    25
100
AcDbLine
 10
48.925415
 20
227.116324
 30
0.0
 11
49.925415
 21
228.116324
 31
0.0
  0
LINE
  5
AC
330
5F
100
AcDbEntity
  8
LC-005-005-----0
 62
     7
370
    25
100
AcDbLine
 10
44.682775
 20
227.116324
 30
0.0
 11
45.682775
 21
228.116324
 31
0.0
  0
ENDBLK
  5
61
330
5F
100
AcDbEntity
  8
0
100
AcDbBlockEnd
  0
BLOCK
  5
B9
330
AF
100
AcDbEntity
  8
0
100
AcDbBlockBegin
  2
*D3
 70
     1
 71
     0
 10
0.0
 20
0.0
 30
0.0
  3
*D3
  1

  0
LINE
  5
B0
330
AF
100
AcDbEntity
  8
LC-004-003-----0
 62
     2
370
    -2
100
AcDbLine
 10
42.877314
 20
227.116324
 30
0.0
 11
42.877314
 21
161.839637
 31
0.0
  0
LINE
  5
B1
330
AF
100
AcDbEntity
  8
LC-004-003-----0
 62
     2
370
    -2
100
AcDbLine
 10
542.877314
 20
227.116324
 30
0.0
 11
542.877314
 21
161.839637
 31
0.0
  0
LINE
  5
B2
330
AF
100
AcDbEntity
  8
LC-004-003-----0
 62
     2
370
    -2
100
AcDbLine
 10
70.877314
 20
165.439637
 30
0.0
 11
514.877314
 21
165.439637
 31
0.0
  0
SOLID
  5
B3
330
AF
100
AcDbEntity
  8
LC-004-003-----0
 62
     2
100
AcDbTrace
 10
70.877314
 20
170.106303
 30
0.0
 11
70.877314
 21
160.77297
 31
0.0
 12
42.877314
 22
165.439637
 32
0.0
 13
42.877314
 23
165.439637
 33
0.0
  0
SOLID
  5
B4
330
AF
100
AcDbEntity
  8
LC-004-003-----0
 62
     2
100
AcDbTrace
 10
514.877314
 20
160.77297
 30
0.0
 11
514.877314
 21
170.106303
 31
0.0
 12
542.877314
 22
165.439637
 32
0.0
 13
542.877314
 23
165.439637
 33
0.0
  0
MTEXT
  5
B5
330
AF
100
AcDbEntity
  8
LC-004-003-----0
 62
     2
100
AcDbMText
 10
292.877314
 20
196.239637
 30
0.0
 40
28.0
 41
0.0
 71
     5
 72
     1
  1
\A1;500
  7
LCTX15-400-0-0pDIN-Schrift
 73
     1
 44
1.0
  0
POINT
  5
B6
330
AF
100
AcDbEntity
  8
Defpoints
 62
     0
100
AcDbPoint
 10
42.877314
 20
227.116324
 30
0.0
  0
POINT
  5
B7
330
AF
100
AcDbEntity
  8
Defpoints
 62
     0
100
AcDbPoint
 10
542.877314
 20
227.116324
 30
0.0
  0
POINT
  5
B8
330
AF
100
AcDbEntity
  8
Defpoints
 62
     0
100
AcDbPoint
 10
542.877314
 20
165.439637
 30
0.0
  0
ENDBLK
  5
BA
330
AF
100
AcDbEntity
  8
0
100
AcDbBlockEnd
  0
BLOCK
  5
CB
330
CA
100
AcDbEntity
  8
0
100
AcDbBlockBegin
  2
*X24
 70
     1
 71
     0
 10
0.0
 20
0.0
 30
0.0
  3
*X24
  1

  4
*X2
  0
LINE
  5
CD
330
CA
100
AcDbEntity
  8
LC-005-005-----0
 62
     7
370
    25
100
AcDbLine
 10
215.510895
 20
276.635425
 30
0.0
 11
214.029996
 21
278.116324
 31
0.0
  0
LINE
  5
CE
330
CA
100
AcDbEntity
  8
LC-005-005-----0
  6
DASHED
 62
     7
370
    25
100
AcDbLine
 10
215.0558
 20
271.433665
 30
0.0
 11
211.825082
 21
274.664384
 31
0.0
  0
LINE
  5
CF
330
CA
100
AcDbEntity
  8
LC-005-005-----0
  6
DASHED
 62
     7
370
    25
100
AcDbLine
 10
214.828253
 20
268.832786
 30
0.0
 11
211.597534
 21
272.063504
 31
0.0
  0
LINE
  5
D0
330
CA
100
AcDbEntity
  8
LC-005-005-----0
 62
     7
370
    25
100
AcDbLine
 10
214.373158
 20
263.631026
 30
0.0
 11
211.142439
 21
266.861745
 31
0.0
  0
LINE
  5
D1
330
CA
100
AcDbEntity
  8
LC-005-005-----0
 62
     7
370
    25
100
AcDbLine
 10
214.14561
 20
261.030147
 30
0.0
 11
210.914892
 21
264.260865
 31
0.0
  0
LINE
  5
D2
330
CA
100
AcDbEntity
  8
LC-005-005-----0
  6
DASHED
 62
     7
370
    25
100
AcDbLine
 10
213.619067
 20
255.899836
 30
0.0
 11
210.459797
 21
259.059106
 31
0.0
  0
LINE
  5
D3
330
CA
100
AcDbEntity
  8
LC-005-005-----0
  6
DASHED
 62
     7
370
    25
100
AcDbLine
 10
212.051561
 20
254.638914
 30
0.0
 11
208.574152
 21
258.116324
 31
0.0
  0
LINE
  5
D4
330
CA
100
AcDbEntity
  8
LC-005-005-----0
 62
     7
370
    25
100
AcDbLine
 10
206.417297
 20
254.616324
 30
0.0
 11
202.917297
 21
258.116324
 31
0.0
  0
LINE
  5
D5
330
CA
100
AcDbEntity
  8
LC-005-005-----0
 62
     7
370
    25
100
AcDbLine
 10
203.58887
 20
254.616324
 30
0.0
 11
200.09469
 21
258.110505
 31
0.0
  0
LINE
  5
D6
330
CA
100
AcDbEntity
  8
LC-005-005-----0
  6
DASHED
 62
     7
370
    25
100
AcDbLine
 10
201.324813
 20
251.223527
 30
0.0
 11
198.094095
 21
254.454245
 31
0.0
  0
LINE
  5
D7
330
CA
100
AcDbEntity
  8
LC-005-005-----0
  6
DASHED
 62
     7
370
    25
100
AcDbLine
 10
201.097266
 20
248.622647
 30
0.0
 11
197.866548
 21
251.853365
 31
0.0
  0
LINE
  5
D8
330
CA
100
AcDbEntity
  8
LC-005-005-----0
 62
     7
370
    25
100
AcDbLine
 10
200.642171
 20
243.420888
 30
0.0
 11
197.411453
 21
246.651606
 31
0.0
  0
LINE
  5
D9
330
CA
100
AcDbEntity
  8
LC-005-005-----0
 62
     7
370
    25
100
AcDbLine
 10
200.414623
 20
240.820008
 30
0.0
 11
197.183905
 21
244.050726
 31
0.0
  0
LINE
  5
DA
330
CA
100
AcDbEntity
  8
LC-005-005-----0
  6
DASHED
 62
     7
370
    25
100
AcDbLine
 10
199.959528
 20
235.618249
 30
0.0
 11
196.72881
 21
238.848967
 31
0.0
  0
LINE
  5
DB
330
CA
100
AcDbEntity
  8
LC-005-005-----0
  6
DASHED
 62
     7
370
    25
100
AcDbLine
 10
199.731981
 20
233.017369
 30
0.0
 11
196.501263
 21
236.248087
 31
0.0
  0
LINE
  5
DC
330
CA
100
AcDbEntity
  8
LC-005-005-----0
 62
     7
370
    25
100
AcDbLine
 10
198.976172
 20
228.116324
 30
0.0
 11
196.046168
 21
231.046328
 31
0.0
  0
LINE
  5
DD
330
CA
100
AcDbEntity
  8
LC-005-005-----0
 62
     7
370
    25
100
AcDbLine
 10
196.147745
 20
228.116324
 30
0.0
 11
195.132863
 21
229.131206
 31
0.0
  0
LINE
  5
DE
330
CA
100
AcDbEntity
  8
LC-005-005-----0
  6
DASHED
 62
     7
370
    25
100
AcDbLine
 10
190.49089
 20
228.116324
 30
0.0
 11
189.49089
 21
229.116324
 31
0.0
  0
LINE
  5
DF
330
CA
100
AcDbEntity
  8
LC-005-005-----0
  6
DASHED
 62
     7
370
    25
100
AcDbLine
 10
187.662463
 20
228.116324
 30
0.0
 11
186.662463
 21
229.116324
 31
0.0
  0
ENDBLK
  5
CC
330
CA
100
AcDbEntity
  8
0
100
AcDbBlockEnd
  0
BLOCK
  5
E2
330
E1
100
AcDbEntity
  8
0
100
AcDbBlockBegin
  2
*X35
 70
     1
 71
     0
 10
0.0
 20
0.0
 30
0.0
  3
*X35
  1

  4
*X3
  0
LINE
  5
E4
330
E1
100
AcDbEntity
  8
LC-005-005-----0
 62
     7
370
    25
100
AcDbLine
 10
373.743133
 20
276.795106
 30
0.0
 11
372.421915
 21
278.116324
 31
0.0
  0
LINE
  5
E5
330
E1
100
AcDbEntity
  8
LC-005-005-----0
  6
DASHED
 62
     7
370
    25
100
AcDbLine
 10
374.285494
 20
270.595891
 30
0.0
 11
370.435274
 21
274.446111
 31
0.0
  0
LINE
  5
E6
330
E1
100
AcDbEntity
  8
LC-005-005-----0
  6
DASHED
 62
     7
370
    25
100
AcDbLine
 10
387.666461
 20
254.386497
 30
0.0
 11
383.936633
 21
258.116324
 31
0.0
  0
LINE
  5
E7
330
E1
100
AcDbEntity
  8
LC-005-005-----0
  6
DASHED
 62
     7
370
    25
100
AcDbLine
 10
374.556674
 20
267.496283
 30
0.0
 11
370.706454
 21
271.346503
 31
0.0
  0
LINE
  5
E8
330
E1
100
AcDbEntity
  8
LC-005-005-----0
 62
     7
370
    25
100
AcDbLine
 10
388.208822
 20
248.187281
 30
0.0
 11
384.358602
 21
252.037501
 31
0.0
  0
LINE
  5
E9
330
E1
100
AcDbEntity
  8
LC-005-005-----0
 62
     7
370
    25
100
AcDbLine
 10
381.779779
 20
254.616324
 30
0.0
 11
378.279779
 21
258.116324
 31
0.0
  0
LINE
  5
EA
330
E1
100
AcDbEntity
  8
LC-005-005-----0
 62
     7
370
    25
100
AcDbLine
 10
375.099035
 20
261.297068
 30
0.0
 11
371.248815
 21
265.147288
 31
0.0
  0
LINE
  5
EB
330
E1
100
AcDbEntity
  8
LC-005-005-----0
 62
     7
370
    25
100
AcDbLine
 10
388.480002
 20
245.087674
 30
0.0
 11
384.629782
 21
248.937894
 31
0.0
  0
LINE
  5
EC
330
E1
100
AcDbEntity
  8
LC-005-005-----0
 62
     7
370
    25
100
AcDbLine
 10
378.951352
 20
254.616324
 30
0.0
 11
371.519996
 21
262.04768
 31
0.0
  0
LINE
  5
ED
330
E1
100
AcDbEntity
  8
LC-005-005-----0
  6
DASHED
 62
     7
370
    25
100
AcDbLine
 10
399.794498
 20
228.116324
 30
0.0
 11
398.794498
 21
229.116324
 31
0.0
  0
LINE
  5
EE
330
E1
100
AcDbEntity
  8
LC-005-005-----0
  6
DASHED
 62
     7
370
    25
100
AcDbLine
 10
389.022363
 20
238.888458
 30
0.0
 11
385.172143
 21
242.738678
 31
0.0
  0
LINE
  5
EF
330
E1
100
AcDbEntity
  8
LC-005-005-----0
  6
DASHED
 62
     7
370
    25
100
AcDbLine
 10
373.056396
 20
254.854425
 30
0.0
 11
372.240919
 21
255.669903
 31
0.0
  0
LINE
  5
F0
330
E1
100
AcDbEntity
  8
LC-005-005-----0
  6
DASHED
 62
     7
370
    25
100
AcDbLine
 10
396.966071
 20
228.116324
 30
0.0
 11
395.966071
 21
229.116324
 31
0.0
  0
LINE
  5
F1
330
E1
100
AcDbEntity
  8
LC-005-005-----0
  6
DASHED
 62
     7
370
    25
100
AcDbLine
 10
389.293544
 20
235.788851
 30
0.0
 11
385.443324
 21
239.639071
 31
0.0
  0
LINE
  5
F2
330
E1
100
AcDbEntity
  8
LC-005-005-----0
 62
     7
370
    25
100
AcDbLine
 10
391.309216
 20
228.116324
 30
0.0
 11
385.985685
 21
233.439855
 31
0.0
  0
LINE
  5
F3
330
E1
100
AcDbEntity
  8
LC-005-005-----0
 62
     7
370
    25
100
AcDbLine
 10
388.480789
 20
228.116324
 30
0.0
 11
386.256865
 21
230.340248
 31
0.0
  0
ENDBLK
  5
E3
330
E1
100
AcDbEntity
  8
0
100
AcDbBlockEnd
  0
BLOCK
  5
101
330
F7
100
AcDbEntity
  8
0
100
AcDbBlockBegin
  2
*D6
 70
     1
 71
     0
 10
0.0
 20
0.0
 30
0.0
  3
*D6
  1

  0
LINE
  5
F8
330
F7
100
AcDbEntity
  8
LC-004-003-----0
 62
     2
370
    -2
100
AcDbLine
 10
215.640457
 20
278.116324
 30
0.0
 11
215.640457
 21
317.539637
 31
0.0
  0
LINE
  5
F9
330
F7
100
AcDbEntity
  8
LC-004-003-----0
 62
     2
370
    -2
100
AcDbLine
 10
370.114172
 20
278.116324
 30
0.0
 11
370.114172
 21
317.539637
 31
0.0
  0
LINE
  5
FA
330
F7
100
AcDbEntity
  8
LC-004-003-----0
 62
     2
370
    -2
100
AcDbLine
 10
243.640457
 20
313.939637
 30
0.0
 11
342.114172
 21
313.939637
 31
0.0
  0
SOLID
  5
FB
330
F7
100
AcDbEntity
  8
LC-004-003-----0
 62
     2
100
AcDbTrace
 10
243.640457
 20
318.606303
 30
0.0
 11
243.640457
 21
309.27297
 31
0.0
 12
215.640457
 22
313.939637
 32
0.0
 13
215.640457
 23
313.939637
 33
0.0
  0
SOLID
  5
FC
330
F7
100
AcDbEntity
  8
LC-004-003-----0
 62
     2
100
AcDbTrace
 10
342.114172
 20
309.27297
 30
0.0
 11
342.114172
 21
318.606303
 31
0.0
 12
370.114172
 22
313.939637
 32
0.0
 13
370.114172
 23
313.939637
 33
0.0
  0
MTEXT
  5
FD
330
F7
100
AcDbEntity
  8
LC-004-003-----0
 62
     2
100
AcDbMText
 10
292.877314
 20
344.739637
 30
0.0
 40
28.0
 41
0.0
 71
     5
 72
     1
  1
\A1;DN150
  7
LCTX15-400-0-0pDIN-Schrift
 73
     1
 44
1.0
  0
POINT
  5
FE
330
F7
100
AcDbEntity
  8
Defpoints
 62
     0
100
AcDbPoint
 10
215.640457
 20
278.116324
 30
0.0
  0
POINT
  5
FF
330
F7
100
AcDbEntity
  8
Defpoints
 62
     0
100
AcDbPoint
 10
370.114172
 20
278.116324
 30
0.0
  0
POINT
  5
100
330
F7
100
AcDbEntity
  8
Defpoints
 62
     0
100
AcDbPoint
 10
370.114172
 20
313.939637
 30
0.0
  0
ENDBLK
  5
102
330
F7
100
AcDbEntity
  8
0
100
AcDbBlockEnd
  0
BLOCK
  5
104
330
103
100
AcDbEntity
  8
0
100
AcDbBlockBegin
  2
*X47
 70
     1
 71
     0
 10
0.0
 20
0.0
 30
0.0
  3
*X47
  1

  4
*X4
  0
LINE
  5
106
330
103
100
AcDbEntity
  8
LC-005-005-----0
 62
     7
370
    25
100
AcDbLine
 10
373.743133
 20
276.795106
 30
0.0
 11
372.421915
 21
278.116324
 31
0.0
  0
LINE
  5
107
330
103
100
AcDbEntity
  8
LC-005-005-----0
  6
DASHED
 62
     7
370
    25
100
AcDbLine
 10
374.285494
 20
270.595891
 30
0.0
 11
370.435274
 21
274.446111
 31
0.0
  0
LINE
  5
108
330
103
100
AcDbEntity
  8
LC-005-005-----0
  6
DASHED
 62
     7
370
    25
100
AcDbLine
 10
387.666461
 20
254.386497
 30
0.0
 11
383.936633
 21
258.116324
 31
0.0
  0
LINE
  5
109
330
103
100
AcDbEntity
  8
LC-005-005-----0
  6
DASHED
 62
     7
370
    25
100
AcDbLine
 10
374.556674
 20
267.496283
 30
0.0
 11
370.706454
 21
271.346503
 31
0.0
  0
LINE
  5
10A
330
103
100
AcDbEntity
  8
LC-005-005-----0
 62
     7
370
    25
100
AcDbLine
 10
388.208822
 20
248.187281
 30
0.0
 11
384.358602
 21
252.037501
 31
0.0
  0
LINE
  5
10B
330
103
100
AcDbEntity
  8
LC-005-005-----0
 62
     7
370
    25
100
AcDbLine
 10
381.779779
 20
254.616324
 30
0.0
 11
378.279779
 21
258.116324
 31
0.0
  0
LINE
  5
10C
330
103
100
AcDbEntity
  8
LC-005-005-----0
 62
     7
370
    25
100
AcDbLine
 10
375.099035
 20
261.297068
 30
0.0
 11
371.248815
 21
265.147288
 31
0.0
  0
LINE
  5
10D
330
103
100
AcDbEntity
  8
LC-005-005-----0
 62
     7
370
    25
100
AcDbLine
 10
388.480002
 20
245.087674
 30
0.0
 11
384.629782
 21
248.937894
 31
0.0
  0
LINE
  5
10E
330
103
100
AcDbEntity
  8
LC-005-005-----0
 62
     7
370
    25
100
AcDbLine
 10
378.951352
 20
254.616324
 30
0.0
 11
371.519996
 21
262.04768
 31
0.0
  0
LINE
  5
10F
330
103
100
AcDbEntity
  8
LC-005-005-----0
  6
DASHED
 62
     7
370
    25
100
AcDbLine
 10
399.794498
 20
228.116324
 30
0.0
 11
398.794498
 21
229.116324
 31
0.0
  0
LINE
  5
110
330
103
100
AcDbEntity
  8
LC-005-005-----0
  6
DASHED
 62
     7
370
    25
100
AcDbLine
 10
389.022363
 20
238.888458
 30
0.0
 11
385.172143
 21
242.738678
 31
0.0
  0
LINE
  5
111
330
103
100
AcDbEntity
  8
LC-005-005-----0
  6
DASHED
 62
     7
370
    25
100
AcDbLine
 10
373.056396
 20
254.854425
 30
0.0
 11
372.240919
 21
255.669903
 31
0.0
  0
LINE
  5
112
330
103
100
AcDbEntity
  8
LC-005-005-----0
  6
DASHED
 62
     7
370
    25
100
AcDbLine
 10
396.966071
 20
228.116324
 30
0.0
 11
395.966071
 21
229.116324
 31
0.0
  0
LINE
  5
113
330
103
100
AcDbEntity
  8
LC-005-005-----0
  6
DASHED
 62
     7
370
    25
100
AcDbLine
 10
389.293544
 20
235.788851
 30
0.0
 11
385.443324
 21
239.639071
 31
0.0
  0
LINE
  5
114
330
103
100
AcDbEntity
  8
LC-005-005-----0
 62
     7
370
    25
100
AcDbLine
 10
391.309216
 20
228.116324
 30
0.0
 11
385.985685
 21
233.439855
 31
0.0
  0
LINE
  5
115
330
103
100
AcDbEntity
  8
LC-005-005-----0
 62
     7
370
    25
100
AcDbLine
 10
388.480789
 20
228.116324
 30
0.0
 11
386.256865
 21
230.340248
 31
0.0
  0
ENDBLK
  5
105
330
103
100
AcDbEntity
  8
0
100
AcDbBlockEnd
  0
ENDSEC
  0
SECTION
  2
ENTITIES
  0
LINE
  5
31
330
1F
100
AcDbEntity
  8
LC-001-002-----0
 62
     7
370
    50
100
AcDbLine
 10
182.877314
 20
229.116324
 30
0.0
 11
194.960983
 21
229.116324
 31
0.0
  0
ARC
  5
33
330
1F
100
AcDbEntity
  8
LC-002-002-RND-0
 62
     7
370
    50
100
AcDbCircle
 10
200.247148
 20
256.116324
 30
0.0
 40
2.0
100
AcDbArc
 50
90.0
 51
175.0
  0
LINE
  5
34
330
1F
100
AcDbEntity
  8
LC-001-002-----0
 62
     7
370
    50
100
AcDbLine
 10
210.457178
 20
259.029168
 30
0.0
 11
212.127088
 21
278.116324
 31
0.0
  0
LINE
  5
35
330
1F
100
AcDbEntity
  8
LC-001-002-----0
 62
     7
370
    50
100
AcDbLine
 10
213.7442
 20
256.442013
 30
0.0
 11
215.640457
 21
278.116324
 31
0.0
  0
ARC
  5
36
330
1F
100
AcDbEntity
  8
LC-002-002-RND-0
 62
     7
370
    50
100
AcDbCircle
 10
211.751811
 20
256.616324
 30
0.0
 40
2.000000000000028
100
AcDbArc
 50
270.0
 51
355.0
  0
ARC
  5
37
330
1F
100
AcDbEntity
  8
LC-002-002-RND-0
 62
     7
370
    50
100
AcDbCircle
 10
209.460983
 20
259.116324
 30
0.0
 40
1.0
100
AcDbArc
 50
270.0
 51
355.0
  0
LINE
  5
38
330
1F
100
AcDbEntity
  8
LC-001-002-----0
 62
     7
370
    50
100
AcDbLine
 10
199.303195
 20
228.116324
 30
0.0
 11
201.541781
 21
253.70348
 31
0.0
  0
LINE
  5
39
330
1F
100
AcDbEntity
  8
LC-001-002-----0
 62
     7
370
    50
100
AcDbLine
 10
202.537976
 20
254.616324
 30
0.0
 11
292.877314
 21
254.616324
 31
0.0
  0
ARC
  5
3A
330
1F
100
AcDbEntity
  8
LC-002-002-RND-0
 62
     7
370
    50
100
AcDbCircle
 10
202.537976
 20
253.616324
 30
0.0
 40
1.0
100
AcDbArc
 50
90.0
 51
175.0
  0
ARC
  5
3B
330
1F
100
AcDbEntity
  8
LC-002-002-RND-0
 62
     7
370
    50
100
AcDbCircle
 10
194.960983
 20
230.116324
 30
0.0
 40
1.0
100
AcDbArc
 50
270.0
 51
355.0
  0
LINE
  5
3C
102
{ACAD_REACTORS
330
11B
102
}
330
1F
100
AcDbEntity
  8
LC-001-002-----0
 62
     7
370
    50
100
AcDbLine
 10
182.877314
 20
229.116324
 30
0.0
 11
182.877314
 21
228.116324
 31
0.0
  0
LINE
  5
3D
102
{ACAD_REACTORS
330
11C
102
}
330
1F
100
AcDbEntity
  8
LC-001-002-----0
 62
     7
370
    50
100
AcDbLine
 10
42.877314
 20
227.116324
 30
0.0
 11
292.877314
 21
227.116324
 31
0.0
  0
LINE
  5
3E
102
{ACAD_REACTORS
330
11C
102
}
330
1F
100
AcDbEntity
  8
LC-001-002-----0
 62
     7
370
    50
100
AcDbLine
 10
42.877314
 20
227.116324
 30
0.0
 11
42.877314
 21
228.116324
 31
0.0
  0
LINE
  5
3F
102
{ACAD_REACTORS
330
11C
102
}
330
1F
100
AcDbEntity
  8
LC-001-002-----0
 62
     7
370
    50
100
AcDbLine
 10
182.877314
 20
228.116324
 30
0.0
 11
42.877314
 21
228.116324
 31
0.0
  0
LINE
  5
40
102
{ACAD_REACTORS
330
11C
102
}
330
1F
100
AcDbEntity
  8
LC-001-002-----0
 62
     7
370
    50
100
AcDbLine
 10
199.303195
 20
227.116324
 30
0.0
 11
199.303195
 21
228.116324
 31
0.0
  0
LINE
  5
41
102
{ACAD_REACTORS
330
11B
102
}
330
1F
100
AcDbEntity
  8
LC-001-002-----0
 62
     7
370
    50
100
AcDbLine
 10
200.247148
 20
258.116324
 30
0.0
 11
209.460983
 21
258.116324
 31
0.0
  0
LINE
  5
44
102
{ACAD_REACTORS
330
11B
102
}
330
1F
100
AcDbEntity
  8
LC-003-006-MLN-0
 62
     7
370
    25
100
AcDbLine
 10
292.877314
 20
218.116324
 30
0.0
 11
292.877314
 21
288.116324
 31
0.0
  0
LINE
  5
45
102
{ACAD_REACTORS
330
11B
102
}
330
1F
100
AcDbEntity
  8
LC-001-002-----0
 62
     7
370
    50
100
AcDbLine
 10
182.877314
 20
228.116324
 30
0.0
 11
292.877314
 21
228.116324
 31
0.0
  0
LINE
  5
46
102
{ACAD_REACTORS
330
11B
102
}
330
1F
100
AcDbEntity
  8
LC-001-002-----0
 62
     7
370
    50
100
AcDbLine
 10
212.127088
 20
278.116324
 30
0.0
 11
292.877314
 21
278.116324
 31
0.0
  0
DIMENSION
  5
4A
330
1F
100
AcDbEntity
  8
LC-004-003-----0
 62
     7
370
    25
100
AcDbDimension
  2
*D1
 10
115.675944
 20
228.116324
 30
0.0
 11
84.875944
 21
253.116324
 31
0.0
 70
   160
 71
     5
 42
50.0
 53
90.0
  3
LC-DIM-L-0140-02-02
100
AcDbAlignedDimension
 13
210.877314
 23
278.116324
 33
0.0
 14
182.877314
 24
228.116324
 34
0.0
 50
90.0
100
AcDbRotatedDimension
  0
LINE
  5
5A
102
{ACAD_REACTORS
330
11B
102
}
330
1F
100
AcDbEntity
  8
LC-001-002-----0
 62
     7
370
    50
100
AcDbLine
 10
402.877314
 20
228.116324
 30
0.0
 11
292.877314
 21
228.116324
 31
0.0
  0
LINE
  5
5B
102
{ACAD_REACTORS
330
11C
102
}
330
1F
100
AcDbEntity
  8
LC-001-002-----0
 62
     7
370
    50
100
AcDbLine
 10
542.877314
 20
227.116324
 30
0.0
 11
292.877314
 21
227.116324
 31
0.0
  0
LINE
  5
5C
102
{ACAD_REACTORS
330
11C
102
}
330
1F
100
AcDbEntity
  8
LC-001-002-----0
 62
     7
370
    50
100
AcDbLine
 10
542.877314
 20
227.116324
 30
0.0
 11
542.877314
 21
228.116324
 31
0.0
  0
LINE
  5
5D
102
{ACAD_REACTORS
330
11C
102
}
330
1F
100
AcDbEntity
  8
LC-001-002-----0
 62
     7
370
    50
100
AcDbLine
 10
402.877314
 20
228.116324
 30
0.0
 11
542.877314
 21
228.116324
 31
0.0
  0
LINE
  5
5E
102
{ACAD_REACTORS
330
11C
102
}
330
1F
100
AcDbEntity
  8
LC-001-002-----0
 62
     7
370
    50
100
AcDbLine
 10
386.451434
 20
227.116324
 30
0.0
 11
386.451434
 21
228.116324
 31
0.0
  0
INSERT
  5
AD
102
{ACAD_REACTORS
330
11C
102
}
330
1F
100
AcDbEntity
  8
LC-005-005-----0
 62
     7
370
    25
100
AcDbBlockReference
  2
*X12
 10
0.0
 20
0.0
 30
0.0
  0
DIMENSION
  5
AE
330
1F
100
AcDbEntity
  8
LC-004-003-----0
 62
     7
370
    25
100
AcDbDimension
  2
*D3
 10
542.877314
 20
165.439637
 30
0.0
 11
292.877314
 21
196.239637
 31
0.0
 70
   160
 71
     5
 42
500.0
  3
LC-DIM-L-0140-02-02
100
AcDbAlignedDimension
 13
42.877314
 23
227.116324
 33
0.0
 14
542.877314
 24
227.116324
 34
0.0
100
AcDbRotatedDimension
  0
LINE
  5
BB
330
1F
100
AcDbEntity
  8
LC-001-002-----0
 62
     7
370
    50
100
AcDbLine
 10
195.957178
 20
230.029168
 30
0.0
 11
198.254759
 21
256.290636
 31
0.0
  0
LINE
  5
BC
330
1F
100
AcDbEntity
  8
LC-001-002-----0
 62
     7
370
    50
100
AcDbLine
 10
373.627541
 20
278.116324
 30
0.0
 11
292.877314
 21
278.116324
 31
0.0
  0
ARC
  5
BD
330
1F
100
AcDbEntity
  8
LC-002-002-RND-0
 62
     7
370
    50
100
AcDbCircle
 10
385.507481
 20
256.116324
 30
0.0
 40
2.00000000000002
100
AcDbArc
 50
5.0
 51
90.0
  0
LINE
  5
BE
330
1F
100
AcDbEntity
  8
LC-001-002-----0
 62
     7
370
    50
100
AcDbLine
 10
375.297451
 20
259.029168
 30
0.0
 11
373.627541
 21
278.116324
 31
0.0
  0
LINE
  5
BF
330
1F
100
AcDbEntity
  8
LC-001-002-----0
 62
     7
370
    50
100
AcDbLine
 10
372.010428
 20
256.442013
 30
0.0
 11
370.114172
 21
278.116324
 31
0.0
  0
ARC
  5
C0
330
1F
100
AcDbEntity
  8
LC-002-002-RND-0
 62
     7
370
    50
100
AcDbCircle
 10
374.002818
 20
256.616324
 30
0.0
 40
2.00000000000002
100
AcDbArc
 50
185.0
 51
270.0
  0
ARC
  5
C1
330
1F
100
AcDbEntity
  8
LC-002-002-RND-0
 62
     7
370
    50
100
AcDbCircle
 10
376.293645
 20
259.116324
 30
0.0
 40
1.00000000000001
100
AcDbArc
 50
185.0
 51
270.0
  0
LINE
  5
C2
330
1F
100
AcDbEntity
  8
LC-001-002-----0
 62
     7
370
    50
100
AcDbLine
 10
383.216653
 20
254.616324
 30
0.0
 11
292.877314
 21
254.616324
 31
0.0
  0
ARC
  5
C3
330
1F
100
AcDbEntity
  8
LC-002-002-RND-0
 62
     7
370
    50
100
AcDbCircle
 10
383.216653
 20
253.616324
 30
0.0
 40
1.00000000000001
100
AcDbArc
 50
5.0
 51
90.0
  0
LINE
  5
C4
330
1F
100
AcDbEntity
  8
LC-001-002-----0
 62
     7
370
    50
100
AcDbLine
 10
385.507481
 20
258.116324
 30
0.0
 11
376.293645
 21
258.116324
 31
0.0
  0
LINE
  5
C5
330
1F
100
AcDbEntity
  8
LC-001-002-----0
 62
     7
370
    50
100
AcDbLine
 10
389.797451
 20
230.029168
 30
0.0
 11
387.49987
 21
256.290636
 31
0.0
  0
LINE
  5
C6
330
1F
100
AcDbEntity
  8
LC-001-002-----0
 62
     7
370
    50
100
AcDbLine
 10
386.451434
 20
228.116324
 30
0.0
 11
384.212847
 21
253.70348
 31
0.0
  0
LINE
  5
C7
330
1F
100
AcDbEntity
  8
LC-001-002-----0
 62
     7
370
    50
100
AcDbLine
 10
402.877314
 20
229.116324
 30
0.0
 11
390.793645
 21
229.116324
 31
0.0
  0
ARC
  5
C8
330
1F
100
AcDbEntity
  8
LC-002-002-RND-0
 62
     7
370
    50
100
AcDbCircle
 10
390.793645
 20
230.116324
 30
0.0
 40
1.00000000000001
100
AcDbArc
 50
185.0
 51
270.0
  0
LINE
  5
C9
330
1F
100
AcDbEntity
  8
LC-001-002-----0
 62
     7
370
    50
100
AcDbLine
 10
402.877314
 20
229.116324
 30
0.0
 11
402.877314
 21
228.116324
 31
0.0
  0
INSERT
  5
E0
330
1F
100
AcDbEntity
  8
LC-005-005-----0
 62
     7
370
    25
100
AcDbBlockReference
  2
*X24
 10
0.0
 20
0.0
 30
0.0
  0
INSERT
  5
F4
330
1F
100
AcDbEntity
  8
LC-005-005-----0
 62
     7
370
    25
100
AcDbBlockReference
  2
*X35
 10
0.0
 20
0.0
 30
0.0
  0
DIMENSION
  5
F6
330
1F
100
AcDbEntity
  8
LC-004-003-----0
 62
     7
370
    25
100
AcDbDimension
  2
*D6
 10
370.114172
 20
313.939637
 30
0.0
 11
292.877314
 21
344.739637
 31
0.0
 70
   160
  1
DN150
 71
     5
 42
154.473715
  3
LC-DIM-L-0140-01-02
100
AcDbAlignedDimension
 13
215.640457
 23
278.116324
 33
0.0
 14
370.114172
 24
278.116324
 34
0.0
100
AcDbRotatedDimension
  0
INSERT
  5
116
330
1F
100
AcDbEntity
  8
LC-005-005-----0
 62
     7
370
    25
100
AcDbBlockReference
  2
*X47
 10
0.0
 20
0.0
 30
0.0
  0
LINE
  5
117
330
1F
100
AcDbEntity
  8
LC-001-002-----0
 62
     7
370
    25
100
AcDbLine
 10
239.038739
 20
177.426226
 30
0.0
 11
239.038739
 21
192.426226
 31
0.0
  0
LINE
  5
118
330
1F
100
AcDbEntity
  8
LC-001-002-----0
 62
     7
370
    25
100
AcDbLine
 10
239.038739
 20
192.426226
 30
0.0
 11
254.038739
 21
192.426226
 31
0.0
  0
LINE
  5
119
330
1F
100
AcDbEntity
  8
LC-001-002-----0
 62
     7
370
    25
100
AcDbLine
 10
254.038739
 20
192.426226
 30
0.0
 11
254.038739
 21
177.426226
 31
0.0
  0
LINE
  5
11A
330
1F
100
AcDbEntity
  8
LC-001-002-----0
 62
     7
370
    25
100
AcDbLine
 10
254.038739
 20
177.426226
 30
0.0
 11
239.038739
 21
177.426226
 31
0.0
  0
ENDSEC
  0
SECTION
  2
OBJECTS
  0
DICTIONARY
  5
C
330
0
100
AcDbDictionary
281
     1
  3
ACAD_GROUP
350
D
  3
ACAD_LAYOUT
350
1A
  3
ACAD_MLINESTYLE
350
17
  3
ACAD_PLOTSETTINGS
350
19
  3
ACAD_PLOTSTYLENAME
350
E
  0
DICTIONARY
  5
D
102
{ACAD_REACTORS
330
C
102
}
330
C
100
AcDbDictionary
281
     1
  3
LCGROUP31
350
11B
  3
LCGROUP32
350
11C
  0
DICTIONARY
  5
1A
102
{ACAD_REACTORS
330
C
102
}
330
C
100
AcDbDictionary
281
     1
  3
Layout1
350
1E
  3
Layout2
350
26
  3
Model
350
22
  0
DICTIONARY
  5
17
102
{ACAD_REACTORS
330
C
102
}
330
C
100
AcDbDictionary
281
     1
  3
Standard
350
18
  0
DICTIONARY
  5
19
102
{ACAD_REACTORS
330
C
102
}
330
C
100
AcDbDictionary
281
     1
  0
ACDBDICTIONARYWDFLT
  5
E
102
{ACAD_REACTORS
330
C
102
}
330
C
100
AcDbDictionary
281
     1
  3
Normal
350
F
100
AcDbDictionaryWithDefault
340
F
  0
GROUP
  5
11B
102
{ACAD_REACTORS
330
D
102
}
330
D
100
AcDbGroup
300
GRP31
 70
     1
 71
     1
340
3C
340
41
340
44
340
45
340
46
340
5A
  0
GROUP
  5
11C
102
{ACAD_REACTORS
330
D
102
}
330
D
100
AcDbGroup
300
GRP32
 70
     1
 71
     1
340
3D
340
3E
340
3F
340
40
340
5B
340
5C
340
5D
340
5E
340
AD
  0
LAYOUT
  5
1E
102
{ACAD_REACTORS
330
1A
102
}
330
1A
100
AcDbPlotSettings
  1

  2

  4

  6

 40
0.0
 41
0.0
 42
0.0
 43
0.0
 44
0.0
 45
0.0
 46
0.0
 47
0.0
 48
0.0
 49
0.0
140
0.0
141
0.0
142
1.0
143
1.0
 70
   688
 72
     0
 73
     0
 74
     5
  7

 75
    16
147
1.0
148
0.0
149
0.0
100
AcDbLayout
  1
Layout1
 70
     1
 71
     1
 10
-123.373464
 20
-79.288363
 11
716.626536
 21
514.711637
 12
0.0
 22
0.0
 32
0.0
 14
-123.373464
 24
-79.288363
 34
0.0
 15
716.626536
 25
514.711637
 35
0.0
146
0.0
 13
0.0
 23
0.0
 33
0.0
 16
1.0
 26
0.0
 36
0.0
 17
0.0
 27
1.0
 37
0.0
 76
     0
330
1B
  0
LAYOUT
  5
26
102
{ACAD_REACTORS
330
1A
102
}
330
1A
100
AcDbPlotSettings
  1

  2

  4

  6

 40
0.0
 41
0.0
 42
0.0
 43
0.0
 44
0.0
 45
0.0
 46
0.0
 47
0.0
 48
0.0
 49
0.0
140
0.0
141
0.0
142
1.0
143
1.0
 70
   688
 72
     0
 73
     0
 74
     5
  7

 75
    16
147
1.0
148
0.0
149
0.0
100
AcDbLayout
  1
Layout2
 70
     1
 71
     2
 10
0.0
 20
0.0
 11
0.0
 21
0.0
 12
0.0
 22
0.0
 32
0.0
 14
0.0
 24
0.0
 34
0.0
 15
0.0
 25
0.0
 35
0.0
146
0.0
 13
0.0
 23
0.0
 33
0.0
 16
1.0
 26
0.0
 36
0.0
 17
0.0
 27
1.0
 37
0.0
 76
     0
330
23
  0
LAYOUT
  5
22
102
{ACAD_REACTORS
330
1A
102
}
330
1A
100
AcDbPlotSettings
  1

  2

  4

  6

 40
0.0
 41
0.0
 42
0.0
 43
0.0
 44
0.0
 45
0.0
 46
0.0
 47
0.0
 48
0.0
 49
0.0
140
0.0
141
0.0
142
1.0
143
1.0
 70
  1776
 72
     0
 73
     0
 74
     0
  7

 75
     0
147
1.0
148
0.0
149
0.0
100
AcDbLayout
  1
Model
 70
     1
 71
     0
 10
-123.373464
 20
-79.288363
 11
716.626536
 21
514.711637
 12
86.626536
 22
69.211637
 32
0.0
 14
-123.373464
 24
-79.288363
 34
0.0
 15
716.626536
 25
514.711637
 35
0.0
146
0.0
 13
0.0
 23
0.0
 33
0.0
 16
1.0
 26
0.0
 36
0.0
 17
0.0
 27
1.0
 37
0.0
 76
     0
330
1F
  0
MLINESTYLE
  5
18
102
{ACAD_REACTORS
330
17
102
}
330
17
100
AcDbMlineStyle
  2
Standard
 70
     0
  3

 62
   256
 51
90.0
 52
90.0
 71
     2
 49
0.5
 62
   256
  6
BYLAYER
 49
-0.5
 62
   256
  6
BYLAYER
  0
ACDBPLACEHOLDER
  5
F
102
{ACAD_REACTORS
330
E
102
}
330
E
  0
ENDSEC
  0
EOF
