  0
SECTION
  2
HEADER
  9
$ACADVER
  1
AC1015
  9
$ACADMAINTVER
 70
     6
  9
$DWGCODEPAGE
  3
DOS850
  9
$INSBASE
 10
218.530059
 20
298.053917
 30
0.0
  9
$EXTMIN
 10
95.030059
 20
211.053917
 30
0.0
  9
$EXTMAX
 10
935.030059
 20
805.053917
 30
0.0
  9
$LIMMIN
 10
95.030059
 20
211.053917
  9
$LIMMAX
 10
935.030059
 20
805.053917
  9
$ORTHOMODE
 70
     0
  9
$REGENMODE
 70
     1
  9
$FILLMODE
 70
     1
  9
$QTEXTMODE
 70
     0
  9
$MIRRTEXT
 70
     1
  9
$LTSCALE
 40
2.0
  9
$ATTMODE
 70
     1
  9
$TEXTSIZE
 40
2.5
  9
$TRACEWID
 40
1.0
  9
$TEXTSTYLE
  7
Standard
  9
$CLAYER
  8
0
  9
$CELTYPE
  6
ByLayer
  9
$CECOLOR
 62
     7
  9
$CELTSCALE
 40
1.0
  9
$DISPSILH
 70
     0
  9
$DIMSCALE
 40
2.0
  9
$DIMASZ
 40
3.5
  9
$DIMEXO
 40
0.625
  9
$DIMDLI
 40
3.75
  9
$DIMRND
 40
0.0
  9
$DIMDLE
 40
0.0
  9
$DIMEXE
 40
1.25
  9
$DIMTP
 40
0.0
  9
$DIMTM
 40
0.0
  9
$DIMTXT
 40
3.5
  9
$DIMCEN
 40
2.5
  9
$DIMTSZ
 40
0.0
  9
$DIMTOL
 70
     0
  9
$DIMLIM
 70
     0
  9
$DIMTIH
 70
     0
  9
$DIMTOH
 70
     0
  9
$DIMSE1
 70
     0
  9
$DIMSE2
 70
     0
  9
$DIMTAD
 70
     1
  9
$DIMZIN
 70
     8
  9
$DIMBLK
  1

  9
$DIMASO
 70
     1
  9
$DIMSHO
 70
     1
  9
$DIMPOST
  1

  9
$DIMAPOST
  1

  9
$DIMALT
 70
     0
  9
$DIMALTD
 70
     3
  9
$DIMALTF
 40
0.03937
  9
$DIMLFAC
 40
1.0
  9
$DIMTOFL
 70
     1
  9
$DIMTVP
 40
0.0
  9
$DIMTIX
 70
     0
  9
$DIMSOXD
 70
     0
  9
$DIMSAH
 70
     0
  9
$DIMBLK1
  1

  9
$DIMBLK2
  1

  9
$DIMSTYLE
  2
ISO-25
  9
$DIMCLRD
 70
     0
  9
$DIMCLRE
 70
     0
  9
$DIMCLRT
 70
     0
  9
$DIMTFAC
 40
1.0
  9
$DIMGAP
 40
0.625
  9
$DIMJUST
 70
     0
  9
$DIMSD1
 70
     0
  9
$DIMSD2
 70
     0
  9
$DIMTOLJ
 70
     0
  9
$DIMTZIN
 70
     8
  9
$DIMALTZ
 70
     0
  9
$DIMALTTZ
 70
     0
  9
$DIMUPT
 70
     0
  9
$DIMDEC
 70
     2
  9
$DIMTDEC
 70
     2
  9
$DIMALTU
 70
     2
  9
$DIMALTTD
 70
     3
  9
$DIMTXSTY
  7
Standard
  9
$DIMAUNIT
 70
     0
  9
$DIMADEC
 70
     0
  9
$DIMALTRND
 40
0.0
  9
$DIMAZIN
 70
     0
  9
$DIMDSEP
 70
    44
  9
$DIMATFIT
 70
     3
  9
$DIMFRAC
 70
     0
  9
$DIMLDRBLK
  1

  9
$DIMLUNIT
 70
     2
  9
$DIMLWD
 70
    -2
  9
$DIMLWE
 70
    -2
  9
$DIMTMOVE
 70
     0
  9
$LUNITS
 70
     2
  9
$LUPREC
 70
     4
  9
$SKETCHINC
 40
1.0
  9
$FILLETRAD
 40
10.0
  9
$AUNITS
 70
     0
  9
$AUPREC
 70
     0
  9
$MENU
  1
.
  9
$ELEVATION
 40
0.0
  9
$PELEVATION
 40
0.0
  9
$THICKNESS
 40
0.0
  9
$LIMCHECK
 70
     0
  9
$CHAMFERA
 40
10.0
  9
$CHAMFERB
 40
10.0
  9
$CHAMFERC
 40
20.0
  9
$CHAMFERD
 40
0.0
  9
$SKPOLY
 70
     0
  9
$TDCREATE
 40
2453663.408750521
  9
$TDUCREATE
 40
2453663.325417188
  9
$TDUPDATE
 40
2453663.408750532
  9
$TDUUPDATE
 40
2453663.325417199
  9
$TDINDWG
 40
0.0000000116
  9
$TDUSRTIMER
 40
0.0000000116
  9
$USRTIMER
 70
     1
  9
$ANGBASE
 50
0.0
  9
$ANGDIR
 70
     0
  9
$PDMODE
 70
     0
  9
$PDSIZE
 40
0.0
  9
$PLINEWID
 40
0.0
  9
$SPLFRAME
 70
     0
  9
$SPLINETYPE
 70
     6
  9
$SPLINESEGS
 70
     8
  9
$HANDSEED
  5
27B
  9
$SURFTAB1
 70
     6
  9
$SURFTAB2
 70
     6
  9
$SURFTYPE
 70
     6
  9
$SURFU
 70
     6
  9
$SURFV
 70
     6
  9
$UCSBASE
  2

  9
$UCSNAME
  2

  9
$UCSORG
 10
0.0
 20
0.0
 30
0.0
  9
$UCSXDIR
 10
1.0
 20
0.0
 30
0.0
  9
$UCSYDIR
 10
0.0
 20
1.0
 30
0.0
  9
$UCSORTHOREF
  2

  9
$UCSORTHOVIEW
 70
     0
  9
$UCSORGTOP
 10
0.0
 20
0.0
 30
0.0
  9
$UCSORGBOTTOM
 10
0.0
 20
0.0
 30
0.0
  9
$UCSORGLEFT
 10
0.0
 20
0.0
 30
0.0
  9
$UCSORGRIGHT
 10
0.0
 20
0.0
 30
0.0
  9
$UCSORGFRONT
 10
0.0
 20
0.0
 30
0.0
  9
$UCSORGBACK
 10
0.0
 20
0.0
 30
0.0
  9
$PUCSBASE
  2

  9
$PUCSNAME
  2

  9
$PUCSORG
 10
0.0
 20
0.0
 30
0.0
  9
$PUCSXDIR
 10
1.0
 20
0.0
 30
0.0
  9
$PUCSYDIR
 10
0.0
 20
1.0
 30
0.0
  9
$PUCSORTHOREF
  2

  9
$PUCSORTHOVIEW
 70
     0
  9
$PUCSORGTOP
 10
0.0
 20
0.0
 30
0.0
  9
$PUCSORGBOTTOM
 10
0.0
 20
0.0
 30
0.0
  9
$PUCSORGLEFT
 10
0.0
 20
0.0
 30
0.0
  9
$PUCSORGRIGHT
 10
0.0
 20
0.0
 30
0.0
  9
$PUCSORGFRONT
 10
0.0
 20
0.0
 30
0.0
  9
$PUCSORGBACK
 10
0.0
 20
0.0
 30
0.0
  9
$USERI1
 70
     0
  9
$USERI2
 70
     0
  9
$USERI3
 70
     0
  9
$USERI4
 70
     0
  9
$USERI5
 70
     0
  9
$USERR1
 40
0.0
  9
$USERR2
 40
0.0
  9
$USERR3
 40
0.0
  9
$USERR4
 40
0.0
  9
$USERR5
 40
0.0
  9
$WORLDVIEW
 70
     1
  9
$SHADEDGE
 70
     3
  9
$SHADEDIF
 70
    70
  9
$TILEMODE
 70
     1
  9
$MAXACTVP
 70
    64
  9
$PINSBASE
 10
0.0
 20
0.0
 30
0.0
  9
$PLIMCHECK
 70
     0
  9
$PEXTMIN
 10
95.030059
 20
211.053917
 30
0.0
  9
$PEXTMAX
 10
935.030059
 20
805.053917
 30
0.0
  9
$PLIMMIN
 10
95.030059
 20
211.053917
  9
$PLIMMAX
 10
935.030059
 20
805.053917
  9
$UNITMODE
 70
     0
  9
$VISRETAIN
 70
     1
  9
$PLINEGEN
 70
     0
  9
$PSLTSCALE
 70
     1
  9
$TREEDEPTH
 70
  3020
  9
$CMLSTYLE
  2
Standard
  9
$CMLJUST
 70
     0
  9
$CMLSCALE
 40
20.0
  9
$PROXYGRAPHICS
 70
     1
  9
$MEASUREMENT
 70
     1
  9
$CELWEIGHT
370
    -1
  9
$ENDCAPS
280
     0
  9
$JOINSTYLE
280
     0
  9
$LWDISPLAY
290
     0
  9
$INSUNITS
 70
     4
  9
$HYPERLINKBASE
  1

  9
$STYLESHEET
  1

  9
$XEDIT
290
     1
  9
$CEPSNTYPE
380
     0
  9
$PSTYLEMODE
290
     1
  9
$FINGERPRINTGUID
  2
{FAEB1C30-E019-11D5-929B-00C0DF256EC4}
  9
$VERSIONGUID
  2
{FAEB1C32-E019-11D5-929B-00C0DF256EC4}
  9
$EXTNAMES
290
     1
  9
$PSVPSCALE
 40
0.0
  9
$OLESTARTUP
290
     0
  0
ENDSEC
  0
SECTION
  2
CLASSES
  0
CLASS
  1
ACDBDICTIONARYWDFLT
  2
AcDbDictionaryWithDefault
  3
ObjectDBX Classes
 90
        0
280
     0
281
     0
  0
CLASS
  1
ACDBPLACEHOLDER
  2
AcDbPlaceHolder
  3
ObjectDBX Classes
 90
        0
280
     0
281
     0
  0
CLASS
  1
LAYOUT
  2
AcDbLayout
  3
ObjectDBX Classes
 90
        0
280
     0
281
     0
  0
ENDSEC
  0
SECTION
  2
TABLES
  0
TABLE
  2
VPORT
  5
8
330
0
100
AcDbSymbolTable
 70
     2
  0
VPORT
  5
29
330
8
100
AcDbSymbolTableRecord
100
AcDbViewportTableRecord
  2
*ACTIVE
 70
     0
 10
0.0
 20
0.0
 11
1.0
 21
1.0
 12
515.030059
 22
508.053917
 13
0.0
 23
0.0
 14
1.0
 24
1.0
 15
0.0
 25
0.0
 16
0.0
 26
0.0
 36
1.0
 17
0.0
 27
0.0
 37
0.0
 40
594.0
 41
1.414141
 42
50.0
 43
0.0
 44
0.0
 50
0.0
 51
0.0
 71
    16
 72
   100
 73
     1
 74
     0
 75
     0
 76
     0
 77
     0
 78
     0
281
     0
 65
     0
110
0.0
120
0.0
130
0.0
111
1.0
121
0.0
131
0.0
112
0.0
122
1.0
132
0.0
 79
     0
146
0.0
  0
ENDTAB
  0
TABLE
  2
LTYPE
  5
5
330
0
100
AcDbSymbolTable
 70
     3
  0
LTYPE
  5
14
330
5
100
AcDbSymbolTableRecord
100
AcDbLinetypeTableRecord
  2
ByBlock
 70
     0
  3

 72
    65
 73
     0
 40
0.0
  0
LTYPE
  5
15
330
5
100
AcDbSymbolTableRecord
100
AcDbLinetypeTableRecord
  2
ByLayer
 70
     0
  3

 72
    65
 73
     0
 40
0.0
  0
LTYPE
  5
16
330
5
100
AcDbSymbolTableRecord
100
AcDbLinetypeTableRecord
  2
Continuous
 70
     0
  3
Solid line
 72
    65
 73
     0
 40
0.0
  0
LTYPE
  5
2A
330
5
100
AcDbSymbolTableRecord
100
AcDbLinetypeTableRecord
  2
DASHED
 70
     0
  3
__ __ __ __ __
 72
    65
 73
     2
 40
6.25
 49
5.0
 74
     4
 75
     0
340
0
 46
1.0
 50
0.0
 44
0.0
 45
0.0
 49
-1.25
 74
     4
 75
     0
340
0
 46
1.0
 50
0.0
 44
0.0
 45
0.0
  0
LTYPE
  5
14B
330
5
100
AcDbSymbolTableRecord
100
AcDbLinetypeTableRecord
  2
DASHDOT
 70
     0
  3
__ . __ . __ . __ . __
 72
    65
 73
     4
 40
7.5
 49
5.0
 74
     4
 75
     0
340
0
 46
1.0
 50
0.0
 44
0.0
 45
0.0
 49
-1.25
 74
     4
 75
     0
340
0
 46
1.0
 50
0.0
 44
0.0
 45
0.0
 49
0.0
 74
     4
 75
     0
340
0
 46
1.0
 50
0.0
 44
0.0
 45
0.0
 49
-1.25
 74
     4
 75
     0
340
0
 46
1.0
 50
0.0
 44
0.0
 45
0.0
  0
ENDTAB
  0
TABLE
  2
LAYER
  5
2
330
0
100
AcDbSymbolTable
 70
    11
  0
LAYER
  5
10
330
2
100
AcDbSymbolTableRecord
100
AcDbLayerTableRecord
  2
0
 70
     0
 62
     7
  6
Continuous
370
    -3
390
F
  0
LAYER
  5
2B
330
2
100
AcDbSymbolTableRecord
100
AcDbLayerTableRecord
  2
LC-INFO-1-2-mm-A3-0
 70
     1
 62
     7
  6
ByBlock
370
    -3
390
F
  0
LAYER
  5
2C
330
2
100
AcDbSymbolTableRecord
100
AcDbLayerTableRecord
  2
LC-CUT-HIDDEN
 70
     0
 62
     7
  6
DASHED
370
    -3
390
F
  0
LAYER
  5
2D
330
2
100
AcDbSymbolTableRecord
100
AcDbLayerTableRecord
  2
LC-VIEWPORT
 70
     0
 62
     7
  6
ByBlock
370
    -3
390
F
  0
LAYER
  5
2E
330
2
100
AcDbSymbolTableRecord
100
AcDbLayerTableRecord
  2
LC-3D-HIDDEN
 70
     0
 62
     9
  6
DASHED
370
    -3
390
F
  0
LAYER
  5
30
330
2
100
AcDbSymbolTableRecord
100
AcDbLayerTableRecord
  2
LC-001-002-RND-0
 70
     0
 62
     1
  6
ByBlock
370
    -3
390
F
  0
LAYER
  5
32
330
2
100
AcDbSymbolTableRecord
100
AcDbLayerTableRecord
  2
LC-002-002-----0
 70
     0
 62
     2
  6
ByBlock
370
    -3
390
F
  0
LAYER
  5
59
330
2
100
AcDbSymbolTableRecord
100
AcDbLayerTableRecord
  2
LC-003-005-----0
 70
     0
 62
     2
  6
ByBlock
370
    -3
390
F
  0
LAYER
  5
15B
330
2
100
AcDbSymbolTableRecord
100
AcDbLayerTableRecord
  2
LC-004-001-----0
 70
     0
 62
     2
  6
DASHDOT
370
    -3
390
F
  0
LAYER
  5
1CF
330
2
100
AcDbSymbolTableRecord
100
AcDbLayerTableRecord
  2
LC-005-003-----0
 70
     0
 62
     2
  6
ByBlock
370
    -3
390
F
  0
LAYER
  5
1D1
330
2
100
AcDbSymbolTableRecord
100
AcDbLayerTableRecord
  2
Defpoints
 70
     0
 62
     7
  6
Continuous
290
     0
370
    -3
390
F
  0
ENDTAB
  0
TABLE
  2
STYLE
  5
3
330
0
100
AcDbSymbolTable
 70
     3
  0
STYLE
  5
11
330
3
100
AcDbSymbolTableRecord
100
AcDbTextStyleTableRecord
  2
Standard
 70
     0
 40
0.0
 41
1.0
 50
0.0
 71
     0
 42
2.5
  3
txt
  4

  0
STYLE
  5
2F
330
3
100
AcDbSymbolTableRecord
100
AcDbTextStyleTableRecord
  2
LCTX15-400-0-0-Arial
 70
     0
 40
0.0
 41
0.9
 50
0.0
 71
     0
 42
3.5
  3

  4

1001
ACAD
1000
Arial
1071
 16777218
  0
STYLE
  5
1CD
330
3
100
AcDbSymbolTableRecord
100
AcDbTextStyleTableRecord
  2
LCTX15-400-0-0pDIN-Schrift
 70
     0
 40
2.5
 41
0.8
 50
15.0
 71
     0
 42
3.5
  3
STANDARD
  4

  0
ENDTAB
  0
TABLE
  2
VIEW
  5
6
330
0
100
AcDbSymbolTable
 70
     0
  0
ENDTAB
  0
TABLE
  2
UCS
  5
7
330
0
100
AcDbSymbolTable
 70
     0
  0
ENDTAB
  0
TABLE
  2
APPID
  5
9
330
0
100
AcDbSymbolTable
 70
     1
  0
APPID
  5
12
330
9
100
AcDbSymbolTableRecord
100
AcDbRegAppTableRecord
  2
ACAD
 70
     0
  0
ENDTAB
  0
TABLE
  2
DIMSTYLE
  5
A
330
0
100
AcDbSymbolTable
 70
     2
100
AcDbDimStyleTable
  0
DIMSTYLE
105
27
330
A
100
AcDbSymbolTableRecord
100
AcDbDimStyleTableRecord
  2
ISO-25
 70
     0
 41
2.5
 42
0.625
 43
3.75
 44
1.25
 73
     0
 74
     0
 77
     1
 78
     8
140
2.5
141
2.5
143
0.03937
147
0.625
171
     3
172
     1
271
     2
272
     2
274
     3
278
    44
283
     0
284
     8
340
11
  0
DIMSTYLE
105
1CE
102
{ACAD_REACTORS
330
1D0
330
25E
330
26B
102
}
330
A
100
AcDbSymbolTableRecord
100
AcDbDimStyleTableRecord
  2
LC-DIM-L-0140-02-02
 70
     0
 40
2.0
 41
14.0
 42
0.0
 43
7.5
 44
1.8
 73
     0
 74
     0
 77
     1
 78
     8
 79
     2
140
14.0
141
0.0
146
0.71
147
1.5
176
     2
177
     2
178
     2
179
     2
271
     2
278
    44
289
     1
340
1CD
  0
ENDTAB
  0
TABLE
  2
BLOCK_RECORD
  5
1
330
0
100
AcDbSymbolTable
 70
    15
  0
BLOCK_RECORD
  5
1F
330
1
100
AcDbSymbolTableRecord
100
AcDbBlockTableRecord
  2
*Model_Space
340
22
  0
BLOCK_RECORD
  5
1B
330
1
100
AcDbSymbolTableRecord
100
AcDbBlockTableRecord
  2
*Paper_Space
340
1E
  0
BLOCK_RECORD
  5
23
330
1
100
AcDbSymbolTableRecord
100
AcDbBlockTableRecord
  2
*Paper_Space0
340
26
  0
BLOCK_RECORD
  5
56
330
1
100
AcDbSymbolTableRecord
100
AcDbBlockTableRecord
  2
*X11
340
0
102
{BLKREFS
331
78
102
}
  0
BLOCK_RECORD
  5
94
330
1
100
AcDbSymbolTableRecord
100
AcDbBlockTableRecord
  2
*X22
340
0
102
{BLKREFS
331
B1
102
}
  0
BLOCK_RECORD
  5
B5
330
1
100
AcDbSymbolTableRecord
100
AcDbBlockTableRecord
  2
*X33
340
0
102
{BLKREFS
331
EE
102
}
  0
BLOCK_RECORD
  5
EF
330
1
100
AcDbSymbolTableRecord
100
AcDbBlockTableRecord
  2
*X44
340
0
102
{BLKREFS
331
128
102
}
  0
BLOCK_RECORD
  5
129
330
1
100
AcDbSymbolTableRecord
100
AcDbBlockTableRecord
  2
*X55
340
0
102
{BLKREFS
331
14A
102
}
  0
BLOCK_RECORD
  5
18C
330
1
100
AcDbSymbolTableRecord
100
AcDbBlockTableRecord
  2
*X66
340
0
102
{BLKREFS
331
1A7
102
}
  0
BLOCK_RECORD
  5
1A8
330
1
100
AcDbSymbolTableRecord
100
AcDbBlockTableRecord
  2
*X77
340
0
102
{BLKREFS
331
1C4
102
}
  0
BLOCK_RECORD
  5
1D2
330
1
100
AcDbSymbolTableRecord
100
AcDbBlockTableRecord
  2
*D8
340
0
  0
BLOCK_RECORD
  5
1E4
330
1
100
AcDbSymbolTableRecord
100
AcDbBlockTableRecord
  2
*X89
340
0
102
{BLKREFS
331
1F9
102
}
  0
BLOCK_RECORD
  5
1FA
330
1
100
AcDbSymbolTableRecord
100
AcDbBlockTableRecord
  2
*X910
340
0
102
{BLKREFS
331
20F
102
}
  0
BLOCK_RECORD
  5
214
330
1
100
AcDbSymbolTableRecord
100
AcDbBlockTableRecord
  2
*X1011
340
0
102
{BLKREFS
331
231
102
}
  0
BLOCK_RECORD
  5
232
330
1
100
AcDbSymbolTableRecord
100
AcDbBlockTableRecord
  2
*X1112
340
0
102
{BLKREFS
331
24F
102
}
  0
BLOCK_RECORD
  5
25F
330
1
100
AcDbSymbolTableRecord
100
AcDbBlockTableRecord
  2
*D13
340
0
  0
BLOCK_RECORD
  5
26C
330
1
100
AcDbSymbolTableRecord
100
AcDbBlockTableRecord
  2
*D14
340
0
  0
ENDTAB
  0
ENDSEC
  0
SECTION
  2
BLOCKS
  0
BLOCK
  5
20
330
1F
100
AcDbEntity
  8
0
100
AcDbBlockBegin
  2
*Model_Space
 70
     0
 71
     0
 10
0.0
 20
0.0
 30
0.0
  3
*Model_Space
  1

  0
ENDBLK
  5
21
330
1F
100
AcDbEntity
  8
0
100
AcDbBlockEnd
  0
BLOCK
  5
1C
330
1B
100
AcDbEntity
 67
     1
  8
0
100
AcDbBlockBegin
  2
*Paper_Space
 70
     0
 71
     0
 10
0.0
 20
0.0
 30
0.0
  3
*Paper_Space
  1

  0
ENDBLK
  5
1D
330
1B
100
AcDbEntity
 67
     1
  8
0
100
AcDbBlockEnd
  0
BLOCK
  5
24
330
23
100
AcDbEntity
  8
0
100
AcDbBlockBegin
  2
*Paper_Space0
 70
     0
 71
     0
 10
0.0
 20
0.0
 30
0.0
  3
*Paper_Space0
  1

  0
ENDBLK
  5
25
330
23
100
AcDbEntity
  8
0
100
AcDbBlockEnd
  0
BLOCK
  5
57
330
56
100
AcDbEntity
  8
0
100
AcDbBlockBegin
  2
*X11
 70
     1
 71
     0
 10
0.0
 20
0.0
 30
0.0
  3
*X11
  1

  4
*X1
  0
LINE
  5
5A
330
56
100
AcDbEntity
  8
LC-003-005-----0
 62
     7
370
    25
100
AcDbLine
 10
437.388102
 20
504.478131
 30
0.0
 11
437.177639
 21
504.688593
 31
0.0
  0
LINE
  5
5B
330
56
100
AcDbEntity
  8
LC-003-005-----0
  6
DASHED
 62
     7
370
    25
100
AcDbLine
 10
436.662864
 20
499.546514
 30
0.0
 11
433.578765
 21
502.630614
 31
0.0
  0
LINE
  5
5C
330
56
100
AcDbEntity
  8
LC-003-005-----0
  6
DASHED
 62
     7
370
    25
100
AcDbLine
 10
436.300245
 20
497.080706
 30
0.0
 11
433.216146
 21
500.164805
 31
0.0
  0
LINE
  5
5D
330
56
100
AcDbEntity
  8
LC-003-005-----0
 62
     7
370
    25
100
AcDbLine
 10
435.575008
 20
492.149089
 30
0.0
 11
432.490908
 21
495.233189
 31
0.0
  0
LINE
  5
5E
330
56
100
AcDbEntity
  8
LC-003-005-----0
 62
     7
370
    25
100
AcDbLine
 10
435.212389
 20
489.683281
 30
0.0
 11
432.128289
 21
492.767381
 31
0.0
  0
LINE
  5
5F
330
56
100
AcDbEntity
  8
LC-003-005-----0
  6
DASHED
 62
     7
370
    25
100
AcDbLine
 10
434.049749
 20
485.189067
 30
0.0
 11
431.403051
 21
487.835764
 31
0.0
  0
LINE
  5
60
330
56
100
AcDbEntity
  8
LC-003-005-----0
  6
DASHED
 62
     7
370
    25
100
AcDbLine
 10
432.197134
 20
484.213255
 30
0.0
 11
428.721795
 21
487.688593
 31
0.0
  0
LINE
  5
61
330
56
100
AcDbEntity
  8
LC-003-005-----0
 62
     7
370
    25
100
AcDbLine
 10
426.564941
 20
484.188593
 30
0.0
 11
423.064941
 21
487.688593
 31
0.0
  0
LINE
  5
62
330
56
100
AcDbEntity
  8
LC-003-005-----0
 62
     7
370
    25
100
AcDbLine
 10
423.736514
 20
484.188593
 30
0.0
 11
420.472244
 21
487.452863
 31
0.0
  0
LINE
  5
63
330
56
100
AcDbEntity
  8
LC-003-005-----0
  6
DASHED
 62
     7
370
    25
100
AcDbLine
 10
421.783463
 20
480.48479
 30
0.0
 11
418.545335
 21
483.722918
 31
0.0
  0
LINE
  5
64
330
56
100
AcDbEntity
  8
LC-003-005-----0
  6
DASHED
 62
     7
370
    25
100
AcDbLine
 10
421.562492
 20
477.877334
 30
0.0
 11
418.324364
 21
481.115462
 31
0.0
  0
LINE
  5
65
330
56
100
AcDbEntity
  8
LC-003-005-----0
 62
     7
370
    25
100
AcDbLine
 10
421.12055
 20
472.662421
 30
0.0
 11
417.882422
 21
475.900549
 31
0.0
  0
LINE
  5
66
330
56
100
AcDbEntity
  8
LC-003-005-----0
 62
     7
370
    25
100
AcDbLine
 10
420.899579
 20
470.054965
 30
0.0
 11
417.661451
 21
473.293093
 31
0.0
  0
LINE
  5
67
330
56
100
AcDbEntity
  8
LC-003-005-----0
  6
DASHED
 62
     7
370
    25
100
AcDbLine
 10
420.457637
 20
464.840053
 30
0.0
 11
417.219509
 21
468.078181
 31
0.0
  0
LINE
  5
68
330
56
100
AcDbEntity
  8
LC-003-005-----0
  6
DASHED
 62
     7
370
    25
100
AcDbLine
 10
420.236667
 20
462.232596
 30
0.0
 11
416.998538
 21
465.470724
 31
0.0
  0
LINE
  5
69
330
56
100
AcDbEntity
  8
LC-003-005-----0
 62
     7
370
    25
100
AcDbLine
 10
419.794725
 20
457.017684
 30
0.0
 11
416.49547
 21
460.316938
 31
0.0
  0
LINE
  5
6A
330
56
100
AcDbEntity
  8
LC-003-005-----0
 62
     7
370
    25
100
AcDbLine
 10
419.295388
 20
454.688593
 30
0.0
 11
415.29052
 21
458.693461
 31
0.0
  0
LINE
  5
6B
330
56
100
AcDbEntity
  8
LC-003-005-----0
  6
DASHED
 62
     7
370
    25
100
AcDbLine
 10
413.638534
 20
454.688593
 30
0.0
 11
410.138534
 21
458.188593
 31
0.0
  0
LINE
  5
6C
330
56
100
AcDbEntity
  8
LC-003-005-----0
  6
DASHED
 62
     7
370
    25
100
AcDbLine
 10
410.810107
 20
454.688593
 30
0.0
 11
406.310107
 21
459.188593
 31
0.0
  0
LINE
  5
6D
330
56
100
AcDbEntity
  8
LC-003-005-----0
 62
     7
370
    25
100
AcDbLine
 10
405.153253
 20
454.688593
 30
0.0
 11
401.381409
 21
458.460437
 31
0.0
  0
LINE
  5
6E
330
56
100
AcDbEntity
  8
LC-003-005-----0
 62
     7
370
    25
100
AcDbLine
 10
402.324826
 20
454.688593
 30
0.0
 11
398.824826
 21
458.188593
 31
0.0
  0
LINE
  5
6F
330
56
100
AcDbEntity
  8
LC-003-005-----0
  6
DASHED
 62
     7
370
    25
100
AcDbLine
 10
396.667971
 20
454.688593
 30
0.0
 11
393.167971
 21
458.188593
 31
0.0
  0
LINE
  5
70
330
56
100
AcDbEntity
  8
LC-003-005-----0
  6
DASHED
 62
     7
370
    25
100
AcDbLine
 10
393.839544
 20
454.688593
 30
0.0
 11
390.339544
 21
458.188593
 31
0.0
  0
LINE
  5
71
330
56
100
AcDbEntity
  8
LC-003-005-----0
 62
     7
370
    25
100
AcDbLine
 10
388.18269
 20
454.688593
 30
0.0
 11
384.68269
 21
458.188593
 31
0.0
  0
LINE
  5
72
330
56
100
AcDbEntity
  8
LC-003-005-----0
 62
     7
370
    25
100
AcDbLine
 10
385.354263
 20
454.688593
 30
0.0
 11
380.854263
 21
459.188593
 31
0.0
  0
LINE
  5
73
330
56
100
AcDbEntity
  8
LC-003-005-----0
  6
DASHED
 62
     7
370
    25
100
AcDbLine
 10
379.697409
 20
454.688593
 30
0.0
 11
376.197409
 21
458.188593
 31
0.0
  0
LINE
  5
74
330
56
100
AcDbEntity
  8
LC-003-005-----0
  6
DASHED
 62
     7
370
    25
100
AcDbLine
 10
376.868981
 20
454.688593
 30
0.0
 11
373.368981
 21
458.188593
 31
0.0
  0
LINE
  5
75
330
56
100
AcDbEntity
  8
LC-003-005-----0
 62
     7
370
    25
100
AcDbLine
 10
371.212127
 20
454.688593
 30
0.0
 11
367.712127
 21
458.188593
 31
0.0
  0
LINE
  5
76
330
56
100
AcDbEntity
  8
LC-003-005-----0
 62
     7
370
    25
100
AcDbLine
 10
368.3837
 20
454.688593
 30
0.0
 11
364.8837
 21
458.188593
 31
0.0
  0
LINE
  5
77
330
56
100
AcDbEntity
  8
LC-003-005-----0
  6
DASHED
 62
     7
370
    25
100
AcDbLine
 10
362.726846
 20
454.688593
 30
0.0
 11
361.381409
 21
456.03403
 31
0.0
  0
ENDBLK
  5
58
330
56
100
AcDbEntity
  8
0
100
AcDbBlockEnd
  0
BLOCK
  5
95
330
94
100
AcDbEntity
  8
0
100
AcDbBlockBegin
  2
*X22
 70
     1
 71
     0
 10
0.0
 20
0.0
 30
0.0
  3
*X22
  1

  4
*X2
  0
LINE
  5
97
330
94
100
AcDbEntity
  8
LC-003-005-----0
  6
DASHED
 62
     7
370
    25
100
AcDbLine
 10
668.196975
 20
454.688593
 30
0.0
 11
664.696975
 21
458.188593
 31
0.0
  0
LINE
  5
98
330
94
100
AcDbEntity
  8
LC-003-005-----0
  6
DASHED
 62
     7
370
    25
100
AcDbLine
 10
665.368548
 20
454.688593
 30
0.0
 11
661.868548
 21
458.188593
 31
0.0
  0
LINE
  5
99
330
94
100
AcDbEntity
  8
LC-003-005-----0
 62
     7
370
    25
100
AcDbLine
 10
659.711694
 20
454.688593
 30
0.0
 11
655.211694
 21
459.188593
 31
0.0
  0
LINE
  5
9A
330
94
100
AcDbEntity
  8
LC-003-005-----0
 62
     7
370
    25
100
AcDbLine
 10
656.883267
 20
454.688593
 30
0.0
 11
652.383267
 21
459.188593
 31
0.0
  0
LINE
  5
9B
330
94
100
AcDbEntity
  8
LC-003-005-----0
  6
DASHED
 62
     7
370
    25
100
AcDbLine
 10
651.226412
 20
454.688593
 30
0.0
 11
647.726412
 21
458.188593
 31
0.0
  0
LINE
  5
9C
330
94
100
AcDbEntity
  8
LC-003-005-----0
  6
DASHED
 62
     7
370
    25
100
AcDbLine
 10
648.397985
 20
454.688593
 30
0.0
 11
644.897985
 21
458.188593
 31
0.0
  0
LINE
  5
9D
330
94
100
AcDbEntity
  8
LC-003-005-----0
  6
DASHED
 62
     7
370
    25
100
AcDbLine
 10
598.964758
 20
504.121821
 30
0.0
 11
598.397985
 21
504.688593
 31
0.0
  0
LINE
  5
9E
330
94
100
AcDbEntity
  8
LC-003-005-----0
 62
     7
370
    25
100
AcDbLine
 10
642.741131
 20
454.688593
 30
0.0
 11
639.241131
 21
458.188593
 31
0.0
  0
LINE
  5
9F
330
94
100
AcDbEntity
  8
LC-003-005-----0
 62
     7
370
    25
100
AcDbLine
 10
614.264768
 20
483.164957
 30
0.0
 11
609.741131
 21
487.688593
 31
0.0
  0
LINE
  5
A0
330
94
100
AcDbEntity
  8
LC-003-005-----0
 62
     7
370
    25
100
AcDbLine
 10
599.940077
 20
497.489647
 30
0.0
 11
594.660686
 21
502.769039
 31
0.0
  0
LINE
  5
A1
330
94
100
AcDbEntity
  8
LC-003-005-----0
 62
     7
370
    25
100
AcDbLine
 10
639.912704
 20
454.688593
 30
0.0
 11
636.412704
 21
458.188593
 31
0.0
  0
LINE
  5
A2
330
94
100
AcDbEntity
  8
LC-003-005-----0
 62
     7
370
    25
100
AcDbLine
 10
614.526659
 20
480.074638
 30
0.0
 11
606.912704
 21
487.688593
 31
0.0
  0
LINE
  5
A3
330
94
100
AcDbEntity
  8
LC-003-005-----0
 62
     7
370
    25
100
AcDbLine
 10
600.427737
 20
494.17356
 30
0.0
 11
596.280155
 21
498.321142
 31
0.0
  0
LINE
  5
A4
330
94
100
AcDbEntity
  8
LC-003-005-----0
  6
DASHED
 62
     7
370
    25
100
AcDbLine
 10
634.25585
 20
454.688593
 30
0.0
 11
629.75585
 21
459.188593
 31
0.0
  0
LINE
  5
A5
330
94
100
AcDbEntity
  8
LC-003-005-----0
  6
DASHED
 62
     7
370
    25
100
AcDbLine
 10
615.050442
 20
473.894001
 30
0.0
 11
611.21266
 21
477.731783
 31
0.0
  0
LINE
  5
A6
330
94
100
AcDbEntity
  8
LC-003-005-----0
  6
DASHED
 62
     7
370
    25
100
AcDbLine
 10
604.75585
 20
484.188593
 30
0.0
 11
597.255475
 21
491.688968
 31
0.0
  0
LINE
  5
A7
330
94
100
AcDbEntity
  8
LC-003-005-----0
  6
DASHED
 62
     7
370
    25
100
AcDbLine
 10
595.87303
 20
493.071413
 30
0.0
 11
595.377138
 21
493.567305
 31
0.0
  0
LINE
  5
A8
330
94
100
AcDbEntity
  8
LC-003-005-----0
  6
DASHED
 62
     7
370
    25
100
AcDbLine
 10
631.427423
 20
454.688593
 30
0.0
 11
626.927423
 21
459.188593
 31
0.0
  0
LINE
  5
A9
330
94
100
AcDbEntity
  8
LC-003-005-----0
  6
DASHED
 62
     7
370
    25
100
AcDbLine
 10
615.312333
 20
470.803683
 30
0.0
 11
611.474552
 21
474.641464
 31
0.0
  0
LINE
  5
AA
330
94
100
AcDbEntity
  8
LC-003-005-----0
  6
DASHED
 62
     7
370
    25
100
AcDbLine
 10
601.927423
 20
484.188593
 30
0.0
 11
597.743135
 21
488.372881
 31
0.0
  0
LINE
  5
AB
330
94
100
AcDbEntity
  8
LC-003-005-----0
 62
     7
370
    25
100
AcDbLine
 10
625.770568
 20
454.688593
 30
0.0
 11
622.270568
 21
458.188593
 31
0.0
  0
LINE
  5
AC
330
94
100
AcDbEntity
  8
LC-003-005-----0
 62
     7
370
    25
100
AcDbLine
 10
615.836116
 20
464.623046
 30
0.0
 11
611.998335
 21
468.460827
 31
0.0
  0
LINE
  5
AD
330
94
100
AcDbEntity
  8
LC-003-005-----0
 62
     7
370
    25
100
AcDbLine
 10
622.942141
 20
454.688593
 30
0.0
 11
619.442141
 21
458.188593
 31
0.0
  0
LINE
  5
AE
330
94
100
AcDbEntity
  8
LC-003-005-----0
 62
     7
370
    25
100
AcDbLine
 10
616.098008
 20
461.532727
 30
0.0
 11
612.260226
 21
465.370508
 31
0.0
  0
LINE
  5
AF
330
94
100
AcDbEntity
  8
LC-003-005-----0
  6
DASHED
 62
     7
370
    25
100
AcDbLine
 10
617.285287
 20
454.688593
 30
0.0
 11
612.784009
 21
459.189871
 31
0.0
  0
LINE
  5
B0
330
94
100
AcDbEntity
  8
LC-003-005-----0
  6
DASHED
 62
     7
370
    25
100
AcDbLine
 10
614.45686
 20
454.688593
 30
0.0
 11
613.0459
 21
456.099553
 31
0.0
  0
ENDBLK
  5
96
330
94
100
AcDbEntity
  8
0
100
AcDbBlockEnd
  0
BLOCK
  5
B6
330
B5
100
AcDbEntity
  8
0
100
AcDbBlockBegin
  2
*X33
 70
     1
 71
     0
 10
0.0
 20
0.0
 30
0.0
  3
*X33
  1

  4
*X3
  0
LINE
  5
B8
330
B5
100
AcDbEntity
  8
LC-003-005-----0
 62
     7
370
    25
100
AcDbLine
 10
416.381409
 20
460.431
 30
0.0
 11
413.623815
 21
463.188593
 31
0.0
  0
LINE
  5
B9
330
B5
100
AcDbEntity
  8
LC-003-005-----0
 62
     7
370
    25
100
AcDbLine
 10
415.29052
 20
458.693461
 30
0.0
 11
410.795388
 21
463.188593
 31
0.0
  0
LINE
  5
BA
330
B5
100
AcDbEntity
  8
LC-003-005-----0
 62
     7
370
    25
100
AcDbLine
 10
412.966961
 20
458.188593
 30
0.0
 11
407.966961
 21
463.188593
 31
0.0
  0
LINE
  5
BB
330
B5
100
AcDbEntity
  8
LC-003-005-----0
 62
     7
370
    25
100
AcDbLine
 10
410.138534
 20
458.188593
 30
0.0
 11
405.138534
 21
463.188593
 31
0.0
  0
LINE
  5
BC
330
B5
100
AcDbEntity
  8
LC-003-005-----0
 62
     7
370
    25
100
AcDbLine
 10
406.310107
 20
459.188593
 30
0.0
 11
402.310107
 21
463.188593
 31
0.0
  0
LINE
  5
BD
330
B5
100
AcDbEntity
  8
LC-003-005-----0
 62
     7
370
    25
100
AcDbLine
 10
403.48168
 20
459.188593
 30
0.0
 11
399.48168
 21
463.188593
 31
0.0
  0
LINE
  5
BE
330
B5
100
AcDbEntity
  8
LC-003-005-----0
 62
     7
370
    25
100
AcDbLine
 10
401.381409
 20
458.460437
 30
0.0
 11
396.653253
 21
463.188593
 31
0.0
  0
LINE
  5
BF
330
B5
100
AcDbEntity
  8
LC-003-005-----0
 62
     7
370
    25
100
AcDbLine
 10
398.824826
 20
458.188593
 30
0.0
 11
393.824826
 21
463.188593
 31
0.0
  0
LINE
  5
C0
330
B5
100
AcDbEntity
  8
LC-003-005-----0
 62
     7
370
    25
100
AcDbLine
 10
395.996398
 20
458.188593
 30
0.0
 11
390.996398
 21
463.188593
 31
0.0
  0
LINE
  5
C1
330
B5
100
AcDbEntity
  8
LC-003-005-----0
 62
     7
370
    25
100
AcDbLine
 10
393.167971
 20
458.188593
 30
0.0
 11
388.167971
 21
463.188593
 31
0.0
  0
LINE
  5
C2
330
B5
100
AcDbEntity
  8
LC-003-005-----0
 62
     7
370
    25
100
AcDbLine
 10
390.339544
 20
458.188593
 30
0.0
 11
385.339544
 21
463.188593
 31
0.0
  0
LINE
  5
C3
330
B5
100
AcDbEntity
  8
LC-003-005-----0
 62
     7
370
    25
100
AcDbLine
 10
387.511117
 20
458.188593
 30
0.0
 11
382.511117
 21
463.188593
 31
0.0
  0
LINE
  5
C4
330
B5
100
AcDbEntity
  8
LC-003-005-----0
 62
     7
370
    25
100
AcDbLine
 10
384.68269
 20
458.188593
 30
0.0
 11
379.68269
 21
463.188593
 31
0.0
  0
LINE
  5
C5
330
B5
100
AcDbEntity
  8
LC-003-005-----0
 62
     7
370
    25
100
AcDbLine
 10
380.854263
 20
459.188593
 30
0.0
 11
376.854263
 21
463.188593
 31
0.0
  0
LINE
  5
C6
330
B5
100
AcDbEntity
  8
LC-003-005-----0
 62
     7
370
    25
100
AcDbLine
 10
378.025836
 20
459.188593
 30
0.0
 11
374.025836
 21
463.188593
 31
0.0
  0
LINE
  5
C7
330
B5
100
AcDbEntity
  8
LC-003-005-----0
 62
     7
370
    25
100
AcDbLine
 10
376.197409
 20
458.188593
 30
0.0
 11
371.197409
 21
463.188593
 31
0.0
  0
LINE
  5
C8
330
B5
100
AcDbEntity
  8
LC-003-005-----0
 62
     7
370
    25
100
AcDbLine
 10
373.368981
 20
458.188593
 30
0.0
 11
368.368981
 21
463.188593
 31
0.0
  0
LINE
  5
C9
330
B5
100
AcDbEntity
  8
LC-003-005-----0
 62
     7
370
    25
100
AcDbLine
 10
370.540554
 20
458.188593
 30
0.0
 11
365.540554
 21
463.188593
 31
0.0
  0
LINE
  5
CA
330
B5
100
AcDbEntity
  8
LC-003-005-----0
 62
     7
370
    25
100
AcDbLine
 10
367.712127
 20
458.188593
 30
0.0
 11
362.712127
 21
463.188593
 31
0.0
  0
LINE
  5
CB
330
B5
100
AcDbEntity
  8
LC-003-005-----0
 62
     7
370
    25
100
AcDbLine
 10
364.8837
 20
458.188593
 30
0.0
 11
359.8837
 21
463.188593
 31
0.0
  0
LINE
  5
CC
330
B5
100
AcDbEntity
  8
LC-003-005-----0
 62
     7
370
    25
100
AcDbLine
 10
362.055273
 20
458.188593
 30
0.0
 11
357.055273
 21
463.188593
 31
0.0
  0
LINE
  5
CD
330
B5
100
AcDbEntity
  8
LC-003-005-----0
 62
     7
370
    25
100
AcDbLine
 10
359.226846
 20
458.188593
 30
0.0
 11
354.226846
 21
463.188593
 31
0.0
  0
LINE
  5
CE
330
B5
100
AcDbEntity
  8
LC-003-005-----0
 62
     7
370
    25
100
AcDbLine
 10
356.398419
 20
458.188593
 30
0.0
 11
351.398419
 21
463.188593
 31
0.0
  0
LINE
  5
CF
330
B5
100
AcDbEntity
  8
LC-003-005-----0
 62
     7
370
    25
100
AcDbLine
 10
353.569992
 20
458.188593
 30
0.0
 11
348.569992
 21
463.188593
 31
0.0
  0
LINE
  5
D0
330
B5
100
AcDbEntity
  8
LC-003-005-----0
 62
     7
370
    25
100
AcDbLine
 10
350.741564
 20
458.188593
 30
0.0
 11
345.741564
 21
463.188593
 31
0.0
  0
LINE
  5
D1
330
B5
100
AcDbEntity
  8
LC-003-005-----0
 62
     7
370
    25
100
AcDbLine
 10
347.913137
 20
458.188593
 30
0.0
 11
342.913137
 21
463.188593
 31
0.0
  0
LINE
  5
D2
330
B5
100
AcDbEntity
  8
LC-003-005-----0
 62
     7
370
    25
100
AcDbLine
 10
345.08471
 20
458.188593
 30
0.0
 11
340.08471
 21
463.188593
 31
0.0
  0
LINE
  5
D3
330
B5
100
AcDbEntity
  8
LC-003-005-----0
 62
     7
370
    25
100
AcDbLine
 10
342.256283
 20
458.188593
 30
0.0
 11
337.256283
 21
463.188593
 31
0.0
  0
LINE
  5
D4
330
B5
100
AcDbEntity
  8
LC-003-005-----0
 62
     7
370
    25
100
AcDbLine
 10
339.427856
 20
458.188593
 30
0.0
 11
334.427856
 21
463.188593
 31
0.0
  0
LINE
  5
D5
330
B5
100
AcDbEntity
  8
LC-003-005-----0
 62
     7
370
    25
100
AcDbLine
 10
336.599429
 20
458.188593
 30
0.0
 11
331.599429
 21
463.188593
 31
0.0
  0
LINE
  5
D6
330
B5
100
AcDbEntity
  8
LC-003-005-----0
 62
     7
370
    25
100
AcDbLine
 10
333.771002
 20
458.188593
 30
0.0
 11
328.771002
 21
463.188593
 31
0.0
  0
LINE
  5
D7
330
B5
100
AcDbEntity
  8
LC-003-005-----0
 62
     7
370
    25
100
AcDbLine
 10
330.942575
 20
458.188593
 30
0.0
 11
325.942575
 21
463.188593
 31
0.0
  0
LINE
  5
D8
330
B5
100
AcDbEntity
  8
LC-003-005-----0
 62
     7
370
    25
100
AcDbLine
 10
328.114147
 20
458.188593
 30
0.0
 11
323.114147
 21
463.188593
 31
0.0
  0
LINE
  5
D9
330
B5
100
AcDbEntity
  8
LC-003-005-----0
 62
     7
370
    25
100
AcDbLine
 10
325.28572
 20
458.188593
 30
0.0
 11
320.28572
 21
463.188593
 31
0.0
  0
LINE
  5
DA
330
B5
100
AcDbEntity
  8
LC-003-005-----0
 62
     7
370
    25
100
AcDbLine
 10
322.457293
 20
458.188593
 30
0.0
 11
317.457293
 21
463.188593
 31
0.0
  0
LINE
  5
DB
330
B5
100
AcDbEntity
  8
LC-003-005-----0
 62
     7
370
    25
100
AcDbLine
 10
319.628866
 20
458.188593
 30
0.0
 11
314.628866
 21
463.188593
 31
0.0
  0
LINE
  5
DC
330
B5
100
AcDbEntity
  8
LC-003-005-----0
 62
     7
370
    25
100
AcDbLine
 10
316.800439
 20
458.188593
 30
0.0
 11
311.800439
 21
463.188593
 31
0.0
  0
LINE
  5
DD
330
B5
100
AcDbEntity
  8
LC-003-005-----0
 62
     7
370
    25
100
AcDbLine
 10
313.972012
 20
458.188593
 30
0.0
 11
308.972012
 21
463.188593
 31
0.0
  0
LINE
  5
DE
330
B5
100
AcDbEntity
  8
LC-003-005-----0
 62
     7
370
    25
100
AcDbLine
 10
311.143585
 20
458.188593
 30
0.0
 11
306.143585
 21
463.188593
 31
0.0
  0
LINE
  5
DF
330
B5
100
AcDbEntity
  8
LC-003-005-----0
 62
     7
370
    25
100
AcDbLine
 10
308.315158
 20
458.188593
 30
0.0
 11
303.315158
 21
463.188593
 31
0.0
  0
LINE
  5
E0
330
B5
100
AcDbEntity
  8
LC-003-005-----0
 62
     7
370
    25
100
AcDbLine
 10
305.48673
 20
458.188593
 30
0.0
 11
300.48673
 21
463.188593
 31
0.0
  0
LINE
  5
E1
330
B5
100
AcDbEntity
  8
LC-003-005-----0
 62
     7
370
    25
100
AcDbLine
 10
302.658303
 20
458.188593
 30
0.0
 11
297.658303
 21
463.188593
 31
0.0
  0
LINE
  5
E2
330
B5
100
AcDbEntity
  8
LC-003-005-----0
 62
     7
370
    25
100
AcDbLine
 10
299.829876
 20
458.188593
 30
0.0
 11
294.829876
 21
463.188593
 31
0.0
  0
LINE
  5
E3
330
B5
100
AcDbEntity
  8
LC-003-005-----0
 62
     7
370
    25
100
AcDbLine
 10
297.001449
 20
458.188593
 30
0.0
 11
292.001449
 21
463.188593
 31
0.0
  0
LINE
  5
E4
330
B5
100
AcDbEntity
  8
LC-003-005-----0
 62
     7
370
    25
100
AcDbLine
 10
294.173022
 20
458.188593
 30
0.0
 11
289.173022
 21
463.188593
 31
0.0
  0
LINE
  5
E5
330
B5
100
AcDbEntity
  8
LC-003-005-----0
 62
     7
370
    25
100
AcDbLine
 10
291.344595
 20
458.188593
 30
0.0
 11
286.344595
 21
463.188593
 31
0.0
  0
LINE
  5
E6
330
B5
100
AcDbEntity
  8
LC-003-005-----0
 62
     7
370
    25
100
AcDbLine
 10
288.516168
 20
458.188593
 30
0.0
 11
283.516168
 21
463.188593
 31
0.0
  0
LINE
  5
E7
330
B5
100
AcDbEntity
  8
LC-003-005-----0
 62
     7
370
    25
100
AcDbLine
 10
285.687741
 20
458.188593
 30
0.0
 11
280.687741
 21
463.188593
 31
0.0
  0
LINE
  5
E8
330
B5
100
AcDbEntity
  8
LC-003-005-----0
 62
     7
370
    25
100
AcDbLine
 10
282.859313
 20
458.188593
 30
0.0
 11
277.859313
 21
463.188593
 31
0.0
  0
LINE
  5
E9
330
B5
100
AcDbEntity
  8
LC-003-005-----0
 62
     7
370
    25
100
AcDbLine
 10
280.030886
 20
458.188593
 30
0.0
 11
275.030886
 21
463.188593
 31
0.0
  0
LINE
  5
EA
330
B5
100
AcDbEntity
  8
LC-003-005-----0
 62
     7
370
    25
100
AcDbLine
 10
277.202459
 20
458.188593
 30
0.0
 11
272.202459
 21
463.188593
 31
0.0
  0
LINE
  5
EB
330
B5
100
AcDbEntity
  8
LC-003-005-----0
 62
     7
370
    25
100
AcDbLine
 10
274.374032
 20
458.188593
 30
0.0
 11
269.374032
 21
463.188593
 31
0.0
  0
LINE
  5
EC
330
B5
100
AcDbEntity
  8
LC-003-005-----0
 62
     7
370
    25
100
AcDbLine
 10
271.545605
 20
458.188593
 30
0.0
 11
266.545605
 21
463.188593
 31
0.0
  0
LINE
  5
ED
330
B5
100
AcDbEntity
  8
LC-003-005-----0
 62
     7
370
    25
100
AcDbLine
 10
268.717178
 20
458.188593
 30
0.0
 11
266.381409
 21
460.524362
 31
0.0
  0
ENDBLK
  5
B7
330
B5
100
AcDbEntity
  8
0
100
AcDbBlockEnd
  0
BLOCK
  5
F0
330
EF
100
AcDbEntity
  8
0
100
AcDbBlockBegin
  2
*X44
 70
     1
 71
     0
 10
0.0
 20
0.0
 30
0.0
  3
*X44
  1

  4
*X4
  0
LINE
  5
F2
330
EF
100
AcDbEntity
  8
LC-003-005-----0
 62
     7
370
    25
100
AcDbLine
 10
766.381409
 20
461.155963
 30
0.0
 11
764.348779
 21
463.188593
 31
0.0
  0
LINE
  5
F3
330
EF
100
AcDbEntity
  8
LC-003-005-----0
 62
     7
370
    25
100
AcDbLine
 10
766.381409
 20
458.327536
 30
0.0
 11
761.520352
 21
463.188593
 31
0.0
  0
LINE
  5
F4
330
EF
100
AcDbEntity
  8
LC-003-005-----0
 62
     7
370
    25
100
AcDbLine
 10
763.691925
 20
458.188593
 30
0.0
 11
758.691925
 21
463.188593
 31
0.0
  0
LINE
  5
F5
330
EF
100
AcDbEntity
  8
LC-003-005-----0
 62
     7
370
    25
100
AcDbLine
 10
760.863497
 20
458.188593
 30
0.0
 11
755.863497
 21
463.188593
 31
0.0
  0
LINE
  5
F6
330
EF
100
AcDbEntity
  8
LC-003-005-----0
 62
     7
370
    25
100
AcDbLine
 10
758.03507
 20
458.188593
 30
0.0
 11
753.03507
 21
463.188593
 31
0.0
  0
LINE
  5
F7
330
EF
100
AcDbEntity
  8
LC-003-005-----0
 62
     7
370
    25
100
AcDbLine
 10
755.206643
 20
458.188593
 30
0.0
 11
750.206643
 21
463.188593
 31
0.0
  0
LINE
  5
F8
330
EF
100
AcDbEntity
  8
LC-003-005-----0
 62
     7
370
    25
100
AcDbLine
 10
752.378216
 20
458.188593
 30
0.0
 11
747.378216
 21
463.188593
 31
0.0
  0
LINE
  5
F9
330
EF
100
AcDbEntity
  8
LC-003-005-----0
 62
     7
370
    25
100
AcDbLine
 10
749.549789
 20
458.188593
 30
0.0
 11
744.549789
 21
463.188593
 31
0.0
  0
LINE
  5
FA
330
EF
100
AcDbEntity
  8
LC-003-005-----0
 62
     7
370
    25
100
AcDbLine
 10
746.721362
 20
458.188593
 30
0.0
 11
741.721362
 21
463.188593
 31
0.0
  0
LINE
  5
FB
330
EF
100
AcDbEntity
  8
LC-003-005-----0
 62
     7
370
    25
100
AcDbLine
 10
743.892935
 20
458.188593
 30
0.0
 11
738.892935
 21
463.188593
 31
0.0
  0
LINE
  5
FC
330
EF
100
AcDbEntity
  8
LC-003-005-----0
 62
     7
370
    25
100
AcDbLine
 10
741.064508
 20
458.188593
 30
0.0
 11
736.064508
 21
463.188593
 31
0.0
  0
LINE
  5
FD
330
EF
100
AcDbEntity
  8
LC-003-005-----0
 62
     7
370
    25
100
AcDbLine
 10
738.23608
 20
458.188593
 30
0.0
 11
733.23608
 21
463.188593
 31
0.0
  0
LINE
  5
FE
330
EF
100
AcDbEntity
  8
LC-003-005-----0
 62
     7
370
    25
100
AcDbLine
 10
735.407653
 20
458.188593
 30
0.0
 11
730.407653
 21
463.188593
 31
0.0
  0
LINE
  5
FF
330
EF
100
AcDbEntity
  8
LC-003-005-----0
 62
     7
370
    25
100
AcDbLine
 10
732.579226
 20
458.188593
 30
0.0
 11
727.579226
 21
463.188593
 31
0.0
  0
LINE
  5
100
330
EF
100
AcDbEntity
  8
LC-003-005-----0
 62
     7
370
    25
100
AcDbLine
 10
729.750799
 20
458.188593
 30
0.0
 11
724.750799
 21
463.188593
 31
0.0
  0
LINE
  5
101
330
EF
100
AcDbEntity
  8
LC-003-005-----0
 62
     7
370
    25
100
AcDbLine
 10
726.922372
 20
458.188593
 30
0.0
 11
721.922372
 21
463.188593
 31
0.0
  0
LINE
  5
102
330
EF
100
AcDbEntity
  8
LC-003-005-----0
 62
     7
370
    25
100
AcDbLine
 10
724.093945
 20
458.188593
 30
0.0
 11
719.093945
 21
463.188593
 31
0.0
  0
LINE
  5
103
330
EF
100
AcDbEntity
  8
LC-003-005-----0
 62
     7
370
    25
100
AcDbLine
 10
721.265518
 20
458.188593
 30
0.0
 11
716.265518
 21
463.188593
 31
0.0
  0
LINE
  5
104
330
EF
100
AcDbEntity
  8
LC-003-005-----0
 62
     7
370
    25
100
AcDbLine
 10
718.437091
 20
458.188593
 30
0.0
 11
713.437091
 21
463.188593
 31
0.0
  0
LINE
  5
105
330
EF
100
AcDbEntity
  8
LC-003-005-----0
 62
     7
370
    25
100
AcDbLine
 10
715.608663
 20
458.188593
 30
0.0
 11
710.608663
 21
463.188593
 31
0.0
  0
LINE
  5
106
330
EF
100
AcDbEntity
  8
LC-003-005-----0
 62
     7
370
    25
100
AcDbLine
 10
712.780236
 20
458.188593
 30
0.0
 11
707.780236
 21
463.188593
 31
0.0
  0
LINE
  5
107
330
EF
100
AcDbEntity
  8
LC-003-005-----0
 62
     7
370
    25
100
AcDbLine
 10
709.951809
 20
458.188593
 30
0.0
 11
704.951809
 21
463.188593
 31
0.0
  0
LINE
  5
108
330
EF
100
AcDbEntity
  8
LC-003-005-----0
 62
     7
370
    25
100
AcDbLine
 10
707.123382
 20
458.188593
 30
0.0
 11
702.123382
 21
463.188593
 31
0.0
  0
LINE
  5
109
330
EF
100
AcDbEntity
  8
LC-003-005-----0
 62
     7
370
    25
100
AcDbLine
 10
704.294955
 20
458.188593
 30
0.0
 11
699.294955
 21
463.188593
 31
0.0
  0
LINE
  5
10A
330
EF
100
AcDbEntity
  8
LC-003-005-----0
 62
     7
370
    25
100
AcDbLine
 10
701.466528
 20
458.188593
 30
0.0
 11
696.466528
 21
463.188593
 31
0.0
  0
LINE
  5
10B
330
EF
100
AcDbEntity
  8
LC-003-005-----0
 62
     7
370
    25
100
AcDbLine
 10
698.638101
 20
458.188593
 30
0.0
 11
693.638101
 21
463.188593
 31
0.0
  0
LINE
  5
10C
330
EF
100
AcDbEntity
  8
LC-003-005-----0
 62
     7
370
    25
100
AcDbLine
 10
695.809674
 20
458.188593
 30
0.0
 11
690.809674
 21
463.188593
 31
0.0
  0
LINE
  5
10D
330
EF
100
AcDbEntity
  8
LC-003-005-----0
 62
     7
370
    25
100
AcDbLine
 10
692.981246
 20
458.188593
 30
0.0
 11
687.981246
 21
463.188593
 31
0.0
  0
LINE
  5
10E
330
EF
100
AcDbEntity
  8
LC-003-005-----0
 62
     7
370
    25
100
AcDbLine
 10
690.152819
 20
458.188593
 30
0.0
 11
685.152819
 21
463.188593
 31
0.0
  0
LINE
  5
10F
330
EF
100
AcDbEntity
  8
LC-003-005-----0
 62
     7
370
    25
100
AcDbLine
 10
687.324392
 20
458.188593
 30
0.0
 11
682.324392
 21
463.188593
 31
0.0
  0
LINE
  5
110
330
EF
100
AcDbEntity
  8
LC-003-005-----0
 62
     7
370
    25
100
AcDbLine
 10
684.495965
 20
458.188593
 30
0.0
 11
679.495965
 21
463.188593
 31
0.0
  0
LINE
  5
111
330
EF
100
AcDbEntity
  8
LC-003-005-----0
 62
     7
370
    25
100
AcDbLine
 10
681.667538
 20
458.188593
 30
0.0
 11
676.667538
 21
463.188593
 31
0.0
  0
LINE
  5
112
330
EF
100
AcDbEntity
  8
LC-003-005-----0
 62
     7
370
    25
100
AcDbLine
 10
678.839111
 20
458.188593
 30
0.0
 11
673.839111
 21
463.188593
 31
0.0
  0
LINE
  5
113
330
EF
100
AcDbEntity
  8
LC-003-005-----0
 62
     7
370
    25
100
AcDbLine
 10
676.010684
 20
458.188593
 30
0.0
 11
671.010684
 21
463.188593
 31
0.0
  0
LINE
  5
114
330
EF
100
AcDbEntity
  8
LC-003-005-----0
 62
     7
370
    25
100
AcDbLine
 10
673.182257
 20
458.188593
 30
0.0
 11
668.182257
 21
463.188593
 31
0.0
  0
LINE
  5
115
330
EF
100
AcDbEntity
  8
LC-003-005-----0
 62
     7
370
    25
100
AcDbLine
 10
670.353829
 20
458.188593
 30
0.0
 11
665.353829
 21
463.188593
 31
0.0
  0
LINE
  5
116
330
EF
100
AcDbEntity
  8
LC-003-005-----0
 62
     7
370
    25
100
AcDbLine
 10
667.525402
 20
458.188593
 30
0.0
 11
662.525402
 21
463.188593
 31
0.0
  0
LINE
  5
117
330
EF
100
AcDbEntity
  8
LC-003-005-----0
 62
     7
370
    25
100
AcDbLine
 10
664.696975
 20
458.188593
 30
0.0
 11
659.696975
 21
463.188593
 31
0.0
  0
LINE
  5
118
330
EF
100
AcDbEntity
  8
LC-003-005-----0
 62
     7
370
    25
100
AcDbLine
 10
661.868548
 20
458.188593
 30
0.0
 11
656.868548
 21
463.188593
 31
0.0
  0
LINE
  5
119
330
EF
100
AcDbEntity
  8
LC-003-005-----0
 62
     7
370
    25
100
AcDbLine
 10
659.040121
 20
458.188593
 30
0.0
 11
654.040121
 21
463.188593
 31
0.0
  0
LINE
  5
11A
330
EF
100
AcDbEntity
  8
LC-003-005-----0
 62
     7
370
    25
100
AcDbLine
 10
655.211694
 20
459.188593
 30
0.0
 11
651.211694
 21
463.188593
 31
0.0
  0
LINE
  5
11B
330
EF
100
AcDbEntity
  8
LC-003-005-----0
 62
     7
370
    25
100
AcDbLine
 10
652.383267
 20
459.188593
 30
0.0
 11
648.383267
 21
463.188593
 31
0.0
  0
LINE
  5
11C
330
EF
100
AcDbEntity
  8
LC-003-005-----0
 62
     7
370
    25
100
AcDbLine
 10
650.381409
 20
458.362024
 30
0.0
 11
645.55484
 21
463.188593
 31
0.0
  0
LINE
  5
11D
330
EF
100
AcDbEntity
  8
LC-003-005-----0
 62
     7
370
    25
100
AcDbLine
 10
647.726412
 20
458.188593
 30
0.0
 11
642.726412
 21
463.188593
 31
0.0
  0
LINE
  5
11E
330
EF
100
AcDbEntity
  8
LC-003-005-----0
 62
     7
370
    25
100
AcDbLine
 10
644.897985
 20
458.188593
 30
0.0
 11
639.897985
 21
463.188593
 31
0.0
  0
LINE
  5
11F
330
EF
100
AcDbEntity
  8
LC-003-005-----0
 62
     7
370
    25
100
AcDbLine
 10
642.069558
 20
458.188593
 30
0.0
 11
637.069558
 21
463.188593
 31
0.0
  0
LINE
  5
120
330
EF
100
AcDbEntity
  8
LC-003-005-----0
 62
     7
370
    25
100
AcDbLine
 10
639.241131
 20
458.188593
 30
0.0
 11
634.241131
 21
463.188593
 31
0.0
  0
LINE
  5
121
330
EF
100
AcDbEntity
  8
LC-003-005-----0
 62
     7
370
    25
100
AcDbLine
 10
636.412704
 20
458.188593
 30
0.0
 11
631.412704
 21
463.188593
 31
0.0
  0
LINE
  5
122
330
EF
100
AcDbEntity
  8
LC-003-005-----0
 62
     7
370
    25
100
AcDbLine
 10
633.584277
 20
458.188593
 30
0.0
 11
628.584277
 21
463.188593
 31
0.0
  0
LINE
  5
123
330
EF
100
AcDbEntity
  8
LC-003-005-----0
 62
     7
370
    25
100
AcDbLine
 10
629.75585
 20
459.188593
 30
0.0
 11
625.75585
 21
463.188593
 31
0.0
  0
LINE
  5
124
330
EF
100
AcDbEntity
  8
LC-003-005-----0
 62
     7
370
    25
100
AcDbLine
 10
626.927423
 20
459.188593
 30
0.0
 11
622.927423
 21
463.188593
 31
0.0
  0
LINE
  5
125
330
EF
100
AcDbEntity
  8
LC-003-005-----0
 62
     7
370
    25
100
AcDbLine
 10
625.098995
 20
458.188593
 30
0.0
 11
620.098995
 21
463.188593
 31
0.0
  0
LINE
  5
126
330
EF
100
AcDbEntity
  8
LC-003-005-----0
 62
     7
370
    25
100
AcDbLine
 10
622.270568
 20
458.188593
 30
0.0
 11
617.270568
 21
463.188593
 31
0.0
  0
LINE
  5
127
330
EF
100
AcDbEntity
  8
LC-003-005-----0
 62
     7
370
    25
100
AcDbLine
 10
619.442141
 20
458.188593
 30
0.0
 11
616.381409
 21
461.249326
 31
0.0
  0
ENDBLK
  5
F1
330
EF
100
AcDbEntity
  8
0
100
AcDbBlockEnd
  0
BLOCK
  5
12A
330
129
100
AcDbEntity
  8
0
100
AcDbBlockBegin
  2
*X55
 70
     1
 71
     0
 10
0.0
 20
0.0
 30
0.0
  3
*X55
  1

  4
*X5
  0
LINE
  5
12C
330
129
100
AcDbEntity
  8
LC-003-005-----0
 62
     7
370
    25
100
AcDbLine
 10
437.388102
 20
504.478131
 30
0.0
 11
437.177639
 21
504.688593
 31
0.0
  0
LINE
  5
12D
330
129
100
AcDbEntity
  8
LC-003-005-----0
  6
DASHED
 62
     7
370
    25
100
AcDbLine
 10
436.662864
 20
499.546514
 30
0.0
 11
433.578765
 21
502.630614
 31
0.0
  0
LINE
  5
12E
330
129
100
AcDbEntity
  8
LC-003-005-----0
  6
DASHED
 62
     7
370
    25
100
AcDbLine
 10
436.300245
 20
497.080706
 30
0.0
 11
433.216146
 21
500.164805
 31
0.0
  0
LINE
  5
12F
330
129
100
AcDbEntity
  8
LC-003-005-----0
 62
     7
370
    25
100
AcDbLine
 10
435.575008
 20
492.149089
 30
0.0
 11
432.490908
 21
495.233189
 31
0.0
  0
LINE
  5
130
330
129
100
AcDbEntity
  8
LC-003-005-----0
 62
     7
370
    25
100
AcDbLine
 10
435.212389
 20
489.683281
 30
0.0
 11
432.128289
 21
492.767381
 31
0.0
  0
LINE
  5
131
330
129
100
AcDbEntity
  8
LC-003-005-----0
  6
DASHED
 62
     7
370
    25
100
AcDbLine
 10
434.049749
 20
485.189067
 30
0.0
 11
431.403051
 21
487.835764
 31
0.0
  0
LINE
  5
132
330
129
100
AcDbEntity
  8
LC-003-005-----0
  6
DASHED
 62
     7
370
    25
100
AcDbLine
 10
432.197134
 20
484.213255
 30
0.0
 11
428.721795
 21
487.688593
 31
0.0
  0
LINE
  5
133
330
129
100
AcDbEntity
  8
LC-003-005-----0
 62
     7
370
    25
100
AcDbLine
 10
426.564941
 20
484.188593
 30
0.0
 11
423.064941
 21
487.688593
 31
0.0
  0
LINE
  5
134
330
129
100
AcDbEntity
  8
LC-003-005-----0
 62
     7
370
    25
100
AcDbLine
 10
423.736514
 20
484.188593
 30
0.0
 11
420.472244
 21
487.452863
 31
0.0
  0
LINE
  5
135
330
129
100
AcDbEntity
  8
LC-003-005-----0
  6
DASHED
 62
     7
370
    25
100
AcDbLine
 10
421.783463
 20
480.48479
 30
0.0
 11
418.545335
 21
483.722918
 31
0.0
  0
LINE
  5
136
330
129
100
AcDbEntity
  8
LC-003-005-----0
  6
DASHED
 62
     7
370
    25
100
AcDbLine
 10
421.562492
 20
477.877334
 30
0.0
 11
418.324364
 21
481.115462
 31
0.0
  0
LINE
  5
137
330
129
100
AcDbEntity
  8
LC-003-005-----0
 62
     7
370
    25
100
AcDbLine
 10
421.12055
 20
472.662421
 30
0.0
 11
417.882422
 21
475.900549
 31
0.0
  0
LINE
  5
138
330
129
100
AcDbEntity
  8
LC-003-005-----0
 62
     7
370
    25
100
AcDbLine
 10
420.899579
 20
470.054965
 30
0.0
 11
417.661451
 21
473.293093
 31
0.0
  0
LINE
  5
139
330
129
100
AcDbEntity
  8
LC-003-005-----0
  6
DASHED
 62
     7
370
    25
100
AcDbLine
 10
420.457637
 20
464.840053
 30
0.0
 11
417.219509
 21
468.078181
 31
0.0
  0
LINE
  5
13A
330
129
100
AcDbEntity
  8
LC-003-005-----0
  6
DASHED
 62
     7
370
    25
100
AcDbLine
 10
420.236667
 20
462.232596
 30
0.0
 11
416.998538
 21
465.470724
 31
0.0
  0
LINE
  5
13B
330
129
100
AcDbEntity
  8
LC-003-005-----0
 62
     7
370
    25
100
AcDbLine
 10
419.794725
 20
457.017684
 30
0.0
 11
416.49547
 21
460.316938
 31
0.0
  0
LINE
  5
13C
330
129
100
AcDbEntity
  8
LC-003-005-----0
 62
     7
370
    25
100
AcDbLine
 10
419.295388
 20
454.688593
 30
0.0
 11
415.29052
 21
458.693461
 31
0.0
  0
LINE
  5
13D
330
129
100
AcDbEntity
  8
LC-003-005-----0
  6
DASHED
 62
     7
370
    25
100
AcDbLine
 10
413.638534
 20
454.688593
 30
0.0
 11
410.138534
 21
458.188593
 31
0.0
  0
LINE
  5
13E
330
129
100
AcDbEntity
  8
LC-003-005-----0
  6
DASHED
 62
     7
370
    25
100
AcDbLine
 10
410.810107
 20
454.688593
 30
0.0
 11
406.310107
 21
459.188593
 31
0.0
  0
LINE
  5
13F
330
129
100
AcDbEntity
  8
LC-003-005-----0
 62
     7
370
    25
100
AcDbLine
 10
405.153253
 20
454.688593
 30
0.0
 11
401.381409
 21
458.460437
 31
0.0
  0
LINE
  5
140
330
129
100
AcDbEntity
  8
LC-003-005-----0
 62
     7
370
    25
100
AcDbLine
 10
402.324826
 20
454.688593
 30
0.0
 11
398.824826
 21
458.188593
 31
0.0
  0
LINE
  5
141
330
129
100
AcDbEntity
  8
LC-003-005-----0
  6
DASHED
 62
     7
370
    25
100
AcDbLine
 10
396.667971
 20
454.688593
 30
0.0
 11
393.167971
 21
458.188593
 31
0.0
  0
LINE
  5
142
330
129
100
AcDbEntity
  8
LC-003-005-----0
  6
DASHED
 62
     7
370
    25
100
AcDbLine
 10
393.839544
 20
454.688593
 30
0.0
 11
390.339544
 21
458.188593
 31
0.0
  0
LINE
  5
143
330
129
100
AcDbEntity
  8
LC-003-005-----0
 62
     7
370
    25
100
AcDbLine
 10
388.18269
 20
454.688593
 30
0.0
 11
384.68269
 21
458.188593
 31
0.0
  0
LINE
  5
144
330
129
100
AcDbEntity
  8
LC-003-005-----0
 62
     7
370
    25
100
AcDbLine
 10
385.354263
 20
454.688593
 30
0.0
 11
380.854263
 21
459.188593
 31
0.0
  0
LINE
  5
145
330
129
100
AcDbEntity
  8
LC-003-005-----0
  6
DASHED
 62
     7
370
    25
100
AcDbLine
 10
379.697409
 20
454.688593
 30
0.0
 11
376.197409
 21
458.188593
 31
0.0
  0
LINE
  5
146
330
129
100
AcDbEntity
  8
LC-003-005-----0
  6
DASHED
 62
     7
370
    25
100
AcDbLine
 10
376.868981
 20
454.688593
 30
0.0
 11
373.368981
 21
458.188593
 31
0.0
  0
LINE
  5
147
330
129
100
AcDbEntity
  8
LC-003-005-----0
 62
     7
370
    25
100
AcDbLine
 10
371.212127
 20
454.688593
 30
0.0
 11
367.712127
 21
458.188593
 31
0.0
  0
LINE
  5
148
330
129
100
AcDbEntity
  8
LC-003-005-----0
 62
     7
370
    25
100
AcDbLine
 10
368.3837
 20
454.688593
 30
0.0
 11
364.8837
 21
458.188593
 31
0.0
  0
LINE
  5
149
330
129
100
AcDbEntity
  8
LC-003-005-----0
  6
DASHED
 62
     7
370
    25
100
AcDbLine
 10
362.726846
 20
454.688593
 30
0.0
 11
361.381409
 21
456.03403
 31
0.0
  0
ENDBLK
  5
12B
330
129
100
AcDbEntity
  8
0
100
AcDbBlockEnd
  0
BLOCK
  5
18D
330
18C
100
AcDbEntity
  8
0
100
AcDbBlockBegin
  2
*X66
 70
     1
 71
     0
 10
0.0
 20
0.0
 30
0.0
  3
*X66
  1

  4
*X6
  0
LINE
  5
18F
330
18C
100
AcDbEntity
  8
LC-003-005-----0
 62
     7
370
    25
100
AcDbLine
 10
438.356409
 20
388.958525
 30
0.0
 11
440.219929
 21
387.095004
 31
0.0
  0
LINE
  5
190
330
18C
100
AcDbEntity
  8
LC-003-005-----0
 62
     7
370
    25
100
AcDbLine
 10
438.356409
 20
393.201166
 30
0.0
 11
440.219929
 21
391.337645
 31
0.0
  0
LINE
  5
191
330
18C
100
AcDbEntity
  8
LC-003-005-----0
 62
     7
370
    25
100
AcDbLine
 10
438.356409
 20
397.443807
 30
0.0
 11
440.219929
 21
395.580286
 31
0.0
  0
LINE
  5
192
330
18C
100
AcDbEntity
  8
LC-003-005-----0
 62
     7
370
    25
100
AcDbLine
 10
438.356409
 20
401.686447
 30
0.0
 11
440.219929
 21
399.822927
 31
0.0
  0
LINE
  5
193
330
18C
100
AcDbEntity
  8
LC-003-005-----0
 62
     7
370
    25
100
AcDbLine
 10
438.356409
 20
405.929088
 30
0.0
 11
440.219929
 21
404.065567
 31
0.0
  0
LINE
  5
194
330
18C
100
AcDbEntity
  8
LC-003-005-----0
 62
     7
370
    25
100
AcDbLine
 10
438.356409
 20
410.171729
 30
0.0
 11
440.219929
 21
408.308208
 31
0.0
  0
LINE
  5
195
330
18C
100
AcDbEntity
  8
LC-003-005-----0
 62
     7
370
    25
100
AcDbLine
 10
438.356409
 20
414.414369
 30
0.0
 11
440.219929
 21
412.550849
 31
0.0
  0
LINE
  5
196
330
18C
100
AcDbEntity
  8
LC-003-005-----0
 62
     7
370
    25
100
AcDbLine
 10
437.544475
 20
419.468944
 30
0.0
 11
440.090268
 21
416.923151
 31
0.0
  0
LINE
  5
197
330
18C
100
AcDbEntity
  8
LC-003-005-----0
 62
     7
370
    25
100
AcDbLine
 10
436.306409
 20
424.949651
 30
0.0
 11
438.536952
 21
422.719108
 31
0.0
  0
LINE
  5
198
330
18C
100
AcDbEntity
  8
LC-003-005-----0
 62
     7
370
    25
100
AcDbLine
 10
436.306409
 20
429.192291
 30
0.0
 11
438.106409
 21
427.392291
 31
0.0
  0
LINE
  5
199
330
18C
100
AcDbEntity
  8
LC-003-005-----0
 62
     7
370
    25
100
AcDbLine
 10
436.306409
 20
433.434932
 30
0.0
 11
438.106409
 21
431.634932
 31
0.0
  0
LINE
  5
19A
330
18C
100
AcDbEntity
  8
LC-003-005-----0
 62
     7
370
    25
100
AcDbLine
 10
436.306409
 20
437.677573
 30
0.0
 11
438.106409
 21
435.877573
 31
0.0
  0
LINE
  5
19B
330
18C
100
AcDbEntity
  8
LC-003-005-----0
 62
     7
370
    25
100
AcDbLine
 10
436.306409
 20
441.920214
 30
0.0
 11
438.106409
 21
440.120214
 31
0.0
  0
LINE
  5
19C
330
18C
100
AcDbEntity
  8
LC-003-005-----0
 62
     7
370
    25
100
AcDbLine
 10
436.306409
 20
446.162854
 30
0.0
 11
438.106409
 21
444.362854
 31
0.0
  0
LINE
  5
19D
330
18C
100
AcDbEntity
  8
LC-003-005-----0
 62
     7
370
    25
100
AcDbLine
 10
436.306409
 20
450.405495
 30
0.0
 11
438.106409
 21
448.605495
 31
0.0
  0
LINE
  5
19E
330
18C
100
AcDbEntity
  8
LC-003-005-----0
 62
     7
370
    25
100
AcDbLine
 10
436.306409
 20
454.648136
 30
0.0
 11
438.106409
 21
452.848136
 31
0.0
  0
LINE
  5
19F
330
18C
100
AcDbEntity
  8
LC-003-005-----0
 62
     7
370
    25
100
AcDbLine
 10
431.656409
 20
463.540776
 30
0.0
 11
433.108592
 21
462.088593
 31
0.0
  0
LINE
  5
1A0
330
18C
100
AcDbEntity
  8
LC-003-005-----0
 62
     7
370
    25
100
AcDbLine
 10
436.306409
 20
458.890776
 30
0.0
 11
438.106409
 21
457.090776
 31
0.0
  0
LINE
  5
1A1
330
18C
100
AcDbEntity
  8
LC-003-005-----0
 62
     7
370
    25
100
AcDbLine
 10
431.656409
 20
467.783417
 30
0.0
 11
433.456409
 21
465.983417
 31
0.0
  0
LINE
  5
1A2
330
18C
100
AcDbEntity
  8
LC-003-005-----0
 62
     7
370
    25
100
AcDbLine
 10
435.551232
 20
463.888593
 30
0.0
 11
438.106409
 21
461.333417
 31
0.0
  0
LINE
  5
1A3
330
18C
100
AcDbEntity
  8
LC-003-005-----0
 62
     7
370
    25
100
AcDbLine
 10
431.656409
 20
472.026058
 30
0.0
 11
433.456409
 21
470.226058
 31
0.0
  0
LINE
  5
1A4
330
18C
100
AcDbEntity
  8
LC-003-005-----0
 62
     7
370
    25
100
AcDbLine
 10
431.736514
 20
476.188593
 30
0.0
 11
433.536514
 21
474.388593
 31
0.0
  0
LINE
  5
1A5
330
18C
100
AcDbEntity
  8
LC-003-005-----0
 62
     7
370
    25
100
AcDbLine
 10
435.979154
 20
476.188593
 30
0.0
 11
437.779154
 21
474.388593
 31
0.0
  0
LINE
  5
1A6
330
18C
100
AcDbEntity
  8
LC-003-005-----0
 62
     7
370
    25
100
AcDbLine
 10
436.721795
 20
479.688593
 30
0.0
 11
438.106409
 21
478.30398
 31
0.0
  0
ENDBLK
  5
18E
330
18C
100
AcDbEntity
  8
0
100
AcDbBlockEnd
  0
BLOCK
  5
1A9
330
1A8
100
AcDbEntity
  8
0
100
AcDbBlockBegin
  2
*X77
 70
     1
 71
     0
 10
0.0
 20
0.0
 30
0.0
  3
*X77
  1

  4
*X7
  0
LINE
  5
1AB
330
1A8
100
AcDbEntity
  8
LC-003-005-----0
 62
     7
370
    25
100
AcDbLine
 10
592.881575
 20
387.168423
 30
0.0
 11
593.289684
 21
386.760315
 31
0.0
  0
LINE
  5
1AC
330
1A8
100
AcDbEntity
  8
LC-003-005-----0
 62
     7
370
    25
100
AcDbLine
 10
592.881567
 20
391.411073
 30
0.0
 11
594.745091
 21
389.547548
 31
0.0
  0
LINE
  5
1AD
330
1A8
100
AcDbEntity
  8
LC-003-005-----0
 62
     7
370
    25
100
AcDbLine
 10
592.881558
 20
395.653722
 30
0.0
 11
594.745083
 21
393.790197
 31
0.0
  0
LINE
  5
1AE
330
1A8
100
AcDbEntity
  8
LC-003-005-----0
 62
     7
370
    25
100
AcDbLine
 10
592.881549
 20
399.896371
 30
0.0
 11
594.745074
 21
398.032847
 31
0.0
  0
LINE
  5
1AF
330
1A8
100
AcDbEntity
  8
LC-003-005-----0
 62
     7
370
    25
100
AcDbLine
 10
592.881541
 20
404.139021
 30
0.0
 11
594.745065
 21
402.275496
 31
0.0
  0
LINE
  5
1B0
330
1A8
100
AcDbEntity
  8
LC-003-005-----0
 62
     7
370
    25
100
AcDbLine
 10
592.881532
 20
408.38167
 30
0.0
 11
594.745057
 21
406.518145
 31
0.0
  0
LINE
  5
1B1
330
1A8
100
AcDbEntity
  8
LC-003-005-----0
 62
     7
370
    25
100
AcDbLine
 10
592.881524
 20
412.624319
 30
0.0
 11
594.745048
 21
410.760795
 31
0.0
  0
LINE
  5
1B2
330
1A8
100
AcDbEntity
  8
LC-003-005-----0
 62
     7
370
    25
100
AcDbLine
 10
593.013805
 20
416.734678
 30
0.0
 11
594.745039
 21
415.003444
 31
0.0
  0
LINE
  5
1B3
330
1A8
100
AcDbEntity
  8
LC-003-005-----0
 62
     7
370
    25
100
AcDbLine
 10
593.910509
 20
420.080615
 30
0.0
 11
595.380165
 21
418.61096
 31
0.0
  0
LINE
  5
1B4
330
1A8
100
AcDbEntity
  8
LC-003-005-----0
 62
     7
370
    25
100
AcDbLine
 10
594.807213
 20
423.426552
 30
0.0
 11
596.276868
 21
421.956897
 31
0.0
  0
LINE
  5
1B5
330
1A8
100
AcDbEntity
  8
LC-003-005-----0
 62
     7
370
    25
100
AcDbLine
 10
594.995015
 20
427.48139
 30
0.0
 11
596.795018
 21
425.681387
 31
0.0
  0
LINE
  5
1B6
330
1A8
100
AcDbEntity
  8
LC-003-005-----0
 62
     7
370
    25
100
AcDbLine
 10
594.995009
 20
431.724038
 30
0.0
 11
596.795012
 21
429.924035
 31
0.0
  0
LINE
  5
1B7
330
1A8
100
AcDbEntity
  8
LC-003-005-----0
 62
     7
370
    25
100
AcDbLine
 10
594.995002
 20
435.966685
 30
0.0
 11
596.795005
 21
434.166682
 31
0.0
  0
LINE
  5
1B8
330
1A8
100
AcDbEntity
  8
LC-003-005-----0
 62
     7
370
    25
100
AcDbLine
 10
594.994995
 20
440.209333
 30
0.0
 11
596.794998
 21
438.40933
 31
0.0
  0
LINE
  5
1B9
330
1A8
100
AcDbEntity
  8
LC-003-005-----0
 62
     7
370
    25
100
AcDbLine
 10
594.994988
 20
444.451981
 30
0.0
 11
596.794991
 21
442.651977
 31
0.0
  0
LINE
  5
1BA
330
1A8
100
AcDbEntity
  8
LC-003-005-----0
 62
     7
370
    25
100
AcDbLine
 10
594.994981
 20
448.694628
 30
0.0
 11
596.794984
 21
446.894625
 31
0.0
  0
LINE
  5
1BB
330
1A8
100
AcDbEntity
  8
LC-003-005-----0
 62
     7
370
    25
100
AcDbLine
 10
594.994974
 20
452.937276
 30
0.0
 11
596.794978
 21
451.137272
 31
0.0
  0
LINE
  5
1BC
330
1A8
100
AcDbEntity
  8
LC-003-005-----0
 62
     7
370
    25
100
AcDbLine
 10
594.994967
 20
457.179923
 30
0.0
 11
596.794971
 21
455.37992
 31
0.0
  0
LINE
  5
1BD
330
1A8
100
AcDbEntity
  8
LC-003-005-----0
 62
     7
370
    25
100
AcDbLine
 10
594.99496
 20
461.422571
 30
0.0
 11
596.794964
 21
459.622567
 31
0.0
  0
LINE
  5
1BE
330
1A8
100
AcDbEntity
  8
LC-003-005-----0
 62
     7
370
    25
100
AcDbLine
 10
596.969852
 20
463.690319
 30
0.0
 11
598.769849
 21
461.890323
 31
0.0
  0
LINE
  5
1BF
330
1A8
100
AcDbEntity
  8
LC-003-005-----0
 62
     7
370
    25
100
AcDbLine
 10
599.644953
 20
465.257859
 30
0.0
 11
601.444957
 21
463.457855
 31
0.0
  0
LINE
  5
1C0
330
1A8
100
AcDbEntity
  8
LC-003-005-----0
 62
     7
370
    25
100
AcDbLine
 10
599.644945
 20
469.500508
 30
0.0
 11
601.444948
 21
467.700505
 31
0.0
  0
LINE
  5
1C1
330
1A8
100
AcDbEntity
  8
LC-003-005-----0
 62
     7
370
    25
100
AcDbLine
 10
594.994927
 20
478.393167
 30
0.0
 11
596.79493
 21
476.593164
 31
0.0
  0
LINE
  5
1C2
330
1A8
100
AcDbEntity
  8
LC-003-005-----0
 62
     7
370
    25
100
AcDbLine
 10
597.397774
 20
475.99032
 30
0.0
 11
599.19777
 21
474.190324
 31
0.0
  0
LINE
  5
1C3
330
1A8
100
AcDbEntity
  8
LC-003-005-----0
 62
     7
370
    25
100
AcDbLine
 10
599.644936
 20
473.743158
 30
0.0
 11
601.44494
 21
471.943154
 31
0.0
  0
ENDBLK
  5
1AA
330
1A8
100
AcDbEntity
  8
0
100
AcDbBlockEnd
  0
BLOCK
  5
1DC
330
1D2
100
AcDbEntity
  8
0
100
AcDbBlockBegin
  2
*D8
 70
     1
 71
     0
 10
0.0
 20
0.0
 30
0.0
  3
*D8
  1

  0
LINE
  5
1D3
330
1D2
100
AcDbEntity
  8
LC-005-003-----0
 62
     2
370
    -2
100
AcDbLine
 10
438.856409
 20
551.942392
 30
0.0
 11
438.856409
 21
574.836806
 31
0.0
  0
LINE
  5
1D4
330
1D2
100
AcDbEntity
  8
LC-005-003-----0
 62
     2
370
    -2
100
AcDbLine
 10
594.245863
 20
551.744869
 30
0.0
 11
594.245863
 21
574.836806
 31
0.0
  0
LINE
  5
1D5
330
1D2
100
AcDbEntity
  8
LC-005-003-----0
 62
     2
370
    -2
100
AcDbLine
 10
466.856409
 20
571.236806
 30
0.0
 11
566.245863
 21
571.236806
 31
0.0
  0
SOLID
  5
1D6
330
1D2
100
AcDbEntity
  8
LC-005-003-----0
 62
     2
100
AcDbTrace
 10
466.856409
 20
575.903473
 30
0.0
 11
466.856409
 21
566.57014
 31
0.0
 12
438.856409
 22
571.236806
 32
0.0
 13
438.856409
 23
571.236806
 33
0.0
  0
SOLID
  5
1D7
330
1D2
100
AcDbEntity
  8
LC-005-003-----0
 62
     2
100
AcDbTrace
 10
566.245863
 20
566.57014
 30
0.0
 11
566.245863
 21
575.903473
 31
0.0
 12
594.245863
 22
571.236806
 32
0.0
 13
594.245863
 23
571.236806
 33
0.0
  0
MTEXT
  5
1D8
330
1D2
100
AcDbEntity
  8
LC-005-003-----0
 62
     2
100
AcDbMText
 10
516.551136
 20
602.036806
 30
0.0
 40
28.0
 41
0.0
 71
     5
 72
     1
  1
\A1;DN150
  7
LCTX15-400-0-0pDIN-Schrift
 73
     1
 44
1.0
  0
POINT
  5
1D9
330
1D2
100
AcDbEntity
  8
Defpoints
 62
     0
100
AcDbPoint
 10
438.856409
 20
551.942392
 30
0.0
  0
POINT
  5
1DA
330
1D2
100
AcDbEntity
  8
Defpoints
 62
     0
100
AcDbPoint
 10
594.245863
 20
551.744869
 30
0.0
  0
POINT
  5
1DB
330
1D2
100
AcDbEntity
  8
Defpoints
 62
     0
100
AcDbPoint
 10
594.245863
 20
571.236806
 30
0.0
  0
ENDBLK
  5
1DD
330
1D2
100
AcDbEntity
  8
0
100
AcDbBlockEnd
  0
BLOCK
  5
1E5
330
1E4
100
AcDbEntity
  8
0
100
AcDbBlockBegin
  2
*X89
 70
     1
 71
     0
 10
0.0
 20
0.0
 30
0.0
  3
*X89
  1

  4
*X8
  0
LINE
  5
1E7
330
1E4
100
AcDbEntity
  8
LC-003-005-----0
 62
     7
370
    25
100
AcDbLine
 10
433.758566
 20
465.681238
 30
0.0
 11
435.449057
 21
463.99075
 31
0.0
  0
LINE
  5
1E8
330
1E4
100
AcDbEntity
  8
LC-003-005-----0
 62
     7
370
    25
100
AcDbLine
 10
433.656409
 20
466.490502
 30
0.0
 11
436.256323
 21
463.890591
 31
0.0
  0
LINE
  5
1E9
330
1E4
100
AcDbEntity
  8
LC-003-005-----0
 62
     7
370
    25
100
AcDbLine
 10
433.656409
 20
467.197608
 30
0.0
 11
436.863383
 21
463.990638
 31
0.0
  0
LINE
  5
1EA
330
1E4
100
AcDbEntity
  8
LC-003-005-----0
 62
     7
370
    25
100
AcDbLine
 10
433.656409
 20
467.904715
 30
0.0
 11
437.362411
 21
464.198717
 31
0.0
  0
LINE
  5
1EB
330
1E4
100
AcDbEntity
  8
LC-003-005-----0
 62
     7
370
    25
100
AcDbLine
 10
433.656409
 20
468.611821
 30
0.0
 11
437.780367
 21
464.487868
 31
0.0
  0
LINE
  5
1EC
330
1E4
100
AcDbEntity
  8
LC-003-005-----0
 62
     7
370
    25
100
AcDbLine
 10
433.656409
 20
469.318927
 30
0.0
 11
438.126202
 21
464.84914
 31
0.0
  0
LINE
  5
1ED
330
1E4
100
AcDbEntity
  8
LC-003-005-----0
 62
     7
370
    25
100
AcDbLine
 10
433.656409
 20
470.026034
 30
0.0
 11
438.398916
 21
465.283532
 31
0.0
  0
LINE
  5
1EE
330
1E4
100
AcDbEntity
  8
LC-003-005-----0
 62
     7
370
    25
100
AcDbLine
 10
433.656409
 20
470.73314
 30
0.0
 11
438.586799
 21
465.802756
 31
0.0
  0
LINE
  5
1EF
330
1E4
100
AcDbEntity
  8
LC-003-005-----0
 62
     7
370
    25
100
AcDbLine
 10
433.656409
 20
471.440246
 30
0.0
 11
438.656409
 21
466.440253
 31
0.0
  0
LINE
  5
1F0
330
1E4
100
AcDbEntity
  8
LC-003-005-----0
 62
     7
370
    25
100
AcDbLine
 10
433.668598
 20
472.135163
 30
0.0
 11
438.656409
 21
467.147359
 31
0.0
  0
LINE
  5
1F1
330
1E4
100
AcDbEntity
  8
LC-003-005-----0
 62
     7
370
    25
100
AcDbLine
 10
433.796668
 20
472.714199
 30
0.0
 11
438.656409
 21
467.854465
 31
0.0
  0
LINE
  5
1F2
330
1E4
100
AcDbEntity
  8
LC-003-005-----0
 62
     7
370
    25
100
AcDbLine
 10
434.024173
 20
473.193802
 30
0.0
 11
438.656409
 21
468.561572
 31
0.0
  0
LINE
  5
1F3
330
1E4
100
AcDbEntity
  8
LC-003-005-----0
 62
     7
370
    25
100
AcDbLine
 10
434.329698
 20
473.595383
 30
0.0
 11
438.656409
 21
469.268678
 31
0.0
  0
LINE
  5
1F4
330
1E4
100
AcDbEntity
  8
LC-003-005-----0
 62
     7
370
    25
100
AcDbLine
 10
434.706785
 20
473.925403
 30
0.0
 11
438.656409
 21
469.975784
 31
0.0
  0
LINE
  5
1F5
330
1E4
100
AcDbEntity
  8
LC-003-005-----0
 62
     7
370
    25
100
AcDbLine
 10
435.158501
 20
474.180793
 30
0.0
 11
438.656409
 21
470.682891
 31
0.0
  0
LINE
  5
1F6
330
1E4
100
AcDbEntity
  8
LC-003-005-----0
 62
     7
370
    25
100
AcDbLine
 10
435.699851
 20
474.346551
 30
0.0
 11
438.656409
 21
471.389997
 31
0.0
  0
LINE
  5
1F7
330
1E4
100
AcDbEntity
  8
LC-003-005-----0
 62
     7
370
    25
100
AcDbLine
 10
436.374441
 20
474.379067
 30
0.0
 11
438.646883
 21
472.106629
 31
0.0
  0
LINE
  5
1F8
330
1E4
100
AcDbEntity
  8
LC-003-005-----0
 62
     7
370
    25
100
AcDbLine
 10
437.407714
 20
474.052903
 30
0.0
 11
438.320716
 21
473.139901
 31
0.0
  0
ENDBLK
  5
1E6
330
1E4
100
AcDbEntity
  8
0
100
AcDbBlockEnd
  0
BLOCK
  5
1FB
330
1FA
100
AcDbEntity
  8
0
100
AcDbBlockBegin
  2
*X910
 70
     1
 71
     0
 10
0.0
 20
0.0
 30
0.0
  3
*X910
  1

  4
*X9
  0
LINE
  5
1FD
330
1FA
100
AcDbEntity
  8
LC-003-005-----0
 62
     7
370
    25
100
AcDbLine
 10
594.58586
 20
465.367291
 30
0.0
 11
596.122138
 21
463.831015
 31
0.0
  0
LINE
  5
1FE
330
1FA
100
AcDbEntity
  8
LC-003-005-----0
 62
     7
370
    25
100
AcDbLine
 10
594.446155
 20
466.214102
 30
0.0
 11
596.968846
 21
463.691414
 31
0.0
  0
LINE
  5
1FF
330
1FA
100
AcDbEntity
  8
LC-003-005-----0
 62
     7
370
    25
100
AcDbLine
 10
594.446155
 20
466.921208
 30
0.0
 11
597.591363
 21
463.776004
 31
0.0
  0
LINE
  5
200
330
1FA
100
AcDbEntity
  8
LC-003-005-----0
 62
     7
370
    25
100
AcDbLine
 10
594.446156
 20
467.628314
 30
0.0
 11
598.100634
 21
463.97384
 31
0.0
  0
LINE
  5
201
330
1FA
100
AcDbEntity
  8
LC-003-005-----0
 62
     7
370
    25
100
AcDbLine
 10
594.446156
 20
468.33542
 30
0.0
 11
598.527001
 21
464.25458
 31
0.0
  0
LINE
  5
202
330
1FA
100
AcDbEntity
  8
LC-003-005-----0
 62
     7
370
    25
100
AcDbLine
 10
594.446156
 20
469.042526
 30
0.0
 11
598.880788
 21
464.607899
 31
0.0
  0
LINE
  5
203
330
1FA
100
AcDbEntity
  8
LC-003-005-----0
 62
     7
370
    25
100
AcDbLine
 10
594.446157
 20
469.749631
 30
0.0
 11
599.162027
 21
465.033767
 31
0.0
  0
LINE
  5
204
330
1FA
100
AcDbEntity
  8
LC-003-005-----0
 62
     7
370
    25
100
AcDbLine
 10
594.446157
 20
470.456737
 30
0.0
 11
599.360476
 21
465.542425
 31
0.0
  0
LINE
  5
205
330
1FA
100
AcDbEntity
  8
LC-003-005-----0
 62
     7
370
    25
100
AcDbLine
 10
594.446158
 20
471.163843
 30
0.0
 11
599.446005
 21
466.164002
 31
0.0
  0
LINE
  5
206
330
1FA
100
AcDbEntity
  8
LC-003-005-----0
 62
     7
370
    25
100
AcDbLine
 10
594.452193
 20
471.864914
 30
0.0
 11
599.446155
 21
466.870959
 31
0.0
  0
LINE
  5
207
330
1FA
100
AcDbEntity
  8
LC-003-005-----0
 62
     7
370
    25
100
AcDbLine
 10
594.566523
 20
472.457691
 30
0.0
 11
599.446156
 21
467.578065
 31
0.0
  0
LINE
  5
208
330
1FA
100
AcDbEntity
  8
LC-003-005-----0
 62
     7
370
    25
100
AcDbLine
 10
594.784364
 20
472.946956
 30
0.0
 11
599.446156
 21
468.285171
 31
0.0
  0
LINE
  5
209
330
1FA
100
AcDbEntity
  8
LC-003-005-----0
 62
     7
370
    25
100
AcDbLine
 10
595.081674
 20
473.356753
 30
0.0
 11
599.446156
 21
468.992276
 31
0.0
  0
LINE
  5
20A
330
1FA
100
AcDbEntity
  8
LC-003-005-----0
 62
     7
370
    25
100
AcDbLine
 10
595.450771
 20
473.694763
 30
0.0
 11
599.446157
 21
469.699382
 31
0.0
  0
LINE
  5
20B
330
1FA
100
AcDbEntity
  8
LC-003-005-----0
 62
     7
370
    25
100
AcDbLine
 10
595.893672
 20
473.958969
 30
0.0
 11
599.446157
 21
470.406488
 31
0.0
  0
LINE
  5
20C
330
1FA
100
AcDbEntity
  8
LC-003-005-----0
 62
     7
370
    25
100
AcDbLine
 10
596.42365
 20
474.136098
 30
0.0
 11
599.446158
 21
471.113594
 31
0.0
  0
LINE
  5
20D
330
1FA
100
AcDbEntity
  8
LC-003-005-----0
 62
     7
370
    25
100
AcDbLine
 10
597.07908
 20
474.187775
 30
0.0
 11
599.442622
 21
471.824236
 31
0.0
  0
LINE
  5
20E
330
1FA
100
AcDbEntity
  8
LC-003-005-----0
 62
     7
370
    25
100
AcDbLine
 10
598.029638
 20
473.944325
 30
0.0
 11
599.199171
 21
472.774793
 31
0.0
  0
ENDBLK
  5
1FC
330
1FA
100
AcDbEntity
  8
0
100
AcDbBlockEnd
  0
BLOCK
  5
215
330
214
100
AcDbEntity
  8
0
100
AcDbBlockBegin
  2
*X1011
 70
     1
 71
     0
 10
0.0
 20
0.0
 30
0.0
  3
*X1011
  1

  4
*X10
  0
LINE
  5
217
330
214
100
AcDbEntity
  8
LC-003-005-----0
 62
     7
370
    25
100
AcDbLine
 10
439.925297
 20
444.167351
 30
0.0
 11
441.356409
 21
445.598461
 31
0.0
  0
LINE
  5
218
330
214
100
AcDbEntity
  8
LC-003-005-----0
 62
     7
370
    25
100
AcDbLine
 10
438.856409
 20
447.341102
 30
0.0
 11
441.356409
 21
449.841099
 31
0.0
  0
LINE
  5
219
330
214
100
AcDbEntity
  8
LC-003-005-----0
 62
     7
370
    25
100
AcDbLine
 10
438.856409
 20
451.58374
 30
0.0
 11
441.356409
 21
454.083737
 31
0.0
  0
LINE
  5
21A
330
214
100
AcDbEntity
  8
LC-003-005-----0
 62
     7
370
    25
100
AcDbLine
 10
438.856409
 20
455.826378
 30
0.0
 11
441.356409
 21
458.326375
 31
0.0
  0
LINE
  5
21B
330
214
100
AcDbEntity
  8
LC-003-005-----0
 62
     7
370
    25
100
AcDbLine
 10
438.856409
 20
460.069016
 30
0.0
 11
441.356409
 21
462.569012
 31
0.0
  0
LINE
  5
21C
330
214
100
AcDbEntity
  8
LC-003-005-----0
 62
     7
370
    25
100
AcDbLine
 10
438.856409
 20
464.311654
 30
0.0
 11
441.356409
 21
466.81165
 31
0.0
  0
LINE
  5
21D
330
214
100
AcDbEntity
  8
LC-003-005-----0
 62
     7
370
    25
100
AcDbLine
 10
438.856409
 20
468.554292
 30
0.0
 11
441.356409
 21
471.054288
 31
0.0
  0
LINE
  5
21E
330
214
100
AcDbEntity
  8
LC-003-005-----0
 62
     7
370
    25
100
AcDbLine
 10
438.856409
 20
472.796929
 30
0.0
 11
441.356409
 21
475.296926
 31
0.0
  0
LINE
  5
21F
330
214
100
AcDbEntity
  8
LC-003-005-----0
 62
     7
370
    25
100
AcDbLine
 10
438.856409
 20
477.039567
 30
0.0
 11
441.356409
 21
479.539564
 31
0.0
  0
LINE
  5
220
330
214
100
AcDbEntity
  8
LC-003-005-----0
 62
     7
370
    25
100
AcDbLine
 10
438.856409
 20
481.282205
 30
0.0
 11
441.356409
 21
483.782202
 31
0.0
  0
LINE
  5
221
330
214
100
AcDbEntity
  8
LC-003-005-----0
 62
     7
370
    25
100
AcDbLine
 10
438.856409
 20
485.524843
 30
0.0
 11
441.356409
 21
488.02484
 31
0.0
  0
LINE
  5
222
330
214
100
AcDbEntity
  8
LC-003-005-----0
 62
     7
370
    25
100
AcDbLine
 10
438.856409
 20
489.767481
 30
0.0
 11
441.356409
 21
492.267478
 31
0.0
  0
LINE
  5
223
330
214
100
AcDbEntity
  8
LC-003-005-----0
 62
     7
370
    25
100
AcDbLine
 10
438.856409
 20
494.010119
 30
0.0
 11
441.356409
 21
496.510115
 31
0.0
  0
LINE
  5
224
330
214
100
AcDbEntity
  8
LC-003-005-----0
 62
     7
370
    25
100
AcDbLine
 10
438.856409
 20
498.252757
 30
0.0
 11
441.356409
 21
500.752753
 31
0.0
  0
LINE
  5
225
330
214
100
AcDbEntity
  8
LC-003-005-----0
 62
     7
370
    25
100
AcDbLine
 10
438.856409
 20
502.495395
 30
0.0
 11
441.356409
 21
504.995391
 31
0.0
  0
LINE
  5
226
330
214
100
AcDbEntity
  8
LC-003-005-----0
 62
     7
370
    25
100
AcDbLine
 10
438.856409
 20
506.738032
 30
0.0
 11
441.356409
 21
509.238029
 31
0.0
  0
LINE
  5
227
330
214
100
AcDbEntity
  8
LC-003-005-----0
 62
     7
370
    25
100
AcDbLine
 10
438.856409
 20
510.98067
 30
0.0
 11
441.356409
 21
513.480667
 31
0.0
  0
LINE
  5
228
330
214
100
AcDbEntity
  8
LC-003-005-----0
 62
     7
370
    25
100
AcDbLine
 10
438.856409
 20
515.223308
 30
0.0
 11
441.356409
 21
517.723305
 31
0.0
  0
LINE
  5
229
330
214
100
AcDbEntity
  8
LC-003-005-----0
 62
     7
370
    25
100
AcDbLine
 10
438.856409
 20
519.465946
 30
0.0
 11
441.356409
 21
521.965943
 31
0.0
  0
LINE
  5
22A
330
214
100
AcDbEntity
  8
LC-003-005-----0
 62
     7
370
    25
100
AcDbLine
 10
438.856409
 20
523.708584
 30
0.0
 11
441.356409
 21
526.208581
 31
0.0
  0
LINE
  5
22B
330
214
100
AcDbEntity
  8
LC-003-005-----0
 62
     7
370
    25
100
AcDbLine
 10
438.856409
 20
527.951222
 30
0.0
 11
441.356409
 21
530.451218
 31
0.0
  0
LINE
  5
22C
330
214
100
AcDbEntity
  8
LC-003-005-----0
 62
     7
370
    25
100
AcDbLine
 10
438.856409
 20
532.19386
 30
0.0
 11
441.356409
 21
534.693856
 31
0.0
  0
LINE
  5
22D
330
214
100
AcDbEntity
  8
LC-003-005-----0
 62
     7
370
    25
100
AcDbLine
 10
438.856409
 20
536.436497
 30
0.0
 11
441.356409
 21
538.936494
 31
0.0
  0
LINE
  5
22E
330
214
100
AcDbEntity
  8
LC-003-005-----0
 62
     7
370
    25
100
AcDbLine
 10
438.856409
 20
540.679135
 30
0.0
 11
441.356409
 21
543.179132
 31
0.0
  0
LINE
  5
22F
330
214
100
AcDbEntity
  8
LC-003-005-----0
 62
     7
370
    25
100
AcDbLine
 10
438.856409
 20
544.921773
 30
0.0
 11
441.356409
 21
547.42177
 31
0.0
  0
LINE
  5
230
330
214
100
AcDbEntity
  8
LC-003-005-----0
 62
     7
370
    25
100
AcDbLine
 10
438.856409
 20
549.164411
 30
0.0
 11
441.356409
 21
551.664408
 31
0.0
  0
ENDBLK
  5
216
330
214
100
AcDbEntity
  8
0
100
AcDbBlockEnd
  0
BLOCK
  5
233
330
232
100
AcDbEntity
  8
0
100
AcDbBlockBegin
  2
*X1112
 70
     1
 71
     0
 10
0.0
 20
0.0
 30
0.0
  3
*X1112
  1

  4
*X11
  0
LINE
  5
235
330
232
100
AcDbEntity
  8
LC-003-005-----0
 62
     7
370
    25
100
AcDbLine
 10
591.745863
 20
443.252752
 30
0.0
 11
594.15236
 21
445.659246
 31
0.0
  0
LINE
  5
236
330
232
100
AcDbEntity
  8
LC-003-005-----0
 62
     7
370
    25
100
AcDbLine
 10
591.745863
 20
447.49539
 30
0.0
 11
594.245863
 21
449.995386
 31
0.0
  0
LINE
  5
237
330
232
100
AcDbEntity
  8
LC-003-005-----0
 62
     7
370
    25
100
AcDbLine
 10
591.745863
 20
451.738028
 30
0.0
 11
594.245863
 21
454.238024
 31
0.0
  0
LINE
  5
238
330
232
100
AcDbEntity
  8
LC-003-005-----0
 62
     7
370
    25
100
AcDbLine
 10
591.745863
 20
455.980666
 30
0.0
 11
594.245863
 21
458.480662
 31
0.0
  0
LINE
  5
239
330
232
100
AcDbEntity
  8
LC-003-005-----0
 62
     7
370
    25
100
AcDbLine
 10
591.745863
 20
460.223303
 30
0.0
 11
594.245863
 21
462.7233
 31
0.0
  0
LINE
  5
23A
330
232
100
AcDbEntity
  8
LC-003-005-----0
 62
     7
370
    25
100
AcDbLine
 10
591.745863
 20
464.465941
 30
0.0
 11
594.245863
 21
466.965938
 31
0.0
  0
LINE
  5
23B
330
232
100
AcDbEntity
  8
LC-003-005-----0
 62
     7
370
    25
100
AcDbLine
 10
591.745863
 20
468.708579
 30
0.0
 11
594.245863
 21
471.208576
 31
0.0
  0
LINE
  5
23C
330
232
100
AcDbEntity
  8
LC-003-005-----0
 62
     7
370
    25
100
AcDbLine
 10
591.745863
 20
472.951217
 30
0.0
 11
594.245863
 21
475.451214
 31
0.0
  0
LINE
  5
23D
330
232
100
AcDbEntity
  8
LC-003-005-----0
 62
     7
370
    25
100
AcDbLine
 10
591.745863
 20
477.193855
 30
0.0
 11
594.245863
 21
479.693852
 31
0.0
  0
LINE
  5
23E
330
232
100
AcDbEntity
  8
LC-003-005-----0
 62
     7
370
    25
100
AcDbLine
 10
591.745863
 20
481.436493
 30
0.0
 11
594.245863
 21
483.936489
 31
0.0
  0
LINE
  5
23F
330
232
100
AcDbEntity
  8
LC-003-005-----0
 62
     7
370
    25
100
AcDbLine
 10
591.745863
 20
485.679131
 30
0.0
 11
594.245863
 21
488.179127
 31
0.0
  0
LINE
  5
240
330
232
100
AcDbEntity
  8
LC-003-005-----0
 62
     7
370
    25
100
AcDbLine
 10
591.745863
 20
489.921769
 30
0.0
 11
594.245863
 21
492.421765
 31
0.0
  0
LINE
  5
241
330
232
100
AcDbEntity
  8
LC-003-005-----0
 62
     7
370
    25
100
AcDbLine
 10
591.745863
 20
494.164406
 30
0.0
 11
594.245863
 21
496.664403
 31
0.0
  0
LINE
  5
242
330
232
100
AcDbEntity
  8
LC-003-005-----0
 62
     7
370
    25
100
AcDbLine
 10
591.745863
 20
498.407044
 30
0.0
 11
594.245863
 21
500.907041
 31
0.0
  0
LINE
  5
243
330
232
100
AcDbEntity
  8
LC-003-005-----0
 62
     7
370
    25
100
AcDbLine
 10
591.745863
 20
502.649682
 30
0.0
 11
594.245863
 21
505.149679
 31
0.0
  0
LINE
  5
244
330
232
100
AcDbEntity
  8
LC-003-005-----0
 62
     7
370
    25
100
AcDbLine
 10
591.745863
 20
506.89232
 30
0.0
 11
594.245863
 21
509.392317
 31
0.0
  0
LINE
  5
245
330
232
100
AcDbEntity
  8
LC-003-005-----0
 62
     7
370
    25
100
AcDbLine
 10
591.745863
 20
511.134958
 30
0.0
 11
594.245863
 21
513.634955
 31
0.0
  0
LINE
  5
246
330
232
100
AcDbEntity
  8
LC-003-005-----0
 62
     7
370
    25
100
AcDbLine
 10
591.745863
 20
515.377596
 30
0.0
 11
594.245863
 21
517.877592
 31
0.0
  0
LINE
  5
247
330
232
100
AcDbEntity
  8
LC-003-005-----0
 62
     7
370
    25
100
AcDbLine
 10
591.745863
 20
519.620234
 30
0.0
 11
594.245863
 21
522.12023
 31
0.0
  0
LINE
  5
248
330
232
100
AcDbEntity
  8
LC-003-005-----0
 62
     7
370
    25
100
AcDbLine
 10
591.745863
 20
523.862872
 30
0.0
 11
594.245863
 21
526.362868
 31
0.0
  0
LINE
  5
249
330
232
100
AcDbEntity
  8
LC-003-005-----0
 62
     7
370
    25
100
AcDbLine
 10
591.745863
 20
528.105509
 30
0.0
 11
594.245863
 21
530.605506
 31
0.0
  0
LINE
  5
24A
330
232
100
AcDbEntity
  8
LC-003-005-----0
 62
     7
370
    25
100
AcDbLine
 10
591.745863
 20
532.348147
 30
0.0
 11
594.245863
 21
534.848144
 31
0.0
  0
LINE
  5
24B
330
232
100
AcDbEntity
  8
LC-003-005-----0
 62
     7
370
    25
100
AcDbLine
 10
591.745863
 20
536.590785
 30
0.0
 11
594.245863
 21
539.090782
 31
0.0
  0
LINE
  5
24C
330
232
100
AcDbEntity
  8
LC-003-005-----0
 62
     7
370
    25
100
AcDbLine
 10
591.745863
 20
540.833423
 30
0.0
 11
594.245863
 21
543.33342
 31
0.0
  0
LINE
  5
24D
330
232
100
AcDbEntity
  8
LC-003-005-----0
 62
     7
370
    25
100
AcDbLine
 10
591.745863
 20
545.076061
 30
0.0
 11
594.245863
 21
547.576058
 31
0.0
  0
LINE
  5
24E
330
232
100
AcDbEntity
  8
LC-003-005-----0
 62
     7
370
    25
100
AcDbLine
 10
591.745863
 20
549.318699
 30
0.0
 11
594.172036
 21
551.744869
 31
0.0
  0
ENDBLK
  5
234
330
232
100
AcDbEntity
  8
0
100
AcDbBlockEnd
  0
BLOCK
  5
269
330
25F
100
AcDbEntity
  8
0
100
AcDbBlockBegin
  2
*D13
 70
     1
 71
     0
 10
0.0
 20
0.0
 30
0.0
  3
*D13
  1

  0
LINE
  5
260
330
25F
100
AcDbEntity
  8
LC-005-003-----0
 62
     2
370
    -2
100
AcDbLine
 10
266.381409
 20
458.188593
 30
0.0
 11
266.381409
 21
317.937917
 31
0.0
  0
LINE
  5
261
330
25F
100
AcDbEntity
  8
LC-005-003-----0
 62
     2
370
    -2
100
AcDbLine
 10
766.381409
 20
458.188593
 30
0.0
 11
766.381409
 21
317.937917
 31
0.0
  0
LINE
  5
262
330
25F
100
AcDbEntity
  8
LC-005-003-----0
 62
     2
370
    -2
100
AcDbLine
 10
294.381409
 20
321.537917
 30
0.0
 11
738.381409
 21
321.537917
 31
0.0
  0
SOLID
  5
263
330
25F
100
AcDbEntity
  8
LC-005-003-----0
 62
     2
100
AcDbTrace
 10
294.381409
 20
326.204584
 30
0.0
 11
294.381409
 21
316.87125
 31
0.0
 12
266.381409
 22
321.537917
 32
0.0
 13
266.381409
 23
321.537917
 33
0.0
  0
SOLID
  5
264
330
25F
100
AcDbEntity
  8
LC-005-003-----0
 62
     2
100
AcDbTrace
 10
738.381409
 20
316.87125
 30
0.0
 11
738.381409
 21
326.204584
 31
0.0
 12
766.381409
 22
321.537917
 32
0.0
 13
766.381409
 23
321.537917
 33
0.0
  0
MTEXT
  5
265
330
25F
100
AcDbEntity
  8
LC-005-003-----0
 62
     2
100
AcDbMText
 10
516.381409
 20
352.337917
 30
0.0
 40
28.0
 41
0.0
 71
     5
 72
     1
  1
\A1;500
  7
LCTX15-400-0-0pDIN-Schrift
 73
     1
 44
1.0
  0
POINT
  5
266
330
25F
100
AcDbEntity
  8
Defpoints
 62
     0
100
AcDbPoint
 10
266.381409
 20
458.188593
 30
0.0
  0
POINT
  5
267
330
25F
100
AcDbEntity
  8
Defpoints
 62
     0
100
AcDbPoint
 10
766.381409
 20
458.188593
 30
0.0
  0
POINT
  5
268
330
25F
100
AcDbEntity
  8
Defpoints
 62
     0
100
AcDbPoint
 10
766.381409
 20
321.537917
 30
0.0
  0
ENDBLK
  5
26A
330
25F
100
AcDbEntity
  8
0
100
AcDbBlockEnd
  0
BLOCK
  5
278
330
26C
100
AcDbEntity
  8
0
100
AcDbBlockBegin
  2
*D14
 70
     1
 71
     0
 10
0.0
 20
0.0
 30
0.0
  3
*D14
  1

  0
LINE
  5
26D
330
26C
100
AcDbEntity
  8
LC-005-003-----0
 62
     2
370
    -2
100
AcDbLine
 10
266.381409
 20
463.188593
 30
0.0
 11
247.260713
 21
463.188593
 31
0.0
  0
LINE
  5
26E
330
26C
100
AcDbEntity
  8
LC-005-003-----0
 62
     2
370
    -2
100
AcDbLine
 10
433.881409
 20
504.688593
 30
0.0
 11
247.260713
 21
504.688593
 31
0.0
  0
LINE
  5
26F
330
26C
100
AcDbEntity
  8
LC-005-003-----0
 62
     2
370
    -2
100
AcDbLine
 10
250.860713
 20
435.188593
 30
0.0
 11
250.860713
 21
407.188593
 31
0.0
  0
LINE
  5
270
330
26C
100
AcDbEntity
  8
LC-005-003-----0
 62
     2
370
    -2
100
AcDbLine
 10
250.860713
 20
532.688593
 30
0.0
 11
250.860713
 21
560.688593
 31
0.0
  0
LINE
  5
271
330
26C
100
AcDbEntity
  8
LC-005-003-----0
 62
     2
370
    -2
100
AcDbLine
 10
250.860713
 20
463.188593
 30
0.0
 11
250.860713
 21
504.688593
 31
0.0
  0
SOLID
  5
272
330
26C
100
AcDbEntity
  8
LC-005-003-----0
 62
     2
100
AcDbTrace
 10
255.52738
 20
435.188593
 30
0.0
 11
246.194046
 21
435.188593
 31
0.0
 12
250.860713
 22
463.188593
 32
0.0
 13
250.860713
 23
463.188593
 33
0.0
  0
SOLID
  5
273
330
26C
100
AcDbEntity
  8
LC-005-003-----0
 62
     2
100
AcDbTrace
 10
246.194046
 20
532.688593
 30
0.0
 11
255.52738
 21
532.688593
 31
0.0
 12
250.860713
 22
504.688593
 32
0.0
 13
250.860713
 23
504.688593
 33
0.0
  0
MTEXT
  5
274
330
26C
100
AcDbEntity
  8
LC-005-003-----0
 62
     2
100
AcDbMText
 10
220.060713
 20
483.938593
 30
0.0
 40
28.0
 41
0.0
 71
     5
 72
     1
  1
\A1;41,5
  7
LCTX15-400-0-0pDIN-Schrift
 11
6.123031769111886E-17
 21
1.0
 31
0.0
 73
     1
 44
1.0
  0
POINT
  5
275
330
26C
100
AcDbEntity
  8
Defpoints
 62
     0
100
AcDbPoint
 10
266.381409
 20
463.188593
 30
0.0
  0
POINT
  5
276
330
26C
100
AcDbEntity
  8
Defpoints
 62
     0
100
AcDbPoint
 10
433.881409
 20
504.688593
 30
0.0
  0
POINT
  5
277
330
26C
100
AcDbEntity
  8
Defpoints
 62
     0
100
AcDbPoint
 10
250.860713
 20
504.688593
 30
0.0
  0
ENDBLK
  5
279
330
26C
100
AcDbEntity
  8
0
100
AcDbBlockEnd
  0
ENDSEC
  0
SECTION
  2
ENTITIES
  0
ARC
  5
31
330
1F
100
AcDbEntity
  8
LC-001-002-RND-0
 62
     7
370
    50
100
AcDbCircle
 10
413.624892
 20
461.188593
 30
0.0
 40
3.0
100
AcDbArc
 50
270.0
 51
355.156
  0
LINE
  5
33
330
1F
100
AcDbEntity
  8
LC-002-002-----0
 62
     7
370
    25
100
AcDbLine
 10
465.387497
 20
332.823917
 30
0.0
 11
465.387497
 21
347.823917
 31
0.0
  0
ARC
  5
34
330
1F
100
AcDbEntity
  8
LC-001-002-RND-0
 62
     7
370
    50
100
AcDbCircle
 10
431.813257
 20
487.188593
 30
0.0
 40
3.0
100
AcDbArc
 50
270.0
 51
351.634114
  0
ARC
  5
35
330
1F
100
AcDbEntity
  8
LC-002-002-----0
 62
     7
370
    50
100
AcDbCircle
 10
436.94385
 20
501.457215
 30
0.0
 40
1.750000000000011
100
AcDbArc
 50
261.634114
 51
81.634114
  0
LINE
  5
36
330
1F
100
AcDbEntity
  8
LC-002-002-----0
 62
     7
370
    25
100
AcDbLine
 10
465.387497
 20
347.823917
 30
0.0
 11
480.387497
 21
347.823917
 31
0.0
  0
LINE
  5
37
330
1F
100
AcDbEntity
  8
LC-002-002-----0
 62
     7
370
    25
100
AcDbLine
 10
480.387497
 20
347.823917
 30
0.0
 11
480.387497
 21
332.823917
 31
0.0
  0
LINE
  5
38
330
1F
100
AcDbEntity
  8
LC-002-002-----0
 62
     7
370
    50
100
AcDbLine
 10
416.614177
 20
460.935264
 30
0.0
 11
418.64864
 21
484.941923
 31
0.0
  0
LINE
  5
39
330
1F
100
AcDbEntity
  8
LC-002-002-----0
 62
     7
370
    25
100
AcDbLine
 10
480.387497
 20
332.823917
 30
0.0
 11
465.387497
 21
332.823917
 31
0.0
  0
ARC
  5
3A
330
1F
100
AcDbEntity
  8
LC-001-002-RND-0
 62
     7
370
    50
100
AcDbCircle
 10
363.381409
 20
456.188593
 30
0.0
 40
2.0
100
AcDbArc
 50
90.0
 51
180.0
  0
LINE
  5
3B
330
1F
100
AcDbEntity
  8
LC-002-002-----0
 62
     7
370
    50
100
AcDbLine
 10
266.381409
 20
458.188593
 30
0.0
 11
266.381409
 21
463.188593
 31
0.0
  0
LINE
  5
3C
330
1F
100
AcDbEntity
  8
LC-002-002-----0
 62
     7
370
    50
100
AcDbLine
 10
363.381409
 20
458.188593
 30
0.0
 11
376.381409
 21
458.188593
 31
0.0
  0
LINE
  5
3D
330
1F
100
AcDbEntity
  8
LC-002-002-----0
 62
     7
370
    50
100
AcDbLine
 10
376.381409
 20
458.188593
 30
0.0
 11
376.381409
 21
459.188593
 31
0.0
  0
LINE
  5
3E
330
1F
100
AcDbEntity
  8
LC-002-002-----0
 62
     7
370
    50
100
AcDbLine
 10
376.381409
 20
459.188593
 30
0.0
 11
382.381409
 21
459.188593
 31
0.0
  0
LINE
  5
3F
330
1F
100
AcDbEntity
  8
LC-002-002-----0
 62
     7
370
    50
100
AcDbLine
 10
382.381409
 20
459.188593
 30
0.0
 11
382.381409
 21
458.188593
 31
0.0
  0
LINE
  5
40
330
1F
100
AcDbEntity
  8
LC-002-002-----0
 62
     7
370
    50
100
AcDbLine
 10
382.381409
 20
458.188593
 30
0.0
 11
401.381409
 21
458.188593
 31
0.0
  0
LINE
  5
41
330
1F
100
AcDbEntity
  8
LC-002-002-----0
 62
     7
370
    50
100
AcDbLine
 10
361.381409
 20
456.188593
 30
0.0
 11
361.381409
 21
454.688593
 31
0.0
  0
LINE
  5
42
330
1F
100
AcDbEntity
  8
LC-002-002-----0
 62
     7
370
    50
100
AcDbLine
 10
419.597344
 20
454.688593
 30
0.0
 11
422.019755
 21
483.273036
 31
0.0
  0
ARC
  5
43
330
1F
100
AcDbEntity
  8
LC-001-002-RND-0
 62
     7
370
    50
100
AcDbCircle
 10
421.637925
 20
484.688593
 30
0.0
 40
3.0
100
AcDbArc
 50
90.0
 51
175.156
  0
LINE
  5
44
330
1F
100
AcDbEntity
  8
LC-002-002-----0
 62
     7
370
    50
100
AcDbLine
 10
416.381409
 20
460.004694
 30
0.0
 11
416.381409
 21
463.188593
 31
0.0
  0
ARC
  5
45
330
1F
100
AcDbEntity
  8
LC-001-002-RND-0
 62
     7
370
    50
100
AcDbCircle
 10
423.016183
 20
483.188593
 30
0.0
 40
1.0
100
AcDbArc
 50
90.0
 51
175.156
  0
LINE
  5
46
330
1F
100
AcDbEntity
  8
LC-002-002-----0
 62
     7
370
    50
100
AcDbLine
 10
363.381409
 20
458.188593
 30
0.0
 11
266.381409
 21
458.188593
 31
0.0
  0
LINE
  5
47
330
1F
100
AcDbEntity
  8
LC-002-002-----0
 62
     7
370
    50
100
AcDbLine
 10
407.381409
 20
459.188593
 30
0.0
 11
407.381409
 21
458.188593
 31
0.0
  0
LINE
  5
48
330
1F
100
AcDbEntity
  8
LC-002-002-----0
 62
     7
370
    50
100
AcDbLine
 10
401.381409
 20
459.188593
 30
0.0
 11
401.381409
 21
458.188593
 31
0.0
  0
LINE
  5
49
330
1F
100
AcDbEntity
  8
LC-002-002-----0
 62
     7
370
    50
100
AcDbLine
 10
407.381409
 20
459.188593
 30
0.0
 11
401.381409
 21
459.188593
 31
0.0
  0
LINE
  5
4A
330
1F
100
AcDbEntity
  8
LC-002-002-----0
 62
     7
370
    50
100
AcDbLine
 10
407.381409
 20
458.188593
 30
0.0
 11
413.624892
 21
458.188593
 31
0.0
  0
LINE
  5
4B
330
1F
100
AcDbEntity
  8
LC-002-002-----0
 62
     7
370
    50
100
AcDbLine
 10
416.381409
 20
463.188593
 30
0.0
 11
266.381409
 21
463.188593
 31
0.0
  0
LINE
  5
4C
330
1F
100
AcDbEntity
  8
LC-002-002-----0
 62
     7
370
    50
100
AcDbLine
 10
616.381409
 20
463.188593
 30
0.0
 11
616.381409
 21
460.004694
 31
0.0
  0
LINE
  5
4D
330
1F
100
AcDbEntity
  8
LC-002-002-----0
 62
     7
370
    50
100
AcDbLine
 10
421.637925
 20
487.688593
 30
0.0
 11
431.381409
 21
487.688593
 31
0.0
  0
LINE
  5
4E
330
1F
100
AcDbEntity
  8
LC-002-002-----0
 62
     7
370
    50
100
AcDbLine
 10
361.381409
 20
454.688593
 30
0.0
 11
419.597344
 21
454.688593
 31
0.0
  0
LINE
  5
4F
330
1F
100
AcDbEntity
  8
LC-002-002-----0
 62
     7
370
    50
100
AcDbLine
 10
433.881409
 20
504.688593
 30
0.0
 11
437.419052
 21
504.688593
 31
0.0
  0
LINE
  5
50
330
1F
100
AcDbEntity
  8
LC-002-002-----0
 62
     7
370
    50
100
AcDbLine
 10
423.016183
 20
484.188593
 30
0.0
 11
431.813257
 21
484.188593
 31
0.0
  0
LINE
  5
51
330
1F
100
AcDbEntity
  8
LC-002-002-----0
 62
     7
370
    50
100
AcDbLine
 10
431.381409
 20
487.688593
 30
0.0
 11
433.881409
 21
504.688593
 31
0.0
  0
LINE
  5
52
330
1F
100
AcDbEntity
  8
LC-002-002-----0
 62
     7
370
    50
100
AcDbLine
 10
434.781334
 20
486.752111
 30
0.0
 11
435.670777
 21
492.800322
 31
0.0
  0
ARC
  5
53
330
1F
100
AcDbEntity
  8
LC-002-002-----0
 62
     7
370
    50
100
AcDbCircle
 10
435.925392
 20
494.531701
 30
0.0
 40
1.750000000000011
100
AcDbArc
 50
261.634114
 51
81.634114
  0
LINE
  5
54
330
1F
100
AcDbEntity
  8
LC-002-002-----0
 62
     7
370
    50
100
AcDbLine
 10
437.198464
 20
503.188593
 30
0.0
 11
437.419052
 21
504.688593
 31
0.0
  0
LINE
  5
55
330
1F
100
AcDbEntity
  8
LC-002-002-----0
 62
     7
370
    50
100
AcDbLine
 10
436.180006
 20
496.263079
 30
0.0
 11
436.689235
 21
499.725836
 31
0.0
  0
INSERT
  5
78
330
1F
100
AcDbEntity
  8
LC-003-005-----0
 62
     7
370
    25
100
AcDbBlockReference
  2
*X11
 10
0.0
 20
0.0
 30
0.0
  0
ARC
  5
79
330
1F
100
AcDbEntity
  8
LC-001-002-RND-0
 62
     7
370
    50
100
AcDbCircle
 10
619.137925
 20
461.188593
 30
0.0
 40
2.999999999999961
100
AcDbArc
 50
184.844
 51
270.0
  0
ARC
  5
7A
330
1F
100
AcDbEntity
  8
LC-001-002-RND-0
 62
     7
370
    50
100
AcDbCircle
 10
600.94956
 20
487.188593
 30
0.0
 40
3.000000000000042
100
AcDbArc
 50
188.365886
 51
270.0
  0
ARC
  5
7B
330
1F
100
AcDbEntity
  8
LC-002-002-----0
 62
     7
370
    50
100
AcDbCircle
 10
595.818968
 20
501.457215
 30
0.0
 40
1.750000000000003
100
AcDbArc
 50
98.365886
 51
278.365886
  0
LINE
  5
7C
330
1F
100
AcDbEntity
  8
LC-002-002-----0
 62
     7
370
    50
100
AcDbLine
 10
616.14864
 20
460.935264
 30
0.0
 11
614.114177
 21
484.941923
 31
0.0
  0
ARC
  5
7D
330
1F
100
AcDbEntity
  8
LC-001-002-RND-0
 62
     7
370
    50
100
AcDbCircle
 10
669.381409
 20
456.188593
 30
0.0
 40
2.0
100
AcDbArc
 50
0.0
 51
90.0
  0
LINE
  5
7E
330
1F
100
AcDbEntity
  8
LC-002-002-----0
 62
     7
370
    50
100
AcDbLine
 10
669.381409
 20
458.188593
 30
0.0
 11
656.381409
 21
458.188593
 31
0.0
  0
LINE
  5
7F
330
1F
100
AcDbEntity
  8
LC-002-002-----0
 62
     7
370
    50
100
AcDbLine
 10
656.381409
 20
458.188593
 30
0.0
 11
656.381409
 21
459.188593
 31
0.0
  0
LINE
  5
80
330
1F
100
AcDbEntity
  8
LC-002-002-----0
 62
     7
370
    50
100
AcDbLine
 10
656.381409
 20
459.188593
 30
0.0
 11
650.381409
 21
459.188593
 31
0.0
  0
LINE
  5
81
330
1F
100
AcDbEntity
  8
LC-002-002-----0
 62
     7
370
    50
100
AcDbLine
 10
650.381409
 20
459.188593
 30
0.0
 11
650.381409
 21
458.188593
 31
0.0
  0
LINE
  5
82
330
1F
100
AcDbEntity
  8
LC-002-002-----0
 62
     7
370
    50
100
AcDbLine
 10
650.381409
 20
458.188593
 30
0.0
 11
631.381409
 21
458.188593
 31
0.0
  0
LINE
  5
83
330
1F
100
AcDbEntity
  8
LC-002-002-----0
 62
     7
370
    50
100
AcDbLine
 10
671.381409
 20
456.188593
 30
0.0
 11
671.381409
 21
454.688593
 31
0.0
  0
LINE
  5
84
330
1F
100
AcDbEntity
  8
LC-002-002-----0
 62
     7
370
    50
100
AcDbLine
 10
613.165473
 20
454.688593
 30
0.0
 11
610.743063
 21
483.273036
 31
0.0
  0
ARC
  5
85
330
1F
100
AcDbEntity
  8
LC-001-002-RND-0
 62
     7
370
    50
100
AcDbCircle
 10
611.124892
 20
484.688593
 30
0.0
 40
2.999999999999961
100
AcDbArc
 50
4.844
 51
90.0
  0
ARC
  5
86
330
1F
100
AcDbEntity
  8
LC-001-002-RND-0
 62
     7
370
    50
100
AcDbCircle
 10
609.746634
 20
483.188593
 30
0.0
 40
0.9999999999999489
100
AcDbArc
 50
4.844
 51
90.0
  0
LINE
  5
87
330
1F
100
AcDbEntity
  8
LC-002-002-----0
 62
     7
370
    50
100
AcDbLine
 10
625.381409
 20
459.188593
 30
0.0
 11
625.381409
 21
458.188593
 31
0.0
  0
LINE
  5
88
330
1F
100
AcDbEntity
  8
LC-002-002-----0
 62
     7
370
    50
100
AcDbLine
 10
631.381409
 20
459.188593
 30
0.0
 11
631.381409
 21
458.188593
 31
0.0
  0
LINE
  5
89
330
1F
100
AcDbEntity
  8
LC-002-002-----0
 62
     7
370
    50
100
AcDbLine
 10
625.381409
 20
459.188593
 30
0.0
 11
631.381409
 21
459.188593
 31
0.0
  0
LINE
  5
8A
330
1F
100
AcDbEntity
  8
LC-002-002-----0
 62
     7
370
    50
100
AcDbLine
 10
625.381409
 20
458.188593
 30
0.0
 11
619.137925
 21
458.188593
 31
0.0
  0
LINE
  5
8B
330
1F
100
AcDbEntity
  8
LC-002-002-----0
 62
     7
370
    50
100
AcDbLine
 10
611.124892
 20
487.688593
 30
0.0
 11
601.381409
 21
487.688593
 31
0.0
  0
LINE
  5
8C
330
1F
100
AcDbEntity
  8
LC-002-002-----0
 62
     7
370
    50
100
AcDbLine
 10
671.381409
 20
454.688593
 30
0.0
 11
613.165473
 21
454.688593
 31
0.0
  0
LINE
  5
8D
330
1F
100
AcDbEntity
  8
LC-002-002-----0
 62
     7
370
    50
100
AcDbLine
 10
598.881409
 20
504.688593
 30
0.0
 11
595.343765
 21
504.688593
 31
0.0
  0
LINE
  5
8E
330
1F
100
AcDbEntity
  8
LC-002-002-----0
 62
     7
370
    50
100
AcDbLine
 10
609.746634
 20
484.188593
 30
0.0
 11
600.94956
 21
484.188593
 31
0.0
  0
LINE
  5
8F
330
1F
100
AcDbEntity
  8
LC-002-002-----0
 62
     7
370
    50
100
AcDbLine
 10
601.381409
 20
487.688593
 30
0.0
 11
598.881409
 21
504.688593
 31
0.0
  0
LINE
  5
90
330
1F
100
AcDbEntity
  8
LC-002-002-----0
 62
     7
370
    50
100
AcDbLine
 10
597.981483
 20
486.752111
 30
0.0
 11
597.09204
 21
492.800322
 31
0.0
  0
ARC
  5
91
330
1F
100
AcDbEntity
  8
LC-002-002-----0
 62
     7
370
    50
100
AcDbCircle
 10
596.837426
 20
494.531701
 30
0.0
 40
1.750000000000003
100
AcDbArc
 50
98.365886
 51
278.365886
  0
LINE
  5
92
330
1F
100
AcDbEntity
  8
LC-002-002-----0
 62
     7
370
    50
100
AcDbLine
 10
595.564353
 20
503.188593
 30
0.0
 11
595.343765
 21
504.688593
 31
0.0
  0
LINE
  5
93
330
1F
100
AcDbEntity
  8
LC-002-002-----0
 62
     7
370
    50
100
AcDbLine
 10
596.582811
 20
496.263079
 30
0.0
 11
596.073582
 21
499.725836
 31
0.0
  0
INSERT
  5
B1
330
1F
100
AcDbEntity
  8
LC-003-005-----0
 62
     7
370
    25
100
AcDbBlockReference
  2
*X22
 10
0.0
 20
0.0
 30
0.0
  0
LINE
  5
B2
330
1F
100
AcDbEntity
  8
LC-002-002-----0
 62
     7
370
    50
100
AcDbLine
 10
616.381409
 20
463.188593
 30
0.0
 11
766.381409
 21
463.188593
 31
0.0
  0
LINE
  5
B3
330
1F
100
AcDbEntity
  8
LC-002-002-----0
 62
     7
370
    50
100
AcDbLine
 10
766.381409
 20
458.188593
 30
0.0
 11
766.381409
 21
463.188593
 31
0.0
  0
LINE
  5
B4
330
1F
100
AcDbEntity
  8
LC-002-002-----0
 62
     7
370
    50
100
AcDbLine
 10
669.381409
 20
458.188593
 30
0.0
 11
766.381409
 21
458.188593
 31
0.0
  0
INSERT
  5
EE
330
1F
100
AcDbEntity
  8
LC-003-005-----0
 62
     7
370
    25
100
AcDbBlockReference
  2
*X33
 10
0.0
 20
0.0
 30
0.0
  0
INSERT
  5
128
330
1F
100
AcDbEntity
  8
LC-003-005-----0
 62
     7
370
    25
100
AcDbBlockReference
  2
*X44
 10
0.0
 20
0.0
 30
0.0
  0
INSERT
  5
14A
330
1F
100
AcDbEntity
  8
LC-003-005-----0
 62
     7
370
    25
100
AcDbBlockReference
  2
*X55
 10
0.0
 20
0.0
 30
0.0
  0
LINE
  5
14C
330
1F
100
AcDbEntity
  8
LC-002-002-----0
  6
DASHDOT
 62
     7
370
    25
100
AcDbLine
 10
516.381409
 20
553.09613
 30
0.0
 11
516.381409
 21
377.919649
 31
0.0
  0
LINE
  5
14D
102
{ACAD_REACTORS
330
27A
102
}
330
1F
100
AcDbEntity
  8
LC-002-002-----0
  6
DASHDOT
 62
     7
370
    25
100
AcDbLine
 10
594.995863
 20
479.49107
 30
0.0
 11
596.795863
 21
479.49107
 31
0.0
  0
LINE
  5
14E
102
{ACAD_REACTORS
330
27A
102
}
330
1F
100
AcDbEntity
  8
LC-002-002-----0
  6
DASHDOT
 62
     7
370
    25
100
AcDbLine
 10
596.795863
 20
479.49107
 30
0.0
 11
596.795863
 21
475.99107
 31
0.0
  0
LINE
  5
14F
102
{ACAD_REACTORS
330
27A
102
}
330
1F
100
AcDbEntity
  8
LC-002-002-----0
  6
DASHDOT
 62
     7
370
    25
100
AcDbLine
 10
596.795863
 20
475.99107
 30
0.0
 11
601.445863
 21
475.99107
 31
0.0
  0
LINE
  5
150
102
{ACAD_REACTORS
330
27A
102
}
330
1F
100
AcDbEntity
  8
LC-002-002-----0
  6
DASHDOT
 62
     7
370
    25
100
AcDbLine
 10
601.445863
 20
475.99107
 30
0.0
 11
601.445863
 21
461.89107
 31
0.0
  0
LINE
  5
151
102
{ACAD_REACTORS
330
27A
102
}
330
1F
100
AcDbEntity
  8
LC-002-002-----0
  6
DASHDOT
 62
     7
370
    25
100
AcDbLine
 10
601.445863
 20
461.89107
 30
0.0
 11
596.795863
 21
461.89107
 31
0.0
  0
LINE
  5
152
102
{ACAD_REACTORS
330
27A
102
}
330
1F
100
AcDbEntity
  8
LC-002-002-----0
  6
DASHDOT
 62
     7
370
    25
100
AcDbLine
 10
596.795863
 20
461.89107
 30
0.0
 11
596.795863
 21
423.89107
 31
0.0
  0
LINE
  5
153
102
{ACAD_REACTORS
330
27A
102
}
330
1F
100
AcDbEntity
  8
LC-002-002-----0
  6
DASHDOT
 62
     7
370
    25
100
AcDbLine
 10
596.795863
 20
423.89107
 30
0.0
 11
594.745863
 21
416.241817
 31
0.0
  0
LINE
  5
154
102
{ACAD_REACTORS
330
27A
102
}
330
1F
100
AcDbEntity
  8
LC-002-002-----0
  6
DASHDOT
 62
     7
370
    25
100
AcDbLine
 10
592.882342
 20
416.241817
 30
0.0
 11
516.381409
 21
416.409532
 31
0.0
  0
LINE
  5
155
102
{ACAD_REACTORS
330
27A
102
}
330
1F
100
AcDbEntity
  8
LC-002-002-----0
  6
DASHDOT
 62
     7
370
    25
100
AcDbLine
 10
436.306409
 20
479.688593
 30
0.0
 11
436.306409
 21
476.188593
 31
0.0
  0
LINE
  5
156
102
{ACAD_REACTORS
330
27A
102
}
330
1F
100
AcDbEntity
  8
LC-002-002-----0
  6
DASHDOT
 62
     7
370
    25
100
AcDbLine
 10
436.306409
 20
476.188593
 30
0.0
 11
431.656409
 21
476.188593
 31
0.0
  0
LINE
  5
157
102
{ACAD_REACTORS
330
27A
102
}
330
1F
100
AcDbEntity
  8
LC-002-002-----0
  6
DASHDOT
 62
     7
370
    25
100
AcDbLine
 10
431.656409
 20
476.188593
 30
0.0
 11
431.656409
 21
462.088593
 31
0.0
  0
LINE
  5
158
102
{ACAD_REACTORS
330
27A
102
}
330
1F
100
AcDbEntity
  8
LC-002-002-----0
  6
DASHDOT
 62
     7
370
    25
100
AcDbLine
 10
436.306409
 20
462.088593
 30
0.0
 11
436.306409
 21
424.088593
 31
0.0
  0
LINE
  5
159
102
{ACAD_REACTORS
330
27A
102
}
330
1F
100
AcDbEntity
  8
LC-002-002-----0
  6
DASHDOT
 62
     7
370
    25
100
AcDbLine
 10
436.306409
 20
424.088593
 30
0.0
 11
438.356409
 21
416.43934
 31
0.0
  0
LINE
  5
15A
102
{ACAD_REACTORS
330
27A
102
}
330
1F
100
AcDbEntity
  8
LC-002-002-----0
  6
DASHDOT
 62
     7
370
    25
100
AcDbLine
 10
440.219929
 20
416.43934
 30
0.0
 11
516.381409
 21
416.409532
 31
0.0
  0
LINE
  5
15C
330
1F
100
AcDbEntity
  8
LC-004-001-----0
 62
     7
370
    25
100
AcDbLine
 10
433.456409
 20
474.388593
 30
0.0
 11
433.456409
 21
463.888593
 31
0.0
  0
LINE
  5
15D
330
1F
100
AcDbEntity
  8
LC-004-001-----0
 62
     7
370
    25
100
AcDbLine
 10
438.106409
 20
463.888593
 30
0.0
 11
438.106409
 21
424.325611
 31
0.0
  0
LINE
  5
15E
330
1F
100
AcDbEntity
  8
LC-004-001-----0
 62
     7
370
    25
100
AcDbLine
 10
438.106409
 20
479.688593
 30
0.0
 11
438.106409
 21
474.388593
 31
0.0
  0
LINE
  5
15F
330
1F
100
AcDbEntity
  8
LC-004-001-----0
 62
     7
370
    25
100
AcDbLine
 10
438.106409
 20
424.325611
 30
0.0
 11
440.219929
 21
416.43934
 31
0.0
  0
LINE
  5
160
330
1F
100
AcDbEntity
  8
LC-004-001-----0
 62
     7
370
    25
100
AcDbLine
 10
433.456409
 20
463.888593
 30
0.0
 11
438.106409
 21
463.888593
 31
0.0
  0
LINE
  5
161
330
1F
100
AcDbEntity
  8
LC-004-001-----0
 62
     7
370
    25
100
AcDbLine
 10
599.645863
 20
463.69107
 30
0.0
 11
594.995863
 21
463.69107
 31
0.0
  0
LINE
  5
162
330
1F
100
AcDbEntity
  8
LC-004-001-----0
 62
     7
370
    25
100
AcDbLine
 10
599.645863
 20
474.19107
 30
0.0
 11
599.645863
 21
463.69107
 31
0.0
  0
LINE
  5
163
330
1F
100
AcDbEntity
  8
LC-004-001-----0
 62
     7
370
    25
100
AcDbLine
 10
594.995863
 20
474.19107
 30
0.0
 11
599.645863
 21
474.19107
 31
0.0
  0
LINE
  5
164
330
1F
100
AcDbEntity
  8
LC-004-001-----0
 62
     7
370
    25
100
AcDbLine
 10
594.995863
 20
479.49107
 30
0.0
 11
594.995863
 21
474.19107
 31
0.0
  0
LINE
  5
165
330
1F
100
AcDbEntity
  8
LC-004-001-----0
 62
     7
370
    25
100
AcDbLine
 10
438.106409
 20
474.388593
 30
0.0
 11
433.456409
 21
474.388593
 31
0.0
  0
LINE
  5
166
330
1F
100
AcDbEntity
  8
LC-004-001-----0
 62
     7
370
    25
100
AcDbLine
 10
594.995863
 20
463.69107
 30
0.0
 11
594.995863
 21
424.128088
 31
0.0
  0
LINE
  5
167
330
1F
100
AcDbEntity
  8
LC-004-001-----0
 62
     7
370
    25
100
AcDbLine
 10
594.995863
 20
424.128088
 30
0.0
 11
592.882342
 21
416.241817
 31
0.0
  0
LINE
  5
168
330
1F
100
AcDbEntity
  8
LC-002-002-----0
  6
DASHDOT
 62
     7
370
    25
100
AcDbLine
 10
431.656409
 20
462.088593
 30
0.0
 11
436.306409
 21
462.088593
 31
0.0
  0
LINE
  5
169
330
1F
100
AcDbEntity
  8
LC-002-002-----0
  6
DASHDOT
 62
     7
370
    25
100
AcDbLine
 10
438.106409
 20
424.325611
 30
0.0
 11
594.995863
 21
424.128088
 31
0.0
  0
LINE
  5
16A
330
1F
100
AcDbEntity
  8
LC-002-002-----0
  6
DASHDOT
 62
     7
370
    25
100
AcDbLine
 10
438.356409
 20
416.43934
 30
0.0
 11
438.356409
 21
386.991893
 31
0.0
  0
LINE
  5
16B
330
1F
100
AcDbEntity
  8
LC-002-002-----0
  6
DASHDOT
 62
     7
370
    25
100
AcDbLine
 10
440.219929
 20
416.43934
 30
0.0
 11
440.219929
 21
386.991893
 31
0.0
  0
LINE
  5
16C
330
1F
100
AcDbEntity
  8
LC-002-002-----0
  6
DASHDOT
 62
     7
370
    25
100
AcDbLine
 10
592.882342
 20
416.241817
 30
0.0
 11
592.882342
 21
386.79437
 31
0.0
  0
LINE
  5
16D
330
1F
100
AcDbEntity
  8
LC-002-002-----0
  6
DASHDOT
 62
     7
370
    25
100
AcDbLine
 10
594.745863
 20
416.241817
 30
0.0
 11
594.745863
 21
386.79437
 31
0.0
  0
LINE
  5
16E
330
1F
100
AcDbEntity
  8
LC-003-005-----0
 62
     7
370
    25
100
AcDbLine
 10
438.356409
 20
386.991893
 30
0.0
 11
438.834508
 21
386.828875
 31
0.0
  0
LINE
  5
16F
330
1F
100
AcDbEntity
  8
LC-003-005-----0
 62
     7
370
    25
100
AcDbLine
 10
438.834508
 20
386.828875
 30
0.0
 11
439.32134
 21
387.040997
 31
0.0
  0
LINE
  5
170
330
1F
100
AcDbEntity
  8
LC-003-005-----0
 62
     7
370
    25
100
AcDbLine
 10
439.32134
 20
387.040997
 30
0.0
 11
439.844696
 21
386.957844
 31
0.0
  0
LINE
  5
171
330
1F
100
AcDbEntity
  8
LC-003-005-----0
 62
     7
370
    25
100
AcDbLine
 10
439.844696
 20
386.957844
 30
0.0
 11
440.219929
 21
386.991893
 31
0.0
  0
LINE
  5
172
330
1F
100
AcDbEntity
  8
LC-003-005-----0
 62
     7
370
    25
100
AcDbLine
 10
440.219929
 20
386.991893
 30
0.0
 11
442.478712
 21
387.339076
 31
0.0
  0
LINE
  5
173
330
1F
100
AcDbEntity
  8
LC-003-005-----0
 62
     7
370
    25
100
AcDbLine
 10
442.478712
 20
387.339076
 30
0.0
 11
444.018358
 21
388.603304
 31
0.0
  0
LINE
  5
174
330
1F
100
AcDbEntity
  8
LC-003-005-----0
 62
     7
370
    25
100
AcDbLine
 10
444.018358
 20
388.603304
 30
0.0
 11
446.052316
 21
388.215217
 31
0.0
  0
LINE
  5
175
330
1F
100
AcDbEntity
  8
LC-003-005-----0
 62
     7
370
    25
100
AcDbLine
 10
446.052316
 20
388.215217
 30
0.0
 11
447.4705
 21
390.141479
 31
0.0
  0
LINE
  5
176
330
1F
100
AcDbEntity
  8
LC-003-005-----0
 62
     7
370
    25
100
AcDbLine
 10
447.4705
 20
390.141479
 30
0.0
 11
448.620536
 21
389.769705
 31
0.0
  0
LINE
  5
177
330
1F
100
AcDbEntity
  8
LC-003-005-----0
 62
     7
370
    25
100
AcDbLine
 10
448.620536
 20
389.769705
 30
0.0
 11
451.393651
 21
386.75078
 31
0.0
  0
LINE
  5
178
330
1F
100
AcDbEntity
  8
LC-003-005-----0
 62
     7
370
    25
100
AcDbLine
 10
451.393651
 20
386.75078
 30
0.0
 11
454.954764
 21
386.260657
 31
0.0
  0
LINE
  5
179
330
1F
100
AcDbEntity
  8
LC-003-005-----0
 62
     7
370
    25
100
AcDbLine
 10
454.954764
 20
386.260657
 30
0.0
 11
457.448893
 21
381.572596
 31
0.0
  0
LINE
  5
17A
330
1F
100
AcDbEntity
  8
LC-003-005-----0
 62
     7
370
    25
100
AcDbLine
 10
457.448893
 20
381.572596
 30
0.0
 11
514.676037
 21
381.482738
 31
0.0
  0
LINE
  5
17B
330
1F
100
AcDbEntity
  8
LC-003-005-----0
 62
     7
370
    25
100
AcDbLine
 10
514.676037
 20
381.482738
 30
0.0
 11
516.995403
 21
377.934197
 31
0.0
  0
LINE
  5
17C
330
1F
100
AcDbEntity
  8
LC-003-005-----0
 62
     7
370
    25
100
AcDbLine
 10
516.995403
 20
377.934197
 30
0.0
 11
572.364274
 21
379.246108
 31
0.0
  0
LINE
  5
17D
330
1F
100
AcDbEntity
  8
LC-003-005-----0
 62
     7
370
    25
100
AcDbLine
 10
572.364274
 20
379.246108
 30
0.0
 11
572.754195
 21
381.911812
 31
0.0
  0
LINE
  5
17E
330
1F
100
AcDbEntity
  8
LC-003-005-----0
 62
     7
370
    25
100
AcDbLine
 10
572.754195
 20
381.911812
 30
0.0
 11
575.328475
 21
384.25404
 31
0.0
  0
LINE
  5
17F
330
1F
100
AcDbEntity
  8
LC-003-005-----0
 62
     7
370
    25
100
AcDbLine
 10
575.328475
 20
384.25404
 30
0.0
 11
576.27455
 21
387.75407
 31
0.0
  0
LINE
  5
180
330
1F
100
AcDbEntity
  8
LC-003-005-----0
 62
     7
370
    25
100
AcDbLine
 10
576.27455
 20
387.75407
 30
0.0
 11
579.553056
 21
390.046545
 31
0.0
  0
LINE
  5
181
330
1F
100
AcDbEntity
  8
LC-003-005-----0
 62
     7
370
    25
100
AcDbLine
 10
579.553056
 20
390.046545
 30
0.0
 11
579.569778
 21
390.961088
 31
0.0
  0
LINE
  5
182
330
1F
100
AcDbEntity
  8
LC-003-005-----0
 62
     7
370
    25
100
AcDbLine
 10
579.569778
 20
390.961088
 30
0.0
 11
582.710878
 21
389.46125
 31
0.0
  0
LINE
  5
183
330
1F
100
AcDbEntity
  8
LC-003-005-----0
 62
     7
370
    25
100
AcDbLine
 10
582.710878
 20
389.46125
 30
0.0
 11
586.00939
 21
389.51309
 31
0.0
  0
LINE
  5
184
330
1F
100
AcDbEntity
  8
LC-003-005-----0
 62
     7
370
    25
100
AcDbLine
 10
586.00939
 20
389.51309
 30
0.0
 11
588.430912
 21
387.550863
 31
0.0
  0
LINE
  5
185
330
1F
100
AcDbEntity
  8
LC-003-005-----0
 62
     7
370
    25
100
AcDbLine
 10
588.430912
 20
387.550863
 30
0.0
 11
592.077679
 21
388.104264
 31
0.0
  0
LINE
  5
186
330
1F
100
AcDbEntity
  8
LC-003-005-----0
 62
     7
370
    25
100
AcDbLine
 10
592.077679
 20
388.104264
 30
0.0
 11
592.882342
 21
386.79437
 31
0.0
  0
LINE
  5
187
330
1F
100
AcDbEntity
  8
LC-003-005-----0
 62
     7
370
    25
100
AcDbLine
 10
592.882342
 20
386.79437
 30
0.0
 11
593.388341
 21
386.710046
 31
0.0
  0
LINE
  5
188
330
1F
100
AcDbEntity
  8
LC-003-005-----0
 62
     7
370
    25
100
AcDbLine
 10
593.388341
 20
386.710046
 30
0.0
 11
593.88449
 21
386.857051
 31
0.0
  0
LINE
  5
189
330
1F
100
AcDbEntity
  8
LC-003-005-----0
 62
     7
370
    25
100
AcDbLine
 10
593.88449
 20
386.857051
 30
0.0
 11
594.343555
 21
386.635851
 31
0.0
  0
LINE
  5
18A
330
1F
100
AcDbEntity
  8
LC-003-005-----0
 62
     7
370
    25
100
AcDbLine
 10
594.343555
 20
386.635851
 30
0.0
 11
594.742774
 21
386.878574
 31
0.0
  0
LINE
  5
18B
330
1F
100
AcDbEntity
  8
LC-003-005-----0
 62
     7
370
    25
100
AcDbLine
 10
594.742774
 20
386.878574
 30
0.0
 11
594.745863
 21
386.79437
 31
0.0
  0
INSERT
  5
1A7
330
1F
100
AcDbEntity
  8
LC-003-005-----0
 62
     7
370
    25
100
AcDbBlockReference
  2
*X66
 10
0.0
 20
0.0
 30
0.0
  0
INSERT
  5
1C4
330
1F
100
AcDbEntity
  8
LC-003-005-----0
 62
     7
370
    25
100
AcDbBlockReference
  2
*X77
 10
0.0
 20
0.0
 30
0.0
  0
LINE
  5
1C5
330
1F
100
AcDbEntity
  8
LC-002-002-----0
  6
DASHDOT
 62
     7
370
    25
100
AcDbLine
 10
594.245863
 20
551.744869
 30
0.0
 11
594.245863
 21
476.49107
 31
0.0
  0
LINE
  5
1C6
330
1F
100
AcDbEntity
  8
LC-002-002-----0
  6
DASHDOT
 62
     7
370
    25
100
AcDbLine
 10
594.245863
 20
476.49107
 30
0.0
 11
594.245863
 21
445.821197
 31
0.0
  0
LINE
  5
1C7
330
1F
100
AcDbEntity
  8
LC-002-002-----0
  6
DASHDOT
 62
     7
370
    25
100
AcDbLine
 10
591.745863
 20
441.49107
 30
0.0
 11
441.356409
 21
441.688593
 31
0.0
  0
LINE
  5
1C8
330
1F
100
AcDbEntity
  8
LC-002-002-----0
  6
DASHDOT
 62
     7
370
    25
100
AcDbLine
 10
438.856409
 20
446.01872
 30
0.0
 11
438.856409
 21
551.942392
 31
0.0
  0
LINE
  5
1C9
330
1F
100
AcDbEntity
  8
LC-002-002-----0
  6
DASHDOT
 62
     7
370
    25
100
AcDbLine
 10
438.106409
 20
479.688593
 30
0.0
 11
436.306409
 21
479.688593
 31
0.0
  0
LINE
  5
1CA
330
1F
100
AcDbEntity
  8
LC-002-002-----0
  6
DASHDOT
 62
     7
370
    25
100
AcDbLine
 10
441.356409
 20
441.688593
 30
0.0
 11
441.356409
 21
551.942392
 31
0.0
  0
LINE
  5
1CB
330
1F
100
AcDbEntity
  8
LC-002-002-----0
  6
DASHDOT
 62
     7
370
    25
100
AcDbLine
 10
591.745863
 20
551.744869
 30
0.0
 11
591.745863
 21
476.49107
 31
0.0
  0
LINE
  5
1CC
330
1F
100
AcDbEntity
  8
LC-002-002-----0
  6
DASHDOT
 62
     7
370
    25
100
AcDbLine
 10
591.745863
 20
476.49107
 30
0.0
 11
591.745863
 21
441.49107
 31
0.0
  0
DIMENSION
  5
1D0
330
1F
100
AcDbEntity
  8
LC-005-003-----0
 62
     7
370
    25
100
AcDbDimension
  2
*D8
 10
594.245863
 20
571.236806
 30
0.0
 11
516.551136
 21
602.036806
 31
0.0
 70
   160
  1
DN150
 71
     5
 42
155.389454
  3
LC-DIM-L-0140-02-02
100
AcDbAlignedDimension
 13
438.856409
 23
551.942392
 33
0.0
 14
594.245863
 24
551.744869
 34
0.0
100
AcDbRotatedDimension
  0
LINE
  5
1DE
330
1F
100
AcDbEntity
  8
LC-002-002-----0
  6
DASHDOT
 62
     7
370
    25
100
AcDbLine
 10
441.356409
 20
441.688593
 30
0.0
 11
438.924192
 21
445.901317
 31
0.0
  0
LINE
  5
1DF
330
1F
100
AcDbEntity
  8
LC-002-002-----0
  6
DASHDOT
 62
     7
370
    25
100
AcDbLine
 10
591.745863
 20
441.49107
 30
0.0
 11
594.245863
 21
445.821197
 31
0.0
  0
ARC
  5
1E0
330
1F
100
AcDbEntity
  8
LC-002-002-----0
  6
DASHDOT
 62
     7
370
    25
100
AcDbCircle
 10
436.156409
 20
471.888593
 30
0.0
 40
2.500000000000114
100
AcDbArc
 50
0.0
 51
179.999829
  0
ARC
  5
1E1
330
1F
100
AcDbEntity
  8
LC-002-002-----0
  6
DASHDOT
 62
     7
370
    25
100
AcDbCircle
 10
436.156409
 20
466.388593
 30
0.0
 40
2.500000000000132
100
AcDbArc
 50
179.999829
 51
359.999981
  0
LINE
  5
1E2
330
1F
100
AcDbEntity
  8
LC-002-002-----0
  6
DASHDOT
 62
     7
370
    25
100
AcDbLine
 10
433.656409
 20
466.388593
 30
0.0
 11
433.656409
 21
471.888593
 31
0.0
  0
LINE
  5
1E3
330
1F
100
AcDbEntity
  8
LC-002-002-----0
  6
DASHDOT
 62
     7
370
    25
100
AcDbLine
 10
438.656409
 20
466.388593
 30
0.0
 11
438.656409
 21
471.888593
 31
0.0
  0
INSERT
  5
1F9
330
1F
100
AcDbEntity
  8
LC-003-005-----0
 62
     7
370
    25
100
AcDbBlockReference
  2
*X89
 10
0.0
 20
0.0
 30
0.0
  0
INSERT
  5
20F
330
1F
100
AcDbEntity
  8
LC-003-005-----0
 62
     7
370
    25
100
AcDbBlockReference
  2
*X910
 10
0.0
 20
0.0
 30
0.0
  0
ARC
  5
210
330
1F
100
AcDbEntity
  8
LC-002-002-----0
  6
DASHDOT
 62
     7
370
    25
100
AcDbCircle
 10
596.946158
 20
471.691311
 30
0.0
 40
2.500000000000225
100
AcDbArc
 50
0.000115
 51
179.999963
  0
LINE
  5
211
330
1F
100
AcDbEntity
  8
LC-002-002-----0
  6
DASHDOT
 62
     7
370
    25
100
AcDbLine
 10
599.446155
 20
466.191309
 30
0.0
 11
599.446158
 21
471.691309
 31
0.0
  0
ARC
  5
212
330
1F
100
AcDbEntity
  8
LC-002-002-----0
  6
DASHDOT
 62
     7
370
    25
100
AcDbCircle
 10
596.946155
 20
466.191311
 30
0.0
 40
2.500000000000306
100
AcDbArc
 50
179.999963
 51
0.000133
  0
LINE
  5
213
330
1F
100
AcDbEntity
  8
LC-002-002-----0
  6
DASHDOT
 62
     7
370
    25
100
AcDbLine
 10
594.446155
 20
466.191313
 30
0.0
 11
594.446158
 21
471.691313
 31
0.0
  0
INSERT
  5
231
330
1F
100
AcDbEntity
  8
LC-003-005-----0
 62
     7
370
    25
100
AcDbBlockReference
  2
*X1011
 10
0.0
 20
0.0
 30
0.0
  0
INSERT
  5
24F
330
1F
100
AcDbEntity
  8
LC-003-005-----0
 62
     7
370
    25
100
AcDbBlockReference
  2
*X1112
 10
0.0
 20
0.0
 30
0.0
  0
LINE
  5
250
330
1F
100
AcDbEntity
  8
LC-002-002-----0
 62
     7
370
    25
100
AcDbLine
 10
438.856409
 20
551.942392
 30
0.0
 11
441.356409
 21
551.942392
 31
0.0
  0
LINE
  5
251
330
1F
100
AcDbEntity
  8
LC-002-002-----0
 62
     7
370
    25
100
AcDbLine
 10
441.356409
 20
551.942392
 30
0.0
 11
445.024155
 21
552.840472
 31
0.0
  0
LINE
  5
252
330
1F
100
AcDbEntity
  8
LC-002-002-----0
 62
     7
370
    25
100
AcDbLine
 10
445.024155
 20
552.840472
 30
0.0
 11
447.446715
 21
551.561533
 31
0.0
  0
LINE
  5
253
330
1F
100
AcDbEntity
  8
LC-002-002-----0
 62
     7
370
    25
100
AcDbLine
 10
447.446715
 20
551.561533
 30
0.0
 11
452.950395
 21
553.202103
 31
0.0
  0
LINE
  5
254
330
1F
100
AcDbEntity
  8
LC-002-002-----0
 62
     7
370
    25
100
AcDbLine
 10
452.950395
 20
553.202103
 30
0.0
 11
454.784955
 21
551.323386
 31
0.0
  0
LINE
  5
255
330
1F
100
AcDbEntity
  8
LC-002-002-----0
 62
     7
370
    25
100
AcDbLine
 10
454.784955
 20
551.323386
 30
0.0
 11
459.771195
 21
553.202103
 31
0.0
  0
LINE
  5
256
330
1F
100
AcDbEntity
  8
LC-002-002-----0
 62
     7
370
    25
100
AcDbLine
 10
459.771195
 20
553.202103
 30
0.0
 11
516.041955
 21
553.234038
 31
0.0
  0
LINE
  5
257
330
1F
100
AcDbEntity
  8
LC-002-002-----0
 62
     7
370
    25
100
AcDbLine
 10
516.041955
 20
553.234038
 30
0.0
 11
518.582115
 21
552.202066
 31
0.0
  0
LINE
  5
258
330
1F
100
AcDbEntity
  8
LC-002-002-----0
 62
     7
370
    25
100
AcDbLine
 10
518.582115
 20
552.202066
 30
0.0
 11
577.850089
 21
552.766433
 31
0.0
  0
LINE
  5
259
330
1F
100
AcDbEntity
  8
LC-002-002-----0
 62
     7
370
    25
100
AcDbLine
 10
577.850089
 20
552.766433
 30
0.0
 11
580.696009
 21
551.549236
 31
0.0
  0
LINE
  5
25A
330
1F
100
AcDbEntity
  8
LC-002-002-----0
 62
     7
370
    25
100
AcDbLine
 10
580.696009
 20
551.549236
 30
0.0
 11
585.376489
 21
552.34306
 31
0.0
  0
LINE
  5
25B
330
1F
100
AcDbEntity
  8
LC-002-002-----0
 62
     7
370
    25
100
AcDbLine
 10
585.376489
 20
552.34306
 30
0.0
 11
589.139689
 21
551.487494
 31
0.0
  0
LINE
  5
25C
330
1F
100
AcDbEntity
  8
LC-002-002-----0
 62
     7
370
    25
100
AcDbLine
 10
589.139689
 20
551.487494
 30
0.0
 11
591.745863
 21
551.744869
 31
0.0
  0
LINE
  5
25D
330
1F
100
AcDbEntity
  8
LC-002-002-----0
 62
     7
370
    25
100
AcDbLine
 10
591.745863
 20
551.744869
 30
0.0
 11
594.245863
 21
551.744869
 31
0.0
  0
DIMENSION
  5
25E
330
1F
100
AcDbEntity
  8
LC-005-003-----0
 62
     7
370
    25
100
AcDbDimension
  2
*D13
 10
766.381409
 20
321.537917
 30
0.0
 11
516.381409
 21
352.337917
 31
0.0
 70
   160
 71
     5
 42
500.0
  3
LC-DIM-L-0140-02-02
100
AcDbAlignedDimension
 13
266.381409
 23
458.188593
 33
0.0
 14
766.381409
 24
458.188593
 34
0.0
100
AcDbRotatedDimension
  0
DIMENSION
  5
26B
330
1F
100
AcDbEntity
  8
LC-005-003-----0
 62
     7
370
    25
100
AcDbDimension
  2
*D14
 10
250.860713
 20
504.688593
 30
0.0
 11
220.060713
 21
483.938593
 31
0.0
 70
   160
 71
     5
 42
41.5
 53
90.0
  3
LC-DIM-L-0140-02-02
100
AcDbAlignedDimension
 13
266.381409
 23
463.188593
 33
0.0
 14
433.881409
 24
504.688593
 34
0.0
 50
90.0
100
AcDbRotatedDimension
  0
ENDSEC
  0
SECTION
  2
OBJECTS
  0
DICTIONARY
  5
C
330
0
100
AcDbDictionary
281
     1
  3
ACAD_GROUP
350
D
  3
ACAD_LAYOUT
350
1A
  3
ACAD_MLINESTYLE
350
17
  3
ACAD_PLOTSETTINGS
350
19
  3
ACAD_PLOTSTYLENAME
350
E
  0
DICTIONARY
  5
D
102
{ACAD_REACTORS
330
C
102
}
330
C
100
AcDbDictionary
281
     1
  3
LCGROUP273
350
27A
  0
DICTIONARY
  5
1A
102
{ACAD_REACTORS
330
C
102
}
330
C
100
AcDbDictionary
281
     1
  3
Layout1
350
1E
  3
Layout2
350
26
  3
Model
350
22
  0
DICTIONARY
  5
17
102
{ACAD_REACTORS
330
C
102
}
330
C
100
AcDbDictionary
281
     1
  3
Standard
350
18
  0
DICTIONARY
  5
19
102
{ACAD_REACTORS
330
C
102
}
330
C
100
AcDbDictionary
281
     1
  0
ACDBDICTIONARYWDFLT
  5
E
102
{ACAD_REACTORS
330
C
102
}
330
C
100
AcDbDictionary
281
     1
  3
Normal
350
F
100
AcDbDictionaryWithDefault
340
F
  0
GROUP
  5
27A
102
{ACAD_REACTORS
330
D
102
}
330
D
100
AcDbGroup
300
GRP273
 70
     1
 71
     1
340
14D
340
14E
340
14F
340
150
340
151
340
152
340
153
340
154
340
155
340
156
340
157
340
158
340
159
340
15A
  0
LAYOUT
  5
1E
102
{ACAD_REACTORS
330
1A
102
}
330
1A
100
AcDbPlotSettings
  1

  2

  4

  6

 40
0.0
 41
0.0
 42
0.0
 43
0.0
 44
0.0
 45
0.0
 46
0.0
 47
0.0
 48
0.0
 49
0.0
140
0.0
141
0.0
142
1.0
143
1.0
 70
   688
 72
     0
 73
     0
 74
     5
  7

 75
    16
147
1.0
148
0.0
149
0.0
100
AcDbLayout
  1
Layout1
 70
     1
 71
     1
 10
95.030059
 20
211.053917
 11
935.030059
 21
805.053917
 12
0.0
 22
0.0
 32
0.0
 14
95.030059
 24
211.053917
 34
0.0
 15
935.030059
 25
805.053917
 35
0.0
146
0.0
 13
0.0
 23
0.0
 33
0.0
 16
1.0
 26
0.0
 36
0.0
 17
0.0
 27
1.0
 37
0.0
 76
     0
330
1B
  0
LAYOUT
  5
26
102
{ACAD_REACTORS
330
1A
102
}
330
1A
100
AcDbPlotSettings
  1

  2

  4

  6

 40
0.0
 41
0.0
 42
0.0
 43
0.0
 44
0.0
 45
0.0
 46
0.0
 47
0.0
 48
0.0
 49
0.0
140
0.0
141
0.0
142
1.0
143
1.0
 70
   688
 72
     0
 73
     0
 74
     5
  7

 75
    16
147
1.0
148
0.0
149
0.0
100
AcDbLayout
  1
Layout2
 70
     1
 71
     2
 10
0.0
 20
0.0
 11
0.0
 21
0.0
 12
0.0
 22
0.0
 32
0.0
 14
0.0
 24
0.0
 34
0.0
 15
0.0
 25
0.0
 35
0.0
146
0.0
 13
0.0
 23
0.0
 33
0.0
 16
1.0
 26
0.0
 36
0.0
 17
0.0
 27
1.0
 37
0.0
 76
     0
330
23
  0
LAYOUT
  5
22
102
{ACAD_REACTORS
330
1A
102
}
330
1A
100
AcDbPlotSettings
  1

  2

  4

  6

 40
0.0
 41
0.0
 42
0.0
 43
0.0
 44
0.0
 45
0.0
 46
0.0
 47
0.0
 48
0.0
 49
0.0
140
0.0
141
0.0
142
1.0
143
1.0
 70
  1776
 72
     0
 73
     0
 74
     0
  7

 75
     0
147
1.0
148
0.0
149
0.0
100
AcDbLayout
  1
Model
 70
     1
 71
     0
 10
95.030059
 20
211.053917
 11
935.030059
 21
805.053917
 12
218.530059
 22
298.053917
 32
0.0
 14
95.030059
 24
211.053917
 34
0.0
 15
935.030059
 25
805.053917
 35
0.0
146
0.0
 13
0.0
 23
0.0
 33
0.0
 16
1.0
 26
0.0
 36
0.0
 17
0.0
 27
1.0
 37
0.0
 76
     0
330
1F
  0
MLINESTYLE
  5
18
102
{ACAD_REACTORS
330
17
102
}
330
17
100
AcDbMlineStyle
  2
Standard
 70
     0
  3

 62
   256
 51
90.0
 52
90.0
 71
     2
 49
0.5
 62
   256
  6
BYLAYER
 49
-0.5
 62
   256
  6
BYLAYER
  0
ACDBPLACEHOLDER
  5
F
102
{ACAD_REACTORS
330
E
102
}
330
E
  0
ENDSEC
  0
EOF
