  0
SECTION
  2
HEADER
  9
$ACADVER
  1
AC1009
  9
$INSBASE
 10
0.0
 20
0.0
 30
0.0
  9
$EXTMIN
 10
0.0
 20
0.0
 30
0.0
  9
$EXTMAX
 10
840.0
 20
594.0
 30
0.0
  9
$LIMMIN
 10
0.0
 20
0.0
  9
$LIMMAX
 10
840.0
 20
594.0
  9
$ORTHOMODE
 70
     0
  9
$REGENMODE
 70
     1
  9
$FILLMODE
 70
     1
  9
$QTEXTMODE
 70
     0
  9
$MIRRTEXT
 70
     1
  9
$DRAGMODE
 70
     2
  9
$LTSCALE
 40
2.0
  9
$OSMODE
 70
     0
  9
$ATTMODE
 70
     1
  9
$TEXTSIZE
 40
0.2
  9
$TRACEWID
 40
0.05
  9
$TEXTSTYLE
  7
STANDARD
  9
$CLAYER
  8
0
  9
$CELTYPE
  6
BYLAYER
  9
$CECOLOR
 62
     7
  9
$DIMSCALE
 40
2.0
  9
$DIMASZ
 40
3.5
  9
$DIMEXO
 40
0.0625
  9
$DIMDLI
 40
0.38
  9
$DIMRND
 40
0.0
  9
$DIMDLE
 40
0.0
  9
$DIMEXE
 40
0.18
  9
$DIMTP
 40
0.0
  9
$DIMTM
 40
0.0
  9
$DIMTXT
 40
3.5
  9
$DIMCEN
 40
0.09
  9
$DIMTSZ
 40
0.0
  9
$DIMTOL
 70
     0
  9
$DIMLIM
 70
     0
  9
$DIMTIH
 70
     1
  9
$DIMTOH
 70
     1
  9
$DIMSE1
 70
     0
  9
$DIMSE2
 70
     0
  9
$DIMTAD
 70
     1
  9
$DIMZIN
 70
     0
  9
$DIMBLK
  1

  9
$DIMASO
 70
     1
  9
$DIMSHO
 70
     1
  9
$DIMPOST
  1

  9
$DIMAPOST
  1

  9
$DIMALT
 70
     0
  9
$DIMALTD
 70
     2
  9
$DIMALTF
 40
25.4
  9
$DIMLFAC
 40
1.0
  9
$DIMTOFL
 70
     0
  9
$DIMTVP
 40
0.0
  9
$DIMTIX
 70
     0
  9
$DIMSOXD
 70
     0
  9
$DIMSAH
 70
     0
  9
$DIMBLK1
  1

  9
$DIMBLK2
  1

  9
$DIMSTYLE
  2
STANDARD
  9
$DIMCLRD
 70
     0
  9
$DIMCLRE
 70
     0
  9
$DIMCLRT
 70
     0
  9
$DIMTFAC
 40
1.0
  9
$DIMGAP
 40
0.09
  9
$LUNITS
 70
     2
  9
$LUPREC
 70
     2
  9
$AXISMODE
 70
     0
  9
$AXISUNIT
 10
0.0
 20
0.0
  9
$SKETCHINC
 40
0.1
  9
$FILLETRAD
 40
0.0
  9
$AUNITS
 70
     0
  9
$AUPREC
 70
     0
  9
$MENU
  1
acad
  9
$ELEVATION
 40
0.0
  9
$PELEVATION
 40
0.0
  9
$THICKNESS
 40
0.0
  9
$LIMCHECK
 70
     0
  9
$BLIPMODE
 70
     1
  9
$CHAMFERA
 40
0.0
  9
$CHAMFERB
 40
0.0
  9
$SKPOLY
 70
     0
  9
$TDCREATE
 40
0.000000000
  9
$TDUPDATE
 40
0.000000000
  9
$TDINDWG
 40
0.0000000000
  9
$TDUSRTIMER
 40
0.0000000000
  9
$USRTIMER
 70
     1
  9
$ANGBASE
 50
0.0
  9
$ANGDIR
 70
     0
  9
$PDMODE
 70
     0
  9
$PDSIZE
 40
0.0
  9
$PLINEWID
 40
0.0
  9
$COORDS
 70
     0
  9
$SPLFRAME
 70
     0
  9
$SPLINETYPE
 70
     6
  9
$SPLINESEGS
 70
     8
  9
$ATTDIA
 70
     0
  9
$ATTREQ
 70
     1
  9
$HANDLING
 70
     1
  9
$HANDSEED
  5
101
  9
$SURFTAB1
 70
     6
  9
$SURFTAB2
 70
     6
  9
$SURFTYPE
 70
     6
  9
$SURFU
 70
     6
  9
$SURFV
 70
     6
  9
$UCSNAME
  2

  9
$UCSORG
 10
0.0
 20
0.0
 30
0.0
  9
$UCSXDIR
 10
1.0
 20
0.0
 30
0.0
  9
$UCSYDIR
 10
0.0
 20
1.0
 30
0.0
  9
$PUCSNAME
  2

  9
$PUCSORG
 10
0.0
 20
0.0
 30
0.0
  9
$PUCSXDIR
 10
1.0
 20
0.0
 30
0.0
  9
$PUCSYDIR
 10
0.0
 20
1.0
 30
0.0
  9
$USERI1
 70
     0
  9
$USERI2
 70
     0
  9
$USERI3
 70
     0
  9
$USERI4
 70
     0
  9
$USERI5
 70
     0
  9
$USERR1
 40
0.0
  9
$USERR2
 40
0.0
  9
$USERR3
 40
0.0
  9
$USERR4
 40
0.0
  9
$USERR5
 40
0.0
  9
$WORLDVIEW
 70
     1
  9
$SHADEDGE
 70
     3
  9
$SHADEDIF
 70
    70
  9
$TILEMODE
 70
     1
  9
$MAXACTVP
 70
    16
  9
$PINSBASE
 10
0.0
 20
0.0
 30
0.0
  9
$PLIMCHECK
 70
     0
  9
$PEXTMIN
 10
1.000000E+20
 20
1.000000E+20
 30
1.000000E+20
  9
$PEXTMAX
 10
-1.000000E+20
 20
-1.000000E+20
 30
-1.000000E+20
  9
$PLIMMIN
 10
0.0
 20
0.0
  9
$PLIMMAX
 10
840.0
 20
594.0
  9
$UNITMODE
 70
     0
  9
$VISRETAIN
 70
     0
  9
$PLINEGEN
 70
     1
  9
$PSLTSCALE
 70
     0
  9
$TREEDEPTH
 70
  3020
  9
$DWGCODEPAGE
  3
dos850
  0
ENDSEC
  0
SECTION
  2
TABLES
  0
TABLE
  2
VPORT
 70
     1
  0
VPORT
  2
*ACTIVE
 70
     0
 10
0.0
 20
0.0
 11
1.0
 21
1.0
 12
420.0
 22
297.0
 13
0.0
 23
0.0
 14
1.0
 24
1.0
 15
0.0
 25
0.0
 16
0.0
 26
0.0
 36
1.0
 17
0.0
 27
0.0
 37
0.0
 40
594.0
 41
1.604229
 42
50.0
 43
0.0
 44
0.0
 50
0.0
 51
0.0
 71
     0
 72
   100
 73
     1
 74
     1
 75
     0
 76
     0
 77
     0
 78
     0
  0
ENDTAB
  0
TABLE
  2
LTYPE
 70
     2
  0
LTYPE
  2
CONTINUOUS
 70
    64
  3
Solid line
 72
    65
 73
     0
 40
0.0
  0
LTYPE
  2
DASHDOT
 70
    64
  3
__ . __ . __ . __ . __
 72
    65
 73
     4
 40
7.5
 49
5.0
 49
-1.25
 49
0.0
 49
-1.25
  0
ENDTAB
  0
TABLE
  2
LAYER
 70
    10
  0
LAYER
  2
0
 70
     0
 62
     7
  6
CONTINUOUS
  0
LAYER
  2
LC-INFO-1-2-MM-A3-0
 70
     1
 62
    -1
  6
CONTINUOUS
  0
LAYER
  2
LC-003-005-----0
 70
     0
 62
     2
  6
CONTINUOUS
  0
LAYER
  2
LC-006-003-MTH-0
 70
     0
 62
     2
  6
CONTINUOUS
  0
LAYER
  2
LC-007-003-MTG-0
 70
     0
 62
     2
  6
CONTINUOUS
  0
LAYER
  2
LC-005-003-----0
 70
     0
 62
     2
  6
CONTINUOUS
  0
LAYER
  2
LC-004-000-----0
 70
     0
 62
     7
  6
CONTINUOUS
  0
LAYER
  2
LC-001-002-----0
 70
     0
 62
     1
  6
CONTINUOUS
  0
LAYER
  2
LC-002-002-RND-0
 70
     0
 62
     1
  6
CONTINUOUS
  0
LAYER
  2
LC-000
 70
     0
 62
     7
  6
CONTINUOUS
  0
ENDTAB
  0
TABLE
  2
STYLE
 70
     4
  0
STYLE
  2
STANDARD
 70
     0
 40
0.0
 41
1.0
 50
0.0
 71
     0
 42
0.0
  3
txt
  4

  0
STYLE
  2
LC-STANDARD
 70
    64
 40
0.0
 41
1.0
 50
0.0
 71
     0
 42
3.5
  3
MONOTXT
  4

  0
STYLE
  2
LC-TXTSTYLE-150-400-0-0-D2
 70
    64
 40
0.0
 41
1.0
 50
15.0
 71
     0
 42
3.5
  3
MONOTXT
  4

  0
STYLE
  2
LC-TXTSTYLE-150-400-0-0-D3
 70
    64
 40
0.0
 41
1.0
 50
15.0
 71
     0
 42
3.5
  3
LC-STANDARD
  4

  0
ENDTAB
  0
TABLE
  2
VIEW
 70
     0
  0
ENDTAB
  0
TABLE
  2
UCS
 70
     0
  0
ENDTAB
  0
TABLE
  2
APPID
 70
     1
  0
APPID
  2
ACAD
 70
     0
  0
ENDTAB
  0
TABLE
  2
DIMSTYLE
 70
     3
  0
DIMSTYLE
  2
STANDARD
 70
     0
  3

  4

  5

  6

  7

 40
1.0
 41
0.18
 42
0.0625
 43
0.38
 44
0.18
 45
0.0
 46
0.0
 47
0.0
 48
0.0
 71
     0
 72
     0
 73
     1
 74
     1
 75
     0
 76
     0
 77
     0
 78
     0
140
0.18
141
0.09
142
0.0
143
25.4
144
1.0
145
0.0
146
1.0
147
0.09
170
     0
171
     2
172
     0
173
     0
174
     0
175
     0
176
     0
177
     0
178
     0
  0
DIMSTYLE
  2
LC-STANDARD
 70
     0
  3

  4

  5

  6

  7

 40
1.0
 41
3.5
 42
0.0
 43
7.5
 44
1.8
 45
0.0
 46
0.0
 47
0.0
 48
0.0
 71
     0
 72
     0
 73
     0
 74
     0
 75
     0
 76
     0
 77
     1
 78
     8
140
3.5
141
0.0
142
0.0
143
25.4
144
1.0
145
0.0
146
0.71
147
1.5
170
     0
171
     2
172
     1
173
     0
174
     0
175
     0
176
     0
177
     0
178
     3
  0
DIMSTYLE
  2
LC-DIM-L-0090-02-02
 70
     0
  3

  4

  5

  6

  7

 40
2.0
 41
3.5
 42
0.0
 43
7.5
 44
1.8
 45
0.0
 46
0.0
 47
0.0
 48
0.0
 71
     0
 72
     0
 73
     0
 74
     0
 75
     0
 76
     0
 77
     1
 78
     8
140
9.0
141
0.0
142
0.0
143
25.4
144
1.0
145
0.0
146
0.71
147
1.5
170
     0
171
     2
172
     0
173
     0
174
     0
175
     0
176
     2
177
     2
178
     6
  0
ENDTAB
  0
ENDSEC
  0
SECTION
  2
BLOCKS
  0
BLOCK
  8
0
  5
23
  2
*X0
 70
    65
 10
258.632259
 20
293.865312
 30
0.0
  3
*X0
  0
LINE
  8
LC-003-005-----0
  6
CONTINUOUS
  5
25
 10
269.116581
 20
293.865318
 30
0.0
 11
270.057233
 21
294.80597
 31
0.0
  0
LINE
  8
LC-003-005-----0
  6
CONTINUOUS
  5
26
 10
265.581067
 20
293.865339
 30
0.0
 11
270.057233
 21
298.341504
 31
0.0
  0
LINE
  8
LC-003-005-----0
  6
CONTINUOUS
  5
27
 10
262.045554
 20
293.865359
 30
0.0
 11
268.474375
 21
300.29418
 31
0.0
  0
LINE
  8
LC-003-005-----0
  6
CONTINUOUS
  5
28
 10
272.383274
 20
304.203079
 30
0.0
 11
272.617463
 21
304.437268
 31
0.0
  0
LINE
  8
LC-003-005-----0
  6
CONTINUOUS
  5
29
 10
261.781814
 20
297.137154
 30
0.0
 11
266.616758
 21
301.972097
 31
0.0
  0
LINE
  8
LC-003-005-----0
  6
CONTINUOUS
  5
2A
 10
268.84774
 20
304.203079
 30
0.0
 11
270.376026
 21
305.731365
 31
0.0
  0
LINE
  8
LC-003-005-----0
  6
CONTINUOUS
  5
2B
 10
261.781888
 20
300.672761
 30
0.0
 11
268.134589
 21
307.025462
 31
0.0
  0
LINE
  8
LC-003-005-----0
  6
CONTINUOUS
  5
2C
 10
271.651553
 20
310.542426
 30
0.0
 11
272.168926
 21
311.059799
 31
0.0
  0
LINE
  8
LC-003-005-----0
  6
CONTINUOUS
  5
2D
 10
261.781961
 20
304.208368
 30
0.0
 11
265.893152
 21
308.319559
 31
0.0
  0
LINE
  8
LC-003-005-----0
  6
CONTINUOUS
  5
2E
 10
268.114383
 20
310.54079
 30
0.0
 11
269.927489
 21
312.353896
 31
0.0
  0
LINE
  8
LC-003-005-----0
  6
CONTINUOUS
  5
2F
 10
261.782034
 20
307.743975
 30
0.0
 11
267.686052
 21
313.647993
 31
0.0
  0
LINE
  8
LC-003-005-----0
  6
CONTINUOUS
  5
30
 10
270.909648
 20
316.871589
 30
0.0
 11
271.720389
 21
317.68233
 31
0.0
  0
LINE
  8
LC-003-005-----0
  6
CONTINUOUS
  5
31
 10
261.782107
 20
311.279582
 30
0.0
 11
265.444615
 21
314.94209
 31
0.0
  0
LINE
  8
LC-003-005-----0
  6
CONTINUOUS
  5
32
 10
267.374064
 20
316.871539
 30
0.0
 11
269.478952
 21
318.976427
 31
0.0
  0
LINE
  8
LC-003-005-----0
  6
CONTINUOUS
  5
33
 10
261.78218
 20
314.815189
 30
0.0
 11
267.237515
 21
320.270524
 31
0.0
  0
LINE
  8
LC-003-005-----0
  6
CONTINUOUS
  5
34
 10
270.170285
 20
323.203294
 30
0.0
 11
271.231555
 21
324.264564
 31
0.0
  0
LINE
  8
LC-003-005-----0
  6
CONTINUOUS
  5
35
 10
261.782225
 20
318.350768
 30
0.0
 11
265.084456
 21
321.652998
 31
0.0
  0
LINE
  8
LC-003-005-----0
  6
CONTINUOUS
  5
36
 10
266.634756
 20
323.203298
 30
0.0
 11
268.990118
 21
325.558661
 31
0.0
  0
LINE
  8
LC-003-005-----0
  6
CONTINUOUS
  5
37
 10
272.934743
 20
329.503286
 30
0.0
 11
272.984161
 21
329.552703
 31
0.0
  0
LINE
  8
LC-003-005-----0
  6
CONTINUOUS
  5
38
 10
261.78223
 20
321.886307
 30
0.0
 11
266.748681
 21
326.852758
 31
0.0
  0
LINE
  8
LC-003-005-----0
  6
CONTINUOUS
  5
39
 10
269.399216
 20
329.503293
 30
0.0
 11
270.742791
 21
330.846868
 31
0.0
  0
LINE
  8
LC-003-005-----0
  6
CONTINUOUS
  5
3A
 10
261.782235
 20
325.421845
 30
0.0
 11
264.936048
 21
328.575658
 31
0.0
  0
LINE
  8
LC-003-005-----0
  6
CONTINUOUS
  5
3B
 10
265.85988
 20
329.499491
 30
0.0
 11
268.501422
 21
332.141032
 31
0.0
  0
LINE
  8
LC-003-005-----0
  6
CONTINUOUS
  5
3C
 10
272.163722
 20
335.803332
 30
0.0
 11
272.495324
 21
336.134935
 31
0.0
  0
LINE
  8
LC-003-005-----0
  6
CONTINUOUS
  5
3D
 10
261.78224
 20
328.957384
 30
0.0
 11
266.260053
 21
333.435197
 31
0.0
  0
LINE
  8
LC-003-005-----0
  6
CONTINUOUS
  5
3E
 10
268.628354
 20
335.803498
 30
0.0
 11
270.253887
 21
337.429031
 31
0.0
  0
LINE
  8
LC-003-005-----0
  6
CONTINUOUS
  5
3F
 10
261.782244
 20
332.492922
 30
0.0
 11
268.01245
 21
338.723128
 31
0.0
  0
LINE
  8
LC-003-005-----0
  6
CONTINUOUS
  5
40
 10
271.392453
 20
342.103131
 30
0.0
 11
271.960262
 21
342.67094
 31
0.0
  0
LINE
  8
LC-003-005-----0
  6
CONTINUOUS
  5
41
 10
261.782249
 20
336.028461
 30
0.0
 11
265.771013
 21
340.017225
 31
0.0
  0
LINE
  8
LC-003-005-----0
  6
CONTINUOUS
  5
42
 10
267.857028
 20
342.10324
 30
0.0
 11
269.621372
 21
343.867584
 31
0.0
  0
LINE
  8
LC-003-005-----0
  6
CONTINUOUS
  5
43
 10
261.782254
 20
339.564
 30
0.0
 11
267.282482
 21
345.064228
 31
0.0
  0
LINE
  8
LC-003-005-----0
  6
CONTINUOUS
  5
44
 10
261.782258
 20
343.099538
 30
0.0
 11
264.943593
 21
346.260873
 31
0.0
  0
LINE
  8
LC-003-005-----0
  6
CONTINUOUS
  5
45
 10
258.825495
 20
343.678309
 30
0.0
 11
262.604703
 21
347.457517
 31
0.0
  0
ENDBLK
  8
0
  5
46
  0
BLOCK
  8
0
  5
48
  2
*X1
 70
    65
 10
376.879559
 20
293.864647
 30
0.0
  3
*X1
  0
LINE
  8
LC-003-005-----0
  6
CONTINUOUS
  5
49
 10
385.788717
 20
293.864835
 30
0.0
 11
388.332243
 21
296.408361
 31
0.0
  0
LINE
  8
LC-003-005-----0
  6
CONTINUOUS
  5
4A
 10
382.253003
 20
293.864655
 30
0.0
 11
388.332239
 21
299.943891
 31
0.0
  0
LINE
  8
LC-003-005-----0
  6
CONTINUOUS
  5
4B
 10
380.057233
 20
295.204419
 30
0.0
 11
388.332236
 21
303.479422
 31
0.0
  0
LINE
  8
LC-003-005-----0
  6
CONTINUOUS
  5
4C
 10
380.057233
 20
298.739953
 30
0.0
 11
381.344121
 21
300.026841
 31
0.0
  0
LINE
  8
LC-003-005-----0
  6
CONTINUOUS
  5
4D
 10
384.792764
 20
303.475484
 30
0.0
 11
388.332232
 21
307.014952
 31
0.0
  0
LINE
  8
LC-003-005-----0
  6
CONTINUOUS
  5
4E
 10
381.989588
 20
304.207842
 30
0.0
 11
388.332228
 21
310.550482
 31
0.0
  0
LINE
  8
LC-003-005-----0
  6
CONTINUOUS
  5
4F
 10
378.454057
 20
304.207845
 30
0.0
 11
380.604845
 21
306.358633
 31
0.0
  0
LINE
  8
LC-003-005-----0
  6
CONTINUOUS
  5
50
 10
384.617128
 20
310.370916
 30
0.0
 11
388.332225
 21
314.086013
 31
0.0
  0
LINE
  8
LC-003-005-----0
  6
CONTINUOUS
  5
51
 10
381.250302
 20
310.539624
 30
0.0
 11
388.332223
 21
317.621545
 31
0.0
  0
LINE
  8
LC-003-005-----0
  6
CONTINUOUS
  5
52
 10
377.714772
 20
310.539627
 30
0.0
 11
378.780478
 21
311.605334
 31
0.0
  0
LINE
  8
LC-003-005-----0
  6
CONTINUOUS
  5
53
 10
384.046547
 20
316.871403
 30
0.0
 11
388.332227
 21
321.157083
 31
0.0
  0
LINE
  8
LC-003-005-----0
  6
CONTINUOUS
  5
54
 10
380.511018
 20
316.871408
 30
0.0
 11
388.332232
 21
324.692622
 31
0.0
  0
LINE
  8
LC-003-005-----0
  6
CONTINUOUS
  5
55
 10
383.307261
 20
323.203185
 30
0.0
 11
388.332237
 21
328.22816
 31
0.0
  0
LINE
  8
LC-003-005-----0
  6
CONTINUOUS
  5
56
 10
379.771731
 20
323.203188
 30
0.0
 11
383.49686
 21
326.928317
 31
0.0
  0
LINE
  8
LC-003-005-----0
  6
CONTINUOUS
  5
57
 10
385.175238
 20
328.606696
 30
0.0
 11
388.332241
 21
331.763699
 31
0.0
  0
LINE
  8
LC-003-005-----0
  6
CONTINUOUS
  5
58
 10
382.536195
 20
329.503186
 30
0.0
 11
388.332246
 21
335.299238
 31
0.0
  0
LINE
  8
LC-003-005-----0
  6
CONTINUOUS
  5
59
 10
379.000666
 20
329.503191
 30
0.0
 11
381.672492
 21
332.175018
 31
0.0
  0
LINE
  8
LC-003-005-----0
  6
CONTINUOUS
  5
5A
 10
384.941571
 20
335.444096
 30
0.0
 11
388.332251
 21
338.834776
 31
0.0
  0
LINE
  8
LC-003-005-----0
  6
CONTINUOUS
  5
5B
 10
381.765127
 20
335.803186
 30
0.0
 11
388.332256
 21
342.370315
 31
0.0
  0
LINE
  8
LC-003-005-----0
  6
CONTINUOUS
  5
5C
 10
389.64097
 20
343.679029
 30
0.0
 11
391.401382
 21
345.439442
 31
0.0
  0
LINE
  8
LC-003-005-----0
  6
CONTINUOUS
  5
5D
 10
378.229597
 20
335.80319
 30
0.0
 11
379.848125
 21
337.421718
 31
0.0
  0
LINE
  8
LC-003-005-----0
  6
CONTINUOUS
  5
5E
 10
384.480051
 20
342.053644
 30
0.0
 11
389.89221
 21
347.465803
 31
0.0
  0
LINE
  8
LC-003-005-----0
  6
CONTINUOUS
  5
5F
 10
380.99406
 20
342.103187
 30
0.0
 11
385.132455
 21
346.241582
 31
0.0
  0
LINE
  8
LC-003-005-----0
  6
CONTINUOUS
  5
60
 10
377.458529
 20
342.10319
 30
0.0
 11
377.89212
 21
342.536781
 31
0.0
  0
ENDBLK
  8
0
  5
61
  0
BLOCK
  8
0
  5
63
  2
BLK1
 70
    64
 10
0.0
 20
0.0
 30
0.0
  3
BLK1
  0
ENDBLK
  8
0
  5
64
  0
BLOCK
  8
0
  5
66
  2
*D3
 70
    65
 10
0.0
 20
0.0
 30
0.0
  3
*D3
  0
LINE
  8
LC-006-003-MTH-0
  6
CONTINUOUS
  5
68
 10
261.781747
 20
293.865361
 30
0.0
 11
229.2
 21
293.865361
 31
0.0
  0
LINE
  8
LC-006-003-MTH-0
  6
CONTINUOUS
  5
69
 10
261.782256
 20
347.879032
 30
0.0
 11
229.2
 21
347.879032
 31
0.0
  0
LINE
  8
LC-007-003-MTG-0
  6
CONTINUOUS
  5
6B
 10
240.0
 20
293.865361
 30
0.0
 11
240.0
 21
347.879032
 31
0.0
  0
LINE
  8
LC-005-003-----0
  6
CONTINUOUS
  5
6D
 10
237.650529
 20
311.711368
 30
0.0
 11
240.0
 21
293.865361
 31
0.0
  0
LINE
  8
LC-005-003-----0
  6
CONTINUOUS
  5
6E
 10
240.0
 20
293.865361
 30
0.0
 11
242.349471
 21
311.711368
 31
0.0
  0
LINE
  8
LC-005-003-----0
  6
CONTINUOUS
  5
6F
 10
242.349471
 20
311.711368
 30
0.0
 11
237.650529
 21
311.711368
 31
0.0
  0
LINE
  8
LC-005-003-----0
  6
CONTINUOUS
  5
70
 10
238.261391
 20
311.751407
 30
0.0
 11
240.0
 21
298.545361
 31
0.0
  0
LINE
  8
LC-005-003-----0
  6
CONTINUOUS
  5
71
 10
240.0
 20
298.545361
 30
0.0
 11
241.738609
 21
311.751407
 31
0.0
  0
LINE
  8
LC-005-003-----0
  6
CONTINUOUS
  5
72
 10
238.872254
 20
311.791445
 30
0.0
 11
240.0
 21
303.225361
 31
0.0
  0
LINE
  8
LC-005-003-----0
  6
CONTINUOUS
  5
73
 10
240.0
 20
303.225361
 30
0.0
 11
241.127746
 21
311.791445
 31
0.0
  0
LINE
  8
LC-005-003-----0
  6
CONTINUOUS
  5
74
 10
239.483116
 20
311.831483
 30
0.0
 11
240.0
 21
307.905361
 31
0.0
  0
LINE
  8
LC-005-003-----0
  6
CONTINUOUS
  5
75
 10
240.0
 20
307.905361
 30
0.0
 11
240.516884
 21
311.831483
 31
0.0
  0
LINE
  8
LC-005-003-----0
  6
CONTINUOUS
  5
76
 10
242.349471
 20
330.033024
 30
0.0
 11
240.0
 21
347.879032
 31
0.0
  0
LINE
  8
LC-005-003-----0
  6
CONTINUOUS
  5
77
 10
240.0
 20
347.879032
 30
0.0
 11
237.650529
 21
330.033024
 31
0.0
  0
LINE
  8
LC-005-003-----0
  6
CONTINUOUS
  5
78
 10
237.650529
 20
330.033024
 30
0.0
 11
242.349471
 21
330.033024
 31
0.0
  0
LINE
  8
LC-005-003-----0
  6
CONTINUOUS
  5
79
 10
241.738609
 20
329.992986
 30
0.0
 11
240.0
 21
343.199032
 31
0.0
  0
LINE
  8
LC-005-003-----0
  6
CONTINUOUS
  5
7A
 10
240.0
 20
343.199032
 30
0.0
 11
238.261391
 21
329.992986
 31
0.0
  0
LINE
  8
LC-005-003-----0
  6
CONTINUOUS
  5
7B
 10
241.127746
 20
329.952948
 30
0.0
 11
240.0
 21
338.519032
 31
0.0
  0
LINE
  8
LC-005-003-----0
  6
CONTINUOUS
  5
7C
 10
240.0
 20
338.519032
 30
0.0
 11
238.872254
 21
329.952948
 31
0.0
  0
LINE
  8
LC-005-003-----0
  6
CONTINUOUS
  5
7D
 10
240.516884
 20
329.91291
 30
0.0
 11
240.0
 21
333.839032
 31
0.0
  0
LINE
  8
LC-005-003-----0
  6
CONTINUOUS
  5
7E
 10
240.0
 20
333.839032
 30
0.0
 11
239.483116
 21
329.91291
 31
0.0
  0
TEXT
  8
LC-005-003-----0
  6
CONTINUOUS
 62
     6
  5
80
 10
229.568001
 20
312.286254
 30
0.0
 40
18.0
  1
54
 50
90.0
 41
0.9
 51
15.0
  7
LC-TXTSTYLE-150-400-0-0-D0
 72
     1
 11
229.568001
 21
324.149246
 31
0.0
  0
ENDBLK
  8
0
  5
81
  0
BLOCK
  8
0
  5
83
  2
*D4
 70
    65
 10
0.0
 20
0.0
 30
0.0
  3
*D4
  0
LINE
  8
LC-006-003-MTH-0
  6
CONTINUOUS
  5
84
 10
261.781747
 20
293.865361
 30
0.0
 11
261.781747
 21
241.2
 31
0.0
  0
LINE
  8
LC-006-003-MTH-0
  6
CONTINUOUS
  5
85
 10
388.332245
 20
293.865046
 30
0.0
 11
388.332245
 21
241.2
 31
0.0
  0
LINE
  8
LC-007-003-MTG-0
  6
CONTINUOUS
  5
86
 10
261.781747
 20
252.0
 30
0.0
 11
388.332245
 21
252.0
 31
0.0
  0
LINE
  8
LC-005-003-----0
  6
CONTINUOUS
  5
87
 10
279.627754
 20
254.349471
 30
0.0
 11
261.781747
 21
252.0
 31
0.0
  0
LINE
  8
LC-005-003-----0
  6
CONTINUOUS
  5
88
 10
261.781747
 20
252.0
 30
0.0
 11
279.627754
 21
249.650529
 31
0.0
  0
LINE
  8
LC-005-003-----0
  6
CONTINUOUS
  5
89
 10
279.627754
 20
249.650529
 30
0.0
 11
279.627754
 21
254.349471
 31
0.0
  0
LINE
  8
LC-005-003-----0
  6
CONTINUOUS
  5
8A
 10
279.667792
 20
253.738609
 30
0.0
 11
266.461747
 21
252.0
 31
0.0
  0
LINE
  8
LC-005-003-----0
  6
CONTINUOUS
  5
8B
 10
266.461747
 20
252.0
 30
0.0
 11
279.667792
 21
250.261391
 31
0.0
  0
LINE
  8
LC-005-003-----0
  6
CONTINUOUS
  5
8C
 10
279.70783
 20
253.127746
 30
0.0
 11
271.141747
 21
252.0
 31
0.0
  0
LINE
  8
LC-005-003-----0
  6
CONTINUOUS
  5
8D
 10
271.141747
 20
252.0
 30
0.0
 11
279.70783
 21
250.872254
 31
0.0
  0
LINE
  8
LC-005-003-----0
  6
CONTINUOUS
  5
8E
 10
279.747868
 20
252.516884
 30
0.0
 11
275.821747
 21
252.0
 31
0.0
  0
LINE
  8
LC-005-003-----0
  6
CONTINUOUS
  5
8F
 10
275.821747
 20
252.0
 30
0.0
 11
279.747868
 21
251.483116
 31
0.0
  0
LINE
  8
LC-005-003-----0
  6
CONTINUOUS
  5
90
 10
370.486238
 20
249.650529
 30
0.0
 11
388.332245
 21
252.0
 31
0.0
  0
LINE
  8
LC-005-003-----0
  6
CONTINUOUS
  5
91
 10
388.332245
 20
252.0
 30
0.0
 11
370.486238
 21
254.349471
 31
0.0
  0
LINE
  8
LC-005-003-----0
  6
CONTINUOUS
  5
92
 10
370.486238
 20
254.349471
 30
0.0
 11
370.486238
 21
249.650529
 31
0.0
  0
LINE
  8
LC-005-003-----0
  6
CONTINUOUS
  5
93
 10
370.4462
 20
250.261391
 30
0.0
 11
383.652245
 21
252.0
 31
0.0
  0
LINE
  8
LC-005-003-----0
  6
CONTINUOUS
  5
94
 10
383.652245
 20
252.0
 30
0.0
 11
370.4462
 21
253.738609
 31
0.0
  0
LINE
  8
LC-005-003-----0
  6
CONTINUOUS
  5
95
 10
370.406162
 20
250.872254
 30
0.0
 11
378.972245
 21
252.0
 31
0.0
  0
LINE
  8
LC-005-003-----0
  6
CONTINUOUS
  5
96
 10
378.972245
 20
252.0
 30
0.0
 11
370.406162
 21
253.127746
 31
0.0
  0
LINE
  8
LC-005-003-----0
  6
CONTINUOUS
  5
97
 10
370.366124
 20
251.483116
 30
0.0
 11
374.292245
 21
252.0
 31
0.0
  0
LINE
  8
LC-005-003-----0
  6
CONTINUOUS
  5
98
 10
374.292245
 20
252.0
 30
0.0
 11
370.366124
 21
252.516884
 31
0.0
  0
TEXT
  8
LC-005-003-----0
  6
CONTINUOUS
 62
     6
  5
99
 10
300.476837
 20
262.431999
 30
0.0
 40
18.0
  1
Ø127
 51
15.0
  7
LC-TXTSTYLE-150-400-0-0-D0
 72
     2
 11
349.459514
 21
262.431999
 31
0.0
  0
ENDBLK
  8
0
  5
9A
  0
BLOCK
  8
0
  5
9C
  2
*D5
 70
    65
 10
0.0
 20
0.0
 30
0.0
  3
*D5
  0
LINE
  8
LC-006-003-MTH-0
  6
CONTINUOUS
  5
9D
 10
273.070168
 20
342.103079
 30
0.0
 11
273.070168
 21
370.8
 31
0.0
  0
LINE
  8
LC-006-003-MTH-0
  6
CONTINUOUS
  5
9E
 10
377.044755
 20
342.103194
 30
0.0
 11
377.044755
 21
370.8
 31
0.0
  0
LINE
  8
LC-007-003-MTG-0
  6
CONTINUOUS
  5
9F
 10
273.070168
 20
360.0
 30
0.0
 11
377.044755
 21
360.0
 31
0.0
  0
LINE
  8
LC-005-003-----0
  6
CONTINUOUS
  5
A0
 10
290.916176
 20
362.349471
 30
0.0
 11
273.070168
 21
360.0
 31
0.0
  0
LINE
  8
LC-005-003-----0
  6
CONTINUOUS
  5
A1
 10
273.070168
 20
360.0
 30
0.0
 11
290.916176
 21
357.650529
 31
0.0
  0
LINE
  8
LC-005-003-----0
  6
CONTINUOUS
  5
A2
 10
290.916176
 20
357.650529
 30
0.0
 11
290.916176
 21
362.349471
 31
0.0
  0
LINE
  8
LC-005-003-----0
  6
CONTINUOUS
  5
A3
 10
290.956214
 20
361.738609
 30
0.0
 11
277.750168
 21
360.0
 31
0.0
  0
LINE
  8
LC-005-003-----0
  6
CONTINUOUS
  5
A4
 10
277.750168
 20
360.0
 30
0.0
 11
290.956214
 21
358.261391
 31
0.0
  0
LINE
  8
LC-005-003-----0
  6
CONTINUOUS
  5
A5
 10
290.996252
 20
361.127746
 30
0.0
 11
282.430168
 21
360.0
 31
0.0
  0
LINE
  8
LC-005-003-----0
  6
CONTINUOUS
  5
A6
 10
282.430168
 20
360.0
 30
0.0
 11
290.996252
 21
358.872254
 31
0.0
  0
LINE
  8
LC-005-003-----0
  6
CONTINUOUS
  5
A7
 10
291.03629
 20
360.516884
 30
0.0
 11
287.110168
 21
360.0
 31
0.0
  0
LINE
  8
LC-005-003-----0
  6
CONTINUOUS
  5
A8
 10
287.110168
 20
360.0
 30
0.0
 11
291.03629
 21
359.483116
 31
0.0
  0
LINE
  8
LC-005-003-----0
  6
CONTINUOUS
  5
A9
 10
359.198748
 20
357.650529
 30
0.0
 11
377.044755
 21
360.0
 31
0.0
  0
LINE
  8
LC-005-003-----0
  6
CONTINUOUS
  5
AA
 10
377.044755
 20
360.0
 30
0.0
 11
359.198748
 21
362.349471
 31
0.0
  0
LINE
  8
LC-005-003-----0
  6
CONTINUOUS
  5
AB
 10
359.198748
 20
362.349471
 30
0.0
 11
359.198748
 21
357.650529
 31
0.0
  0
LINE
  8
LC-005-003-----0
  6
CONTINUOUS
  5
AC
 10
359.15871
 20
358.261391
 30
0.0
 11
372.364755
 21
360.0
 31
0.0
  0
LINE
  8
LC-005-003-----0
  6
CONTINUOUS
  5
AD
 10
372.364755
 20
360.0
 30
0.0
 11
359.15871
 21
361.738609
 31
0.0
  0
LINE
  8
LC-005-003-----0
  6
CONTINUOUS
  5
AE
 10
359.118672
 20
358.872254
 30
0.0
 11
367.684755
 21
360.0
 31
0.0
  0
LINE
  8
LC-005-003-----0
  6
CONTINUOUS
  5
AF
 10
367.684755
 20
360.0
 30
0.0
 11
359.118672
 21
361.127746
 31
0.0
  0
LINE
  8
LC-005-003-----0
  6
CONTINUOUS
  5
B0
 10
359.078634
 20
359.483116
 30
0.0
 11
363.004755
 21
360.0
 31
0.0
  0
LINE
  8
LC-005-003-----0
  6
CONTINUOUS
  5
B1
 10
363.004755
 20
360.0
 30
0.0
 11
359.078634
 21
360.516884
 31
0.0
  0
TEXT
  8
LC-005-003-----0
  6
CONTINUOUS
 62
     6
  5
B2
 10
298.550911
 20
370.431999
 30
0.0
 40
18.0
  1
Ø102
 51
15.0
  7
LC-TXTSTYLE-150-400-0-0-D0
 72
     1
 11
323.04225
 21
370.431999
 31
0.0
  0
ENDBLK
  8
0
  5
B3
  0
ENDSEC
  0
SECTION
  2
ENTITIES
  0
VIEWPORT
  8
LC-000
  5
FC
 67
     1
 68
     1
 10
420.0
 20
297.0
 30
0.0
 40
840.0
 41
594.0
 69
     1
1001
ACAD
1000
MVIEW
1002
{
1070
    16
1010
0.0
1020
0.0
1030
0.0
1010
0.0
1020
0.0
1030
1.0
1040
0.0
1040
594.0
1040
420.0
1040
297.0
1040
50.0
1040
0.0
1040
0.0
1070
     0
1070
   100
1070
     1
1070
     1
1070
     0
1070
     0
1070
     0
1070
     0
1040
0.0
1040
0.0
1040
0.0
1040
1.0
1040
1.0
1040
0.0
1040
0.0
1070
     0
1002
{
1002
}
1002
}
  0
VIEWPORT
  8
0
  5
FD
 67
     1
 68
     1
 10
0.0
 20
0.0
 30
0.0
 40
0.0
 41
0.0
 69
     1
1001
ACAD
1000
MVIEW
1002
{
1070
    16
1010
0.0
1020
0.0
1030
0.0
1010
0.0
1020
0.0
1030
1.0
1040
0.0
1040
594.0
1040
0.0
1040
0.0
1040
50.0
1040
0.0
1040
0.0
1070
     0
1070
   100
1070
     0
1070
     1
1070
     0
1070
     0
1070
     0
1070
     0
1040
0.0
1040
0.0
1040
0.0
1040
0.5
1040
0.5
1040
0.5
1040
0.5
1070
     0
1002
{
1002
}
1002
}
  0
INSERT
  8
0
  5
B4
  2
*X0
 10
258.632259
 20
293.865312
 30
0.0
  0
INSERT
  8
0
  5
B5
  2
*X1
 10
376.879559
 20
293.864647
 30
0.0
  0
INSERT
  8
0
  5
B7
  2
BLK1
 10
0.0
 20
0.0
 30
0.0
  0
DIMENSION
  8
0
  5
B8
  2
*D3
 10
240.0
 20
321.354
 30
0.0
 11
240.0
 21
321.354
 31
0.0
  1
54
 13
261.782256
 23
347.879032
 33
0.0
 14
261.781747
 24
293.865361
 34
0.0
 50
90.0
  3
LC-DIM-L-0090-02-02
  0
DIMENSION
  8
0
  5
B9
  2
*D4
 10
353.144269
 20
252.0
 30
0.0
 11
353.144269
 21
252.0
 31
0.0
  1
%%c127
 13
388.332245
 23
293.865046
 33
0.0
 14
261.781747
 24
293.865361
 34
0.0
  3
LC-DIM-L-0090-02-02
  0
DIMENSION
  8
0
  5
BA
  2
*D5
 10
320.247004
 20
360.0
 30
0.0
 11
320.247004
 21
360.0
 31
0.0
  1
%%c102
 13
377.044755
 23
342.103194
 33
0.0
 14
273.070168
 24
342.103079
 34
0.0
  3
LC-DIM-L-0090-02-02
  0
LINE
  8
LC-001-002-----0
  6
CONTINUOUS
  5
BC
 10
380.057233
 20
298.86439
 30
0.0
 11
380.057233
 21
293.864668
 31
0.0
  0
LINE
  8
LC-001-002-----0
  6
CONTINUOUS
  5
BD
 10
384.434088
 20
302.817897
 30
0.0
 11
380.057233
 21
298.864441
 31
0.0
  0
LINE
  8
LC-001-002-----0
  6
CONTINUOUS
  5
BE
 10
265.680378
 20
302.817897
 30
0.0
 11
270.057233
 21
298.864441
 31
0.0
  0
LINE
  8
LC-001-002-----0
  6
CONTINUOUS
  5
BF
 10
270.057233
 20
298.86439
 30
0.0
 11
270.057233
 21
293.864668
 31
0.0
  0
ARC
  8
LC-002-002-RND-0
  6
CONTINUOUS
  5
C1
 10
266.071494
 20
303.45784
 30
0.0
 40
0.75
 50
90.000076
 51
238.567836
  0
ARC
  8
LC-002-002-RND-0
  6
CONTINUOUS
  5
C2
 10
384.042971
 20
303.45784
 30
0.0
 40
0.75
 50
301.432164
 51
89.999924
  0
LINE
  8
LC-001-002-----0
  6
CONTINUOUS
  5
C3
 10
380.057233
 20
298.864441
 30
0.0
 11
270.057233
 21
298.864338
 31
0.0
  0
LINE
  8
LC-001-002-----0
  6
CONTINUOUS
  5
C4
 10
273.023089
 20
304.207942
 30
0.0
 11
384.042972
 21
304.20784
 31
0.0
  0
LINE
  8
LC-001-002-----0
  6
CONTINUOUS
  5
C5
 10
388.332257
 20
343.678179
 30
0.0
 11
388.332222
 21
316.903176
 31
0.0
  0
LINE
  8
LC-001-002-----0
  6
CONTINUOUS
  5
C6
 10
377.044755
 20
342.103194
 30
0.0
 11
388.332542
 21
347.879032
 31
0.0
  0
LINE
  8
LC-001-002-----0
  6
CONTINUOUS
  5
C7
 10
273.069749
 20
335.803286
 30
0.0
 11
384.166736
 21
335.803184
 31
0.0
  0
LINE
  8
LC-001-002-----0
  6
CONTINUOUS
  5
C8
 10
377.044738
 20
329.503194
 30
0.0
 11
384.166727
 21
329.503184
 31
0.0
  0
LINE
  8
LC-001-002-----0
  6
CONTINUOUS
  5
C9
 10
273.069732
 20
323.203286
 30
0.0
 11
384.166719
 21
323.203184
 31
0.0
  0
ARC
  8
LC-004-000-----0
  6
CONTINUOUS
 62
     1
  5
CA
 10
384.166743
 20
341.087673
 30
0.0
 40
1.015511
 50
299.999899
 51
89.999543
  0
ARC
  8
LC-004-000-----0
  6
CONTINUOUS
 62
     1
  5
CB
 10
384.166734
 20
334.787673
 30
0.0
 40
1.015511
 50
299.999899
 51
89.999543
  0
ARC
  8
LC-004-000-----0
  6
CONTINUOUS
 62
     1
  5
CC
 10
384.166726
 20
328.487673
 30
0.0
 40
1.015511
 50
299.999899
 51
89.999543
  0
ARC
  8
LC-004-000-----0
  6
CONTINUOUS
 62
     1
  5
CD
 10
384.166718
 20
322.187673
 30
0.0
 40
1.015511
 50
299.999899
 51
89.999543
  0
ARC
  8
LC-001-002-----0
  6
CONTINUOUS
  5
CE
 10
388.332536
 20
344.729032
 30
0.0
 40
3.15
 50
359.999887
 51
89.999887
  0
LINE
  8
LC-001-002-----0
  6
CONTINUOUS
  5
CF
 10
391.482534
 20
343.679026
 30
0.0
 11
388.332534
 21
343.679032
 31
0.0
  0
LINE
  8
LC-001-002-----0
  6
CONTINUOUS
  5
D0
 10
273.069757
 20
342.103286
 30
0.0
 11
384.166744
 21
342.103184
 31
0.0
  0
LINE
  8
LC-001-002-----0
  6
CONTINUOUS
  5
D1
 10
369.393222
 20
316.871422
 30
0.0
 11
384.111664
 21
316.871403
 31
0.0
  0
ARC
  8
LC-004-000-----0
  6
CONTINUOUS
 62
     1
  5
D2
 10
384.111662
 20
315.855892
 30
0.0
 40
1.015511
 50
299.999899
 51
89.999543
  0
LINE
  8
LC-001-002-----0
  6
CONTINUOUS
  5
D3
 10
273.063909
 20
310.539724
 30
0.0
 11
384.056608
 21
310.539622
 31
0.0
  0
ARC
  8
LC-004-000-----0
  6
CONTINUOUS
 62
     1
  5
D4
 10
384.056607
 20
309.52411
 30
0.0
 40
1.015511
 50
299.999899
 51
89.999543
  0
LINE
  8
LC-001-002-----0
  6
CONTINUOUS
  5
D5
 10
388.332222
 20
316.903176
 30
0.0
 11
388.332245
 21
293.865046
 31
0.0
  0
LINE
  8
LC-001-002-----0
  6
CONTINUOUS
  5
D6
 10
388.332245
 20
293.865046
 30
0.0
 11
383.528535
 21
293.86504
 31
0.0
  0
LINE
  8
LC-001-002-----0
  6
CONTINUOUS
  5
D7
 10
384.674497
 20
340.208214
 30
0.0
 11
377.044747
 21
335.803194
 31
0.0
  0
LINE
  8
LC-001-002-----0
  6
CONTINUOUS
  5
D8
 10
377.044738
 20
329.503194
 30
0.0
 11
384.674488
 21
333.908214
 31
0.0
  0
LINE
  8
LC-001-002-----0
  6
CONTINUOUS
  5
D9
 10
384.67448
 20
327.608214
 30
0.0
 11
377.04473
 21
323.203194
 31
0.0
  0
LINE
  8
LC-001-002-----0
  6
CONTINUOUS
  5
DA
 10
384.674472
 20
321.308214
 30
0.0
 11
376.989675
 21
316.871412
 31
0.0
  0
LINE
  8
LC-001-002-----0
  6
CONTINUOUS
  5
DB
 10
384.619416
 20
314.976433
 30
0.0
 11
376.934619
 21
310.539631
 31
0.0
  0
LINE
  8
LC-001-002-----0
  6
CONTINUOUS
  5
DC
 10
384.564361
 20
308.644651
 30
0.0
 11
376.879564
 21
304.20785
 31
0.0
  0
LINE
  8
LC-001-002-----0
  6
CONTINUOUS
  5
DD
 10
377.044738
 20
329.503079
 30
0.0
 11
265.94775
 21
329.503079
 31
0.0
  0
LINE
  8
LC-001-002-----0
  6
CONTINUOUS
  5
DE
 10
376.989675
 20
316.873079
 30
0.0
 11
265.892686
 21
316.873079
 31
0.0
  0
LINE
  8
LC-001-002-----0
  6
CONTINUOUS
  5
DF
 10
388.332536
 20
347.879032
 30
0.0
 11
261.782256
 21
347.879032
 31
0.0
  0
LINE
  8
LC-001-002-----0
  6
CONTINUOUS
  5
E0
 10
391.482536
 20
344.729036
 30
0.0
 11
391.482537
 21
343.679026
 31
0.0
  0
ARC
  8
LC-001-002-----0
  6
CONTINUOUS
  5
E1
 10
261.78226
 20
344.728305
 30
0.0
 40
3.15
 50
90.000076
 51
179.999718
  0
LINE
  8
LC-001-002-----0
  6
CONTINUOUS
  5
E2
 10
258.632259
 20
343.678309
 30
0.0
 11
258.632258
 21
344.728318
 31
0.0
  0
LINE
  8
LC-001-002-----0
  6
CONTINUOUS
  5
E3
 10
258.632259
 20
343.678309
 30
0.0
 11
261.782259
 21
343.678305
 31
0.0
  0
LINE
  8
LC-001-002-----0
  6
CONTINUOUS
  5
E4
 10
261.782259
 20
343.678305
 30
0.0
 11
261.782224
 21
316.903425
 31
0.0
  0
LINE
  8
LC-001-002-----0
  6
CONTINUOUS
  5
E5
 10
261.781891
 20
316.903491
 30
0.0
 11
261.781747
 21
293.865361
 31
0.0
  0
LINE
  8
LC-001-002-----0
  6
CONTINUOUS
  5
E6
 10
261.781747
 20
293.865361
 30
0.0
 11
383.528535
 21
293.864647
 31
0.0
  0
LINE
  8
LC-001-002-----0
  6
CONTINUOUS
  5
E7
 10
265.38493
 20
314.976549
 30
0.0
 11
273.063909
 21
310.543079
 31
0.0
  0
LINE
  8
LC-001-002-----0
  6
CONTINUOUS
  5
E8
 10
265.439985
 20
321.30833
 30
0.0
 11
273.12205
 21
316.873079
 31
0.0
  0
LINE
  8
LC-001-002-----0
  6
CONTINUOUS
  5
E9
 10
273.069732
 20
323.20329
 30
0.0
 11
265.947735
 21
323.203299
 31
0.0
  0
LINE
  8
LC-001-002-----0
  6
CONTINUOUS
  5
EA
 10
265.439994
 20
327.60833
 30
0.0
 11
273.069732
 21
323.20329
 31
0.0
  0
LINE
  8
LC-001-002-----0
  6
CONTINUOUS
  5
EB
 10
273.070105
 20
329.503079
 30
0.0
 11
265.440002
 21
333.90833
 31
0.0
  0
LINE
  8
LC-001-002-----0
  6
CONTINUOUS
  5
EC
 10
273.069749
 20
335.80329
 30
0.0
 11
265.94776
 21
335.803299
 31
0.0
  0
LINE
  8
LC-001-002-----0
  6
CONTINUOUS
  5
ED
 10
265.44001
 20
340.20833
 30
0.0
 11
273.069749
 21
335.80329
 31
0.0
  0
LINE
  8
LC-001-002-----0
  6
CONTINUOUS
  5
EE
 10
273.070168
 20
342.103079
 30
0.0
 11
265.947767
 21
342.103079
 31
0.0
  0
LINE
  8
LC-001-002-----0
  6
CONTINUOUS
  5
EF
 10
273.070168
 20
342.103079
 30
0.0
 11
261.782256
 21
347.878305
 31
0.0
  0
ARC
  8
LC-004-000-----0
  6
CONTINUOUS
 62
     1
  5
F0
 10
265.947767
 20
341.087788
 30
0.0
 40
1.015511
 50
90.000363
 51
239.999949
  0
ARC
  8
LC-004-000-----0
  6
CONTINUOUS
 62
     1
  5
F1
 10
265.947825
 20
334.788113
 30
0.0
 40
1.015511
 50
90.000326
 51
239.999912
  0
ARC
  8
LC-004-000-----0
  6
CONTINUOUS
 62
     1
  5
F2
 10
265.94775
 20
328.487788
 30
0.0
 40
1.015511
 50
90.000363
 51
239.999949
  0
ARC
  8
LC-004-000-----0
  6
CONTINUOUS
 62
     1
  5
F3
 10
265.947742
 20
322.187788
 30
0.0
 40
1.015511
 50
90.000363
 51
239.999949
  0
ARC
  8
LC-004-000-----0
  6
CONTINUOUS
 62
     1
  5
F4
 10
265.892686
 20
315.856007
 30
0.0
 40
1.015511
 50
90.000363
 51
239.999949
  0
ARC
  8
LC-004-000-----0
  6
CONTINUOUS
 62
     1
  5
F5
 10
265.837631
 20
309.524226
 30
0.0
 40
1.015511
 50
90.000363
 51
239.999949
  0
LINE
  8
LC-001-002-----0
  6
DASHDOT
 62
     2
  5
F7
 10
325.057233
 20
293.864985
 30
0.0
 11
325.057233
 21
347.879032
 31
0.0
  0
LINE
  8
LC-001-002-----0
  6
CONTINUOUS
  5
F8
 10
304.846226
 20
304.203079
 30
0.0
 11
266.071493
 21
304.203079
 31
0.0
  0
LINE
  8
LC-001-002-----0
  6
CONTINUOUS
  5
F9
 10
273.063909
 20
310.543079
 30
0.0
 11
265.837631
 21
310.543079
 31
0.0
  0
LINE
  8
LC-001-002-----0
  6
CONTINUOUS
  5
FA
 10
265.329874
 20
308.644768
 30
0.0
 11
273.023089
 21
304.203079
 31
0.0
  0
ENDSEC
  0
EOF
