  0
SECTION
  2
HEADER
  9
$ACADVER
  1
AC1009
  9
$INSBASE
 10
123.076823
 20
100.166972
 30
0.0
  9
$EXTMIN
 10
-271.5
 20
-192.0
 30
0.0
  9
$EXTMAX
 10
568.5
 20
402.0
 30
0.0
  9
$LIMMIN
 10
-271.5
 20
-192.0
  9
$LIMMAX
 10
568.5
 20
402.0
  9
$ORTHOMODE
 70
     0
  9
$REGENMODE
 70
     1
  9
$FILLMODE
 70
     1
  9
$QTEXTMODE
 70
     0
  9
$MIRRTEXT
 70
     1
  9
$DRAGMODE
 70
     2
  9
$LTSCALE
 40
2.0
  9
$OSMODE
 70
     0
  9
$ATTMODE
 70
     1
  9
$TEXTSIZE
 40
0.2
  9
$TRACEWID
 40
0.05
  9
$TEXTSTYLE
  7
STANDARD
  9
$CLAYER
  8
0
  9
$CELTYPE
  6
BYLAYER
  9
$CECOLOR
 62
     7
  9
$DIMSCALE
 40
2.0
  9
$DIMASZ
 40
3.5
  9
$DIMEXO
 40
0.0625
  9
$DIMDLI
 40
0.38
  9
$DIMRND
 40
0.0
  9
$DIMDLE
 40
0.0
  9
$DIMEXE
 40
0.18
  9
$DIMTP
 40
0.0
  9
$DIMTM
 40
0.0
  9
$DIMTXT
 40
3.5
  9
$DIMCEN
 40
0.09
  9
$DIMTSZ
 40
0.0
  9
$DIMTOL
 70
     0
  9
$DIMLIM
 70
     0
  9
$DIMTIH
 70
     1
  9
$DIMTOH
 70
     1
  9
$DIMSE1
 70
     0
  9
$DIMSE2
 70
     0
  9
$DIMTAD
 70
     1
  9
$DIMZIN
 70
     0
  9
$DIMBLK
  1

  9
$DIMASO
 70
     1
  9
$DIMSHO
 70
     1
  9
$DIMPOST
  1

  9
$DIMAPOST
  1

  9
$DIMALT
 70
     0
  9
$DIMALTD
 70
     2
  9
$DIMALTF
 40
25.4
  9
$DIMLFAC
 40
1.0
  9
$DIMTOFL
 70
     0
  9
$DIMTVP
 40
0.0
  9
$DIMTIX
 70
     0
  9
$DIMSOXD
 70
     0
  9
$DIMSAH
 70
     0
  9
$DIMBLK1
  1

  9
$DIMBLK2
  1

  9
$DIMSTYLE
  2
STANDARD
  9
$DIMCLRD
 70
     0
  9
$DIMCLRE
 70
     0
  9
$DIMCLRT
 70
     0
  9
$DIMTFAC
 40
1.0
  9
$DIMGAP
 40
0.09
  9
$LUNITS
 70
     2
  9
$LUPREC
 70
     2
  9
$AXISMODE
 70
     0
  9
$AXISUNIT
 10
0.0
 20
0.0
  9
$SKETCHINC
 40
0.1
  9
$FILLETRAD
 40
0.0
  9
$AUNITS
 70
     0
  9
$AUPREC
 70
     0
  9
$MENU
  1
acad
  9
$ELEVATION
 40
0.0
  9
$PELEVATION
 40
0.0
  9
$THICKNESS
 40
0.0
  9
$LIMCHECK
 70
     0
  9
$BLIPMODE
 70
     1
  9
$CHAMFERA
 40
0.0
  9
$CHAMFERB
 40
0.0
  9
$SKPOLY
 70
     0
  9
$TDCREATE
 40
0.000000000
  9
$TDUPDATE
 40
0.000000000
  9
$TDINDWG
 40
0.0000000000
  9
$TDUSRTIMER
 40
0.0000000000
  9
$USRTIMER
 70
     1
  9
$ANGBASE
 50
0.0
  9
$ANGDIR
 70
     0
  9
$PDMODE
 70
     0
  9
$PDSIZE
 40
0.0
  9
$PLINEWID
 40
0.0
  9
$COORDS
 70
     0
  9
$SPLFRAME
 70
     0
  9
$SPLINETYPE
 70
     6
  9
$SPLINESEGS
 70
     8
  9
$ATTDIA
 70
     0
  9
$ATTREQ
 70
     1
  9
$HANDLING
 70
     1
  9
$HANDSEED
  5
330
  9
$SURFTAB1
 70
     6
  9
$SURFTAB2
 70
     6
  9
$SURFTYPE
 70
     6
  9
$SURFU
 70
     6
  9
$SURFV
 70
     6
  9
$UCSNAME
  2

  9
$UCSORG
 10
0.0
 20
0.0
 30
0.0
  9
$UCSXDIR
 10
1.0
 20
0.0
 30
0.0
  9
$UCSYDIR
 10
0.0
 20
1.0
 30
0.0
  9
$PUCSNAME
  2

  9
$PUCSORG
 10
0.0
 20
0.0
 30
0.0
  9
$PUCSXDIR
 10
1.0
 20
0.0
 30
0.0
  9
$PUCSYDIR
 10
0.0
 20
1.0
 30
0.0
  9
$USERI1
 70
     0
  9
$USERI2
 70
     0
  9
$USERI3
 70
     0
  9
$USERI4
 70
     0
  9
$USERI5
 70
     0
  9
$USERR1
 40
0.0
  9
$USERR2
 40
0.0
  9
$USERR3
 40
0.0
  9
$USERR4
 40
0.0
  9
$USERR5
 40
0.0
  9
$WORLDVIEW
 70
     1
  9
$SHADEDGE
 70
     3
  9
$SHADEDIF
 70
    70
  9
$TILEMODE
 70
     1
  9
$MAXACTVP
 70
    16
  9
$PINSBASE
 10
0.0
 20
0.0
 30
0.0
  9
$PLIMCHECK
 70
     0
  9
$PEXTMIN
 10
1.000000E+20
 20
1.000000E+20
 30
1.000000E+20
  9
$PEXTMAX
 10
-1.000000E+20
 20
-1.000000E+20
 30
-1.000000E+20
  9
$PLIMMIN
 10
-271.5
 20
-192.0
  9
$PLIMMAX
 10
568.5
 20
402.0
  9
$UNITMODE
 70
     0
  9
$VISRETAIN
 70
     0
  9
$PLINEGEN
 70
     1
  9
$PSLTSCALE
 70
     0
  9
$TREEDEPTH
 70
  3020
  9
$DWGCODEPAGE
  3
dos850
  0
ENDSEC
  0
SECTION
  2
TABLES
  0
TABLE
  2
VPORT
 70
     1
  0
VPORT
  2
*ACTIVE
 70
     0
 10
0.0
 20
0.0
 11
1.0
 21
1.0
 12
420.0
 22
297.0
 13
0.0
 23
0.0
 14
1.0
 24
1.0
 15
0.0
 25
0.0
 16
0.0
 26
0.0
 36
1.0
 17
-271.5
 27
-192.0
 37
0.0
 40
594.0
 41
1.604229
 42
50.0
 43
0.0
 44
0.0
 50
0.0
 51
0.0
 71
     0
 72
   100
 73
     1
 74
     1
 75
     0
 76
     0
 77
     0
 78
     0
  0
ENDTAB
  0
TABLE
  2
LTYPE
 70
     3
  0
LTYPE
  2
CONTINUOUS
 70
    64
  3
Solid line
 72
    65
 73
     0
 40
0.0
  0
LTYPE
  2
CENTER
 70
    64
  3
__ . __ . __ . __ . __
 72
    65
 73
     4
 40
7.5
 49
5.0
 49
-1.25
 49
0.0
 49
-1.25
  0
LTYPE
  2
DASHDOT
 70
    64
  3
__ . __ . __ . __ . __
 72
    65
 73
     4
 40
7.5
 49
5.0
 49
-1.25
 49
0.0
 49
-1.25
  0
ENDTAB
  0
TABLE
  2
LAYER
 70
    10
  0
LAYER
  2
0
 70
     0
 62
     7
  6
CONTINUOUS
  0
LAYER
  2
LC-INFO-1-2-MM-A3-0
 70
     1
 62
    -1
  6
CONTINUOUS
  0
LAYER
  2
LC-001-005-----0
 70
     0
 62
     2
  6
CONTINUOUS
  0
LAYER
  2
LC-002-002-----0
 70
     0
 62
     1
  6
CONTINUOUS
  0
LAYER
  2
LC-007-003-MTH-0
 70
     0
 62
     2
  6
CONTINUOUS
  0
LAYER
  2
LC-008-003-MTG-0
 70
     0
 62
     2
  6
CONTINUOUS
  0
LAYER
  2
LC-006-003-----0
 70
     0
 62
     2
  6
CONTINUOUS
  0
LAYER
  2
LC-003-006-----0
 70
     0
 62
     2
  6
CENTER
  0
LAYER
  2
LC-004-006-MLN-0
 70
     0
 62
     2
  6
CENTER
  0
LAYER
  2
LC-000
 70
     0
 62
     7
  6
CONTINUOUS
  0
ENDTAB
  0
TABLE
  2
STYLE
 70
     3
  0
STYLE
  2
STANDARD
 70
     0
 40
0.0
 41
1.0
 50
0.0
 71
     0
 42
0.0
  3
txt
  4

  0
STYLE
  2
LC-TXTSTYLE-150-400-0-0-A1
 70
    64
 40
0.0
 41
1.0
 50
15.0
 71
     0
 42
3.5
  3
Arial
  4

  0
STYLE
  2
LC-STANDARD
 70
    64
 40
0.0
 41
1.0
 50
0.0
 71
     0
 42
3.5
  3
MONOTXT
  4

  0
ENDTAB
  0
TABLE
  2
VIEW
 70
     0
  0
ENDTAB
  0
TABLE
  2
UCS
 70
     0
  0
ENDTAB
  0
TABLE
  2
APPID
 70
     1
  0
APPID
  2
ACAD
 70
     0
  0
ENDTAB
  0
TABLE
  2
DIMSTYLE
 70
     3
  0
DIMSTYLE
  2
STANDARD
 70
     0
  3

  4

  5

  6

  7

 40
1.0
 41
0.18
 42
0.0625
 43
0.38
 44
0.18
 45
0.0
 46
0.0
 47
0.0
 48
0.0
 71
     0
 72
     0
 73
     1
 74
     1
 75
     0
 76
     0
 77
     0
 78
     0
140
0.18
141
0.09
142
0.0
143
25.4
144
1.0
145
0.0
146
1.0
147
0.09
170
     0
171
     2
172
     0
173
     0
174
     0
175
     0
176
     0
177
     0
178
     0
  0
DIMSTYLE
  2
LC-STANDARD
 70
     0
  3

  4

  5

  6

  7

 40
1.0
 41
3.5
 42
0.0
 43
7.5
 44
1.8
 45
0.0
 46
0.0
 47
0.0
 48
0.0
 71
     0
 72
     0
 73
     0
 74
     0
 75
     0
 76
     0
 77
     1
 78
     8
140
3.5
141
0.0
142
0.0
143
25.4
144
1.0
145
0.0
146
0.71
147
1.5
170
     0
171
     2
172
     1
173
     0
174
     0
175
     0
176
     0
177
     0
178
     3
  0
DIMSTYLE
  2
LC-DIM-L-0140-02-02
 70
     0
  3

  4

  5

  6

  7

 40
2.0
 41
3.5
 42
0.0
 43
7.5
 44
1.8
 45
0.0
 46
0.0
 47
0.0
 48
0.0
 71
     0
 72
     0
 73
     0
 74
     0
 75
     0
 76
     0
 77
     1
 78
     8
140
14.0
141
0.0
142
0.0
143
25.4
144
1.0
145
0.0
146
0.71
147
1.5
170
     0
171
     2
172
     0
173
     0
174
     0
175
     0
176
     2
177
     2
178
     8
  0
ENDTAB
  0
ENDSEC
  0
SECTION
  2
BLOCKS
  0
BLOCK
  8
0
  5
23
  2
*X0
 70
    65
 10
214.575391
 20
186.126972
 30
0.0
  3
*X0
  0
LINE
  8
LC-001-005-----0
  6
CONTINUOUS
  5
25
 10
222.896525
 20
186.126972
 30
0.0
 11
223.067304
 21
186.297751
 31
0.0
  0
LINE
  8
LC-001-005-----0
  6
CONTINUOUS
  5
26
 10
220.068098
 20
186.126972
 30
0.0
 11
223.825391
 21
189.884266
 31
0.0
  0
LINE
  8
LC-001-005-----0
  6
CONTINUOUS
  5
27
 10
217.239671
 20
186.126972
 30
0.0
 11
223.825391
 21
192.712693
 31
0.0
  0
LINE
  8
LC-001-005-----0
  6
CONTINUOUS
  5
28
 10
214.575391
 20
186.29112
 30
0.0
 11
223.825391
 21
195.54112
 31
0.0
  0
LINE
  8
LC-001-005-----0
  6
CONTINUOUS
  5
29
 10
214.575391
 20
189.119547
 30
0.0
 11
223.825391
 21
198.369547
 31
0.0
  0
LINE
  8
LC-001-005-----0
  6
CONTINUOUS
  5
2A
 10
231.582816
 20
206.126972
 30
0.0
 11
234.325391
 21
208.869547
 31
0.0
  0
LINE
  8
LC-001-005-----0
  6
CONTINUOUS
  5
2B
 10
214.575391
 20
191.947974
 30
0.0
 11
223.825391
 21
201.197974
 31
0.0
  0
LINE
  8
LC-001-005-----0
  6
CONTINUOUS
  5
2C
 10
228.754389
 20
206.126972
 30
0.0
 11
234.325391
 21
211.697974
 31
0.0
  0
LINE
  8
LC-001-005-----0
  6
CONTINUOUS
  5
2D
 10
214.575391
 20
194.776401
 30
0.0
 11
223.825391
 21
204.026401
 31
0.0
  0
LINE
  8
LC-001-005-----0
  6
CONTINUOUS
  5
2E
 10
225.925962
 20
206.126972
 30
0.0
 11
234.325391
 21
214.526401
 31
0.0
  0
LINE
  8
LC-001-005-----0
  6
CONTINUOUS
  5
2F
 10
214.575391
 20
197.604828
 30
0.0
 11
234.325391
 21
217.354828
 31
0.0
  0
LINE
  8
LC-001-005-----0
  6
CONTINUOUS
  5
30
 10
214.575391
 20
200.433255
 30
0.0
 11
216.269108
 21
202.126972
 31
0.0
  0
LINE
  8
LC-001-005-----0
  6
CONTINUOUS
  5
31
 10
217.075391
 20
202.933255
 30
0.0
 11
234.325391
 21
220.183255
 31
0.0
  0
LINE
  8
LC-001-005-----0
  6
CONTINUOUS
  5
32
 10
217.075391
 20
205.761683
 30
0.0
 11
234.325391
 21
223.011683
 31
0.0
  0
LINE
  8
LC-001-005-----0
  6
CONTINUOUS
  5
33
 10
217.075391
 20
208.59011
 30
0.0
 11
224.612254
 21
216.126972
 31
0.0
  0
LINE
  8
LC-001-005-----0
  6
CONTINUOUS
  5
34
 10
225.325391
 20
216.84011
 30
0.0
 11
234.325391
 21
225.84011
 31
0.0
  0
LINE
  8
LC-001-005-----0
  6
CONTINUOUS
  5
35
 10
217.075391
 20
211.418537
 30
0.0
 11
221.783827
 21
216.126972
 31
0.0
  0
LINE
  8
LC-001-005-----0
  6
CONTINUOUS
  5
36
 10
225.325391
 20
219.668537
 30
0.0
 11
226.783827
 21
221.126972
 31
0.0
  0
LINE
  8
LC-001-005-----0
  6
CONTINUOUS
  5
37
 10
227.825391
 20
222.168537
 30
0.0
 11
234.325391
 21
228.668537
 31
0.0
  0
LINE
  8
LC-001-005-----0
  6
CONTINUOUS
  5
38
 10
217.075391
 20
214.246964
 30
0.0
 11
218.955399
 21
216.126972
 31
0.0
  0
LINE
  8
LC-001-005-----0
  6
CONTINUOUS
  5
39
 10
227.825391
 20
224.996964
 30
0.0
 11
234.325391
 21
231.496964
 31
0.0
  0
LINE
  8
LC-001-005-----0
  6
CONTINUOUS
  5
3A
 10
227.825391
 20
227.825391
 30
0.0
 11
233.726182
 21
233.726182
 31
0.0
  0
LINE
  8
LC-001-005-----0
  6
CONTINUOUS
  5
3B
 10
227.825391
 20
230.653818
 30
0.0
 11
232.311968
 21
235.140395
 31
0.0
  0
LINE
  8
LC-001-005-----0
  6
CONTINUOUS
  5
3C
 10
227.825391
 20
233.482245
 30
0.0
 11
230.470118
 21
236.126972
 31
0.0
  0
ENDBLK
  8
0
  5
3D
  0
BLOCK
  8
0
  5
3F
  2
*D1
 70
    65
 10
0.0
 20
0.0
 30
0.0
  3
*D1
  0
ENDBLK
  8
0
  5
40
  0
BLOCK
  8
0
  5
42
  2
*D2
 70
    65
 10
0.0
 20
0.0
 30
0.0
  3
*D2
  0
ENDBLK
  8
0
  5
43
  0
BLOCK
  8
0
  5
45
  2
BLK3
 70
    64
 10
202.932612
 20
234.126972
 30
0.0
  3
BLK3
  0
LINE
  8
LC-002-002-----0
  6
CONTINUOUS
  5
47
 10
202.932612
 20
234.126972
 30
0.0
 11
202.888896
 21
233.914009
 31
0.0
  0
LINE
  8
LC-002-002-----0
  6
CONTINUOUS
  5
48
 10
202.888896
 20
233.914009
 30
0.0
 11
202.856583
 21
233.756602
 31
0.0
  0
LINE
  8
LC-002-002-----0
  6
CONTINUOUS
  5
49
 10
202.856583
 20
233.756602
 30
0.0
 11
202.842922
 21
233.690051
 31
0.0
  0
LINE
  8
LC-002-002-----0
  6
CONTINUOUS
  5
4A
 10
202.842922
 20
233.690051
 30
0.0
 11
202.829973
 21
233.626972
 31
0.0
  0
LINE
  8
LC-002-002-----0
  6
CONTINUOUS
  5
4B
 10
202.829973
 20
233.626972
 30
0.0
 11
202.817025
 21
233.563894
 31
0.0
  0
LINE
  8
LC-002-002-----0
  6
CONTINUOUS
  5
4C
 10
202.817025
 20
233.563894
 30
0.0
 11
202.803363
 21
233.497343
 31
0.0
  0
LINE
  8
LC-002-002-----0
  6
CONTINUOUS
  5
4D
 10
202.803363
 20
233.497343
 30
0.0
 11
202.771051
 21
233.339935
 31
0.0
  0
LINE
  8
LC-002-002-----0
  6
CONTINUOUS
  5
4E
 10
202.771051
 20
233.339935
 30
0.0
 11
202.727335
 21
233.126972
 31
0.0
  0
ENDBLK
  8
0
  5
4F
  0
BLOCK
  8
0
  5
51
  2
BLK4
 70
    64
 10
47.71817
 20
234.126972
 30
0.0
  3
BLK4
  0
LINE
  8
LC-002-002-----0
  6
CONTINUOUS
  5
52
 10
47.71817
 20
234.126972
 30
0.0
 11
47.761887
 21
233.914009
 31
0.0
  0
LINE
  8
LC-002-002-----0
  6
CONTINUOUS
  5
53
 10
47.761887
 20
233.914009
 30
0.0
 11
47.794199
 21
233.756602
 31
0.0
  0
LINE
  8
LC-002-002-----0
  6
CONTINUOUS
  5
54
 10
47.794199
 20
233.756602
 30
0.0
 11
47.80786
 21
233.690051
 31
0.0
  0
LINE
  8
LC-002-002-----0
  6
CONTINUOUS
  5
55
 10
47.80786
 20
233.690051
 30
0.0
 11
47.820809
 21
233.626972
 31
0.0
  0
LINE
  8
LC-002-002-----0
  6
CONTINUOUS
  5
56
 10
47.820809
 20
233.626972
 30
0.0
 11
47.833757
 21
233.563894
 31
0.0
  0
LINE
  8
LC-002-002-----0
  6
CONTINUOUS
  5
57
 10
47.833757
 20
233.563894
 30
0.0
 11
47.847419
 21
233.497343
 31
0.0
  0
LINE
  8
LC-002-002-----0
  6
CONTINUOUS
  5
58
 10
47.847419
 20
233.497343
 30
0.0
 11
47.879731
 21
233.339935
 31
0.0
  0
LINE
  8
LC-002-002-----0
  6
CONTINUOUS
  5
59
 10
47.879731
 20
233.339935
 30
0.0
 11
47.923447
 21
233.126972
 31
0.0
  0
ENDBLK
  8
0
  5
5A
  0
BLOCK
  8
0
  5
5C
  2
BLK5
 70
    64
 10
143.966394
 20
234.126972
 30
0.0
  3
BLK5
  0
LINE
  8
LC-002-002-----0
  6
CONTINUOUS
  5
5D
 10
143.966394
 20
234.126972
 30
0.0
 11
143.956485
 21
233.914009
 31
0.0
  0
LINE
  8
LC-002-002-----0
  6
CONTINUOUS
  5
5E
 10
143.956485
 20
233.914009
 30
0.0
 11
143.94916
 21
233.756602
 31
0.0
  0
LINE
  8
LC-002-002-----0
  6
CONTINUOUS
  5
5F
 10
143.94916
 20
233.756602
 30
0.0
 11
143.946063
 21
233.690051
 31
0.0
  0
LINE
  8
LC-002-002-----0
  6
CONTINUOUS
  5
60
 10
143.946063
 20
233.690051
 30
0.0
 11
143.943128
 21
233.626972
 31
0.0
  0
LINE
  8
LC-002-002-----0
  6
CONTINUOUS
  5
61
 10
143.943128
 20
233.626972
 30
0.0
 11
143.940193
 21
233.563894
 31
0.0
  0
LINE
  8
LC-002-002-----0
  6
CONTINUOUS
  5
62
 10
143.940193
 20
233.563894
 30
0.0
 11
143.937096
 21
233.497343
 31
0.0
  0
LINE
  8
LC-002-002-----0
  6
CONTINUOUS
  5
63
 10
143.937096
 20
233.497343
 30
0.0
 11
143.929772
 21
233.339935
 31
0.0
  0
LINE
  8
LC-002-002-----0
  6
CONTINUOUS
  5
64
 10
143.929772
 20
233.339935
 30
0.0
 11
143.919862
 21
233.126972
 31
0.0
  0
ENDBLK
  8
0
  5
65
  0
BLOCK
  8
0
  5
67
  2
BLK6
 70
    64
 10
106.684388
 20
234.126972
 30
0.0
  3
BLK6
  0
LINE
  8
LC-002-002-----0
  6
CONTINUOUS
  5
68
 10
106.684388
 20
234.126972
 30
0.0
 11
106.694298
 21
233.914009
 31
0.0
  0
LINE
  8
LC-002-002-----0
  6
CONTINUOUS
  5
69
 10
106.694298
 20
233.914009
 30
0.0
 11
106.701622
 21
233.756602
 31
0.0
  0
LINE
  8
LC-002-002-----0
  6
CONTINUOUS
  5
6A
 10
106.701622
 20
233.756602
 30
0.0
 11
106.704719
 21
233.690051
 31
0.0
  0
LINE
  8
LC-002-002-----0
  6
CONTINUOUS
  5
6B
 10
106.704719
 20
233.690051
 30
0.0
 11
106.707654
 21
233.626972
 31
0.0
  0
LINE
  8
LC-002-002-----0
  6
CONTINUOUS
  5
6C
 10
106.707654
 20
233.626972
 30
0.0
 11
106.710589
 21
233.563894
 31
0.0
  0
LINE
  8
LC-002-002-----0
  6
CONTINUOUS
  5
6D
 10
106.710589
 20
233.563894
 30
0.0
 11
106.713686
 21
233.497343
 31
0.0
  0
LINE
  8
LC-002-002-----0
  6
CONTINUOUS
  5
6E
 10
106.713686
 20
233.497343
 30
0.0
 11
106.721011
 21
233.339935
 31
0.0
  0
LINE
  8
LC-002-002-----0
  6
CONTINUOUS
  5
6F
 10
106.721011
 20
233.339935
 30
0.0
 11
106.73092
 21
233.126972
 31
0.0
  0
ENDBLK
  8
0
  5
70
  0
BLOCK
  8
0
  5
72
  2
BLK7
 70
    64
 10
89.859782
 20
234.126972
 30
0.0
  3
BLK7
  0
LINE
  8
LC-002-002-----0
  6
CONTINUOUS
  5
73
 10
89.859782
 20
234.126972
 30
0.0
 11
89.8793
 21
233.914009
 31
0.0
  0
LINE
  8
LC-002-002-----0
  6
CONTINUOUS
  5
74
 10
89.8793
 20
233.914009
 30
0.0
 11
89.893727
 21
233.756602
 31
0.0
  0
LINE
  8
LC-002-002-----0
  6
CONTINUOUS
  5
75
 10
89.893727
 20
233.756602
 30
0.0
 11
89.899826
 21
233.690051
 31
0.0
  0
LINE
  8
LC-002-002-----0
  6
CONTINUOUS
  5
76
 10
89.899826
 20
233.690051
 30
0.0
 11
89.905608
 21
233.626972
 31
0.0
  0
LINE
  8
LC-002-002-----0
  6
CONTINUOUS
  5
77
 10
89.905608
 20
233.626972
 30
0.0
 11
89.911389
 21
233.563894
 31
0.0
  0
LINE
  8
LC-002-002-----0
  6
CONTINUOUS
  5
78
 10
89.911389
 20
233.563894
 30
0.0
 11
89.917488
 21
233.497343
 31
0.0
  0
LINE
  8
LC-002-002-----0
  6
CONTINUOUS
  5
79
 10
89.917488
 20
233.497343
 30
0.0
 11
89.931915
 21
233.339935
 31
0.0
  0
LINE
  8
LC-002-002-----0
  6
CONTINUOUS
  5
7A
 10
89.931915
 20
233.339935
 30
0.0
 11
89.951433
 21
233.126972
 31
0.0
  0
ENDBLK
  8
0
  5
7B
  0
BLOCK
  8
0
  5
7D
  2
BLK8
 70
    64
 10
74.112781
 20
234.126972
 30
0.0
  3
BLK8
  0
LINE
  8
LC-002-002-----0
  6
CONTINUOUS
  5
7E
 10
74.112781
 20
234.126972
 30
0.0
 11
74.141315
 21
233.914009
 31
0.0
  0
LINE
  8
LC-002-002-----0
  6
CONTINUOUS
  5
7F
 10
74.141315
 20
233.914009
 30
0.0
 11
74.162405
 21
233.756602
 31
0.0
  0
LINE
  8
LC-002-002-----0
  6
CONTINUOUS
  5
80
 10
74.162405
 20
233.756602
 30
0.0
 11
74.171322
 21
233.690051
 31
0.0
  0
LINE
  8
LC-002-002-----0
  6
CONTINUOUS
  5
81
 10
74.171322
 20
233.690051
 30
0.0
 11
74.179773
 21
233.626972
 31
0.0
  0
LINE
  8
LC-002-002-----0
  6
CONTINUOUS
  5
82
 10
74.179773
 20
233.626972
 30
0.0
 11
74.188225
 21
233.563894
 31
0.0
  0
LINE
  8
LC-002-002-----0
  6
CONTINUOUS
  5
83
 10
74.188225
 20
233.563894
 30
0.0
 11
74.197142
 21
233.497343
 31
0.0
  0
LINE
  8
LC-002-002-----0
  6
CONTINUOUS
  5
84
 10
74.197142
 20
233.497343
 30
0.0
 11
74.218232
 21
233.339935
 31
0.0
  0
LINE
  8
LC-002-002-----0
  6
CONTINUOUS
  5
85
 10
74.218232
 20
233.339935
 30
0.0
 11
74.246766
 21
233.126972
 31
0.0
  0
ENDBLK
  8
0
  5
86
  0
BLOCK
  8
0
  5
88
  2
BLK9
 70
    64
 10
59.921849
 20
234.126972
 30
0.0
  3
BLK9
  0
LINE
  8
LC-002-002-----0
  6
CONTINUOUS
  5
89
 10
59.921849
 20
234.126972
 30
0.0
 11
59.958531
 21
233.914009
 31
0.0
  0
LINE
  8
LC-002-002-----0
  6
CONTINUOUS
  5
8A
 10
59.958531
 20
233.914009
 30
0.0
 11
59.985644
 21
233.756602
 31
0.0
  0
LINE
  8
LC-002-002-----0
  6
CONTINUOUS
  5
8B
 10
59.985644
 20
233.756602
 30
0.0
 11
59.997107
 21
233.690051
 31
0.0
  0
LINE
  8
LC-002-002-----0
  6
CONTINUOUS
  5
8C
 10
59.997107
 20
233.690051
 30
0.0
 11
60.007973
 21
233.626972
 31
0.0
  0
LINE
  8
LC-002-002-----0
  6
CONTINUOUS
  5
8D
 10
60.007973
 20
233.626972
 30
0.0
 11
60.018838
 21
233.563894
 31
0.0
  0
LINE
  8
LC-002-002-----0
  6
CONTINUOUS
  5
8E
 10
60.018838
 20
233.563894
 30
0.0
 11
60.030301
 21
233.497343
 31
0.0
  0
LINE
  8
LC-002-002-----0
  6
CONTINUOUS
  5
8F
 10
60.030301
 20
233.497343
 30
0.0
 11
60.057414
 21
233.339935
 31
0.0
  0
LINE
  8
LC-002-002-----0
  6
CONTINUOUS
  5
90
 10
60.057414
 20
233.339935
 30
0.0
 11
60.094097
 21
233.126972
 31
0.0
  0
ENDBLK
  8
0
  5
91
  0
BLOCK
  8
0
  5
93
  2
BLK10
 70
    64
 10
176.538001
 20
234.126972
 30
0.0
  3
BLK10
  0
LINE
  8
LC-002-002-----0
  6
CONTINUOUS
  5
94
 10
176.538001
 20
234.126972
 30
0.0
 11
176.509468
 21
233.914009
 31
0.0
  0
LINE
  8
LC-002-002-----0
  6
CONTINUOUS
  5
95
 10
176.509468
 20
233.914009
 30
0.0
 11
176.488377
 21
233.756602
 31
0.0
  0
LINE
  8
LC-002-002-----0
  6
CONTINUOUS
  5
96
 10
176.488377
 20
233.756602
 30
0.0
 11
176.479461
 21
233.690051
 31
0.0
  0
LINE
  8
LC-002-002-----0
  6
CONTINUOUS
  5
97
 10
176.479461
 20
233.690051
 30
0.0
 11
176.471009
 21
233.626972
 31
0.0
  0
LINE
  8
LC-002-002-----0
  6
CONTINUOUS
  5
98
 10
176.471009
 20
233.626972
 30
0.0
 11
176.462557
 21
233.563894
 31
0.0
  0
LINE
  8
LC-002-002-----0
  6
CONTINUOUS
  5
99
 10
176.462557
 20
233.563894
 30
0.0
 11
176.453641
 21
233.497343
 31
0.0
  0
LINE
  8
LC-002-002-----0
  6
CONTINUOUS
  5
9A
 10
176.453641
 20
233.497343
 30
0.0
 11
176.43255
 21
233.339935
 31
0.0
  0
LINE
  8
LC-002-002-----0
  6
CONTINUOUS
  5
9B
 10
176.43255
 20
233.339935
 30
0.0
 11
176.404016
 21
233.126972
 31
0.0
  0
ENDBLK
  8
0
  5
9C
  0
BLOCK
  8
0
  5
9E
  2
BLK11
 70
    64
 10
37.872548
 20
234.126972
 30
0.0
  3
BLK11
  0
LINE
  8
LC-002-002-----0
  6
CONTINUOUS
  5
9F
 10
37.872548
 20
234.126972
 30
0.0
 11
37.92197
 21
233.914009
 31
0.0
  0
LINE
  8
LC-002-002-----0
  6
CONTINUOUS
  5
A0
 10
37.92197
 20
233.914009
 30
0.0
 11
37.958499
 21
233.756602
 31
0.0
  0
LINE
  8
LC-002-002-----0
  6
CONTINUOUS
  5
A1
 10
37.958499
 20
233.756602
 30
0.0
 11
37.973944
 21
233.690051
 31
0.0
  0
LINE
  8
LC-002-002-----0
  6
CONTINUOUS
  5
A2
 10
37.973944
 20
233.690051
 30
0.0
 11
37.988582
 21
233.626972
 31
0.0
  0
LINE
  8
LC-002-002-----0
  6
CONTINUOUS
  5
A3
 10
37.988582
 20
233.626972
 30
0.0
 11
38.003221
 21
233.563894
 31
0.0
  0
LINE
  8
LC-002-002-----0
  6
CONTINUOUS
  5
A4
 10
38.003221
 20
233.563894
 30
0.0
 11
38.018665
 21
233.497343
 31
0.0
  0
LINE
  8
LC-002-002-----0
  6
CONTINUOUS
  5
A5
 10
38.018665
 20
233.497343
 30
0.0
 11
38.055195
 21
233.339935
 31
0.0
  0
LINE
  8
LC-002-002-----0
  6
CONTINUOUS
  5
A6
 10
38.055195
 20
233.339935
 30
0.0
 11
38.104617
 21
233.126972
 31
0.0
  0
ENDBLK
  8
0
  5
A7
  0
BLOCK
  8
0
  5
A9
  2
BLK12
 70
    64
 10
30.684136
 20
234.126972
 30
0.0
  3
BLK12
  0
LINE
  8
LC-002-002-----0
  6
CONTINUOUS
  5
AA
 10
30.684136
 20
234.126972
 30
0.0
 11
30.737762
 21
233.914009
 31
0.0
  0
LINE
  8
LC-002-002-----0
  6
CONTINUOUS
  5
AB
 10
30.737762
 20
233.914009
 30
0.0
 11
30.777399
 21
233.756602
 31
0.0
  0
LINE
  8
LC-002-002-----0
  6
CONTINUOUS
  5
AC
 10
30.777399
 20
233.756602
 30
0.0
 11
30.794157
 21
233.690051
 31
0.0
  0
LINE
  8
LC-002-002-----0
  6
CONTINUOUS
  5
AD
 10
30.794157
 20
233.690051
 30
0.0
 11
30.810041
 21
233.626972
 31
0.0
  0
LINE
  8
LC-002-002-----0
  6
CONTINUOUS
  5
AE
 10
30.810041
 20
233.626972
 30
0.0
 11
30.825925
 21
233.563894
 31
0.0
  0
LINE
  8
LC-002-002-----0
  6
CONTINUOUS
  5
AF
 10
30.825925
 20
233.563894
 30
0.0
 11
30.842683
 21
233.497343
 31
0.0
  0
LINE
  8
LC-002-002-----0
  6
CONTINUOUS
  5
B0
 10
30.842683
 20
233.497343
 30
0.0
 11
30.882319
 21
233.339935
 31
0.0
  0
LINE
  8
LC-002-002-----0
  6
CONTINUOUS
  5
B1
 10
30.882319
 20
233.339935
 30
0.0
 11
30.935945
 21
233.126972
 31
0.0
  0
ENDBLK
  8
0
  5
B2
  0
BLOCK
  8
0
  5
B4
  2
BLK13
 70
    64
 10
212.778234
 20
234.126972
 30
0.0
  3
BLK13
  0
LINE
  8
LC-002-002-----0
  6
CONTINUOUS
  5
B5
 10
212.778234
 20
234.126972
 30
0.0
 11
212.728812
 21
233.914009
 31
0.0
  0
LINE
  8
LC-002-002-----0
  6
CONTINUOUS
  5
B6
 10
212.728812
 20
233.914009
 30
0.0
 11
212.692283
 21
233.756602
 31
0.0
  0
LINE
  8
LC-002-002-----0
  6
CONTINUOUS
  5
B7
 10
212.692283
 20
233.756602
 30
0.0
 11
212.676838
 21
233.690051
 31
0.0
  0
LINE
  8
LC-002-002-----0
  6
CONTINUOUS
  5
B8
 10
212.676838
 20
233.690051
 30
0.0
 11
212.6622
 21
233.626972
 31
0.0
  0
LINE
  8
LC-002-002-----0
  6
CONTINUOUS
  5
B9
 10
212.6622
 20
233.626972
 30
0.0
 11
212.647561
 21
233.563894
 31
0.0
  0
LINE
  8
LC-002-002-----0
  6
CONTINUOUS
  5
BA
 10
212.647561
 20
233.563894
 30
0.0
 11
212.632117
 21
233.497343
 31
0.0
  0
LINE
  8
LC-002-002-----0
  6
CONTINUOUS
  5
BB
 10
212.632117
 20
233.497343
 30
0.0
 11
212.595587
 21
233.339935
 31
0.0
  0
LINE
  8
LC-002-002-----0
  6
CONTINUOUS
  5
BC
 10
212.595587
 20
233.339935
 30
0.0
 11
212.546165
 21
233.126972
 31
0.0
  0
ENDBLK
  8
0
  5
BD
  0
BLOCK
  8
0
  5
BF
  2
BLK14
 70
    64
 10
160.791
 20
234.126972
 30
0.0
  3
BLK14
  0
LINE
  8
LC-002-002-----0
  6
CONTINUOUS
  5
C0
 10
160.791
 20
234.126972
 30
0.0
 11
160.771482
 21
233.914009
 31
0.0
  0
LINE
  8
LC-002-002-----0
  6
CONTINUOUS
  5
C1
 10
160.771482
 20
233.914009
 30
0.0
 11
160.757055
 21
233.756602
 31
0.0
  0
LINE
  8
LC-002-002-----0
  6
CONTINUOUS
  5
C2
 10
160.757055
 20
233.756602
 30
0.0
 11
160.750956
 21
233.690051
 31
0.0
  0
LINE
  8
LC-002-002-----0
  6
CONTINUOUS
  5
C3
 10
160.750956
 20
233.690051
 30
0.0
 11
160.745175
 21
233.626972
 31
0.0
  0
LINE
  8
LC-002-002-----0
  6
CONTINUOUS
  5
C4
 10
160.745175
 20
233.626972
 30
0.0
 11
160.739393
 21
233.563894
 31
0.0
  0
LINE
  8
LC-002-002-----0
  6
CONTINUOUS
  5
C5
 10
160.739393
 20
233.563894
 30
0.0
 11
160.733294
 21
233.497343
 31
0.0
  0
LINE
  8
LC-002-002-----0
  6
CONTINUOUS
  5
C6
 10
160.733294
 20
233.497343
 30
0.0
 11
160.718867
 21
233.339935
 31
0.0
  0
LINE
  8
LC-002-002-----0
  6
CONTINUOUS
  5
C7
 10
160.718867
 20
233.339935
 30
0.0
 11
160.699349
 21
233.126972
 31
0.0
  0
ENDBLK
  8
0
  5
C8
  0
BLOCK
  8
0
  5
CA
  2
BLK15
 70
    64
 10
190.728933
 20
234.126972
 30
0.0
  3
BLK15
  0
LINE
  8
LC-002-002-----0
  6
CONTINUOUS
  5
CB
 10
190.728933
 20
234.126972
 30
0.0
 11
190.692251
 21
233.914009
 31
0.0
  0
LINE
  8
LC-002-002-----0
  6
CONTINUOUS
  5
CC
 10
190.692251
 20
233.914009
 30
0.0
 11
190.665138
 21
233.756602
 31
0.0
  0
LINE
  8
LC-002-002-----0
  6
CONTINUOUS
  5
CD
 10
190.665138
 20
233.756602
 30
0.0
 11
190.653675
 21
233.690051
 31
0.0
  0
LINE
  8
LC-002-002-----0
  6
CONTINUOUS
  5
CE
 10
190.653675
 20
233.690051
 30
0.0
 11
190.64281
 21
233.626972
 31
0.0
  0
LINE
  8
LC-002-002-----0
  6
CONTINUOUS
  5
CF
 10
190.64281
 20
233.626972
 30
0.0
 11
190.631944
 21
233.563894
 31
0.0
  0
LINE
  8
LC-002-002-----0
  6
CONTINUOUS
  5
D0
 10
190.631944
 20
233.563894
 30
0.0
 11
190.620481
 21
233.497343
 31
0.0
  0
LINE
  8
LC-002-002-----0
  6
CONTINUOUS
  5
D1
 10
190.620481
 20
233.497343
 30
0.0
 11
190.593368
 21
233.339935
 31
0.0
  0
LINE
  8
LC-002-002-----0
  6
CONTINUOUS
  5
D2
 10
190.593368
 20
233.339935
 30
0.0
 11
190.556686
 21
233.126972
 31
0.0
  0
ENDBLK
  8
0
  5
D3
  0
BLOCK
  8
0
  5
D5
  2
BLK16
 70
    64
 10
219.966646
 20
234.126972
 30
0.0
  3
BLK16
  0
LINE
  8
LC-002-002-----0
  6
CONTINUOUS
  5
D6
 10
219.966646
 20
234.126972
 30
0.0
 11
219.91302
 21
233.914009
 31
0.0
  0
LINE
  8
LC-002-002-----0
  6
CONTINUOUS
  5
D7
 10
219.91302
 20
233.914009
 30
0.0
 11
219.873383
 21
233.756602
 31
0.0
  0
LINE
  8
LC-002-002-----0
  6
CONTINUOUS
  5
D8
 10
219.873383
 20
233.756602
 30
0.0
 11
219.856625
 21
233.690051
 31
0.0
  0
LINE
  8
LC-002-002-----0
  6
CONTINUOUS
  5
D9
 10
219.856625
 20
233.690051
 30
0.0
 11
219.840741
 21
233.626972
 31
0.0
  0
LINE
  8
LC-002-002-----0
  6
CONTINUOUS
  5
DA
 10
219.840741
 20
233.626972
 30
0.0
 11
219.824858
 21
233.563894
 31
0.0
  0
LINE
  8
LC-002-002-----0
  6
CONTINUOUS
  5
DB
 10
219.824858
 20
233.563894
 30
0.0
 11
219.8081
 21
233.497343
 31
0.0
  0
LINE
  8
LC-002-002-----0
  6
CONTINUOUS
  5
DC
 10
219.8081
 20
233.497343
 30
0.0
 11
219.768463
 21
233.339935
 31
0.0
  0
LINE
  8
LC-002-002-----0
  6
CONTINUOUS
  5
DD
 10
219.768463
 20
233.339935
 30
0.0
 11
219.714837
 21
233.126972
 31
0.0
  0
ENDBLK
  8
0
  5
DE
  0
BLOCK
  8
0
  5
E0
  2
*D17
 70
    65
 10
0.0
 20
0.0
 30
0.0
  3
*D17
  0
LINE
  8
LC-007-003-MTH-0
  6
CONTINUOUS
  5
E2
 10
26.825391
 20
189.126972
 30
0.0
 11
26.825391
 21
100.8
 31
0.0
  0
LINE
  8
LC-007-003-MTH-0
  6
CONTINUOUS
  5
E3
 10
223.825391
 20
189.126972
 30
0.0
 11
223.825391
 21
100.8
 31
0.0
  0
LINE
  8
LC-008-003-MTG-0
  6
CONTINUOUS
  5
E5
 10
26.825391
 20
117.6
 30
0.0
 11
223.825391
 21
117.6
 31
0.0
  0
LINE
  8
LC-006-003-----0
  6
CONTINUOUS
  5
E7
 10
54.585847
 20
121.254733
 30
0.0
 11
26.825391
 21
117.6
 31
0.0
  0
LINE
  8
LC-006-003-----0
  6
CONTINUOUS
  5
E8
 10
26.825391
 20
117.6
 30
0.0
 11
54.585847
 21
113.945267
 31
0.0
  0
LINE
  8
LC-006-003-----0
  6
CONTINUOUS
  5
E9
 10
54.585847
 20
113.945267
 30
0.0
 11
54.585847
 21
121.254733
 31
0.0
  0
LINE
  8
LC-006-003-----0
  6
CONTINUOUS
  5
EA
 10
54.648129
 20
120.304503
 30
0.0
 11
34.105391
 21
117.6
 31
0.0
  0
LINE
  8
LC-006-003-----0
  6
CONTINUOUS
  5
EB
 10
34.105391
 20
117.6
 30
0.0
 11
54.648129
 21
114.895497
 31
0.0
  0
LINE
  8
LC-006-003-----0
  6
CONTINUOUS
  5
EC
 10
54.71041
 20
119.354272
 30
0.0
 11
41.385391
 21
117.6
 31
0.0
  0
LINE
  8
LC-006-003-----0
  6
CONTINUOUS
  5
ED
 10
41.385391
 20
117.6
 30
0.0
 11
54.71041
 21
115.845728
 31
0.0
  0
LINE
  8
LC-006-003-----0
  6
CONTINUOUS
  5
EE
 10
54.772691
 20
118.404041
 30
0.0
 11
48.665391
 21
117.6
 31
0.0
  0
LINE
  8
LC-006-003-----0
  6
CONTINUOUS
  5
EF
 10
48.665391
 20
117.6
 30
0.0
 11
54.772691
 21
116.795959
 31
0.0
  0
LINE
  8
LC-006-003-----0
  6
CONTINUOUS
  5
F0
 10
196.064935
 20
113.945267
 30
0.0
 11
223.825391
 21
117.6
 31
0.0
  0
LINE
  8
LC-006-003-----0
  6
CONTINUOUS
  5
F1
 10
223.825391
 20
117.6
 30
0.0
 11
196.064935
 21
121.254733
 31
0.0
  0
LINE
  8
LC-006-003-----0
  6
CONTINUOUS
  5
F2
 10
196.064935
 20
121.254733
 30
0.0
 11
196.064935
 21
113.945267
 31
0.0
  0
LINE
  8
LC-006-003-----0
  6
CONTINUOUS
  5
F3
 10
196.002654
 20
114.895497
 30
0.0
 11
216.545391
 21
117.6
 31
0.0
  0
LINE
  8
LC-006-003-----0
  6
CONTINUOUS
  5
F4
 10
216.545391
 20
117.6
 30
0.0
 11
196.002654
 21
120.304503
 31
0.0
  0
LINE
  8
LC-006-003-----0
  6
CONTINUOUS
  5
F5
 10
195.940372
 20
115.845728
 30
0.0
 11
209.265391
 21
117.6
 31
0.0
  0
LINE
  8
LC-006-003-----0
  6
CONTINUOUS
  5
F6
 10
209.265391
 20
117.6
 30
0.0
 11
195.940372
 21
119.354272
 31
0.0
  0
LINE
  8
LC-006-003-----0
  6
CONTINUOUS
  5
F7
 10
195.878091
 20
116.795959
 30
0.0
 11
201.985391
 21
117.6
 31
0.0
  0
LINE
  8
LC-006-003-----0
  6
CONTINUOUS
  5
F8
 10
201.985391
 20
117.6
 30
0.0
 11
195.878091
 21
118.404041
 31
0.0
  0
TEXT
  8
LC-006-003-----0
  6
CONTINUOUS
 62
     8
  5
F9
 10
91.402101
 20
125.427554
 30
0.0
 40
28.0
  1
Ø197
 41
0.9
 51
15.0
  7
LC-TXTSTYLE-150-400-0-0-A0
 72
     1
 11
129.673551
 21
125.427554
 31
0.0
  0
ENDBLK
  8
0
  5
FA
  0
BLOCK
  8
0
  5
FC
  2
*D18
 70
    65
 10
0.0
 20
0.0
 30
0.0
  3
*D18
  0
LINE
  8
LC-007-003-MTH-0
  6
CONTINUOUS
  5
FD
 10
225.325391
 20
216.126972
 30
0.0
 11
291.2
 21
216.126972
 31
0.0
  0
LINE
  8
LC-007-003-MTH-0
  6
CONTINUOUS
  5
FE
 10
231.325391
 20
236.126972
 30
0.0
 11
291.2
 21
236.126972
 31
0.0
  0
LINE
  8
LC-006-003-----0
  6
CONTINUOUS
  5
FF
 10
278.054733
 20
188.366516
 30
0.0
 11
274.4
 21
216.126972
 31
0.0
  0
LINE
  8
LC-006-003-----0
  6
CONTINUOUS
  5
100
 10
274.4
 20
216.126972
 30
0.0
 11
270.745267
 21
188.366516
 31
0.0
  0
LINE
  8
LC-006-003-----0
  6
CONTINUOUS
  5
101
 10
270.745267
 20
188.366516
 30
0.0
 11
278.054733
 21
188.366516
 31
0.0
  0
LINE
  8
LC-006-003-----0
  6
CONTINUOUS
  5
102
 10
277.104503
 20
188.304235
 30
0.0
 11
274.4
 21
208.846972
 31
0.0
  0
LINE
  8
LC-006-003-----0
  6
CONTINUOUS
  5
103
 10
274.4
 20
208.846972
 30
0.0
 11
271.695497
 21
188.304235
 31
0.0
  0
LINE
  8
LC-006-003-----0
  6
CONTINUOUS
  5
104
 10
276.154272
 20
188.241953
 30
0.0
 11
274.4
 21
201.566972
 31
0.0
  0
LINE
  8
LC-006-003-----0
  6
CONTINUOUS
  5
105
 10
274.4
 20
201.566972
 30
0.0
 11
272.645728
 21
188.241953
 31
0.0
  0
LINE
  8
LC-006-003-----0
  6
CONTINUOUS
  5
106
 10
275.204041
 20
188.179672
 30
0.0
 11
274.4
 21
194.286972
 31
0.0
  0
LINE
  8
LC-006-003-----0
  6
CONTINUOUS
  5
107
 10
274.4
 20
194.286972
 30
0.0
 11
273.595959
 21
188.179672
 31
0.0
  0
LINE
  8
LC-006-003-----0
  6
CONTINUOUS
  5
108
 10
270.745267
 20
263.887428
 30
0.0
 11
274.4
 21
236.126972
 31
0.0
  0
LINE
  8
LC-006-003-----0
  6
CONTINUOUS
  5
109
 10
274.4
 20
236.126972
 30
0.0
 11
278.054733
 21
263.887428
 31
0.0
  0
LINE
  8
LC-006-003-----0
  6
CONTINUOUS
  5
10A
 10
278.054733
 20
263.887428
 30
0.0
 11
270.745267
 21
263.887428
 31
0.0
  0
LINE
  8
LC-006-003-----0
  6
CONTINUOUS
  5
10B
 10
271.695497
 20
263.94971
 30
0.0
 11
274.4
 21
243.406972
 31
0.0
  0
LINE
  8
LC-006-003-----0
  6
CONTINUOUS
  5
10C
 10
274.4
 20
243.406972
 30
0.0
 11
277.104503
 21
263.94971
 31
0.0
  0
LINE
  8
LC-006-003-----0
  6
CONTINUOUS
  5
10D
 10
272.645728
 20
264.011991
 30
0.0
 11
274.4
 21
250.686972
 31
0.0
  0
LINE
  8
LC-006-003-----0
  6
CONTINUOUS
  5
10E
 10
274.4
 20
250.686972
 30
0.0
 11
276.154272
 21
264.011991
 31
0.0
  0
LINE
  8
LC-006-003-----0
  6
CONTINUOUS
  5
10F
 10
273.595959
 20
264.074273
 30
0.0
 11
274.4
 21
257.966972
 31
0.0
  0
LINE
  8
LC-006-003-----0
  6
CONTINUOUS
  5
110
 10
274.4
 20
257.966972
 30
0.0
 11
275.204041
 21
264.074273
 31
0.0
  0
LINE
  8
LC-008-003-MTG-0
  6
CONTINUOUS
  5
111
 10
274.4
 20
176.926972
 30
0.0
 11
274.4
 21
319.491372
 31
0.0
  0
TEXT
  8
LC-006-003-----0
  6
CONTINUOUS
 62
     8
  5
112
 10
266.572446
 20
278.555132
 30
0.0
 40
28.0
  1
20
 50
90.0
 41
0.9
 51
15.0
  7
LC-TXTSTYLE-150-400-0-0-A0
  0
ENDBLK
  8
0
  5
113
  0
BLOCK
  8
0
  5
115
  2
*D19
 70
    65
 10
0.0
 20
0.0
 30
0.0
  3
*D19
  0
LINE
  8
LC-007-003-MTH-0
  6
CONTINUOUS
  5
116
 10
232.325391
 20
206.126972
 30
0.0
 11
330.4
 21
206.126972
 31
0.0
  0
LINE
  8
LC-007-003-MTH-0
  6
CONTINUOUS
  5
117
 10
226.129239
 20
236.126972
 30
0.0
 11
330.4
 21
236.126972
 31
0.0
  0
LINE
  8
LC-006-003-----0
  6
CONTINUOUS
  5
118
 10
317.254733
 20
178.366516
 30
0.0
 11
313.6
 21
206.126972
 31
0.0
  0
LINE
  8
LC-006-003-----0
  6
CONTINUOUS
  5
119
 10
313.6
 20
206.126972
 30
0.0
 11
309.945267
 21
178.366516
 31
0.0
  0
LINE
  8
LC-006-003-----0
  6
CONTINUOUS
  5
11A
 10
309.945267
 20
178.366516
 30
0.0
 11
317.254733
 21
178.366516
 31
0.0
  0
LINE
  8
LC-006-003-----0
  6
CONTINUOUS
  5
11B
 10
316.304503
 20
178.304235
 30
0.0
 11
313.6
 21
198.846972
 31
0.0
  0
LINE
  8
LC-006-003-----0
  6
CONTINUOUS
  5
11C
 10
313.6
 20
198.846972
 30
0.0
 11
310.895497
 21
178.304235
 31
0.0
  0
LINE
  8
LC-006-003-----0
  6
CONTINUOUS
  5
11D
 10
315.354272
 20
178.241953
 30
0.0
 11
313.6
 21
191.566972
 31
0.0
  0
LINE
  8
LC-006-003-----0
  6
CONTINUOUS
  5
11E
 10
313.6
 20
191.566972
 30
0.0
 11
311.845728
 21
178.241953
 31
0.0
  0
LINE
  8
LC-006-003-----0
  6
CONTINUOUS
  5
11F
 10
314.404041
 20
178.179672
 30
0.0
 11
313.6
 21
184.286972
 31
0.0
  0
LINE
  8
LC-006-003-----0
  6
CONTINUOUS
  5
120
 10
313.6
 20
184.286972
 30
0.0
 11
312.795959
 21
178.179672
 31
0.0
  0
LINE
  8
LC-006-003-----0
  6
CONTINUOUS
  5
121
 10
309.945267
 20
263.887428
 30
0.0
 11
313.6
 21
236.126972
 31
0.0
  0
LINE
  8
LC-006-003-----0
  6
CONTINUOUS
  5
122
 10
313.6
 20
236.126972
 30
0.0
 11
317.254733
 21
263.887428
 31
0.0
  0
LINE
  8
LC-006-003-----0
  6
CONTINUOUS
  5
123
 10
317.254733
 20
263.887428
 30
0.0
 11
309.945267
 21
263.887428
 31
0.0
  0
LINE
  8
LC-006-003-----0
  6
CONTINUOUS
  5
124
 10
310.895497
 20
263.94971
 30
0.0
 11
313.6
 21
243.406972
 31
0.0
  0
LINE
  8
LC-006-003-----0
  6
CONTINUOUS
  5
125
 10
313.6
 20
243.406972
 30
0.0
 11
316.304503
 21
263.94971
 31
0.0
  0
LINE
  8
LC-006-003-----0
  6
CONTINUOUS
  5
126
 10
311.845728
 20
264.011991
 30
0.0
 11
313.6
 21
250.686972
 31
0.0
  0
LINE
  8
LC-006-003-----0
  6
CONTINUOUS
  5
127
 10
313.6
 20
250.686972
 30
0.0
 11
315.354272
 21
264.011991
 31
0.0
  0
LINE
  8
LC-006-003-----0
  6
CONTINUOUS
  5
128
 10
312.795959
 20
264.074273
 30
0.0
 11
313.6
 21
257.966972
 31
0.0
  0
LINE
  8
LC-006-003-----0
  6
CONTINUOUS
  5
129
 10
313.6
 20
257.966972
 30
0.0
 11
314.404041
 21
264.074273
 31
0.0
  0
LINE
  8
LC-008-003-MTG-0
  6
CONTINUOUS
  5
12A
 10
313.6
 20
166.926972
 30
0.0
 11
313.6
 21
319.491372
 31
0.0
  0
TEXT
  8
LC-006-003-----0
  6
CONTINUOUS
 62
     8
  5
12B
 10
305.772446
 20
278.555132
 30
0.0
 40
28.0
  1
30
 50
90.0
 41
0.9
 51
15.0
  7
LC-TXTSTYLE-150-400-0-0-A0
  0
ENDBLK
  8
0
  5
12C
  0
BLOCK
  8
0
  5
12E
  2
*D20
 70
    65
 10
0.0
 20
0.0
 30
0.0
  3
*D20
  0
LINE
  8
LC-007-003-MTH-0
  6
CONTINUOUS
  5
12F
 10
223.021544
 20
186.126972
 30
0.0
 11
369.6
 21
186.126972
 31
0.0
  0
LINE
  8
LC-007-003-MTH-0
  6
CONTINUOUS
  5
130
 10
226.129239
 20
236.126972
 30
0.0
 11
369.6
 21
236.126972
 31
0.0
  0
LINE
  8
LC-006-003-----0
  6
CONTINUOUS
  5
131
 10
356.454733
 20
158.366516
 30
0.0
 11
352.8
 21
186.126972
 31
0.0
  0
LINE
  8
LC-006-003-----0
  6
CONTINUOUS
  5
132
 10
352.8
 20
186.126972
 30
0.0
 11
349.145267
 21
158.366516
 31
0.0
  0
LINE
  8
LC-006-003-----0
  6
CONTINUOUS
  5
133
 10
349.145267
 20
158.366516
 30
0.0
 11
356.454733
 21
158.366516
 31
0.0
  0
LINE
  8
LC-006-003-----0
  6
CONTINUOUS
  5
134
 10
355.504503
 20
158.304235
 30
0.0
 11
352.8
 21
178.846972
 31
0.0
  0
LINE
  8
LC-006-003-----0
  6
CONTINUOUS
  5
135
 10
352.8
 20
178.846972
 30
0.0
 11
350.095497
 21
158.304235
 31
0.0
  0
LINE
  8
LC-006-003-----0
  6
CONTINUOUS
  5
136
 10
354.554272
 20
158.241953
 30
0.0
 11
352.8
 21
171.566972
 31
0.0
  0
LINE
  8
LC-006-003-----0
  6
CONTINUOUS
  5
137
 10
352.8
 20
171.566972
 30
0.0
 11
351.045728
 21
158.241953
 31
0.0
  0
LINE
  8
LC-006-003-----0
  6
CONTINUOUS
  5
138
 10
353.604041
 20
158.179672
 30
0.0
 11
352.8
 21
164.286972
 31
0.0
  0
LINE
  8
LC-006-003-----0
  6
CONTINUOUS
  5
139
 10
352.8
 20
164.286972
 30
0.0
 11
351.995959
 21
158.179672
 31
0.0
  0
LINE
  8
LC-006-003-----0
  6
CONTINUOUS
  5
13A
 10
349.145267
 20
263.887428
 30
0.0
 11
352.8
 21
236.126972
 31
0.0
  0
LINE
  8
LC-006-003-----0
  6
CONTINUOUS
  5
13B
 10
352.8
 20
236.126972
 30
0.0
 11
356.454733
 21
263.887428
 31
0.0
  0
LINE
  8
LC-006-003-----0
  6
CONTINUOUS
  5
13C
 10
356.454733
 20
263.887428
 30
0.0
 11
349.145267
 21
263.887428
 31
0.0
  0
LINE
  8
LC-006-003-----0
  6
CONTINUOUS
  5
13D
 10
350.095497
 20
263.94971
 30
0.0
 11
352.8
 21
243.406972
 31
0.0
  0
LINE
  8
LC-006-003-----0
  6
CONTINUOUS
  5
13E
 10
352.8
 20
243.406972
 30
0.0
 11
355.504503
 21
263.94971
 31
0.0
  0
LINE
  8
LC-006-003-----0
  6
CONTINUOUS
  5
13F
 10
351.045728
 20
264.011991
 30
0.0
 11
352.8
 21
250.686972
 31
0.0
  0
LINE
  8
LC-006-003-----0
  6
CONTINUOUS
  5
140
 10
352.8
 20
250.686972
 30
0.0
 11
354.554272
 21
264.011991
 31
0.0
  0
LINE
  8
LC-006-003-----0
  6
CONTINUOUS
  5
141
 10
351.995959
 20
264.074273
 30
0.0
 11
352.8
 21
257.966972
 31
0.0
  0
LINE
  8
LC-006-003-----0
  6
CONTINUOUS
  5
142
 10
352.8
 20
257.966972
 30
0.0
 11
353.604041
 21
264.074273
 31
0.0
  0
LINE
  8
LC-008-003-MTG-0
  6
CONTINUOUS
  5
143
 10
352.8
 20
146.926972
 30
0.0
 11
352.8
 21
319.491372
 31
0.0
  0
TEXT
  8
LC-006-003-----0
  6
CONTINUOUS
 62
     8
  5
144
 10
344.972446
 20
278.555132
 30
0.0
 40
28.0
  1
50
 50
90.0
 41
0.9
 51
15.0
  7
LC-TXTSTYLE-150-400-0-0-A0
  0
ENDBLK
  8
0
  5
145
  0
BLOCK
  8
0
  5
147
  2
*D21
 70
    65
 10
0.0
 20
0.0
 30
0.0
  3
*D21
  0
LINE
  8
LC-007-003-MTH-0
  6
CONTINUOUS
  5
148
 10
26.825391
 20
231.126972
 30
0.0
 11
26.825391
 21
291.2
 31
0.0
  0
LINE
  8
LC-007-003-MTH-0
  6
CONTINUOUS
  5
149
 10
223.825391
 20
231.126972
 30
0.0
 11
223.825391
 21
291.2
 31
0.0
  0
LINE
  8
LC-008-003-MTG-0
  6
CONTINUOUS
  5
14A
 10
26.825391
 20
274.4
 30
0.0
 11
223.825391
 21
274.4
 31
0.0
  0
LINE
  8
LC-006-003-----0
  6
CONTINUOUS
  5
14B
 10
54.585847
 20
278.054733
 30
0.0
 11
26.825391
 21
274.4
 31
0.0
  0
LINE
  8
LC-006-003-----0
  6
CONTINUOUS
  5
14C
 10
26.825391
 20
274.4
 30
0.0
 11
54.585847
 21
270.745267
 31
0.0
  0
LINE
  8
LC-006-003-----0
  6
CONTINUOUS
  5
14D
 10
54.585847
 20
270.745267
 30
0.0
 11
54.585847
 21
278.054733
 31
0.0
  0
LINE
  8
LC-006-003-----0
  6
CONTINUOUS
  5
14E
 10
54.648129
 20
277.104503
 30
0.0
 11
34.105391
 21
274.4
 31
0.0
  0
LINE
  8
LC-006-003-----0
  6
CONTINUOUS
  5
14F
 10
34.105391
 20
274.4
 30
0.0
 11
54.648129
 21
271.695497
 31
0.0
  0
LINE
  8
LC-006-003-----0
  6
CONTINUOUS
  5
150
 10
54.71041
 20
276.154272
 30
0.0
 11
41.385391
 21
274.4
 31
0.0
  0
LINE
  8
LC-006-003-----0
  6
CONTINUOUS
  5
151
 10
41.385391
 20
274.4
 30
0.0
 11
54.71041
 21
272.645728
 31
0.0
  0
LINE
  8
LC-006-003-----0
  6
CONTINUOUS
  5
152
 10
54.772691
 20
275.204041
 30
0.0
 11
48.665391
 21
274.4
 31
0.0
  0
LINE
  8
LC-006-003-----0
  6
CONTINUOUS
  5
153
 10
48.665391
 20
274.4
 30
0.0
 11
54.772691
 21
273.595959
 31
0.0
  0
LINE
  8
LC-006-003-----0
  6
CONTINUOUS
  5
154
 10
196.064935
 20
270.745267
 30
0.0
 11
223.825391
 21
274.4
 31
0.0
  0
LINE
  8
LC-006-003-----0
  6
CONTINUOUS
  5
155
 10
223.825391
 20
274.4
 30
0.0
 11
196.064935
 21
278.054733
 31
0.0
  0
LINE
  8
LC-006-003-----0
  6
CONTINUOUS
  5
156
 10
196.064935
 20
278.054733
 30
0.0
 11
196.064935
 21
270.745267
 31
0.0
  0
LINE
  8
LC-006-003-----0
  6
CONTINUOUS
  5
157
 10
196.002654
 20
271.695497
 30
0.0
 11
216.545391
 21
274.4
 31
0.0
  0
LINE
  8
LC-006-003-----0
  6
CONTINUOUS
  5
158
 10
216.545391
 20
274.4
 30
0.0
 11
196.002654
 21
277.104503
 31
0.0
  0
LINE
  8
LC-006-003-----0
  6
CONTINUOUS
  5
159
 10
195.940372
 20
272.645728
 30
0.0
 11
209.265391
 21
274.4
 31
0.0
  0
LINE
  8
LC-006-003-----0
  6
CONTINUOUS
  5
15A
 10
209.265391
 20
274.4
 30
0.0
 11
195.940372
 21
276.154272
 31
0.0
  0
LINE
  8
LC-006-003-----0
  6
CONTINUOUS
  5
15B
 10
195.878091
 20
273.595959
 30
0.0
 11
201.985391
 21
274.4
 31
0.0
  0
LINE
  8
LC-006-003-----0
  6
CONTINUOUS
  5
15C
 10
201.985391
 20
274.4
 30
0.0
 11
195.878091
 21
275.204041
 31
0.0
  0
TEXT
  8
LC-006-003-----0
  6
CONTINUOUS
 62
     8
  5
15D
 10
91.402101
 20
282.227554
 30
0.0
 40
28.0
  1
Ø197
 41
0.9
 51
15.0
  7
LC-TXTSTYLE-150-400-0-0-A0
 72
     1
 11
129.673551
 21
282.227554
 31
0.0
  0
ENDBLK
  8
0
  5
15E
  0
BLOCK
  8
0
  5
160
  2
*D22
 70
    65
 10
0.0
 20
0.0
 30
0.0
  3
*D22
  0
LINE
  8
LC-007-003-MTH-0
  6
CONTINUOUS
  5
161
 10
16.325391
 20
233.126972
 30
0.0
 11
16.325391
 21
330.4
 31
0.0
  0
LINE
  8
LC-007-003-MTH-0
  6
CONTINUOUS
  5
162
 10
234.325391
 20
233.126972
 30
0.0
 11
234.325391
 21
330.4
 31
0.0
  0
LINE
  8
LC-008-003-MTG-0
  6
CONTINUOUS
  5
163
 10
16.325391
 20
313.6
 30
0.0
 11
234.325391
 21
313.6
 31
0.0
  0
LINE
  8
LC-006-003-----0
  6
CONTINUOUS
  5
164
 10
44.085847
 20
317.254733
 30
0.0
 11
16.325391
 21
313.6
 31
0.0
  0
LINE
  8
LC-006-003-----0
  6
CONTINUOUS
  5
165
 10
16.325391
 20
313.6
 30
0.0
 11
44.085847
 21
309.945267
 31
0.0
  0
LINE
  8
LC-006-003-----0
  6
CONTINUOUS
  5
166
 10
44.085847
 20
309.945267
 30
0.0
 11
44.085847
 21
317.254733
 31
0.0
  0
LINE
  8
LC-006-003-----0
  6
CONTINUOUS
  5
167
 10
44.148129
 20
316.304503
 30
0.0
 11
23.605391
 21
313.6
 31
0.0
  0
LINE
  8
LC-006-003-----0
  6
CONTINUOUS
  5
168
 10
23.605391
 20
313.6
 30
0.0
 11
44.148129
 21
310.895497
 31
0.0
  0
LINE
  8
LC-006-003-----0
  6
CONTINUOUS
  5
169
 10
44.21041
 20
315.354272
 30
0.0
 11
30.885391
 21
313.6
 31
0.0
  0
LINE
  8
LC-006-003-----0
  6
CONTINUOUS
  5
16A
 10
30.885391
 20
313.6
 30
0.0
 11
44.21041
 21
311.845728
 31
0.0
  0
LINE
  8
LC-006-003-----0
  6
CONTINUOUS
  5
16B
 10
44.272691
 20
314.404041
 30
0.0
 11
38.165391
 21
313.6
 31
0.0
  0
LINE
  8
LC-006-003-----0
  6
CONTINUOUS
  5
16C
 10
38.165391
 20
313.6
 30
0.0
 11
44.272691
 21
312.795959
 31
0.0
  0
LINE
  8
LC-006-003-----0
  6
CONTINUOUS
  5
16D
 10
206.564935
 20
309.945267
 30
0.0
 11
234.325391
 21
313.6
 31
0.0
  0
LINE
  8
LC-006-003-----0
  6
CONTINUOUS
  5
16E
 10
234.325391
 20
313.6
 30
0.0
 11
206.564935
 21
317.254733
 31
0.0
  0
LINE
  8
LC-006-003-----0
  6
CONTINUOUS
  5
16F
 10
206.564935
 20
317.254733
 30
0.0
 11
206.564935
 21
309.945267
 31
0.0
  0
LINE
  8
LC-006-003-----0
  6
CONTINUOUS
  5
170
 10
206.502654
 20
310.895497
 30
0.0
 11
227.045391
 21
313.6
 31
0.0
  0
LINE
  8
LC-006-003-----0
  6
CONTINUOUS
  5
171
 10
227.045391
 20
313.6
 30
0.0
 11
206.502654
 21
316.304503
 31
0.0
  0
LINE
  8
LC-006-003-----0
  6
CONTINUOUS
  5
172
 10
206.440372
 20
311.845728
 30
0.0
 11
219.765391
 21
313.6
 31
0.0
  0
LINE
  8
LC-006-003-----0
  6
CONTINUOUS
  5
173
 10
219.765391
 20
313.6
 30
0.0
 11
206.440372
 21
315.354272
 31
0.0
  0
LINE
  8
LC-006-003-----0
  6
CONTINUOUS
  5
174
 10
206.378091
 20
312.795959
 30
0.0
 11
212.485391
 21
313.6
 31
0.0
  0
LINE
  8
LC-006-003-----0
  6
CONTINUOUS
  5
175
 10
212.485391
 20
313.6
 30
0.0
 11
206.378091
 21
314.404041
 31
0.0
  0
TEXT
  8
LC-006-003-----0
  6
CONTINUOUS
 62
     8
  5
176
 10
91.402101
 20
321.427554
 30
0.0
 40
28.0
  1
Ø218
 41
0.9
 51
15.0
  7
LC-TXTSTYLE-150-400-0-0-A0
 72
     1
 11
129.673551
 21
321.427554
 31
0.0
  0
ENDBLK
  8
0
  5
177
  0
BLOCK
  8
0
  5
179
  2
*X23
 70
    65
 10
16.325391
 20
186.126972
 30
0.0
  3
*X23
  0
LINE
  8
LC-001-005-----0
  6
CONTINUOUS
  5
17A
 10
33.391908
 20
186.126972
 30
0.0
 11
36.075391
 21
188.810456
 31
0.0
  0
LINE
  8
LC-001-005-----0
  6
CONTINUOUS
  5
17B
 10
30.56348
 20
186.126972
 30
0.0
 11
36.075391
 21
191.638883
 31
0.0
  0
LINE
  8
LC-001-005-----0
  6
CONTINUOUS
  5
17C
 10
27.735053
 20
186.126972
 30
0.0
 11
36.075391
 21
194.46731
 31
0.0
  0
LINE
  8
LC-001-005-----0
  6
CONTINUOUS
  5
17D
 10
27.053883
 20
188.274229
 30
0.0
 11
36.075391
 21
197.295737
 31
0.0
  0
LINE
  8
LC-001-005-----0
  6
CONTINUOUS
  5
17E
 10
26.825391
 20
190.874164
 30
0.0
 11
36.075391
 21
200.124164
 31
0.0
  0
LINE
  8
LC-001-005-----0
  6
CONTINUOUS
  5
17F
 10
26.825391
 20
193.702591
 30
0.0
 11
35.249772
 21
202.126972
 31
0.0
  0
LINE
  8
LC-001-005-----0
  6
CONTINUOUS
  5
180
 10
26.825391
 20
196.531019
 30
0.0
 11
33.575391
 21
203.281019
 31
0.0
  0
LINE
  8
LC-001-005-----0
  6
CONTINUOUS
  5
181
 10
26.825391
 20
199.359446
 30
0.0
 11
33.575391
 21
206.109446
 31
0.0
  0
LINE
  8
LC-001-005-----0
  6
CONTINUOUS
  5
182
 10
26.825391
 20
202.187873
 30
0.0
 11
33.575391
 21
208.937873
 31
0.0
  0
LINE
  8
LC-001-005-----0
  6
CONTINUOUS
  5
183
 10
26.825391
 20
205.0163
 30
0.0
 11
33.575391
 21
211.7663
 31
0.0
  0
LINE
  8
LC-001-005-----0
  6
CONTINUOUS
  5
184
 10
25.107636
 20
206.126972
 30
0.0
 11
33.575391
 21
214.594727
 31
0.0
  0
LINE
  8
LC-001-005-----0
  6
CONTINUOUS
  5
185
 10
22.279209
 20
206.126972
 30
0.0
 11
32.279209
 21
216.126972
 31
0.0
  0
LINE
  8
LC-001-005-----0
  6
CONTINUOUS
  5
186
 10
19.450782
 20
206.126972
 30
0.0
 11
29.450782
 21
216.126972
 31
0.0
  0
LINE
  8
LC-001-005-----0
  6
CONTINUOUS
  5
187
 10
17.473873
 20
206.97849
 30
0.0
 11
26.622355
 21
216.126972
 31
0.0
  0
LINE
  8
LC-001-005-----0
  6
CONTINUOUS
  5
188
 10
16.325391
 20
208.658436
 30
0.0
 11
25.325391
 21
217.658436
 31
0.0
  0
LINE
  8
LC-001-005-----0
  6
CONTINUOUS
  5
189
 10
16.325391
 20
211.486863
 30
0.0
 11
25.325391
 21
220.486863
 31
0.0
  0
LINE
  8
LC-001-005-----0
  6
CONTINUOUS
  5
18A
 10
16.325391
 20
214.31529
 30
0.0
 11
23.137074
 21
221.126972
 31
0.0
  0
LINE
  8
LC-001-005-----0
  6
CONTINUOUS
  5
18B
 10
16.325391
 20
217.143717
 30
0.0
 11
22.825391
 21
223.643717
 31
0.0
  0
LINE
  8
LC-001-005-----0
  6
CONTINUOUS
  5
18C
 10
16.325391
 20
219.972144
 30
0.0
 11
22.825391
 21
226.472144
 31
0.0
  0
LINE
  8
LC-001-005-----0
  6
CONTINUOUS
  5
18D
 10
16.325391
 20
222.800571
 30
0.0
 11
22.825391
 21
229.300571
 31
0.0
  0
LINE
  8
LC-001-005-----0
  6
CONTINUOUS
  5
18E
 10
16.325391
 20
225.628998
 30
0.0
 11
22.825391
 21
232.128998
 31
0.0
  0
LINE
  8
LC-001-005-----0
  6
CONTINUOUS
  5
18F
 10
16.325391
 20
228.457425
 30
0.0
 11
22.825391
 21
234.957425
 31
0.0
  0
LINE
  8
LC-001-005-----0
  6
CONTINUOUS
  5
190
 10
16.325391
 20
231.285853
 30
0.0
 11
21.166511
 21
236.126972
 31
0.0
  0
ENDBLK
  8
0
  5
191
  0
ENDSEC
  0
SECTION
  2
ENTITIES
  0
VIEWPORT
  8
LC-000
  5
32A
 67
     1
 68
     1
 10
420.0
 20
297.0
 30
0.0
 40
840.0
 41
594.0
 69
     1
1001
ACAD
1000
MVIEW
1002
{
1070
    16
1010
0.0
1020
0.0
1030
0.0
1010
0.0
1020
0.0
1030
1.0
1040
0.0
1040
594.0
1040
420.0
1040
297.0
1040
50.0
1040
0.0
1040
0.0
1070
     0
1070
   100
1070
     1
1070
     1
1070
     0
1070
     0
1070
     0
1070
     0
1040
0.0
1040
0.0
1040
0.0
1040
1.0
1040
1.0
1040
0.0
1040
0.0
1070
     0
1002
{
1002
}
1002
}
  0
VIEWPORT
  8
0
  5
32B
 67
     1
 68
     1
 10
0.0
 20
0.0
 30
0.0
 40
0.0
 41
0.0
 69
     1
1001
ACAD
1000
MVIEW
1002
{
1070
    16
1010
0.0
1020
0.0
1030
0.0
1010
0.0
1020
0.0
1030
1.0
1040
0.0
1040
594.0
1040
0.0
1040
0.0
1040
50.0
1040
0.0
1040
0.0
1070
     0
1070
   100
1070
     0
1070
     1
1070
     0
1070
     0
1070
     0
1070
     0
1040
0.0
1040
0.0
1040
0.0
1040
0.5
1040
0.5
1040
0.5
1040
0.5
1070
     0
1002
{
1002
}
1002
}
  0
INSERT
  8
LC-001-005-----0
  6
CONTINUOUS
  5
192
  2
*X0
 10
214.575391
 20
186.126972
 30
0.0
  0
INSERT
  8
LC-002-002-----0
  6
CONTINUOUS
  5
193
  2
*D1
 10
0.0
 20
0.0
 30
0.0
  0
INSERT
  8
LC-003-006-----0
  6
CENTER
  5
196
  2
*D2
 10
0.0
 20
0.0
 30
0.0
  0
INSERT
  8
LC-002-002-----0
  6
CONTINUOUS
  5
197
  2
BLK3
 10
202.932612
 20
234.126972
 30
0.0
  0
INSERT
  8
LC-002-002-----0
  6
CONTINUOUS
  5
198
  2
BLK4
 10
47.71817
 20
234.126972
 30
0.0
  0
INSERT
  8
LC-002-002-----0
  6
CONTINUOUS
  5
199
  2
BLK5
 10
143.966394
 20
234.126972
 30
0.0
  0
INSERT
  8
LC-002-002-----0
  6
CONTINUOUS
  5
19A
  2
BLK6
 10
106.684388
 20
234.126972
 30
0.0
  0
INSERT
  8
LC-002-002-----0
  6
CONTINUOUS
  5
19B
  2
BLK7
 10
89.859782
 20
234.126972
 30
0.0
  0
INSERT
  8
LC-002-002-----0
  6
CONTINUOUS
  5
19C
  2
BLK8
 10
74.112781
 20
234.126972
 30
0.0
  0
INSERT
  8
LC-002-002-----0
  6
CONTINUOUS
  5
19D
  2
BLK9
 10
59.921849
 20
234.126972
 30
0.0
  0
INSERT
  8
LC-002-002-----0
  6
CONTINUOUS
  5
19E
  2
BLK10
 10
176.538001
 20
234.126972
 30
0.0
  0
INSERT
  8
LC-002-002-----0
  6
CONTINUOUS
  5
19F
  2
BLK11
 10
37.872548
 20
234.126972
 30
0.0
  0
INSERT
  8
LC-002-002-----0
  6
CONTINUOUS
  5
1A0
  2
BLK12
 10
30.684136
 20
234.126972
 30
0.0
  0
INSERT
  8
LC-002-002-----0
  6
CONTINUOUS
  5
1A1
  2
BLK13
 10
212.778234
 20
234.126972
 30
0.0
  0
INSERT
  8
LC-002-002-----0
  6
CONTINUOUS
  5
1A2
  2
BLK14
 10
160.791
 20
234.126972
 30
0.0
  0
INSERT
  8
LC-002-002-----0
  6
CONTINUOUS
  5
1A3
  2
BLK15
 10
190.728933
 20
234.126972
 30
0.0
  0
INSERT
  8
LC-002-002-----0
  6
CONTINUOUS
  5
1A4
  2
BLK16
 10
219.966646
 20
234.126972
 30
0.0
  0
DIMENSION
  8
LC-006-003-----0
  6
CONTINUOUS
  5
1A5
  2
*D17
 10
125.325391
 20
117.6
 30
0.0
 11
125.325391
 21
117.6
 31
0.0
  1
%%c<>
 13
223.825391
 23
189.126972
 33
0.0
 14
26.825391
 24
189.126972
 34
0.0
  3
LC-DIM-L-0140-02-02
  0
DIMENSION
  8
LC-006-003-----0
  6
CONTINUOUS
  5
1A6
  2
*D18
 10
274.4
 20
238.056
 30
0.0
 11
274.4
 21
238.056
 31
0.0
 13
231.325391
 23
236.126972
 33
0.0
 14
225.325391
 24
216.126972
 34
0.0
 50
90.0
  3
LC-DIM-L-0140-02-02
  0
DIMENSION
  8
LC-006-003-----0
  6
CONTINUOUS
  5
1A7
  2
*D19
 10
313.6
 20
221.126972
 30
0.0
 11
313.6
 21
221.126972
 31
0.0
 13
226.129239
 23
236.126972
 33
0.0
 14
232.325391
 24
206.126972
 34
0.0
 50
90.0
  3
LC-DIM-L-0140-02-02
  0
DIMENSION
  8
LC-006-003-----0
  6
CONTINUOUS
  5
1A8
  2
*D20
 10
352.8
 20
211.126972
 30
0.0
 11
352.8
 21
211.126972
 31
0.0
 13
226.129239
 23
236.126972
 33
0.0
 14
223.021544
 24
186.126972
 34
0.0
 50
90.0
  3
LC-DIM-L-0140-02-02
  0
DIMENSION
  8
LC-006-003-----0
  6
CONTINUOUS
  5
1A9
  2
*D21
 10
125.325391
 20
274.4
 30
0.0
 11
125.325391
 21
274.4
 31
0.0
  1
%%c<>
 13
223.825391
 23
231.126972
 33
0.0
 14
26.825391
 24
231.126972
 34
0.0
  3
LC-DIM-L-0140-02-02
  0
DIMENSION
  8
LC-006-003-----0
  6
CONTINUOUS
  5
1AA
  2
*D22
 10
125.325391
 20
313.6
 30
0.0
 11
125.325391
 21
313.6
 31
0.0
  1
%%c<>
 13
234.325391
 23
233.126972
 33
0.0
 14
16.325391
 24
233.126972
 34
0.0
  3
LC-DIM-L-0140-02-02
  0
INSERT
  8
LC-001-005-----0
  6
CONTINUOUS
  5
1AB
  2
*X23
 10
16.325391
 20
186.126972
 30
0.0
  0
LINE
  8
LC-002-002-----0
  6
CONTINUOUS
  5
1AC
 10
126.575391
 20
202.126972
 30
0.0
 11
139.592481
 21
202.126972
 31
0.0
  0
LINE
  8
LC-002-002-----0
  6
CONTINUOUS
  5
1AD
 10
124.075391
 20
202.126972
 30
0.0
 11
126.575391
 21
202.126972
 31
0.0
  0
LINE
  8
LC-002-002-----0
  6
CONTINUOUS
  5
1AE
 10
154.676073
 20
202.126972
 30
0.0
 11
157.025305
 21
202.126972
 31
0.0
  0
LINE
  8
LC-002-002-----0
  6
CONTINUOUS
  5
1AF
 10
142.054501
 20
202.126972
 30
0.0
 11
154.676073
 21
202.126972
 31
0.0
  0
LINE
  8
LC-002-002-----0
  6
CONTINUOUS
  5
1B0
 10
139.592481
 20
202.126972
 30
0.0
 11
142.054501
 21
202.126972
 31
0.0
  0
LINE
  8
LC-002-002-----0
  6
CONTINUOUS
  5
1B1
 10
36.075391
 20
202.126972
 30
0.0
 11
37.214239
 21
202.126972
 31
0.0
  0
LINE
  8
LC-002-002-----0
  6
CONTINUOUS
  5
1B2
 10
34.132886
 20
216.126972
 30
0.0
 11
36.075391
 21
216.126972
 31
0.0
  0
LINE
  8
LC-002-002-----0
  6
CONTINUOUS
  5
1B3
 10
34.132886
 20
221.126972
 30
0.0
 11
38.104617
 21
221.126972
 31
0.0
  0
LINE
  8
LC-002-002-----0
  6
CONTINUOUS
  5
1B4
 10
143.626685
 20
234.126972
 30
0.0
 11
143.966394
 21
234.126972
 31
0.0
  0
LINE
  8
LC-002-002-----0
  6
CONTINUOUS
  5
1B5
 10
107.024097
 20
234.126972
 30
0.0
 11
106.684388
 21
234.126972
 31
0.0
  0
LINE
  8
LC-002-002-----0
  6
CONTINUOUS
  5
1B6
 10
90.528879
 20
234.126972
 30
0.0
 11
89.859782
 21
234.126972
 31
0.0
  0
LINE
  8
LC-002-002-----0
  6
CONTINUOUS
  5
1B7
 10
75.090936
 20
234.126972
 30
0.0
 11
74.112781
 21
234.126972
 31
0.0
  0
LINE
  8
LC-002-002-----0
  6
CONTINUOUS
  5
1B8
 10
77.255999
 20
234.126972
 30
0.0
 11
77.657923
 21
231.126972
 31
0.0
  0
LINE
  8
LC-002-002-----0
  6
CONTINUOUS
  5
1B9
 10
75.090936
 20
234.126972
 30
0.0
 11
75.492859
 21
231.126972
 31
0.0
  0
LINE
  8
LC-002-002-----0
  6
CONTINUOUS
  5
1BA
 10
61.17934
 20
234.126972
 30
0.0
 11
59.921849
 21
234.126972
 31
0.0
  0
LINE
  8
LC-002-002-----0
  6
CONTINUOUS
  5
1BB
 10
63.094451
 20
234.126972
 30
0.0
 11
63.611155
 21
231.126972
 31
0.0
  0
LINE
  8
LC-002-002-----0
  6
CONTINUOUS
  5
1BC
 10
61.17934
 20
234.126972
 30
0.0
 11
61.696044
 21
231.126972
 31
0.0
  0
LINE
  8
LC-002-002-----0
  6
CONTINUOUS
  5
1BD
 10
175.559847
 20
234.126972
 30
0.0
 11
175.157923
 21
231.126972
 31
0.0
  0
LINE
  8
LC-002-002-----0
  6
CONTINUOUS
  5
1BE
 10
175.559847
 20
234.126972
 30
0.0
 11
176.538001
 21
234.126972
 31
0.0
  0
LINE
  8
LC-002-002-----0
  6
CONTINUOUS
  5
1BF
 10
39.566762
 20
234.126972
 30
0.0
 11
40.262914
 21
231.126972
 31
0.0
  0
LINE
  8
LC-002-002-----0
  6
CONTINUOUS
  5
1C0
 10
49.21679
 20
234.126972
 30
0.0
 11
47.71817
 21
234.126972
 31
0.0
  0
LINE
  8
LC-002-002-----0
  6
CONTINUOUS
  5
1C1
 10
50.823759
 20
234.126972
 30
0.0
 11
51.439542
 21
231.126972
 31
0.0
  0
LINE
  8
LC-002-002-----0
  6
CONTINUOUS
  5
1C2
 10
49.21679
 20
234.126972
 30
0.0
 11
49.832573
 21
231.126972
 31
0.0
  0
LINE
  8
LC-002-002-----0
  6
CONTINUOUS
  5
1C3
 10
40.816762
 20
234.126972
 30
0.0
 11
41.512914
 21
231.126972
 31
0.0
  0
LINE
  8
LC-002-002-----0
  6
CONTINUOUS
  5
1C4
 10
39.566762
 20
234.126972
 30
0.0
 11
37.872548
 21
234.126972
 31
0.0
  0
LINE
  8
LC-002-002-----0
  6
CONTINUOUS
  5
1C5
 10
32.522466
 20
234.126972
 30
0.0
 11
33.277835
 21
231.126972
 31
0.0
  0
LINE
  8
LC-002-002-----0
  6
CONTINUOUS
  5
1C6
 10
33.377516
 20
234.126972
 30
0.0
 11
34.132886
 21
231.126972
 31
0.0
  0
LINE
  8
LC-002-002-----0
  6
CONTINUOUS
  5
1C7
 10
30.935945
 20
233.126972
 30
0.0
 11
30.935945
 21
221.126972
 31
0.0
  0
LINE
  8
LC-002-002-----0
  6
CONTINUOUS
  5
1C8
 10
38.104617
 20
233.126972
 30
0.0
 11
38.104617
 21
221.126972
 31
0.0
  0
LINE
  8
LC-002-002-----0
  6
CONTINUOUS
  5
1C9
 10
124.075391
 20
234.126972
 30
0.0
 11
124.075391
 21
233.126972
 31
0.0
  0
LINE
  8
LC-002-002-----0
  6
CONTINUOUS
  5
1CA
 10
126.575391
 20
234.126972
 30
0.0
 11
126.575391
 21
233.126972
 31
0.0
  0
LINE
  8
LC-002-002-----0
  6
CONTINUOUS
  5
1CB
 10
160.121903
 20
234.126972
 30
0.0
 11
160.791
 21
234.126972
 31
0.0
  0
LINE
  8
LC-002-002-----0
  6
CONTINUOUS
  5
1CC
 10
25.325391
 20
216.126972
 30
0.0
 11
33.575391
 21
216.126972
 31
0.0
  0
LINE
  8
LC-002-002-----0
  6
CONTINUOUS
  5
1CD
 10
199.827023
 20
234.126972
 30
0.0
 11
199.21124
 21
231.126972
 31
0.0
  0
LINE
  8
LC-002-002-----0
  6
CONTINUOUS
  5
1CE
 10
189.471442
 20
234.126972
 30
0.0
 11
190.728933
 21
234.126972
 31
0.0
  0
LINE
  8
LC-002-002-----0
  6
CONTINUOUS
  5
1CF
 10
189.471442
 20
234.126972
 30
0.0
 11
188.954739
 21
231.126972
 31
0.0
  0
LINE
  8
LC-002-002-----0
  6
CONTINUOUS
  5
1D0
 10
214.575391
 20
216.126972
 30
0.0
 11
214.575391
 21
202.126972
 31
0.0
  0
LINE
  8
LC-002-002-----0
  6
CONTINUOUS
  5
1D1
 10
213.436543
 20
202.126972
 30
0.0
 11
214.575391
 21
202.126972
 31
0.0
  0
LINE
  8
LC-002-002-----0
  6
CONTINUOUS
  5
1D2
 10
211.08402
 20
234.126972
 30
0.0
 11
210.387868
 21
231.126972
 31
0.0
  0
LINE
  8
LC-002-002-----0
  6
CONTINUOUS
  5
1D3
 10
211.08402
 20
234.126972
 30
0.0
 11
212.778234
 21
234.126972
 31
0.0
  0
LINE
  8
LC-002-002-----0
  6
CONTINUOUS
  5
1D4
 10
212.546165
 20
233.126972
 30
0.0
 11
212.546165
 21
221.126972
 31
0.0
  0
LINE
  8
LC-002-002-----0
  6
CONTINUOUS
  5
1D5
 10
209.137868
 20
231.126972
 30
0.0
 11
210.387868
 21
231.126972
 31
0.0
  0
LINE
  8
LC-002-002-----0
  6
CONTINUOUS
  5
1D6
 10
209.137868
 20
216.126972
 30
0.0
 11
209.137868
 21
231.126972
 31
0.0
  0
LINE
  8
LC-002-002-----0
  6
CONTINUOUS
  5
1D7
 10
213.002423
 20
202.126972
 30
0.0
 11
213.436543
 21
202.126972
 31
0.0
  0
LINE
  8
LC-002-002-----0
  6
CONTINUOUS
  5
1D8
 10
209.620483
 20
202.126972
 30
0.0
 11
213.002423
 21
202.126972
 31
0.0
  0
LINE
  8
LC-002-002-----0
  6
CONTINUOUS
  5
1D9
 10
208.765432
 20
202.126972
 30
0.0
 11
209.620483
 21
202.126972
 31
0.0
  0
LINE
  8
LC-002-002-----0
  6
CONTINUOUS
  5
1DA
 10
210.387868
 20
216.126972
 30
0.0
 11
210.387868
 21
231.126972
 31
0.0
  0
LINE
  8
LC-002-002-----0
  6
CONTINUOUS
  5
1DB
 10
210.387868
 20
216.126972
 30
0.0
 11
214.575391
 21
216.126972
 31
0.0
  0
LINE
  8
LC-002-002-----0
  6
CONTINUOUS
  5
1DC
 10
209.83402
 20
234.126972
 30
0.0
 11
209.137868
 21
231.126972
 31
0.0
  0
LINE
  8
LC-002-002-----0
  6
CONTINUOUS
  5
1DD
 10
211.08402
 20
234.126972
 30
0.0
 11
209.83402
 21
234.126972
 31
0.0
  0
LINE
  8
LC-002-002-----0
  6
CONTINUOUS
  5
1DE
 10
26.825391
 20
189.126972
 30
0.0
 11
27.629239
 21
186.126972
 31
0.0
  0
LINE
  8
LC-002-002-----0
  6
CONTINUOUS
  5
1DF
 10
221.127087
 20
216.126972
 30
0.0
 11
217.372947
 21
216.126972
 31
0.0
  0
LINE
  8
LC-002-002-----0
  6
CONTINUOUS
  5
1E0
 10
32.522466
 20
234.126972
 30
0.0
 11
30.684136
 21
234.126972
 31
0.0
  0
LINE
  8
LC-002-002-----0
  6
CONTINUOUS
  5
1E1
 10
47.923447
 20
233.126972
 30
0.0
 11
47.923447
 21
221.126972
 31
0.0
  0
LINE
  8
LC-002-002-----0
  6
CONTINUOUS
  5
1E2
 10
176.404016
 20
233.126972
 30
0.0
 11
176.404016
 21
221.126972
 31
0.0
  0
LINE
  8
LC-002-002-----0
  6
CONTINUOUS
  5
1E3
 10
60.094097
 20
233.126972
 30
0.0
 11
60.094097
 21
221.126972
 31
0.0
  0
LINE
  8
LC-002-002-----0
  6
CONTINUOUS
  5
1E4
 10
74.246766
 20
233.126972
 30
0.0
 11
74.246766
 21
221.126972
 31
0.0
  0
LINE
  8
LC-002-002-----0
  6
CONTINUOUS
  5
1E5
 10
89.951433
 20
233.126972
 30
0.0
 11
89.951433
 21
221.126972
 31
0.0
  0
LINE
  8
LC-002-002-----0
  6
CONTINUOUS
  5
1E6
 10
106.73092
 20
233.126972
 30
0.0
 11
106.73092
 21
221.126972
 31
0.0
  0
LINE
  8
LC-002-002-----0
  6
CONTINUOUS
  5
1E7
 10
143.919862
 20
233.126972
 30
0.0
 11
143.919862
 21
221.126972
 31
0.0
  0
LINE
  8
LC-002-002-----0
  6
CONTINUOUS
  5
1E8
 10
160.699349
 20
233.126972
 30
0.0
 11
160.699349
 21
221.126972
 31
0.0
  0
LINE
  8
LC-002-002-----0
  6
CONTINUOUS
  5
1E9
 10
181.73663
 20
202.126972
 30
0.0
 11
183.651741
 21
202.126972
 31
0.0
  0
LINE
  8
LC-002-002-----0
  6
CONTINUOUS
  5
1EA
 10
171.032923
 20
202.126972
 30
0.0
 11
181.73663
 21
202.126972
 31
0.0
  0
LINE
  8
LC-002-002-----0
  6
CONTINUOUS
  5
1EB
 10
36.075391
 20
216.126972
 30
0.0
 11
36.075391
 21
202.126972
 31
0.0
  0
LINE
  8
LC-002-002-----0
  6
CONTINUOUS
  5
1EC
 10
54.303986
 20
221.126972
 30
0.0
 11
54.303986
 21
216.126972
 31
0.0
  0
LINE
  8
LC-002-002-----0
  6
CONTINUOUS
  5
1ED
 10
69.742859
 20
221.126972
 30
0.0
 11
69.742859
 21
216.126972
 31
0.0
  0
LINE
  8
LC-002-002-----0
  6
CONTINUOUS
  5
1EE
 10
86.87058
 20
221.126972
 30
0.0
 11
86.87058
 21
216.126972
 31
0.0
  0
LINE
  8
LC-002-002-----0
  6
CONTINUOUS
  5
1EF
 10
105.16673
 20
221.126972
 30
0.0
 11
105.16673
 21
216.126972
 31
0.0
  0
LINE
  8
LC-002-002-----0
  6
CONTINUOUS
  5
1F0
 10
141.025079
 20
216.126972
 30
0.0
 11
141.025079
 21
231.126972
 31
0.0
  0
LINE
  8
LC-002-002-----0
  6
CONTINUOUS
  5
1F1
 10
157.497739
 20
216.126972
 30
0.0
 11
157.497739
 21
231.126972
 31
0.0
  0
LINE
  8
LC-002-002-----0
  6
CONTINUOUS
  5
1F2
 10
157.497739
 20
216.126972
 30
0.0
 11
159.846971
 21
216.126972
 31
0.0
  0
LINE
  8
LC-002-002-----0
  6
CONTINUOUS
  5
1F3
 10
160.699349
 20
221.126972
 30
0.0
 11
172.992859
 21
221.126972
 31
0.0
  0
LINE
  8
LC-002-002-----0
  6
CONTINUOUS
  5
1F4
 10
163.780203
 20
221.126972
 30
0.0
 11
163.780203
 21
216.126972
 31
0.0
  0
LINE
  8
LC-002-002-----0
  6
CONTINUOUS
  5
1F5
 10
159.846971
 20
216.126972
 30
0.0
 11
159.846971
 21
231.126972
 31
0.0
  0
LINE
  8
LC-002-002-----0
  6
CONTINUOUS
  5
1F6
 10
180.907923
 20
221.126972
 30
0.0
 11
180.907923
 21
216.126972
 31
0.0
  0
LINE
  8
LC-002-002-----0
  6
CONTINUOUS
  5
1F7
 10
145.484052
 20
221.126972
 30
0.0
 11
145.484052
 21
216.126972
 31
0.0
  0
LINE
  8
LC-002-002-----0
  6
CONTINUOUS
  5
1F8
 10
143.487098
 20
216.126972
 30
0.0
 11
143.487098
 21
231.126972
 31
0.0
  0
LINE
  8
LC-002-002-----0
  6
CONTINUOUS
  5
1F9
 10
143.919862
 20
221.126972
 30
0.0
 11
157.497739
 21
221.126972
 31
0.0
  0
LINE
  8
LC-002-002-----0
  6
CONTINUOUS
  5
1FA
 10
157.497739
 20
231.126972
 30
0.0
 11
159.846971
 21
231.126972
 31
0.0
  0
LINE
  8
LC-002-002-----0
  6
CONTINUOUS
  5
1FB
 10
109.625703
 20
221.126972
 30
0.0
 11
124.075391
 21
221.126972
 31
0.0
  0
LINE
  8
LC-002-002-----0
  6
CONTINUOUS
  5
1FC
 10
143.487098
 20
216.126972
 30
0.0
 11
157.497739
 21
216.126972
 31
0.0
  0
LINE
  8
LC-002-002-----0
  6
CONTINUOUS
  5
1FD
 10
141.025079
 20
216.126972
 30
0.0
 11
143.487098
 21
216.126972
 31
0.0
  0
LINE
  8
LC-002-002-----0
  6
CONTINUOUS
  5
1FE
 10
126.575391
 20
216.126972
 30
0.0
 11
141.025079
 21
216.126972
 31
0.0
  0
LINE
  8
LC-002-002-----0
  6
CONTINUOUS
  5
1FF
 10
126.575391
 20
216.126972
 30
0.0
 11
126.575391
 21
221.126972
 31
0.0
  0
LINE
  8
LC-002-002-----0
  6
CONTINUOUS
  5
200
 10
126.575391
 20
221.126972
 30
0.0
 11
141.025079
 21
221.126972
 31
0.0
  0
LINE
  8
LC-002-002-----0
  6
CONTINUOUS
  5
201
 10
124.075391
 20
216.126972
 30
0.0
 11
124.075391
 21
221.126972
 31
0.0
  0
LINE
  8
LC-002-002-----0
  6
CONTINUOUS
  5
202
 10
124.075391
 20
233.126972
 30
0.0
 11
124.075391
 21
231.126972
 31
0.0
  0
LINE
  8
LC-002-002-----0
  6
CONTINUOUS
  5
203
 10
126.575391
 20
233.126972
 30
0.0
 11
126.575391
 21
231.126972
 31
0.0
  0
LINE
  8
LC-002-002-----0
  6
CONTINUOUS
  5
204
 10
141.025079
 20
231.126972
 30
0.0
 11
143.487098
 21
231.126972
 31
0.0
  0
LINE
  8
LC-002-002-----0
  6
CONTINUOUS
  5
205
 10
93.153043
 20
221.126972
 30
0.0
 11
106.73092
 21
221.126972
 31
0.0
  0
LINE
  8
LC-002-002-----0
  6
CONTINUOUS
  5
206
 10
77.657923
 20
221.126972
 30
0.0
 11
89.951433
 21
221.126972
 31
0.0
  0
LINE
  8
LC-002-002-----0
  6
CONTINUOUS
  5
207
 10
63.611155
 20
221.126972
 30
0.0
 11
74.246766
 21
221.126972
 31
0.0
  0
LINE
  8
LC-002-002-----0
  6
CONTINUOUS
  5
208
 10
51.439542
 20
221.126972
 30
0.0
 11
60.094097
 21
221.126972
 31
0.0
  0
LINE
  8
LC-002-002-----0
  6
CONTINUOUS
  5
209
 10
41.512914
 20
221.126972
 30
0.0
 11
47.923447
 21
221.126972
 31
0.0
  0
LINE
  8
LC-002-002-----0
  6
CONTINUOUS
  5
20A
 10
41.0303
 20
202.126972
 30
0.0
 11
41.88535
 21
202.126972
 31
0.0
  0
LINE
  8
LC-002-002-----0
  6
CONTINUOUS
  5
20B
 10
37.214239
 20
202.126972
 30
0.0
 11
37.648359
 21
202.126972
 31
0.0
  0
LINE
  8
LC-002-002-----0
  6
CONTINUOUS
  5
20C
 10
168.867859
 20
202.126972
 30
0.0
 11
171.032923
 21
202.126972
 31
0.0
  0
LINE
  8
LC-002-002-----0
  6
CONTINUOUS
  5
20D
 10
157.025305
 20
202.126972
 30
0.0
 11
168.867859
 21
202.126972
 31
0.0
  0
LINE
  8
LC-002-002-----0
  6
CONTINUOUS
  5
20E
 10
47.407624
 20
202.126972
 30
0.0
 11
48.657624
 21
202.126972
 31
0.0
  0
LINE
  8
LC-002-002-----0
  6
CONTINUOUS
  5
20F
 10
56.15244
 20
202.126972
 30
0.0
 11
57.759409
 21
202.126972
 31
0.0
  0
LINE
  8
LC-002-002-----0
  6
CONTINUOUS
  5
210
 10
66.999041
 20
202.126972
 30
0.0
 11
68.914152
 21
202.126972
 31
0.0
  0
LINE
  8
LC-002-002-----0
  6
CONTINUOUS
  5
211
 10
79.617859
 20
202.126972
 30
0.0
 11
81.782923
 21
202.126972
 31
0.0
  0
LINE
  8
LC-002-002-----0
  6
CONTINUOUS
  5
212
 10
93.625478
 20
202.126972
 30
0.0
 11
95.974709
 21
202.126972
 31
0.0
  0
LINE
  8
LC-002-002-----0
  6
CONTINUOUS
  5
213
 10
108.596282
 20
202.126972
 30
0.0
 11
111.058301
 21
202.126972
 31
0.0
  0
LINE
  8
LC-002-002-----0
  6
CONTINUOUS
  5
214
 10
111.058301
 20
202.126972
 30
0.0
 11
124.075391
 21
202.126972
 31
0.0
  0
LINE
  8
LC-002-002-----0
  6
CONTINUOUS
  5
215
 10
18.325391
 20
206.126972
 30
0.0
 11
26.825391
 21
206.126972
 31
0.0
  0
LINE
  8
LC-002-002-----0
  6
CONTINUOUS
  5
216
 10
234.325391
 20
233.126972
 30
0.0
 11
231.325391
 21
236.126972
 31
0.0
  0
LINE
  8
LC-002-002-----0
  6
CONTINUOUS
  5
217
 10
234.325391
 20
208.126972
 30
0.0
 11
234.325391
 21
233.126972
 31
0.0
  0
LINE
  8
LC-002-002-----0
  6
CONTINUOUS
  5
218
 10
223.021544
 20
186.126972
 30
0.0
 11
223.825391
 21
189.126972
 31
0.0
  0
LINE
  8
LC-002-002-----0
  6
CONTINUOUS
  5
219
 10
223.825391
 20
189.126972
 30
0.0
 11
223.825391
 21
206.126972
 31
0.0
  0
LINE
  8
LC-002-002-----0
  6
CONTINUOUS
  5
21A
 10
232.325391
 20
206.126972
 30
0.0
 11
223.825391
 21
206.126972
 31
0.0
  0
LINE
  8
LC-002-002-----0
  6
CONTINUOUS
  5
21B
 10
231.325391
 20
236.126972
 30
0.0
 11
227.825391
 21
236.126972
 31
0.0
  0
LINE
  8
LC-002-002-----0
  6
CONTINUOUS
  5
21C
 10
232.325391
 20
206.126972
 30
0.0
 11
234.325391
 21
208.126972
 31
0.0
  0
LINE
  8
LC-002-002-----0
  6
CONTINUOUS
  5
21D
 10
189.471442
 20
234.126972
 30
0.0
 11
187.556331
 21
234.126972
 31
0.0
  0
LINE
  8
LC-002-002-----0
  6
CONTINUOUS
  5
21E
 10
201.433992
 20
234.126972
 30
0.0
 11
199.827023
 21
234.126972
 31
0.0
  0
LINE
  8
LC-002-002-----0
  6
CONTINUOUS
  5
21F
 10
190.556686
 20
233.126972
 30
0.0
 11
190.556686
 21
221.126972
 31
0.0
  0
LINE
  8
LC-002-002-----0
  6
CONTINUOUS
  5
220
 10
201.433992
 20
234.126972
 30
0.0
 11
200.818209
 21
231.126972
 31
0.0
  0
LINE
  8
LC-002-002-----0
  6
CONTINUOUS
  5
221
 10
187.556331
 20
234.126972
 30
0.0
 11
187.039627
 21
231.126972
 31
0.0
  0
LINE
  8
LC-002-002-----0
  6
CONTINUOUS
  5
222
 10
218.128316
 20
234.126972
 30
0.0
 11
217.372947
 21
231.126972
 31
0.0
  0
LINE
  8
LC-002-002-----0
  6
CONTINUOUS
  5
223
 10
217.273266
 20
234.126972
 30
0.0
 11
216.517896
 21
231.126972
 31
0.0
  0
LINE
  8
LC-002-002-----0
  6
CONTINUOUS
  5
224
 10
218.128316
 20
234.126972
 30
0.0
 11
217.273266
 21
234.126972
 31
0.0
  0
LINE
  8
LC-002-002-----0
  6
CONTINUOUS
  5
225
 10
201.433992
 20
234.126972
 30
0.0
 11
202.932612
 21
234.126972
 31
0.0
  0
LINE
  8
LC-002-002-----0
  6
CONTINUOUS
  5
226
 10
202.727335
 20
233.126972
 30
0.0
 11
202.727335
 21
221.126972
 31
0.0
  0
LINE
  8
LC-002-002-----0
  6
CONTINUOUS
  5
227
 10
196.346796
 20
221.126972
 30
0.0
 11
196.346796
 21
216.126972
 31
0.0
  0
LINE
  8
LC-002-002-----0
  6
CONTINUOUS
  5
228
 10
216.517896
 20
231.126972
 30
0.0
 11
217.372947
 21
231.126972
 31
0.0
  0
LINE
  8
LC-002-002-----0
  6
CONTINUOUS
  5
229
 10
216.517896
 20
216.126972
 30
0.0
 11
216.517896
 21
231.126972
 31
0.0
  0
LINE
  8
LC-002-002-----0
  6
CONTINUOUS
  5
22A
 10
217.372947
 20
216.126972
 30
0.0
 11
217.372947
 21
231.126972
 31
0.0
  0
LINE
  8
LC-002-002-----0
  6
CONTINUOUS
  5
22B
 10
29.089575
 20
231.126972
 30
0.0
 11
29.523695
 21
231.126972
 31
0.0
  0
LINE
  8
LC-002-002-----0
  6
CONTINUOUS
  5
22C
 10
33.277835
 20
231.126972
 30
0.0
 11
34.132886
 21
231.126972
 31
0.0
  0
LINE
  8
LC-002-002-----0
  6
CONTINUOUS
  5
22D
 10
40.262914
 20
216.126972
 30
0.0
 11
41.512914
 21
216.126972
 31
0.0
  0
LINE
  8
LC-002-002-----0
  6
CONTINUOUS
  5
22E
 10
36.075391
 20
216.126972
 30
0.0
 11
40.262914
 21
216.126972
 31
0.0
  0
LINE
  8
LC-002-002-----0
  6
CONTINUOUS
  5
22F
 10
49.832573
 20
216.126972
 30
0.0
 11
51.439542
 21
216.126972
 31
0.0
  0
LINE
  8
LC-002-002-----0
  6
CONTINUOUS
  5
230
 10
41.512914
 20
216.126972
 30
0.0
 11
49.832573
 21
216.126972
 31
0.0
  0
LINE
  8
LC-002-002-----0
  6
CONTINUOUS
  5
231
 10
159.846971
 20
216.126972
 30
0.0
 11
172.992859
 21
216.126972
 31
0.0
  0
LINE
  8
LC-002-002-----0
  6
CONTINUOUS
  5
232
 10
51.439542
 20
216.126972
 30
0.0
 11
61.696044
 21
216.126972
 31
0.0
  0
LINE
  8
LC-002-002-----0
  6
CONTINUOUS
  5
233
 10
61.696044
 20
216.126972
 30
0.0
 11
63.611155
 21
216.126972
 31
0.0
  0
LINE
  8
LC-002-002-----0
  6
CONTINUOUS
  5
234
 10
63.611155
 20
216.126972
 30
0.0
 11
75.492859
 21
216.126972
 31
0.0
  0
LINE
  8
LC-002-002-----0
  6
CONTINUOUS
  5
235
 10
75.492859
 20
216.126972
 30
0.0
 11
77.657923
 21
216.126972
 31
0.0
  0
LINE
  8
LC-002-002-----0
  6
CONTINUOUS
  5
236
 10
77.657923
 20
216.126972
 30
0.0
 11
90.803811
 21
216.126972
 31
0.0
  0
LINE
  8
LC-002-002-----0
  6
CONTINUOUS
  5
237
 10
107.163684
 20
216.126972
 30
0.0
 11
109.625703
 21
216.126972
 31
0.0
  0
LINE
  8
LC-002-002-----0
  6
CONTINUOUS
  5
238
 10
93.153043
 20
216.126972
 30
0.0
 11
107.163684
 21
216.126972
 31
0.0
  0
LINE
  8
LC-002-002-----0
  6
CONTINUOUS
  5
239
 10
90.803811
 20
216.126972
 30
0.0
 11
93.153043
 21
216.126972
 31
0.0
  0
LINE
  8
LC-002-002-----0
  6
CONTINUOUS
  5
23A
 10
109.625703
 20
216.126972
 30
0.0
 11
124.075391
 21
216.126972
 31
0.0
  0
LINE
  8
LC-002-002-----0
  6
CONTINUOUS
  5
23B
 10
124.075391
 20
216.126972
 30
0.0
 11
126.575391
 21
216.126972
 31
0.0
  0
LINE
  8
LC-002-002-----0
  6
CONTINUOUS
  5
23C
 10
172.992859
 20
216.126972
 30
0.0
 11
175.157923
 21
216.126972
 31
0.0
  0
LINE
  8
LC-002-002-----0
  6
CONTINUOUS
  5
23D
 10
199.21124
 20
216.126972
 30
0.0
 11
200.818209
 21
216.126972
 31
0.0
  0
LINE
  8
LC-002-002-----0
  6
CONTINUOUS
  5
23E
 10
175.157923
 20
216.126972
 30
0.0
 11
187.039627
 21
216.126972
 31
0.0
  0
LINE
  8
LC-002-002-----0
  6
CONTINUOUS
  5
23F
 10
187.039627
 20
216.126972
 30
0.0
 11
188.954739
 21
216.126972
 31
0.0
  0
LINE
  8
LC-002-002-----0
  6
CONTINUOUS
  5
240
 10
188.954739
 20
216.126972
 30
0.0
 11
199.21124
 21
216.126972
 31
0.0
  0
LINE
  8
LC-002-002-----0
  6
CONTINUOUS
  5
241
 10
200.818209
 20
216.126972
 30
0.0
 11
209.137868
 21
216.126972
 31
0.0
  0
LINE
  8
LC-002-002-----0
  6
CONTINUOUS
  5
242
 10
209.137868
 20
216.126972
 30
0.0
 11
210.387868
 21
216.126972
 31
0.0
  0
LINE
  8
LC-002-002-----0
  6
CONTINUOUS
  5
243
 10
40.262914
 20
231.126972
 30
0.0
 11
41.512914
 21
231.126972
 31
0.0
  0
LINE
  8
LC-002-002-----0
  6
CONTINUOUS
  5
244
 10
49.832573
 20
231.126972
 30
0.0
 11
51.439542
 21
231.126972
 31
0.0
  0
LINE
  8
LC-002-002-----0
  6
CONTINUOUS
  5
245
 10
172.992859
 20
231.126972
 30
0.0
 11
175.157923
 21
231.126972
 31
0.0
  0
LINE
  8
LC-002-002-----0
  6
CONTINUOUS
  5
246
 10
61.696044
 20
231.126972
 30
0.0
 11
63.611155
 21
231.126972
 31
0.0
  0
LINE
  8
LC-002-002-----0
  6
CONTINUOUS
  5
247
 10
75.492859
 20
231.126972
 30
0.0
 11
77.657923
 21
231.126972
 31
0.0
  0
LINE
  8
LC-002-002-----0
  6
CONTINUOUS
  5
248
 10
90.803811
 20
231.126972
 30
0.0
 11
93.153043
 21
231.126972
 31
0.0
  0
LINE
  8
LC-002-002-----0
  6
CONTINUOUS
  5
249
 10
199.21124
 20
231.126972
 30
0.0
 11
200.818209
 21
231.126972
 31
0.0
  0
LINE
  8
LC-002-002-----0
  6
CONTINUOUS
  5
24A
 10
203.243158
 20
186.126972
 30
0.0
 11
201.993158
 21
186.126972
 31
0.0
  0
LINE
  8
LC-002-002-----0
  6
CONTINUOUS
  5
24B
 10
201.993158
 20
202.126972
 30
0.0
 11
203.243158
 21
202.126972
 31
0.0
  0
LINE
  8
LC-002-002-----0
  6
CONTINUOUS
  5
24C
 10
194.498342
 20
202.126972
 30
0.0
 11
201.993158
 21
202.126972
 31
0.0
  0
LINE
  8
LC-002-002-----0
  6
CONTINUOUS
  5
24D
 10
160.188991
 20
189.126972
 30
0.0
 11
160.188991
 21
202.126972
 31
0.0
  0
LINE
  8
LC-002-002-----0
  6
CONTINUOUS
  5
24E
 10
201.584253
 20
189.126972
 30
0.0
 11
201.584253
 21
202.126972
 31
0.0
  0
LINE
  8
LC-002-002-----0
  6
CONTINUOUS
  5
24F
 10
74.992859
 20
189.126972
 30
0.0
 11
74.992859
 21
202.126972
 31
0.0
  0
LINE
  8
LC-002-002-----0
  6
CONTINUOUS
  5
250
 10
49.066529
 20
189.126972
 30
0.0
 11
49.066529
 21
202.126972
 31
0.0
  0
LINE
  8
LC-002-002-----0
  6
CONTINUOUS
  5
251
 10
143.660746
 20
189.126972
 30
0.0
 11
143.660746
 21
202.126972
 31
0.0
  0
LINE
  8
LC-002-002-----0
  6
CONTINUOUS
  5
252
 10
189.597526
 20
189.126972
 30
0.0
 11
189.597526
 21
202.126972
 31
0.0
  0
LINE
  8
LC-002-002-----0
  6
CONTINUOUS
  5
253
 10
106.990036
 20
189.126972
 30
0.0
 11
106.990036
 21
202.126972
 31
0.0
  0
LINE
  8
LC-002-002-----0
  6
CONTINUOUS
  5
254
 10
90.461791
 20
189.126972
 30
0.0
 11
90.461791
 21
202.126972
 31
0.0
  0
LINE
  8
LC-002-002-----0
  6
CONTINUOUS
  5
255
 10
192.891373
 20
202.126972
 30
0.0
 11
194.498342
 21
202.126972
 31
0.0
  0
LINE
  8
LC-002-002-----0
  6
CONTINUOUS
  5
256
 10
183.651741
 20
202.126972
 30
0.0
 11
192.891373
 21
202.126972
 31
0.0
  0
LINE
  8
LC-002-002-----0
  6
CONTINUOUS
  5
257
 10
175.657923
 20
189.126972
 30
0.0
 11
175.657923
 21
202.126972
 31
0.0
  0
LINE
  8
LC-002-002-----0
  6
CONTINUOUS
  5
258
 10
61.053256
 20
189.126972
 30
0.0
 11
61.053256
 21
202.126972
 31
0.0
  0
LINE
  8
LC-002-002-----0
  6
CONTINUOUS
  5
259
 10
189.080823
 20
186.126972
 30
0.0
 11
189.597526
 21
189.126972
 31
0.0
  0
LINE
  8
LC-002-002-----0
  6
CONTINUOUS
  5
25A
 10
203.243158
 20
186.126972
 30
0.0
 11
208.765432
 21
186.126972
 31
0.0
  0
LINE
  8
LC-002-002-----0
  6
CONTINUOUS
  5
25B
 10
171.032923
 20
202.126972
 30
0.0
 11
171.032923
 21
186.126972
 31
0.0
  0
LINE
  8
LC-002-002-----0
  6
CONTINUOUS
  5
25C
 10
81.782923
 20
202.126972
 30
0.0
 11
81.782923
 21
186.126972
 31
0.0
  0
LINE
  8
LC-002-002-----0
  6
CONTINUOUS
  5
25D
 10
57.759409
 20
202.126972
 30
0.0
 11
57.759409
 21
186.126972
 31
0.0
  0
LINE
  8
LC-002-002-----0
  6
CONTINUOUS
  5
25E
 10
48.657624
 20
202.126972
 30
0.0
 11
48.657624
 21
186.126972
 31
0.0
  0
LINE
  8
LC-002-002-----0
  6
CONTINUOUS
  5
25F
 10
66.999041
 20
202.126972
 30
0.0
 11
66.999041
 21
186.126972
 31
0.0
  0
LINE
  8
LC-002-002-----0
  6
CONTINUOUS
  5
260
 10
61.569959
 20
186.126972
 30
0.0
 11
61.053256
 21
189.126972
 31
0.0
  0
LINE
  8
LC-002-002-----0
  6
CONTINUOUS
  5
261
 10
93.625478
 20
202.126972
 30
0.0
 11
93.625478
 21
186.126972
 31
0.0
  0
LINE
  8
LC-002-002-----0
  6
CONTINUOUS
  5
262
 10
108.596282
 20
202.126972
 30
0.0
 11
108.596282
 21
186.126972
 31
0.0
  0
LINE
  8
LC-002-002-----0
  6
CONTINUOUS
  5
263
 10
49.682312
 20
186.126972
 30
0.0
 11
49.066529
 21
189.126972
 31
0.0
  0
LINE
  8
LC-002-002-----0
  6
CONTINUOUS
  5
264
 10
56.15244
 20
202.126972
 30
0.0
 11
56.15244
 21
186.126972
 31
0.0
  0
LINE
  8
LC-002-002-----0
  6
CONTINUOUS
  5
265
 10
194.498342
 20
202.126972
 30
0.0
 11
194.498342
 21
186.126972
 31
0.0
  0
LINE
  8
LC-002-002-----0
  6
CONTINUOUS
  5
266
 10
79.617859
 20
202.126972
 30
0.0
 11
79.617859
 21
186.126972
 31
0.0
  0
LINE
  8
LC-002-002-----0
  6
CONTINUOUS
  5
267
 10
68.914152
 20
202.126972
 30
0.0
 11
68.914152
 21
186.126972
 31
0.0
  0
LINE
  8
LC-002-002-----0
  6
CONTINUOUS
  5
268
 10
111.058301
 20
202.126972
 30
0.0
 11
111.058301
 21
186.126972
 31
0.0
  0
LINE
  8
LC-002-002-----0
  6
CONTINUOUS
  5
269
 10
154.676073
 20
202.126972
 30
0.0
 11
154.676073
 21
186.126972
 31
0.0
  0
LINE
  8
LC-002-002-----0
  6
CONTINUOUS
  5
26A
 10
95.974709
 20
202.126972
 30
0.0
 11
95.974709
 21
186.126972
 31
0.0
  0
LINE
  8
LC-002-002-----0
  6
CONTINUOUS
  5
26B
 10
142.054501
 20
202.126972
 30
0.0
 11
142.054501
 21
186.126972
 31
0.0
  0
LINE
  8
LC-002-002-----0
  6
CONTINUOUS
  5
26C
 10
200.96847
 20
186.126972
 30
0.0
 11
201.584253
 21
189.126972
 31
0.0
  0
LINE
  8
LC-002-002-----0
  6
CONTINUOUS
  5
26D
 10
192.891373
 20
202.126972
 30
0.0
 11
192.891373
 21
186.126972
 31
0.0
  0
LINE
  8
LC-002-002-----0
  6
CONTINUOUS
  5
26E
 10
139.592481
 20
202.126972
 30
0.0
 11
139.592481
 21
186.126972
 31
0.0
  0
LINE
  8
LC-002-002-----0
  6
CONTINUOUS
  5
26F
 10
168.867859
 20
202.126972
 30
0.0
 11
168.867859
 21
186.126972
 31
0.0
  0
LINE
  8
LC-002-002-----0
  6
CONTINUOUS
  5
270
 10
124.075391
 20
202.126972
 30
0.0
 11
124.075391
 21
186.126972
 31
0.0
  0
LINE
  8
LC-002-002-----0
  6
CONTINUOUS
  5
271
 10
157.025305
 20
202.126972
 30
0.0
 11
157.025305
 21
186.126972
 31
0.0
  0
LINE
  8
LC-002-002-----0
  6
CONTINUOUS
  5
272
 10
37.214239
 20
202.126972
 30
0.0
 11
37.214239
 21
186.126972
 31
0.0
  0
LINE
  8
LC-002-002-----0
  6
CONTINUOUS
  5
273
 10
37.648359
 20
186.126972
 30
0.0
 11
37.214239
 21
186.126972
 31
0.0
  0
LINE
  8
LC-002-002-----0
  6
CONTINUOUS
  5
274
 10
41.0303
 20
186.126972
 30
0.0
 11
37.648359
 21
186.126972
 31
0.0
  0
LINE
  8
LC-002-002-----0
  6
CONTINUOUS
  5
275
 10
37.648359
 20
202.126972
 30
0.0
 11
37.648359
 21
186.126972
 31
0.0
  0
LINE
  8
LC-002-002-----0
  6
CONTINUOUS
  5
276
 10
37.214239
 20
186.126972
 30
0.0
 11
36.075391
 21
186.126972
 31
0.0
  0
LINE
  8
LC-002-002-----0
  6
CONTINUOUS
  5
277
 10
36.075391
 20
186.126972
 30
0.0
 11
36.075391
 21
202.126972
 31
0.0
  0
LINE
  8
LC-002-002-----0
  6
CONTINUOUS
  5
278
 10
36.075391
 20
186.126972
 30
0.0
 11
27.629239
 21
186.126972
 31
0.0
  0
LINE
  8
LC-002-002-----0
  6
CONTINUOUS
  5
279
 10
202.727335
 20
221.126972
 30
0.0
 11
209.137868
 21
221.126972
 31
0.0
  0
LINE
  8
LC-002-002-----0
  6
CONTINUOUS
  5
27A
 10
190.556686
 20
221.126972
 30
0.0
 11
199.21124
 21
221.126972
 31
0.0
  0
LINE
  8
LC-002-002-----0
  6
CONTINUOUS
  5
27B
 10
95.974709
 20
202.126972
 30
0.0
 11
108.596282
 21
202.126972
 31
0.0
  0
LINE
  8
LC-002-002-----0
  6
CONTINUOUS
  5
27C
 10
57.759409
 20
202.126972
 30
0.0
 11
66.999041
 21
202.126972
 31
0.0
  0
LINE
  8
LC-002-002-----0
  6
CONTINUOUS
  5
27D
 10
68.914152
 20
202.126972
 30
0.0
 11
79.617859
 21
202.126972
 31
0.0
  0
LINE
  8
LC-002-002-----0
  6
CONTINUOUS
  5
27E
 10
81.782923
 20
202.126972
 30
0.0
 11
93.625478
 21
202.126972
 31
0.0
  0
LINE
  8
LC-002-002-----0
  6
CONTINUOUS
  5
27F
 10
176.404016
 20
221.126972
 30
0.0
 11
187.039627
 21
221.126972
 31
0.0
  0
LINE
  8
LC-002-002-----0
  6
CONTINUOUS
  5
280
 10
48.657624
 20
202.126972
 30
0.0
 11
56.15244
 21
202.126972
 31
0.0
  0
LINE
  8
LC-002-002-----0
  6
CONTINUOUS
  5
281
 10
40.262914
 20
216.126972
 30
0.0
 11
40.262914
 21
231.126972
 31
0.0
  0
LINE
  8
LC-002-002-----0
  6
CONTINUOUS
  5
282
 10
41.512914
 20
216.126972
 30
0.0
 11
41.512914
 21
231.126972
 31
0.0
  0
LINE
  8
LC-002-002-----0
  6
CONTINUOUS
  5
283
 10
172.992859
 20
216.126972
 30
0.0
 11
172.992859
 21
231.126972
 31
0.0
  0
LINE
  8
LC-002-002-----0
  6
CONTINUOUS
  5
284
 10
175.157923
 20
216.126972
 30
0.0
 11
175.157923
 21
231.126972
 31
0.0
  0
LINE
  8
LC-002-002-----0
  6
CONTINUOUS
  5
285
 10
49.832573
 20
216.126972
 30
0.0
 11
49.832573
 21
231.126972
 31
0.0
  0
LINE
  8
LC-002-002-----0
  6
CONTINUOUS
  5
286
 10
51.439542
 20
216.126972
 30
0.0
 11
51.439542
 21
231.126972
 31
0.0
  0
LINE
  8
LC-002-002-----0
  6
CONTINUOUS
  5
287
 10
61.696044
 20
216.126972
 30
0.0
 11
61.696044
 21
231.126972
 31
0.0
  0
LINE
  8
LC-002-002-----0
  6
CONTINUOUS
  5
288
 10
63.611155
 20
216.126972
 30
0.0
 11
63.611155
 21
231.126972
 31
0.0
  0
LINE
  8
LC-002-002-----0
  6
CONTINUOUS
  5
289
 10
75.492859
 20
216.126972
 30
0.0
 11
75.492859
 21
231.126972
 31
0.0
  0
LINE
  8
LC-002-002-----0
  6
CONTINUOUS
  5
28A
 10
77.657923
 20
216.126972
 30
0.0
 11
77.657923
 21
231.126972
 31
0.0
  0
LINE
  8
LC-002-002-----0
  6
CONTINUOUS
  5
28B
 10
109.625703
 20
216.126972
 30
0.0
 11
109.625703
 21
231.126972
 31
0.0
  0
LINE
  8
LC-002-002-----0
  6
CONTINUOUS
  5
28C
 10
90.803811
 20
216.126972
 30
0.0
 11
90.803811
 21
231.126972
 31
0.0
  0
LINE
  8
LC-002-002-----0
  6
CONTINUOUS
  5
28D
 10
107.163684
 20
216.126972
 30
0.0
 11
107.163684
 21
231.126972
 31
0.0
  0
LINE
  8
LC-002-002-----0
  6
CONTINUOUS
  5
28E
 10
93.153043
 20
216.126972
 30
0.0
 11
93.153043
 21
231.126972
 31
0.0
  0
LINE
  8
LC-002-002-----0
  6
CONTINUOUS
  5
28F
 10
124.075391
 20
221.126972
 30
0.0
 11
124.075391
 21
231.126972
 31
0.0
  0
LINE
  8
LC-002-002-----0
  6
CONTINUOUS
  5
290
 10
126.575391
 20
221.126972
 30
0.0
 11
126.575391
 21
231.126972
 31
0.0
  0
LINE
  8
LC-002-002-----0
  6
CONTINUOUS
  5
291
 10
200.818209
 20
216.126972
 30
0.0
 11
200.818209
 21
231.126972
 31
0.0
  0
LINE
  8
LC-002-002-----0
  6
CONTINUOUS
  5
292
 10
199.21124
 20
216.126972
 30
0.0
 11
199.21124
 21
231.126972
 31
0.0
  0
LINE
  8
LC-002-002-----0
  6
CONTINUOUS
  5
293
 10
213.002423
 20
186.126972
 30
0.0
 11
213.436543
 21
186.126972
 31
0.0
  0
LINE
  8
LC-002-002-----0
  6
CONTINUOUS
  5
294
 10
209.620483
 20
186.126972
 30
0.0
 11
213.002423
 21
186.126972
 31
0.0
  0
LINE
  8
LC-002-002-----0
  6
CONTINUOUS
  5
295
 10
213.436543
 20
186.126972
 30
0.0
 11
214.575391
 21
186.126972
 31
0.0
  0
LINE
  8
LC-002-002-----0
  6
CONTINUOUS
  5
296
 10
214.575391
 20
202.126972
 30
0.0
 11
214.575391
 21
186.126972
 31
0.0
  0
LINE
  8
LC-002-002-----0
  6
CONTINUOUS
  5
297
 10
213.436543
 20
202.126972
 30
0.0
 11
213.436543
 21
186.126972
 31
0.0
  0
LINE
  8
LC-002-002-----0
  6
CONTINUOUS
  5
298
 10
213.002423
 20
202.126972
 30
0.0
 11
213.002423
 21
186.126972
 31
0.0
  0
LINE
  8
LC-002-002-----0
  6
CONTINUOUS
  5
299
 10
187.039627
 20
231.126972
 30
0.0
 11
188.954739
 21
231.126972
 31
0.0
  0
LINE
  8
LC-002-002-----0
  6
CONTINUOUS
  5
29A
 10
26.825391
 20
216.126972
 30
0.0
 11
26.825391
 21
231.126972
 31
0.0
  0
LINE
  8
LC-002-002-----0
  6
CONTINUOUS
  5
29B
 10
28.73206
 20
234.126972
 30
0.0
 11
28.29794
 21
234.126972
 31
0.0
  0
LINE
  8
LC-002-002-----0
  6
CONTINUOUS
  5
29C
 10
28.73206
 20
234.126972
 30
0.0
 11
29.523695
 21
231.126972
 31
0.0
  0
LINE
  8
LC-002-002-----0
  6
CONTINUOUS
  5
29D
 10
28.29794
 20
234.126972
 30
0.0
 11
29.089575
 21
231.126972
 31
0.0
  0
LINE
  8
LC-002-002-----0
  6
CONTINUOUS
  5
29E
 10
33.377516
 20
234.126972
 30
0.0
 11
32.522466
 21
234.126972
 31
0.0
  0
LINE
  8
LC-002-002-----0
  6
CONTINUOUS
  5
29F
 10
40.816762
 20
234.126972
 30
0.0
 11
39.566762
 21
234.126972
 31
0.0
  0
LINE
  8
LC-002-002-----0
  6
CONTINUOUS
  5
2A0
 10
50.823759
 20
234.126972
 30
0.0
 11
49.21679
 21
234.126972
 31
0.0
  0
LINE
  8
LC-002-002-----0
  6
CONTINUOUS
  5
2A1
 10
63.094451
 20
234.126972
 30
0.0
 11
61.17934
 21
234.126972
 31
0.0
  0
LINE
  8
LC-002-002-----0
  6
CONTINUOUS
  5
2A2
 10
30.935945
 20
233.126972
 30
0.0
 11
28.995939
 21
233.126972
 31
0.0
  0
LINE
  8
LC-002-002-----0
  6
CONTINUOUS
  5
2A3
 10
109.486117
 20
234.126972
 30
0.0
 11
109.625703
 21
231.126972
 31
0.0
  0
LINE
  8
LC-002-002-----0
  6
CONTINUOUS
  5
2A4
 10
77.255999
 20
234.126972
 30
0.0
 11
75.090936
 21
234.126972
 31
0.0
  0
LINE
  8
LC-002-002-----0
  6
CONTINUOUS
  5
2A5
 10
90.528879
 20
234.126972
 30
0.0
 11
90.803811
 21
231.126972
 31
0.0
  0
LINE
  8
LC-002-002-----0
  6
CONTINUOUS
  5
2A6
 10
107.024097
 20
234.126972
 30
0.0
 11
107.163684
 21
231.126972
 31
0.0
  0
LINE
  8
LC-002-002-----0
  6
CONTINUOUS
  5
2A7
 10
92.878111
 20
234.126972
 30
0.0
 11
90.528879
 21
234.126972
 31
0.0
  0
LINE
  8
LC-002-002-----0
  6
CONTINUOUS
  5
2A8
 10
92.878111
 20
234.126972
 30
0.0
 11
93.153043
 21
231.126972
 31
0.0
  0
LINE
  8
LC-002-002-----0
  6
CONTINUOUS
  5
2A9
 10
157.772671
 20
234.126972
 30
0.0
 11
157.497739
 21
231.126972
 31
0.0
  0
LINE
  8
LC-002-002-----0
  6
CONTINUOUS
  5
2AA
 10
143.626685
 20
234.126972
 30
0.0
 11
143.487098
 21
231.126972
 31
0.0
  0
LINE
  8
LC-002-002-----0
  6
CONTINUOUS
  5
2AB
 10
141.164665
 20
234.126972
 30
0.0
 11
141.025079
 21
231.126972
 31
0.0
  0
LINE
  8
LC-002-002-----0
  6
CONTINUOUS
  5
2AC
 10
109.486117
 20
234.126972
 30
0.0
 11
107.024097
 21
234.126972
 31
0.0
  0
LINE
  8
LC-002-002-----0
  6
CONTINUOUS
  5
2AD
 10
126.575391
 20
234.126972
 30
0.0
 11
124.075391
 21
234.126972
 31
0.0
  0
LINE
  8
LC-002-002-----0
  6
CONTINUOUS
  5
2AE
 10
143.626685
 20
234.126972
 30
0.0
 11
141.164665
 21
234.126972
 31
0.0
  0
LINE
  8
LC-002-002-----0
  6
CONTINUOUS
  5
2AF
 10
160.121903
 20
234.126972
 30
0.0
 11
159.846971
 21
231.126972
 31
0.0
  0
LINE
  8
LC-002-002-----0
  6
CONTINUOUS
  5
2B0
 10
160.121903
 20
234.126972
 30
0.0
 11
157.772671
 21
234.126972
 31
0.0
  0
LINE
  8
LC-002-002-----0
  6
CONTINUOUS
  5
2B1
 10
175.559847
 20
234.126972
 30
0.0
 11
173.394783
 21
234.126972
 31
0.0
  0
LINE
  8
LC-002-002-----0
  6
CONTINUOUS
  5
2B2
 10
212.546165
 20
221.126972
 30
0.0
 11
216.517896
 21
221.126972
 31
0.0
  0
LINE
  8
LC-002-002-----0
  6
CONTINUOUS
  5
2B3
 10
173.394783
 20
234.126972
 30
0.0
 11
172.992859
 21
231.126972
 31
0.0
  0
LINE
  8
LC-002-002-----0
  6
CONTINUOUS
  5
2B4
 10
38.104617
 20
233.126972
 30
0.0
 11
33.629306
 21
233.126972
 31
0.0
  0
LINE
  8
LC-002-002-----0
  6
CONTINUOUS
  5
2B5
 10
47.923447
 20
233.126972
 30
0.0
 11
41.048813
 21
233.126972
 31
0.0
  0
LINE
  8
LC-002-002-----0
  6
CONTINUOUS
  5
2B6
 10
60.094097
 20
233.126972
 30
0.0
 11
51.02902
 21
233.126972
 31
0.0
  0
LINE
  8
LC-002-002-----0
  6
CONTINUOUS
  5
2B7
 10
74.246766
 20
233.126972
 30
0.0
 11
63.266686
 21
233.126972
 31
0.0
  0
LINE
  8
LC-002-002-----0
  6
CONTINUOUS
  5
2B8
 10
89.951433
 20
233.126972
 30
0.0
 11
77.389974
 21
233.126972
 31
0.0
  0
LINE
  8
LC-002-002-----0
  6
CONTINUOUS
  5
2B9
 10
106.73092
 20
233.126972
 30
0.0
 11
92.969755
 21
233.126972
 31
0.0
  0
LINE
  8
LC-002-002-----0
  6
CONTINUOUS
  5
2BA
 10
124.075391
 20
233.126972
 30
0.0
 11
109.532646
 21
233.126972
 31
0.0
  0
LINE
  8
LC-002-002-----0
  6
CONTINUOUS
  5
2BB
 10
141.118137
 20
233.126972
 30
0.0
 11
126.575391
 21
233.126972
 31
0.0
  0
LINE
  8
LC-002-002-----0
  6
CONTINUOUS
  5
2BC
 10
157.681027
 20
233.126972
 30
0.0
 11
143.919862
 21
233.126972
 31
0.0
  0
LINE
  8
LC-002-002-----0
  6
CONTINUOUS
  5
2BD
 10
173.260809
 20
233.126972
 30
0.0
 11
160.699349
 21
233.126972
 31
0.0
  0
LINE
  8
LC-002-002-----0
  6
CONTINUOUS
  5
2BE
 10
187.384096
 20
233.126972
 30
0.0
 11
176.404016
 21
233.126972
 31
0.0
  0
LINE
  8
LC-002-002-----0
  6
CONTINUOUS
  5
2BF
 10
199.621762
 20
233.126972
 30
0.0
 11
190.556686
 21
233.126972
 31
0.0
  0
LINE
  8
LC-002-002-----0
  6
CONTINUOUS
  5
2C0
 10
209.60197
 20
233.126972
 30
0.0
 11
202.727335
 21
233.126972
 31
0.0
  0
LINE
  8
LC-002-002-----0
  6
CONTINUOUS
  5
2C1
 10
217.021476
 20
233.126972
 30
0.0
 11
212.546165
 21
233.126972
 31
0.0
  0
LINE
  8
LC-002-002-----0
  6
CONTINUOUS
  5
2C2
 10
219.714837
 20
233.126972
 30
0.0
 11
219.714837
 21
221.126972
 31
0.0
  0
LINE
  8
LC-002-002-----0
  6
CONTINUOUS
  5
2C3
 10
216.517896
 20
216.126972
 30
0.0
 11
214.575391
 21
216.126972
 31
0.0
  0
LINE
  8
LC-002-002-----0
  6
CONTINUOUS
  5
2C4
 10
217.372947
 20
216.126972
 30
0.0
 11
217.075391
 21
216.126972
 31
0.0
  0
LINE
  8
LC-002-002-----0
  6
CONTINUOUS
  5
2C5
 10
218.128316
 20
234.126972
 30
0.0
 11
219.966646
 21
234.126972
 31
0.0
  0
LINE
  8
LC-002-002-----0
  6
CONTINUOUS
  5
2C6
 10
226.129239
 20
236.126972
 30
0.0
 11
22.825391
 21
236.126972
 31
0.0
  0
LINE
  8
LC-002-002-----0
  6
CONTINUOUS
  5
2C7
 10
225.59334
 20
234.126972
 30
0.0
 11
226.129239
 21
236.126972
 31
0.0
  0
LINE
  8
LC-002-002-----0
  6
CONTINUOUS
  5
2C8
 10
224.629239
 20
234.126972
 30
0.0
 11
223.825391
 21
231.126972
 31
0.0
  0
LINE
  8
LC-002-002-----0
  6
CONTINUOUS
  5
2C9
 10
224.629239
 20
234.126972
 30
0.0
 11
225.59334
 21
234.126972
 31
0.0
  0
LINE
  8
LC-002-002-----0
  6
CONTINUOUS
  5
2CA
 10
221.918722
 20
234.126972
 30
0.0
 11
221.127087
 21
231.126972
 31
0.0
  0
LINE
  8
LC-002-002-----0
  6
CONTINUOUS
  5
2CB
 10
222.352843
 20
234.126972
 30
0.0
 11
221.561207
 21
231.126972
 31
0.0
  0
LINE
  8
LC-002-002-----0
  6
CONTINUOUS
  5
2CC
 10
222.352843
 20
234.126972
 30
0.0
 11
221.918722
 21
234.126972
 31
0.0
  0
LINE
  8
LC-002-002-----0
  6
CONTINUOUS
  5
2CD
 10
222.352843
 20
234.126972
 30
0.0
 11
224.629239
 21
234.126972
 31
0.0
  0
LINE
  8
LC-002-002-----0
  6
CONTINUOUS
  5
2CE
 10
221.654844
 20
233.126972
 30
0.0
 11
219.714837
 21
233.126972
 31
0.0
  0
LINE
  8
LC-002-002-----0
  6
CONTINUOUS
  5
2CF
 10
221.127087
 20
216.126972
 30
0.0
 11
221.127087
 21
231.126972
 31
0.0
  0
LINE
  8
LC-002-002-----0
  6
CONTINUOUS
  5
2D0
 10
219.714837
 20
221.126972
 30
0.0
 11
221.127087
 21
221.126972
 31
0.0
  0
LINE
  8
LC-002-002-----0
  6
CONTINUOUS
  5
2D1
 10
223.825391
 20
231.126972
 30
0.0
 11
223.825391
 21
216.126972
 31
0.0
  0
LINE
  8
LC-002-002-----0
  6
CONTINUOUS
  5
2D2
 10
221.561207
 20
216.126972
 30
0.0
 11
223.825391
 21
216.126972
 31
0.0
  0
LINE
  8
LC-002-002-----0
  6
CONTINUOUS
  5
2D3
 10
221.561207
 20
216.126972
 30
0.0
 11
221.127087
 21
216.126972
 31
0.0
  0
LINE
  8
LC-002-002-----0
  6
CONTINUOUS
  5
2D4
 10
221.561207
 20
216.126972
 30
0.0
 11
221.561207
 21
231.126972
 31
0.0
  0
LINE
  8
LC-002-002-----0
  6
CONTINUOUS
  5
2D5
 10
221.127087
 20
231.126972
 30
0.0
 11
221.561207
 21
231.126972
 31
0.0
  0
LINE
  8
LC-002-002-----0
  6
CONTINUOUS
  5
2D6
 10
214.575391
 20
186.126972
 30
0.0
 11
223.021544
 21
186.126972
 31
0.0
  0
LINE
  8
LC-002-002-----0
  6
CONTINUOUS
  5
2D7
 10
25.325391
 20
233.126972
 30
0.0
 11
24.521544
 21
236.126972
 31
0.0
  0
LINE
  8
LC-002-002-----0
  6
CONTINUOUS
  5
2D8
 10
26.825391
 20
231.126972
 30
0.0
 11
26.021544
 21
234.126972
 31
0.0
  0
LINE
  8
LC-002-002-----0
  6
CONTINUOUS
  5
2D9
 10
28.29794
 20
234.126972
 30
0.0
 11
26.021544
 21
234.126972
 31
0.0
  0
LINE
  8
LC-002-002-----0
  6
CONTINUOUS
  5
2DA
 10
26.021544
 20
234.126972
 30
0.0
 11
25.057442
 21
234.126972
 31
0.0
  0
LINE
  8
LC-002-002-----0
  6
CONTINUOUS
  5
2DB
 10
26.825391
 20
206.126972
 30
0.0
 11
26.825391
 21
189.126972
 31
0.0
  0
LINE
  8
LC-002-002-----0
  6
CONTINUOUS
  5
2DC
 10
19.325391
 20
236.126972
 30
0.0
 11
16.325391
 21
233.126972
 31
0.0
  0
LINE
  8
LC-002-002-----0
  6
CONTINUOUS
  5
2DD
 10
16.325391
 20
233.126972
 30
0.0
 11
16.325391
 21
208.126972
 31
0.0
  0
LINE
  8
LC-002-002-----0
  6
CONTINUOUS
  5
2DE
 10
16.325391
 20
208.126972
 30
0.0
 11
18.325391
 21
206.126972
 31
0.0
  0
LINE
  8
LC-002-002-----0
  6
CONTINUOUS
  5
2DF
 10
214.575391
 20
202.126972
 30
0.0
 11
217.075391
 21
202.126972
 31
0.0
  0
LINE
  8
LC-002-002-----0
  6
CONTINUOUS
  5
2E0
 10
217.075391
 20
202.126972
 30
0.0
 11
217.075391
 21
216.126972
 31
0.0
  0
LINE
  8
LC-002-002-----0
  6
CONTINUOUS
  5
2E1
 10
217.075391
 20
216.126972
 30
0.0
 11
216.517896
 21
216.126972
 31
0.0
  0
LINE
  8
LC-002-002-----0
  6
CONTINUOUS
  5
2E2
 10
223.825391
 20
216.126972
 30
0.0
 11
225.325391
 21
216.126972
 31
0.0
  0
LINE
  8
LC-002-002-----0
  6
CONTINUOUS
  5
2E3
 10
225.325391
 20
233.126972
 30
0.0
 11
225.59334
 21
234.126972
 31
0.0
  0
LINE
  8
LC-002-002-----0
  6
CONTINUOUS
  5
2E4
 10
225.325391
 20
221.126972
 30
0.0
 11
227.825391
 21
221.126972
 31
0.0
  0
LINE
  8
LC-002-002-----0
  6
CONTINUOUS
  5
2E5
 10
225.325391
 20
221.126972
 30
0.0
 11
225.325391
 21
233.126972
 31
0.0
  0
LINE
  8
LC-002-002-----0
  6
CONTINUOUS
  5
2E6
 10
107.163684
 20
231.126972
 30
0.0
 11
109.625703
 21
231.126972
 31
0.0
  0
LINE
  8
LC-002-002-----0
  6
CONTINUOUS
  5
2E7
 10
124.075391
 20
231.126972
 30
0.0
 11
126.575391
 21
231.126972
 31
0.0
  0
LINE
  8
LC-002-002-----0
  6
CONTINUOUS
  5
2E8
 10
187.039627
 20
216.126972
 30
0.0
 11
187.039627
 21
231.126972
 31
0.0
  0
LINE
  8
LC-002-002-----0
  6
CONTINUOUS
  5
2E9
 10
188.954739
 20
216.126972
 30
0.0
 11
188.954739
 21
231.126972
 31
0.0
  0
LINE
  8
LC-002-002-----0
  6
CONTINUOUS
  5
2EA
 10
29.089575
 20
216.126972
 30
0.0
 11
29.089575
 21
231.126972
 31
0.0
  0
LINE
  8
LC-002-002-----0
  6
CONTINUOUS
  5
2EB
 10
29.523695
 20
216.126972
 30
0.0
 11
29.523695
 21
231.126972
 31
0.0
  0
LINE
  8
LC-002-002-----0
  6
CONTINUOUS
  5
2EC
 10
33.277835
 20
216.126972
 30
0.0
 11
33.277835
 21
231.126972
 31
0.0
  0
LINE
  8
LC-002-002-----0
  6
CONTINUOUS
  5
2ED
 10
34.132886
 20
216.126972
 30
0.0
 11
34.132886
 21
231.126972
 31
0.0
  0
LINE
  8
LC-002-002-----0
  6
CONTINUOUS
  5
2EE
 10
29.523695
 20
221.126972
 30
0.0
 11
30.935945
 21
221.126972
 31
0.0
  0
LINE
  8
LC-002-002-----0
  6
CONTINUOUS
  5
2EF
 10
201.993158
 20
202.126972
 30
0.0
 11
201.993158
 21
186.126972
 31
0.0
  0
LINE
  8
LC-002-002-----0
  6
CONTINUOUS
  5
2F0
 10
181.73663
 20
202.126972
 30
0.0
 11
181.73663
 21
186.126972
 31
0.0
  0
LINE
  8
LC-002-002-----0
  6
CONTINUOUS
  5
2F1
 10
203.243158
 20
202.126972
 30
0.0
 11
203.243158
 21
186.126972
 31
0.0
  0
LINE
  8
LC-002-002-----0
  6
CONTINUOUS
  5
2F2
 10
183.651741
 20
202.126972
 30
0.0
 11
183.651741
 21
186.126972
 31
0.0
  0
LINE
  8
LC-002-002-----0
  6
CONTINUOUS
  5
2F3
 10
37.648359
 20
202.126972
 30
0.0
 11
41.0303
 21
202.126972
 31
0.0
  0
LINE
  8
LC-002-002-----0
  6
CONTINUOUS
  5
2F4
 10
208.765432
 20
186.126972
 30
0.0
 11
209.620483
 21
186.126972
 31
0.0
  0
LINE
  8
LC-002-002-----0
  6
CONTINUOUS
  5
2F5
 10
209.620483
 20
202.126972
 30
0.0
 11
209.620483
 21
186.126972
 31
0.0
  0
LINE
  8
LC-002-002-----0
  6
CONTINUOUS
  5
2F6
 10
41.88535
 20
186.126972
 30
0.0
 11
41.0303
 21
186.126972
 31
0.0
  0
LINE
  8
LC-002-002-----0
  6
CONTINUOUS
  5
2F7
 10
41.0303
 20
202.126972
 30
0.0
 11
41.0303
 21
186.126972
 31
0.0
  0
LINE
  8
LC-002-002-----0
  6
CONTINUOUS
  5
2F8
 10
47.407624
 20
186.126972
 30
0.0
 11
41.88535
 21
186.126972
 31
0.0
  0
LINE
  8
LC-002-002-----0
  6
CONTINUOUS
  5
2F9
 10
41.88535
 20
202.126972
 30
0.0
 11
41.88535
 21
186.126972
 31
0.0
  0
LINE
  8
LC-002-002-----0
  6
CONTINUOUS
  5
2FA
 10
41.88535
 20
202.126972
 30
0.0
 11
47.407624
 21
202.126972
 31
0.0
  0
LINE
  8
LC-002-002-----0
  6
CONTINUOUS
  5
2FB
 10
48.657624
 20
186.126972
 30
0.0
 11
47.407624
 21
186.126972
 31
0.0
  0
LINE
  8
LC-002-002-----0
  6
CONTINUOUS
  5
2FC
 10
47.407624
 20
202.126972
 30
0.0
 11
47.407624
 21
186.126972
 31
0.0
  0
LINE
  8
LC-002-002-----0
  6
CONTINUOUS
  5
2FD
 10
56.15244
 20
186.126972
 30
0.0
 11
49.682312
 21
186.126972
 31
0.0
  0
LINE
  8
LC-002-002-----0
  6
CONTINUOUS
  5
2FE
 10
57.759409
 20
186.126972
 30
0.0
 11
56.15244
 21
186.126972
 31
0.0
  0
LINE
  8
LC-002-002-----0
  6
CONTINUOUS
  5
2FF
 10
81.782923
 20
186.126972
 30
0.0
 11
79.617859
 21
186.126972
 31
0.0
  0
LINE
  8
LC-002-002-----0
  6
CONTINUOUS
  5
300
 10
171.032923
 20
186.126972
 30
0.0
 11
175.255999
 21
186.126972
 31
0.0
  0
LINE
  8
LC-002-002-----0
  6
CONTINUOUS
  5
301
 10
175.255999
 20
186.126972
 30
0.0
 11
175.657923
 21
189.126972
 31
0.0
  0
LINE
  8
LC-002-002-----0
  6
CONTINUOUS
  5
302
 10
66.999041
 20
186.126972
 30
0.0
 11
61.569959
 21
186.126972
 31
0.0
  0
LINE
  8
LC-002-002-----0
  6
CONTINUOUS
  5
303
 10
68.914152
 20
186.126972
 30
0.0
 11
66.999041
 21
186.126972
 31
0.0
  0
LINE
  8
LC-002-002-----0
  6
CONTINUOUS
  5
304
 10
75.394783
 20
186.126972
 30
0.0
 11
74.992859
 21
189.126972
 31
0.0
  0
LINE
  8
LC-002-002-----0
  6
CONTINUOUS
  5
305
 10
79.617859
 20
186.126972
 30
0.0
 11
75.394783
 21
186.126972
 31
0.0
  0
LINE
  8
LC-002-002-----0
  6
CONTINUOUS
  5
306
 10
90.736723
 20
186.126972
 30
0.0
 11
90.461791
 21
189.126972
 31
0.0
  0
LINE
  8
LC-002-002-----0
  6
CONTINUOUS
  5
307
 10
93.625478
 20
186.126972
 30
0.0
 11
90.736723
 21
186.126972
 31
0.0
  0
LINE
  8
LC-002-002-----0
  6
CONTINUOUS
  5
308
 10
107.129623
 20
186.126972
 30
0.0
 11
106.990036
 21
189.126972
 31
0.0
  0
LINE
  8
LC-002-002-----0
  6
CONTINUOUS
  5
309
 10
108.596282
 20
186.126972
 30
0.0
 11
107.129623
 21
186.126972
 31
0.0
  0
LINE
  8
LC-002-002-----0
  6
CONTINUOUS
  5
30A
 10
95.974709
 20
186.126972
 30
0.0
 11
93.625478
 21
186.126972
 31
0.0
  0
LINE
  8
LC-002-002-----0
  6
CONTINUOUS
  5
30B
 10
194.498342
 20
186.126972
 30
0.0
 11
192.891373
 21
186.126972
 31
0.0
  0
LINE
  8
LC-002-002-----0
  6
CONTINUOUS
  5
30C
 10
194.498342
 20
186.126972
 30
0.0
 11
200.96847
 21
186.126972
 31
0.0
  0
LINE
  8
LC-002-002-----0
  6
CONTINUOUS
  5
30D
 10
143.52116
 20
186.126972
 30
0.0
 11
143.660746
 21
189.126972
 31
0.0
  0
LINE
  8
LC-002-002-----0
  6
CONTINUOUS
  5
30E
 10
142.054501
 20
186.126972
 30
0.0
 11
143.52116
 21
186.126972
 31
0.0
  0
LINE
  8
LC-002-002-----0
  6
CONTINUOUS
  5
30F
 10
159.914059
 20
186.126972
 30
0.0
 11
160.188991
 21
189.126972
 31
0.0
  0
LINE
  8
LC-002-002-----0
  6
CONTINUOUS
  5
310
 10
111.058301
 20
186.126972
 30
0.0
 11
108.596282
 21
186.126972
 31
0.0
  0
LINE
  8
LC-002-002-----0
  6
CONTINUOUS
  5
311
 10
126.575391
 20
186.126972
 30
0.0
 11
124.075391
 21
186.126972
 31
0.0
  0
LINE
  8
LC-002-002-----0
  6
CONTINUOUS
  5
312
 10
142.054501
 20
186.126972
 30
0.0
 11
139.592481
 21
186.126972
 31
0.0
  0
LINE
  8
LC-002-002-----0
  6
CONTINUOUS
  5
313
 10
157.025305
 20
186.126972
 30
0.0
 11
159.914059
 21
186.126972
 31
0.0
  0
LINE
  8
LC-002-002-----0
  6
CONTINUOUS
  5
314
 10
157.025305
 20
186.126972
 30
0.0
 11
154.676073
 21
186.126972
 31
0.0
  0
LINE
  8
LC-002-002-----0
  6
CONTINUOUS
  5
315
 10
171.032923
 20
186.126972
 30
0.0
 11
168.867859
 21
186.126972
 31
0.0
  0
LINE
  8
LC-002-002-----0
  6
CONTINUOUS
  5
316
 10
208.765432
 20
202.126972
 30
0.0
 11
208.765432
 21
186.126972
 31
0.0
  0
LINE
  8
LC-002-002-----0
  6
CONTINUOUS
  5
317
 10
126.575391
 20
202.126972
 30
0.0
 11
126.575391
 21
186.126972
 31
0.0
  0
LINE
  8
LC-002-002-----0
  6
CONTINUOUS
  5
318
 10
183.651741
 20
186.126972
 30
0.0
 11
189.080823
 21
186.126972
 31
0.0
  0
LINE
  8
LC-002-002-----0
  6
CONTINUOUS
  5
319
 10
183.651741
 20
186.126972
 30
0.0
 11
181.73663
 21
186.126972
 31
0.0
  0
LINE
  8
LC-002-002-----0
  6
CONTINUOUS
  5
31A
 10
203.243158
 20
202.126972
 30
0.0
 11
208.765432
 21
202.126972
 31
0.0
  0
LINE
  8
LC-002-002-----0
  6
CONTINUOUS
  5
31B
 10
227.825391
 20
221.126972
 30
0.0
 11
227.825391
 21
236.126972
 31
0.0
  0
LINE
  8
LC-002-002-----0
  6
CONTINUOUS
  5
31C
 10
227.825391
 20
236.126972
 30
0.0
 11
226.129239
 21
236.126972
 31
0.0
  0
LINE
  8
LC-002-002-----0
  6
CONTINUOUS
  5
31D
 10
225.325391
 20
216.126972
 30
0.0
 11
225.325391
 21
221.126972
 31
0.0
  0
LINE
  8
LC-004-006-MLN-0
  6
DASHDOT
  5
320
 10
125.325391
 20
248.594149
 30
0.0
 11
125.325391
 21
171.728782
 31
0.0
  0
LINE
  8
LC-002-002-----0
  6
CONTINUOUS
  5
321
 10
33.575391
 20
216.126972
 30
0.0
 11
33.575391
 21
202.126972
 31
0.0
  0
LINE
  8
LC-002-002-----0
  6
CONTINUOUS
  5
322
 10
22.825391
 20
236.126972
 30
0.0
 11
22.825391
 21
221.126972
 31
0.0
  0
LINE
  8
LC-002-002-----0
  6
CONTINUOUS
  5
323
 10
22.825391
 20
221.126972
 30
0.0
 11
25.325391
 21
221.126972
 31
0.0
  0
LINE
  8
LC-002-002-----0
  6
CONTINUOUS
  5
324
 10
33.575391
 20
202.126972
 30
0.0
 11
36.075391
 21
202.126972
 31
0.0
  0
LINE
  8
LC-002-002-----0
  6
CONTINUOUS
  5
325
 10
25.325391
 20
233.126972
 30
0.0
 11
25.325391
 21
221.126972
 31
0.0
  0
LINE
  8
LC-002-002-----0
  6
CONTINUOUS
  5
326
 10
22.825391
 20
236.126972
 30
0.0
 11
19.325391
 21
236.126972
 31
0.0
  0
LINE
  8
LC-002-002-----0
  6
CONTINUOUS
  5
327
 10
25.325391
 20
221.126972
 30
0.0
 11
25.325391
 21
216.126972
 31
0.0
  0
LINE
  8
LC-002-002-----0
  6
CONTINUOUS
  5
328
 10
33.575391
 20
216.126972
 30
0.0
 11
34.132886
 21
216.126972
 31
0.0
  0
ENDSEC
  0
EOF
