  0
SECTION
  2
HEADER
  9
$ACADVER
  1
AC1009
  9
$DWGCODEPAGE
  3
dos850
  9
$INSBASE
 10
313.361347
 20
112.44
 30
0.0
  9
$EXTMIN
 10
313.361347
 20
112.44
 30
0.0
  9
$EXTMAX
 10
1153.361347
 20
706.44
 30
0.0
  9
$LIMMIN
 10
313.361347
 20
112.44
  9
$LIMMAX
 10
1153.361347
 20
706.44
  9
$ORTHOMODE
 70
     0
  9
$REGENMODE
 70
     1
  9
$FILLMODE
 70
     1
  9
$QTEXTMODE
 70
     0
  9
$MIRRTEXT
 70
     1
  9
$DRAGMODE
 70
     2
  9
$LTSCALE
 40
2.0
  9
$OSMODE
 70
     0
  9
$ATTMODE
 70
     1
  9
$TEXTSIZE
 40
0.2
  9
$TRACEWID
 40
0.05
  9
$TEXTSTYLE
  7
STANDARD
  9
$CLAYER
  8
0
  9
$CELTYPE
  6
BYBLOCK
  9
$CECOLOR
 62
     7
  9
$DIMSCALE
 40
2.0
  9
$DIMASZ
 40
3.5
  9
$DIMEXO
 40
0.0625
  9
$DIMDLI
 40
0.38
  9
$DIMRND
 40
0.0
  9
$DIMDLE
 40
0.0
  9
$DIMEXE
 40
0.18
  9
$DIMTP
 40
0.0
  9
$DIMTM
 40
0.0
  9
$DIMTXT
 40
3.5
  9
$DIMCEN
 40
0.09
  9
$DIMTSZ
 40
0.0
  9
$DIMTOL
 70
     0
  9
$DIMLIM
 70
     0
  9
$DIMTIH
 70
     1
  9
$DIMTOH
 70
     1
  9
$DIMSE1
 70
     0
  9
$DIMSE2
 70
     0
  9
$DIMTAD
 70
     1
  9
$DIMZIN
 70
     0
  9
$DIMBLK
  1

  9
$DIMASO
 70
     1
  9
$DIMSHO
 70
     1
  9
$DIMPOST
  1

  9
$DIMAPOST
  1

  9
$DIMALT
 70
     0
  9
$DIMALTD
 70
     2
  9
$DIMALTF
 40
25.4
  9
$DIMLFAC
 40
1.0
  9
$DIMTOFL
 70
     0
  9
$DIMTVP
 40
0.0
  9
$DIMTIX
 70
     0
  9
$DIMSOXD
 70
     0
  9
$DIMSAH
 70
     0
  9
$DIMBLK1
  1

  9
$DIMBLK2
  1

  9
$DIMSTYLE
  2
STANDARD
  9
$DIMCLRD
 70
     0
  9
$DIMCLRE
 70
     0
  9
$DIMCLRT
 70
     0
  9
$DIMTFAC
 40
1.0
  9
$DIMGAP
 40
0.09
  9
$LUNITS
 70
     2
  9
$LUPREC
 70
     6
  9
$AXISMODE
 70
     0
  9
$AXISUNIT
 10
0.0
 20
0.0
  9
$SKETCHINC
 40
0.1
  9
$FILLETRAD
 40
0.0
  9
$AUNITS
 70
     0
  9
$AUPREC
 70
     0
  9
$MENU
  1
acad
  9
$ELEVATION
 40
0.0
  9
$PELEVATION
 40
0.0
  9
$THICKNESS
 40
0.0
  9
$LIMCHECK
 70
     0
  9
$BLIPMODE
 70
     1
  9
$CHAMFERA
 40
0.0
  9
$CHAMFERB
 40
0.0
  9
$SKPOLY
 70
     0
  9
$TDCREATE
 40
0.000000000
  9
$TDUPDATE
 40
0.000000000
  9
$TDINDWG
 40
0.0000000000
  9
$TDUSRTIMER
 40
0.0000000000
  9
$USRTIMER
 70
     1
  9
$ANGBASE
 50
0.0
  9
$ANGDIR
 70
     0
  9
$PDMODE
 70
     0
  9
$PDSIZE
 40
0.0
  9
$PLINEWID
 40
0.0
  9
$COORDS
 70
     0
  9
$SPLFRAME
 70
     0
  9
$SPLINETYPE
 70
     6
  9
$SPLINESEGS
 70
     8
  9
$ATTDIA
 70
     0
  9
$ATTREQ
 70
     1
  9
$HANDLING
 70
     1
  9
$HANDSEED
  5
1B9
  9
$SURFTAB1
 70
     6
  9
$SURFTAB2
 70
     6
  9
$SURFTYPE
 70
     6
  9
$SURFU
 70
     6
  9
$SURFV
 70
     6
  9
$UCSNAME
  2

  9
$UCSORG
 10
0.0
 20
0.0
 30
0.0
  9
$UCSXDIR
 10
1.0
 20
0.0
 30
0.0
  9
$UCSYDIR
 10
0.0
 20
1.0
 30
0.0
  9
$PUCSNAME
  2

  9
$PUCSORG
 10
0.0
 20
0.0
 30
0.0
  9
$PUCSXDIR
 10
1.0
 20
0.0
 30
0.0
  9
$PUCSYDIR
 10
0.0
 20
1.0
 30
0.0
  9
$USERI1
 70
     0
  9
$USERI2
 70
     0
  9
$USERI3
 70
     0
  9
$USERI4
 70
     0
  9
$USERI5
 70
     0
  9
$USERR1
 40
0.0
  9
$USERR2
 40
0.0
  9
$USERR3
 40
0.0
  9
$USERR4
 40
0.0
  9
$USERR5
 40
0.0
  9
$WORLDVIEW
 70
     1
  9
$SHADEDGE
 70
     3
  9
$SHADEDIF
 70
    70
  9
$TILEMODE
 70
     1
  9
$MAXACTVP
 70
    16
  9
$PINSBASE
 10
0.0
 20
0.0
 30
0.0
  9
$PLIMCHECK
 70
     0
  9
$PEXTMIN
 10
313.361347
 20
112.44
 30
0.0
  9
$PEXTMAX
 10
1153.361347
 20
706.44
 30
0.0
  9
$PLIMMIN
 10
313.361347
 20
112.44
  9
$PLIMMAX
 10
1153.361347
 20
706.44
  9
$UNITMODE
 70
     0
  9
$VISRETAIN
 70
     0
  9
$PLINEGEN
 70
     1
  9
$PSLTSCALE
 70
     0
  9
$TREEDEPTH
 70
  3020
  0
ENDSEC
  0
SECTION
  2
TABLES
  0
TABLE
  2
VPORT
 70
     1
  0
VPORT
  2
*ACTIVE
 70
     0
 10
0.0
 20
0.0
 11
1.0
 21
1.0
 12
420.0
 22
297.0
 13
0.0
 23
0.0
 14
1.0
 24
1.0
 15
0.0
 25
0.0
 16
0.0
 26
0.0
 36
1.0
 17
313.361347
 27
112.44
 37
0.0
 40
594.0
 41
1.604229
 42
50.0
 43
0.0
 44
0.0
 50
0.0
 51
0.0
 71
     0
 72
   100
 73
     1
 74
     1
 75
     0
 76
     0
 77
     0
 78
     0
  0
ENDTAB
  0
TABLE
  2
LTYPE
 70
     2
  0
LTYPE
  2
CONTINUOUS
 70
    64
  3
Solid line
 72
    65
 73
     0
 40
0.0
  0
LTYPE
  2
DASHDOT
 70
    64
  3
LC-Solid line
 72
    65
 73
     4
 40
4.0
 49
2.0
 49
-0.9
 49
0.2
 49
-0.9
  0
ENDTAB
  0
TABLE
  2
LAYER
 70
    11
  0
LAYER
  2
0
 70
     0
 62
     7
  6
CONTINUOUS
  0
LAYER
  2
LC-INFO-1-2-MM-A3-0
 70
     1
 62
   255
  6
BYBLOCK
  0
LAYER
  2
LC-3D-HIDDEN
 70
     0
 62
     9
  6
BYBLOCK
  0
LAYER
  2
LC-CUT-HIDDEN
 70
     0
 62
     9
  6
BYBLOCK
  0
LAYER
  2
LC-VIEWPORT
 70
     0
 62
     7
  6
BYBLOCK
  0
LAYER
  2
LC-001-002-----0
 70
     0
 62
     1
  6
BYBLOCK
  0
LAYER
  2
LC-002-003-MTH-0
 70
     0
 62
     2
  6
BYBLOCK
  0
LAYER
  2
LC-003-003-MTG-0
 70
     0
 62
     2
  6
BYBLOCK
  0
LAYER
  2
LC-004-003-----0
 70
     0
 62
     2
  6
BYBLOCK
  0
LAYER
  2
LC-005-002-RND-0
 70
     0
 62
     1
  6
BYBLOCK
  0
LAYER
  2
LC-006-005-----0
 70
     0
 62
     2
  6
BYBLOCK
  0
ENDTAB
  0
TABLE
  2
STYLE
 70
     3
  0
STYLE
  2
STANDARD
 70
     0
 40
0.0
 41
1.0
 50
0.0
 71
     0
 42
0.0
  3
txt
  4

  0
STYLE
  2
LCTX15-400-0-0-ARIAL
 70
    64
 40
3.5
 41
1.0
 50
0.0
 71
     0
 42
0.0
  3
Arial
  4

  0
STYLE
  2
LCTX15-400-0-0-DIN-SCHRIF2
 70
    64
 40
0.0
 41
1.0
 50
1.5
 71
     0
 42
3.5
  3
STANDARD
  4

  0
ENDTAB
  0
TABLE
  2
VIEW
 70
     0
  0
ENDTAB
  0
TABLE
  2
UCS
 70
     0
  0
ENDTAB
  0
TABLE
  2
APPID
 70
     1
  0
APPID
  2
ACAD
 70
     0
  0
ENDTAB
  0
TABLE
  2
DIMSTYLE
 70
     2
  0
DIMSTYLE
  2
STANDARD
 70
     0
  3

  4

  5

  6

  7

 40
1.0
 41
0.18
 42
0.0625
 43
0.38
 44
0.18
 45
0.0
 46
0.0
 47
0.0
 48
0.0
 71
     0
 72
     0
 73
     1
 74
     1
 75
     0
 76
     0
 77
     0
 78
     0
140
0.18
141
0.09
142
0.0
143
25.4
144
1.0
145
0.0
146
1.0
147
0.09
170
     0
171
     2
172
     0
173
     0
174
     0
175
     0
176
     0
177
     0
178
     0
  0
DIMSTYLE
  2
LC-DIM-L-0140-02-02
 70
     0
  3

  4

  5

  6

  7

 40
2.0
 41
3.5
 42
0.0
 43
7.5
 44
1.8
 45
0.0
 46
0.0
 47
0.0
 48
0.0
 71
     0
 72
     0
 73
     0
 74
     0
 75
     0
 76
     0
 77
     1
 78
     8
140
14.0
141
0.0
142
0.0
143
25.4
144
1.0
145
0.0
146
0.71
147
1.5
170
     0
171
     2
172
     0
173
     0
174
     0
175
     0
176
     2
177
     2
178
     2
  0
ENDTAB
  0
ENDSEC
  0
SECTION
  2
BLOCKS
  0
BLOCK
  8
0
  5
27
  2
*D0
 70
    65
 10
0.0
 20
0.0
 30
0.0
  3
*D0
  0
LINE
  8
LC-002-003-MTH-0
  6
BYBLOCK
 62
     2
  5
29
 10
769.872764
 20
317.452462
 30
0.0
 11
856.8
 21
317.452462
 31
0.0
  0
LINE
  8
LC-002-003-MTH-0
 62
     2
  5
2A
 10
793.266514
 20
460.574945
 30
0.0
 11
856.8
 21
460.574945
 31
0.0
  0
LINE
  8
LC-003-003-MTG-0
  6
BYBLOCK
 62
     2
  5
2C
 10
840.0
 20
317.452462
 30
0.0
 11
840.0
 21
460.574945
 31
0.0
  0
LINE
  8
LC-004-003-----0
  6
BYBLOCK
 62
     2
  5
2E
 10
836.345267
 20
345.212918
 30
0.0
 11
840.0
 21
317.452462
 31
0.0
  0
LINE
  8
LC-004-003-----0
 62
     2
  5
2F
 10
840.0
 20
317.452462
 30
0.0
 11
843.654733
 21
345.212918
 31
0.0
  0
LINE
  8
LC-004-003-----0
 62
     2
  5
30
 10
843.654733
 20
345.212918
 30
0.0
 11
836.345267
 21
345.212918
 31
0.0
  0
LINE
  8
LC-004-003-----0
 62
     2
  5
31
 10
837.295497
 20
345.2752
 30
0.0
 11
840.0
 21
324.732462
 31
0.0
  0
LINE
  8
LC-004-003-----0
 62
     2
  5
32
 10
840.0
 20
324.732462
 30
0.0
 11
842.704503
 21
345.2752
 31
0.0
  0
LINE
  8
LC-004-003-----0
 62
     2
  5
33
 10
838.245728
 20
345.337481
 30
0.0
 11
840.0
 21
332.012462
 31
0.0
  0
LINE
  8
LC-004-003-----0
 62
     2
  5
34
 10
840.0
 20
332.012462
 30
0.0
 11
841.754272
 21
345.337481
 31
0.0
  0
LINE
  8
LC-004-003-----0
 62
     2
  5
35
 10
839.195959
 20
345.399763
 30
0.0
 11
840.0
 21
339.292462
 31
0.0
  0
LINE
  8
LC-004-003-----0
 62
     2
  5
36
 10
840.0
 20
339.292462
 30
0.0
 11
840.804041
 21
345.399763
 31
0.0
  0
LINE
  8
LC-004-003-----0
 62
     2
  5
37
 10
843.654733
 20
432.814488
 30
0.0
 11
840.0
 21
460.574945
 31
0.0
  0
LINE
  8
LC-004-003-----0
 62
     2
  5
38
 10
840.0
 20
460.574945
 30
0.0
 11
836.345267
 21
432.814488
 31
0.0
  0
LINE
  8
LC-004-003-----0
 62
     2
  5
39
 10
836.345267
 20
432.814488
 30
0.0
 11
843.654733
 21
432.814488
 31
0.0
  0
LINE
  8
LC-004-003-----0
 62
     2
  5
3A
 10
842.704503
 20
432.752207
 30
0.0
 11
840.0
 21
453.294945
 31
0.0
  0
LINE
  8
LC-004-003-----0
 62
     2
  5
3B
 10
840.0
 20
453.294945
 30
0.0
 11
837.295497
 21
432.752207
 31
0.0
  0
LINE
  8
LC-004-003-----0
 62
     2
  5
3C
 10
841.754272
 20
432.689926
 30
0.0
 11
840.0
 21
446.014945
 31
0.0
  0
LINE
  8
LC-004-003-----0
 62
     2
  5
3D
 10
840.0
 20
446.014945
 30
0.0
 11
838.245728
 21
432.689926
 31
0.0
  0
LINE
  8
LC-004-003-----0
 62
     2
  5
3E
 10
840.804041
 20
432.627644
 30
0.0
 11
840.0
 21
438.734945
 31
0.0
  0
LINE
  8
LC-004-003-----0
 62
     2
  5
3F
 10
840.0
 20
438.734945
 30
0.0
 11
839.195959
 21
432.627644
 31
0.0
  0
TEXT
  8
LC-004-003-----0
 62
     7
  5
40
 10
832.172446
 20
366.733863
 30
0.0
 40
28.0
  1
144
 50
90.0
 41
0.9
 51
15.0
  7
LCTX15-400-0-0-ARIAL
 72
     1
 11
832.172446
 21
393.361863
 31
0.0
  0
ENDBLK
  8
0
  5
41
  0
BLOCK
  8
0
  5
46
  2
*D1
 70
    65
 10
0.0
 20
0.0
 30
0.0
  3
*D1
  0
LINE
  8
LC-002-003-MTH-0
 62
     2
  5
47
 10
558.836514
 20
457.619945
 30
0.0
 11
558.836514
 21
496.8
 31
0.0
  0
LINE
  8
LC-002-003-MTH-0
 62
     2
  5
48
 10
798.684014
 20
457.619945
 30
0.0
 11
798.684014
 21
496.8
 31
0.0
  0
LINE
  8
LC-003-003-MTG-0
 62
     2
  5
49
 10
558.836514
 20
480.0
 30
0.0
 11
798.684014
 21
480.0
 31
0.0
  0
LINE
  8
LC-004-003-----0
 62
     2
  5
4A
 10
586.59697
 20
483.654733
 30
0.0
 11
558.836514
 21
480.0
 31
0.0
  0
LINE
  8
LC-004-003-----0
 62
     2
  5
4B
 10
558.836514
 20
480.0
 30
0.0
 11
586.59697
 21
476.345267
 31
0.0
  0
LINE
  8
LC-004-003-----0
 62
     2
  5
4C
 10
586.59697
 20
476.345267
 30
0.0
 11
586.59697
 21
483.654733
 31
0.0
  0
LINE
  8
LC-004-003-----0
 62
     2
  5
4D
 10
586.659252
 20
482.704503
 30
0.0
 11
566.116514
 21
480.0
 31
0.0
  0
LINE
  8
LC-004-003-----0
 62
     2
  5
4E
 10
566.116514
 20
480.0
 30
0.0
 11
586.659252
 21
477.295497
 31
0.0
  0
LINE
  8
LC-004-003-----0
 62
     2
  5
4F
 10
586.721533
 20
481.754272
 30
0.0
 11
573.396514
 21
480.0
 31
0.0
  0
LINE
  8
LC-004-003-----0
 62
     2
  5
50
 10
573.396514
 20
480.0
 30
0.0
 11
586.721533
 21
478.245728
 31
0.0
  0
LINE
  8
LC-004-003-----0
 62
     2
  5
51
 10
586.783814
 20
480.804041
 30
0.0
 11
580.676514
 21
480.0
 31
0.0
  0
LINE
  8
LC-004-003-----0
 62
     2
  5
52
 10
580.676514
 20
480.0
 30
0.0
 11
586.783814
 21
479.195959
 31
0.0
  0
LINE
  8
LC-004-003-----0
 62
     2
  5
53
 10
770.923558
 20
476.345267
 30
0.0
 11
798.684014
 21
480.0
 31
0.0
  0
LINE
  8
LC-004-003-----0
 62
     2
  5
54
 10
798.684014
 20
480.0
 30
0.0
 11
770.923558
 21
483.654733
 31
0.0
  0
LINE
  8
LC-004-003-----0
 62
     2
  5
55
 10
770.923558
 20
483.654733
 30
0.0
 11
770.923558
 21
476.345267
 31
0.0
  0
LINE
  8
LC-004-003-----0
 62
     2
  5
56
 10
770.861276
 20
477.295497
 30
0.0
 11
791.404014
 21
480.0
 31
0.0
  0
LINE
  8
LC-004-003-----0
 62
     2
  5
57
 10
791.404014
 20
480.0
 30
0.0
 11
770.861276
 21
482.704503
 31
0.0
  0
LINE
  8
LC-004-003-----0
 62
     2
  5
58
 10
770.798995
 20
478.245728
 30
0.0
 11
784.124014
 21
480.0
 31
0.0
  0
LINE
  8
LC-004-003-----0
 62
     2
  5
59
 10
784.124014
 20
480.0
 30
0.0
 11
770.798995
 21
481.754272
 31
0.0
  0
LINE
  8
LC-004-003-----0
 62
     2
  5
5A
 10
770.736714
 20
479.195959
 30
0.0
 11
776.844014
 21
480.0
 31
0.0
  0
LINE
  8
LC-004-003-----0
 62
     2
  5
5B
 10
776.844014
 20
480.0
 30
0.0
 11
770.736714
 21
480.804041
 31
0.0
  0
TEXT
  8
LC-004-003-----0
 62
     7
  5
5C
 10
656.480424
 20
487.827554
 30
0.0
 40
28.0
  1
240
 41
0.9
 51
15.0
  7
LCTX15-400-0-0-ARIAL
 72
     1
 11
683.108424
 21
487.827554
 31
0.0
  0
ENDBLK
  8
0
  5
5D
  0
BLOCK
  8
0
  5
10B
  2
*X2
 70
    65
 10
558.344014
 20
317.452462
 30
0.0
  3
*X2
  0
LINE
  8
LC-006-005-----0
  6
BYBLOCK
 62
     2
  5
10D
 10
584.738826
 20
317.452462
 30
0.0
 11
587.647764
 21
320.361401
 31
0.0
  0
LINE
  8
LC-006-005-----0
 62
     2
  5
10E
 10
581.249561
 20
318.205839
 30
0.0
 11
587.647764
 21
324.604041
 31
0.0
  0
LINE
  8
LC-006-005-----0
 62
     2
  5
10F
 10
584.791264
 20
325.990182
 30
0.0
 11
587.647764
 21
328.846682
 31
0.0
  0
LINE
  8
LC-006-005-----0
 62
     2
  5
110
 10
582.325881
 20
327.76744
 30
0.0
 11
587.647764
 21
333.089323
 31
0.0
  0
LINE
  8
LC-006-005-----0
 62
     2
  5
111
 10
584.791264
 20
334.475463
 30
0.0
 11
587.647764
 21
337.331963
 31
0.0
  0
LINE
  8
LC-006-005-----0
 62
     2
  5
112
 10
583.402201
 20
337.329041
 30
0.0
 11
587.647764
 21
341.574604
 31
0.0
  0
LINE
  8
LC-006-005-----0
 62
     2
  5
113
 10
580.999014
 20
339.168495
 30
0.0
 11
582.729738
 21
340.899219
 31
0.0
  0
LINE
  8
LC-006-005-----0
 62
     2
  5
114
 10
584.791264
 20
342.960745
 30
0.0
 11
587.647764
 21
345.817245
 31
0.0
  0
LINE
  8
LC-006-005-----0
 62
     2
  5
115
 10
584.414039
 20
346.826161
 30
0.0
 11
587.647764
 21
350.059886
 31
0.0
  0
LINE
  8
LC-006-005-----0
 62
     2
  5
116
 10
581.132455
 20
347.787217
 30
0.0
 11
587.647764
 21
354.302526
 31
0.0
  0
LINE
  8
LC-006-005-----0
 62
     2
  5
117
 10
584.791264
 20
355.688667
 30
0.0
 11
587.647764
 21
358.545167
 31
0.0
  0
LINE
  8
LC-006-005-----0
 62
     2
  5
118
 10
582.208775
 20
357.348818
 30
0.0
 11
587.647764
 21
362.787808
 31
0.0
  0
LINE
  8
LC-006-005-----0
 62
     2
  5
119
 10
584.791264
 20
364.173948
 30
0.0
 11
587.647764
 21
367.030448
 31
0.0
  0
LINE
  8
LC-006-005-----0
 62
     2
  5
11A
 10
583.285094
 20
366.910419
 30
0.0
 11
587.647764
 21
371.273089
 31
0.0
  0
LINE
  8
LC-006-005-----0
 62
     2
  5
11B
 10
580.999014
 20
368.86698
 30
0.0
 11
582.526904
 21
370.39487
 31
0.0
  0
LINE
  8
LC-006-005-----0
 62
     2
  5
11C
 10
584.791264
 20
372.65923
 30
0.0
 11
587.647764
 21
375.51573
 31
0.0
  0
LINE
  8
LC-006-005-----0
 62
     2
  5
11D
 10
584.326702
 20
376.437308
 30
0.0
 11
587.647764
 21
379.75837
 31
0.0
  0
LINE
  8
LC-006-005-----0
 62
     2
  5
11E
 10
581.015349
 20
377.368596
 30
0.0
 11
587.647764
 21
384.001011
 31
0.0
  0
LINE
  8
LC-006-005-----0
 62
     2
  5
11F
 10
584.791264
 20
385.387152
 30
0.0
 11
587.647764
 21
388.243652
 31
0.0
  0
LINE
  8
LC-006-005-----0
 62
     2
  5
120
 10
582.091669
 20
386.930197
 30
0.0
 11
587.647764
 21
392.486292
 31
0.0
  0
LINE
  8
LC-006-005-----0
 62
     2
  5
121
 10
584.791264
 20
393.872433
 30
0.0
 11
587.647764
 21
396.728933
 31
0.0
  0
LINE
  8
LC-006-005-----0
 62
     2
  5
122
 10
583.167988
 20
396.491798
 30
0.0
 11
587.647764
 21
400.971574
 31
0.0
  0
LINE
  8
LC-006-005-----0
 62
     2
  5
123
 10
580.999014
 20
398.565464
 30
0.0
 11
582.32407
 21
399.890521
 31
0.0
  0
LINE
  8
LC-006-005-----0
 62
     2
  5
124
 10
584.791264
 20
402.357714
 30
0.0
 11
587.647764
 21
405.214214
 31
0.0
  0
LINE
  8
LC-006-005-----0
 62
     2
  5
125
 10
584.230766
 20
406.039858
 30
0.0
 11
587.647764
 21
409.456855
 31
0.0
  0
LINE
  8
LC-006-005-----0
 62
     2
  5
126
 10
580.999014
 20
407.050746
 30
0.0
 11
584.205005
 21
410.256737
 31
0.0
  0
LINE
  8
LC-006-005-----0
 62
     2
  5
127
 10
584.706947
 20
410.758679
 30
0.0
 11
587.647764
 21
413.699496
 31
0.0
  0
LINE
  8
LC-006-005-----0
 62
     2
  5
128
 10
584.7851
 20
415.079472
 30
0.0
 11
587.46776
 21
417.762132
 31
0.0
  0
LINE
  8
LC-006-005-----0
 62
     2
  5
129
 10
581.417431
 20
415.954445
 30
0.0
 11
584.372431
 21
418.909445
 31
0.0
  0
LINE
  8
LC-006-005-----0
 62
     2
  5
12A
 10
577.962499
 20
416.742153
 30
0.0
 11
580.371338
 21
419.150992
 31
0.0
  0
LINE
  8
LC-006-005-----0
 62
     2
  5
12B
 10
577.305264
 20
420.327559
 30
0.0
 11
580.032483
 21
423.054777
 31
0.0
  0
LINE
  8
LC-006-005-----0
 62
     2
  5
12C
 10
577.305264
 20
424.570199
 30
0.0
 11
580.032483
 21
427.297418
 31
0.0
  0
LINE
  8
LC-006-005-----0
 62
     2
  5
12D
 10
577.305264
 20
428.81284
 30
0.0
 11
580.032483
 21
431.540059
 31
0.0
  0
LINE
  8
LC-006-005-----0
 62
     2
  5
12E
 10
577.305264
 20
433.055481
 30
0.0
 11
580.032483
 21
435.782699
 31
0.0
  0
LINE
  8
LC-006-005-----0
 62
     2
  5
12F
 10
576.866944
 20
436.859801
 30
0.0
 11
580.024241
 21
440.017098
 31
0.0
  0
LINE
  8
LC-006-005-----0
 62
     2
  5
130
 10
573.684447
 20
437.919945
 30
0.0
 11
576.639447
 21
440.874945
 31
0.0
  0
LINE
  8
LC-006-005-----0
 62
     2
  5
131
 10
569.441806
 20
437.919945
 30
0.0
 11
572.396806
 21
440.874945
 31
0.0
  0
LINE
  8
LC-006-005-----0
 62
     2
  5
132
 10
565.199165
 20
437.919945
 30
0.0
 11
568.154165
 21
440.874945
 31
0.0
  0
LINE
  8
LC-006-005-----0
 62
     2
  5
133
 10
560.956525
 20
437.919945
 30
0.0
 11
564.254014
 21
441.217434
 31
0.0
  0
LINE
  8
LC-006-005-----0
 62
     2
  5
134
 10
561.299014
 20
442.505075
 30
0.0
 11
564.254014
 21
445.460075
 31
0.0
  0
LINE
  8
LC-006-005-----0
 62
     2
  5
135
 10
561.299014
 20
446.747715
 30
0.0
 11
564.254014
 21
449.702715
 31
0.0
  0
LINE
  8
LC-006-005-----0
 62
     2
  5
136
 10
561.299014
 20
450.990356
 30
0.0
 11
564.254014
 21
453.945356
 31
0.0
  0
LINE
  8
LC-006-005-----0
 62
     2
  5
137
 10
561.299014
 20
455.232997
 30
0.0
 11
564.254014
 21
458.187997
 31
0.0
  0
LINE
  8
LC-006-005-----0
 62
     2
  5
138
 10
559.443321
 20
457.619945
 30
0.0
 11
562.395182
 21
460.571805
 31
0.0
  0
ENDBLK
  8
0
  5
139
  0
BLOCK
  8
0
  5
13D
  2
*X3
 70
    65
 10
769.872764
 20
317.452462
 30
0.0
  3
*X3
  0
LINE
  8
LC-006-005-----0
 62
     2
  5
13E
 10
776.462301
 20
318.257107
 30
0.0
 11
776.521514
 21
318.31632
 31
0.0
  0
LINE
  8
LC-006-005-----0
 62
     2
  5
13F
 10
771.415016
 20
317.452462
 30
0.0
 11
775.083375
 21
321.120821
 31
0.0
  0
LINE
  8
LC-006-005-----0
 62
     2
  5
140
 10
769.872764
 20
320.152851
 30
0.0
 11
772.729264
 21
323.009351
 31
0.0
  0
LINE
  8
LC-006-005-----0
 62
     2
  5
141
 10
769.872764
 20
324.395492
 30
0.0
 11
776.159694
 21
330.682422
 31
0.0
  0
LINE
  8
LC-006-005-----0
 62
     2
  5
142
 10
769.872764
 20
328.638133
 30
0.0
 11
772.959343
 21
331.724712
 31
0.0
  0
LINE
  8
LC-006-005-----0
 62
     2
  5
143
 10
769.872764
 20
332.880773
 30
0.0
 11
772.729264
 21
335.737273
 31
0.0
  0
LINE
  8
LC-006-005-----0
 62
     2
  5
144
 10
774.395227
 20
337.403236
 30
0.0
 11
776.521514
 21
339.529523
 31
0.0
  0
LINE
  8
LC-006-005-----0
 62
     2
  5
145
 10
769.872764
 20
337.123414
 30
0.0
 11
773.889949
 21
341.140599
 31
0.0
  0
LINE
  8
LC-006-005-----0
 62
     2
  5
146
 10
769.872764
 20
341.366055
 30
0.0
 11
772.729264
 21
344.222555
 31
0.0
  0
LINE
  8
LC-006-005-----0
 62
     2
  5
147
 10
776.259467
 20
347.752758
 30
0.0
 11
776.521514
 21
348.014805
 31
0.0
  0
LINE
  8
LC-006-005-----0
 62
     2
  5
148
 10
769.872764
 20
345.608695
 30
0.0
 11
774.966268
 21
350.7022
 31
0.0
  0
LINE
  8
LC-006-005-----0
 62
     2
  5
149
 10
769.872764
 20
349.851336
 30
0.0
 11
772.729264
 21
352.707836
 31
0.0
  0
LINE
  8
LC-006-005-----0
 62
     2
  5
14A
 10
769.872764
 20
354.093977
 30
0.0
 11
776.042588
 21
360.263801
 31
0.0
  0
LINE
  8
LC-006-005-----0
 62
     2
  5
14B
 10
769.872764
 20
358.336617
 30
0.0
 11
772.895693
 21
361.359546
 31
0.0
  0
LINE
  8
LC-006-005-----0
 62
     2
  5
14C
 10
769.872764
 20
362.579258
 30
0.0
 11
772.729264
 21
365.435758
 31
0.0
  0
LINE
  8
LC-006-005-----0
 62
     2
  5
14D
 10
774.192393
 20
366.898887
 30
0.0
 11
776.521514
 21
369.228008
 31
0.0
  0
LINE
  8
LC-006-005-----0
 62
     2
  5
14E
 10
769.872764
 20
366.821899
 30
0.0
 11
773.772842
 21
370.721977
 31
0.0
  0
LINE
  8
LC-006-005-----0
 62
     2
  5
14F
 10
769.872764
 20
371.064539
 30
0.0
 11
772.729264
 21
373.921039
 31
0.0
  0
LINE
  8
LC-006-005-----0
 62
     2
  5
150
 10
776.056633
 20
377.248408
 30
0.0
 11
776.521514
 21
377.713289
 31
0.0
  0
LINE
  8
LC-006-005-----0
 62
     2
  5
151
 10
769.872764
 20
375.30718
 30
0.0
 11
774.849162
 21
380.283578
 31
0.0
  0
LINE
  8
LC-006-005-----0
 62
     2
  5
152
 10
769.872764
 20
379.549821
 30
0.0
 11
772.729264
 21
382.406321
 31
0.0
  0
LINE
  8
LC-006-005-----0
 62
     2
  5
153
 10
769.872764
 20
383.792461
 30
0.0
 11
775.925482
 21
389.845179
 31
0.0
  0
LINE
  8
LC-006-005-----0
 62
     2
  5
154
 10
769.872764
 20
388.035102
 30
0.0
 11
772.840456
 21
391.002794
 31
0.0
  0
LINE
  8
LC-006-005-----0
 62
     2
  5
155
 10
769.872764
 20
392.277743
 30
0.0
 11
772.729264
 21
395.134243
 31
0.0
  0
LINE
  8
LC-006-005-----0
 62
     2
  5
156
 10
773.989559
 20
396.394537
 30
0.0
 11
776.521514
 21
398.926493
 31
0.0
  0
LINE
  8
LC-006-005-----0
 62
     2
  5
157
 10
769.872764
 20
396.520384
 30
0.0
 11
773.655736
 21
400.303356
 31
0.0
  0
LINE
  8
LC-006-005-----0
 62
     2
  5
158
 10
769.872764
 20
400.763024
 30
0.0
 11
772.729264
 21
403.619524
 31
0.0
  0
LINE
  8
LC-006-005-----0
 62
     2
  5
159
 10
775.853799
 20
406.744059
 30
0.0
 11
776.521514
 21
407.411774
 31
0.0
  0
LINE
  8
LC-006-005-----0
 62
     2
  5
15A
 10
769.872764
 20
405.005665
 30
0.0
 11
774.732056
 21
409.864957
 31
0.0
  0
LINE
  8
LC-006-005-----0
 62
     2
  5
15B
 10
769.872764
 20
409.248306
 30
0.0
 11
772.729264
 21
412.104806
 31
0.0
  0
LINE
  8
LC-006-005-----0
 62
     2
  5
15C
 10
776.578903
 20
415.954445
 30
0.0
 11
780.215264
 21
419.590806
 31
0.0
  0
LINE
  8
LC-006-005-----0
 62
     2
  5
15D
 10
769.872764
 20
413.490946
 30
0.0
 11
775.291262
 21
418.909445
 31
0.0
  0
LINE
  8
LC-006-005-----0
 62
     2
  5
15E
 10
777.488045
 20
421.106228
 30
0.0
 11
780.215264
 21
423.833446
 31
0.0
  0
LINE
  8
LC-006-005-----0
 62
     2
  5
15F
 10
794.301762
 20
437.919945
 30
0.0
 11
797.255936
 21
440.874118
 31
0.0
  0
LINE
  8
LC-006-005-----0
 62
     2
  5
160
 10
770.28654
 20
418.147363
 30
0.0
 11
770.634846
 21
418.495669
 31
0.0
  0
LINE
  8
LC-006-005-----0
 62
     2
  5
161
 10
777.488045
 20
425.348868
 30
0.0
 11
780.215264
 21
428.076087
 31
0.0
  0
LINE
  8
LC-006-005-----0
 62
     2
  5
162
 10
790.059122
 20
437.919945
 30
0.0
 11
793.014122
 21
440.874945
 31
0.0
  0
LINE
  8
LC-006-005-----0
 62
     2
  5
163
 10
793.266514
 20
441.127337
 30
0.0
 11
796.221514
 21
444.082337
 31
0.0
  0
LINE
  8
LC-006-005-----0
 62
     2
  5
164
 10
777.488045
 20
429.591509
 30
0.0
 11
780.215264
 21
432.318728
 31
0.0
  0
LINE
  8
LC-006-005-----0
 62
     2
  5
165
 10
785.816481
 20
437.919945
 30
0.0
 11
788.771481
 21
440.874945
 31
0.0
  0
LINE
  8
LC-006-005-----0
 62
     2
  5
166
 10
793.266514
 20
445.369978
 30
0.0
 11
796.221514
 21
448.324978
 31
0.0
  0
LINE
  8
LC-006-005-----0
 62
     2
  5
167
 10
777.488045
 20
433.83415
 30
0.0
 11
784.52884
 21
440.874945
 31
0.0
  0
LINE
  8
LC-006-005-----0
 62
     2
  5
168
 10
793.266514
 20
449.612618
 30
0.0
 11
796.221514
 21
452.567618
 31
0.0
  0
LINE
  8
LC-006-005-----0
 62
     2
  5
169
 10
777.488045
 20
438.07679
 30
0.0
 11
780.2862
 21
440.874945
 31
0.0
  0
LINE
  8
LC-006-005-----0
 62
     2
  5
16A
 10
793.266514
 20
453.855259
 30
0.0
 11
798.596581
 21
459.185326
 31
0.0
  0
LINE
  8
LC-006-005-----0
 62
     2
  5
16B
 10
793.266514
 20
458.0979
 30
0.0
 11
795.743559
 21
460.574945
 31
0.0
  0
ENDBLK
  8
0
  5
16C
  0
BLOCK
  8
0
  5
176
  2
*D4
 70
    65
 10
0.0
 20
0.0
 30
0.0
  3
*D4
  0
LINE
  8
LC-002-003-MTH-0
 62
     2
  5
177
 10
560.314014
 20
437.919945
 30
0.0
 11
532.0
 21
437.919945
 31
0.0
  0
LINE
  8
LC-002-003-MTH-0
 62
     2
  5
178
 10
562.284014
 20
460.574945
 30
0.0
 11
532.0
 21
460.574945
 31
0.0
  0
LINE
  8
LC-004-003-----0
 62
     2
  5
179
 10
552.454733
 20
410.159488
 30
0.0
 11
548.8
 21
437.919945
 31
0.0
  0
LINE
  8
LC-004-003-----0
 62
     2
  5
17A
 10
548.8
 20
437.919945
 30
0.0
 11
545.145267
 21
410.159488
 31
0.0
  0
LINE
  8
LC-004-003-----0
 62
     2
  5
17B
 10
545.145267
 20
410.159488
 30
0.0
 11
552.454733
 21
410.159488
 31
0.0
  0
LINE
  8
LC-004-003-----0
 62
     2
  5
17C
 10
551.504503
 20
410.097207
 30
0.0
 11
548.8
 21
430.639945
 31
0.0
  0
LINE
  8
LC-004-003-----0
 62
     2
  5
17D
 10
548.8
 20
430.639945
 30
0.0
 11
546.095497
 21
410.097207
 31
0.0
  0
LINE
  8
LC-004-003-----0
 62
     2
  5
17E
 10
550.554272
 20
410.034926
 30
0.0
 11
548.8
 21
423.359945
 31
0.0
  0
LINE
  8
LC-004-003-----0
 62
     2
  5
17F
 10
548.8
 20
423.359945
 30
0.0
 11
547.045728
 21
410.034926
 31
0.0
  0
LINE
  8
LC-004-003-----0
 62
     2
  5
180
 10
549.604041
 20
409.972644
 30
0.0
 11
548.8
 21
416.079945
 31
0.0
  0
LINE
  8
LC-004-003-----0
 62
     2
  5
181
 10
548.8
 20
416.079945
 30
0.0
 11
547.995959
 21
409.972644
 31
0.0
  0
LINE
  8
LC-004-003-----0
 62
     2
  5
182
 10
545.145267
 20
488.335401
 30
0.0
 11
548.8
 21
460.574945
 31
0.0
  0
LINE
  8
LC-004-003-----0
 62
     2
  5
183
 10
548.8
 20
460.574945
 30
0.0
 11
552.454733
 21
488.335401
 31
0.0
  0
LINE
  8
LC-004-003-----0
 62
     2
  5
184
 10
552.454733
 20
488.335401
 30
0.0
 11
545.145267
 21
488.335401
 31
0.0
  0
LINE
  8
LC-004-003-----0
 62
     2
  5
185
 10
546.095497
 20
488.397682
 30
0.0
 11
548.8
 21
467.854945
 31
0.0
  0
LINE
  8
LC-004-003-----0
 62
     2
  5
186
 10
548.8
 20
467.854945
 30
0.0
 11
551.504503
 21
488.397682
 31
0.0
  0
LINE
  8
LC-004-003-----0
 62
     2
  5
187
 10
547.045728
 20
488.459964
 30
0.0
 11
548.8
 21
475.134945
 31
0.0
  0
LINE
  8
LC-004-003-----0
 62
     2
  5
188
 10
548.8
 20
475.134945
 30
0.0
 11
550.554272
 21
488.459964
 31
0.0
  0
LINE
  8
LC-004-003-----0
 62
     2
  5
189
 10
547.995959
 20
488.522245
 30
0.0
 11
548.8
 21
482.414945
 31
0.0
  0
LINE
  8
LC-004-003-----0
 62
     2
  5
18A
 10
548.8
 20
482.414945
 30
0.0
 11
549.604041
 21
488.522245
 31
0.0
  0
LINE
  8
LC-003-003-MTG-0
 62
     2
  5
18B
 10
548.8
 20
352.015945
 30
0.0
 11
548.8
 21
499.774945
 31
0.0
  0
TEXT
  8
LC-004-003-----0
 62
     7
  5
18C
 10
540.972446
 20
367.564105
 30
0.0
 40
28.0
  1
24
 50
90.0
 41
0.9
 51
15.0
  7
LCTX15-400-0-0-ARIAL
 72
     2
 11
540.972446
 21
403.068105
 31
0.0
  0
ENDBLK
  8
0
  5
18D
  0
BLOCK
  8
0
  5
190
  2
*D5
 70
    65
 10
0.0
 20
0.0
 30
0.0
  3
*D5
  0
LINE
  8
LC-002-003-MTH-0
 62
     2
  5
191
 10
580.999014
 20
320.735473
 30
0.0
 11
580.999014
 21
257.6
 31
0.0
  0
LINE
  8
LC-002-003-MTH-0
 62
     2
  5
192
 10
776.521514
 20
320.735473
 30
0.0
 11
776.521514
 21
257.6
 31
0.0
  0
LINE
  8
LC-003-003-MTG-0
 62
     2
  5
193
 10
580.999014
 20
274.4
 30
0.0
 11
776.521514
 21
274.4
 31
0.0
  0
LINE
  8
LC-004-003-----0
 62
     2
  5
194
 10
608.75947
 20
278.054733
 30
0.0
 11
580.999014
 21
274.4
 31
0.0
  0
LINE
  8
LC-004-003-----0
 62
     2
  5
195
 10
580.999014
 20
274.4
 30
0.0
 11
608.75947
 21
270.745267
 31
0.0
  0
LINE
  8
LC-004-003-----0
 62
     2
  5
196
 10
608.75947
 20
270.745267
 30
0.0
 11
608.75947
 21
278.054733
 31
0.0
  0
LINE
  8
LC-004-003-----0
 62
     2
  5
197
 10
608.821752
 20
277.104503
 30
0.0
 11
588.279014
 21
274.4
 31
0.0
  0
LINE
  8
LC-004-003-----0
 62
     2
  5
198
 10
588.279014
 20
274.4
 30
0.0
 11
608.821752
 21
271.695497
 31
0.0
  0
LINE
  8
LC-004-003-----0
 62
     2
  5
199
 10
608.884033
 20
276.154272
 30
0.0
 11
595.559014
 21
274.4
 31
0.0
  0
LINE
  8
LC-004-003-----0
 62
     2
  5
19A
 10
595.559014
 20
274.4
 30
0.0
 11
608.884033
 21
272.645728
 31
0.0
  0
LINE
  8
LC-004-003-----0
 62
     2
  5
19B
 10
608.946314
 20
275.204041
 30
0.0
 11
602.839014
 21
274.4
 31
0.0
  0
LINE
  8
LC-004-003-----0
 62
     2
  5
19C
 10
602.839014
 20
274.4
 30
0.0
 11
608.946314
 21
273.595959
 31
0.0
  0
LINE
  8
LC-004-003-----0
 62
     2
  5
19D
 10
748.761058
 20
270.745267
 30
0.0
 11
776.521514
 21
274.4
 31
0.0
  0
LINE
  8
LC-004-003-----0
 62
     2
  5
19E
 10
776.521514
 20
274.4
 30
0.0
 11
748.761058
 21
278.054733
 31
0.0
  0
LINE
  8
LC-004-003-----0
 62
     2
  5
19F
 10
748.761058
 20
278.054733
 30
0.0
 11
748.761058
 21
270.745267
 31
0.0
  0
LINE
  8
LC-004-003-----0
 62
     2
  5
1A0
 10
748.698776
 20
271.695497
 30
0.0
 11
769.241514
 21
274.4
 31
0.0
  0
LINE
  8
LC-004-003-----0
 62
     2
  5
1A1
 10
769.241514
 20
274.4
 30
0.0
 11
748.698776
 21
277.104503
 31
0.0
  0
LINE
  8
LC-004-003-----0
 62
     2
  5
1A2
 10
748.636495
 20
272.645728
 30
0.0
 11
761.961514
 21
274.4
 31
0.0
  0
LINE
  8
LC-004-003-----0
 62
     2
  5
1A3
 10
761.961514
 20
274.4
 30
0.0
 11
748.636495
 21
276.154272
 31
0.0
  0
LINE
  8
LC-004-003-----0
 62
     2
  5
1A4
 10
748.574214
 20
273.595959
 30
0.0
 11
754.681514
 21
274.4
 31
0.0
  0
LINE
  8
LC-004-003-----0
 62
     2
  5
1A5
 10
754.681514
 20
274.4
 30
0.0
 11
748.574214
 21
275.204041
 31
0.0
  0
TEXT
  8
LC-004-003-----0
 62
     7
  5
1A6
 10
620.108424
 20
282.227554
 30
0.0
 40
28.0
  1
%%c195
 41
0.9
 51
15.0
  7
LCTX15-400-0-0-ARIAL
 72
     1
 11
683.108424
 21
282.227554
 31
0.0
  0
ENDBLK
  8
0
  5
1A7
  0
BLOCK
  8
0
  5
1AB
  2
*X6
 70
    65
 10
109.310104
 20
222.949208
 30
0.0
  3
*X6
  0
LINE
  8
LC-006-005-----0
 62
     2
  5
1AC
 10
584.569638
 20
323.355469
 30
0.0
 11
581.56751
 21
326.357597
 31
0.0
  0
ENDBLK
  8
0
  5
1AD
  0
BLOCK
  8
0
  5
1B1
  2
*X7
 70
    65
 10
109.310104
 20
222.949208
 30
0.0
  3
*X7
  0
LINE
  8
LC-006-005-----0
 62
     2
  5
1B2
 10
775.323944
 20
322.105781
 30
0.0
 11
772.755822
 21
324.673903
 31
0.0
  0
ENDBLK
  8
0
  5
1B3
  0
ENDSEC
  0
SECTION
  2
ENTITIES
  0
VIEWPORT
  8
LC-VIEWPORT
  5
1B5
 67
     1
 68
     1
 10
420.0
 20
297.0
 30
0.0
 40
840.0
 41
594.0
 69
     1
1001
ACAD
1000
MVIEW
1002
{
1070
    16
1010
0.0
1020
0.0
1030
0.0
1010
0.0
1020
0.0
1030
1.0
1040
0.0
1040
594.0
1040
420.0
1040
297.0
1040
50.0
1040
0.0
1040
0.0
1070
     0
1070
   100
1070
     1
1070
     1
1070
     0
1070
     0
1070
     0
1070
     0
1040
0.0
1040
0.0
1040
0.0
1040
1.0
1040
1.0
1040
0.0
1040
0.0
1070
     0
1002
{
1002
}
1002
}
  0
LINE
  8
LC-001-002-----0
  6
BYBLOCK
 62
     1
  5
24
 10
562.284014
 20
460.574945
 30
0.0
 11
793.266514
 21
460.574945
 31
0.0
  0
LINE
  8
LC-001-002-----0
 62
     1
  5
25
 10
585.677764
 20
418.909445
 30
0.0
 11
771.842764
 21
418.909445
 31
0.0
  0
DIMENSION
  8
LC-004-003-----0
 62
     2
  5
44
  2
*D0
 10
840.0
 20
389.013703
 30
0.0
 11
840.0
 21
389.013703
 31
0.0
  1
144
 13
793.266514
 23
460.574945
 33
0.0
 14
769.872764
 24
317.452462
 34
0.0
 50
90.0
  3
LC-DIM-L-0140-02-02
  0
DIMENSION
  8
LC-004-003-----0
 62
     2
  5
5E
  2
*D1
 10
678.760264
 20
480.0
 30
0.0
 11
678.760264
 21
480.0
 31
0.0
  1
240
 13
558.836514
 23
457.619945
 33
0.0
 14
798.684014
 24
457.619945
 34
0.0
  3
LC-DIM-L-0140-02-02
  0
LINE
  8
LC-001-002-----0
 62
     2
  5
5F
 10
632.154938
 20
492.006
 30
0.0
 11
647.154938
 21
492.006
 31
0.0
  0
LINE
  8
LC-001-002-----0
 62
     2
  5
60
 10
632.154938
 20
507.006
 30
0.0
 11
632.154938
 21
492.006
 31
0.0
  0
LINE
  8
LC-001-002-----0
 62
     2
  5
61
 10
632.154938
 20
507.006
 30
0.0
 11
647.154938
 21
507.006
 31
0.0
  0
LINE
  8
LC-001-002-----0
 62
     2
  5
62
 10
647.154938
 20
507.006
 30
0.0
 11
647.154938
 21
492.006
 31
0.0
  0
LINE
  8
LC-001-002-----0
 62
     1
  5
63
 10
564.254014
 20
440.874945
 30
0.0
 11
579.029014
 21
440.874945
 31
0.0
  0
LINE
  8
LC-001-002-----0
 62
     1
  5
64
 10
584.791264
 20
414.969445
 30
0.0
 11
584.791264
 21
411.15742
 31
0.0
  0
ARC
  8
LC-005-002-RND-0
  6
BYBLOCK
 62
     1
  5
66
 10
583.806264
 20
414.969445
 30
0.0
 40
0.985
 50
0.0
 51
90.0
  0
ARC
  8
LC-005-002-RND-0
 62
     1
  5
67
 10
579.029014
 20
439.889945
 30
0.0
 40
0.985
 50
0.0
 51
90.0
  0
LINE
  8
LC-001-002-----0
 62
     1
  5
68
 10
580.014014
 20
439.889945
 30
0.0
 11
580.014014
 21
419.894445
 31
0.0
  0
LINE
  8
LC-001-002-----0
 62
     1
  5
69
 10
580.999014
 20
399.535473
 30
0.0
 11
580.999014
 21
397.072973
 31
0.0
  0
LINE
  8
LC-001-002-----0
 62
     1
  5
6A
 10
579.767764
 20
415.954445
 30
0.0
 11
583.806264
 21
415.954445
 31
0.0
  0
ARC
  8
LC-005-002-RND-0
 62
     1
  5
6B
 10
579.767764
 20
418.416945
 30
0.0
 40
2.4625
 50
180.0
 51
270.0
  0
ARC
  8
LC-005-002-RND-0
 62
     1
  5
6C
 10
580.999014
 20
419.894445
 30
0.0
 40
0.985
 50
180.0
 51
270.0
  0
LINE
  8
LC-001-002-----0
 62
     1
  5
6D
 10
584.791264
 20
405.151025
 30
0.0
 11
584.791264
 21
401.30742
 31
0.0
  0
LINE
  8
LC-001-002-----0
 62
     1
  5
6E
 10
577.305264
 20
435.457445
 30
0.0
 11
577.305264
 21
418.416945
 31
0.0
  0
ARC
  8
LC-005-002-RND-0
 62
     1
  5
6F
 10
574.842764
 20
435.457445
 30
0.0
 40
2.4625
 50
0.0
 51
90.0
  0
ARC
  8
LC-005-002-RND-0
 62
     1
  5
70
 10
560.314014
 20
439.397445
 30
0.0
 40
1.4775
 50
90.0
 51
180.0
  0
ARC
  8
LC-005-002-RND-0
 62
     1
  5
71
 10
583.806264
 20
405.151025
 30
0.0
 40
0.985
 50
0.0
 51
75.0
  0
ARC
  8
LC-005-002-RND-0
 62
     1
  5
72
 10
583.806264
 20
411.15742
 30
0.0
 40
0.985
 50
285.0
 51
0.0
  0
LINE
  8
LC-001-002-----0
 62
     1
  5
73
 10
561.299014
 20
456.142445
 30
0.0
 11
561.299014
 21
440.874945
 31
0.0
  0
LINE
  8
LC-001-002-----0
 62
     1
  5
74
 10
560.314014
 20
437.919945
 30
0.0
 11
574.842764
 21
437.919945
 31
0.0
  0
LINE
  8
LC-001-002-----0
 62
     1
  5
75
 10
584.061201
 20
317.452462
 30
0.0
 11
678.760264
 21
317.452462
 31
0.0
  0
LINE
  8
LC-001-002-----0
 62
     1
  5
76
 10
584.791264
 20
391.45742
 30
0.0
 11
584.791264
 21
395.301025
 31
0.0
  0
LINE
  8
LC-001-002-----0
 62
     1
  5
77
 10
580.999014
 20
389.685473
 30
0.0
 11
584.061201
 21
390.505983
 31
0.0
  0
LINE
  8
LC-001-002-----0
 62
     1
  5
78
 10
580.999014
 20
387.222973
 30
0.0
 11
580.999014
 21
389.685473
 31
0.0
  0
LINE
  8
LC-001-002-----0
 62
     1
  5
79
 10
580.999014
 20
387.222973
 30
0.0
 11
584.061201
 21
386.402462
 31
0.0
  0
ARC
  8
LC-005-002-RND-0
 62
     1
  5
7A
 10
583.806264
 20
385.451025
 30
0.0
 40
0.985
 50
0.0
 51
75.0
  0
ARC
  8
LC-005-002-RND-0
 62
     1
  5
7B
 10
583.806264
 20
391.45742
 30
0.0
 40
0.985
 50
285.0
 51
0.0
  0
LINE
  8
LC-001-002-----0
 62
     1
  5
7C
 10
584.791264
 20
381.60742
 30
0.0
 11
584.791264
 21
385.451025
 31
0.0
  0
ARC
  8
LC-005-002-RND-0
 62
     1
  5
7D
 10
583.806264
 20
381.60742
 30
0.0
 40
0.985
 50
285.0
 51
0.0
  0
LINE
  8
LC-001-002-----0
 62
     1
  5
7E
 10
580.999014
 20
379.835473
 30
0.0
 11
584.061201
 21
380.655983
 31
0.0
  0
LINE
  8
LC-001-002-----0
 62
     1
  5
7F
 10
580.999014
 20
377.372973
 30
0.0
 11
580.999014
 21
379.835473
 31
0.0
  0
LINE
  8
LC-001-002-----0
 62
     1
  5
80
 10
580.999014
 20
409.385473
 30
0.0
 11
584.061201
 21
410.205983
 31
0.0
  0
LINE
  8
LC-001-002-----0
 62
     1
  5
81
 10
580.999014
 20
377.372973
 30
0.0
 11
584.061201
 21
376.552462
 31
0.0
  0
ARC
  8
LC-005-002-RND-0
 62
     1
  5
82
 10
583.806264
 20
401.30742
 30
0.0
 40
0.985
 50
285.0
 51
0.0
  0
ARC
  8
LC-005-002-RND-0
 62
     1
  5
83
 10
583.806264
 20
395.301025
 30
0.0
 40
0.985
 50
0.0
 51
75.0
  0
LINE
  8
LC-001-002-----0
 62
     1
  5
84
 10
580.999014
 20
406.922973
 30
0.0
 11
584.061201
 21
406.102462
 31
0.0
  0
ARC
  8
LC-005-002-RND-0
 62
     1
  5
85
 10
583.806264
 20
375.601025
 30
0.0
 40
0.985
 50
0.0
 51
75.0
  0
LINE
  8
LC-001-002-----0
 62
     1
  5
86
 10
580.999014
 20
399.535473
 30
0.0
 11
584.061201
 21
400.355983
 31
0.0
  0
LINE
  8
LC-001-002-----0
 62
     1
  5
87
 10
580.999014
 20
397.072973
 30
0.0
 11
584.061201
 21
396.252462
 31
0.0
  0
LINE
  8
LC-001-002-----0
 62
     1
  5
88
 10
584.791264
 20
371.75742
 30
0.0
 11
584.791264
 21
375.601025
 31
0.0
  0
ARC
  8
LC-005-002-RND-0
 62
     1
  5
89
 10
583.806264
 20
371.75742
 30
0.0
 40
0.985
 50
285.0
 51
0.0
  0
LINE
  8
LC-001-002-----0
 62
     1
  5
8A
 10
580.999014
 20
369.985473
 30
0.0
 11
584.061201
 21
370.805983
 31
0.0
  0
LINE
  8
LC-001-002-----0
 62
     1
  5
8B
 10
580.999014
 20
367.522973
 30
0.0
 11
580.999014
 21
369.985473
 31
0.0
  0
LINE
  8
LC-001-002-----0
 62
     1
  5
8C
 10
580.999014
 20
367.522973
 30
0.0
 11
584.061201
 21
366.702462
 31
0.0
  0
ARC
  8
LC-005-002-RND-0
 62
     1
  5
8D
 10
583.806264
 20
365.751025
 30
0.0
 40
0.985
 50
0.0
 51
75.0
  0
LINE
  8
LC-001-002-----0
 62
     1
  5
8E
 10
584.791264
 20
361.90742
 30
0.0
 11
584.791264
 21
365.751025
 31
0.0
  0
ARC
  8
LC-005-002-RND-0
 62
     1
  5
8F
 10
585.677764
 20
416.939445
 30
0.0
 40
1.97
 50
0.0
 51
90.0
  0
ARC
  8
LC-005-002-RND-0
 62
     1
  5
90
 10
583.806264
 20
361.90742
 30
0.0
 40
0.985
 50
285.0
 51
0.0
  0
LINE
  8
LC-001-002-----0
 62
     1
  5
91
 10
580.999014
 20
360.135473
 30
0.0
 11
584.061201
 21
360.955983
 31
0.0
  0
LINE
  8
LC-001-002-----0
 62
     1
  5
92
 10
580.999014
 20
360.135473
 30
0.0
 11
580.999014
 21
357.672973
 31
0.0
  0
LINE
  8
LC-001-002-----0
 62
     1
  5
93
 10
580.999014
 20
357.672973
 30
0.0
 11
584.061201
 21
356.852462
 31
0.0
  0
ARC
  8
LC-005-002-RND-0
 62
     1
  5
94
 10
583.806264
 20
355.901025
 30
0.0
 40
0.985
 50
0.0
 51
75.0
  0
LINE
  8
LC-001-002-----0
 62
     1
  5
95
 10
584.791264
 20
355.901025
 30
0.0
 11
584.791264
 21
352.05742
 31
0.0
  0
ARC
  8
LC-005-002-RND-0
 62
     1
  5
96
 10
583.806264
 20
352.05742
 30
0.0
 40
0.985
 50
285.0
 51
0.0
  0
LINE
  8
LC-001-002-----0
 62
     1
  5
97
 10
580.999014
 20
350.285473
 30
0.0
 11
584.061201
 21
351.105983
 31
0.0
  0
LINE
  8
LC-001-002-----0
 62
     1
  5
98
 10
580.999014
 20
350.285473
 30
0.0
 11
580.999014
 21
347.822973
 31
0.0
  0
LINE
  8
LC-001-002-----0
 62
     1
  5
99
 10
580.999014
 20
347.822973
 30
0.0
 11
584.061201
 21
347.002462
 31
0.0
  0
ARC
  8
LC-005-002-RND-0
 62
     1
  5
9A
 10
583.806264
 20
346.051025
 30
0.0
 40
0.985
 50
0.0
 51
75.0
  0
LINE
  8
LC-001-002-----0
 62
     1
  5
9B
 10
584.791264
 20
346.051025
 30
0.0
 11
584.791264
 21
342.20742
 31
0.0
  0
LINE
  8
LC-001-002-----0
 62
     1
  5
9C
 10
793.266514
 20
440.874945
 30
0.0
 11
778.491514
 21
440.874945
 31
0.0
  0
LINE
  8
LC-001-002-----0
 62
     1
  5
9D
 10
772.729264
 20
414.969445
 30
0.0
 11
772.729264
 21
411.15742
 31
0.0
  0
ARC
  8
LC-005-002-RND-0
 62
     1
  5
9E
 10
773.714264
 20
414.969445
 30
0.0
 40
0.985
 50
90.0
 51
180.0
  0
ARC
  8
LC-005-002-RND-0
 62
     1
  5
9F
 10
778.491514
 20
439.889945
 30
0.0
 40
0.985
 50
90.0
 51
180.0
  0
LINE
  8
LC-001-002-----0
 62
     1
  5
A0
 10
777.506514
 20
439.889945
 30
0.0
 11
777.506514
 21
419.894445
 31
0.0
  0
LINE
  8
LC-001-002-----0
 62
     1
  5
A1
 10
776.521514
 20
399.535473
 30
0.0
 11
776.521514
 21
397.072973
 31
0.0
  0
LINE
  8
LC-001-002-----0
 62
     1
  5
A2
 10
777.752764
 20
415.954445
 30
0.0
 11
773.714264
 21
415.954445
 31
0.0
  0
ARC
  8
LC-005-002-RND-0
 62
     1
  5
A3
 10
777.752764
 20
418.416945
 30
0.0
 40
2.4625
 50
270.0
 51
0.0
  0
ARC
  8
LC-005-002-RND-0
 62
     1
  5
A4
 10
776.521514
 20
419.894445
 30
0.0
 40
0.985
 50
270.0
 51
0.0
  0
LINE
  8
LC-001-002-----0
 62
     1
  5
A5
 10
772.729264
 20
405.151025
 30
0.0
 11
772.729264
 21
401.30742
 31
0.0
  0
LINE
  8
LC-001-002-----0
 62
     1
  5
A6
 10
780.215264
 20
435.457445
 30
0.0
 11
780.215264
 21
418.416945
 31
0.0
  0
ARC
  8
LC-005-002-RND-0
 62
     1
  5
A7
 10
782.677764
 20
435.457445
 30
0.0
 40
2.4625
 50
90.0
 51
180.0
  0
LINE
  8
LC-001-002-----0
 62
     1
  5
A8
 10
580.999014
 20
409.385473
 30
0.0
 11
580.999014
 21
406.922973
 31
0.0
  0
ARC
  8
LC-005-002-RND-0
 62
     1
  5
A9
 10
797.206514
 20
439.397445
 30
0.0
 40
1.4775
 50
0.0
 51
90.0
  0
ARC
  8
LC-005-002-RND-0
 62
     1
  5
AA
 10
773.714264
 20
405.151025
 30
0.0
 40
0.985
 50
105.0
 51
180.0
  0
ARC
  8
LC-005-002-RND-0
 62
     1
  5
AB
 10
773.714264
 20
411.15742
 30
0.0
 40
0.985
 50
180.0
 51
255.0
  0
LINE
  8
LC-001-002-----0
 62
     1
  5
AC
 10
796.221514
 20
456.142445
 30
0.0
 11
796.221514
 21
440.874945
 31
0.0
  0
LINE
  8
LC-001-002-----0
 62
     1
  5
AD
 10
797.206514
 20
437.919945
 30
0.0
 11
782.677764
 21
437.919945
 31
0.0
  0
LINE
  8
LC-001-002-----0
 62
     1
  5
AE
 10
773.459327
 20
317.452462
 30
0.0
 11
678.760264
 21
317.452462
 31
0.0
  0
LINE
  8
LC-001-002-----0
 62
     1
  5
AF
 10
772.729264
 20
391.45742
 30
0.0
 11
772.729264
 21
395.301025
 31
0.0
  0
LINE
  8
LC-001-002-----0
 62
     1
  5
B0
 10
776.521514
 20
389.685473
 30
0.0
 11
773.459327
 21
390.505983
 31
0.0
  0
LINE
  8
LC-001-002-----0
 62
     1
  5
B1
 10
776.521514
 20
387.222973
 30
0.0
 11
776.521514
 21
389.685473
 31
0.0
  0
LINE
  8
LC-001-002-----0
 62
     1
  5
B2
 10
776.521514
 20
387.222973
 30
0.0
 11
773.459327
 21
386.402462
 31
0.0
  0
ARC
  8
LC-005-002-RND-0
 62
     1
  5
B3
 10
773.714264
 20
385.451025
 30
0.0
 40
0.985
 50
105.0
 51
180.0
  0
ARC
  8
LC-005-002-RND-0
 62
     1
  5
B4
 10
773.714264
 20
391.45742
 30
0.0
 40
0.985
 50
180.0
 51
255.0
  0
LINE
  8
LC-001-002-----0
 62
     1
  5
B5
 10
772.729264
 20
381.60742
 30
0.0
 11
772.729264
 21
385.451025
 31
0.0
  0
ARC
  8
LC-005-002-RND-0
 62
     1
  5
B6
 10
773.714264
 20
381.60742
 30
0.0
 40
0.985
 50
180.0
 51
255.0
  0
LINE
  8
LC-001-002-----0
 62
     1
  5
B7
 10
776.521514
 20
379.835473
 30
0.0
 11
773.459327
 21
380.655983
 31
0.0
  0
LINE
  8
LC-001-002-----0
 62
     1
  5
B8
 10
776.521514
 20
377.372973
 30
0.0
 11
776.521514
 21
379.835473
 31
0.0
  0
LINE
  8
LC-001-002-----0
 62
     1
  5
B9
 10
776.521514
 20
409.385473
 30
0.0
 11
773.459327
 21
410.205983
 31
0.0
  0
LINE
  8
LC-001-002-----0
 62
     1
  5
BA
 10
776.521514
 20
377.372973
 30
0.0
 11
773.459327
 21
376.552462
 31
0.0
  0
ARC
  8
LC-005-002-RND-0
 62
     1
  5
BB
 10
773.714264
 20
401.30742
 30
0.0
 40
0.985
 50
180.0
 51
255.0
  0
ARC
  8
LC-005-002-RND-0
 62
     1
  5
BC
 10
773.714264
 20
395.301025
 30
0.0
 40
0.985
 50
105.0
 51
180.0
  0
LINE
  8
LC-001-002-----0
 62
     1
  5
BD
 10
776.521514
 20
406.922973
 30
0.0
 11
773.459327
 21
406.102462
 31
0.0
  0
ARC
  8
LC-005-002-RND-0
 62
     1
  5
BE
 10
773.714264
 20
375.601025
 30
0.0
 40
0.985
 50
105.0
 51
180.0
  0
LINE
  8
LC-001-002-----0
 62
     1
  5
BF
 10
776.521514
 20
399.535473
 30
0.0
 11
773.459327
 21
400.355983
 31
0.0
  0
LINE
  8
LC-001-002-----0
 62
     1
  5
C0
 10
776.521514
 20
397.072973
 30
0.0
 11
773.459327
 21
396.252462
 31
0.0
  0
LINE
  8
LC-001-002-----0
 62
     1
  5
C1
 10
772.729264
 20
371.75742
 30
0.0
 11
772.729264
 21
375.601025
 31
0.0
  0
ARC
  8
LC-005-002-RND-0
 62
     1
  5
C2
 10
773.714264
 20
371.75742
 30
0.0
 40
0.985
 50
180.0
 51
255.0
  0
LINE
  8
LC-001-002-----0
 62
     1
  5
C3
 10
776.521514
 20
369.985473
 30
0.0
 11
773.459327
 21
370.805983
 31
0.0
  0
LINE
  8
LC-001-002-----0
 62
     1
  5
C4
 10
776.521514
 20
367.522973
 30
0.0
 11
776.521514
 21
369.985473
 31
0.0
  0
LINE
  8
LC-001-002-----0
 62
     1
  5
C5
 10
776.521514
 20
367.522973
 30
0.0
 11
773.459327
 21
366.702462
 31
0.0
  0
LINE
  8
LC-001-002-----0
 62
     1
  5
C6
 10
769.872764
 20
416.939445
 30
0.0
 11
769.872764
 21
317.452462
 31
0.0
  0
ARC
  8
LC-005-002-RND-0
 62
     1
  5
C7
 10
773.714264
 20
365.751025
 30
0.0
 40
0.985
 50
105.0
 51
180.0
  0
LINE
  8
LC-001-002-----0
 62
     1
  5
C8
 10
772.729264
 20
361.90742
 30
0.0
 11
772.729264
 21
365.751025
 31
0.0
  0
ARC
  8
LC-005-002-RND-0
 62
     1
  5
C9
 10
771.842764
 20
416.939445
 30
0.0
 40
1.97
 50
90.0
 51
180.0
  0
ARC
  8
LC-005-002-RND-0
 62
     1
  5
CA
 10
773.714264
 20
361.90742
 30
0.0
 40
0.985
 50
180.0
 51
255.0
  0
LINE
  8
LC-001-002-----0
 62
     1
  5
CB
 10
776.521514
 20
360.135473
 30
0.0
 11
773.459327
 21
360.955983
 31
0.0
  0
LINE
  8
LC-001-002-----0
 62
     1
  5
CC
 10
776.521514
 20
360.135473
 30
0.0
 11
776.521514
 21
357.672973
 31
0.0
  0
LINE
  8
LC-001-002-----0
 62
     1
  5
CD
 10
776.521514
 20
357.672973
 30
0.0
 11
773.459327
 21
356.852462
 31
0.0
  0
ARC
  8
LC-005-002-RND-0
 62
     1
  5
CE
 10
773.714264
 20
355.901025
 30
0.0
 40
0.985
 50
105.0
 51
180.0
  0
LINE
  8
LC-001-002-----0
 62
     1
  5
CF
 10
772.729264
 20
355.901025
 30
0.0
 11
772.729264
 21
352.05742
 31
0.0
  0
ARC
  8
LC-005-002-RND-0
 62
     1
  5
D0
 10
773.714264
 20
352.05742
 30
0.0
 40
0.985
 50
180.0
 51
255.0
  0
LINE
  8
LC-001-002-----0
 62
     1
  5
D1
 10
564.254014
 20
458.604945
 30
0.0
 11
564.254014
 21
440.874945
 31
0.0
  0
LINE
  8
LC-001-002-----0
 62
     1
  5
D2
 10
558.836514
 20
458.604945
 30
0.0
 11
558.836514
 21
457.619945
 31
0.0
  0
ARC
  8
LC-005-002-RND-0
 62
     1
  5
D3
 10
560.806514
 20
458.604945
 30
0.0
 40
1.97
 50
90.0
 51
180.0
  0
LINE
  8
LC-001-002-----0
 62
     1
  5
D4
 10
776.521514
 20
350.285473
 30
0.0
 11
773.459327
 21
351.105983
 31
0.0
  0
LINE
  8
LC-001-002-----0
 62
     1
  5
D5
 10
776.521514
 20
350.285473
 30
0.0
 11
776.521514
 21
347.822973
 31
0.0
  0
LINE
  8
LC-001-002-----0
 62
     1
  5
D6
 10
776.521514
 20
347.822973
 30
0.0
 11
773.459327
 21
347.002462
 31
0.0
  0
ARC
  8
LC-005-002-RND-0
 62
     1
  5
D7
 10
773.714264
 20
346.051025
 30
0.0
 40
0.985
 50
105.0
 51
180.0
  0
LINE
  8
LC-001-002-----0
 62
     1
  5
D8
 10
772.729264
 20
346.051025
 30
0.0
 11
772.729264
 21
342.20742
 31
0.0
  0
LINE
  8
LC-001-002-----0
 62
     1
  5
D9
 10
776.521514
 20
409.385473
 30
0.0
 11
776.521514
 21
406.922973
 31
0.0
  0
LINE
  8
LC-001-002-----0
 62
     1
  5
DA
 10
793.266514
 20
458.604945
 30
0.0
 11
793.266514
 21
440.874945
 31
0.0
  0
LINE
  8
LC-001-002-----0
 62
     1
  5
DB
 10
798.684014
 20
458.604945
 30
0.0
 11
798.684014
 21
457.619945
 31
0.0
  0
ARC
  8
LC-005-002-RND-0
 62
     1
  5
DC
 10
796.714014
 20
458.604945
 30
0.0
 40
1.97
 50
0.0
 51
90.0
  0
LINE
  8
LC-001-002-----0
 62
     1
  5
DD
 10
776.521514
 20
340.435473
 30
0.0
 11
773.459327
 21
341.255983
 31
0.0
  0
LINE
  8
LC-001-002-----0
 62
     1
  5
DE
 10
776.521514
 20
418.909445
 30
0.0
 11
771.842764
 21
418.909445
 31
0.0
  0
ARC
  8
LC-005-002-RND-0
 62
     1
  5
DF
 10
795.236514
 20
458.604945
 30
0.0
 40
1.97
 50
90.0
 51
180.0
  0
LINE
  8
LC-001-002-----0
 62
     1
  5
E0
 10
580.999014
 20
340.435473
 30
0.0
 11
584.061201
 21
341.255983
 31
0.0
  0
LINE
  8
LC-001-002-----0
 62
     1
  5
E1
 10
796.714014
 20
460.574945
 30
0.0
 11
795.236514
 21
460.574945
 31
0.0
  0
ARC
  8
LC-005-002-RND-0
 62
     1
  5
E2
 10
797.699014
 20
456.142445
 30
0.0
 40
1.4775
 50
90.0
 51
180.0
  0
LINE
  8
LC-001-002-----0
 62
     1
  5
E3
 10
776.521514
 20
337.972973
 30
0.0
 11
776.521514
 21
340.435473
 31
0.0
  0
LINE
  8
LC-001-002-----0
 62
     1
  5
E4
 10
580.999014
 20
418.909445
 30
0.0
 11
585.677764
 21
418.909445
 31
0.0
  0
ARC
  8
LC-005-002-RND-0
 62
     1
  5
E5
 10
797.206514
 20
439.397445
 30
0.0
 40
1.4775
 50
270.0
 51
0.0
  0
ARC
  8
LC-005-002-RND-0
 62
     1
  5
E6
 10
562.284014
 20
458.604945
 30
0.0
 40
1.97
 50
0.0
 51
90.0
  0
LINE
  8
LC-001-002-----0
 62
     1
  5
E7
 10
560.806514
 20
460.574945
 30
0.0
 11
562.284014
 21
460.574945
 31
0.0
  0
ARC
  8
LC-005-002-RND-0
 62
     1
  5
E8
 10
559.821514
 20
456.142445
 30
0.0
 40
1.4775
 50
0.0
 51
90.0
  0
LINE
  8
LC-001-002-----0
 62
     1
  5
E9
 10
580.999014
 20
337.972973
 30
0.0
 11
580.999014
 21
340.435473
 31
0.0
  0
ARC
  8
LC-005-002-RND-0
 62
     1
  5
EA
 10
560.314014
 20
439.397445
 30
0.0
 40
1.4775
 50
180.0
 51
270.0
  0
LINE
  8
LC-001-002-----0
 62
     1
  5
EB
 10
580.999014
 20
337.972973
 30
0.0
 11
584.061201
 21
337.152462
 31
0.0
  0
ARC
  8
LC-005-002-RND-0
 62
     1
  5
EC
 10
583.806264
 20
336.201025
 30
0.0
 40
0.985
 50
0.0
 51
75.0
  0
LINE
  8
LC-001-002-----0
 62
     1
  5
ED
 10
560.314014
 20
440.874945
 30
0.0
 11
561.299014
 21
440.874945
 31
0.0
  0
LINE
  8
LC-001-002-----0
 62
     1
  5
EE
 10
558.836514
 20
457.619945
 30
0.0
 11
559.821514
 21
457.619945
 31
0.0
  0
LINE
  8
LC-001-002-----0
 62
     1
  5
EF
 10
584.791264
 20
332.35742
 30
0.0
 11
584.791264
 21
336.201025
 31
0.0
  0
ARC
  8
LC-005-002-RND-0
 62
     1
  5
F0
 10
583.806264
 20
342.20742
 30
0.0
 40
0.985
 50
285.0
 51
0.0
  0
LINE
  8
LC-001-002-----0
 62
     1
  5
F1
 10
580.999014
 20
330.585473
 30
0.0
 11
584.061201
 21
331.405983
 31
0.0
  0
LINE
  8
LC-001-002-----0
 62
     1
  5
F2
 10
580.999014
 20
328.122973
 30
0.0
 11
580.999014
 21
330.585473
 31
0.0
  0
LINE
  8
LC-001-002-----0
 62
     1
  5
F3
 10
584.791264
 20
322.50742
 30
0.0
 11
584.791264
 21
326.351025
 31
0.0
  0
ARC
  8
LC-005-002-RND-0
 62
     1
  5
F4
 10
583.806264
 20
326.351025
 30
0.0
 40
0.985
 50
0.0
 51
75.0
  0
ARC
  8
LC-005-002-RND-0
 62
     1
  5
F5
 10
583.806264
 20
326.351025
 30
0.0
 40
0.985
 50
0.0
 51
75.0
  0
ARC
  8
LC-005-002-RND-0
 62
     1
  5
F6
 10
583.806264
 20
332.35742
 30
0.0
 40
0.985
 50
285.0
 51
0.0
  0
LINE
  8
LC-001-002-----0
 62
     1
  5
F7
 10
776.521514
 20
337.972973
 30
0.0
 11
773.459327
 21
337.152462
 31
0.0
  0
ARC
  8
LC-005-002-RND-0
 62
     1
  5
F8
 10
583.806264
 20
322.50742
 30
0.0
 40
0.985
 50
285.0
 51
0.0
  0
LINE
  8
LC-001-002-----0
 62
     1
  5
F9
 10
580.999014
 20
320.735473
 30
0.0
 11
580.999014
 21
318.272973
 31
0.0
  0
LINE
  8
LC-001-002-----0
 62
     1
  5
FA
 10
580.999014
 20
318.272973
 30
0.0
 11
584.061201
 21
317.452462
 31
0.0
  0
LINE
  8
LC-001-002-----0
 62
     1
  5
FB
 10
797.206514
 20
440.874945
 30
0.0
 11
796.221514
 21
440.874945
 31
0.0
  0
ARC
  8
LC-005-002-RND-0
 62
     1
  5
FC
 10
773.714264
 20
336.201025
 30
0.0
 40
0.985
 50
105.0
 51
180.0
  0
LINE
  8
LC-001-002-----0
 62
     1
  5
FD
 10
798.684014
 20
457.619945
 30
0.0
 11
797.699014
 21
457.619945
 31
0.0
  0
LINE
  8
LC-001-002-----0
 62
     1
  5
FE
 10
772.729264
 20
332.35742
 30
0.0
 11
772.729264
 21
336.201025
 31
0.0
  0
LINE
  8
LC-001-002-----0
 62
     1
  5
FF
 10
776.521514
 20
330.585473
 30
0.0
 11
773.459327
 21
331.405983
 31
0.0
  0
ARC
  8
LC-005-002-RND-0
 62
     1
  5
100
 10
773.714264
 20
342.20742
 30
0.0
 40
0.985
 50
180.0
 51
255.0
  0
LINE
  8
LC-001-002-----0
 62
     1
  5
101
 10
776.521514
 20
328.122973
 30
0.0
 11
776.521514
 21
330.585473
 31
0.0
  0
LINE
  8
LC-001-002-----0
 62
     1
  5
102
 10
776.521514
 20
328.122973
 30
0.0
 11
773.459327
 21
327.302462
 31
0.0
  0
LINE
  8
LC-001-002-----0
 62
     1
  5
103
 10
776.521514
 20
320.735473
 30
0.0
 11
773.459327
 21
321.555983
 31
0.0
  0
ARC
  8
LC-005-002-RND-0
 62
     1
  5
104
 10
773.714264
 20
326.351025
 30
0.0
 40
0.985
 50
105.0
 51
180.0
  0
LINE
  8
LC-001-002-----0
 62
     1
  5
105
 10
776.521514
 20
320.735473
 30
0.0
 11
776.521514
 21
318.272973
 31
0.0
  0
ARC
  8
LC-005-002-RND-0
 62
     1
  5
106
 10
773.714264
 20
326.351025
 30
0.0
 40
0.985
 50
105.0
 51
180.0
  0
ARC
  8
LC-005-002-RND-0
 62
     1
  5
107
 10
773.714264
 20
332.35742
 30
0.0
 40
0.985
 50
180.0
 51
255.0
  0
ARC
  8
LC-005-002-RND-0
 62
     1
  5
108
 10
773.714264
 20
322.50742
 30
0.0
 40
0.985
 50
180.0
 51
255.0
  0
LINE
  8
LC-001-002-----0
 62
     1
  5
109
 10
579.029014
 20
440.874945
 30
0.0
 11
778.473045
 21
440.874945
 31
0.0
  0
INSERT
  8
LC-006-005-----0
 62
     2
  5
13A
  2
*X2
 10
558.344014
 20
317.452462
 30
0.0
  0
LINE
  8
LC-001-002-----0
 62
     1
  5
13B
 10
776.521514
 20
318.272973
 30
0.0
 11
773.459327
 21
317.452462
 31
0.0
  0
INSERT
  8
LC-006-005-----0
 62
     2
  5
16D
  2
*X3
 10
769.872764
 20
317.452462
 30
0.0
  0
ARC
  8
LC-005-002-RND-0
 62
     1
  5
16E
 10
583.806264
 20
326.351025
 30
0.0
 40
0.985
 50
0.0
 51
75.0
  0
LINE
  8
LC-001-002-----0
  6
DASHDOT
 62
     2
  5
170
 10
678.760264
 20
460.574945
 30
0.0
 11
678.760264
 21
317.452462
 31
0.0
  0
LINE
  8
LC-001-002-----0
 62
     1
  5
171
 10
587.647764
 20
416.939445
 30
0.0
 11
587.647764
 21
317.452462
 31
0.0
  0
LINE
  8
LC-001-002-----0
 62
     1
  5
172
 10
584.061201
 20
327.302462
 30
0.0
 11
580.999014
 21
328.122973
 31
0.0
  0
LINE
  8
LC-001-002-----0
 62
     1
  5
173
 10
580.999014
 20
320.735473
 30
0.0
 11
584.061201
 21
321.555983
 31
0.0
  0
LINE
  8
LC-001-002-----0
 62
     1
  5
174
 10
772.729264
 20
322.50742
 30
0.0
 11
772.729264
 21
326.351025
 31
0.0
  0
DIMENSION
  8
LC-004-003-----0
 62
     2
  5
18E
  2
*D4
 10
548.8
 20
425.478
 30
0.0
 11
548.8
 21
425.478
 31
0.0
  1
24
 13
562.284014
 23
460.574945
 33
0.0
 14
560.314014
 24
437.919945
 34
0.0
 50
90.0
  3
LC-DIM-L-0140-02-02
  0
DIMENSION
  8
LC-004-003-----0
 62
     2
  5
1A8
  2
*D5
 10
678.760264
 20
274.4
 30
0.0
 11
678.760264
 21
274.4
 31
0.0
  1
%%c195
 13
580.999014
 23
320.735473
 33
0.0
 14
776.521514
 24
320.735473
 34
0.0
  3
LC-DIM-L-0140-02-02
  0
CIRCLE
  8
LC-001-002-----0
 62
     1
  5
1A9
 10
582.541264
 20
324.329223
 30
0.0
 40
2.25
  0
INSERT
  8
LC-006-005-----0
 62
     2
  5
1AE
  2
*X6
 10
109.310104
 20
222.949208
 30
0.0
  0
CIRCLE
  8
LC-001-002-----0
 62
     1
  5
1AF
 10
774.979264
 20
324.329223
 30
0.0
 40
2.25
  0
INSERT
  8
LC-006-005-----0
 62
     2
  5
1B4
  2
*X7
 10
109.310104
 20
222.949208
 30
0.0
  0
ENDSEC
  0
EOF
