  0
SECTION
  2
HEADER
  9
$ACADVER
  1
AC1009
  9
$INSBASE
 10
0.0
 20
0.0
 30
0.0
  9
$EXTMIN
 10
0.0
 20
0.0
 30
0.0
  9
$EXTMAX
 10
840.0
 20
594.0
 30
0.0
  9
$LIMMIN
 10
0.0
 20
0.0
  9
$LIMMAX
 10
840.0
 20
594.0
  9
$ORTHOMODE
 70
     0
  9
$REGENMODE
 70
     1
  9
$FILLMODE
 70
     1
  9
$QTEXTMODE
 70
     0
  9
$MIRRTEXT
 70
     1
  9
$DRAGMODE
 70
     2
  9
$LTSCALE
 40
2.0
  9
$OSMODE
 70
     0
  9
$ATTMODE
 70
     1
  9
$TEXTSIZE
 40
0.2
  9
$TRACEWID
 40
0.05
  9
$TEXTSTYLE
  7
STANDARD
  9
$CLAYER
  8
0
  9
$CELTYPE
  6
BYLAYER
  9
$CECOLOR
 62
     7
  9
$DIMSCALE
 40
2.0
  9
$DIMASZ
 40
3.5
  9
$DIMEXO
 40
0.0625
  9
$DIMDLI
 40
0.38
  9
$DIMRND
 40
0.0
  9
$DIMDLE
 40
0.0
  9
$DIMEXE
 40
0.18
  9
$DIMTP
 40
0.0
  9
$DIMTM
 40
0.0
  9
$DIMTXT
 40
3.5
  9
$DIMCEN
 40
0.09
  9
$DIMTSZ
 40
0.0
  9
$DIMTOL
 70
     0
  9
$DIMLIM
 70
     0
  9
$DIMTIH
 70
     1
  9
$DIMTOH
 70
     1
  9
$DIMSE1
 70
     0
  9
$DIMSE2
 70
     0
  9
$DIMTAD
 70
     1
  9
$DIMZIN
 70
     0
  9
$DIMBLK
  1

  9
$DIMASO
 70
     1
  9
$DIMSHO
 70
     1
  9
$DIMPOST
  1

  9
$DIMAPOST
  1

  9
$DIMALT
 70
     0
  9
$DIMALTD
 70
     2
  9
$DIMALTF
 40
25.4
  9
$DIMLFAC
 40
1.0
  9
$DIMTOFL
 70
     0
  9
$DIMTVP
 40
0.0
  9
$DIMTIX
 70
     0
  9
$DIMSOXD
 70
     0
  9
$DIMSAH
 70
     0
  9
$DIMBLK1
  1

  9
$DIMBLK2
  1

  9
$DIMSTYLE
  2
STANDARD
  9
$DIMCLRD
 70
     0
  9
$DIMCLRE
 70
     0
  9
$DIMCLRT
 70
     0
  9
$DIMTFAC
 40
1.0
  9
$DIMGAP
 40
0.09
  9
$LUNITS
 70
     2
  9
$LUPREC
 70
     2
  9
$AXISMODE
 70
     0
  9
$AXISUNIT
 10
0.0
 20
0.0
  9
$SKETCHINC
 40
0.1
  9
$FILLETRAD
 40
0.0
  9
$AUNITS
 70
     0
  9
$AUPREC
 70
     0
  9
$MENU
  1
acad
  9
$ELEVATION
 40
0.0
  9
$PELEVATION
 40
0.0
  9
$THICKNESS
 40
0.0
  9
$LIMCHECK
 70
     0
  9
$BLIPMODE
 70
     1
  9
$CHAMFERA
 40
0.0
  9
$CHAMFERB
 40
0.0
  9
$SKPOLY
 70
     0
  9
$TDCREATE
 40
0.000000000
  9
$TDUPDATE
 40
0.000000000
  9
$TDINDWG
 40
0.0000000000
  9
$TDUSRTIMER
 40
0.0000000000
  9
$USRTIMER
 70
     1
  9
$ANGBASE
 50
0.0
  9
$ANGDIR
 70
     0
  9
$PDMODE
 70
     0
  9
$PDSIZE
 40
0.0
  9
$PLINEWID
 40
0.0
  9
$COORDS
 70
     0
  9
$SPLFRAME
 70
     0
  9
$SPLINETYPE
 70
     6
  9
$SPLINESEGS
 70
     8
  9
$ATTDIA
 70
     0
  9
$ATTREQ
 70
     1
  9
$HANDLING
 70
     1
  9
$HANDSEED
  5
4B7
  9
$SURFTAB1
 70
     6
  9
$SURFTAB2
 70
     6
  9
$SURFTYPE
 70
     6
  9
$SURFU
 70
     6
  9
$SURFV
 70
     6
  9
$UCSNAME
  2

  9
$UCSORG
 10
0.0
 20
0.0
 30
0.0
  9
$UCSXDIR
 10
1.0
 20
0.0
 30
0.0
  9
$UCSYDIR
 10
0.0
 20
1.0
 30
0.0
  9
$PUCSNAME
  2

  9
$PUCSORG
 10
0.0
 20
0.0
 30
0.0
  9
$PUCSXDIR
 10
1.0
 20
0.0
 30
0.0
  9
$PUCSYDIR
 10
0.0
 20
1.0
 30
0.0
  9
$USERI1
 70
     0
  9
$USERI2
 70
     0
  9
$USERI3
 70
     0
  9
$USERI4
 70
     0
  9
$USERI5
 70
     0
  9
$USERR1
 40
0.0
  9
$USERR2
 40
0.0
  9
$USERR3
 40
0.0
  9
$USERR4
 40
0.0
  9
$USERR5
 40
0.0
  9
$WORLDVIEW
 70
     1
  9
$SHADEDGE
 70
     3
  9
$SHADEDIF
 70
    70
  9
$TILEMODE
 70
     1
  9
$MAXACTVP
 70
    16
  9
$PINSBASE
 10
0.0
 20
0.0
 30
0.0
  9
$PLIMCHECK
 70
     0
  9
$PEXTMIN
 10
1.000000E+20
 20
1.000000E+20
 30
1.000000E+20
  9
$PEXTMAX
 10
-1.000000E+20
 20
-1.000000E+20
 30
-1.000000E+20
  9
$PLIMMIN
 10
0.0
 20
0.0
  9
$PLIMMAX
 10
840.0
 20
594.0
  9
$UNITMODE
 70
     0
  9
$VISRETAIN
 70
     0
  9
$PLINEGEN
 70
     1
  9
$PSLTSCALE
 70
     0
  9
$TREEDEPTH
 70
  3020
  9
$DWGCODEPAGE
  3
dos850
  0
ENDSEC
  0
SECTION
  2
TABLES
  0
TABLE
  2
VPORT
 70
     1
  0
VPORT
  2
*ACTIVE
 70
     0
 10
0.0
 20
0.0
 11
1.0
 21
1.0
 12
420.0
 22
297.0
 13
0.0
 23
0.0
 14
1.0
 24
1.0
 15
0.0
 25
0.0
 16
0.0
 26
0.0
 36
1.0
 17
0.0
 27
0.0
 37
0.0
 40
594.0
 41
1.604229
 42
50.0
 43
0.0
 44
0.0
 50
0.0
 51
0.0
 71
     0
 72
   100
 73
     1
 74
     1
 75
     0
 76
     0
 77
     0
 78
     0
  0
ENDTAB
  0
TABLE
  2
LTYPE
 70
     3
  0
LTYPE
  2
CONTINUOUS
 70
    64
  3
Solid line
 72
    65
 73
     0
 40
0.0
  0
LTYPE
  2
DASHED
 70
    64
  3
__ __ __ __ __
 72
    65
 73
     2
 40
6.25
 49
5.0
 49
-1.25
  0
LTYPE
  2
DASHDOT
 70
    64
  3
__ . __ . __ . __ . __
 72
    65
 73
     4
 40
7.5
 49
5.0
 49
-1.25
 49
0.0
 49
-1.25
  0
ENDTAB
  0
TABLE
  2
LAYER
 70
    12
  0
LAYER
  2
0
 70
     0
 62
     7
  6
CONTINUOUS
  0
LAYER
  2
LC-INFO-1-2-MM-A3-0
 70
     1
 62
    -1
  6
CONTINUOUS
  0
LAYER
  2
LC-003-005-----0
 70
     0
 62
     2
  6
CONTINUOUS
  0
LAYER
  2
LC-005-003-MTH-0
 70
     0
 62
     2
  6
CONTINUOUS
  0
LAYER
  2
LC-006-003-MTG-0
 70
     0
 62
     2
  6
CONTINUOUS
  0
LAYER
  2
LC-004-003-----0
 70
     0
 62
     2
  6
CONTINUOUS
  0
LAYER
  2
LC-007-000-----0
 70
     0
 62
     7
  6
CONTINUOUS
  0
LAYER
  2
LC-008-100-D02-0
 70
     0
 62
     7
  6
CONTINUOUS
  0
LAYER
  2
LC-001-002-----0
 70
     0
 62
     1
  6
CONTINUOUS
  0
LAYER
  2
LC-002-002-RND-0
 70
     0
 62
     1
  6
CONTINUOUS
  0
LAYER
  2
LC-009-100-D00-0
 70
     0
 62
     7
  6
CONTINUOUS
  0
LAYER
  2
LC-000
 70
     0
 62
     7
  6
CONTINUOUS
  0
ENDTAB
  0
TABLE
  2
STYLE
 70
     4
  0
STYLE
  2
STANDARD
 70
     0
 40
0.0
 41
1.0
 50
0.0
 71
     0
 42
0.0
  3
txt
  4

  0
STYLE
  2
LC-STANDARD
 70
    64
 40
0.0
 41
1.0
 50
0.0
 71
     0
 42
3.5
  3
MONOTXT
  4

  0
STYLE
  2
LC-TXTSTYLE-150-400-0-0-D2
 70
    64
 40
0.0
 41
1.0
 50
15.0
 71
     0
 42
3.5
  3
MONOTXT
  4

  0
STYLE
  2
LC-TXTSTYLE-150-400-0-0-D3
 70
    64
 40
0.0
 41
1.0
 50
15.0
 71
     0
 42
3.5
  3
LC-STANDARD
  4

  0
ENDTAB
  0
TABLE
  2
VIEW
 70
     0
  0
ENDTAB
  0
TABLE
  2
UCS
 70
     0
  0
ENDTAB
  0
TABLE
  2
APPID
 70
     1
  0
APPID
  2
ACAD
 70
     0
  0
ENDTAB
  0
TABLE
  2
DIMSTYLE
 70
     3
  0
DIMSTYLE
  2
STANDARD
 70
     0
  3

  4

  5

  6

  7

 40
1.0
 41
0.18
 42
0.0625
 43
0.38
 44
0.18
 45
0.0
 46
0.0
 47
0.0
 48
0.0
 71
     0
 72
     0
 73
     1
 74
     1
 75
     0
 76
     0
 77
     0
 78
     0
140
0.18
141
0.09
142
0.0
143
25.4
144
1.0
145
0.0
146
1.0
147
0.09
170
     0
171
     2
172
     0
173
     0
174
     0
175
     0
176
     0
177
     0
178
     0
  0
DIMSTYLE
  2
LC-STANDARD
 70
     0
  3

  4

  5

  6

  7

 40
1.0
 41
3.5
 42
0.0
 43
7.5
 44
1.8
 45
0.0
 46
0.0
 47
0.0
 48
0.0
 71
     0
 72
     0
 73
     0
 74
     0
 75
     0
 76
     0
 77
     1
 78
     8
140
3.5
141
0.0
142
0.0
143
25.4
144
1.0
145
0.0
146
0.71
147
1.5
170
     0
171
     2
172
     1
173
     0
174
     0
175
     0
176
     0
177
     0
178
     3
  0
DIMSTYLE
  2
LC-DIM-L-0090-02-02
 70
     0
  3

  4

  5

  6

  7

 40
2.0
 41
3.5
 42
0.0
 43
7.5
 44
1.8
 45
0.0
 46
0.0
 47
0.0
 48
0.0
 71
     0
 72
     0
 73
     0
 74
     0
 75
     0
 76
     0
 77
     1
 78
     8
140
9.0
141
0.0
142
0.0
143
25.4
144
1.0
145
0.0
146
0.71
147
1.5
170
     0
171
     2
172
     0
173
     0
174
     0
175
     0
176
     2
177
     2
178
     6
  0
ENDTAB
  0
ENDSEC
  0
SECTION
  2
BLOCKS
  0
BLOCK
  8
0
  5
23
  2
*X0
 70
    65
 10
475.280732
 20
360.19695
 30
0.0
  3
*X0
  0
LINE
  8
LC-003-005-----0
  6
CONTINUOUS
  5
25
 10
477.989208
 20
360.32664
 30
0.0
 11
479.151042
 21
361.488474
 31
0.0
  0
LINE
  8
LC-003-005-----0
  6
CONTINUOUS
  5
26
 10
477.602774
 20
360.223048
 30
0.0
 11
479.254634
 21
361.874908
 31
0.0
  0
LINE
  8
LC-003-005-----0
  6
CONTINUOUS
  5
27
 10
477.293877
 20
360.196994
 30
0.0
 11
479.280689
 21
362.183806
 31
0.0
  0
LINE
  8
LC-003-005-----0
  6
CONTINUOUS
  5
28
 10
477.051424
 20
360.237384
 30
0.0
 11
479.280732
 21
362.466691
 31
0.0
  0
LINE
  8
LC-003-005-----0
  6
CONTINUOUS
  5
29
 10
476.810978
 20
360.279781
 30
0.0
 11
479.280732
 21
362.749534
 31
0.0
  0
LINE
  8
LC-003-005-----0
  6
CONTINUOUS
  5
2A
 10
476.574243
 20
360.325888
 30
0.0
 11
479.280732
 21
363.032377
 31
0.0
  0
LINE
  8
LC-003-005-----0
  6
CONTINUOUS
  5
2B
 10
476.377857
 20
360.412345
 30
0.0
 11
479.280732
 21
363.31522
 31
0.0
  0
LINE
  8
LC-003-005-----0
  6
CONTINUOUS
  5
2C
 10
476.198028
 20
360.515358
 30
0.0
 11
479.280732
 21
363.598062
 31
0.0
  0
LINE
  8
LC-003-005-----0
  6
CONTINUOUS
  5
2D
 10
476.033397
 20
360.633571
 30
0.0
 11
479.280732
 21
363.880905
 31
0.0
  0
LINE
  8
LC-003-005-----0
  6
CONTINUOUS
  5
2E
 10
475.883217
 20
360.766233
 30
0.0
 11
479.265512
 21
364.148528
 31
0.0
  0
LINE
  8
LC-003-005-----0
  6
CONTINUOUS
  5
2F
 10
475.747217
 20
360.913076
 30
0.0
 11
479.221108
 21
364.386966
 31
0.0
  0
LINE
  8
LC-003-005-----0
  6
CONTINUOUS
  5
30
 10
475.625564
 20
361.074266
 30
0.0
 11
479.154048
 21
364.602749
 31
0.0
  0
LINE
  8
LC-003-005-----0
  6
CONTINUOUS
  5
31
 10
475.518886
 20
361.25043
 30
0.0
 11
479.068102
 21
364.799647
 31
0.0
  0
LINE
  8
LC-003-005-----0
  6
CONTINUOUS
  5
32
 10
475.42838
 20
361.442767
 30
0.0
 11
478.965549
 21
364.979936
 31
0.0
  0
LINE
  8
LC-003-005-----0
  6
CONTINUOUS
  5
33
 10
475.356045
 20
361.653275
 30
0.0
 11
478.847767
 21
365.144997
 31
0.0
  0
LINE
  8
LC-003-005-----0
  6
CONTINUOUS
  5
34
 10
475.305171
 20
361.885244
 30
0.0
 11
478.715521
 21
365.295593
 31
0.0
  0
LINE
  8
LC-003-005-----0
  6
CONTINUOUS
  5
35
 10
475.281424
 20
362.144339
 30
0.0
 11
478.569091
 21
365.432006
 31
0.0
  0
LINE
  8
LC-003-005-----0
  6
CONTINUOUS
  5
36
 10
475.280732
 20
362.426489
 30
0.0
 11
478.408327
 21
365.554084
 31
0.0
  0
LINE
  8
LC-003-005-----0
  6
CONTINUOUS
  5
37
 10
475.280732
 20
362.709332
 30
0.0
 11
478.232613
 21
365.661213
 31
0.0
  0
LINE
  8
LC-003-005-----0
  6
CONTINUOUS
  5
38
 10
475.280732
 20
362.992175
 30
0.0
 11
478.040772
 21
365.752215
 31
0.0
  0
LINE
  8
LC-003-005-----0
  6
CONTINUOUS
  5
39
 10
475.280732
 20
363.275018
 30
0.0
 11
477.830832
 21
365.825118
 31
0.0
  0
LINE
  8
LC-003-005-----0
  6
CONTINUOUS
  5
3A
 10
475.280732
 20
363.55786
 30
0.0
 11
477.599554
 21
365.876683
 31
0.0
  0
LINE
  8
LC-003-005-----0
  6
CONTINUOUS
  5
3B
 10
475.280732
 20
363.840703
 30
0.0
 11
477.341368
 21
365.901339
 31
0.0
  0
LINE
  8
LC-003-005-----0
  6
CONTINUOUS
  5
3C
 10
475.294605
 20
364.137419
 30
0.0
 11
477.012072
 21
365.854886
 31
0.0
  0
LINE
  8
LC-003-005-----0
  6
CONTINUOUS
  5
3D
 10
475.371146
 20
364.496803
 30
0.0
 11
476.66868
 21
365.794337
 31
0.0
  0
LINE
  8
LC-003-005-----0
  6
CONTINUOUS
  5
3E
 10
475.646008
 20
365.054507
 30
0.0
 11
476.128483
 21
365.536982
 31
0.0
  0
ENDBLK
  8
0
  5
3F
  0
BLOCK
  8
0
  5
41
  2
*D1
 70
    65
 10
0.0
 20
0.0
 30
0.0
  3
*D1
  0
LINE
  8
LC-005-003-MTH-0
  6
CONTINUOUS
  5
43
 10
263.280732
 20
430.515104
 30
0.0
 11
263.280732
 21
530.8
 31
0.0
  0
LINE
  8
LC-005-003-MTH-0
  6
CONTINUOUS
  5
44
 10
523.280732
 20
430.515104
 30
0.0
 11
523.280732
 21
530.8
 31
0.0
  0
LINE
  8
LC-006-003-MTG-0
  6
CONTINUOUS
  5
46
 10
263.280732
 20
520.0
 30
0.0
 11
523.280732
 21
520.0
 31
0.0
  0
LINE
  8
LC-004-003-----0
  6
CONTINUOUS
  5
48
 10
281.126739
 20
522.349471
 30
0.0
 11
263.280732
 21
520.0
 31
0.0
  0
LINE
  8
LC-004-003-----0
  6
CONTINUOUS
  5
49
 10
263.280732
 20
520.0
 30
0.0
 11
281.126739
 21
517.650529
 31
0.0
  0
LINE
  8
LC-004-003-----0
  6
CONTINUOUS
  5
4A
 10
281.126739
 20
517.650529
 30
0.0
 11
281.126739
 21
522.349471
 31
0.0
  0
LINE
  8
LC-004-003-----0
  6
CONTINUOUS
  5
4B
 10
281.166777
 20
521.738609
 30
0.0
 11
267.960732
 21
520.0
 31
0.0
  0
LINE
  8
LC-004-003-----0
  6
CONTINUOUS
  5
4C
 10
267.960732
 20
520.0
 30
0.0
 11
281.166777
 21
518.261391
 31
0.0
  0
LINE
  8
LC-004-003-----0
  6
CONTINUOUS
  5
4D
 10
281.206815
 20
521.127746
 30
0.0
 11
272.640732
 21
520.0
 31
0.0
  0
LINE
  8
LC-004-003-----0
  6
CONTINUOUS
  5
4E
 10
272.640732
 20
520.0
 30
0.0
 11
281.206815
 21
518.872254
 31
0.0
  0
LINE
  8
LC-004-003-----0
  6
CONTINUOUS
  5
4F
 10
281.246853
 20
520.516884
 30
0.0
 11
277.320732
 21
520.0
 31
0.0
  0
LINE
  8
LC-004-003-----0
  6
CONTINUOUS
  5
50
 10
277.320732
 20
520.0
 30
0.0
 11
281.246853
 21
519.483116
 31
0.0
  0
LINE
  8
LC-004-003-----0
  6
CONTINUOUS
  5
51
 10
505.434724
 20
517.650529
 30
0.0
 11
523.280732
 21
520.0
 31
0.0
  0
LINE
  8
LC-004-003-----0
  6
CONTINUOUS
  5
52
 10
523.280732
 20
520.0
 30
0.0
 11
505.434724
 21
522.349471
 31
0.0
  0
LINE
  8
LC-004-003-----0
  6
CONTINUOUS
  5
53
 10
505.434724
 20
522.349471
 30
0.0
 11
505.434724
 21
517.650529
 31
0.0
  0
LINE
  8
LC-004-003-----0
  6
CONTINUOUS
  5
54
 10
505.394686
 20
518.261391
 30
0.0
 11
518.600732
 21
520.0
 31
0.0
  0
LINE
  8
LC-004-003-----0
  6
CONTINUOUS
  5
55
 10
518.600732
 20
520.0
 30
0.0
 11
505.394686
 21
521.738609
 31
0.0
  0
LINE
  8
LC-004-003-----0
  6
CONTINUOUS
  5
56
 10
505.354648
 20
518.872254
 30
0.0
 11
513.920732
 21
520.0
 31
0.0
  0
LINE
  8
LC-004-003-----0
  6
CONTINUOUS
  5
57
 10
513.920732
 20
520.0
 30
0.0
 11
505.354648
 21
521.127746
 31
0.0
  0
LINE
  8
LC-004-003-----0
  6
CONTINUOUS
  5
58
 10
505.31461
 20
519.483116
 30
0.0
 11
509.240732
 21
520.0
 31
0.0
  0
LINE
  8
LC-004-003-----0
  6
CONTINUOUS
  5
59
 10
509.240732
 20
520.0
 30
0.0
 11
505.31461
 21
520.516884
 31
0.0
  0
TEXT
  8
LC-004-003-----0
  6
CONTINUOUS
 62
     6
  5
5B
 10
380.889945
 20
530.431999
 30
0.0
 40
18.0
  1
260
 41
0.9
 51
15.0
  7
LC-TXTSTYLE-150-400-0-0-D0
 72
     1
 11
400.023804
 21
530.431999
 31
0.0
  0
ENDBLK
  8
0
  5
5C
  0
BLOCK
  8
0
  5
5E
  2
*D2
 70
    65
 10
0.0
 20
0.0
 30
0.0
  3
*D2
  0
LINE
  8
LC-005-003-MTH-0
  6
CONTINUOUS
  5
5F
 10
310.160042
 20
242.049604
 30
0.0
 11
310.160042
 21
73.2
 31
0.0
  0
LINE
  8
LC-005-003-MTH-0
  6
CONTINUOUS
  5
60
 10
476.401421
 20
242.049604
 30
0.0
 11
476.401421
 21
73.2
 31
0.0
  0
LINE
  8
LC-006-003-MTG-0
  6
CONTINUOUS
  5
61
 10
310.160042
 20
84.0
 30
0.0
 11
476.401421
 21
84.0
 31
0.0
  0
LINE
  8
LC-004-003-----0
  6
CONTINUOUS
  5
62
 10
328.00605
 20
86.349471
 30
0.0
 11
310.160042
 21
84.0
 31
0.0
  0
LINE
  8
LC-004-003-----0
  6
CONTINUOUS
  5
63
 10
310.160042
 20
84.0
 30
0.0
 11
328.00605
 21
81.650529
 31
0.0
  0
LINE
  8
LC-004-003-----0
  6
CONTINUOUS
  5
64
 10
328.00605
 20
81.650529
 30
0.0
 11
328.00605
 21
86.349471
 31
0.0
  0
LINE
  8
LC-004-003-----0
  6
CONTINUOUS
  5
65
 10
328.046088
 20
85.738609
 30
0.0
 11
314.840042
 21
84.0
 31
0.0
  0
LINE
  8
LC-004-003-----0
  6
CONTINUOUS
  5
66
 10
314.840042
 20
84.0
 30
0.0
 11
328.046088
 21
82.261391
 31
0.0
  0
LINE
  8
LC-004-003-----0
  6
CONTINUOUS
  5
67
 10
328.086126
 20
85.127746
 30
0.0
 11
319.520042
 21
84.0
 31
0.0
  0
LINE
  8
LC-004-003-----0
  6
CONTINUOUS
  5
68
 10
319.520042
 20
84.0
 30
0.0
 11
328.086126
 21
82.872254
 31
0.0
  0
LINE
  8
LC-004-003-----0
  6
CONTINUOUS
  5
69
 10
328.126164
 20
84.516884
 30
0.0
 11
324.200042
 21
84.0
 31
0.0
  0
LINE
  8
LC-004-003-----0
  6
CONTINUOUS
  5
6A
 10
324.200042
 20
84.0
 30
0.0
 11
328.126164
 21
83.483116
 31
0.0
  0
LINE
  8
LC-004-003-----0
  6
CONTINUOUS
  5
6B
 10
458.555414
 20
81.650529
 30
0.0
 11
476.401421
 21
84.0
 31
0.0
  0
LINE
  8
LC-004-003-----0
  6
CONTINUOUS
  5
6C
 10
476.401421
 20
84.0
 30
0.0
 11
458.555414
 21
86.349471
 31
0.0
  0
LINE
  8
LC-004-003-----0
  6
CONTINUOUS
  5
6D
 10
458.555414
 20
86.349471
 30
0.0
 11
458.555414
 21
81.650529
 31
0.0
  0
LINE
  8
LC-004-003-----0
  6
CONTINUOUS
  5
6E
 10
458.515376
 20
82.261391
 30
0.0
 11
471.721421
 21
84.0
 31
0.0
  0
LINE
  8
LC-004-003-----0
  6
CONTINUOUS
  5
6F
 10
471.721421
 20
84.0
 30
0.0
 11
458.515376
 21
85.738609
 31
0.0
  0
LINE
  8
LC-004-003-----0
  6
CONTINUOUS
  5
70
 10
458.475338
 20
82.872254
 30
0.0
 11
467.041421
 21
84.0
 31
0.0
  0
LINE
  8
LC-004-003-----0
  6
CONTINUOUS
  5
71
 10
467.041421
 20
84.0
 30
0.0
 11
458.475338
 21
85.127746
 31
0.0
  0
LINE
  8
LC-004-003-----0
  6
CONTINUOUS
  5
72
 10
458.4353
 20
83.483116
 30
0.0
 11
462.361421
 21
84.0
 31
0.0
  0
LINE
  8
LC-004-003-----0
  6
CONTINUOUS
  5
73
 10
462.361421
 20
84.0
 30
0.0
 11
458.4353
 21
84.516884
 31
0.0
  0
TEXT
  8
LC-004-003-----0
  6
CONTINUOUS
 62
     6
  5
74
 10
371.584639
 20
94.431999
 30
0.0
 40
18.0
  1
Ø166
 51
15.0
  7
LC-TXTSTYLE-150-400-0-0-D0
 72
     1
 11
396.075977
 21
94.431999
 31
0.0
  0
ENDBLK
  8
0
  5
75
  0
BLOCK
  8
0
  5
77
  2
*X3
 70
    65
 10
291.825732
 20
174.049604
 30
0.0
  3
*X3
  0
LINE
  8
LC-003-005-----0
  6
CONTINUOUS
  5
78
 10
315.470961
 20
174.049604
 30
0.0
 11
317.280732
 21
175.859375
 31
0.0
  0
LINE
  8
LC-003-005-----0
  6
CONTINUOUS
  5
79
 10
314.096826
 20
175.503897
 30
0.0
 11
317.280732
 21
178.687803
 31
0.0
  0
LINE
  8
LC-003-005-----0
  6
CONTINUOUS
  5
7A
 10
313.499109
 20
177.734607
 30
0.0
 11
317.280732
 21
181.51623
 31
0.0
  0
LINE
  8
LC-003-005-----0
  6
CONTINUOUS
  5
7B
 10
313.280732
 20
180.344657
 30
0.0
 11
317.280732
 21
184.344657
 31
0.0
  0
LINE
  8
LC-003-005-----0
  6
CONTINUOUS
  5
7C
 10
313.280732
 20
183.173084
 30
0.0
 11
317.280732
 21
187.173084
 31
0.0
  0
LINE
  8
LC-003-005-----0
  6
CONTINUOUS
  5
7D
 10
313.280732
 20
186.001511
 30
0.0
 11
317.280732
 21
190.001511
 31
0.0
  0
LINE
  8
LC-003-005-----0
  6
CONTINUOUS
  5
7E
 10
313.280732
 20
188.829938
 30
0.0
 11
317.280732
 21
192.829938
 31
0.0
  0
LINE
  8
LC-003-005-----0
  6
CONTINUOUS
  5
7F
 10
313.280732
 20
191.658365
 30
0.0
 11
317.280732
 21
195.658365
 31
0.0
  0
LINE
  8
LC-003-005-----0
  6
CONTINUOUS
  5
80
 10
313.280732
 20
194.486792
 30
0.0
 11
317.280732
 21
198.486792
 31
0.0
  0
LINE
  8
LC-003-005-----0
  6
CONTINUOUS
  5
81
 10
313.280732
 20
197.31522
 30
0.0
 11
317.280732
 21
201.31522
 31
0.0
  0
LINE
  8
LC-003-005-----0
  6
CONTINUOUS
  5
82
 10
313.280732
 20
200.143647
 30
0.0
 11
317.280732
 21
204.143647
 31
0.0
  0
LINE
  8
LC-003-005-----0
  6
CONTINUOUS
  5
83
 10
313.280732
 20
202.972074
 30
0.0
 11
317.280732
 21
206.972074
 31
0.0
  0
LINE
  8
LC-003-005-----0
  6
CONTINUOUS
  5
84
 10
313.280732
 20
205.800501
 30
0.0
 11
317.280732
 21
209.800501
 31
0.0
  0
LINE
  8
LC-003-005-----0
  6
CONTINUOUS
  5
85
 10
313.280732
 20
208.628928
 30
0.0
 11
317.280732
 21
212.628928
 31
0.0
  0
LINE
  8
LC-003-005-----0
  6
CONTINUOUS
  5
86
 10
313.280732
 20
211.457355
 30
0.0
 11
317.280732
 21
215.457355
 31
0.0
  0
LINE
  8
LC-003-005-----0
  6
CONTINUOUS
  5
87
 10
313.280732
 20
214.285782
 30
0.0
 11
317.280732
 21
218.285782
 31
0.0
  0
LINE
  8
LC-003-005-----0
  6
CONTINUOUS
  5
88
 10
313.280732
 20
217.114209
 30
0.0
 11
317.280732
 21
221.114209
 31
0.0
  0
LINE
  8
LC-003-005-----0
  6
CONTINUOUS
  5
89
 10
313.280732
 20
219.942637
 30
0.0
 11
317.280732
 21
223.942637
 31
0.0
  0
LINE
  8
LC-003-005-----0
  6
CONTINUOUS
  5
8A
 10
313.280732
 20
222.771064
 30
0.0
 11
317.280732
 21
226.771064
 31
0.0
  0
LINE
  8
LC-003-005-----0
  6
CONTINUOUS
  5
8B
 10
313.280732
 20
225.599491
 30
0.0
 11
317.280732
 21
229.599491
 31
0.0
  0
LINE
  8
LC-003-005-----0
  6
CONTINUOUS
  5
8C
 10
313.280732
 20
228.427918
 30
0.0
 11
317.280732
 21
232.427918
 31
0.0
  0
LINE
  8
LC-003-005-----0
  6
CONTINUOUS
  5
8D
 10
313.280732
 20
231.256345
 30
0.0
 11
317.280732
 21
235.256345
 31
0.0
  0
LINE
  8
LC-003-005-----0
  6
CONTINUOUS
  5
8E
 10
313.280732
 20
234.084772
 30
0.0
 11
317.145828
 21
237.949868
 31
0.0
  0
LINE
  8
LC-003-005-----0
  6
CONTINUOUS
  5
8F
 10
312.985248
 20
236.617716
 30
0.0
 11
316.110552
 21
239.743019
 31
0.0
  0
LINE
  8
LC-003-005-----0
  6
CONTINUOUS
  5
90
 10
312.017488
 20
238.478383
 30
0.0
 11
315.075276
 21
241.53617
 31
0.0
  0
LINE
  8
LC-003-005-----0
  6
CONTINUOUS
  5
91
 10
311.049727
 20
240.339049
 30
0.0
 11
314.087243
 21
243.376565
 31
0.0
  0
LINE
  8
LC-003-005-----0
  6
CONTINUOUS
  5
92
 10
310.147056
 20
242.264805
 30
0.0
 11
313.926276
 21
246.044025
 31
0.0
  0
LINE
  8
LC-003-005-----0
  6
CONTINUOUS
  5
93
 10
309.986088
 20
244.932265
 30
0.0
 11
313.765308
 21
248.711485
 31
0.0
  0
LINE
  8
LC-003-005-----0
  6
CONTINUOUS
  5
94
 10
309.825121
 20
247.599724
 30
0.0
 11
313.604341
 21
251.378944
 31
0.0
  0
LINE
  8
LC-003-005-----0
  6
CONTINUOUS
  5
95
 10
309.664154
 20
250.267184
 30
0.0
 11
313.443374
 21
254.046404
 31
0.0
  0
LINE
  8
LC-003-005-----0
  6
CONTINUOUS
  5
96
 10
309.503186
 20
252.934644
 30
0.0
 11
313.282406
 21
256.713864
 31
0.0
  0
LINE
  8
LC-003-005-----0
  6
CONTINUOUS
  5
97
 10
309.342219
 20
255.602103
 30
0.0
 11
313.121439
 21
259.381323
 31
0.0
  0
LINE
  8
LC-003-005-----0
  6
CONTINUOUS
  5
98
 10
309.181251
 20
258.269563
 30
0.0
 11
312.960471
 21
262.048783
 31
0.0
  0
LINE
  8
LC-003-005-----0
  6
CONTINUOUS
  5
99
 10
309.020284
 20
260.937023
 30
0.0
 11
312.799504
 21
264.716243
 31
0.0
  0
LINE
  8
LC-003-005-----0
  6
CONTINUOUS
  5
9A
 10
308.859317
 20
263.604483
 30
0.0
 11
312.638537
 21
267.383703
 31
0.0
  0
LINE
  8
LC-003-005-----0
  6
CONTINUOUS
  5
9B
 10
308.698349
 20
266.271942
 30
0.0
 11
312.477569
 21
270.051162
 31
0.0
  0
LINE
  8
LC-003-005-----0
  6
CONTINUOUS
  5
9C
 10
308.537382
 20
268.939402
 30
0.0
 11
312.316602
 21
272.718622
 31
0.0
  0
LINE
  8
LC-003-005-----0
  6
CONTINUOUS
  5
9D
 10
308.376414
 20
271.606862
 30
0.0
 11
312.155634
 21
275.386082
 31
0.0
  0
LINE
  8
LC-003-005-----0
  6
CONTINUOUS
  5
9E
 10
308.215447
 20
274.274322
 30
0.0
 11
311.994667
 21
278.053542
 31
0.0
  0
LINE
  8
LC-003-005-----0
  6
CONTINUOUS
  5
9F
 10
308.05448
 20
276.941781
 30
0.0
 11
311.8337
 21
280.721001
 31
0.0
  0
LINE
  8
LC-003-005-----0
  6
CONTINUOUS
  5
A0
 10
307.893512
 20
279.609241
 30
0.0
 11
311.672732
 21
283.388461
 31
0.0
  0
LINE
  8
LC-003-005-----0
  6
CONTINUOUS
  5
A1
 10
307.732545
 20
282.276701
 30
0.0
 11
311.511765
 21
286.055921
 31
0.0
  0
LINE
  8
LC-003-005-----0
  6
CONTINUOUS
  5
A2
 10
307.571577
 20
284.94416
 30
0.0
 11
311.350797
 21
288.72338
 31
0.0
  0
LINE
  8
LC-003-005-----0
  6
CONTINUOUS
  5
A3
 10
307.41061
 20
287.61162
 30
0.0
 11
311.18983
 21
291.39084
 31
0.0
  0
LINE
  8
LC-003-005-----0
  6
CONTINUOUS
  5
A4
 10
307.249643
 20
290.27908
 30
0.0
 11
311.028863
 21
294.0583
 31
0.0
  0
LINE
  8
LC-003-005-----0
  6
CONTINUOUS
  5
A5
 10
307.088675
 20
292.94654
 30
0.0
 11
310.867895
 21
296.72576
 31
0.0
  0
LINE
  8
LC-003-005-----0
  6
CONTINUOUS
  5
A6
 10
306.927708
 20
295.613999
 30
0.0
 11
310.706928
 21
299.393219
 31
0.0
  0
LINE
  8
LC-003-005-----0
  6
CONTINUOUS
  5
A7
 10
306.76674
 20
298.281459
 30
0.0
 11
310.54596
 21
302.060679
 31
0.0
  0
LINE
  8
LC-003-005-----0
  6
CONTINUOUS
  5
A8
 10
306.605773
 20
300.948919
 30
0.0
 11
310.384993
 21
304.728139
 31
0.0
  0
LINE
  8
LC-003-005-----0
  6
CONTINUOUS
  5
A9
 10
306.444806
 20
303.616379
 30
0.0
 11
310.224026
 21
307.395599
 31
0.0
  0
LINE
  8
LC-003-005-----0
  6
CONTINUOUS
  5
AA
 10
306.283838
 20
306.283838
 30
0.0
 11
310.063058
 21
310.063058
 31
0.0
  0
LINE
  8
LC-003-005-----0
  6
CONTINUOUS
  5
AB
 10
306.122871
 20
308.951298
 30
0.0
 11
309.902091
 21
312.730518
 31
0.0
  0
LINE
  8
LC-003-005-----0
  6
CONTINUOUS
  5
AC
 10
305.961904
 20
311.618758
 30
0.0
 11
309.741124
 21
315.397978
 31
0.0
  0
LINE
  8
LC-003-005-----0
  6
CONTINUOUS
  5
AD
 10
305.800936
 20
314.286217
 30
0.0
 11
309.580156
 21
318.065437
 31
0.0
  0
LINE
  8
LC-003-005-----0
  6
CONTINUOUS
  5
AE
 10
305.639969
 20
316.953677
 30
0.0
 11
309.419189
 21
320.732897
 31
0.0
  0
LINE
  8
LC-003-005-----0
  6
CONTINUOUS
  5
AF
 10
305.479001
 20
319.621137
 30
0.0
 11
309.258221
 21
323.400357
 31
0.0
  0
LINE
  8
LC-003-005-----0
  6
CONTINUOUS
  5
B0
 10
305.318034
 20
322.288597
 30
0.0
 11
309.097254
 21
326.067817
 31
0.0
  0
LINE
  8
LC-003-005-----0
  6
CONTINUOUS
  5
B1
 10
305.157067
 20
324.956056
 30
0.0
 11
308.936287
 21
328.735276
 31
0.0
  0
LINE
  8
LC-003-005-----0
  6
CONTINUOUS
  5
B2
 10
304.996099
 20
327.623516
 30
0.0
 11
308.775319
 21
331.402736
 31
0.0
  0
LINE
  8
LC-003-005-----0
  6
CONTINUOUS
  5
B3
 10
304.835132
 20
330.290976
 30
0.0
 11
308.614352
 21
334.070196
 31
0.0
  0
LINE
  8
LC-003-005-----0
  6
CONTINUOUS
  5
B4
 10
304.674164
 20
332.958436
 30
0.0
 11
308.453384
 21
336.737656
 31
0.0
  0
LINE
  8
LC-003-005-----0
  6
CONTINUOUS
  5
B5
 10
304.513197
 20
335.625895
 30
0.0
 11
308.292417
 21
339.405115
 31
0.0
  0
LINE
  8
LC-003-005-----0
  6
CONTINUOUS
  5
B6
 10
304.35223
 20
338.293355
 30
0.0
 11
308.13145
 21
342.072575
 31
0.0
  0
LINE
  8
LC-003-005-----0
  6
CONTINUOUS
  5
B7
 10
304.191262
 20
340.960815
 30
0.0
 11
307.970482
 21
344.740035
 31
0.0
  0
LINE
  8
LC-003-005-----0
  6
CONTINUOUS
  5
B8
 10
304.030295
 20
343.628274
 30
0.0
 11
307.809515
 21
347.407494
 31
0.0
  0
LINE
  8
LC-003-005-----0
  6
CONTINUOUS
  5
B9
 10
303.869327
 20
346.295734
 30
0.0
 11
307.648547
 21
350.074954
 31
0.0
  0
LINE
  8
LC-003-005-----0
  6
CONTINUOUS
  5
BA
 10
303.70836
 20
348.963194
 30
0.0
 11
307.48758
 21
352.742414
 31
0.0
  0
LINE
  8
LC-003-005-----0
  6
CONTINUOUS
  5
BB
 10
303.547393
 20
351.630654
 30
0.0
 11
307.326613
 21
355.409874
 31
0.0
  0
LINE
  8
LC-003-005-----0
  6
CONTINUOUS
  5
BC
 10
303.386425
 20
354.298113
 30
0.0
 11
307.280732
 21
358.19242
 31
0.0
  0
LINE
  8
LC-003-005-----0
  6
CONTINUOUS
  5
BD
 10
303.280732
 20
357.020847
 30
0.0
 11
307.280732
 21
361.020847
 31
0.0
  0
LINE
  8
LC-003-005-----0
  6
CONTINUOUS
  5
BE
 10
303.280732
 20
359.849274
 30
0.0
 11
307.280732
 21
363.849274
 31
0.0
  0
LINE
  8
LC-003-005-----0
  6
CONTINUOUS
  5
BF
 10
303.280732
 20
362.677701
 30
0.0
 11
307.280732
 21
366.677701
 31
0.0
  0
LINE
  8
LC-003-005-----0
  6
CONTINUOUS
  5
C0
 10
303.280732
 20
365.506128
 30
0.0
 11
307.280732
 21
369.506128
 31
0.0
  0
LINE
  8
LC-003-005-----0
  6
CONTINUOUS
  5
C1
 10
301.442954
 20
366.496778
 30
0.0
 11
304.99578
 21
370.049604
 31
0.0
  0
LINE
  8
LC-003-005-----0
  6
CONTINUOUS
  5
C2
 10
299.95094
 20
367.833191
 30
0.0
 11
302.168232
 21
370.050483
 31
0.0
  0
LINE
  8
LC-003-005-----0
  6
CONTINUOUS
  5
C3
 10
299.281149
 20
369.991827
 30
0.0
 11
302.168232
 21
372.87891
 31
0.0
  0
LINE
  8
LC-003-005-----0
  6
CONTINUOUS
  5
C4
 10
299.280732
 20
372.819837
 30
0.0
 11
302.168232
 21
375.707337
 31
0.0
  0
LINE
  8
LC-003-005-----0
  6
CONTINUOUS
  5
C5
 10
299.280732
 20
375.648264
 30
0.0
 11
302.168232
 21
378.535764
 31
0.0
  0
LINE
  8
LC-003-005-----0
  6
CONTINUOUS
  5
C6
 10
299.280732
 20
378.476691
 30
0.0
 11
302.168232
 21
381.364191
 31
0.0
  0
LINE
  8
LC-003-005-----0
  6
CONTINUOUS
  5
C7
 10
299.280732
 20
381.305118
 30
0.0
 11
302.168232
 21
384.192618
 31
0.0
  0
LINE
  8
LC-003-005-----0
  6
CONTINUOUS
  5
C8
 10
299.280732
 20
384.133545
 30
0.0
 11
302.168232
 21
387.021045
 31
0.0
  0
LINE
  8
LC-003-005-----0
  6
CONTINUOUS
  5
C9
 10
299.280732
 20
386.961973
 30
0.0
 11
302.168232
 21
389.849473
 31
0.0
  0
LINE
  8
LC-003-005-----0
  6
CONTINUOUS
  5
CA
 10
299.280732
 20
389.7904
 30
0.0
 11
302.168232
 21
392.6779
 31
0.0
  0
LINE
  8
LC-003-005-----0
  6
CONTINUOUS
  5
CB
 10
299.280732
 20
392.618827
 30
0.0
 11
302.168232
 21
395.506327
 31
0.0
  0
LINE
  8
LC-003-005-----0
  6
CONTINUOUS
  5
CC
 10
299.280732
 20
395.447254
 30
0.0
 11
302.168232
 21
398.334754
 31
0.0
  0
LINE
  8
LC-003-005-----0
  6
CONTINUOUS
  5
CD
 10
299.295068
 20
398.290018
 30
0.0
 11
301.962054
 21
400.957004
 31
0.0
  0
LINE
  8
LC-003-005-----0
  6
CONTINUOUS
  5
CE
 10
297.271228
 20
399.094604
 30
0.0
 11
300.226032
 21
402.049408
 31
0.0
  0
LINE
  8
LC-003-005-----0
  6
CONTINUOUS
  5
CF
 10
294.442801
 20
399.094604
 30
0.0
 11
297.397801
 21
402.049604
 31
0.0
  0
LINE
  8
LC-003-005-----0
  6
CONTINUOUS
  5
D0
 10
292.444512
 20
399.924743
 30
0.0
 11
294.840646
 21
402.320877
 31
0.0
  0
LINE
  8
LC-003-005-----0
  6
CONTINUOUS
  5
D1
 10
291.825732
 20
402.13439
 30
0.0
 11
294.534482
 21
404.84314
 31
0.0
  0
LINE
  8
LC-003-005-----0
  6
CONTINUOUS
  5
D2
 10
291.825732
 20
404.962817
 30
0.0
 11
294.534482
 21
407.671567
 31
0.0
  0
LINE
  8
LC-003-005-----0
  6
CONTINUOUS
  5
D3
 10
291.825732
 20
407.791244
 30
0.0
 11
294.534482
 21
410.499994
 31
0.0
  0
LINE
  8
LC-003-005-----0
  6
CONTINUOUS
  5
D4
 10
291.825732
 20
410.619671
 30
0.0
 11
294.534482
 21
413.328421
 31
0.0
  0
LINE
  8
LC-003-005-----0
  6
CONTINUOUS
  5
D5
 10
291.825732
 20
413.448098
 30
0.0
 11
294.534482
 21
416.156848
 31
0.0
  0
LINE
  8
LC-003-005-----0
  6
CONTINUOUS
  5
D6
 10
291.825732
 20
416.276525
 30
0.0
 11
294.534482
 21
418.985275
 31
0.0
  0
LINE
  8
LC-003-005-----0
  6
CONTINUOUS
  5
D7
 10
291.825732
 20
419.104952
 30
0.0
 11
294.534482
 21
421.813702
 31
0.0
  0
LINE
  8
LC-003-005-----0
  6
CONTINUOUS
  5
D8
 10
291.825732
 20
421.933379
 30
0.0
 11
293.907457
 21
424.015104
 31
0.0
  0
ENDBLK
  8
0
  5
D9
  0
BLOCK
  8
0
  5
DB
  2
*X4
 70
    65
 10
469.280732
 20
174.049604
 30
0.0
  3
*X4
  0
LINE
  8
LC-003-005-----0
  6
CONTINUOUS
  5
DC
 10
471.034452
 20
174.049604
 30
0.0
 11
472.455813
 21
175.470965
 31
0.0
  0
LINE
  8
LC-003-005-----0
  6
CONTINUOUS
  5
DD
 10
469.280732
 20
175.124311
 30
0.0
 11
473.280732
 21
179.124311
 31
0.0
  0
LINE
  8
LC-003-005-----0
  6
CONTINUOUS
  5
DE
 10
469.280732
 20
177.952738
 30
0.0
 11
473.280732
 21
181.952738
 31
0.0
  0
LINE
  8
LC-003-005-----0
  6
CONTINUOUS
  5
DF
 10
469.280732
 20
180.781165
 30
0.0
 11
473.280732
 21
184.781165
 31
0.0
  0
LINE
  8
LC-003-005-----0
  6
CONTINUOUS
  5
E0
 10
469.280732
 20
183.609592
 30
0.0
 11
473.280732
 21
187.609592
 31
0.0
  0
LINE
  8
LC-003-005-----0
  6
CONTINUOUS
  5
E1
 10
469.280732
 20
186.438019
 30
0.0
 11
473.280732
 21
190.438019
 31
0.0
  0
LINE
  8
LC-003-005-----0
  6
CONTINUOUS
  5
E2
 10
469.280732
 20
189.266446
 30
0.0
 11
473.280732
 21
193.266446
 31
0.0
  0
LINE
  8
LC-003-005-----0
  6
CONTINUOUS
  5
E3
 10
469.280732
 20
192.094874
 30
0.0
 11
473.280732
 21
196.094874
 31
0.0
  0
LINE
  8
LC-003-005-----0
  6
CONTINUOUS
  5
E4
 10
469.280732
 20
194.923301
 30
0.0
 11
473.280732
 21
198.923301
 31
0.0
  0
LINE
  8
LC-003-005-----0
  6
CONTINUOUS
  5
E5
 10
469.280732
 20
197.751728
 30
0.0
 11
473.280732
 21
201.751728
 31
0.0
  0
LINE
  8
LC-003-005-----0
  6
CONTINUOUS
  5
E6
 10
469.280732
 20
200.580155
 30
0.0
 11
473.280732
 21
204.580155
 31
0.0
  0
LINE
  8
LC-003-005-----0
  6
CONTINUOUS
  5
E7
 10
469.280732
 20
203.408582
 30
0.0
 11
473.280732
 21
207.408582
 31
0.0
  0
LINE
  8
LC-003-005-----0
  6
CONTINUOUS
  5
E8
 10
469.280732
 20
206.237009
 30
0.0
 11
473.280732
 21
210.237009
 31
0.0
  0
LINE
  8
LC-003-005-----0
  6
CONTINUOUS
  5
E9
 10
469.280732
 20
209.065436
 30
0.0
 11
473.280732
 21
213.065436
 31
0.0
  0
LINE
  8
LC-003-005-----0
  6
CONTINUOUS
  5
EA
 10
469.280732
 20
211.893863
 30
0.0
 11
473.280732
 21
215.893863
 31
0.0
  0
LINE
  8
LC-003-005-----0
  6
CONTINUOUS
  5
EB
 10
469.280732
 20
214.722291
 30
0.0
 11
473.280732
 21
218.722291
 31
0.0
  0
LINE
  8
LC-003-005-----0
  6
CONTINUOUS
  5
EC
 10
469.280732
 20
217.550718
 30
0.0
 11
473.280732
 21
221.550718
 31
0.0
  0
LINE
  8
LC-003-005-----0
  6
CONTINUOUS
  5
ED
 10
469.280732
 20
220.379145
 30
0.0
 11
473.280732
 21
224.379145
 31
0.0
  0
LINE
  8
LC-003-005-----0
  6
CONTINUOUS
  5
EE
 10
469.280732
 20
223.207572
 30
0.0
 11
473.280732
 21
227.207572
 31
0.0
  0
LINE
  8
LC-003-005-----0
  6
CONTINUOUS
  5
EF
 10
469.280732
 20
226.035999
 30
0.0
 11
473.280732
 21
230.035999
 31
0.0
  0
LINE
  8
LC-003-005-----0
  6
CONTINUOUS
  5
F0
 10
469.280732
 20
228.864426
 30
0.0
 11
473.280732
 21
232.864426
 31
0.0
  0
LINE
  8
LC-003-005-----0
  6
CONTINUOUS
  5
F1
 10
469.280732
 20
231.692853
 30
0.0
 11
473.280732
 21
235.692853
 31
0.0
  0
LINE
  8
LC-003-005-----0
  6
CONTINUOUS
  5
F2
 10
469.280732
 20
234.52128
 30
0.0
 11
475.959614
 21
241.200163
 31
0.0
  0
LINE
  8
LC-003-005-----0
  6
CONTINUOUS
  5
F3
 10
469.280732
 20
237.349708
 30
0.0
 11
476.556885
 21
244.625861
 31
0.0
  0
LINE
  8
LC-003-005-----0
  6
CONTINUOUS
  5
F4
 10
472.473903
 20
243.371306
 30
0.0
 11
476.738527
 21
247.63593
 31
0.0
  0
LINE
  8
LC-003-005-----0
  6
CONTINUOUS
  5
F5
 10
472.655545
 20
246.381375
 30
0.0
 11
476.920169
 21
250.645999
 31
0.0
  0
LINE
  8
LC-003-005-----0
  6
CONTINUOUS
  5
F6
 10
472.837187
 20
249.391444
 30
0.0
 11
477.101811
 21
253.656069
 31
0.0
  0
LINE
  8
LC-003-005-----0
  6
CONTINUOUS
  5
F7
 10
473.018829
 20
252.401513
 30
0.0
 11
477.283454
 21
256.666138
 31
0.0
  0
LINE
  8
LC-003-005-----0
  6
CONTINUOUS
  5
F8
 10
473.200471
 20
255.411583
 30
0.0
 11
477.465096
 21
259.676207
 31
0.0
  0
LINE
  8
LC-003-005-----0
  6
CONTINUOUS
  5
F9
 10
473.382113
 20
258.421652
 30
0.0
 11
477.646738
 21
262.686276
 31
0.0
  0
LINE
  8
LC-003-005-----0
  6
CONTINUOUS
  5
FA
 10
473.563756
 20
261.431721
 30
0.0
 11
477.82838
 21
265.696346
 31
0.0
  0
LINE
  8
LC-003-005-----0
  6
CONTINUOUS
  5
FB
 10
473.745398
 20
264.44179
 30
0.0
 11
478.010022
 21
268.706415
 31
0.0
  0
LINE
  8
LC-003-005-----0
  6
CONTINUOUS
  5
FC
 10
473.92704
 20
267.45186
 30
0.0
 11
478.191664
 21
271.716484
 31
0.0
  0
LINE
  8
LC-003-005-----0
  6
CONTINUOUS
  5
FD
 10
474.108682
 20
270.461929
 30
0.0
 11
478.373306
 21
274.726553
 31
0.0
  0
LINE
  8
LC-003-005-----0
  6
CONTINUOUS
  5
FE
 10
474.290324
 20
273.471998
 30
0.0
 11
478.554948
 21
277.736622
 31
0.0
  0
LINE
  8
LC-003-005-----0
  6
CONTINUOUS
  5
FF
 10
474.471966
 20
276.482067
 30
0.0
 11
478.73659
 21
280.746692
 31
0.0
  0
LINE
  8
LC-003-005-----0
  6
CONTINUOUS
  5
100
 10
474.653608
 20
279.492137
 30
0.0
 11
478.918233
 21
283.756761
 31
0.0
  0
LINE
  8
LC-003-005-----0
  6
CONTINUOUS
  5
101
 10
474.83525
 20
282.502206
 30
0.0
 11
479.099875
 21
286.76683
 31
0.0
  0
LINE
  8
LC-003-005-----0
  6
CONTINUOUS
  5
102
 10
475.016892
 20
285.512275
 30
0.0
 11
479.281517
 21
289.776899
 31
0.0
  0
LINE
  8
LC-003-005-----0
  6
CONTINUOUS
  5
103
 10
475.198534
 20
288.522344
 30
0.0
 11
479.463159
 21
292.786969
 31
0.0
  0
LINE
  8
LC-003-005-----0
  6
CONTINUOUS
  5
104
 10
475.380177
 20
291.532413
 30
0.0
 11
479.644801
 21
295.797038
 31
0.0
  0
LINE
  8
LC-003-005-----0
  6
CONTINUOUS
  5
105
 10
475.561819
 20
294.542483
 30
0.0
 11
479.826443
 21
298.807107
 31
0.0
  0
LINE
  8
LC-003-005-----0
  6
CONTINUOUS
  5
106
 10
475.743461
 20
297.552552
 30
0.0
 11
480.008085
 21
301.817176
 31
0.0
  0
LINE
  8
LC-003-005-----0
  6
CONTINUOUS
  5
107
 10
475.925103
 20
300.562621
 30
0.0
 11
480.189727
 21
304.827246
 31
0.0
  0
LINE
  8
LC-003-005-----0
  6
CONTINUOUS
  5
108
 10
476.106745
 20
303.57269
 30
0.0
 11
480.371369
 21
307.837315
 31
0.0
  0
LINE
  8
LC-003-005-----0
  6
CONTINUOUS
  5
109
 10
476.288387
 20
306.58276
 30
0.0
 11
480.553012
 21
310.847384
 31
0.0
  0
LINE
  8
LC-003-005-----0
  6
CONTINUOUS
  5
10A
 10
476.470029
 20
309.592829
 30
0.0
 11
480.734654
 21
313.857453
 31
0.0
  0
LINE
  8
LC-003-005-----0
  6
CONTINUOUS
  5
10B
 10
476.651671
 20
312.602898
 30
0.0
 11
480.916296
 21
316.867523
 31
0.0
  0
LINE
  8
LC-003-005-----0
  6
CONTINUOUS
  5
10C
 10
476.833313
 20
315.612967
 30
0.0
 11
481.097938
 21
319.877592
 31
0.0
  0
LINE
  8
LC-003-005-----0
  6
CONTINUOUS
  5
10D
 10
477.014956
 20
318.623037
 30
0.0
 11
481.27958
 21
322.887661
 31
0.0
  0
LINE
  8
LC-003-005-----0
  6
CONTINUOUS
  5
10E
 10
477.196598
 20
321.633106
 30
0.0
 11
481.461222
 21
325.89773
 31
0.0
  0
LINE
  8
LC-003-005-----0
  6
CONTINUOUS
  5
10F
 10
477.37824
 20
324.643175
 30
0.0
 11
481.642864
 21
328.907799
 31
0.0
  0
LINE
  8
LC-003-005-----0
  6
CONTINUOUS
  5
110
 10
477.559882
 20
327.653244
 30
0.0
 11
481.824506
 21
331.917869
 31
0.0
  0
LINE
  8
LC-003-005-----0
  6
CONTINUOUS
  5
111
 10
477.741524
 20
330.663314
 30
0.0
 11
482.006148
 21
334.927938
 31
0.0
  0
LINE
  8
LC-003-005-----0
  6
CONTINUOUS
  5
112
 10
477.923166
 20
333.673383
 30
0.0
 11
482.187791
 21
337.938007
 31
0.0
  0
LINE
  8
LC-003-005-----0
  6
CONTINUOUS
  5
113
 10
478.104808
 20
336.683452
 30
0.0
 11
482.369433
 21
340.948076
 31
0.0
  0
LINE
  8
LC-003-005-----0
  6
CONTINUOUS
  5
114
 10
478.28645
 20
339.693521
 30
0.0
 11
482.551075
 21
343.958146
 31
0.0
  0
LINE
  8
LC-003-005-----0
  6
CONTINUOUS
  5
115
 10
478.468092
 20
342.70359
 30
0.0
 11
482.732717
 21
346.968215
 31
0.0
  0
LINE
  8
LC-003-005-----0
  6
CONTINUOUS
  5
116
 10
478.649735
 20
345.71366
 30
0.0
 11
482.914359
 21
349.978284
 31
0.0
  0
LINE
  8
LC-003-005-----0
  6
CONTINUOUS
  5
117
 10
478.831377
 20
348.723729
 30
0.0
 11
483.096001
 21
352.988353
 31
0.0
  0
LINE
  8
LC-003-005-----0
  6
CONTINUOUS
  5
118
 10
479.013019
 20
351.733798
 30
0.0
 11
483.277643
 21
355.998423
 31
0.0
  0
LINE
  8
LC-003-005-----0
  6
CONTINUOUS
  5
119
 10
479.194661
 20
354.743867
 30
0.0
 11
483.280732
 21
358.829938
 31
0.0
  0
LINE
  8
LC-003-005-----0
  6
CONTINUOUS
  5
11A
 10
479.280732
 20
357.658365
 30
0.0
 11
483.280732
 21
361.658365
 31
0.0
  0
LINE
  8
LC-003-005-----0
  6
CONTINUOUS
  5
11B
 10
479.280732
 20
360.486792
 30
0.0
 11
483.280732
 21
364.486792
 31
0.0
  0
LINE
  8
LC-003-005-----0
  6
CONTINUOUS
  5
11C
 10
485.548541
 20
366.754602
 30
0.0
 11
486.575734
 21
367.781795
 31
0.0
  0
LINE
  8
LC-003-005-----0
  6
CONTINUOUS
  5
11D
 10
479.280732
 20
363.31522
 30
0.0
 11
487.280732
 21
371.31522
 31
0.0
  0
LINE
  8
LC-003-005-----0
  6
CONTINUOUS
  5
11E
 10
479.280732
 20
366.143647
 30
0.0
 11
483.186689
 21
370.049604
 31
0.0
  0
LINE
  8
LC-003-005-----0
  6
CONTINUOUS
  5
11F
 10
484.393232
 20
371.256147
 30
0.0
 11
487.280732
 21
374.143647
 31
0.0
  0
LINE
  8
LC-003-005-----0
  6
CONTINUOUS
  5
120
 10
479.280732
 20
368.972074
 30
0.0
 11
480.358262
 21
370.049604
 31
0.0
  0
LINE
  8
LC-003-005-----0
  6
CONTINUOUS
  5
121
 10
484.393232
 20
374.084574
 30
0.0
 11
487.280732
 21
376.972074
 31
0.0
  0
LINE
  8
LC-003-005-----0
  6
CONTINUOUS
  5
122
 10
484.393232
 20
376.913001
 30
0.0
 11
487.280732
 21
379.800501
 31
0.0
  0
LINE
  8
LC-003-005-----0
  6
CONTINUOUS
  5
123
 10
484.393232
 20
379.741428
 30
0.0
 11
487.280732
 21
382.628928
 31
0.0
  0
LINE
  8
LC-003-005-----0
  6
CONTINUOUS
  5
124
 10
484.393232
 20
382.569855
 30
0.0
 11
487.280732
 21
385.457355
 31
0.0
  0
LINE
  8
LC-003-005-----0
  6
CONTINUOUS
  5
125
 10
484.393232
 20
385.398282
 30
0.0
 11
487.280732
 21
388.285782
 31
0.0
  0
LINE
  8
LC-003-005-----0
  6
CONTINUOUS
  5
126
 10
484.393232
 20
388.226709
 30
0.0
 11
487.280732
 21
391.114209
 31
0.0
  0
LINE
  8
LC-003-005-----0
  6
CONTINUOUS
  5
127
 10
484.393232
 20
391.055137
 30
0.0
 11
487.280732
 21
393.942637
 31
0.0
  0
LINE
  8
LC-003-005-----0
  6
CONTINUOUS
  5
128
 10
492.438234
 20
399.100139
 30
0.0
 11
494.730197
 21
401.392102
 31
0.0
  0
LINE
  8
LC-003-005-----0
  6
CONTINUOUS
  5
129
 10
484.393232
 20
393.883564
 30
0.0
 11
487.280732
 21
396.771064
 31
0.0
  0
LINE
  8
LC-003-005-----0
  6
CONTINUOUS
  5
12A
 10
489.604272
 20
399.094604
 30
0.0
 11
494.735732
 21
404.226064
 31
0.0
  0
LINE
  8
LC-003-005-----0
  6
CONTINUOUS
  5
12B
 10
484.393232
 20
396.711991
 30
0.0
 11
489.730845
 21
402.049604
 31
0.0
  0
LINE
  8
LC-003-005-----0
  6
CONTINUOUS
  5
12C
 10
492.026982
 20
404.345741
 30
0.0
 11
494.735732
 21
407.054491
 31
0.0
  0
LINE
  8
LC-003-005-----0
  6
CONTINUOUS
  5
12D
 10
484.393232
 20
399.540418
 30
0.0
 11
486.902418
 21
402.049604
 31
0.0
  0
LINE
  8
LC-003-005-----0
  6
CONTINUOUS
  5
12E
 10
492.026982
 20
407.174168
 30
0.0
 11
494.735732
 21
409.882918
 31
0.0
  0
LINE
  8
LC-003-005-----0
  6
CONTINUOUS
  5
12F
 10
492.026982
 20
410.002595
 30
0.0
 11
494.735732
 21
412.711345
 31
0.0
  0
LINE
  8
LC-003-005-----0
  6
CONTINUOUS
  5
130
 10
492.026982
 20
412.831022
 30
0.0
 11
494.735732
 21
415.539772
 31
0.0
  0
LINE
  8
LC-003-005-----0
  6
CONTINUOUS
  5
131
 10
492.026982
 20
415.659449
 30
0.0
 11
494.735732
 21
418.368199
 31
0.0
  0
LINE
  8
LC-003-005-----0
  6
CONTINUOUS
  5
132
 10
492.026982
 20
418.487876
 30
0.0
 11
494.735732
 21
421.196626
 31
0.0
  0
LINE
  8
LC-003-005-----0
  6
CONTINUOUS
  5
133
 10
492.026982
 20
421.316304
 30
0.0
 11
494.725782
 21
424.015104
 31
0.0
  0
ENDBLK
  8
0
  5
134
  0
BLOCK
  8
0
  5
136
  2
*D5
 70
    65
 10
0.0
 20
0.0
 30
0.0
  3
*D5
  0
LINE
  8
LC-005-003-MTH-0
  6
CONTINUOUS
  5
137
 10
313.280732
 20
178.549604
 30
0.0
 11
313.280732
 21
115.2
 31
0.0
  0
LINE
  8
LC-005-003-MTH-0
  6
CONTINUOUS
  5
138
 10
473.280732
 20
178.549604
 30
0.0
 11
473.280732
 21
115.2
 31
0.0
  0
LINE
  8
LC-006-003-MTG-0
  6
CONTINUOUS
  5
139
 10
313.280732
 20
126.0
 30
0.0
 11
473.280732
 21
126.0
 31
0.0
  0
LINE
  8
LC-004-003-----0
  6
CONTINUOUS
  5
13A
 10
331.126739
 20
128.349471
 30
0.0
 11
313.280732
 21
126.0
 31
0.0
  0
LINE
  8
LC-004-003-----0
  6
CONTINUOUS
  5
13B
 10
313.280732
 20
126.0
 30
0.0
 11
331.126739
 21
123.650529
 31
0.0
  0
LINE
  8
LC-004-003-----0
  6
CONTINUOUS
  5
13C
 10
331.126739
 20
123.650529
 30
0.0
 11
331.126739
 21
128.349471
 31
0.0
  0
LINE
  8
LC-004-003-----0
  6
CONTINUOUS
  5
13D
 10
331.166777
 20
127.738609
 30
0.0
 11
317.960732
 21
126.0
 31
0.0
  0
LINE
  8
LC-004-003-----0
  6
CONTINUOUS
  5
13E
 10
317.960732
 20
126.0
 30
0.0
 11
331.166777
 21
124.261391
 31
0.0
  0
LINE
  8
LC-004-003-----0
  6
CONTINUOUS
  5
13F
 10
331.206815
 20
127.127746
 30
0.0
 11
322.640732
 21
126.0
 31
0.0
  0
LINE
  8
LC-004-003-----0
  6
CONTINUOUS
  5
140
 10
322.640732
 20
126.0
 30
0.0
 11
331.206815
 21
124.872254
 31
0.0
  0
LINE
  8
LC-004-003-----0
  6
CONTINUOUS
  5
141
 10
331.246853
 20
126.516884
 30
0.0
 11
327.320732
 21
126.0
 31
0.0
  0
LINE
  8
LC-004-003-----0
  6
CONTINUOUS
  5
142
 10
327.320732
 20
126.0
 30
0.0
 11
331.246853
 21
125.483116
 31
0.0
  0
LINE
  8
LC-004-003-----0
  6
CONTINUOUS
  5
143
 10
455.434724
 20
123.650529
 30
0.0
 11
473.280732
 21
126.0
 31
0.0
  0
LINE
  8
LC-004-003-----0
  6
CONTINUOUS
  5
144
 10
473.280732
 20
126.0
 30
0.0
 11
455.434724
 21
128.349471
 31
0.0
  0
LINE
  8
LC-004-003-----0
  6
CONTINUOUS
  5
145
 10
455.434724
 20
128.349471
 30
0.0
 11
455.434724
 21
123.650529
 31
0.0
  0
LINE
  8
LC-004-003-----0
  6
CONTINUOUS
  5
146
 10
455.394686
 20
124.261391
 30
0.0
 11
468.600732
 21
126.0
 31
0.0
  0
LINE
  8
LC-004-003-----0
  6
CONTINUOUS
  5
147
 10
468.600732
 20
126.0
 30
0.0
 11
455.394686
 21
127.738609
 31
0.0
  0
LINE
  8
LC-004-003-----0
  6
CONTINUOUS
  5
148
 10
455.354648
 20
124.872254
 30
0.0
 11
463.920732
 21
126.0
 31
0.0
  0
LINE
  8
LC-004-003-----0
  6
CONTINUOUS
  5
149
 10
463.920732
 20
126.0
 30
0.0
 11
455.354648
 21
127.127746
 31
0.0
  0
LINE
  8
LC-004-003-----0
  6
CONTINUOUS
  5
14A
 10
455.31461
 20
125.483116
 30
0.0
 11
459.240732
 21
126.0
 31
0.0
  0
LINE
  8
LC-004-003-----0
  6
CONTINUOUS
  5
14B
 10
459.240732
 20
126.0
 30
0.0
 11
455.31461
 21
126.516884
 31
0.0
  0
TEXT
  8
LC-004-003-----0
  6
CONTINUOUS
 62
     6
  5
14C
 10
362.400387
 20
136.431999
 30
0.0
 40
18.0
  1
DN150
 51
15.0
  7
LC-TXTSTYLE-150-400-0-0-D0
 72
     1
 11
396.075977
 21
136.431999
 31
0.0
  0
ENDBLK
  8
0
  5
14D
  0
BLOCK
  8
0
  5
14F
  2
*X6
 70
    65
 10
307.280732
 20
360.19695
 30
0.0
  3
*X6
  0
LINE
  8
LC-003-005-----0
  6
CONTINUOUS
  5
150
 10
309.975503
 20
360.321506
 30
0.0
 11
311.156177
 21
361.502179
 31
0.0
  0
LINE
  8
LC-003-005-----0
  6
CONTINUOUS
  5
151
 10
309.629624
 20
360.258469
 30
0.0
 11
311.256272
 21
361.885118
 31
0.0
  0
LINE
  8
LC-003-005-----0
  6
CONTINUOUS
  5
152
 10
309.286232
 20
360.19792
 30
0.0
 11
311.280727
 21
362.192415
 31
0.0
  0
LINE
  8
LC-003-005-----0
  6
CONTINUOUS
  5
153
 10
309.019547
 20
360.214078
 30
0.0
 11
311.280732
 21
362.475263
 31
0.0
  0
LINE
  8
LC-003-005-----0
  6
CONTINUOUS
  5
154
 10
308.782603
 20
360.259977
 30
0.0
 11
311.280732
 21
362.758105
 31
0.0
  0
LINE
  8
LC-003-005-----0
  6
CONTINUOUS
  5
155
 10
308.56803
 20
360.328246
 30
0.0
 11
311.280732
 21
363.040948
 31
0.0
  0
LINE
  8
LC-003-005-----0
  6
CONTINUOUS
  5
156
 10
308.372173
 20
360.415232
 30
0.0
 11
311.280732
 21
363.323791
 31
0.0
  0
LINE
  8
LC-003-005-----0
  6
CONTINUOUS
  5
157
 10
308.192821
 20
360.518722
 30
0.0
 11
311.280732
 21
363.606634
 31
0.0
  0
LINE
  8
LC-003-005-----0
  6
CONTINUOUS
  5
158
 10
308.028636
 20
360.637381
 30
0.0
 11
311.280732
 21
363.889476
 31
0.0
  0
LINE
  8
LC-003-005-----0
  6
CONTINUOUS
  5
159
 10
307.878887
 20
360.770475
 30
0.0
 11
311.264552
 21
364.15614
 31
0.0
  0
LINE
  8
LC-003-005-----0
  6
CONTINUOUS
  5
15A
 10
307.743318
 20
360.917748
 30
0.0
 11
311.219384
 21
364.393814
 31
0.0
  0
LINE
  8
LC-003-005-----0
  6
CONTINUOUS
  5
15B
 10
307.622107
 20
361.07938
 30
0.0
 11
311.151706
 21
364.608979
 31
0.0
  0
LINE
  8
LC-003-005-----0
  6
CONTINUOUS
  5
15C
 10
307.515898
 20
361.256013
 30
0.0
 11
311.06523
 21
364.805345
 31
0.0
  0
LINE
  8
LC-003-005-----0
  6
CONTINUOUS
  5
15D
 10
307.425908
 20
361.448866
 30
0.0
 11
310.962199
 21
364.985157
 31
0.0
  0
LINE
  8
LC-003-005-----0
  6
CONTINUOUS
  5
15E
 10
307.354167
 20
361.659968
 30
0.0
 11
310.84397
 21
365.149771
 31
0.0
  0
LINE
  8
LC-003-005-----0
  6
CONTINUOUS
  5
15F
 10
307.304016
 20
361.892659
 30
0.0
 11
310.711291
 21
365.299935
 31
0.0
  0
LINE
  8
LC-003-005-----0
  6
CONTINUOUS
  5
160
 10
307.281221
 20
362.152707
 30
0.0
 11
310.564432
 21
365.435918
 31
0.0
  0
LINE
  8
LC-003-005-----0
  6
CONTINUOUS
  5
161
 10
307.280732
 20
362.435061
 30
0.0
 11
310.403226
 21
365.557555
 31
0.0
  0
LINE
  8
LC-003-005-----0
  6
CONTINUOUS
  5
162
 10
307.280732
 20
362.717903
 30
0.0
 11
310.227044
 21
365.664216
 31
0.0
  0
LINE
  8
LC-003-005-----0
  6
CONTINUOUS
  5
163
 10
307.280732
 20
363.000746
 30
0.0
 11
310.034688
 21
365.754703
 31
0.0
  0
LINE
  8
LC-003-005-----0
  6
CONTINUOUS
  5
164
 10
307.280732
 20
363.283589
 30
0.0
 11
309.806665
 21
365.809522
 31
0.0
  0
LINE
  8
LC-003-005-----0
  6
CONTINUOUS
  5
165
 10
307.280732
 20
363.566432
 30
0.0
 11
309.566219
 21
365.851919
 31
0.0
  0
LINE
  8
LC-003-005-----0
  6
CONTINUOUS
  5
166
 10
307.280732
 20
363.849274
 30
0.0
 11
309.325774
 21
365.894316
 31
0.0
  0
LINE
  8
LC-003-005-----0
  6
CONTINUOUS
  5
167
 10
307.295784
 20
364.147169
 30
0.0
 11
309.035821
 21
365.887206
 31
0.0
  0
LINE
  8
LC-003-005-----0
  6
CONTINUOUS
  5
168
 10
307.375087
 20
364.509315
 30
0.0
 11
308.673675
 21
365.807903
 31
0.0
  0
LINE
  8
LC-003-005-----0
  6
CONTINUOUS
  5
169
 10
307.66794
 20
365.085011
 30
0.0
 11
308.097979
 21
365.51505
 31
0.0
  0
ENDBLK
  8
0
  5
16A
  0
BLOCK
  8
0
  5
16C
  2
*X7
 70
    65
 10
304.280732
 20
262.285127
 30
0.0
  3
*X7
  0
LINE
  8
LC-003-005-----0
  6
CONTINUOUS
  5
16D
 10
392.525876
 20
262.418228
 30
0.0
 11
393.280732
 21
263.173084
 31
0.0
  0
LINE
  8
LC-003-005-----0
  6
CONTINUOUS
  5
16E
 10
390.12142
 20
262.842199
 30
0.0
 11
392.711074
 21
265.431853
 31
0.0
  0
LINE
  8
LC-003-005-----0
  6
CONTINUOUS
  5
16F
 10
387.716963
 20
263.26617
 30
0.0
 11
390.306617
 21
265.855823
 31
0.0
  0
LINE
  8
LC-003-005-----0
  6
CONTINUOUS
  5
170
 10
385.312506
 20
263.69014
 30
0.0
 11
387.90216
 21
266.279794
 31
0.0
  0
LINE
  8
LC-003-005-----0
  6
CONTINUOUS
  5
171
 10
382.90805
 20
264.114111
 30
0.0
 11
385.497704
 21
266.703765
 31
0.0
  0
LINE
  8
LC-003-005-----0
  6
CONTINUOUS
  5
172
 10
380.503593
 20
264.538081
 30
0.0
 11
383.093247
 21
267.127735
 31
0.0
  0
LINE
  8
LC-003-005-----0
  6
CONTINUOUS
  5
173
 10
378.099137
 20
264.962052
 30
0.0
 11
380.688791
 21
267.551706
 31
0.0
  0
LINE
  8
LC-003-005-----0
  6
CONTINUOUS
  5
174
 10
375.69468
 20
265.386022
 30
0.0
 11
378.284334
 21
267.975676
 31
0.0
  0
LINE
  8
LC-003-005-----0
  6
CONTINUOUS
  5
175
 10
373.290224
 20
265.809993
 30
0.0
 11
375.879878
 21
268.399647
 31
0.0
  0
LINE
  8
LC-003-005-----0
  6
CONTINUOUS
  5
176
 10
370.885767
 20
266.233963
 30
0.0
 11
373.475421
 21
268.823617
 31
0.0
  0
LINE
  8
LC-003-005-----0
  6
CONTINUOUS
  5
177
 10
368.481311
 20
266.657934
 30
0.0
 11
371.070965
 21
269.247588
 31
0.0
  0
LINE
  8
LC-003-005-----0
  6
CONTINUOUS
  5
178
 10
366.076854
 20
267.081905
 30
0.0
 11
368.666508
 21
269.671559
 31
0.0
  0
LINE
  8
LC-003-005-----0
  6
CONTINUOUS
  5
179
 10
363.672397
 20
267.505875
 30
0.0
 11
366.262051
 21
270.095529
 31
0.0
  0
LINE
  8
LC-003-005-----0
  6
CONTINUOUS
  5
17A
 10
361.267941
 20
267.929846
 30
0.0
 11
363.857595
 21
270.5195
 31
0.0
  0
LINE
  8
LC-003-005-----0
  6
CONTINUOUS
  5
17B
 10
358.863484
 20
268.353816
 30
0.0
 11
361.453138
 21
270.94347
 31
0.0
  0
LINE
  8
LC-003-005-----0
  6
CONTINUOUS
  5
17C
 10
356.459028
 20
268.777787
 30
0.0
 11
359.048682
 21
271.367441
 31
0.0
  0
LINE
  8
LC-003-005-----0
  6
CONTINUOUS
  5
17D
 10
354.054571
 20
269.201757
 30
0.0
 11
356.644225
 21
271.791411
 31
0.0
  0
LINE
  8
LC-003-005-----0
  6
CONTINUOUS
  5
17E
 10
351.650115
 20
269.625728
 30
0.0
 11
354.239769
 21
272.215382
 31
0.0
  0
LINE
  8
LC-003-005-----0
  6
CONTINUOUS
  5
17F
 10
349.245658
 20
270.049699
 30
0.0
 11
351.835312
 21
272.639353
 31
0.0
  0
LINE
  8
LC-003-005-----0
  6
CONTINUOUS
  5
180
 10
346.841202
 20
270.473669
 30
0.0
 11
349.430855
 21
273.063323
 31
0.0
  0
LINE
  8
LC-003-005-----0
  6
CONTINUOUS
  5
181
 10
344.436745
 20
270.89764
 30
0.0
 11
347.026399
 21
273.487294
 31
0.0
  0
LINE
  8
LC-003-005-----0
  6
CONTINUOUS
  5
182
 10
342.032288
 20
271.32161
 30
0.0
 11
344.621942
 21
273.911264
 31
0.0
  0
LINE
  8
LC-003-005-----0
  6
CONTINUOUS
  5
183
 10
339.627832
 20
271.745581
 30
0.0
 11
342.217486
 21
274.335235
 31
0.0
  0
LINE
  8
LC-003-005-----0
  6
CONTINUOUS
  5
184
 10
337.223375
 20
272.169551
 30
0.0
 11
339.813029
 21
274.759205
 31
0.0
  0
LINE
  8
LC-003-005-----0
  6
CONTINUOUS
  5
185
 10
334.888167
 20
272.66277
 30
0.0
 11
337.408573
 21
275.183176
 31
0.0
  0
LINE
  8
LC-003-005-----0
  6
CONTINUOUS
  5
186
 10
332.727798
 20
273.330828
 30
0.0
 11
335.109356
 21
275.712386
 31
0.0
  0
LINE
  8
LC-003-005-----0
  6
CONTINUOUS
  5
187
 10
330.720882
 20
274.15234
 30
0.0
 11
333.003402
 21
276.43486
 31
0.0
  0
LINE
  8
LC-003-005-----0
  6
CONTINUOUS
  5
188
 10
328.851399
 20
275.111284
 30
0.0
 11
331.06367
 21
277.323555
 31
0.0
  0
LINE
  8
LC-003-005-----0
  6
CONTINUOUS
  5
189
 10
327.108538
 20
276.19685
 30
0.0
 11
329.272914
 21
278.361226
 31
0.0
  0
LINE
  8
LC-003-005-----0
  6
CONTINUOUS
  5
18A
 10
325.485195
 20
277.401934
 30
0.0
 11
327.620234
 21
279.536972
 31
0.0
  0
LINE
  8
LC-003-005-----0
  6
CONTINUOUS
  5
18B
 10
323.977128
 20
278.722294
 30
0.0
 11
326.099274
 21
280.84444
 31
0.0
  0
LINE
  8
LC-003-005-----0
  6
CONTINUOUS
  5
18C
 10
322.582496
 20
280.156089
 30
0.0
 11
324.707318
 21
282.280911
 31
0.0
  0
LINE
  8
LC-003-005-----0
  6
CONTINUOUS
  5
18D
 10
321.30168
 20
281.7037
 30
0.0
 11
323.444926
 21
283.846947
 31
0.0
  0
LINE
  8
LC-003-005-----0
  6
CONTINUOUS
  5
18E
 10
320.137318
 20
283.367766
 30
0.0
 11
322.316009
 21
285.546457
 31
0.0
  0
LINE
  8
LC-003-005-----0
  6
CONTINUOUS
  5
18F
 10
319.094575
 20
285.15345
 30
0.0
 11
321.328355
 21
287.38723
 31
0.0
  0
LINE
  8
LC-003-005-----0
  6
CONTINUOUS
  5
190
 10
318.181715
 20
287.069017
 30
0.0
 11
320.494795
 21
289.382096
 31
0.0
  0
LINE
  8
LC-003-005-----0
  6
CONTINUOUS
  5
191
 10
317.411134
 20
289.126863
 30
0.0
 11
319.835453
 21
291.551181
 31
0.0
  0
LINE
  8
LC-003-005-----0
  6
CONTINUOUS
  5
192
 10
316.801201
 20
291.345356
 30
0.0
 11
319.38219
 21
293.926346
 31
0.0
  0
LINE
  8
LC-003-005-----0
  6
CONTINUOUS
  5
193
 10
316.379662
 20
293.752245
 30
0.0
 11
319.132863
 21
296.505446
 31
0.0
  0
LINE
  8
LC-003-005-----0
  6
CONTINUOUS
  5
194
 10
316.136129
 20
296.337139
 30
0.0
 11
318.905316
 21
299.106326
 31
0.0
  0
LINE
  8
LC-003-005-----0
  6
CONTINUOUS
  5
195
 10
315.908581
 20
298.938018
 30
0.0
 11
318.677768
 21
301.707205
 31
0.0
  0
LINE
  8
LC-003-005-----0
  6
CONTINUOUS
  5
196
 10
315.681034
 20
301.538898
 30
0.0
 11
318.450221
 21
304.308085
 31
0.0
  0
LINE
  8
LC-003-005-----0
  6
CONTINUOUS
  5
197
 10
315.453486
 20
304.139778
 30
0.0
 11
318.222673
 21
306.908965
 31
0.0
  0
LINE
  8
LC-003-005-----0
  6
CONTINUOUS
  5
198
 10
315.225939
 20
306.740657
 30
0.0
 11
317.995126
 21
309.509844
 31
0.0
  0
LINE
  8
LC-003-005-----0
  6
CONTINUOUS
  5
199
 10
314.998391
 20
309.341537
 30
0.0
 11
317.767578
 21
312.110724
 31
0.0
  0
LINE
  8
LC-003-005-----0
  6
CONTINUOUS
  5
19A
 10
314.770844
 20
311.942417
 30
0.0
 11
317.540031
 21
314.711604
 31
0.0
  0
LINE
  8
LC-003-005-----0
  6
CONTINUOUS
  5
19B
 10
314.543296
 20
314.543296
 30
0.0
 11
317.312483
 21
317.312483
 31
0.0
  0
LINE
  8
LC-003-005-----0
  6
CONTINUOUS
  5
19C
 10
314.315749
 20
317.144176
 30
0.0
 11
317.084936
 21
319.913363
 31
0.0
  0
LINE
  8
LC-003-005-----0
  6
CONTINUOUS
  5
19D
 10
314.088201
 20
319.745055
 30
0.0
 11
316.857388
 21
322.514242
 31
0.0
  0
LINE
  8
LC-003-005-----0
  6
CONTINUOUS
  5
19E
 10
313.860654
 20
322.345935
 30
0.0
 11
316.629841
 21
325.115122
 31
0.0
  0
LINE
  8
LC-003-005-----0
  6
CONTINUOUS
  5
19F
 10
313.633106
 20
324.946815
 30
0.0
 11
316.402293
 21
327.716002
 31
0.0
  0
LINE
  8
LC-003-005-----0
  6
CONTINUOUS
  5
1A0
 10
313.405559
 20
327.547694
 30
0.0
 11
316.174746
 21
330.316881
 31
0.0
  0
LINE
  8
LC-003-005-----0
  6
CONTINUOUS
  5
1A1
 10
313.178011
 20
330.148574
 30
0.0
 11
315.947198
 21
332.917761
 31
0.0
  0
LINE
  8
LC-003-005-----0
  6
CONTINUOUS
  5
1A2
 10
312.950464
 20
332.749454
 30
0.0
 11
315.719651
 21
335.518641
 31
0.0
  0
LINE
  8
LC-003-005-----0
  6
CONTINUOUS
  5
1A3
 10
312.722916
 20
335.350333
 30
0.0
 11
315.492103
 21
338.11952
 31
0.0
  0
LINE
  8
LC-003-005-----0
  6
CONTINUOUS
  5
1A4
 10
312.495369
 20
337.951213
 30
0.0
 11
315.264556
 21
340.7204
 31
0.0
  0
LINE
  8
LC-003-005-----0
  6
CONTINUOUS
  5
1A5
 10
312.267821
 20
340.552093
 30
0.0
 11
315.037008
 21
343.32128
 31
0.0
  0
LINE
  8
LC-003-005-----0
  6
CONTINUOUS
  5
1A6
 10
312.040274
 20
343.152972
 30
0.0
 11
314.809461
 21
345.922159
 31
0.0
  0
LINE
  8
LC-003-005-----0
  6
CONTINUOUS
  5
1A7
 10
311.812726
 20
345.753852
 30
0.0
 11
314.581913
 21
348.523039
 31
0.0
  0
LINE
  8
LC-003-005-----0
  6
CONTINUOUS
  5
1A8
 10
311.585179
 20
348.354731
 30
0.0
 11
314.354366
 21
351.123919
 31
0.0
  0
LINE
  8
LC-003-005-----0
  6
CONTINUOUS
  5
1A9
 10
311.357631
 20
350.955611
 30
0.0
 11
314.126818
 21
353.724798
 31
0.0
  0
LINE
  8
LC-003-005-----0
  6
CONTINUOUS
  5
1AA
 10
311.130084
 20
353.556491
 30
0.0
 11
313.899271
 21
356.325678
 31
0.0
  0
LINE
  8
LC-003-005-----0
  6
CONTINUOUS
  5
1AB
 10
310.902536
 20
356.15737
 30
0.0
 11
313.780732
 21
359.035566
 31
0.0
  0
LINE
  8
LC-003-005-----0
  6
CONTINUOUS
  5
1AC
 10
309.466343
 20
357.549604
 30
0.0
 11
313.780732
 21
361.863993
 31
0.0
  0
LINE
  8
LC-003-005-----0
  6
CONTINUOUS
  5
1AD
 10
308.030732
 20
358.94242
 30
0.0
 11
309.285267
 21
360.196956
 31
0.0
  0
LINE
  8
LC-003-005-----0
  6
CONTINUOUS
  5
1AE
 10
311.280732
 20
362.19242
 30
0.0
 11
313.780732
 21
364.69242
 31
0.0
  0
LINE
  8
LC-003-005-----0
  6
CONTINUOUS
  5
1AF
 10
311.280732
 20
365.020847
 30
0.0
 11
313.780732
 21
367.520847
 31
0.0
  0
LINE
  8
LC-003-005-----0
  6
CONTINUOUS
  5
1B0
 10
309.333032
 20
365.901574
 30
0.0
 11
312.880897
 21
369.449439
 31
0.0
  0
LINE
  8
LC-003-005-----0
  6
CONTINUOUS
  5
1B1
 10
308.030732
 20
367.427701
 30
0.0
 11
311.466683
 21
370.863653
 31
0.0
  0
LINE
  8
LC-003-005-----0
  6
CONTINUOUS
  5
1B2
 10
308.030732
 20
370.256128
 30
0.0
 11
310.05247
 21
372.277866
 31
0.0
  0
LINE
  8
LC-003-005-----0
  6
CONTINUOUS
  5
1B3
 10
305.518823
 20
370.572647
 30
0.0
 11
308.49578
 21
373.549604
 31
0.0
  0
LINE
  8
LC-003-005-----0
  6
CONTINUOUS
  5
1B4
 10
304.285383
 20
372.167634
 30
0.0
 11
305.662702
 21
373.544953
 31
0.0
  0
ENDBLK
  8
0
  5
1B5
  0
BLOCK
  8
0
  5
1B7
  2
*X8
 70
    65
 10
393.280732
 20
260.425302
 30
0.0
  3
*X8
  0
LINE
  8
LC-003-005-----0
  6
CONTINUOUS
  5
1B8
 10
402.143702
 20
260.722346
 30
0.0
 11
403.531278
 21
262.109922
 31
0.0
  0
LINE
  8
LC-003-005-----0
  6
CONTINUOUS
  5
1B9
 10
399.739246
 20
261.146317
 30
0.0
 11
402.3289
 21
263.735971
 31
0.0
  0
LINE
  8
LC-003-005-----0
  6
CONTINUOUS
  5
1BA
 10
397.334789
 20
261.570287
 30
0.0
 11
399.924443
 21
264.159941
 31
0.0
  0
LINE
  8
LC-003-005-----0
  6
CONTINUOUS
  5
1BB
 10
394.930333
 20
261.994258
 30
0.0
 11
397.519987
 21
264.583912
 31
0.0
  0
LINE
  8
LC-003-005-----0
  6
CONTINUOUS
  5
1BC
 10
393.280732
 20
263.173084
 30
0.0
 11
395.11553
 21
265.007882
 31
0.0
  0
ENDBLK
  8
0
  5
1BD
  0
BLOCK
  8
0
  5
1BF
  2
*X9
 70
    65
 10
393.280732
 20
260.128377
 30
0.0
  3
*X9
  0
LINE
  8
LC-003-005-----0
  6
CONTINUOUS
  5
1C0
 10
407.80989
 20
260.731679
 30
0.0
 11
407.832091
 21
260.753881
 31
0.0
  0
LINE
  8
LC-003-005-----0
  6
CONTINUOUS
  5
1C1
 10
404.386858
 20
260.137075
 30
0.0
 11
407.408121
 21
263.158338
 31
0.0
  0
LINE
  8
LC-003-005-----0
  6
CONTINUOUS
  5
1C2
 10
403.962887
 20
262.541531
 30
0.0
 11
406.98415
 21
265.562794
 31
0.0
  0
LINE
  8
LC-003-005-----0
  6
CONTINUOUS
  5
1C3
 10
403.538917
 20
264.945988
 30
0.0
 11
406.56018
 21
267.967251
 31
0.0
  0
LINE
  8
LC-003-005-----0
  6
CONTINUOUS
  5
1C4
 10
403.114946
 20
267.350444
 30
0.0
 11
406.136209
 21
270.371707
 31
0.0
  0
LINE
  8
LC-003-005-----0
  6
CONTINUOUS
  5
1C5
 10
402.690976
 20
269.754901
 30
0.0
 11
405.712239
 21
272.776164
 31
0.0
  0
LINE
  8
LC-003-005-----0
  6
CONTINUOUS
  5
1C6
 10
402.267005
 20
272.159357
 30
0.0
 11
405.288268
 21
275.18062
 31
0.0
  0
LINE
  8
LC-003-005-----0
  6
CONTINUOUS
  5
1C7
 10
401.843035
 20
274.563814
 30
0.0
 11
404.864298
 21
277.585077
 31
0.0
  0
LINE
  8
LC-003-005-----0
  6
CONTINUOUS
  5
1C8
 10
401.419064
 20
276.96827
 30
0.0
 11
404.440327
 21
279.989533
 31
0.0
  0
LINE
  8
LC-003-005-----0
  6
CONTINUOUS
  5
1C9
 10
400.995093
 20
279.372727
 30
0.0
 11
404.016356
 21
282.39399
 31
0.0
  0
LINE
  8
LC-003-005-----0
  6
CONTINUOUS
  5
1CA
 10
400.571123
 20
281.777184
 30
0.0
 11
403.592386
 21
284.798447
 31
0.0
  0
LINE
  8
LC-003-005-----0
  6
CONTINUOUS
  5
1CB
 10
400.147152
 20
284.18164
 30
0.0
 11
403.168415
 21
287.202903
 31
0.0
  0
LINE
  8
LC-003-005-----0
  6
CONTINUOUS
  5
1CC
 10
399.723182
 20
286.586097
 30
0.0
 11
402.744445
 21
289.60736
 31
0.0
  0
LINE
  8
LC-003-005-----0
  6
CONTINUOUS
  5
1CD
 10
399.299211
 20
288.990553
 30
0.0
 11
402.320474
 21
292.011816
 31
0.0
  0
LINE
  8
LC-003-005-----0
  6
CONTINUOUS
  5
1CE
 10
398.875241
 20
291.39501
 30
0.0
 11
401.896504
 21
294.416273
 31
0.0
  0
LINE
  8
LC-003-005-----0
  6
CONTINUOUS
  5
1CF
 10
398.45127
 20
293.799466
 30
0.0
 11
401.472533
 21
296.820729
 31
0.0
  0
LINE
  8
LC-003-005-----0
  6
CONTINUOUS
  5
1D0
 10
398.027299
 20
296.203923
 30
0.0
 11
401.048562
 21
299.225186
 31
0.0
  0
LINE
  8
LC-003-005-----0
  6
CONTINUOUS
  5
1D1
 10
397.603329
 20
298.60838
 30
0.0
 11
400.624592
 21
301.629642
 31
0.0
  0
LINE
  8
LC-003-005-----0
  6
CONTINUOUS
  5
1D2
 10
397.179358
 20
301.012836
 30
0.0
 11
400.200621
 21
304.034099
 31
0.0
  0
LINE
  8
LC-003-005-----0
  6
CONTINUOUS
  5
1D3
 10
396.755388
 20
303.417293
 30
0.0
 11
399.776651
 21
306.438556
 31
0.0
  0
LINE
  8
LC-003-005-----0
  6
CONTINUOUS
  5
1D4
 10
396.331417
 20
305.821749
 30
0.0
 11
399.35268
 21
308.843012
 31
0.0
  0
LINE
  8
LC-003-005-----0
  6
CONTINUOUS
  5
1D5
 10
395.907447
 20
308.226206
 30
0.0
 11
398.92871
 21
311.247469
 31
0.0
  0
LINE
  8
LC-003-005-----0
  6
CONTINUOUS
  5
1D6
 10
395.483476
 20
310.630662
 30
0.0
 11
398.504739
 21
313.651925
 31
0.0
  0
LINE
  8
LC-003-005-----0
  6
CONTINUOUS
  5
1D7
 10
395.059505
 20
313.035119
 30
0.0
 11
398.080768
 21
316.056382
 31
0.0
  0
LINE
  8
LC-003-005-----0
  6
CONTINUOUS
  5
1D8
 10
394.635535
 20
315.439575
 30
0.0
 11
397.656798
 21
318.460838
 31
0.0
  0
LINE
  8
LC-003-005-----0
  6
CONTINUOUS
  5
1D9
 10
394.211564
 20
317.844032
 30
0.0
 11
397.232827
 21
320.865295
 31
0.0
  0
LINE
  8
LC-003-005-----0
  6
CONTINUOUS
  5
1DA
 10
393.787594
 20
320.248489
 30
0.0
 11
396.808857
 21
323.269752
 31
0.0
  0
LINE
  8
LC-003-005-----0
  6
CONTINUOUS
  5
1DB
 10
393.363623
 20
322.652945
 30
0.0
 11
396.384886
 21
325.674208
 31
0.0
  0
LINE
  8
LC-003-005-----0
  6
CONTINUOUS
  5
1DC
 10
393.280732
 20
325.398481
 30
0.0
 11
395.960916
 21
328.078665
 31
0.0
  0
LINE
  8
LC-003-005-----0
  6
CONTINUOUS
  5
1DD
 10
393.280732
 20
328.226908
 30
0.0
 11
395.536945
 21
330.483121
 31
0.0
  0
LINE
  8
LC-003-005-----0
  6
CONTINUOUS
  5
1DE
 10
393.280732
 20
331.055335
 30
0.0
 11
395.112975
 21
332.887578
 31
0.0
  0
LINE
  8
LC-003-005-----0
  6
CONTINUOUS
  5
1DF
 10
393.280732
 20
333.883762
 30
0.0
 11
394.689004
 21
335.292034
 31
0.0
  0
LINE
  8
LC-003-005-----0
  6
CONTINUOUS
  5
1E0
 10
393.280732
 20
336.712189
 30
0.0
 11
394.265033
 21
337.696491
 31
0.0
  0
LINE
  8
LC-003-005-----0
  6
CONTINUOUS
  5
1E1
 10
393.280732
 20
339.540616
 30
0.0
 11
393.841063
 21
340.100947
 31
0.0
  0
LINE
  8
LC-003-005-----0
  6
CONTINUOUS
  5
1E2
 10
393.280732
 20
342.369043
 30
0.0
 11
393.417092
 21
342.505404
 31
0.0
  0
ENDBLK
  8
0
  5
1E3
  0
BLOCK
  8
0
  5
1E5
  2
*X10
 70
    65
 10
378.402852
 20
323.123046
 30
0.0
  3
*X10
  0
LINE
  8
LC-003-005-----0
  6
CONTINUOUS
  5
1E6
 10
392.939653
 20
325.057402
 30
0.0
 11
393.280732
 21
325.398481
 31
0.0
  0
LINE
  8
LC-003-005-----0
  6
CONTINUOUS
  5
1E7
 10
392.515682
 20
327.461858
 30
0.0
 11
393.280732
 21
328.226908
 31
0.0
  0
LINE
  8
LC-003-005-----0
  6
CONTINUOUS
  5
1E8
 10
392.091712
 20
329.866315
 30
0.0
 11
393.280732
 21
331.055335
 31
0.0
  0
LINE
  8
LC-003-005-----0
  6
CONTINUOUS
  5
1E9
 10
391.667741
 20
332.270771
 30
0.0
 11
393.280732
 21
333.883762
 31
0.0
  0
LINE
  8
LC-003-005-----0
  6
CONTINUOUS
  5
1EA
 10
391.24377
 20
334.675228
 30
0.0
 11
393.280732
 21
336.712189
 31
0.0
  0
LINE
  8
LC-003-005-----0
  6
CONTINUOUS
  5
1EB
 10
390.8198
 20
337.079684
 30
0.0
 11
393.280732
 21
339.540616
 31
0.0
  0
LINE
  8
LC-003-005-----0
  6
CONTINUOUS
  5
1EC
 10
390.395829
 20
339.484141
 30
0.0
 11
393.280732
 21
342.369043
 31
0.0
  0
LINE
  8
LC-003-005-----0
  6
CONTINUOUS
  5
1ED
 10
389.971859
 20
341.888598
 30
0.0
 11
392.993122
 21
344.909861
 31
0.0
  0
LINE
  8
LC-003-005-----0
  6
CONTINUOUS
  5
1EE
 10
389.547888
 20
344.293054
 30
0.0
 11
389.562149
 21
344.307315
 31
0.0
  0
ENDBLK
  8
0
  5
1EF
  0
BLOCK
  8
0
  5
1F1
  2
*X11
 70
    65
 10
382.630606
 20
336.224918
 30
0.0
  3
*X11
  0
LINE
  8
LC-003-005-----0
  6
CONTINUOUS
  5
1F2
 10
389.000788
 20
340.917527
 30
0.0
 11
389.971859
 21
341.888598
 31
0.0
  0
LINE
  8
LC-003-005-----0
  6
CONTINUOUS
  5
1F3
 10
386.596332
 20
341.341498
 30
0.0
 11
389.175217
 21
343.920383
 31
0.0
  0
LINE
  8
LC-003-005-----0
  6
CONTINUOUS
  5
1F4
 10
384.191875
 20
341.765468
 30
0.0
 11
386.770761
 21
344.344354
 31
0.0
  0
LINE
  8
LC-003-005-----0
  6
CONTINUOUS
  5
1F5
 10
382.842938
 20
343.244958
 30
0.0
 11
386.541347
 21
346.943368
 31
0.0
  0
LINE
  8
LC-003-005-----0
  6
CONTINUOUS
  5
1F6
 10
392.783795
 20
353.185815
 30
0.0
 11
393.280732
 21
353.682752
 31
0.0
  0
LINE
  8
LC-003-005-----0
  6
CONTINUOUS
  5
1F7
 10
383.448431
 20
346.678878
 30
0.0
 11
392.979721
 21
356.210168
 31
0.0
  0
LINE
  8
LC-003-005-----0
  6
CONTINUOUS
  5
1F8
 10
384.520503
 20
350.579377
 30
0.0
 11
389.168192
 21
355.227066
 31
0.0
  0
ENDBLK
  8
0
  5
1F9
  0
BLOCK
  8
0
  5
1FB
  2
*X12
 70
    65
 10
393.280732
 20
353.221845
 30
0.0
  3
*X12
  0
LINE
  8
LC-003-005-----0
  6
CONTINUOUS
  5
1FC
 10
476.347006
 20
357.553067
 30
0.0
 11
478.530732
 21
359.736792
 31
0.0
  0
LINE
  8
LC-003-005-----0
  6
CONTINUOUS
  5
1FD
 10
473.385469
 20
357.419957
 30
0.0
 11
476.330087
 21
360.364575
 31
0.0
  0
LINE
  8
LC-003-005-----0
  6
CONTINUOUS
  5
1FE
 10
470.400612
 20
357.263527
 30
0.0
 11
475.280732
 21
362.143647
 31
0.0
  0
LINE
  8
LC-003-005-----0
  6
CONTINUOUS
  5
1FF
 10
467.415755
 20
357.107097
 30
0.0
 11
470.586019
 21
360.277361
 31
0.0
  0
LINE
  8
LC-003-005-----0
  6
CONTINUOUS
  5
200
 10
472.780732
 20
362.472074
 30
0.0
 11
475.280732
 21
364.972074
 31
0.0
  0
LINE
  8
LC-003-005-----0
  6
CONTINUOUS
  5
201
 10
475.981896
 20
365.673239
 30
0.0
 11
478.530732
 21
368.222074
 31
0.0
  0
LINE
  8
LC-003-005-----0
  6
CONTINUOUS
  5
202
 10
480.860378
 20
370.55172
 30
0.0
 11
482.278616
 21
371.969958
 31
0.0
  0
LINE
  8
LC-003-005-----0
  6
CONTINUOUS
  5
203
 10
464.430898
 20
356.950668
 30
0.0
 11
467.601162
 21
360.120931
 31
0.0
  0
LINE
  8
LC-003-005-----0
  6
CONTINUOUS
  5
204
 10
472.780732
 20
365.300501
 30
0.0
 11
481.011913
 21
373.531682
 31
0.0
  0
LINE
  8
LC-003-005-----0
  6
CONTINUOUS
  5
205
 10
461.446042
 20
356.794238
 30
0.0
 11
464.616305
 21
359.964502
 31
0.0
  0
LINE
  8
LC-003-005-----0
  6
CONTINUOUS
  5
206
 10
472.780732
 20
368.128928
 30
0.0
 11
478.201408
 21
373.549604
 31
0.0
  0
LINE
  8
LC-003-005-----0
  6
CONTINUOUS
  5
207
 10
458.461185
 20
356.637808
 30
0.0
 11
461.631448
 21
359.808072
 31
0.0
  0
LINE
  8
LC-003-005-----0
  6
CONTINUOUS
  5
208
 10
455.476328
 20
356.481379
 30
0.0
 11
458.646591
 21
359.651642
 31
0.0
  0
LINE
  8
LC-003-005-----0
  6
CONTINUOUS
  5
209
 10
452.491471
 20
356.324949
 30
0.0
 11
455.661735
 21
359.495212
 31
0.0
  0
LINE
  8
LC-003-005-----0
  6
CONTINUOUS
  5
20A
 10
449.506614
 20
356.168519
 30
0.0
 11
452.676878
 21
359.338783
 31
0.0
  0
LINE
  8
LC-003-005-----0
  6
CONTINUOUS
  5
20B
 10
446.521757
 20
356.012089
 30
0.0
 11
449.692021
 21
359.182353
 31
0.0
  0
LINE
  8
LC-003-005-----0
  6
CONTINUOUS
  5
20C
 10
443.536901
 20
355.85566
 30
0.0
 11
446.707164
 21
359.025923
 31
0.0
  0
LINE
  8
LC-003-005-----0
  6
CONTINUOUS
  5
20D
 10
440.552044
 20
355.69923
 30
0.0
 11
443.722307
 21
358.869493
 31
0.0
  0
LINE
  8
LC-003-005-----0
  6
CONTINUOUS
  5
20E
 10
437.567187
 20
355.5428
 30
0.0
 11
440.73745
 21
358.713064
 31
0.0
  0
LINE
  8
LC-003-005-----0
  6
CONTINUOUS
  5
20F
 10
434.58233
 20
355.386371
 30
0.0
 11
437.752594
 21
358.556634
 31
0.0
  0
LINE
  8
LC-003-005-----0
  6
CONTINUOUS
  5
210
 10
431.597473
 20
355.229941
 30
0.0
 11
434.767737
 21
358.400204
 31
0.0
  0
LINE
  8
LC-003-005-----0
  6
CONTINUOUS
  5
211
 10
428.612616
 20
355.073511
 30
0.0
 11
431.78288
 21
358.243775
 31
0.0
  0
LINE
  8
LC-003-005-----0
  6
CONTINUOUS
  5
212
 10
425.62776
 20
354.917081
 30
0.0
 11
428.798023
 21
358.087345
 31
0.0
  0
LINE
  8
LC-003-005-----0
  6
CONTINUOUS
  5
213
 10
422.642903
 20
354.760652
 30
0.0
 11
425.813166
 21
357.930915
 31
0.0
  0
LINE
  8
LC-003-005-----0
  6
CONTINUOUS
  5
214
 10
419.658046
 20
354.604222
 30
0.0
 11
422.828309
 21
357.774485
 31
0.0
  0
LINE
  8
LC-003-005-----0
  6
CONTINUOUS
  5
215
 10
416.673189
 20
354.447792
 30
0.0
 11
419.843452
 21
357.618056
 31
0.0
  0
LINE
  8
LC-003-005-----0
  6
CONTINUOUS
  5
216
 10
413.688332
 20
354.291363
 30
0.0
 11
416.858596
 21
357.461626
 31
0.0
  0
LINE
  8
LC-003-005-----0
  6
CONTINUOUS
  5
217
 10
410.703475
 20
354.134933
 30
0.0
 11
413.873739
 21
357.305196
 31
0.0
  0
LINE
  8
LC-003-005-----0
  6
CONTINUOUS
  5
218
 10
407.718618
 20
353.978503
 30
0.0
 11
410.888882
 21
357.148767
 31
0.0
  0
LINE
  8
LC-003-005-----0
  6
CONTINUOUS
  5
219
 10
404.733762
 20
353.822073
 30
0.0
 11
407.904025
 21
356.992337
 31
0.0
  0
LINE
  8
LC-003-005-----0
  6
CONTINUOUS
  5
21A
 10
401.748905
 20
353.665644
 30
0.0
 11
404.919168
 21
356.835907
 31
0.0
  0
LINE
  8
LC-003-005-----0
  6
CONTINUOUS
  5
21B
 10
398.764048
 20
353.509214
 30
0.0
 11
401.934311
 21
356.679477
 31
0.0
  0
LINE
  8
LC-003-005-----0
  6
CONTINUOUS
  5
21C
 10
395.779191
 20
353.352784
 30
0.0
 11
398.949455
 21
356.523048
 31
0.0
  0
LINE
  8
LC-003-005-----0
  6
CONTINUOUS
  5
21D
 10
393.280732
 20
353.682752
 30
0.0
 11
395.964598
 21
356.366618
 31
0.0
  0
ENDBLK
  8
0
  5
21E
  0
BLOCK
  8
0
  5
220
  2
*X13
 70
    65
 10
378.402852
 20
344.226911
 30
0.0
  3
*X13
  0
LINE
  8
LC-003-005-----0
  6
CONTINUOUS
  5
221
 10
389.562149
 20
344.307315
 30
0.0
 11
392.569151
 21
347.314317
 31
0.0
  0
LINE
  8
LC-003-005-----0
  6
CONTINUOUS
  5
222
 10
389.123918
 20
346.697511
 30
0.0
 11
389.580503
 21
347.154096
 31
0.0
  0
ENDBLK
  8
0
  5
223
  0
BLOCK
  8
0
  5
225
  2
*X14
 70
    65
 10
296.280732
 20
411.624854
 30
0.0
  3
*X14
  0
LINE
  8
LC-003-005-----0
  6
CONTINUOUS
  5
226
 10
321.115186
 20
411.624854
 30
0.0
 11
321.149157
 21
411.658825
 31
0.0
  0
LINE
  8
LC-003-005-----0
  6
CONTINUOUS
  5
227
 10
318.625906
 20
411.964001
 30
0.0
 11
320.986604
 21
414.324699
 31
0.0
  0
LINE
  8
LC-003-005-----0
  6
CONTINUOUS
  5
228
 10
318.463352
 20
414.629875
 30
0.0
 11
320.824051
 21
416.990573
 31
0.0
  0
LINE
  8
LC-003-005-----0
  6
CONTINUOUS
  5
229
 10
318.300799
 20
417.295748
 30
0.0
 11
320.661497
 21
419.656447
 31
0.0
  0
LINE
  8
LC-003-005-----0
  6
CONTINUOUS
  5
22A
 10
316.000934
 20
417.82431
 30
0.0
 11
318.30859
 21
420.131966
 31
0.0
  0
LINE
  8
LC-003-005-----0
  6
CONTINUOUS
  5
22B
 10
313.400054
 20
418.051858
 30
0.0
 11
315.70771
 21
420.359514
 31
0.0
  0
LINE
  8
LC-003-005-----0
  6
CONTINUOUS
  5
22C
 10
310.799174
 20
418.279405
 30
0.0
 11
313.10683
 21
420.587061
 31
0.0
  0
LINE
  8
LC-003-005-----0
  6
CONTINUOUS
  5
22D
 10
308.198295
 20
418.506953
 30
0.0
 11
310.505951
 21
420.814609
 31
0.0
  0
LINE
  8
LC-003-005-----0
  6
CONTINUOUS
  5
22E
 10
305.597415
 20
418.7345
 30
0.0
 11
307.905071
 21
421.042156
 31
0.0
  0
LINE
  8
LC-003-005-----0
  6
CONTINUOUS
  5
22F
 10
302.996536
 20
418.962048
 30
0.0
 11
305.304191
 21
421.269703
 31
0.0
  0
LINE
  8
LC-003-005-----0
  6
CONTINUOUS
  5
230
 10
300.395656
 20
419.189595
 30
0.0
 11
302.703312
 21
421.497251
 31
0.0
  0
LINE
  8
LC-003-005-----0
  6
CONTINUOUS
  5
231
 10
297.794776
 20
419.417143
 30
0.0
 11
300.102432
 21
421.724798
 31
0.0
  0
LINE
  8
LC-003-005-----0
  6
CONTINUOUS
  5
232
 10
296.280732
 20
420.731525
 30
0.0
 11
297.501552
 21
421.952346
 31
0.0
  0
ENDBLK
  8
0
  5
233
  0
BLOCK
  8
0
  5
235
  2
*X15
 70
    65
 10
320.536829
 20
363.950428
 30
0.0
  3
*X15
  0
LINE
  8
LC-003-005-----0
  6
CONTINUOUS
  5
236
 10
375.365912
 20
364.052203
 30
0.0
 11
376.280732
 21
364.967023
 31
0.0
  0
LINE
  8
LC-003-005-----0
  6
CONTINUOUS
  5
237
 10
372.820649
 20
364.335367
 30
0.0
 11
375.07516
 21
366.589879
 31
0.0
  0
LINE
  8
LC-003-005-----0
  6
CONTINUOUS
  5
238
 10
370.275386
 20
364.618531
 30
0.0
 11
372.530568
 21
366.873713
 31
0.0
  0
LINE
  8
LC-003-005-----0
  6
CONTINUOUS
  5
239
 10
367.730123
 20
364.901695
 30
0.0
 11
369.985975
 21
367.157548
 31
0.0
  0
LINE
  8
LC-003-005-----0
  6
CONTINUOUS
  5
23A
 10
365.18486
 20
365.18486
 30
0.0
 11
367.441382
 21
367.441382
 31
0.0
  0
LINE
  8
LC-003-005-----0
  6
CONTINUOUS
  5
23B
 10
362.639597
 20
365.468024
 30
0.0
 11
364.89679
 21
367.725217
 31
0.0
  0
LINE
  8
LC-003-005-----0
  6
CONTINUOUS
  5
23C
 10
360.094334
 20
365.751188
 30
0.0
 11
362.352197
 21
368.009051
 31
0.0
  0
LINE
  8
LC-003-005-----0
  6
CONTINUOUS
  5
23D
 10
357.549071
 20
366.034352
 30
0.0
 11
359.807604
 21
368.292886
 31
0.0
  0
LINE
  8
LC-003-005-----0
  6
CONTINUOUS
  5
23E
 10
355.003808
 20
366.317516
 30
0.0
 11
357.263011
 21
368.57672
 31
0.0
  0
LINE
  8
LC-003-005-----0
  6
CONTINUOUS
  5
23F
 10
352.458545
 20
366.60068
 30
0.0
 11
354.718419
 21
368.860554
 31
0.0
  0
LINE
  8
LC-003-005-----0
  6
CONTINUOUS
  5
240
 10
349.913282
 20
366.883844
 30
0.0
 11
352.173826
 21
369.144389
 31
0.0
  0
LINE
  8
LC-003-005-----0
  6
CONTINUOUS
  5
241
 10
347.368019
 20
367.167009
 30
0.0
 11
349.629233
 21
369.428223
 31
0.0
  0
LINE
  8
LC-003-005-----0
  6
CONTINUOUS
  5
242
 10
344.822756
 20
367.450173
 30
0.0
 11
347.084641
 21
369.712058
 31
0.0
  0
LINE
  8
LC-003-005-----0
  6
CONTINUOUS
  5
243
 10
342.277493
 20
367.733337
 30
0.0
 11
344.540048
 21
369.995892
 31
0.0
  0
LINE
  8
LC-003-005-----0
  6
CONTINUOUS
  5
244
 10
339.73223
 20
368.016501
 30
0.0
 11
341.995455
 21
370.279727
 31
0.0
  0
LINE
  8
LC-003-005-----0
  6
CONTINUOUS
  5
245
 10
337.186967
 20
368.299665
 30
0.0
 11
339.450863
 21
370.563561
 31
0.0
  0
LINE
  8
LC-003-005-----0
  6
CONTINUOUS
  5
246
 10
334.641704
 20
368.582829
 30
0.0
 11
336.90627
 21
370.847395
 31
0.0
  0
LINE
  8
LC-003-005-----0
  6
CONTINUOUS
  5
247
 10
332.096441
 20
368.865993
 30
0.0
 11
334.361677
 21
371.13123
 31
0.0
  0
LINE
  8
LC-003-005-----0
  6
CONTINUOUS
  5
248
 10
329.560364
 20
369.158344
 30
0.0
 11
331.817085
 21
371.415064
 31
0.0
  0
LINE
  8
LC-003-005-----0
  6
CONTINUOUS
  5
249
 10
327.423694
 20
369.850101
 30
0.0
 11
329.34894
 21
371.775347
 31
0.0
  0
LINE
  8
LC-003-005-----0
  6
CONTINUOUS
  5
24A
 10
325.743488
 20
370.998322
 30
0.0
 11
327.527167
 21
372.782001
 31
0.0
  0
LINE
  8
LC-003-005-----0
  6
CONTINUOUS
  5
24B
 10
324.448905
 20
372.532166
 30
0.0
 11
326.301072
 21
374.384333
 31
0.0
  0
LINE
  8
LC-003-005-----0
  6
CONTINUOUS
  5
24C
 10
323.569661
 20
374.481349
 30
0.0
 11
325.785601
 21
376.69729
 31
0.0
  0
LINE
  8
LC-003-005-----0
  6
CONTINUOUS
  5
24D
 10
323.085057
 20
376.825172
 30
0.0
 11
324.963105
 21
378.703221
 31
0.0
  0
LINE
  8
LC-003-005-----0
  6
CONTINUOUS
  5
24E
 10
321.670843
 20
378.239386
 30
0.0
 11
323.548892
 21
380.117434
 31
0.0
  0
LINE
  8
LC-003-005-----0
  6
CONTINUOUS
  5
24F
 10
320.576545
 20
379.973515
 30
0.0
 11
321.227884
 21
380.624854
 31
0.0
  0
ENDBLK
  8
0
  5
250
  0
BLOCK
  8
0
  5
252
  2
*X16
 70
    65
 10
380.280732
 20
362.059154
 30
0.0
  3
*X16
  0
LINE
  8
LC-003-005-----0
  6
CONTINUOUS
  5
253
 10
393.182753
 20
362.070054
 30
0.0
 11
393.280732
 21
362.168033
 31
0.0
  0
LINE
  8
LC-003-005-----0
  6
CONTINUOUS
  5
254
 10
390.63749
 20
362.353218
 30
0.0
 11
392.887309
 21
364.603038
 31
0.0
  0
LINE
  8
LC-003-005-----0
  6
CONTINUOUS
  5
255
 10
388.092227
 20
362.636382
 30
0.0
 11
390.342716
 21
364.886872
 31
0.0
  0
LINE
  8
LC-003-005-----0
  6
CONTINUOUS
  5
256
 10
385.546964
 20
362.919547
 30
0.0
 11
387.798124
 21
365.170707
 31
0.0
  0
LINE
  8
LC-003-005-----0
  6
CONTINUOUS
  5
257
 10
383.001701
 20
363.202711
 30
0.0
 11
385.253531
 21
365.454541
 31
0.0
  0
LINE
  8
LC-003-005-----0
  6
CONTINUOUS
  5
258
 10
380.456438
 20
363.485875
 30
0.0
 11
382.708938
 21
365.738376
 31
0.0
  0
ENDBLK
  8
0
  5
259
  0
BLOCK
  8
0
  5
25B
  2
*X17
 70
    65
 10
465.410235
 20
411.624854
 30
0.0
  3
*X17
  0
LINE
  8
LC-003-005-----0
  6
CONTINUOUS
  5
25C
 10
490.258322
 20
419.547644
 30
0.0
 11
490.280732
 21
419.570054
 31
0.0
  0
LINE
  8
LC-003-005-----0
  6
CONTINUOUS
  5
25D
 10
487.158714
 20
419.276463
 30
0.0
 11
489.908871
 21
422.02662
 31
0.0
  0
LINE
  8
LC-003-005-----0
  6
CONTINUOUS
  5
25E
 10
484.059107
 20
419.005283
 30
0.0
 11
486.809264
 21
421.75544
 31
0.0
  0
LINE
  8
LC-003-005-----0
  6
CONTINUOUS
  5
25F
 10
480.959499
 20
418.734102
 30
0.0
 11
483.709656
 21
421.484259
 31
0.0
  0
LINE
  8
LC-003-005-----0
  6
CONTINUOUS
  5
260
 10
477.859891
 20
418.462922
 30
0.0
 11
480.610048
 21
421.213079
 31
0.0
  0
LINE
  8
LC-003-005-----0
  6
CONTINUOUS
  5
261
 10
474.760284
 20
418.191741
 30
0.0
 11
477.510441
 21
420.941898
 31
0.0
  0
LINE
  8
LC-003-005-----0
  6
CONTINUOUS
  5
262
 10
465.413174
 20
411.673059
 30
0.0
 11
468.080457
 21
414.340341
 31
0.0
  0
LINE
  8
LC-003-005-----0
  6
CONTINUOUS
  5
263
 10
471.660676
 20
417.920561
 30
0.0
 11
474.410833
 21
420.670718
 31
0.0
  0
LINE
  8
LC-003-005-----0
  6
CONTINUOUS
  5
264
 10
465.596838
 20
414.68515
 30
0.0
 11
468.264121
 21
417.352432
 31
0.0
  0
LINE
  8
LC-003-005-----0
  6
CONTINUOUS
  5
265
 10
468.561068
 20
417.64938
 30
0.0
 11
471.311225
 21
420.399537
 31
0.0
  0
LINE
  8
LC-003-005-----0
  6
CONTINUOUS
  5
266
 10
465.780502
 20
417.697241
 30
0.0
 11
468.211618
 21
420.128357
 31
0.0
  0
ENDBLK
  8
0
  5
267
  0
BLOCK
  8
0
  5
269
  2
*X18
 70
    65
 10
410.280732
 20
363.950428
 30
0.0
  3
*X18
  0
LINE
  8
LC-003-005-----0
  6
CONTINUOUS
  5
26A
 10
456.810831
 20
369.12959
 30
0.0
 11
463.21493
 21
375.53369
 31
0.0
  0
LINE
  8
LC-003-005-----0
  6
CONTINUOUS
  5
26B
 10
453.625397
 20
368.772584
 30
0.0
 11
456.461715
 21
371.608901
 31
0.0
  0
LINE
  8
LC-003-005-----0
  6
CONTINUOUS
  5
26C
 10
460.708405
 20
375.855592
 30
0.0
 11
465.477667
 21
380.624854
 31
0.0
  0
LINE
  8
LC-003-005-----0
  6
CONTINUOUS
  5
26D
 10
450.442915
 20
368.418528
 30
0.0
 11
453.275619
 21
371.251233
 31
0.0
  0
LINE
  8
LC-003-005-----0
  6
CONTINUOUS
  5
26E
 10
447.260432
 20
368.064472
 30
0.0
 11
450.092088
 21
370.896128
 31
0.0
  0
LINE
  8
LC-003-005-----0
  6
CONTINUOUS
  5
26F
 10
444.077949
 20
367.710417
 30
0.0
 11
446.908556
 21
370.541024
 31
0.0
  0
LINE
  8
LC-003-005-----0
  6
CONTINUOUS
  5
270
 10
440.895466
 20
367.356361
 30
0.0
 11
443.725025
 21
370.18592
 31
0.0
  0
LINE
  8
LC-003-005-----0
  6
CONTINUOUS
  5
271
 10
437.712983
 20
367.002305
 30
0.0
 11
440.541494
 21
369.830815
 31
0.0
  0
LINE
  8
LC-003-005-----0
  6
CONTINUOUS
  5
272
 10
434.5305
 20
366.648249
 30
0.0
 11
437.357962
 21
369.475711
 31
0.0
  0
LINE
  8
LC-003-005-----0
  6
CONTINUOUS
  5
273
 10
431.348017
 20
366.294194
 30
0.0
 11
434.174431
 21
369.120607
 31
0.0
  0
LINE
  8
LC-003-005-----0
  6
CONTINUOUS
  5
274
 10
428.165535
 20
365.940138
 30
0.0
 11
430.990899
 21
368.765503
 31
0.0
  0
LINE
  8
LC-003-005-----0
  6
CONTINUOUS
  5
275
 10
424.983052
 20
365.586082
 30
0.0
 11
427.807368
 21
368.410398
 31
0.0
  0
LINE
  8
LC-003-005-----0
  6
CONTINUOUS
  5
276
 10
421.800569
 20
365.232026
 30
0.0
 11
424.623836
 21
368.055294
 31
0.0
  0
LINE
  8
LC-003-005-----0
  6
CONTINUOUS
  5
277
 10
418.618086
 20
364.877971
 30
0.0
 11
421.440305
 21
367.70019
 31
0.0
  0
LINE
  8
LC-003-005-----0
  6
CONTINUOUS
  5
278
 10
415.435603
 20
364.523915
 30
0.0
 11
418.256774
 21
367.345085
 31
0.0
  0
LINE
  8
LC-003-005-----0
  6
CONTINUOUS
  5
279
 10
412.25312
 20
364.169859
 30
0.0
 11
415.073242
 21
366.989981
 31
0.0
  0
LINE
  8
LC-003-005-----0
  6
CONTINUOUS
  5
27A
 10
410.280732
 20
365.025898
 30
0.0
 11
411.889711
 21
366.634877
 31
0.0
  0
ENDBLK
  8
0
  5
27B
  0
BLOCK
  8
0
  5
27D
  2
*X19
 70
    65
 10
393.280732
 20
362.059154
 30
0.0
  3
*X19
  0
LINE
  8
LC-003-005-----0
  6
CONTINUOUS
  5
27E
 10
405.888154
 20
363.461748
 30
0.0
 11
406.280732
 21
363.854325
 31
0.0
  0
LINE
  8
LC-003-005-----0
  6
CONTINUOUS
  5
27F
 10
402.705672
 20
363.107692
 30
0.0
 11
405.522648
 21
365.924668
 31
0.0
  0
LINE
  8
LC-003-005-----0
  6
CONTINUOUS
  5
280
 10
399.523189
 20
362.753636
 30
0.0
 11
402.339116
 21
365.569564
 31
0.0
  0
LINE
  8
LC-003-005-----0
  6
CONTINUOUS
  5
281
 10
396.340706
 20
362.39958
 30
0.0
 11
399.155585
 21
365.214459
 31
0.0
  0
LINE
  8
LC-003-005-----0
  6
CONTINUOUS
  5
282
 10
393.280732
 20
362.168033
 30
0.0
 11
395.972053
 21
364.859355
 31
0.0
  0
ENDBLK
  8
0
  5
283
  0
BLOCK
  8
0
  5
285
  2
*X20
 70
    65
 10
263.280732
 20
395.015104
 30
0.0
  3
*X20
  0
LINE
  8
LC-003-005-----0
  6
CONTINUOUS
  5
286
 10
284.706446
 20
395.015104
 30
0.0
 11
287.280732
 21
397.58939
 31
0.0
  0
LINE
  8
LC-003-005-----0
  6
CONTINUOUS
  5
287
 10
277.129837
 20
395.923776
 30
0.0
 11
287.280732
 21
406.074671
 31
0.0
  0
LINE
  8
LC-003-005-----0
  6
CONTINUOUS
  5
288
 10
276.280732
 20
403.559952
 30
0.0
 11
287.280732
 21
414.559952
 31
0.0
  0
LINE
  8
LC-003-005-----0
  6
CONTINUOUS
  5
289
 10
276.280732
 20
412.045234
 30
0.0
 11
293.280582
 21
429.045084
 31
0.0
  0
LINE
  8
LC-003-005-----0
  6
CONTINUOUS
  5
28A
 10
276.010235
 20
420.260018
 30
0.0
 11
287.765321
 21
432.015104
 31
0.0
  0
LINE
  8
LC-003-005-----0
  6
CONTINUOUS
  5
28B
 10
269.28004
 20
422.015104
 30
0.0
 11
280.159065
 21
432.89413
 31
0.0
  0
LINE
  8
LC-003-005-----0
  6
CONTINUOUS
  5
28C
 10
263.318738
 20
424.539084
 30
0.0
 11
279.280732
 21
440.501078
 31
0.0
  0
LINE
  8
LC-003-005-----0
  6
CONTINUOUS
  5
28D
 10
264.185274
 20
433.890901
 30
0.0
 11
279.280732
 21
448.986359
 31
0.0
  0
LINE
  8
LC-003-005-----0
  6
CONTINUOUS
  5
28E
 10
267.291102
 20
445.482011
 30
0.0
 11
273.824195
 21
452.015104
 31
0.0
  0
ENDBLK
  8
0
  5
28F
  0
BLOCK
  8
0
  5
291
  2
*X21
 70
    65
 10
493.280732
 20
395.015104
 30
0.0
  3
*X21
  0
LINE
  8
LC-003-005-----0
  6
CONTINUOUS
  5
292
 10
505.323762
 20
395.015104
 30
0.0
 11
510.280732
 21
399.972074
 31
0.0
  0
LINE
  8
LC-003-005-----0
  6
CONTINUOUS
  5
293
 10
499.280732
 20
397.457355
 30
0.0
 11
510.280732
 21
408.457355
 31
0.0
  0
LINE
  8
LC-003-005-----0
  6
CONTINUOUS
  5
294
 10
499.280732
 20
405.942637
 30
0.0
 11
510.280732
 21
416.942637
 31
0.0
  0
LINE
  8
LC-003-005-----0
  6
CONTINUOUS
  5
295
 10
515.353199
 20
422.015104
 30
0.0
 11
523.280732
 21
429.942637
 31
0.0
  0
LINE
  8
LC-003-005-----0
  6
CONTINUOUS
  5
296
 10
499.280732
 20
414.427918
 30
0.0
 11
521.608557
 21
436.755744
 31
0.0
  0
LINE
  8
LC-003-005-----0
  6
CONTINUOUS
  5
297
 10
499.134163
 20
422.766631
 30
0.0
 11
519.815407
 21
443.447874
 31
0.0
  0
LINE
  8
LC-003-005-----0
  6
CONTINUOUS
  5
298
 10
493.280732
 20
425.398481
 30
0.0
 11
499.897355
 21
432.015104
 31
0.0
  0
LINE
  8
LC-003-005-----0
  6
CONTINUOUS
  5
299
 10
507.280732
 20
439.398481
 30
0.0
 11
518.022256
 21
450.140005
 31
0.0
  0
LINE
  8
LC-003-005-----0
  6
CONTINUOUS
  5
29A
 10
507.280732
 20
447.883762
 30
0.0
 11
511.412074
 21
452.015104
 31
0.0
  0
ENDBLK
  8
0
  5
29B
  0
BLOCK
  8
0
  5
29D
  2
*X22
 70
    65
 10
494.780732
 20
417.187481
 30
0.0
  3
*X22
  0
LINE
  8
LC-003-005-----0
  6
CONTINUOUS
  5
29E
 10
498.033431
 20
417.423258
 30
0.0
 11
499.044955
 21
418.434782
 31
0.0
  0
LINE
  8
LC-003-005-----0
  6
DASHED
  5
2A0
 10
495.536783
 20
417.755037
 30
0.0
 11
499.280732
 21
421.498986
 31
0.0
  0
LINE
  8
LC-003-005-----0
  6
DASHED
  5
2A1
 10
494.949658
 20
418.582126
 30
0.0
 11
498.989595
 21
422.622062
 31
0.0
  0
LINE
  8
LC-003-005-----0
  6
CONTINUOUS
  5
2A2
 10
494.780732
 20
421.241626
 30
0.0
 11
497.289303
 21
423.750197
 31
0.0
  0
ENDBLK
  8
0
  5
2A3
  0
BLOCK
  8
0
  5
2A5
  2
*X23
 70
    65
 10
287.280732
 20
417.187481
 30
0.0
  3
*X23
  0
LINE
  8
LC-003-005-----0
  6
DASHED
  5
2A6
 10
288.666601
 20
417.360036
 30
0.0
 11
291.780732
 21
420.474166
 31
0.0
  0
LINE
  8
LC-003-005-----0
  6
DASHED
  5
2A7
 10
287.842466
 20
417.950114
 30
0.0
 11
291.7539
 21
421.861548
 31
0.0
  0
LINE
  8
LC-003-005-----0
  6
CONTINUOUS
  5
2A8
 10
287.280732
 20
420.216807
 30
0.0
 11
290.573043
 21
423.509117
 31
0.0
  0
LINE
  8
LC-003-005-----0
  6
CONTINUOUS
  5
2A9
 10
287.283884
 20
421.634173
 30
0.0
 11
289.411663
 21
423.761952
 31
0.0
  0
ENDBLK
  8
0
  5
2AA
  0
BLOCK
  8
0
  5
2AC
  2
BLK1
 70
    64
 10
0.0
 20
0.0
 30
0.0
  3
BLK1
  0
ENDBLK
  8
0
  5
2AD
  0
BLOCK
  8
0
  5
2AF
  2
*D25
 70
    65
 10
0.0
 20
0.0
 30
0.0
  3
*D25
  0
LINE
  8
LC-005-003-MTH-0
  6
CONTINUOUS
  5
2B0
 10
303.280732
 20
356.049604
 30
0.0
 11
303.280732
 21
29.2
 31
0.0
  0
LINE
  8
LC-005-003-MTH-0
  6
CONTINUOUS
  5
2B1
 10
483.280732
 20
356.049604
 30
0.0
 11
483.280732
 21
29.2
 31
0.0
  0
LINE
  8
LC-006-003-MTG-0
  6
CONTINUOUS
  5
2B2
 10
303.280732
 20
40.0
 30
0.0
 11
483.280732
 21
40.0
 31
0.0
  0
LINE
  8
LC-004-003-----0
  6
CONTINUOUS
  5
2B3
 10
321.126739
 20
42.349471
 30
0.0
 11
303.280732
 21
40.0
 31
0.0
  0
LINE
  8
LC-004-003-----0
  6
CONTINUOUS
  5
2B4
 10
303.280732
 20
40.0
 30
0.0
 11
321.126739
 21
37.650529
 31
0.0
  0
LINE
  8
LC-004-003-----0
  6
CONTINUOUS
  5
2B5
 10
321.126739
 20
37.650529
 30
0.0
 11
321.126739
 21
42.349471
 31
0.0
  0
LINE
  8
LC-004-003-----0
  6
CONTINUOUS
  5
2B6
 10
321.166777
 20
41.738609
 30
0.0
 11
307.960732
 21
40.0
 31
0.0
  0
LINE
  8
LC-004-003-----0
  6
CONTINUOUS
  5
2B7
 10
307.960732
 20
40.0
 30
0.0
 11
321.166777
 21
38.261391
 31
0.0
  0
LINE
  8
LC-004-003-----0
  6
CONTINUOUS
  5
2B8
 10
321.206815
 20
41.127746
 30
0.0
 11
312.640732
 21
40.0
 31
0.0
  0
LINE
  8
LC-004-003-----0
  6
CONTINUOUS
  5
2B9
 10
312.640732
 20
40.0
 30
0.0
 11
321.206815
 21
38.872254
 31
0.0
  0
LINE
  8
LC-004-003-----0
  6
CONTINUOUS
  5
2BA
 10
321.246853
 20
40.516884
 30
0.0
 11
317.320732
 21
40.0
 31
0.0
  0
LINE
  8
LC-004-003-----0
  6
CONTINUOUS
  5
2BB
 10
317.320732
 20
40.0
 30
0.0
 11
321.246853
 21
39.483116
 31
0.0
  0
LINE
  8
LC-004-003-----0
  6
CONTINUOUS
  5
2BC
 10
465.434724
 20
37.650529
 30
0.0
 11
483.280732
 21
40.0
 31
0.0
  0
LINE
  8
LC-004-003-----0
  6
CONTINUOUS
  5
2BD
 10
483.280732
 20
40.0
 30
0.0
 11
465.434724
 21
42.349471
 31
0.0
  0
LINE
  8
LC-004-003-----0
  6
CONTINUOUS
  5
2BE
 10
465.434724
 20
42.349471
 30
0.0
 11
465.434724
 21
37.650529
 31
0.0
  0
LINE
  8
LC-004-003-----0
  6
CONTINUOUS
  5
2BF
 10
465.394686
 20
38.261391
 30
0.0
 11
478.600732
 21
40.0
 31
0.0
  0
LINE
  8
LC-004-003-----0
  6
CONTINUOUS
  5
2C0
 10
478.600732
 20
40.0
 30
0.0
 11
465.394686
 21
41.738609
 31
0.0
  0
LINE
  8
LC-004-003-----0
  6
CONTINUOUS
  5
2C1
 10
465.354648
 20
38.872254
 30
0.0
 11
473.920732
 21
40.0
 31
0.0
  0
LINE
  8
LC-004-003-----0
  6
CONTINUOUS
  5
2C2
 10
473.920732
 20
40.0
 30
0.0
 11
465.354648
 21
41.127746
 31
0.0
  0
LINE
  8
LC-004-003-----0
  6
CONTINUOUS
  5
2C3
 10
465.31461
 20
39.483116
 30
0.0
 11
469.240732
 21
40.0
 31
0.0
  0
LINE
  8
LC-004-003-----0
  6
CONTINUOUS
  5
2C4
 10
469.240732
 20
40.0
 30
0.0
 11
465.31461
 21
40.516884
 31
0.0
  0
TEXT
  8
LC-004-003-----0
  6
CONTINUOUS
 62
     6
  5
2C5
 10
368.590249
 20
50.431999
 30
0.0
 40
18.0
  1
Ø180
 51
15.0
  7
LC-TXTSTYLE-150-400-0-0-D0
 72
     1
 11
393.081587
 21
50.431999
 31
0.0
  0
ENDBLK
  8
0
  5
2C6
  0
BLOCK
  8
0
  5
2C8
  2
*D26
 70
    65
 10
0.0
 20
0.0
 30
0.0
  3
*D26
  0
LINE
  8
LC-005-003-MTH-0
  6
CONTINUOUS
  5
2C9
 10
472.07496
 20
174.049604
 30
0.0
 11
584.8
 21
174.049604
 31
0.0
  0
LINE
  8
LC-005-003-MTH-0
  6
CONTINUOUS
  5
2CA
 10
473.280732
 20
236.049604
 30
0.0
 11
584.8
 21
236.049604
 31
0.0
  0
LINE
  8
LC-006-003-MTG-0
  6
CONTINUOUS
  5
2CB
 10
574.0
 20
174.049604
 30
0.0
 11
574.0
 21
236.049604
 31
0.0
  0
LINE
  8
LC-004-003-----0
  6
CONTINUOUS
  5
2CC
 10
571.650529
 20
191.895612
 30
0.0
 11
574.0
 21
174.049604
 31
0.0
  0
LINE
  8
LC-004-003-----0
  6
CONTINUOUS
  5
2CD
 10
574.0
 20
174.049604
 30
0.0
 11
576.349471
 21
191.895612
 31
0.0
  0
LINE
  8
LC-004-003-----0
  6
CONTINUOUS
  5
2CE
 10
576.349471
 20
191.895612
 30
0.0
 11
571.650529
 21
191.895612
 31
0.0
  0
LINE
  8
LC-004-003-----0
  6
CONTINUOUS
  5
2CF
 10
572.261391
 20
191.93565
 30
0.0
 11
574.0
 21
178.729604
 31
0.0
  0
LINE
  8
LC-004-003-----0
  6
CONTINUOUS
  5
2D0
 10
574.0
 20
178.729604
 30
0.0
 11
575.738609
 21
191.93565
 31
0.0
  0
LINE
  8
LC-004-003-----0
  6
CONTINUOUS
  5
2D1
 10
572.872254
 20
191.975688
 30
0.0
 11
574.0
 21
183.409604
 31
0.0
  0
LINE
  8
LC-004-003-----0
  6
CONTINUOUS
  5
2D2
 10
574.0
 20
183.409604
 30
0.0
 11
575.127746
 21
191.975688
 31
0.0
  0
LINE
  8
LC-004-003-----0
  6
CONTINUOUS
  5
2D3
 10
573.483116
 20
192.015726
 30
0.0
 11
574.0
 21
188.089604
 31
0.0
  0
LINE
  8
LC-004-003-----0
  6
CONTINUOUS
  5
2D4
 10
574.0
 20
188.089604
 30
0.0
 11
574.516884
 21
192.015726
 31
0.0
  0
LINE
  8
LC-004-003-----0
  6
CONTINUOUS
  5
2D5
 10
576.349471
 20
218.203597
 30
0.0
 11
574.0
 21
236.049604
 31
0.0
  0
LINE
  8
LC-004-003-----0
  6
CONTINUOUS
  5
2D6
 10
574.0
 20
236.049604
 30
0.0
 11
571.650529
 21
218.203597
 31
0.0
  0
LINE
  8
LC-004-003-----0
  6
CONTINUOUS
  5
2D7
 10
571.650529
 20
218.203597
 30
0.0
 11
576.349471
 21
218.203597
 31
0.0
  0
LINE
  8
LC-004-003-----0
  6
CONTINUOUS
  5
2D8
 10
575.738609
 20
218.163559
 30
0.0
 11
574.0
 21
231.369604
 31
0.0
  0
LINE
  8
LC-004-003-----0
  6
CONTINUOUS
  5
2D9
 10
574.0
 20
231.369604
 30
0.0
 11
572.261391
 21
218.163559
 31
0.0
  0
LINE
  8
LC-004-003-----0
  6
CONTINUOUS
  5
2DA
 10
575.127746
 20
218.123521
 30
0.0
 11
574.0
 21
226.689604
 31
0.0
  0
LINE
  8
LC-004-003-----0
  6
CONTINUOUS
  5
2DB
 10
574.0
 20
226.689604
 30
0.0
 11
572.872254
 21
218.123521
 31
0.0
  0
LINE
  8
LC-004-003-----0
  6
CONTINUOUS
  5
2DC
 10
574.516884
 20
218.083483
 30
0.0
 11
574.0
 21
222.009604
 31
0.0
  0
LINE
  8
LC-004-003-----0
  6
CONTINUOUS
  5
2DD
 10
574.0
 20
222.009604
 30
0.0
 11
573.483116
 21
218.083483
 31
0.0
  0
TEXT
  8
LC-004-003-----0
  6
CONTINUOUS
 62
     6
  5
2DE
 10
563.568001
 20
195.981858
 30
0.0
 40
18.0
  1
62
 50
90.0
 51
15.0
  7
LC-TXTSTYLE-150-400-0-0-D0
 72
     1
 11
563.568001
 21
207.84485
 31
0.0
  0
ENDBLK
  8
0
  5
2DF
  0
BLOCK
  8
0
  5
2E1
  2
*D27
 70
    65
 10
0.0
 20
0.0
 30
0.0
  3
*D27
  0
LINE
  8
LC-005-003-MTH-0
  6
CONTINUOUS
  5
2E2
 10
472.93732
 20
236.049604
 30
0.0
 11
584.8
 21
236.049604
 31
0.0
  0
LINE
  8
LC-005-003-MTH-0
  6
CONTINUOUS
  5
2E3
 10
515.98517
 20
452.015104
 30
0.0
 11
584.8
 21
452.015104
 31
0.0
  0
LINE
  8
LC-006-003-MTG-0
  6
CONTINUOUS
  5
2E4
 10
574.0
 20
236.049604
 30
0.0
 11
574.0
 21
452.015104
 31
0.0
  0
LINE
  8
LC-004-003-----0
  6
CONTINUOUS
  5
2E5
 10
571.650529
 20
253.895612
 30
0.0
 11
574.0
 21
236.049604
 31
0.0
  0
LINE
  8
LC-004-003-----0
  6
CONTINUOUS
  5
2E6
 10
574.0
 20
236.049604
 30
0.0
 11
576.349471
 21
253.895612
 31
0.0
  0
LINE
  8
LC-004-003-----0
  6
CONTINUOUS
  5
2E7
 10
576.349471
 20
253.895612
 30
0.0
 11
571.650529
 21
253.895612
 31
0.0
  0
LINE
  8
LC-004-003-----0
  6
CONTINUOUS
  5
2E8
 10
572.261391
 20
253.93565
 30
0.0
 11
574.0
 21
240.729604
 31
0.0
  0
LINE
  8
LC-004-003-----0
  6
CONTINUOUS
  5
2E9
 10
574.0
 20
240.729604
 30
0.0
 11
575.738609
 21
253.93565
 31
0.0
  0
LINE
  8
LC-004-003-----0
  6
CONTINUOUS
  5
2EA
 10
572.872254
 20
253.975688
 30
0.0
 11
574.0
 21
245.409604
 31
0.0
  0
LINE
  8
LC-004-003-----0
  6
CONTINUOUS
  5
2EB
 10
574.0
 20
245.409604
 30
0.0
 11
575.127746
 21
253.975688
 31
0.0
  0
LINE
  8
LC-004-003-----0
  6
CONTINUOUS
  5
2EC
 10
573.483116
 20
254.015726
 30
0.0
 11
574.0
 21
250.089604
 31
0.0
  0
LINE
  8
LC-004-003-----0
  6
CONTINUOUS
  5
2ED
 10
574.0
 20
250.089604
 30
0.0
 11
574.516884
 21
254.015726
 31
0.0
  0
LINE
  8
LC-004-003-----0
  6
CONTINUOUS
  5
2EE
 10
576.349471
 20
434.169097
 30
0.0
 11
574.0
 21
452.015104
 31
0.0
  0
LINE
  8
LC-004-003-----0
  6
CONTINUOUS
  5
2EF
 10
574.0
 20
452.015104
 30
0.0
 11
571.650529
 21
434.169097
 31
0.0
  0
LINE
  8
LC-004-003-----0
  6
CONTINUOUS
  5
2F0
 10
571.650529
 20
434.169097
 30
0.0
 11
576.349471
 21
434.169097
 31
0.0
  0
LINE
  8
LC-004-003-----0
  6
CONTINUOUS
  5
2F1
 10
575.738609
 20
434.129059
 30
0.0
 11
574.0
 21
447.335104
 31
0.0
  0
LINE
  8
LC-004-003-----0
  6
CONTINUOUS
  5
2F2
 10
574.0
 20
447.335104
 30
0.0
 11
572.261391
 21
434.129059
 31
0.0
  0
LINE
  8
LC-004-003-----0
  6
CONTINUOUS
  5
2F3
 10
575.127746
 20
434.089021
 30
0.0
 11
574.0
 21
442.655104
 31
0.0
  0
LINE
  8
LC-004-003-----0
  6
CONTINUOUS
  5
2F4
 10
574.0
 20
442.655104
 30
0.0
 11
572.872254
 21
434.089021
 31
0.0
  0
LINE
  8
LC-004-003-----0
  6
CONTINUOUS
  5
2F5
 10
574.516884
 20
434.048983
 30
0.0
 11
574.0
 21
437.975104
 31
0.0
  0
LINE
  8
LC-004-003-----0
  6
CONTINUOUS
  5
2F6
 10
574.0
 20
437.975104
 30
0.0
 11
573.483116
 21
434.048983
 31
0.0
  0
TEXT
  8
LC-004-003-----0
  6
CONTINUOUS
 62
     6
  5
2F7
 10
563.568001
 20
327.693742
 30
0.0
 40
18.0
  1
221
 50
90.0
 51
15.0
  7
LC-TXTSTYLE-150-400-0-0-D0
 72
     1
 11
563.568001
 21
346.8276
 31
0.0
  0
ENDBLK
  8
0
  5
2F8
  0
BLOCK
  8
0
  5
2FA
  2
*D28
 70
    65
 10
0.0
 20
0.0
 30
0.0
  3
*D28
  0
LINE
  8
LC-005-003-MTH-0
  6
CONTINUOUS
  5
2FB
 10
520.280732
 20
422.015104
 30
0.0
 11
570.8
 21
422.015104
 31
0.0
  0
LINE
  8
LC-005-003-MTH-0
  6
CONTINUOUS
  5
2FC
 10
515.98517
 20
452.015104
 30
0.0
 11
570.8
 21
452.015104
 31
0.0
  0
LINE
  8
LC-004-003-----0
  6
CONTINUOUS
  5
2FD
 10
562.349471
 20
404.169097
 30
0.0
 11
560.0
 21
422.015104
 31
0.0
  0
LINE
  8
LC-004-003-----0
  6
CONTINUOUS
  5
2FE
 10
560.0
 20
422.015104
 30
0.0
 11
557.650529
 21
404.169097
 31
0.0
  0
LINE
  8
LC-004-003-----0
  6
CONTINUOUS
  5
2FF
 10
557.650529
 20
404.169097
 30
0.0
 11
562.349471
 21
404.169097
 31
0.0
  0
LINE
  8
LC-004-003-----0
  6
CONTINUOUS
  5
300
 10
561.738609
 20
404.129059
 30
0.0
 11
560.0
 21
417.335104
 31
0.0
  0
LINE
  8
LC-004-003-----0
  6
CONTINUOUS
  5
301
 10
560.0
 20
417.335104
 30
0.0
 11
558.261391
 21
404.129059
 31
0.0
  0
LINE
  8
LC-004-003-----0
  6
CONTINUOUS
  5
302
 10
561.127746
 20
404.089021
 30
0.0
 11
560.0
 21
412.655104
 31
0.0
  0
LINE
  8
LC-004-003-----0
  6
CONTINUOUS
  5
303
 10
560.0
 20
412.655104
 30
0.0
 11
558.872254
 21
404.089021
 31
0.0
  0
LINE
  8
LC-004-003-----0
  6
CONTINUOUS
  5
304
 10
560.516884
 20
404.048983
 30
0.0
 11
560.0
 21
407.975104
 31
0.0
  0
LINE
  8
LC-004-003-----0
  6
CONTINUOUS
  5
305
 10
560.0
 20
407.975104
 30
0.0
 11
559.483116
 21
404.048983
 31
0.0
  0
LINE
  8
LC-004-003-----0
  6
CONTINUOUS
  5
306
 10
557.650529
 20
469.861112
 30
0.0
 11
560.0
 21
452.015104
 31
0.0
  0
LINE
  8
LC-004-003-----0
  6
CONTINUOUS
  5
307
 10
560.0
 20
452.015104
 30
0.0
 11
562.349471
 21
469.861112
 31
0.0
  0
LINE
  8
LC-004-003-----0
  6
CONTINUOUS
  5
308
 10
562.349471
 20
469.861112
 30
0.0
 11
557.650529
 21
469.861112
 31
0.0
  0
LINE
  8
LC-004-003-----0
  6
CONTINUOUS
  5
309
 10
558.261391
 20
469.90115
 30
0.0
 11
560.0
 21
456.695104
 31
0.0
  0
LINE
  8
LC-004-003-----0
  6
CONTINUOUS
  5
30A
 10
560.0
 20
456.695104
 30
0.0
 11
561.738609
 21
469.90115
 31
0.0
  0
LINE
  8
LC-004-003-----0
  6
CONTINUOUS
  5
30B
 10
558.872254
 20
469.941188
 30
0.0
 11
560.0
 21
461.375104
 31
0.0
  0
LINE
  8
LC-004-003-----0
  6
CONTINUOUS
  5
30C
 10
560.0
 20
461.375104
 30
0.0
 11
561.127746
 21
469.941188
 31
0.0
  0
LINE
  8
LC-004-003-----0
  6
CONTINUOUS
  5
30D
 10
559.483116
 20
469.981226
 30
0.0
 11
560.0
 21
466.055104
 31
0.0
  0
LINE
  8
LC-004-003-----0
  6
CONTINUOUS
  5
30E
 10
560.0
 20
466.055104
 30
0.0
 11
560.516884
 21
469.981226
 31
0.0
  0
LINE
  8
LC-006-003-MTG-0
  6
CONTINUOUS
  5
30F
 10
560.0
 20
396.815104
 30
0.0
 11
560.0
 21
510.017624
 31
0.0
  0
TEXT
  8
LC-004-003-----0
  6
CONTINUOUS
 62
     6
  5
310
 10
549.568001
 20
479.29035
 30
0.0
 40
18.0
  1
28
 50
90.0
 51
15.0
  7
LC-TXTSTYLE-150-400-0-0-D0
  0
ENDBLK
  8
0
  5
311
  0
BLOCK
  8
0
  5
313
  2
BLK2
 70
    64
 10
0.0
 20
0.0
 30
0.0
  3
BLK2
  0
ENDBLK
  8
0
  5
314
  0
BLOCK
  8
0
  5
316
  2
*X30
 70
    65
 10
488.282991
 20
432.015104
 30
0.0
  3
*X30
  0
LINE
  8
LC-003-005-----0
  6
CONTINUOUS
  5
317
 10
504.566773
 20
445.784741
 30
0.0
 11
498.33641
 21
452.015104
 31
0.0
  0
LINE
  8
LC-003-005-----0
  6
CONTINUOUS
  5
318
 10
504.425923
 20
443.097164
 30
0.0
 11
495.507982
 21
452.015104
 31
0.0
  0
LINE
  8
LC-003-005-----0
  6
CONTINUOUS
  5
319
 10
504.144223
 20
437.72201
 30
0.0
 11
489.890099
 21
451.976134
 31
0.0
  0
LINE
  8
LC-003-005-----0
  6
CONTINUOUS
  5
31A
 10
504.003373
 20
435.034433
 30
0.0
 11
488.386782
 21
450.651023
 31
0.0
  0
LINE
  8
LC-003-005-----0
  6
CONTINUOUS
  5
31B
 10
501.365847
 20
432.015104
 30
0.0
 11
488.552043
 21
444.828908
 31
0.0
  0
LINE
  8
LC-003-005-----0
  6
CONTINUOUS
  5
31C
 10
498.53742
 20
432.015104
 30
0.0
 11
488.708473
 21
441.844051
 31
0.0
  0
LINE
  8
LC-003-005-----0
  6
CONTINUOUS
  5
31D
 10
492.880565
 20
432.015104
 30
0.0
 11
489.021332
 21
435.874337
 31
0.0
  0
ENDBLK
  8
0
  5
31E
  0
BLOCK
  8
0
  5
320
  2
*X31
 70
    65
 10
328.278473
 20
418.015104
 30
0.0
  3
*X31
  0
LINE
  8
LC-003-005-----0
  6
CONTINUOUS
  5
321
 10
458.126175
 20
446.970505
 30
0.0
 11
453.081576
 21
452.015104
 31
0.0
  0
LINE
  8
LC-003-005-----0
  6
CONTINUOUS
  5
322
 10
457.985325
 20
444.282928
 30
0.0
 11
450.253148
 21
452.015104
 31
0.0
  0
LINE
  8
LC-003-005-----0
  6
CONTINUOUS
  5
323
 10
457.703625
 20
438.907774
 30
0.0
 11
444.596294
 21
452.015104
 31
0.0
  0
LINE
  8
LC-003-005-----0
  6
CONTINUOUS
  5
324
 10
457.562775
 20
436.220196
 30
0.0
 11
441.767867
 21
452.015104
 31
0.0
  0
LINE
  8
LC-003-005-----0
  6
CONTINUOUS
  5
325
 10
456.024927
 20
432.101191
 30
0.0
 11
436.111013
 21
452.015104
 31
0.0
  0
LINE
  8
LC-003-005-----0
  6
CONTINUOUS
  5
326
 10
455.20495
 20
430.09274
 30
0.0
 11
433.282586
 21
452.015104
 31
0.0
  0
LINE
  8
LC-003-005-----0
  6
CONTINUOUS
  5
327
 10
450.609126
 20
429.03171
 30
0.0
 11
427.625731
 21
452.015104
 31
0.0
  0
LINE
  8
LC-003-005-----0
  6
CONTINUOUS
  5
328
 10
448.311213
 20
428.501195
 30
0.0
 11
424.797304
 21
452.015104
 31
0.0
  0
LINE
  8
LC-003-005-----0
  6
CONTINUOUS
  5
329
 10
443.715389
 20
427.440166
 30
0.0
 11
419.14045
 21
452.015104
 31
0.0
  0
LINE
  8
LC-003-005-----0
  6
CONTINUOUS
  5
32A
 10
441.417476
 20
426.909651
 30
0.0
 11
416.312023
 21
452.015104
 31
0.0
  0
LINE
  8
LC-003-005-----0
  6
CONTINUOUS
  5
32B
 10
436.821652
 20
425.848621
 30
0.0
 11
410.655169
 21
452.015104
 31
0.0
  0
LINE
  8
LC-003-005-----0
  6
CONTINUOUS
  5
32C
 10
434.52374
 20
425.318106
 30
0.0
 11
407.826742
 21
452.015104
 31
0.0
  0
LINE
  8
LC-003-005-----0
  6
CONTINUOUS
  5
32D
 10
429.927915
 20
424.257077
 30
0.0
 11
402.169887
 21
452.015104
 31
0.0
  0
LINE
  8
LC-003-005-----0
  6
CONTINUOUS
  5
32E
 10
427.630003
 20
423.726562
 30
0.0
 11
399.34146
 21
452.015104
 31
0.0
  0
LINE
  8
LC-003-005-----0
  6
CONTINUOUS
  5
32F
 10
423.034178
 20
422.665532
 30
0.0
 11
393.684606
 21
452.015104
 31
0.0
  0
LINE
  8
LC-003-005-----0
  6
CONTINUOUS
  5
330
 10
420.736266
 20
422.135017
 30
0.0
 11
390.856179
 21
452.015104
 31
0.0
  0
LINE
  8
LC-003-005-----0
  6
CONTINUOUS
  5
331
 10
416.140441
 20
421.073987
 30
0.0
 11
385.199325
 21
452.015104
 31
0.0
  0
LINE
  8
LC-003-005-----0
  6
CONTINUOUS
  5
332
 10
413.842529
 20
420.543473
 30
0.0
 11
382.370897
 21
452.015104
 31
0.0
  0
LINE
  8
LC-003-005-----0
  6
CONTINUOUS
  5
333
 10
409.246705
 20
419.482443
 30
0.0
 11
376.714043
 21
452.015104
 31
0.0
  0
LINE
  8
LC-003-005-----0
  6
CONTINUOUS
  5
334
 10
406.948792
 20
418.951928
 30
0.0
 11
373.885616
 21
452.015104
 31
0.0
  0
LINE
  8
LC-003-005-----0
  6
CONTINUOUS
  5
335
 10
402.228762
 20
418.015104
 30
0.0
 11
368.228762
 21
452.015104
 31
0.0
  0
LINE
  8
LC-003-005-----0
  6
CONTINUOUS
  5
336
 10
399.400335
 20
418.015104
 30
0.0
 11
365.400335
 21
452.015104
 31
0.0
  0
LINE
  8
LC-003-005-----0
  6
CONTINUOUS
  5
337
 10
393.74348
 20
418.015104
 30
0.0
 11
359.74348
 21
452.015104
 31
0.0
  0
LINE
  8
LC-003-005-----0
  6
CONTINUOUS
  5
338
 10
390.915053
 20
418.015104
 30
0.0
 11
356.915053
 21
452.015104
 31
0.0
  0
LINE
  8
LC-003-005-----0
  6
CONTINUOUS
  5
339
 10
385.258199
 20
418.015104
 30
0.0
 11
351.258199
 21
452.015104
 31
0.0
  0
LINE
  8
LC-003-005-----0
  6
CONTINUOUS
  5
33A
 10
382.055167
 20
418.389709
 30
0.0
 11
348.429772
 21
452.015104
 31
0.0
  0
LINE
  8
LC-003-005-----0
  6
CONTINUOUS
  5
33B
 10
374.70031
 20
420.087712
 30
0.0
 11
342.772918
 21
452.015104
 31
0.0
  0
LINE
  8
LC-003-005-----0
  6
CONTINUOUS
  5
33C
 10
371.022882
 20
420.936713
 30
0.0
 11
339.944491
 21
452.015104
 31
0.0
  0
LINE
  8
LC-003-005-----0
  6
CONTINUOUS
  5
33D
 10
363.668025
 20
422.634716
 30
0.0
 11
334.287636
 21
452.015104
 31
0.0
  0
LINE
  8
LC-003-005-----0
  6
CONTINUOUS
  5
33E
 10
359.990597
 20
423.483717
 30
0.0
 11
331.459209
 21
452.015104
 31
0.0
  0
LINE
  8
LC-003-005-----0
  6
CONTINUOUS
  5
33F
 10
352.63574
 20
425.181719
 30
0.0
 11
328.301908
 21
449.515551
 31
0.0
  0
LINE
  8
LC-003-005-----0
  6
CONTINUOUS
  5
340
 10
348.958312
 20
426.03072
 30
0.0
 11
328.458338
 21
446.530694
 31
0.0
  0
LINE
  8
LC-003-005-----0
  6
CONTINUOUS
  5
341
 10
341.603455
 20
427.728723
 30
0.0
 11
328.771198
 21
440.56098
 31
0.0
  0
LINE
  8
LC-003-005-----0
  6
CONTINUOUS
  5
342
 10
337.926027
 20
428.577724
 30
0.0
 11
328.927627
 21
437.576123
 31
0.0
  0
ENDBLK
  8
0
  5
343
  0
BLOCK
  8
0
  5
345
  2
*X32
 70
    65
 10
281.782991
 20
432.015104
 30
0.0
  3
*X32
  0
LINE
  8
LC-003-005-----0
  6
CONTINUOUS
  5
346
 10
294.124662
 20
446.923245
 30
0.0
 11
289.032802
 21
452.015104
 31
0.0
  0
LINE
  8
LC-003-005-----0
  6
CONTINUOUS
  5
347
 10
293.983812
 20
444.235668
 30
0.0
 11
286.204375
 21
452.015104
 31
0.0
  0
LINE
  8
LC-003-005-----0
  6
CONTINUOUS
  5
348
 10
293.702112
 20
438.860513
 30
0.0
 11
281.893091
 21
450.669534
 31
0.0
  0
LINE
  8
LC-003-005-----0
  6
CONTINUOUS
  5
349
 10
293.561262
 20
436.172936
 30
0.0
 11
281.894241
 21
447.839957
 31
0.0
  0
LINE
  8
LC-003-005-----0
  6
CONTINUOUS
  5
34A
 10
291.987405
 20
432.089939
 30
0.0
 11
282.2071
 21
441.870244
 31
0.0
  0
LINE
  8
LC-003-005-----0
  6
CONTINUOUS
  5
34B
 10
289.233812
 20
432.015104
 30
0.0
 11
282.36353
 21
438.885387
 31
0.0
  0
ENDBLK
  8
0
  5
34C
  0
BLOCK
  8
0
  5
34E
  2
*D33
 70
    65
 10
0.0
 20
0.0
 30
0.0
  3
*D33
  0
LINE
  8
LC-005-003-MTH-0
  6
CONTINUOUS
  5
34F
 10
281.782991
 20
450.015104
 30
0.0
 11
281.782991
 21
486.8
 31
0.0
  0
LINE
  8
LC-005-003-MTH-0
  6
CONTINUOUS
  5
350
 10
504.782991
 20
449.910432
 30
0.0
 11
504.782991
 21
486.8
 31
0.0
  0
LINE
  8
LC-006-003-MTG-0
  6
CONTINUOUS
  5
351
 10
281.782991
 20
476.0
 30
0.0
 11
504.782991
 21
476.0
 31
0.0
  0
LINE
  8
LC-004-003-----0
  6
CONTINUOUS
  5
352
 10
299.628998
 20
478.349471
 30
0.0
 11
281.782991
 21
476.0
 31
0.0
  0
LINE
  8
LC-004-003-----0
  6
CONTINUOUS
  5
353
 10
281.782991
 20
476.0
 30
0.0
 11
299.628998
 21
473.650529
 31
0.0
  0
LINE
  8
LC-004-003-----0
  6
CONTINUOUS
  5
354
 10
299.628998
 20
473.650529
 30
0.0
 11
299.628998
 21
478.349471
 31
0.0
  0
LINE
  8
LC-004-003-----0
  6
CONTINUOUS
  5
355
 10
299.669036
 20
477.738609
 30
0.0
 11
286.462991
 21
476.0
 31
0.0
  0
LINE
  8
LC-004-003-----0
  6
CONTINUOUS
  5
356
 10
286.462991
 20
476.0
 30
0.0
 11
299.669036
 21
474.261391
 31
0.0
  0
LINE
  8
LC-004-003-----0
  6
CONTINUOUS
  5
357
 10
299.709074
 20
477.127746
 30
0.0
 11
291.142991
 21
476.0
 31
0.0
  0
LINE
  8
LC-004-003-----0
  6
CONTINUOUS
  5
358
 10
291.142991
 20
476.0
 30
0.0
 11
299.709074
 21
474.872254
 31
0.0
  0
LINE
  8
LC-004-003-----0
  6
CONTINUOUS
  5
359
 10
299.749112
 20
476.516884
 30
0.0
 11
295.822991
 21
476.0
 31
0.0
  0
LINE
  8
LC-004-003-----0
  6
CONTINUOUS
  5
35A
 10
295.822991
 20
476.0
 30
0.0
 11
299.749112
 21
475.483116
 31
0.0
  0
LINE
  8
LC-004-003-----0
  6
CONTINUOUS
  5
35B
 10
486.936983
 20
473.650529
 30
0.0
 11
504.782991
 21
476.0
 31
0.0
  0
LINE
  8
LC-004-003-----0
  6
CONTINUOUS
  5
35C
 10
504.782991
 20
476.0
 30
0.0
 11
486.936983
 21
478.349471
 31
0.0
  0
LINE
  8
LC-004-003-----0
  6
CONTINUOUS
  5
35D
 10
486.936983
 20
478.349471
 30
0.0
 11
486.936983
 21
473.650529
 31
0.0
  0
LINE
  8
LC-004-003-----0
  6
CONTINUOUS
  5
35E
 10
486.896945
 20
474.261391
 30
0.0
 11
500.102991
 21
476.0
 31
0.0
  0
LINE
  8
LC-004-003-----0
  6
CONTINUOUS
  5
35F
 10
500.102991
 20
476.0
 30
0.0
 11
486.896945
 21
477.738609
 31
0.0
  0
LINE
  8
LC-004-003-----0
  6
CONTINUOUS
  5
360
 10
486.856907
 20
474.872254
 30
0.0
 11
495.422991
 21
476.0
 31
0.0
  0
LINE
  8
LC-004-003-----0
  6
CONTINUOUS
  5
361
 10
495.422991
 20
476.0
 30
0.0
 11
486.856907
 21
477.127746
 31
0.0
  0
LINE
  8
LC-004-003-----0
  6
CONTINUOUS
  5
362
 10
486.816869
 20
475.483116
 30
0.0
 11
490.742991
 21
476.0
 31
0.0
  0
LINE
  8
LC-004-003-----0
  6
CONTINUOUS
  5
363
 10
490.742991
 20
476.0
 30
0.0
 11
486.816869
 21
476.516884
 31
0.0
  0
TEXT
  8
LC-004-003-----0
  6
CONTINUOUS
 62
     6
  5
364
 10
376.944378
 20
486.431999
 30
0.0
 40
18.0
  1
226
 51
15.0
  7
LC-TXTSTYLE-150-400-0-0-D0
 72
     1
 11
396.078236
 21
486.431999
 31
0.0
  0
ENDBLK
  8
0
  5
365
  0
ENDSEC
  0
SECTION
  2
ENTITIES
  0
VIEWPORT
  8
LC-000
  5
4B1
 67
     1
 68
     1
 10
420.0
 20
297.0
 30
0.0
 40
840.0
 41
594.0
 69
     1
1001
ACAD
1000
MVIEW
1002
{
1070
    16
1010
0.0
1020
0.0
1030
0.0
1010
0.0
1020
0.0
1030
1.0
1040
0.0
1040
594.0
1040
420.0
1040
297.0
1040
50.0
1040
0.0
1040
0.0
1070
     0
1070
   100
1070
     1
1070
     1
1070
     0
1070
     0
1070
     0
1070
     0
1040
0.0
1040
0.0
1040
0.0
1040
1.0
1040
1.0
1040
0.0
1040
0.0
1070
     0
1002
{
1002
}
1002
}
  0
VIEWPORT
  8
0
  5
4B2
 67
     1
 68
     1
 10
0.0
 20
0.0
 30
0.0
 40
0.0
 41
0.0
 69
     1
1001
ACAD
1000
MVIEW
1002
{
1070
    16
1010
0.0
1020
0.0
1030
0.0
1010
0.0
1020
0.0
1030
1.0
1040
0.0
1040
594.0
1040
0.0
1040
0.0
1040
50.0
1040
0.0
1040
0.0
1070
     0
1070
   100
1070
     0
1070
     1
1070
     0
1070
     0
1070
     0
1070
     0
1040
0.0
1040
0.0
1040
0.0
1040
0.5
1040
0.5
1040
0.5
1040
0.5
1070
     0
1002
{
1002
}
1002
}
  0
INSERT
  8
0
  5
366
  2
*X0
 10
475.280732
 20
360.19695
 30
0.0
  0
DIMENSION
  8
0
  5
367
  2
*D1
 10
397.228558
 20
520.0
 30
0.0
 11
397.228558
 21
520.0
 31
0.0
 13
263.280732
 23
430.515104
 33
0.0
 14
523.280732
 24
430.515104
 34
0.0
  3
LC-DIM-L-0090-02-02
  0
DIMENSION
  8
0
  5
368
  2
*D2
 10
393.280732
 20
84.0
 30
0.0
 11
393.280732
 21
84.0
 31
0.0
  1
%%c166
 13
310.160042
 23
242.049604
 33
0.0
 14
476.401421
 24
242.049604
 34
0.0
  3
LC-DIM-L-0090-02-02
  0
INSERT
  8
0
  5
369
  2
*X3
 10
291.825732
 20
174.049604
 30
0.0
  0
INSERT
  8
0
  5
36A
  2
*X4
 10
469.280732
 20
174.049604
 30
0.0
  0
DIMENSION
  8
0
  5
36B
  2
*D5
 10
393.280732
 20
126.0
 30
0.0
 11
393.280732
 21
126.0
 31
0.0
  1
DN150
 13
313.280732
 23
178.549604
 33
0.0
 14
473.280732
 24
178.549604
 34
0.0
  3
LC-DIM-L-0090-02-02
  0
INSERT
  8
0
  5
36C
  2
*X6
 10
307.280732
 20
360.19695
 30
0.0
  0
INSERT
  8
0
  5
36D
  2
*X7
 10
304.280732
 20
262.285127
 30
0.0
  0
INSERT
  8
0
  5
36E
  2
*X8
 10
393.280732
 20
260.425302
 30
0.0
  0
INSERT
  8
0
  5
36F
  2
*X9
 10
393.280732
 20
260.128377
 30
0.0
  0
INSERT
  8
0
  5
370
  2
*X10
 10
378.402852
 20
323.123046
 30
0.0
  0
INSERT
  8
0
  5
371
  2
*X11
 10
382.630606
 20
336.224918
 30
0.0
  0
INSERT
  8
0
  5
372
  2
*X12
 10
393.280732
 20
353.221845
 30
0.0
  0
INSERT
  8
0
  5
373
  2
*X13
 10
378.402852
 20
344.226911
 30
0.0
  0
INSERT
  8
0
  5
374
  2
*X14
 10
296.280732
 20
411.624854
 30
0.0
  0
INSERT
  8
0
  5
375
  2
*X15
 10
320.536829
 20
363.950428
 30
0.0
  0
INSERT
  8
0
  5
376
  2
*X16
 10
380.280732
 20
362.059154
 30
0.0
  0
INSERT
  8
0
  5
377
  2
*X17
 10
465.410235
 20
411.624854
 30
0.0
  0
INSERT
  8
0
  5
378
  2
*X18
 10
410.280732
 20
363.950428
 30
0.0
  0
INSERT
  8
0
  5
379
  2
*X19
 10
393.280732
 20
362.059154
 30
0.0
  0
INSERT
  8
0
  5
37A
  2
*X20
 10
263.280732
 20
395.015104
 30
0.0
  0
INSERT
  8
0
  5
37B
  2
*X21
 10
493.280732
 20
395.015104
 30
0.0
  0
INSERT
  8
0
  5
37C
  2
*X22
 10
494.780732
 20
417.187481
 30
0.0
  0
INSERT
  8
0
  5
37D
  2
*X23
 10
287.280732
 20
417.187481
 30
0.0
  0
INSERT
  8
0
  5
37F
  2
BLK1
 10
0.0
 20
0.0
 30
0.0
  0
DIMENSION
  8
0
  5
380
  2
*D25
 10
390.286342
 20
40.0
 30
0.0
 11
390.286342
 21
40.0
 31
0.0
  1
%%c<>
 13
303.280732
 23
356.049604
 33
0.0
 14
483.280732
 24
356.049604
 34
0.0
  3
LC-DIM-L-0090-02-02
  0
DIMENSION
  8
0
  5
381
  2
*D26
 10
574.0
 20
205.049604
 30
0.0
 11
574.0
 21
205.049604
 31
0.0
 13
473.280732
 23
236.049604
 33
0.0
 14
472.07496
 24
174.049604
 34
0.0
 50
90.0
  3
LC-DIM-L-0090-02-02
  0
DIMENSION
  8
0
  5
382
  2
*D27
 10
574.0
 20
344.032354
 30
0.0
 11
574.0
 21
344.032354
 31
0.0
  1
221
 13
515.98517
 23
452.015104
 33
0.0
 14
472.93732
 24
236.049604
 34
0.0
 50
90.0
  3
LC-DIM-L-0090-02-02
  0
DIMENSION
  8
0
  5
383
  2
*D28
 10
560.0
 20
437.015104
 30
0.0
 11
560.0
 21
437.015104
 31
0.0
  1
28
 13
515.98517
 23
452.015104
 33
0.0
 14
520.280732
 24
422.015104
 34
0.0
 50
90.0
  3
LC-DIM-L-0090-02-02
  0
INSERT
  8
0
  5
385
  2
BLK2
 10
0.0
 20
0.0
 30
0.0
  0
INSERT
  8
0
  5
386
  2
*X30
 10
488.282991
 20
432.015104
 30
0.0
  0
INSERT
  8
0
  5
387
  2
*X31
 10
328.278473
 20
418.015104
 30
0.0
  0
INSERT
  8
0
  5
388
  2
*X32
 10
281.782991
 20
432.015104
 30
0.0
  0
DIMENSION
  8
0
  5
389
  2
*D33
 10
393.282991
 20
476.0
 30
0.0
 11
393.282991
 21
476.0
 31
0.0
  1
226
 13
281.782991
 23
450.015104
 33
0.0
 14
504.782991
 24
449.910432
 34
0.0
  3
LC-DIM-L-0090-02-02
  0
LINE
  8
LC-001-002-----0
  6
CONTINUOUS
  5
38B
 10
313.780732
 20
368.549604
 30
0.0
 11
308.780732
 21
373.549604
 31
0.0
  0
ARC
  8
LC-002-002-RND-0
  6
CONTINUOUS
  5
38D
 10
305.780732
 20
372.049604
 30
0.0
 40
1.5
 50
90.0
 51
180.0
  0
ARC
  8
LC-002-002-RND-0
  6
CONTINUOUS
  5
38E
 10
305.780732
 20
372.049604
 30
0.0
 40
1.5
 50
180.0
 51
270.0
  0
LINE
  8
LC-001-002-----0
  6
CONTINUOUS
  5
38F
 10
313.780732
 20
368.549604
 30
0.0
 11
313.780732
 21
357.680587
 31
0.0
  0
LINE
  8
LC-001-002-----0
  6
CONTINUOUS
  5
390
 10
310.780732
 20
357.549604
 30
0.0
 11
316.281322
 21
294.677572
 31
0.0
  0
LINE
  8
LC-001-002-----0
  6
CONTINUOUS
  5
391
 10
313.780732
 20
357.680587
 30
0.0
 11
319.269906
 21
294.939039
 31
0.0
  0
ARC
  8
LC-001-002-----0
  6
CONTINUOUS
  5
392
 10
309.280732
 20
363.902258
 30
0.0
 40
2.0
 50
0.0
 51
180.0
  0
ARC
  8
LC-001-002-----0
  6
CONTINUOUS
  5
393
 10
309.280732
 20
362.19695
 30
0.0
 40
2.0
 50
180.0
 51
0.0
  0
LINE
  8
LC-001-002-----0
  6
CONTINUOUS
  5
394
 10
308.030732
 20
359.976542
 30
0.0
 11
308.030732
 21
357.549604
 31
0.0
  0
LINE
  8
LC-001-002-----0
  6
CONTINUOUS
  5
395
 10
311.280732
 20
360.549604
 30
0.0
 11
308.030732
 21
359.976542
 31
0.0
  0
LINE
  8
LC-001-002-----0
  6
CONTINUOUS
  5
396
 10
311.280732
 20
362.19695
 30
0.0
 11
311.280732
 21
360.549604
 31
0.0
  0
LINE
  8
LC-001-002-----0
  6
CONTINUOUS
  5
397
 10
311.280732
 20
365.549604
 30
0.0
 11
311.280732
 21
363.902258
 31
0.0
  0
LINE
  8
LC-001-002-----0
  6
CONTINUOUS
  5
398
 10
311.280732
 20
365.549604
 30
0.0
 11
308.030732
 21
366.122667
 31
0.0
  0
ARC
  8
LC-002-002-RND-0
  6
CONTINUOUS
  5
399
 10
341.186189
 20
296.856466
 30
0.0
 40
25.0
 50
185.0
 51
260.0
  0
ARC
  8
LC-002-002-RND-0
  6
CONTINUOUS
  5
39A
 10
341.186189
 20
296.856466
 30
0.0
 40
22.0
 50
185.0
 51
260.0
  0
LINE
  8
LC-001-002-----0
  6
CONTINUOUS
  5
39B
 10
336.844985
 20
272.236272
 30
0.0
 11
403.828322
 21
260.425302
 31
0.0
  0
LINE
  8
LC-001-002-----0
  6
CONTINUOUS
  5
39C
 10
337.365929
 20
275.190695
 30
0.0
 11
403.273945
 21
263.569334
 31
0.0
  0
LINE
  8
LC-001-002-----0
  6
CONTINUOUS
  5
39D
 10
407.835219
 20
260.736145
 30
0.0
 11
392.206883
 21
349.368843
 31
0.0
  0
LINE
  8
LC-001-002-----0
  6
CONTINUOUS
  5
39E
 10
404.388392
 20
260.128377
 30
0.0
 11
388.760056
 21
348.761075
 31
0.0
  0
LINE
  8
LC-001-002-----0
  6
CONTINUOUS
  5
39F
 10
404.388392
 20
260.128377
 30
0.0
 11
407.835219
 21
260.736145
 31
0.0
  0
LINE
  8
LC-001-002-----0
  6
CONTINUOUS
  5
3A0
 10
480.780732
 20
373.549604
 30
0.0
 11
473.780732
 21
373.549604
 31
0.0
  0
ARC
  8
LC-002-002-RND-0
  6
CONTINUOUS
  5
3A1
 10
480.780732
 20
372.049604
 30
0.0
 40
1.5
 50
0.0
 51
90.0
  0
ARC
  8
LC-002-002-RND-0
  6
CONTINUOUS
  5
3A2
 10
480.780732
 20
372.049604
 30
0.0
 40
1.5
 50
270.0
 51
0.0
  0
LINE
  8
LC-001-002-----0
  6
CONTINUOUS
  5
3A3
 10
475.280732
 20
365.549604
 30
0.0
 11
478.530732
 21
366.122667
 31
0.0
  0
LINE
  8
LC-001-002-----0
  6
CONTINUOUS
  5
3A4
 10
475.280732
 20
365.549604
 30
0.0
 11
475.280732
 21
360.549604
 31
0.0
  0
ARC
  8
LC-001-002-----0
  6
CONTINUOUS
  5
3A5
 10
477.280732
 20
363.902258
 30
0.0
 40
2.0
 50
0.0
 51
180.0
  0
ARC
  8
LC-001-002-----0
  6
CONTINUOUS
  5
3A6
 10
477.280732
 20
362.19695
 30
0.0
 40
2.0
 50
180.0
 51
0.0
  0
LINE
  8
LC-001-002-----0
  6
CONTINUOUS
  5
3A7
 10
478.530732
 20
359.976542
 30
0.0
 11
478.530732
 21
357.549604
 31
0.0
  0
LINE
  8
LC-001-002-----0
  6
CONTINUOUS
  5
3A8
 10
472.780732
 20
368.549604
 30
0.0
 11
472.780732
 21
360.392381
 31
0.0
  0
LINE
  8
LC-001-002-----0
  6
CONTINUOUS
  5
3A9
 10
472.780732
 20
368.549604
 30
0.0
 11
477.780732
 21
373.549604
 31
0.0
  0
LINE
  8
LC-001-002-----0
  6
CONTINUOUS
  5
3AA
 10
382.642495
 20
342.038666
 30
0.0
 11
390.17974
 21
340.709646
 31
0.0
  0
LINE
  8
LC-001-002-----0
  6
CONTINUOUS
  5
3AB
 10
404.388392
 20
260.128377
 30
0.0
 11
388.760056
 21
348.761075
 31
0.0
  0
LINE
  8
LC-001-002-----0
  6
CONTINUOUS
  5
3AC
 10
407.835219
 20
260.736145
 30
0.0
 11
392.206883
 21
349.368843
 31
0.0
  0
ARC
  8
LC-001-002-----0
  6
CONTINUOUS
  5
3AD
 10
388.90832
 20
355.460523
 30
0.0
 40
8.333581
 50
254.215261
 51
270.960321
  0
ARC
  8
LC-001-002-----0
  6
CONTINUOUS
  5
3AE
 10
388.30296
 20
354.127019
 30
0.0
 40
9.900108
 50
257.247905
 51
277.211487
  0
ARC
  8
LC-001-002-----0
  6
DASHED
 62
     2
  5
3AF
 10
388.30296
 20
354.127019
 30
0.0
 40
9.900108
 50
277.211487
 51
297.751064
  0
ARC
  8
LC-001-002-----0
  6
DASHED
 62
     2
  5
3B0
 10
388.90832
 20
355.460523
 30
0.0
 40
8.333581
 50
270.960321
 51
295.240372
  0
CIRCLE
  8
LC-001-002-----0
  6
CONTINUOUS
  5
3B1
 10
390.483469
 20
349.064959
 30
0.0
 40
1.75
  0
LINE
  8
LC-001-002-----0
  6
DASHDOT
 62
     2
  5
3B3
 10
388.793099
 20
348.612026
 30
0.0
 11
392.173839
 21
349.517892
 31
0.0
  0
LINE
  8
LC-001-002-----0
  6
DASHDOT
 62
     2
  5
3B4
 10
390.030536
 20
350.755329
 30
0.0
 11
390.936402
 21
347.374589
 31
0.0
  0
ARC
  8
LC-001-002-----0
  6
CONTINUOUS
  5
3B5
 10
388.90832
 20
355.460523
 30
0.0
 40
8.333581
 50
295.240372
 51
330.42979
  0
ARC
  8
LC-001-002-----0
  6
CONTINUOUS
  5
3B6
 10
388.30296
 20
354.127019
 30
0.0
 40
9.900108
 50
297.751064
 51
340.960298
  0
ARC
  8
LC-002-002-RND-0
  6
CONTINUOUS
  5
3B7
 10
396.891426
 20
350.970639
 30
0.0
 40
0.75
 50
339.820923
 51
85.0
  0
ARC
  8
LC-002-002-RND-0
  6
CONTINUOUS
  5
3B8
 10
396.808779
 20
350.97787
 30
0.0
 40
0.75
 50
85.0
 51
150.42979
  0
LINE
  8
LC-001-002-----0
  6
CONTINUOUS
  5
3B9
 10
475.280732
 20
360.549604
 30
0.0
 11
478.530732
 21
359.976542
 31
0.0
  0
LINE
  8
LC-001-002-----0
  6
CONTINUOUS
  5
3BA
 10
396.808779
 20
351.72787
 30
0.0
 11
396.956793
 21
351.717785
 31
0.0
  0
LINE
  8
LC-001-002-----0
  6
CONTINUOUS
  5
3BB
 10
386.103807
 20
344.461956
 30
0.0
 11
389.627667
 21
343.840604
 31
0.0
  0
LINE
  8
LC-001-002-----0
  6
CONTINUOUS
  5
3BC
 10
479.280732
 20
363.902258
 30
0.0
 11
479.280732
 21
362.19695
 31
0.0
  0
LINE
  8
LC-001-002-----0
  6
CONTINUOUS
  5
3BD
 10
313.280732
 20
236.049604
 30
0.0
 11
313.280732
 21
178.549604
 31
0.0
  0
LINE
  8
LC-001-002-----0
  6
CONTINUOUS
  5
3BE
 10
469.280732
 20
237.716208
 30
0.0
 11
393.280732
 21
237.716208
 31
0.0
  0
LINE
  8
LC-001-002-----0
  6
CONTINUOUS
  5
3BF
 10
472.465522
 20
243.232427
 30
0.0
 11
393.280732
 21
243.232427
 31
0.0
  0
LINE
  8
LC-001-002-----0
  6
CONTINUOUS
  5
3C0
 10
317.280732
 20
237.716208
 30
0.0
 11
317.280732
 21
174.049604
 31
0.0
  0
LINE
  8
LC-001-002-----0
  6
CONTINUOUS
  5
3C1
 10
303.280732
 20
366.049604
 30
0.0
 11
303.280732
 21
356.049604
 31
0.0
  0
LINE
  8
LC-001-002-----0
  6
CONTINUOUS
  5
3C2
 10
307.280732
 20
370.049604
 30
0.0
 11
307.280732
 21
356.049604
 31
0.0
  0
LINE
  8
LC-001-002-----0
  6
CONTINUOUS
  5
3C3
 10
483.280732
 20
366.049604
 30
0.0
 11
483.280732
 21
356.049604
 31
0.0
  0
LINE
  8
LC-001-002-----0
  6
CONTINUOUS
  5
3C4
 10
479.280732
 20
370.049604
 30
0.0
 11
479.280732
 21
356.049604
 31
0.0
  0
LINE
  8
LC-001-002-----0
  6
CONTINUOUS
  5
3C5
 10
303.280732
 20
366.049604
 30
0.0
 11
303.280732
 21
366.049604
 31
0.0
  0
ARC
  8
LC-002-002-RND-0
  6
CONTINUOUS
  5
3C6
 10
303.280732
 20
370.049604
 30
0.0
 40
4.0
 50
180.0
 51
270.0
  0
LINE
  8
LC-001-002-----0
  6
CONTINUOUS
  5
3C7
 10
483.280732
 20
366.049604
 30
0.0
 11
483.280732
 21
366.049604
 31
0.0
  0
ARC
  8
LC-002-002-RND-0
  6
CONTINUOUS
  5
3C8
 10
483.280732
 20
370.049604
 30
0.0
 40
4.0
 50
270.0
 51
0.0
  0
LINE
  8
LC-001-002-----0
  6
CONTINUOUS
  5
3C9
 10
484.393232
 20
400.079604
 30
0.0
 11
484.393232
 21
370.049604
 31
0.0
  0
LINE
  8
LC-001-002-----0
  6
CONTINUOUS
  5
3CA
 10
497.280732
 20
424.015104
 30
0.0
 11
492.026982
 21
424.015104
 31
0.0
  0
LINE
  8
LC-001-002-----0
  6
CONTINUOUS
  5
3CB
 10
302.168232
 20
400.079604
 30
0.0
 11
302.168232
 21
370.049604
 31
0.0
  0
LINE
  8
LC-001-002-----0
  6
CONTINUOUS
  5
3CC
 10
317.280732
 20
237.716208
 30
0.0
 11
393.280732
 21
237.716208
 31
0.0
  0
LINE
  8
LC-001-002-----0
  6
CONTINUOUS
  5
3CD
 10
473.280732
 20
236.049604
 30
0.0
 11
473.280732
 21
178.549604
 31
0.0
  0
LINE
  8
LC-001-002-----0
  6
CONTINUOUS
  5
3CE
 10
299.280732
 20
398.049604
 30
0.0
 11
299.280732
 21
370.049604
 31
0.0
  0
LINE
  8
LC-001-002-----0
  6
CONTINUOUS
  5
3CF
 10
487.280732
 20
398.049604
 30
0.0
 11
487.280732
 21
370.049604
 31
0.0
  0
LINE
  8
LC-001-002-----0
  6
DASHDOT
 62
     2
  5
3D0
 10
393.280732
 20
452.015104
 30
0.0
 11
393.280732
 21
174.049604
 31
0.0
  0
LINE
  8
LC-001-002-----0
  6
CONTINUOUS
 62
     2
  5
3D1
 10
339.87826
 20
548.849125
 30
0.0
 11
354.87826
 21
548.849125
 31
0.0
  0
LINE
  8
LC-001-002-----0
  6
CONTINUOUS
 62
     2
  5
3D2
 10
339.87826
 20
548.849125
 30
0.0
 11
339.87826
 21
533.849125
 31
0.0
  0
LINE
  8
LC-001-002-----0
  6
CONTINUOUS
 62
     2
  5
3D3
 10
339.87826
 20
533.849125
 30
0.0
 11
354.87826
 21
533.849125
 31
0.0
  0
LINE
  8
LC-001-002-----0
  6
CONTINUOUS
 62
     2
  5
3D4
 10
354.87826
 20
548.849125
 30
0.0
 11
354.87826
 21
533.849125
 31
0.0
  0
LINE
  8
LC-001-002-----0
  6
CONTINUOUS
 62
     2
  5
3D5
 10
339.964675
 20
485.940782
 30
0.0
 11
354.964675
 21
485.940782
 31
0.0
  0
LINE
  8
LC-001-002-----0
  6
CONTINUOUS
 62
     2
  5
3D6
 10
339.964675
 20
500.940782
 30
0.0
 11
339.964675
 21
485.940782
 31
0.0
  0
LINE
  8
LC-001-002-----0
  6
CONTINUOUS
  5
3D7
 10
314.095941
 20
243.232427
 30
0.0
 11
393.280732
 21
243.232427
 31
0.0
  0
LINE
  8
LC-001-002-----0
  6
CONTINUOUS
  5
3D8
 10
310.160042
 20
242.049604
 30
0.0
 11
313.280732
 21
236.049604
 31
0.0
  0
LINE
  8
LC-001-002-----0
  6
CONTINUOUS
  5
3D9
 10
469.280732
 20
237.716208
 30
0.0
 11
469.280732
 21
174.049604
 31
0.0
  0
LINE
  8
LC-001-002-----0
  6
CONTINUOUS
  5
3DA
 10
473.280732
 20
178.549604
 30
0.0
 11
472.07496
 21
174.049604
 31
0.0
  0
LINE
  8
LC-001-002-----0
  6
CONTINUOUS
  5
3DB
 10
476.401421
 20
242.049604
 30
0.0
 11
473.280732
 21
236.049604
 31
0.0
  0
LINE
  8
LC-001-002-----0
  6
CONTINUOUS
  5
3DC
 10
472.465522
 20
243.232427
 30
0.0
 11
469.280732
 21
237.716208
 31
0.0
  0
LINE
  8
LC-001-002-----0
  6
CONTINUOUS
 62
     2
  5
3DD
 10
354.964675
 20
500.940782
 30
0.0
 11
354.964675
 21
485.940782
 31
0.0
  0
LINE
  8
LC-001-002-----0
  6
CONTINUOUS
 62
     2
  5
3DE
 10
339.964675
 20
500.940782
 30
0.0
 11
354.964675
 21
500.940782
 31
0.0
  0
LINE
  8
LC-001-002-----0
  6
CONTINUOUS
  5
3DF
 10
307.280732
 20
363.902258
 30
0.0
 11
307.280732
 21
362.19695
 31
0.0
  0
LINE
  8
LC-001-002-----0
  6
CONTINUOUS
  5
3E0
 10
311.280732
 20
363.902258
 30
0.0
 11
311.280732
 21
362.19695
 31
0.0
  0
LINE
  8
LC-001-002-----0
  6
CONTINUOUS
  5
3E1
 10
472.780732
 20
360.392381
 30
0.0
 11
392.999292
 21
356.211213
 31
0.0
  0
ARC
  8
LC-002-002-RND-0
  6
CONTINUOUS
  5
3E2
 10
393.522652
 20
346.224918
 30
0.0
 40
10.0
 50
93.0
 51
170.0
  0
LINE
  8
LC-001-002-----0
  6
CONTINUOUS
  5
3E3
 10
382.630606
 20
342.040762
 30
0.0
 11
383.674574
 21
347.961399
 31
0.0
  0
LINE
  8
LC-001-002-----0
  6
CONTINUOUS
  5
3E4
 10
475.93774
 20
357.553716
 30
0.0
 11
393.1563
 21
353.215324
 31
0.0
  0
ARC
  8
LC-002-002-RND-0
  6
CONTINUOUS
  5
3E5
 10
393.522652
 20
346.224918
 30
0.0
 40
7.0
 50
93.0
 51
170.0
  0
LINE
  8
LC-001-002-----0
  6
CONTINUOUS
  5
3E6
 10
386.103807
 20
344.461956
 30
0.0
 11
386.628997
 21
347.440455
 31
0.0
  0
LINE
  8
LC-001-002-----0
  6
CONTINUOUS
  5
3E7
 10
403.828322
 20
260.425302
 30
0.0
 11
403.273945
 21
263.569334
 31
0.0
  0
LINE
  8
LC-001-002-----0
  6
CONTINUOUS
  5
3E8
 10
308.030732
 20
370.549604
 30
0.0
 11
308.030732
 21
366.122667
 31
0.0
  0
LINE
  8
LC-001-002-----0
  6
CONTINUOUS
  5
3E9
 10
305.780732
 20
370.549604
 30
0.0
 11
308.030732
 21
370.549604
 31
0.0
  0
LINE
  8
LC-001-002-----0
  6
CONTINUOUS
  5
3EA
 10
308.030732
 20
357.549604
 30
0.0
 11
310.780732
 21
357.549604
 31
0.0
  0
LINE
  8
LC-001-002-----0
  6
CONTINUOUS
  5
3EB
 10
478.530732
 20
370.549604
 30
0.0
 11
478.530732
 21
366.122667
 31
0.0
  0
LINE
  8
LC-001-002-----0
  6
CONTINUOUS
  5
3EC
 10
478.530732
 20
357.549604
 30
0.0
 11
475.85929
 21
357.549604
 31
0.0
  0
LINE
  8
LC-001-002-----0
  6
CONTINUOUS
  5
3ED
 10
478.530732
 20
370.549604
 30
0.0
 11
480.780732
 21
370.549604
 31
0.0
  0
LINE
  8
LC-001-002-----0
  6
CONTINUOUS
  5
3EE
 10
302.168232
 20
370.049604
 30
0.0
 11
307.280732
 21
370.049604
 31
0.0
  0
LINE
  8
LC-001-002-----0
  6
CONTINUOUS
  5
3EF
 10
479.280732
 20
370.049604
 30
0.0
 11
484.393232
 21
370.049604
 31
0.0
  0
LINE
  8
LC-001-002-----0
  6
CONTINUOUS
  5
3F0
 10
296.280732
 20
419.549604
 30
0.0
 11
318.280732
 21
417.624854
 31
0.0
  0
LINE
  8
LC-001-002-----0
  6
CONTINUOUS
  5
3F1
 10
296.280732
 20
422.059154
 30
0.0
 11
320.644966
 21
419.92756
 31
0.0
  0
LINE
  8
LC-001-002-----0
  6
CONTINUOUS
  5
3F2
 10
320.644966
 20
419.92756
 30
0.0
 11
375.394006
 21
419.92756
 31
0.0
  0
LINE
  8
LC-001-002-----0
  6
CONTINUOUS
  5
3F3
 10
318.646585
 20
411.624854
 30
0.0
 11
321.151229
 21
411.624854
 31
0.0
  0
LINE
  8
LC-001-002-----0
  6
CONTINUOUS
  5
3F4
 10
320.536829
 20
380.624854
 30
0.0
 11
323.041473
 21
380.624854
 31
0.0
  0
LINE
  8
LC-001-002-----0
  6
CONTINUOUS
  5
3F5
 10
318.280732
 20
417.624854
 30
0.0
 11
320.618093
 21
379.292136
 31
0.0
  0
LINE
  8
LC-001-002-----0
  6
CONTINUOUS
  5
3F6
 10
323.285375
 20
376.624854
 30
0.0
 11
320.618093
 21
379.292136
 31
0.0
  0
LINE
  8
LC-001-002-----0
  6
CONTINUOUS
  5
3F7
 10
313.280732
 20
178.549604
 30
0.0
 11
314.486503
 21
174.049604
 31
0.0
  0
LINE
  8
LC-001-002-----0
  6
CONTINUOUS
  5
3F8
 10
314.486503
 20
174.049604
 30
0.0
 11
472.07496
 21
174.049604
 31
0.0
  0
LINE
  8
LC-001-002-----0
  6
CONTINUOUS
  5
3F9
 10
323.041473
 20
380.624854
 30
0.0
 11
325.708755
 21
377.957571
 31
0.0
  0
LINE
  8
LC-001-002-----0
  6
CONTINUOUS
  5
3FA
 10
320.644966
 20
419.92756
 30
0.0
 11
323.041473
 21
380.624854
 31
0.0
  0
LINE
  8
LC-001-002-----0
  6
CONTINUOUS
  5
3FB
 10
323.276097
 20
380.624854
 30
0.0
 11
323.276097
 21
380.559154
 31
0.0
  0
LINE
  8
LC-001-002-----0
  6
CONTINUOUS
  5
3FC
 10
325.708755
 20
377.957571
 30
0.0
 11
325.81258
 21
376.254841
 31
0.0
  0
LINE
  8
LC-001-002-----0
  6
CONTINUOUS
  5
3FD
 10
329.946828
 20
369.105141
 30
0.0
 11
393.280732
 21
362.059154
 31
0.0
  0
LINE
  8
LC-001-002-----0
  6
CONTINUOUS
  5
3FE
 10
330.249028
 20
371.589972
 30
0.0
 11
393.280732
 21
364.559154
 31
0.0
  0
ARC
  8
LC-002-002-RND-0
  6
CONTINUOUS
  5
3FF
 10
330.776097
 20
376.559154
 30
0.0
 40
7.5
 50
180.0
 51
263.651867
  0
ARC
  8
LC-002-002-RND-0
  6
CONTINUOUS
  5
400
 10
330.803311
 20
376.559154
 30
0.0
 40
5.0
 50
183.489325
 51
263.635301
  0
LINE
  8
LC-001-002-----0
  6
CONTINUOUS
  5
401
 10
376.280732
 20
366.455404
 30
0.0
 11
376.280732
 21
363.950428
 31
0.0
  0
LINE
  8
LC-001-002-----0
  6
CONTINUOUS
  5
402
 10
380.280732
 20
366.009228
 30
0.0
 11
380.280732
 21
363.505422
 31
0.0
  0
LINE
  8
LC-001-002-----0
  6
CONTINUOUS
  5
403
 10
325.708755
 20
377.957571
 30
0.0
 11
393.280732
 21
377.957571
 31
0.0
  0
LINE
  8
LC-001-002-----0
  6
CONTINUOUS
  5
404
 10
386.280732
 20
411.624854
 30
0.0
 11
386.280732
 21
380.624854
 31
0.0
  0
LINE
  8
LC-001-002-----0
  6
CONTINUOUS
  5
405
 10
374.280732
 20
411.624854
 30
0.0
 11
374.280732
 21
380.624854
 31
0.0
  0
LINE
  8
LC-001-002-----0
  6
CONTINUOUS
  5
406
 10
362.280732
 20
411.624854
 30
0.0
 11
362.280732
 21
380.624854
 31
0.0
  0
LINE
  8
LC-001-002-----0
  6
CONTINUOUS
  5
407
 10
352.280732
 20
411.624854
 30
0.0
 11
352.280732
 21
380.624854
 31
0.0
  0
LINE
  8
LC-001-002-----0
  6
CONTINUOUS
  5
408
 10
342.280732
 20
411.624854
 30
0.0
 11
342.280732
 21
380.624854
 31
0.0
  0
LINE
  8
LC-001-002-----0
  6
CONTINUOUS
  5
409
 10
333.280732
 20
411.624854
 30
0.0
 11
333.280732
 21
380.624854
 31
0.0
  0
LINE
  8
LC-001-002-----0
  6
CONTINUOUS
  5
40A
 10
332.280732
 20
411.624854
 30
0.0
 11
332.280732
 21
380.624854
 31
0.0
  0
LINE
  8
LC-001-002-----0
  6
CONTINUOUS
  5
40B
 10
372.280732
 20
411.624854
 30
0.0
 11
372.280732
 21
380.624854
 31
0.0
  0
LINE
  8
LC-001-002-----0
  6
CONTINUOUS
  5
40C
 10
350.780732
 20
411.624854
 30
0.0
 11
350.780732
 21
380.624854
 31
0.0
  0
LINE
  8
LC-001-002-----0
  6
CONTINUOUS
  5
40D
 10
325.280732
 20
411.624854
 30
0.0
 11
333.280732
 21
411.624854
 31
0.0
  0
LINE
  8
LC-001-002-----0
  6
CONTINUOUS
  5
40E
 10
342.280732
 20
411.624854
 30
0.0
 11
352.280732
 21
411.624854
 31
0.0
  0
LINE
  8
LC-001-002-----0
  6
CONTINUOUS
  5
40F
 10
386.280732
 20
411.624854
 30
0.0
 11
393.280732
 21
411.624854
 31
0.0
  0
LINE
  8
LC-001-002-----0
  6
CONTINUOUS
  5
410
 10
362.280732
 20
411.624854
 30
0.0
 11
374.280732
 21
411.624854
 31
0.0
  0
LINE
  8
LC-001-002-----0
  6
CONTINUOUS
  5
411
 10
386.280732
 20
380.624854
 30
0.0
 11
393.280732
 21
380.624854
 31
0.0
  0
LINE
  8
LC-001-002-----0
  6
CONTINUOUS
  5
412
 10
362.280732
 20
380.624854
 30
0.0
 11
374.280732
 21
380.624854
 31
0.0
  0
LINE
  8
LC-001-002-----0
  6
CONTINUOUS
  5
413
 10
342.280732
 20
380.624854
 30
0.0
 11
352.280732
 21
380.624854
 31
0.0
  0
LINE
  8
LC-001-002-----0
  6
CONTINUOUS
  5
414
 10
325.280732
 20
411.624854
 30
0.0
 11
327.170976
 21
380.624854
 31
0.0
  0
LINE
  8
LC-001-002-----0
  6
CONTINUOUS
  5
415
 10
327.170976
 20
380.624854
 30
0.0
 11
333.280732
 21
380.624854
 31
0.0
  0
LINE
  8
LC-001-002-----0
  6
CONTINUOUS
  5
416
 10
296.280732
 20
422.059154
 30
0.0
 11
366.161056
 21
422.059154
 31
0.0
  0
LINE
  8
LC-001-002-----0
  6
CONTINUOUS
  5
417
 10
490.280732
 20
422.059154
 30
0.0
 11
420.407666
 21
422.059154
 31
0.0
  0
LINE
  8
LC-001-002-----0
  6
CONTINUOUS
  5
418
 10
490.280732
 20
422.059154
 30
0.0
 11
490.280732
 21
419.549604
 31
0.0
  0
LINE
  8
LC-001-002-----0
  6
CONTINUOUS
  5
419
 10
465.916497
 20
419.92756
 30
0.0
 11
463.519991
 21
380.624854
 31
0.0
  0
LINE
  8
LC-001-002-----0
  6
CONTINUOUS
  5
41A
 10
465.916497
 20
419.92756
 30
0.0
 11
411.174717
 21
419.92756
 31
0.0
  0
LINE
  8
LC-001-002-----0
  6
CONTINUOUS
  5
41B
 10
466.024634
 20
380.624854
 30
0.0
 11
463.519991
 21
380.624854
 31
0.0
  0
LINE
  8
LC-001-002-----0
  6
CONTINUOUS
  5
41C
 10
490.280732
 20
422.059154
 30
0.0
 11
465.916497
 21
419.92756
 31
0.0
  0
LINE
  8
LC-001-002-----0
  6
CONTINUOUS
  5
41D
 10
490.280732
 20
419.549604
 30
0.0
 11
468.280732
 21
417.624854
 31
0.0
  0
LINE
  8
LC-001-002-----0
  6
CONTINUOUS
  5
41E
 10
467.914878
 20
411.624854
 30
0.0
 11
465.410235
 21
411.624854
 31
0.0
  0
LINE
  8
LC-001-002-----0
  6
CONTINUOUS
  5
41F
 10
463.276089
 20
376.624854
 30
0.0
 11
465.943371
 21
379.292136
 31
0.0
  0
LINE
  8
LC-001-002-----0
  6
CONTINUOUS
  5
420
 10
460.852709
 20
377.957571
 30
0.0
 11
393.280732
 21
377.957571
 31
0.0
  0
LINE
  8
LC-001-002-----0
  6
CONTINUOUS
  5
421
 10
468.280732
 20
417.624854
 30
0.0
 11
465.943371
 21
379.292136
 31
0.0
  0
LINE
  8
LC-001-002-----0
  6
CONTINUOUS
  5
422
 10
460.852709
 20
377.957571
 30
0.0
 11
460.748884
 21
376.254841
 31
0.0
  0
LINE
  8
LC-001-002-----0
  6
CONTINUOUS
  5
423
 10
463.519991
 20
380.624854
 30
0.0
 11
460.852709
 21
377.957571
 31
0.0
  0
LINE
  8
LC-001-002-----0
  6
CONTINUOUS
  5
424
 10
406.280732
 20
366.009228
 30
0.0
 11
406.280732
 21
363.505422
 31
0.0
  0
ARC
  8
LC-002-002-RND-0
  6
CONTINUOUS
  5
425
 10
455.785366
 20
376.559154
 30
0.0
 40
7.5
 50
276.348133
 51
0.0
  0
LINE
  8
LC-001-002-----0
  6
CONTINUOUS
  5
426
 10
463.285366
 20
380.624854
 30
0.0
 11
463.285366
 21
380.559154
 31
0.0
  0
ARC
  8
LC-002-002-RND-0
  6
CONTINUOUS
  5
427
 10
455.758153
 20
376.559154
 30
0.0
 40
5.0
 50
276.364699
 51
356.510675
  0
LINE
  8
LC-001-002-----0
  6
CONTINUOUS
  5
428
 10
410.280732
 20
366.455404
 30
0.0
 11
410.280732
 21
363.950428
 31
0.0
  0
LINE
  8
LC-001-002-----0
  6
CONTINUOUS
  5
429
 10
456.614636
 20
369.105141
 30
0.0
 11
393.280732
 21
362.059154
 31
0.0
  0
LINE
  8
LC-001-002-----0
  6
CONTINUOUS
  5
42A
 10
459.390488
 20
380.624854
 30
0.0
 11
453.280732
 21
380.624854
 31
0.0
  0
LINE
  8
LC-001-002-----0
  6
CONTINUOUS
  5
42B
 10
456.312436
 20
371.589972
 30
0.0
 11
393.280732
 21
364.559154
 31
0.0
  0
LINE
  8
LC-001-002-----0
  6
CONTINUOUS
  5
42C
 10
461.280732
 20
411.624854
 30
0.0
 11
453.280732
 21
411.624854
 31
0.0
  0
LINE
  8
LC-001-002-----0
  6
CONTINUOUS
  5
42D
 10
400.280732
 20
411.624854
 30
0.0
 11
400.280732
 21
380.624854
 31
0.0
  0
LINE
  8
LC-001-002-----0
  6
CONTINUOUS
  5
42E
 10
412.280732
 20
411.624854
 30
0.0
 11
412.280732
 21
380.624854
 31
0.0
  0
LINE
  8
LC-001-002-----0
  6
CONTINUOUS
  5
42F
 10
424.280732
 20
411.624854
 30
0.0
 11
424.280732
 21
380.624854
 31
0.0
  0
LINE
  8
LC-001-002-----0
  6
CONTINUOUS
  5
430
 10
434.280732
 20
411.624854
 30
0.0
 11
434.280732
 21
380.624854
 31
0.0
  0
LINE
  8
LC-001-002-----0
  6
CONTINUOUS
  5
431
 10
444.280732
 20
411.624854
 30
0.0
 11
444.280732
 21
380.624854
 31
0.0
  0
LINE
  8
LC-001-002-----0
  6
CONTINUOUS
  5
432
 10
453.280732
 20
411.624854
 30
0.0
 11
453.280732
 21
380.624854
 31
0.0
  0
LINE
  8
LC-001-002-----0
  6
CONTINUOUS
  5
433
 10
454.280732
 20
411.624854
 30
0.0
 11
454.280732
 21
380.624854
 31
0.0
  0
LINE
  8
LC-001-002-----0
  6
CONTINUOUS
  5
434
 10
435.780732
 20
411.624854
 30
0.0
 11
435.780732
 21
380.624854
 31
0.0
  0
LINE
  8
LC-001-002-----0
  6
CONTINUOUS
  5
435
 10
414.280732
 20
411.624854
 30
0.0
 11
414.280732
 21
380.624854
 31
0.0
  0
LINE
  8
LC-001-002-----0
  6
CONTINUOUS
  5
436
 10
444.280732
 20
411.624854
 30
0.0
 11
434.280732
 21
411.624854
 31
0.0
  0
LINE
  8
LC-001-002-----0
  6
CONTINUOUS
  5
437
 10
424.280732
 20
411.624854
 30
0.0
 11
412.280732
 21
411.624854
 31
0.0
  0
LINE
  8
LC-001-002-----0
  6
CONTINUOUS
  5
438
 10
400.280732
 20
411.624854
 30
0.0
 11
393.280732
 21
411.624854
 31
0.0
  0
LINE
  8
LC-001-002-----0
  6
CONTINUOUS
  5
439
 10
400.280732
 20
380.624854
 30
0.0
 11
393.280732
 21
380.624854
 31
0.0
  0
LINE
  8
LC-001-002-----0
  6
CONTINUOUS
  5
43A
 10
424.280732
 20
380.624854
 30
0.0
 11
412.280732
 21
380.624854
 31
0.0
  0
LINE
  8
LC-001-002-----0
  6
CONTINUOUS
  5
43B
 10
444.280732
 20
380.624854
 30
0.0
 11
434.280732
 21
380.624854
 31
0.0
  0
LINE
  8
LC-001-002-----0
  6
CONTINUOUS
  5
43C
 10
461.280732
 20
411.624854
 30
0.0
 11
459.390488
 21
380.624854
 31
0.0
  0
LINE
  8
LC-001-002-----0
  6
CONTINUOUS
  5
43D
 10
296.280732
 20
422.059154
 30
0.0
 11
296.280732
 21
404.049604
 31
0.0
  0
ARC
  8
LC-002-002-RND-0
  6
CONTINUOUS
  5
43E
 10
297.780732
 20
404.049604
 30
0.0
 40
1.5
 50
180.0
 51
270.0
  0
ARC
  8
LC-002-002-RND-0
  6
CONTINUOUS
  5
43F
 10
301.832473
 20
404.049604
 30
0.0
 40
1.5
 50
270.0
 51
345.0
  0
LINE
  8
LC-001-002-----0
  6
CONTINUOUS
  5
440
 10
307.280732
 20
418.587229
 30
0.0
 11
303.281361
 21
403.661376
 31
0.0
  0
ARC
  8
LC-002-002-RND-0
  6
CONTINUOUS
  5
441
 10
488.780732
 20
404.049604
 30
0.0
 40
1.5
 50
270.0
 51
0.0
  0
ARC
  8
LC-002-002-RND-0
  6
CONTINUOUS
  5
442
 10
484.728991
 20
404.049604
 30
0.0
 40
1.5
 50
195.0
 51
270.0
  0
LINE
  8
LC-001-002-----0
  6
CONTINUOUS
  5
443
 10
479.280732
 20
418.587229
 30
0.0
 11
483.280102
 21
403.661376
 31
0.0
  0
LINE
  8
LC-001-002-----0
  6
CONTINUOUS
  5
444
 10
490.280732
 20
419.549604
 30
0.0
 11
490.280732
 21
404.049604
 31
0.0
  0
LINE
  8
LC-001-002-----0
  6
CONTINUOUS
  5
445
 10
485.713601
 20
402.049604
 30
0.0
 11
487.780732
 21
402.049604
 31
0.0
  0
LINE
  8
LC-001-002-----0
  6
CONTINUOUS
  5
446
 10
298.780732
 20
402.049604
 30
0.0
 11
300.507889
 21
402.049604
 31
0.0
  0
LINE
  8
LC-001-002-----0
  6
CONTINUOUS
  5
447
 10
488.780732
 20
402.549604
 30
0.0
 11
484.728991
 21
402.549604
 31
0.0
  0
LINE
  8
LC-001-002-----0
  6
CONTINUOUS
  5
448
 10
305.780732
 20
373.549604
 30
0.0
 11
323.906409
 21
373.549604
 31
0.0
  0
LINE
  8
LC-001-002-----0
  6
CONTINUOUS
  5
449
 10
313.780732
 20
368.549604
 30
0.0
 11
334.94035
 21
368.549604
 31
0.0
  0
LINE
  8
LC-001-002-----0
  6
CONTINUOUS
  5
44A
 10
451.621114
 20
368.549604
 30
0.0
 11
472.780732
 21
368.549604
 31
0.0
  0
LINE
  8
LC-001-002-----0
  6
CONTINUOUS
  5
44B
 10
462.655054
 20
373.549604
 30
0.0
 11
473.780732
 21
373.549604
 31
0.0
  0
ARC
  8
LC-002-002-RND-0
  6
CONTINUOUS
  5
44C
 10
298.326732
 20
398.109604
 30
0.0
 40
0.985
 50
0.0
 51
90.0
  0
ARC
  8
LC-002-002-RND-0
  6
CONTINUOUS
  5
44D
 10
295.519482
 20
403.034604
 30
0.0
 40
0.985
 50
180.0
 51
270.0
  0
ARC
  8
LC-002-002-RND-0
  6
CONTINUOUS
  5
44E
 10
300.198232
 20
400.079604
 30
0.0
 40
1.97
 50
0.0
 51
90.0
  0
ARC
  8
LC-002-002-RND-0
  6
CONTINUOUS
  5
44F
 10
488.234732
 20
398.109604
 30
0.0
 40
0.985
 50
90.0
 51
180.0
  0
LINE
  8
LC-001-002-----0
  6
CONTINUOUS
  5
450
 10
492.273232
 20
399.094604
 30
0.0
 11
488.234732
 21
399.094604
 31
0.0
  0
ARC
  8
LC-002-002-RND-0
  6
CONTINUOUS
  5
451
 10
492.273232
 20
401.557104
 30
0.0
 40
2.4625
 50
270.0
 51
0.0
  0
ARC
  8
LC-002-002-RND-0
  6
CONTINUOUS
  5
452
 10
491.041982
 20
403.034604
 30
0.0
 40
0.985
 50
270.0
 51
0.0
  0
ARC
  8
LC-002-002-RND-0
  6
CONTINUOUS
  5
453
 10
486.363232
 20
400.079604
 30
0.0
 40
1.97
 50
90.0
 51
180.0
  0
LINE
  8
LC-001-002-----0
  6
CONTINUOUS
  5
454
 10
491.041982
 20
402.049604
 30
0.0
 11
486.199817
 21
402.049604
 31
0.0
  0
LINE
  8
LC-001-002-----0
  6
CONTINUOUS
  5
455
 10
295.519482
 20
402.049604
 30
0.0
 11
300.507889
 21
402.049604
 31
0.0
  0
ARC
  8
LC-001-002-----0
  6
CONTINUOUS
  5
456
 10
289.530732
 20
419.437481
 30
0.0
 40
2.25
 50
180.0
 51
0.0
  0
ARC
  8
LC-001-002-----0
  6
CONTINUOUS
  5
457
 10
289.530732
 20
421.515104
 30
0.0
 40
2.25
 50
0.0
 51
180.0
  0
LINE
  8
LC-001-002-----0
  6
CONTINUOUS
  5
458
 10
291.780732
 20
421.515104
 30
0.0
 11
291.780732
 21
419.437481
 31
0.0
  0
LINE
  8
LC-001-002-----0
  6
CONTINUOUS
  5
459
 10
294.534482
 20
424.015104
 30
0.0
 11
294.534482
 21
403.034604
 31
0.0
  0
LINE
  8
LC-001-002-----0
  6
CONTINUOUS
  5
45A
 10
287.280732
 20
395.015104
 30
0.0
 11
287.280732
 21
422.015104
 31
0.0
  0
ARC
  8
LC-002-002-RND-0
  6
CONTINUOUS
  5
45B
 10
289.280732
 20
422.015104
 30
0.0
 40
2.0
 50
90.0
 51
180.0
  0
LINE
  8
LC-001-002-----0
  6
CONTINUOUS
  5
45C
 10
289.280732
 20
424.015104
 30
0.0
 11
294.534482
 21
424.015104
 31
0.0
  0
ARC
  8
LC-002-002-RND-0
  6
CONTINUOUS
  5
45D
 10
273.280732
 20
419.015104
 30
0.0
 40
3.0
 50
0.0
 51
90.0
  0
LINE
  8
LC-001-002-----0
  6
CONTINUOUS
  5
45E
 10
276.280732
 20
398.015104
 30
0.0
 11
276.280732
 21
419.015104
 31
0.0
  0
ARC
  8
LC-002-002-RND-0
  6
CONTINUOUS
  5
45F
 10
279.280732
 20
398.015104
 30
0.0
 40
3.0
 50
180.0
 51
270.0
  0
LINE
  8
LC-001-002-----0
  6
CONTINUOUS
  5
460
 10
263.280732
 20
425.015104
 30
0.0
 11
263.280732
 21
430.515104
 31
0.0
  0
ARC
  8
LC-002-002-RND-0
  6
CONTINUOUS
  5
461
 10
266.280732
 20
425.015104
 30
0.0
 40
3.0
 50
180.0
 51
270.0
  0
LINE
  8
LC-001-002-----0
  6
CONTINUOUS
  5
462
 10
266.280732
 20
422.015104
 30
0.0
 11
273.280732
 21
422.015104
 31
0.0
  0
LINE
  8
LC-001-002-----0
  6
CONTINUOUS
  5
463
 10
293.280732
 20
424.015104
 30
0.0
 11
293.280732
 21
429.015104
 31
0.0
  0
ARC
  8
LC-002-002-RND-0
  6
CONTINUOUS
  5
464
 10
290.280732
 20
429.015104
 30
0.0
 40
3.0
 50
0.0
 51
90.0
  0
LINE
  8
LC-001-002-----0
  6
CONTINUOUS
  5
465
 10
263.280732
 20
430.515104
 30
0.0
 11
268.644442
 21
450.532742
 31
0.0
  0
ARC
  8
LC-002-002-RND-0
  6
CONTINUOUS
  5
466
 10
270.576293
 20
450.015104
 30
0.0
 40
2.0
 50
90.0
 51
165.0
  0
LINE
  8
LC-001-002-----0
  6
CONTINUOUS
  5
467
 10
279.280732
 20
435.015104
 30
0.0
 11
279.280732
 21
450.015104
 31
0.0
  0
LINE
  8
LC-001-002-----0
  6
CONTINUOUS
  5
468
 10
270.576293
 20
452.015104
 30
0.0
 11
277.280732
 21
452.015104
 31
0.0
  0
LINE
  8
LC-001-002-----0
  6
CONTINUOUS
  5
469
 10
294.288232
 20
399.094604
 30
0.0
 11
298.326732
 21
399.094604
 31
0.0
  0
ARC
  8
LC-002-002-RND-0
  6
CONTINUOUS
  5
46A
 10
294.288232
 20
401.557104
 30
0.0
 40
2.4625
 50
180.0
 51
270.0
  0
LINE
  8
LC-001-002-----0
  6
CONTINUOUS
  5
46B
 10
291.825732
 20
424.015104
 30
0.0
 11
291.825732
 21
401.557104
 31
0.0
  0
LINE
  8
LC-001-002-----0
  6
CONTINUOUS
  5
46C
 10
499.280732
 20
395.015104
 30
0.0
 11
499.280732
 21
422.015104
 31
0.0
  0
LINE
  8
LC-001-002-----0
  6
CONTINUOUS
  5
46D
 10
523.280732
 20
425.015104
 30
0.0
 11
523.280732
 21
430.515104
 31
0.0
  0
LINE
  8
LC-001-002-----0
  6
CONTINUOUS
  5
46E
 10
523.280732
 20
430.515104
 30
0.0
 11
517.917022
 21
450.532742
 31
0.0
  0
LINE
  8
LC-001-002-----0
  6
CONTINUOUS
  5
46F
 10
493.280732
 20
424.015104
 30
0.0
 11
493.280732
 21
429.015104
 31
0.0
  0
ARC
  8
LC-002-002-RND-0
  6
CONTINUOUS
  5
470
 10
520.280732
 20
425.015104
 30
0.0
 40
3.0
 50
270.0
 51
0.0
  0
LINE
  8
LC-001-002-----0
  6
CONTINUOUS
  5
471
 10
510.280732
 20
398.015104
 30
0.0
 11
510.280732
 21
419.015104
 31
0.0
  0
ARC
  8
LC-002-002-RND-0
  6
CONTINUOUS
  5
472
 10
513.280732
 20
419.015104
 30
0.0
 40
3.0
 50
90.0
 51
180.0
  0
ARC
  8
LC-002-002-RND-0
  6
CONTINUOUS
  5
473
 10
507.280732
 20
398.015104
 30
0.0
 40
3.0
 50
270.0
 51
0.0
  0
ARC
  8
LC-002-002-RND-0
  6
CONTINUOUS
  5
474
 10
504.280732
 20
435.015104
 30
0.0
 40
3.0
 50
270.0
 51
0.0
  0
LINE
  8
LC-001-002-----0
  6
CONTINUOUS
  5
475
 10
507.280732
 20
435.015104
 30
0.0
 11
507.280732
 21
450.015104
 31
0.0
  0
ARC
  8
LC-002-002-RND-0
  6
CONTINUOUS
  5
476
 10
515.98517
 20
450.015104
 30
0.0
 40
2.0
 50
15.0
 51
90.0
  0
LINE
  8
LC-001-002-----0
  6
CONTINUOUS
  5
477
 10
520.280732
 20
422.015104
 30
0.0
 11
513.280732
 21
422.015104
 31
0.0
  0
ARC
  8
LC-002-002-RND-0
  6
CONTINUOUS
  5
478
 10
497.280732
 20
422.015104
 30
0.0
 40
2.0
 50
0.0
 51
90.0
  0
LINE
  8
LC-001-002-----0
  6
CONTINUOUS
  5
479
 10
494.780732
 20
421.515104
 30
0.0
 11
494.780732
 21
419.437481
 31
0.0
  0
ARC
  8
LC-001-002-----0
  6
CONTINUOUS
  5
47A
 10
497.030732
 20
421.515104
 30
0.0
 40
2.25
 50
0.0
 51
180.0
  0
ARC
  8
LC-001-002-----0
  6
CONTINUOUS
  5
47B
 10
497.030732
 20
419.437481
 30
0.0
 40
2.25
 50
180.0
 51
0.0
  0
ARC
  8
LC-002-002-RND-0
  6
CONTINUOUS
  5
47C
 10
509.280732
 20
450.015104
 30
0.0
 40
2.0
 50
90.0
 51
180.0
  0
LINE
  8
LC-001-002-----0
  6
CONTINUOUS
  5
47D
 10
515.98517
 20
452.015104
 30
0.0
 11
509.280732
 21
452.015104
 31
0.0
  0
ARC
  8
LC-002-002-RND-0
  6
CONTINUOUS
  5
47E
 10
282.280732
 20
435.015104
 30
0.0
 40
3.0
 50
180.0
 51
270.0
  0
ARC
  8
LC-002-002-RND-0
  6
CONTINUOUS
  5
47F
 10
277.280732
 20
450.015104
 30
0.0
 40
2.0
 50
0.0
 51
90.0
  0
LINE
  8
LC-001-002-----0
  6
CONTINUOUS
  5
480
 10
279.280732
 20
395.015104
 30
0.0
 11
299.311732
 21
395.015104
 31
0.0
  0
LINE
  8
LC-001-002-----0
  6
CONTINUOUS
  5
481
 10
507.280732
 20
395.015104
 30
0.0
 11
487.249732
 21
395.015104
 31
0.0
  0
LINE
  8
LC-001-002-----0
  6
CONTINUOUS
  5
482
 10
494.735732
 20
424.015104
 30
0.0
 11
494.735732
 21
401.557104
 31
0.0
  0
LINE
  8
LC-001-002-----0
  6
CONTINUOUS
  5
483
 10
492.026982
 20
424.015104
 30
0.0
 11
492.026982
 21
403.034604
 31
0.0
  0
ARC
  8
LC-002-002-RND-0
  6
CONTINUOUS
  5
484
 10
496.280732
 20
429.015104
 30
0.0
 40
3.0
 50
90.0
 51
180.0
  0
LINE
  8
LC-001-002-----0
  6
CONTINUOUS
  5
485
 10
282.280732
 20
432.015104
 30
0.0
 11
290.280732
 21
432.015104
 31
0.0
  0
LINE
  8
LC-001-002-----0
  6
CONTINUOUS
  5
486
 10
297.780732
 20
402.549604
 30
0.0
 11
301.832473
 21
402.549604
 31
0.0
  0
LINE
  8
LC-001-002-----0
  6
CONTINUOUS
  5
487
 10
310.160042
 20
242.049604
 30
0.0
 11
303.280732
 21
356.049604
 31
0.0
  0
LINE
  8
LC-001-002-----0
  6
CONTINUOUS
  5
488
 10
314.095941
 20
243.232427
 30
0.0
 11
307.287982
 21
356.050042
 31
0.0
  0
LINE
  8
LC-001-002-----0
  6
CONTINUOUS
  5
489
 10
314.095941
 20
243.232427
 30
0.0
 11
317.280732
 21
237.716208
 31
0.0
  0
LINE
  8
LC-001-002-----0
  6
CONTINUOUS
  5
48A
 10
476.401421
 20
242.049604
 30
0.0
 11
483.280732
 21
356.049604
 31
0.0
  0
LINE
  8
LC-001-002-----0
  6
CONTINUOUS
  5
48B
 10
472.465522
 20
243.232427
 30
0.0
 11
479.287995
 21
356.290545
 31
0.0
  0
LINE
  8
LC-001-002-----0
  6
DASHDOT
 62
     2
  5
48C
 10
475.65434
 20
319.927608
 30
0.0
 11
391.082004
 21
350.709421
 31
0.0
  0
LINE
  8
LC-001-002-----0
  6
DASHDOT
 62
     2
  5
48D
 10
474.45727
 20
316.638684
 30
0.0
 11
389.884934
 21
347.420497
 31
0.0
  0
LINE
  8
LC-001-002-----0
  6
DASHDOT
 62
     2
  5
48E
 10
474.45727
 20
316.638684
 30
0.0
 11
475.65434
 21
319.927608
 31
0.0
  0
LINE
  8
LC-001-002-----0
  6
CONTINUOUS
  5
48F
 10
496.280732
 20
432.015104
 30
0.0
 11
504.280732
 21
432.015104
 31
0.0
  0
LINE
  8
LC-001-002-----0
  6
CONTINUOUS
  5
490
 10
393.284361
 20
418.015104
 30
0.0
 11
402.890963
 21
418.015104
 31
0.0
  0
LINE
  8
LC-001-002-----0
  6
CONTINUOUS
  5
491
 10
456.282991
 20
452.015104
 30
0.0
 11
330.278473
 21
452.015104
 31
0.0
  0
LINE
  8
LC-001-002-----0
  6
CONTINUOUS
  5
492
 10
383.67776
 20
418.015104
 30
0.0
 11
331.116997
 21
430.149712
 31
0.0
  0
LINE
  8
LC-001-002-----0
  6
CONTINUOUS
  5
493
 10
383.67776
 20
418.015104
 30
0.0
 11
393.284361
 21
418.015104
 31
0.0
  0
LINE
  8
LC-001-002-----0
  6
CONTINUOUS
  5
494
 10
503.944466
 20
433.910432
 30
0.0
 11
504.782991
 21
449.910432
 31
0.0
  0
LINE
  8
LC-001-002-----0
  6
CONTINUOUS
  5
495
 10
457.441725
 20
433.910432
 30
0.0
 11
458.28025
 21
449.910432
 31
0.0
  0
LINE
  8
LC-001-002-----0
  6
CONTINUOUS
  5
496
 10
488.285732
 20
449.910432
 30
0.0
 11
489.124256
 21
433.910432
 31
0.0
  0
LINE
  8
LC-001-002-----0
  6
CONTINUOUS
  5
497
 10
502.785732
 20
452.015104
 30
0.0
 11
456.282991
 21
452.015104
 31
0.0
  0
LINE
  8
LC-001-002-----0
  6
CONTINUOUS
  5
498
 10
491.121515
 20
432.015104
 30
0.0
 11
501.947207
 21
432.015104
 31
0.0
  0
LINE
  8
LC-001-002-----0
  6
CONTINUOUS
  5
499
 10
281.785732
 20
449.910432
 30
0.0
 11
282.624256
 21
433.910432
 31
0.0
  0
LINE
  8
LC-001-002-----0
  6
CONTINUOUS
  5
49A
 10
330.278473
 20
452.015104
 30
0.0
 11
283.782991
 21
452.015104
 31
0.0
  0
LINE
  8
LC-001-002-----0
  6
CONTINUOUS
  5
49B
 10
328.281214
 20
449.910432
 30
0.0
 11
329.119738
 21
433.910432
 31
0.0
  0
LINE
  8
LC-001-002-----0
  6
CONTINUOUS
  5
49C
 10
293.442689
 20
433.910432
 30
0.0
 11
294.281214
 21
449.910432
 31
0.0
  0
LINE
  8
LC-009-100-D00-0
  6
CONTINUOUS
  5
49E
 10
284.621515
 20
432.015104
 30
0.0
 11
291.44543
 21
432.015104
 31
0.0
  0
LINE
  8
LC-001-002-----0
  6
CONTINUOUS
  5
49F
 10
291.44543
 20
432.015104
 30
0.0
 11
331.116997
 21
432.015104
 31
0.0
  0
LINE
  8
LC-001-002-----0
  6
CONTINUOUS
  5
4A0
 10
455.444466
 20
432.015104
 30
0.0
 11
491.121515
 21
432.015104
 31
0.0
  0
LINE
  8
LC-001-002-----0
  6
CONTINUOUS
  5
4A1
 10
455.444466
 20
432.015104
 30
0.0
 11
455.444466
 21
430.148037
 31
0.0
  0
LINE
  8
LC-001-002-----0
  6
CONTINUOUS
  5
4A2
 10
455.444466
 20
430.148037
 30
0.0
 11
402.890963
 21
418.015104
 31
0.0
  0
LINE
  8
LC-001-002-----0
  6
CONTINUOUS
  5
4A3
 10
331.116997
 20
432.015104
 30
0.0
 11
331.116997
 21
430.149712
 31
0.0
  0
ARC
  8
LC-001-002-----0
  6
CONTINUOUS
  5
4A4
 10
502.785732
 20
450.015104
 30
0.0
 40
2.0
 50
357.0
 51
90.0
  0
ARC
  8
LC-001-002-----0
  6
CONTINUOUS
  5
4A5
 10
501.947207
 20
434.015104
 30
0.0
 40
2.0
 50
270.0
 51
357.0
  0
ARC
  8
LC-001-002-----0
  6
CONTINUOUS
  5
4A6
 10
456.282991
 20
450.015104
 30
0.0
 40
2.0
 50
357.0
 51
90.0
  0
ARC
  8
LC-001-002-----0
  6
CONTINUOUS
  5
4A7
 10
455.444466
 20
434.015104
 30
0.0
 40
2.0
 50
270.0
 51
357.0
  0
ARC
  8
LC-001-002-----0
  6
CONTINUOUS
  5
4A8
 10
490.282991
 20
450.015104
 30
0.0
 40
2.0
 50
90.0
 51
183.0
  0
ARC
  8
LC-001-002-----0
  6
CONTINUOUS
  5
4A9
 10
491.121515
 20
434.015104
 30
0.0
 40
2.0
 50
183.0
 51
270.0
  0
ARC
  8
LC-001-002-----0
  6
CONTINUOUS
  5
4AA
 10
283.782991
 20
450.015104
 30
0.0
 40
2.0
 50
90.0
 51
183.0
  0
ARC
  8
LC-001-002-----0
  6
CONTINUOUS
  5
4AB
 10
284.621515
 20
434.015104
 30
0.0
 40
2.0
 50
183.0
 51
270.0
  0
ARC
  8
LC-001-002-----0
  6
CONTINUOUS
  5
4AC
 10
330.278473
 20
450.015104
 30
0.0
 40
2.0
 50
90.0
 51
183.0
  0
ARC
  8
LC-001-002-----0
  6
CONTINUOUS
  5
4AD
 10
331.116997
 20
434.015104
 30
0.0
 40
2.0
 50
183.0
 51
270.0
  0
ARC
  8
LC-001-002-----0
  6
CONTINUOUS
  5
4AE
 10
292.283955
 20
450.015104
 30
0.0
 40
2.0
 50
357.0
 51
90.0
  0
ARC
  8
LC-001-002-----0
  6
CONTINUOUS
  5
4AF
 10
291.44543
 20
434.015104
 30
0.0
 40
2.0
 50
270.0
 51
357.0
  0
ENDSEC
  0
EOF
