  0
SECTION
  2
HEADER
  9
$ACADVER
  1
AC1009
  9
$INSBASE
 10
-11.532129
 20
75.48
 30
0.0
  9
$EXTMIN
 10
-11.532129
 20
75.48
 30
0.0
  9
$EXTMAX
 10
828.467871
 20
669.48
 30
0.0
  9
$LIMMIN
 10
-11.532129
 20
75.48
  9
$LIMMAX
 10
828.467871
 20
669.48
  9
$ORTHOMODE
 70
     0
  9
$REGENMODE
 70
     1
  9
$FILLMODE
 70
     1
  9
$QTEXTMODE
 70
     0
  9
$MIRRTEXT
 70
     1
  9
$DRAGMODE
 70
     2
  9
$LTSCALE
 40
2.0
  9
$OSMODE
 70
     0
  9
$ATTMODE
 70
     1
  9
$TEXTSIZE
 40
0.2
  9
$TRACEWID
 40
0.05
  9
$TEXTSTYLE
  7
STANDARD
  9
$CLAYER
  8
0
  9
$CELTYPE
  6
BYLAYER
  9
$CECOLOR
 62
     7
  9
$DIMSCALE
 40
2.0
  9
$DIMASZ
 40
3.5
  9
$DIMEXO
 40
0.0625
  9
$DIMDLI
 40
0.38
  9
$DIMRND
 40
0.0
  9
$DIMDLE
 40
0.0
  9
$DIMEXE
 40
0.18
  9
$DIMTP
 40
0.0
  9
$DIMTM
 40
0.0
  9
$DIMTXT
 40
3.5
  9
$DIMCEN
 40
0.09
  9
$DIMTSZ
 40
0.0
  9
$DIMTOL
 70
     0
  9
$DIMLIM
 70
     0
  9
$DIMTIH
 70
     1
  9
$DIMTOH
 70
     1
  9
$DIMSE1
 70
     0
  9
$DIMSE2
 70
     0
  9
$DIMTAD
 70
     1
  9
$DIMZIN
 70
     0
  9
$DIMBLK
  1

  9
$DIMASO
 70
     1
  9
$DIMSHO
 70
     1
  9
$DIMPOST
  1

  9
$DIMAPOST
  1

  9
$DIMALT
 70
     0
  9
$DIMALTD
 70
     2
  9
$DIMALTF
 40
25.4
  9
$DIMLFAC
 40
1.0
  9
$DIMTOFL
 70
     0
  9
$DIMTVP
 40
0.0
  9
$DIMTIX
 70
     0
  9
$DIMSOXD
 70
     0
  9
$DIMSAH
 70
     0
  9
$DIMBLK1
  1

  9
$DIMBLK2
  1

  9
$DIMSTYLE
  2
STANDARD
  9
$DIMCLRD
 70
     0
  9
$DIMCLRE
 70
     0
  9
$DIMCLRT
 70
     0
  9
$DIMTFAC
 40
1.0
  9
$DIMGAP
 40
0.09
  9
$LUNITS
 70
     2
  9
$LUPREC
 70
     2
  9
$AXISMODE
 70
     0
  9
$AXISUNIT
 10
0.0
 20
0.0
  9
$SKETCHINC
 40
0.1
  9
$FILLETRAD
 40
0.0
  9
$AUNITS
 70
     0
  9
$AUPREC
 70
     0
  9
$MENU
  1
acad
  9
$ELEVATION
 40
0.0
  9
$PELEVATION
 40
0.0
  9
$THICKNESS
 40
0.0
  9
$LIMCHECK
 70
     0
  9
$BLIPMODE
 70
     1
  9
$CHAMFERA
 40
0.0
  9
$CHAMFERB
 40
0.0
  9
$SKPOLY
 70
     0
  9
$TDCREATE
 40
0.000000000
  9
$TDUPDATE
 40
0.000000000
  9
$TDINDWG
 40
0.0000000000
  9
$TDUSRTIMER
 40
0.0000000000
  9
$USRTIMER
 70
     1
  9
$ANGBASE
 50
0.0
  9
$ANGDIR
 70
     0
  9
$PDMODE
 70
     0
  9
$PDSIZE
 40
0.0
  9
$PLINEWID
 40
0.0
  9
$COORDS
 70
     0
  9
$SPLFRAME
 70
     0
  9
$SPLINETYPE
 70
     6
  9
$SPLINESEGS
 70
     8
  9
$ATTDIA
 70
     0
  9
$ATTREQ
 70
     1
  9
$HANDLING
 70
     1
  9
$HANDSEED
  5
499
  9
$SURFTAB1
 70
     6
  9
$SURFTAB2
 70
     6
  9
$SURFTYPE
 70
     6
  9
$SURFU
 70
     6
  9
$SURFV
 70
     6
  9
$UCSNAME
  2

  9
$UCSORG
 10
0.0
 20
0.0
 30
0.0
  9
$UCSXDIR
 10
1.0
 20
0.0
 30
0.0
  9
$UCSYDIR
 10
0.0
 20
1.0
 30
0.0
  9
$PUCSNAME
  2

  9
$PUCSORG
 10
0.0
 20
0.0
 30
0.0
  9
$PUCSXDIR
 10
1.0
 20
0.0
 30
0.0
  9
$PUCSYDIR
 10
0.0
 20
1.0
 30
0.0
  9
$USERI1
 70
     0
  9
$USERI2
 70
     0
  9
$USERI3
 70
     0
  9
$USERI4
 70
     0
  9
$USERI5
 70
     0
  9
$USERR1
 40
0.0
  9
$USERR2
 40
0.0
  9
$USERR3
 40
0.0
  9
$USERR4
 40
0.0
  9
$USERR5
 40
0.0
  9
$WORLDVIEW
 70
     1
  9
$SHADEDGE
 70
     3
  9
$SHADEDIF
 70
    70
  9
$TILEMODE
 70
     1
  9
$MAXACTVP
 70
    16
  9
$PINSBASE
 10
0.0
 20
0.0
 30
0.0
  9
$PLIMCHECK
 70
     0
  9
$PEXTMIN
 10
1.000000E+20
 20
1.000000E+20
 30
1.000000E+20
  9
$PEXTMAX
 10
-1.000000E+20
 20
-1.000000E+20
 30
-1.000000E+20
  9
$PLIMMIN
 10
-11.532129
 20
75.48
  9
$PLIMMAX
 10
828.467871
 20
669.48
  9
$UNITMODE
 70
     0
  9
$VISRETAIN
 70
     0
  9
$PLINEGEN
 70
     1
  9
$PSLTSCALE
 70
     0
  9
$TREEDEPTH
 70
  3020
  9
$DWGCODEPAGE
  3
dos850
  0
ENDSEC
  0
SECTION
  2
TABLES
  0
TABLE
  2
VPORT
 70
     1
  0
VPORT
  2
*ACTIVE
 70
     0
 10
0.0
 20
0.0
 11
1.0
 21
1.0
 12
420.0
 22
297.0
 13
0.0
 23
0.0
 14
1.0
 24
1.0
 15
0.0
 25
0.0
 16
0.0
 26
0.0
 36
1.0
 17
-11.532129
 27
75.48
 37
0.0
 40
594.0
 41
1.604229
 42
50.0
 43
0.0
 44
0.0
 50
0.0
 51
0.0
 71
     0
 72
   100
 73
     1
 74
     1
 75
     0
 76
     0
 77
     0
 78
     0
  0
ENDTAB
  0
TABLE
  2
LTYPE
 70
     3
  0
LTYPE
  2
CONTINUOUS
 70
    64
  3
Solid line
 72
    65
 73
     0
 40
0.0
  0
LTYPE
  2
DASHED
 70
    64
  3
__ __ __ __ __
 72
    65
 73
     2
 40
6.25
 49
5.0
 49
-1.25
  0
LTYPE
  2
DASHDOT
 70
    64
  3
__ . __ . __ . __ . __
 72
    65
 73
     4
 40
7.5
 49
5.0
 49
-1.25
 49
0.0
 49
-1.25
  0
ENDTAB
  0
TABLE
  2
LAYER
 70
    11
  0
LAYER
  2
0
 70
     0
 62
     7
  6
CONTINUOUS
  0
LAYER
  2
LC-INFO-1-2-MM-A3-0
 70
     1
 62
    -1
  6
CONTINUOUS
  0
LAYER
  2
LC-003-005-----0
 70
     0
 62
     2
  6
CONTINUOUS
  0
LAYER
  2
LC-005-003-MTH-0
 70
     0
 62
     2
  6
CONTINUOUS
  0
LAYER
  2
LC-006-003-MTG-0
 70
     0
 62
     2
  6
CONTINUOUS
  0
LAYER
  2
LC-004-003-----0
 70
     0
 62
     2
  6
CONTINUOUS
  0
LAYER
  2
LC-007-100-D02-0
 70
     0
 62
     7
  6
CONTINUOUS
  0
LAYER
  2
LC-001-002-----0
 70
     0
 62
     1
  6
CONTINUOUS
  0
LAYER
  2
LC-002-002-RND-0
 70
     0
 62
     1
  6
CONTINUOUS
  0
LAYER
  2
LC-008-100-D00-0
 70
     0
 62
     7
  6
CONTINUOUS
  0
LAYER
  2
LC-000
 70
     0
 62
     7
  6
CONTINUOUS
  0
ENDTAB
  0
TABLE
  2
STYLE
 70
     4
  0
STYLE
  2
STANDARD
 70
     0
 40
0.0
 41
1.0
 50
0.0
 71
     0
 42
0.0
  3
txt
  4

  0
STYLE
  2
LC-STANDARD
 70
    64
 40
0.0
 41
1.0
 50
0.0
 71
     0
 42
3.5
  3
MONOTXT
  4

  0
STYLE
  2
LC-TXTSTYLE-150-400-0-0-D2
 70
    64
 40
0.0
 41
1.0
 50
15.0
 71
     0
 42
3.5
  3
MONOTXT
  4

  0
STYLE
  2
LC-TXTSTYLE-150-400-0-0-D3
 70
    64
 40
0.0
 41
1.0
 50
15.0
 71
     0
 42
3.5
  3
LC-STANDARD
  4

  0
ENDTAB
  0
TABLE
  2
VIEW
 70
     0
  0
ENDTAB
  0
TABLE
  2
UCS
 70
     0
  0
ENDTAB
  0
TABLE
  2
APPID
 70
     1
  0
APPID
  2
ACAD
 70
     0
  0
ENDTAB
  0
TABLE
  2
DIMSTYLE
 70
     3
  0
DIMSTYLE
  2
STANDARD
 70
     0
  3

  4

  5

  6

  7

 40
1.0
 41
0.18
 42
0.0625
 43
0.38
 44
0.18
 45
0.0
 46
0.0
 47
0.0
 48
0.0
 71
     0
 72
     0
 73
     1
 74
     1
 75
     0
 76
     0
 77
     0
 78
     0
140
0.18
141
0.09
142
0.0
143
25.4
144
1.0
145
0.0
146
1.0
147
0.09
170
     0
171
     2
172
     0
173
     0
174
     0
175
     0
176
     0
177
     0
178
     0
  0
DIMSTYLE
  2
LC-STANDARD
 70
     0
  3

  4

  5

  6

  7

 40
1.0
 41
3.5
 42
0.0
 43
7.5
 44
1.8
 45
0.0
 46
0.0
 47
0.0
 48
0.0
 71
     0
 72
     0
 73
     0
 74
     0
 75
     0
 76
     0
 77
     1
 78
     8
140
3.5
141
0.0
142
0.0
143
25.4
144
1.0
145
0.0
146
0.71
147
1.5
170
     0
171
     2
172
     1
173
     0
174
     0
175
     0
176
     0
177
     0
178
     3
  0
DIMSTYLE
  2
LC-DIM-L-0090-02-02
 70
     0
  3

  4

  5

  6

  7

 40
2.0
 41
3.5
 42
0.0
 43
7.5
 44
1.8
 45
0.0
 46
0.0
 47
0.0
 48
0.0
 71
     0
 72
     0
 73
     0
 74
     0
 75
     0
 76
     0
 77
     1
 78
     8
140
9.0
141
0.0
142
0.0
143
25.4
144
1.0
145
0.0
146
0.71
147
1.5
170
     0
171
     2
172
     0
173
     0
174
     0
175
     0
176
     2
177
     2
178
     6
  0
ENDTAB
  0
ENDSEC
  0
SECTION
  2
BLOCKS
  0
BLOCK
  8
0
  5
23
  2
*X0
 70
    65
 10
384.423143
 20
447.51495
 30
0.0
  3
*X0
  0
LINE
  8
LC-003-005-----0
  6
CONTINUOUS
  5
25
 10
387.107248
 20
447.635589
 30
0.0
 11
388.302504
 21
448.830845
 31
0.0
  0
LINE
  8
LC-003-005-----0
  6
CONTINUOUS
  5
26
 10
386.726981
 20
447.538165
 30
0.0
 11
388.399929
 21
449.211112
 31
0.0
  0
LINE
  8
LC-003-005-----0
  6
CONTINUOUS
  5
27
 10
386.421257
 20
447.515283
 30
0.0
 11
388.423143
 21
449.517169
 31
0.0
  0
LINE
  8
LC-003-005-----0
  6
CONTINUOUS
  5
28
 10
386.180811
 20
447.55768
 30
0.0
 11
388.423143
 21
449.800011
 31
0.0
  0
LINE
  8
LC-003-005-----0
  6
CONTINUOUS
  5
29
 10
385.940366
 20
447.600077
 30
0.0
 11
388.423143
 21
450.082854
 31
0.0
  0
LINE
  8
LC-003-005-----0
  6
CONTINUOUS
  5
2A
 10
385.705561
 20
447.648115
 30
0.0
 11
388.423143
 21
450.365697
 31
0.0
  0
LINE
  8
LC-003-005-----0
  6
CONTINUOUS
  5
2B
 10
385.510119
 20
447.735516
 30
0.0
 11
388.423143
 21
450.64854
 31
0.0
  0
LINE
  8
LC-003-005-----0
  6
CONTINUOUS
  5
2C
 10
385.331141
 20
447.839381
 30
0.0
 11
388.423143
 21
450.931382
 31
0.0
  0
LINE
  8
LC-003-005-----0
  6
CONTINUOUS
  5
2D
 10
385.167308
 20
447.95839
 30
0.0
 11
388.423143
 21
451.214225
 31
0.0
  0
LINE
  8
LC-003-005-----0
  6
CONTINUOUS
  5
2E
 10
385.017899
 20
448.091824
 30
0.0
 11
388.40619
 21
451.480115
 31
0.0
  0
LINE
  8
LC-003-005-----0
  6
CONTINUOUS
  5
2F
 10
384.882668
 20
448.239436
 30
0.0
 11
388.360424
 21
451.717191
 31
0.0
  0
LINE
  8
LC-003-005-----0
  6
CONTINUOUS
  5
30
 10
384.761806
 20
448.401416
 30
0.0
 11
388.292262
 21
451.931872
 31
0.0
  0
LINE
  8
LC-003-005-----0
  6
CONTINUOUS
  5
31
 10
384.655967
 20
448.57842
 30
0.0
 11
388.205369
 21
452.127822
 31
0.0
  0
LINE
  8
LC-003-005-----0
  6
CONTINUOUS
  5
32
 10
384.566385
 20
448.771681
 30
0.0
 11
388.101962
 21
452.307257
 31
0.0
  0
LINE
  8
LC-003-005-----0
  6
CONTINUOUS
  5
33
 10
384.495114
 20
448.983252
 30
0.0
 11
387.983381
 21
452.47152
 31
0.0
  0
LINE
  8
LC-003-005-----0
  6
CONTINUOUS
  5
34
 10
384.445534
 20
449.216515
 30
0.0
 11
387.850363
 21
452.621344
 31
0.0
  0
LINE
  8
LC-003-005-----0
  6
CONTINUOUS
  5
35
 10
384.423497
 20
449.477321
 30
0.0
 11
387.703165
 21
452.756989
 31
0.0
  0
LINE
  8
LC-003-005-----0
  6
CONTINUOUS
  5
36
 10
384.423143
 20
449.759809
 30
0.0
 11
387.541611
 21
452.878278
 31
0.0
  0
LINE
  8
LC-003-005-----0
  6
CONTINUOUS
  5
37
 10
384.423143
 20
450.042652
 30
0.0
 11
387.36506
 21
452.984569
 31
0.0
  0
LINE
  8
LC-003-005-----0
  6
CONTINUOUS
  5
38
 10
384.423143
 20
450.325495
 30
0.0
 11
387.172298
 21
453.07465
 31
0.0
  0
LINE
  8
LC-003-005-----0
  6
CONTINUOUS
  5
39
 10
384.423143
 20
450.608338
 30
0.0
 11
386.9613
 21
453.146495
 31
0.0
  0
LINE
  8
LC-003-005-----0
  6
CONTINUOUS
  5
3A
 10
384.423143
 20
450.89118
 30
0.0
 11
386.728736
 21
453.196774
 31
0.0
  0
LINE
  8
LC-003-005-----0
  6
CONTINUOUS
  5
3B
 10
384.423143
 20
451.174023
 30
0.0
 11
386.468856
 21
453.219736
 31
0.0
  0
LINE
  8
LC-003-005-----0
  6
CONTINUOUS
  5
3C
 10
384.439162
 20
451.472885
 30
0.0
 11
386.135884
 21
453.169607
 31
0.0
  0
LINE
  8
LC-003-005-----0
  6
CONTINUOUS
  5
3D
 10
384.520695
 20
451.83726
 30
0.0
 11
385.792492
 21
453.109058
 31
0.0
  0
LINE
  8
LC-003-005-----0
  6
CONTINUOUS
  5
3E
 10
384.830192
 20
452.429601
 30
0.0
 11
385.2138
 21
452.813209
 31
0.0
  0
ENDBLK
  8
0
  5
3F
  0
BLOCK
  8
0
  5
41
  2
*X1
 70
    65
 10
216.423143
 20
447.51495
 30
0.0
  3
*X1
  0
LINE
  8
LC-003-005-----0
  6
CONTINUOUS
  5
42
 10
219.096827
 20
447.633739
 30
0.0
 11
220.307325
 21
448.844237
 31
0.0
  0
LINE
  8
LC-003-005-----0
  6
CONTINUOUS
  5
43
 10
218.753435
 20
447.57319
 30
0.0
 11
220.401454
 21
449.221209
 31
0.0
  0
LINE
  8
LC-003-005-----0
  6
CONTINUOUS
  5
44
 10
218.412382
 20
447.514979
 30
0.0
 11
220.423143
 21
449.52574
 31
0.0
  0
LINE
  8
LC-003-005-----0
  6
CONTINUOUS
  5
45
 10
218.148463
 20
447.533902
 30
0.0
 11
220.423143
 21
449.808583
 31
0.0
  0
LINE
  8
LC-003-005-----0
  6
CONTINUOUS
  5
46
 10
217.91286
 20
447.581143
 30
0.0
 11
220.423143
 21
450.091425
 31
0.0
  0
LINE
  8
LC-003-005-----0
  6
CONTINUOUS
  5
47
 10
217.699378
 20
447.650503
 30
0.0
 11
220.423143
 21
450.374268
 31
0.0
  0
LINE
  8
LC-003-005-----0
  6
CONTINUOUS
  5
48
 10
217.504462
 20
447.73843
 30
0.0
 11
220.423143
 21
450.657111
 31
0.0
  0
LINE
  8
LC-003-005-----0
  6
CONTINUOUS
  5
49
 10
217.325959
 20
447.84277
 30
0.0
 11
220.423143
 21
450.939953
 31
0.0
  0
LINE
  8
LC-003-005-----0
  6
CONTINUOUS
  5
4A
 10
217.162571
 20
447.962224
 30
0.0
 11
220.423141
 21
451.222795
 31
0.0
  0
LINE
  8
LC-003-005-----0
  6
CONTINUOUS
  5
4B
 10
217.013593
 20
448.096089
 30
0.0
 11
220.405184
 21
451.48768
 31
0.0
  0
LINE
  8
LC-003-005-----0
  6
CONTINUOUS
  5
4C
 10
216.878792
 20
448.244131
 30
0.0
 11
220.358664
 21
451.724003
 31
0.0
  0
LINE
  8
LC-003-005-----0
  6
CONTINUOUS
  5
4D
 10
216.758373
 20
448.406554
 30
0.0
 11
220.28989
 21
451.938071
 31
0.0
  0
LINE
  8
LC-003-005-----0
  6
CONTINUOUS
  5
4E
 10
216.653005
 20
448.58403
 30
0.0
 11
220.202469
 21
452.133493
 31
0.0
  0
LINE
  8
LC-003-005-----0
  6
CONTINUOUS
  5
4F
 10
216.563943
 20
448.77781
 30
0.0
 11
220.098586
 21
452.312453
 31
0.0
  0
LINE
  8
LC-003-005-----0
  6
CONTINUOUS
  5
50
 10
216.493271
 20
448.98998
 30
0.0
 11
219.97956
 21
452.47627
 31
0.0
  0
LINE
  8
LC-003-005-----0
  6
CONTINUOUS
  5
51
 10
216.444423
 20
449.223975
 30
0.0
 11
219.846111
 21
452.625663
 31
0.0
  0
LINE
  8
LC-003-005-----0
  6
CONTINUOUS
  5
52
 10
216.423356
 20
449.485751
 30
0.0
 11
219.698483
 21
452.760878
 31
0.0
  0
LINE
  8
LC-003-005-----0
  6
CONTINUOUS
  5
53
 10
216.423143
 20
449.768381
 30
0.0
 11
219.536486
 21
452.881724
 31
0.0
  0
LINE
  8
LC-003-005-----0
  6
CONTINUOUS
  5
54
 10
216.423143
 20
450.051223
 30
0.0
 11
219.359464
 21
452.987545
 31
0.0
  0
LINE
  8
LC-003-005-----0
  6
CONTINUOUS
  5
55
 10
216.423143
 20
450.334066
 30
0.0
 11
219.166184
 21
453.077108
 31
0.0
  0
LINE
  8
LC-003-005-----0
  6
CONTINUOUS
  5
56
 10
216.423143
 20
450.616909
 30
0.0
 11
218.936053
 21
453.129818
 31
0.0
  0
LINE
  8
LC-003-005-----0
  6
CONTINUOUS
  5
57
 10
216.423143
 20
450.899751
 30
0.0
 11
218.695607
 21
453.172216
 31
0.0
  0
LINE
  8
LC-003-005-----0
  6
CONTINUOUS
  5
58
 10
216.423143
 20
451.182594
 30
0.0
 11
218.455161
 21
453.214613
 31
0.0
  0
LINE
  8
LC-003-005-----0
  6
CONTINUOUS
  5
59
 10
216.440441
 20
451.482735
 30
0.0
 11
218.160666
 21
453.20296
 31
0.0
  0
LINE
  8
LC-003-005-----0
  6
CONTINUOUS
  5
5A
 10
216.524879
 20
451.850016
 30
0.0
 11
217.793385
 21
453.118522
 31
0.0
  0
LINE
  8
LC-003-005-----0
  6
CONTINUOUS
  5
5B
 10
216.860355
 20
452.468334
 30
0.0
 11
217.175067
 21
452.783046
 31
0.0
  0
ENDBLK
  8
0
  5
5C
  0
BLOCK
  8
0
  5
5E
  2
*X2
 70
    65
 10
213.423143
 20
349.603127
 30
0.0
  3
*X2
  0
LINE
  8
LC-003-005-----0
  6
CONTINUOUS
  5
5F
 10
301.655264
 20
349.738525
 30
0.0
 11
302.423143
 21
350.506404
 31
0.0
  0
LINE
  8
LC-003-005-----0
  6
CONTINUOUS
  5
60
 10
299.250807
 20
350.162495
 30
0.0
 11
301.840461
 21
352.752149
 31
0.0
  0
LINE
  8
LC-003-005-----0
  6
CONTINUOUS
  5
61
 10
296.846351
 20
350.586466
 30
0.0
 11
299.436005
 21
353.17612
 31
0.0
  0
LINE
  8
LC-003-005-----0
  6
CONTINUOUS
  5
62
 10
294.441894
 20
351.010436
 30
0.0
 11
297.031548
 21
353.60009
 31
0.0
  0
LINE
  8
LC-003-005-----0
  6
CONTINUOUS
  5
63
 10
292.037437
 20
351.434407
 30
0.0
 11
294.627091
 21
354.024061
 31
0.0
  0
LINE
  8
LC-003-005-----0
  6
CONTINUOUS
  5
64
 10
289.632981
 20
351.858378
 30
0.0
 11
292.222635
 21
354.448032
 31
0.0
  0
LINE
  8
LC-003-005-----0
  6
CONTINUOUS
  5
65
 10
287.228524
 20
352.282348
 30
0.0
 11
289.818178
 21
354.872002
 31
0.0
  0
LINE
  8
LC-003-005-----0
  6
CONTINUOUS
  5
66
 10
284.824068
 20
352.706319
 30
0.0
 11
287.413722
 21
355.295973
 31
0.0
  0
LINE
  8
LC-003-005-----0
  6
CONTINUOUS
  5
67
 10
282.419611
 20
353.130289
 30
0.0
 11
285.009265
 21
355.719943
 31
0.0
  0
LINE
  8
LC-003-005-----0
  6
CONTINUOUS
  5
68
 10
280.015155
 20
353.55426
 30
0.0
 11
282.604809
 21
356.143914
 31
0.0
  0
LINE
  8
LC-003-005-----0
  6
CONTINUOUS
  5
69
 10
277.610698
 20
353.97823
 30
0.0
 11
280.200352
 21
356.567884
 31
0.0
  0
LINE
  8
LC-003-005-----0
  6
CONTINUOUS
  5
6A
 10
275.206242
 20
354.402201
 30
0.0
 11
277.795895
 21
356.991855
 31
0.0
  0
LINE
  8
LC-003-005-----0
  6
CONTINUOUS
  5
6B
 10
272.801785
 20
354.826172
 30
0.0
 11
275.391439
 21
357.415826
 31
0.0
  0
LINE
  8
LC-003-005-----0
  6
CONTINUOUS
  5
6C
 10
270.397328
 20
355.250142
 30
0.0
 11
272.986982
 21
357.839796
 31
0.0
  0
LINE
  8
LC-003-005-----0
  6
CONTINUOUS
  5
6D
 10
267.992872
 20
355.674113
 30
0.0
 11
270.582526
 21
358.263767
 31
0.0
  0
LINE
  8
LC-003-005-----0
  6
CONTINUOUS
  5
6E
 10
265.588415
 20
356.098083
 30
0.0
 11
268.178069
 21
358.687737
 31
0.0
  0
LINE
  8
LC-003-005-----0
  6
CONTINUOUS
  5
6F
 10
263.183959
 20
356.522054
 30
0.0
 11
265.773613
 21
359.111708
 31
0.0
  0
LINE
  8
LC-003-005-----0
  6
CONTINUOUS
  5
70
 10
260.779502
 20
356.946024
 30
0.0
 11
263.369156
 21
359.535678
 31
0.0
  0
LINE
  8
LC-003-005-----0
  6
CONTINUOUS
  5
71
 10
258.375046
 20
357.369995
 30
0.0
 11
260.9647
 21
359.959649
 31
0.0
  0
LINE
  8
LC-003-005-----0
  6
CONTINUOUS
  5
72
 10
255.970589
 20
357.793966
 30
0.0
 11
258.560243
 21
360.38362
 31
0.0
  0
LINE
  8
LC-003-005-----0
  6
CONTINUOUS
  5
73
 10
253.566132
 20
358.217936
 30
0.0
 11
256.155786
 21
360.80759
 31
0.0
  0
LINE
  8
LC-003-005-----0
  6
CONTINUOUS
  5
74
 10
251.161676
 20
358.641907
 30
0.0
 11
253.75133
 21
361.231561
 31
0.0
  0
LINE
  8
LC-003-005-----0
  6
CONTINUOUS
  5
75
 10
248.757219
 20
359.065877
 30
0.0
 11
251.346873
 21
361.655531
 31
0.0
  0
LINE
  8
LC-003-005-----0
  6
CONTINUOUS
  5
76
 10
246.352763
 20
359.489848
 30
0.0
 11
248.942417
 21
362.079502
 31
0.0
  0
LINE
  8
LC-003-005-----0
  6
CONTINUOUS
  5
77
 10
244.018425
 20
359.983937
 30
0.0
 11
246.53796
 21
362.503472
 31
0.0
  0
LINE
  8
LC-003-005-----0
  6
CONTINUOUS
  5
78
 10
241.858943
 20
360.652882
 30
0.0
 11
244.23987
 21
363.033809
 31
0.0
  0
LINE
  8
LC-003-005-----0
  6
CONTINUOUS
  5
79
 10
239.852809
 20
361.475175
 30
0.0
 11
242.134878
 21
363.757245
 31
0.0
  0
LINE
  8
LC-003-005-----0
  6
CONTINUOUS
  5
7A
 10
237.984037
 20
362.43483
 30
0.0
 11
240.195993
 21
364.646786
 31
0.0
  0
LINE
  8
LC-003-005-----0
  6
CONTINUOUS
  5
7B
 10
236.241839
 20
363.52106
 30
0.0
 11
238.40601
 21
365.68523
 31
0.0
  0
LINE
  8
LC-003-005-----0
  6
CONTINUOUS
  5
7C
 10
234.61913
 20
364.726778
 30
0.0
 11
236.754056
 21
366.861703
 31
0.0
  0
LINE
  8
LC-003-005-----0
  6
CONTINUOUS
  5
7D
 10
233.11168
 20
366.047755
 30
0.0
 11
235.233799
 21
368.169874
 31
0.0
  0
LINE
  8
LC-003-005-----0
  6
CONTINUOUS
  5
7E
 10
231.717661
 20
367.482163
 30
0.0
 11
233.84254
 21
369.607042
 31
0.0
  0
LINE
  8
LC-003-005-----0
  6
CONTINUOUS
  5
7F
 10
230.437467
 20
369.030397
 30
0.0
 11
232.580858
 21
371.173787
 31
0.0
  0
LINE
  8
LC-003-005-----0
  6
CONTINUOUS
  5
80
 10
229.273748
 20
370.695104
 30
0.0
 11
231.452681
 21
372.874037
 31
0.0
  0
LINE
  8
LC-003-005-----0
  6
CONTINUOUS
  5
81
 10
228.231683
 20
372.481466
 30
0.0
 11
230.465822
 21
374.715605
 31
0.0
  0
LINE
  8
LC-003-005-----0
  6
CONTINUOUS
  5
82
 10
227.319556
 20
374.397766
 30
0.0
 11
229.633143
 21
376.711353
 31
0.0
  0
LINE
  8
LC-003-005-----0
  6
CONTINUOUS
  5
83
 10
226.549789
 20
376.456427
 30
0.0
 11
228.974818
 21
378.881455
 31
0.0
  0
LINE
  8
LC-003-005-----0
  6
CONTINUOUS
  5
84
 10
225.94079
 20
378.675855
 30
0.0
 11
228.52279
 21
381.257854
 31
0.0
  0
LINE
  8
LC-003-005-----0
  6
CONTINUOUS
  5
85
 10
225.520372
 20
381.083864
 30
0.0
 11
228.274042
 21
383.837534
 31
0.0
  0
LINE
  8
LC-003-005-----0
  6
CONTINUOUS
  5
86
 10
225.277307
 20
383.669226
 30
0.0
 11
228.046494
 21
386.438413
 31
0.0
  0
LINE
  8
LC-003-005-----0
  6
CONTINUOUS
  5
87
 10
225.04976
 20
386.270106
 30
0.0
 11
227.818947
 21
389.039293
 31
0.0
  0
LINE
  8
LC-003-005-----0
  6
CONTINUOUS
  5
88
 10
224.822212
 20
388.870985
 30
0.0
 11
227.591399
 21
391.640172
 31
0.0
  0
LINE
  8
LC-003-005-----0
  6
CONTINUOUS
  5
89
 10
224.594665
 20
391.471865
 30
0.0
 11
227.363852
 21
394.241052
 31
0.0
  0
LINE
  8
LC-003-005-----0
  6
CONTINUOUS
  5
8A
 10
224.367117
 20
394.072745
 30
0.0
 11
227.136304
 21
396.841932
 31
0.0
  0
LINE
  8
LC-003-005-----0
  6
CONTINUOUS
  5
8B
 10
224.13957
 20
396.673624
 30
0.0
 11
226.908757
 21
399.442811
 31
0.0
  0
LINE
  8
LC-003-005-----0
  6
CONTINUOUS
  5
8C
 10
223.912022
 20
399.274504
 30
0.0
 11
226.681209
 21
402.043691
 31
0.0
  0
LINE
  8
LC-003-005-----0
  6
CONTINUOUS
  5
8D
 10
223.684475
 20
401.875384
 30
0.0
 11
226.453662
 21
404.644571
 31
0.0
  0
LINE
  8
LC-003-005-----0
  6
CONTINUOUS
  5
8E
 10
223.456927
 20
404.476263
 30
0.0
 11
226.226114
 21
407.24545
 31
0.0
  0
LINE
  8
LC-003-005-----0
  6
CONTINUOUS
  5
8F
 10
223.22938
 20
407.077143
 30
0.0
 11
225.998567
 21
409.84633
 31
0.0
  0
LINE
  8
LC-003-005-----0
  6
CONTINUOUS
  5
90
 10
223.001832
 20
409.678023
 30
0.0
 11
225.771019
 21
412.44721
 31
0.0
  0
LINE
  8
LC-003-005-----0
  6
CONTINUOUS
  5
91
 10
222.774285
 20
412.278902
 30
0.0
 11
225.543472
 21
415.048089
 31
0.0
  0
LINE
  8
LC-003-005-----0
  6
CONTINUOUS
  5
92
 10
222.546737
 20
414.879782
 30
0.0
 11
225.315924
 21
417.648969
 31
0.0
  0
LINE
  8
LC-003-005-----0
  6
CONTINUOUS
  5
93
 10
222.31919
 20
417.480661
 30
0.0
 11
225.088377
 21
420.249848
 31
0.0
  0
LINE
  8
LC-003-005-----0
  6
CONTINUOUS
  5
94
 10
222.091642
 20
420.081541
 30
0.0
 11
224.860829
 21
422.850728
 31
0.0
  0
LINE
  8
LC-003-005-----0
  6
CONTINUOUS
  5
95
 10
221.864095
 20
422.682421
 30
0.0
 11
224.633282
 21
425.451608
 31
0.0
  0
LINE
  8
LC-003-005-----0
  6
CONTINUOUS
  5
96
 10
221.636547
 20
425.2833
 30
0.0
 11
224.405734
 21
428.052487
 31
0.0
  0
LINE
  8
LC-003-005-----0
  6
CONTINUOUS
  5
97
 10
221.409
 20
427.88418
 30
0.0
 11
224.178187
 21
430.653367
 31
0.0
  0
LINE
  8
LC-003-005-----0
  6
CONTINUOUS
  5
98
 10
221.181452
 20
430.48506
 30
0.0
 11
223.950639
 21
433.254247
 31
0.0
  0
LINE
  8
LC-003-005-----0
  6
CONTINUOUS
  5
99
 10
220.953905
 20
433.085939
 30
0.0
 11
223.723092
 21
435.855126
 31
0.0
  0
LINE
  8
LC-003-005-----0
  6
CONTINUOUS
  5
9A
 10
220.726357
 20
435.686819
 30
0.0
 11
223.495544
 21
438.456006
 31
0.0
  0
LINE
  8
LC-003-005-----0
  6
CONTINUOUS
  5
9B
 10
220.49881
 20
438.287699
 30
0.0
 11
223.267997
 21
441.056886
 31
0.0
  0
LINE
  8
LC-003-005-----0
  6
CONTINUOUS
  5
9C
 10
220.271262
 20
440.888578
 30
0.0
 11
223.04045
 21
443.657765
 31
0.0
  0
LINE
  8
LC-003-005-----0
  6
CONTINUOUS
  5
9D
 10
220.043715
 20
443.489458
 30
0.0
 11
222.923143
 21
446.368886
 31
0.0
  0
LINE
  8
LC-003-005-----0
  6
CONTINUOUS
  5
9E
 10
218.593434
 20
444.867604
 30
0.0
 11
222.923143
 21
449.197313
 31
0.0
  0
LINE
  8
LC-003-005-----0
  6
CONTINUOUS
  5
9F
 10
217.173143
 20
446.27574
 30
0.0
 11
218.410043
 21
447.512641
 31
0.0
  0
LINE
  8
LC-003-005-----0
  6
CONTINUOUS
  5
A0
 10
220.423143
 20
449.52574
 30
0.0
 11
222.923143
 21
452.02574
 31
0.0
  0
LINE
  8
LC-003-005-----0
  6
CONTINUOUS
  5
A1
 10
220.423143
 20
452.354167
 30
0.0
 11
222.923143
 21
454.854167
 31
0.0
  0
LINE
  8
LC-003-005-----0
  6
CONTINUOUS
  5
A2
 10
218.460459
 20
453.21991
 30
0.0
 11
222.015648
 21
456.775099
 31
0.0
  0
LINE
  8
LC-003-005-----0
  6
CONTINUOUS
  5
A3
 10
217.173143
 20
454.761021
 30
0.0
 11
220.601434
 21
458.189313
 31
0.0
  0
LINE
  8
LC-003-005-----0
  6
CONTINUOUS
  5
A4
 10
217.173143
 20
457.589448
 30
0.0
 11
219.187221
 21
459.603526
 31
0.0
  0
LINE
  8
LC-003-005-----0
  6
CONTINUOUS
  5
A5
 10
214.648271
 20
457.893004
 30
0.0
 11
217.622872
 21
460.867604
 31
0.0
  0
LINE
  8
LC-003-005-----0
  6
CONTINUOUS
  5
A6
 10
213.429209
 20
459.502369
 30
0.0
 11
214.788378
 21
460.861538
 31
0.0
  0
ENDBLK
  8
0
  5
A7
  0
BLOCK
  8
0
  5
A9
  2
*X3
 70
    65
 10
302.423143
 20
347.743302
 30
0.0
  3
*X3
  0
LINE
  8
LC-003-005-----0
  6
CONTINUOUS
  5
AA
 10
311.27309
 20
348.042643
 30
0.0
 11
312.671393
 21
349.440946
 31
0.0
  0
LINE
  8
LC-003-005-----0
  6
CONTINUOUS
  5
AB
 10
308.868633
 20
348.466613
 30
0.0
 11
311.458287
 21
351.056267
 31
0.0
  0
LINE
  8
LC-003-005-----0
  6
CONTINUOUS
  5
AC
 10
306.464177
 20
348.890584
 30
0.0
 11
309.053831
 21
351.480238
 31
0.0
  0
LINE
  8
LC-003-005-----0
  6
CONTINUOUS
  5
AD
 10
304.05972
 20
349.314554
 30
0.0
 11
306.649374
 21
351.904208
 31
0.0
  0
LINE
  8
LC-003-005-----0
  6
CONTINUOUS
  5
AE
 10
302.423143
 20
350.506404
 30
0.0
 11
304.244918
 21
352.328179
 31
0.0
  0
ENDBLK
  8
0
  5
AF
  0
BLOCK
  8
0
  5
B1
  2
*X4
 70
    65
 10
302.423143
 20
347.446377
 30
0.0
  3
*X4
  0
LINE
  8
LC-003-005-----0
  6
CONTINUOUS
  5
B2
 10
316.933701
 20
348.0464
 30
0.0
 11
316.972206
 21
348.084905
 31
0.0
  0
LINE
  8
LC-003-005-----0
  6
CONTINUOUS
  5
B3
 10
313.526973
 20
347.468098
 30
0.0
 11
316.548236
 21
350.489361
 31
0.0
  0
LINE
  8
LC-003-005-----0
  6
CONTINUOUS
  5
B4
 10
313.103002
 20
349.872555
 30
0.0
 11
316.124265
 21
352.893818
 31
0.0
  0
LINE
  8
LC-003-005-----0
  6
CONTINUOUS
  5
B5
 10
312.679031
 20
352.277011
 30
0.0
 11
315.700294
 21
355.298274
 31
0.0
  0
LINE
  8
LC-003-005-----0
  6
CONTINUOUS
  5
B6
 10
312.255061
 20
354.681468
 30
0.0
 11
315.276324
 21
357.702731
 31
0.0
  0
LINE
  8
LC-003-005-----0
  6
CONTINUOUS
  5
B7
 10
311.83109
 20
357.085924
 30
0.0
 11
314.852353
 21
360.107187
 31
0.0
  0
LINE
  8
LC-003-005-----0
  6
CONTINUOUS
  5
B8
 10
311.40712
 20
359.490381
 30
0.0
 11
314.428383
 21
362.511644
 31
0.0
  0
LINE
  8
LC-003-005-----0
  6
CONTINUOUS
  5
B9
 10
310.983149
 20
361.894837
 30
0.0
 11
314.004412
 21
364.9161
 31
0.0
  0
LINE
  8
LC-003-005-----0
  6
CONTINUOUS
  5
BA
 10
310.559179
 20
364.299294
 30
0.0
 11
313.580442
 21
367.320557
 31
0.0
  0
LINE
  8
LC-003-005-----0
  6
CONTINUOUS
  5
BB
 10
310.135208
 20
366.703751
 30
0.0
 11
313.156471
 21
369.725014
 31
0.0
  0
LINE
  8
LC-003-005-----0
  6
CONTINUOUS
  5
BC
 10
309.711238
 20
369.108207
 30
0.0
 11
312.7325
 21
372.12947
 31
0.0
  0
LINE
  8
LC-003-005-----0
  6
CONTINUOUS
  5
BD
 10
309.287267
 20
371.512664
 30
0.0
 11
312.30853
 21
374.533927
 31
0.0
  0
LINE
  8
LC-003-005-----0
  6
CONTINUOUS
  5
BE
 10
308.863296
 20
373.91712
 30
0.0
 11
311.884559
 21
376.938383
 31
0.0
  0
LINE
  8
LC-003-005-----0
  6
CONTINUOUS
  5
BF
 10
308.439326
 20
376.321577
 30
0.0
 11
311.460589
 21
379.34284
 31
0.0
  0
LINE
  8
LC-003-005-----0
  6
CONTINUOUS
  5
C0
 10
308.015355
 20
378.726033
 30
0.0
 11
311.036618
 21
381.747296
 31
0.0
  0
LINE
  8
LC-003-005-----0
  6
CONTINUOUS
  5
C1
 10
307.591385
 20
381.13049
 30
0.0
 11
310.612648
 21
384.151753
 31
0.0
  0
LINE
  8
LC-003-005-----0
  6
CONTINUOUS
  5
C2
 10
307.167414
 20
383.534947
 30
0.0
 11
310.188677
 21
386.556209
 31
0.0
  0
LINE
  8
LC-003-005-----0
  6
CONTINUOUS
  5
C3
 10
306.743444
 20
385.939403
 30
0.0
 11
309.764707
 21
388.960666
 31
0.0
  0
LINE
  8
LC-003-005-----0
  6
CONTINUOUS
  5
C4
 10
306.319473
 20
388.34386
 30
0.0
 11
309.340736
 21
391.365123
 31
0.0
  0
LINE
  8
LC-003-005-----0
  6
CONTINUOUS
  5
C5
 10
305.895502
 20
390.748316
 30
0.0
 11
308.916765
 21
393.769579
 31
0.0
  0
LINE
  8
LC-003-005-----0
  6
CONTINUOUS
  5
C6
 10
305.471532
 20
393.152773
 30
0.0
 11
308.492795
 21
396.174036
 31
0.0
  0
LINE
  8
LC-003-005-----0
  6
CONTINUOUS
  5
C7
 10
305.047561
 20
395.557229
 30
0.0
 11
308.068824
 21
398.578492
 31
0.0
  0
LINE
  8
LC-003-005-----0
  6
CONTINUOUS
  5
C8
 10
304.623591
 20
397.961686
 30
0.0
 11
307.644854
 21
400.982949
 31
0.0
  0
LINE
  8
LC-003-005-----0
  6
CONTINUOUS
  5
C9
 10
304.19962
 20
400.366142
 30
0.0
 11
307.220883
 21
403.387405
 31
0.0
  0
LINE
  8
LC-003-005-----0
  6
CONTINUOUS
  5
CA
 10
303.77565
 20
402.770599
 30
0.0
 11
306.796913
 21
405.791862
 31
0.0
  0
LINE
  8
LC-003-005-----0
  6
CONTINUOUS
  5
CB
 10
303.351679
 20
405.175056
 30
0.0
 11
306.372942
 21
408.196318
 31
0.0
  0
LINE
  8
LC-003-005-----0
  6
CONTINUOUS
  5
CC
 10
302.927708
 20
407.579512
 30
0.0
 11
305.948971
 21
410.600775
 31
0.0
  0
LINE
  8
LC-003-005-----0
  6
CONTINUOUS
  5
CD
 10
302.503738
 20
409.983969
 30
0.0
 11
305.525001
 21
413.005232
 31
0.0
  0
LINE
  8
LC-003-005-----0
  6
CONTINUOUS
  5
CE
 10
302.423143
 20
412.731801
 30
0.0
 11
305.10103
 21
415.409688
 31
0.0
  0
LINE
  8
LC-003-005-----0
  6
CONTINUOUS
  5
CF
 10
302.423143
 20
415.560228
 30
0.0
 11
304.67706
 21
417.814145
 31
0.0
  0
LINE
  8
LC-003-005-----0
  6
CONTINUOUS
  5
D0
 10
302.423143
 20
418.388655
 30
0.0
 11
304.253089
 21
420.218601
 31
0.0
  0
LINE
  8
LC-003-005-----0
  6
CONTINUOUS
  5
D1
 10
302.423143
 20
421.217082
 30
0.0
 11
303.829119
 21
422.623058
 31
0.0
  0
LINE
  8
LC-003-005-----0
  6
CONTINUOUS
  5
D2
 10
302.423143
 20
424.045509
 30
0.0
 11
303.405148
 21
425.027514
 31
0.0
  0
LINE
  8
LC-003-005-----0
  6
CONTINUOUS
  5
D3
 10
302.423143
 20
426.873936
 30
0.0
 11
302.981177
 21
427.431971
 31
0.0
  0
LINE
  8
LC-003-005-----0
  6
CONTINUOUS
  5
D4
 10
302.423143
 20
429.702363
 30
0.0
 11
302.557207
 21
429.836428
 31
0.0
  0
ENDBLK
  8
0
  5
D5
  0
BLOCK
  8
0
  5
D7
  2
*X5
 70
    65
 10
287.545263
 20
410.441046
 30
0.0
  3
*X5
  0
LINE
  8
LC-003-005-----0
  6
CONTINUOUS
  5
D8
 10
302.079767
 20
412.388425
 30
0.0
 11
302.423143
 21
412.731801
 31
0.0
  0
LINE
  8
LC-003-005-----0
  6
CONTINUOUS
  5
D9
 10
301.655797
 20
414.792882
 30
0.0
 11
302.423143
 21
415.560228
 31
0.0
  0
LINE
  8
LC-003-005-----0
  6
CONTINUOUS
  5
DA
 10
301.231826
 20
417.197338
 30
0.0
 11
302.423143
 21
418.388655
 31
0.0
  0
LINE
  8
LC-003-005-----0
  6
CONTINUOUS
  5
DB
 10
300.807856
 20
419.601795
 30
0.0
 11
302.423143
 21
421.217082
 31
0.0
  0
LINE
  8
LC-003-005-----0
  6
CONTINUOUS
  5
DC
 10
300.383885
 20
422.006251
 30
0.0
 11
302.423143
 21
424.045509
 31
0.0
  0
LINE
  8
LC-003-005-----0
  6
CONTINUOUS
  5
DD
 10
299.959915
 20
424.410708
 30
0.0
 11
302.423143
 21
426.873936
 31
0.0
  0
LINE
  8
LC-003-005-----0
  6
CONTINUOUS
  5
DE
 10
299.535944
 20
426.815165
 30
0.0
 11
302.423143
 21
429.702363
 31
0.0
  0
LINE
  8
LC-003-005-----0
  6
CONTINUOUS
  5
DF
 10
299.111973
 20
429.219621
 30
0.0
 11
302.133236
 21
432.240884
 31
0.0
  0
ENDBLK
  8
0
  5
E0
  0
BLOCK
  8
0
  5
E2
  2
*X6
 70
    65
 10
291.773017
 20
423.542918
 30
0.0
  3
*X6
  0
LINE
  8
LC-003-005-----0
  6
CONTINUOUS
  5
E3
 10
298.130176
 20
428.237823
 30
0.0
 11
299.111973
 21
429.219621
 31
0.0
  0
LINE
  8
LC-003-005-----0
  6
CONTINUOUS
  5
E4
 10
295.725719
 20
428.661794
 30
0.0
 11
298.304605
 21
431.24068
 31
0.0
  0
LINE
  8
LC-003-005-----0
  6
CONTINUOUS
  5
E5
 10
293.321263
 20
429.085764
 30
0.0
 11
295.900148
 21
431.66465
 31
0.0
  0
LINE
  8
LC-003-005-----0
  6
CONTINUOUS
  5
E6
 10
291.988629
 20
430.581558
 30
0.0
 11
295.687038
 21
434.279967
 31
0.0
  0
LINE
  8
LC-003-005-----0
  6
CONTINUOUS
  5
E7
 10
301.909043
 20
440.501972
 30
0.0
 11
302.423143
 21
441.016072
 31
0.0
  0
LINE
  8
LC-003-005-----0
  6
CONTINUOUS
  5
E8
 10
292.594122
 20
434.015478
 30
0.0
 11
302.105917
 21
443.527273
 31
0.0
  0
LINE
  8
LC-003-005-----0
  6
CONTINUOUS
  5
E9
 10
293.677385
 20
437.927169
 30
0.0
 11
298.280811
 21
442.530595
 31
0.0
  0
ENDBLK
  8
0
  5
EA
  0
BLOCK
  8
0
  5
EC
  2
*X7
 70
    65
 10
302.423143
 20
440.539845
 30
0.0
  3
*X7
  0
LINE
  8
LC-003-005-----0
  6
CONTINUOUS
  5
ED
 10
385.474121
 20
444.871091
 30
0.0
 11
387.673143
 21
447.070112
 31
0.0
  0
LINE
  8
LC-003-005-----0
  6
CONTINUOUS
  5
EE
 10
382.511713
 20
444.73711
 30
0.0
 11
385.459474
 21
447.684871
 31
0.0
  0
LINE
  8
LC-003-005-----0
  6
CONTINUOUS
  5
EF
 10
379.526856
 20
444.58068
 30
0.0
 11
384.423143
 21
449.476967
 31
0.0
  0
LINE
  8
LC-003-005-----0
  6
CONTINUOUS
  5
F0
 10
376.541999
 20
444.42425
 30
0.0
 11
379.712263
 21
447.594514
 31
0.0
  0
LINE
  8
LC-003-005-----0
  6
CONTINUOUS
  5
F1
 10
381.923143
 20
449.805394
 30
0.0
 11
384.423143
 21
452.305394
 31
0.0
  0
LINE
  8
LC-003-005-----0
  6
CONTINUOUS
  5
F2
 10
385.105708
 20
452.987959
 30
0.0
 11
387.673143
 21
455.555394
 31
0.0
  0
LINE
  8
LC-003-005-----0
  6
CONTINUOUS
  5
F3
 10
389.9867
 20
457.868951
 30
0.0
 11
391.421796
 21
459.304047
 31
0.0
  0
LINE
  8
LC-003-005-----0
  6
CONTINUOUS
  5
F4
 10
373.557142
 20
444.26782
 30
0.0
 11
376.727406
 21
447.438084
 31
0.0
  0
LINE
  8
LC-003-005-----0
  6
CONTINUOUS
  5
F5
 10
381.923143
 20
452.633821
 30
0.0
 11
390.141019
 21
460.851697
 31
0.0
  0
LINE
  8
LC-003-005-----0
  6
CONTINUOUS
  5
F6
 10
370.572285
 20
444.111391
 30
0.0
 11
373.742549
 21
447.281654
 31
0.0
  0
LINE
  8
LC-003-005-----0
  6
CONTINUOUS
  5
F7
 10
381.923143
 20
455.462248
 30
0.0
 11
387.328499
 21
460.867604
 31
0.0
  0
LINE
  8
LC-003-005-----0
  6
CONTINUOUS
  5
F8
 10
367.587429
 20
443.954961
 30
0.0
 11
370.757692
 21
447.125225
 31
0.0
  0
LINE
  8
LC-003-005-----0
  6
CONTINUOUS
  5
F9
 10
364.602572
 20
443.798531
 30
0.0
 11
367.772835
 21
446.968795
 31
0.0
  0
LINE
  8
LC-003-005-----0
  6
CONTINUOUS
  5
FA
 10
361.617715
 20
443.642102
 30
0.0
 11
364.787978
 21
446.812365
 31
0.0
  0
LINE
  8
LC-003-005-----0
  6
CONTINUOUS
  5
FB
 10
358.632858
 20
443.485672
 30
0.0
 11
361.803122
 21
446.655935
 31
0.0
  0
LINE
  8
LC-003-005-----0
  6
CONTINUOUS
  5
FC
 10
355.648001
 20
443.329242
 30
0.0
 11
358.818265
 21
446.499506
 31
0.0
  0
LINE
  8
LC-003-005-----0
  6
CONTINUOUS
  5
FD
 10
352.663144
 20
443.172812
 30
0.0
 11
355.833408
 21
446.343076
 31
0.0
  0
LINE
  8
LC-003-005-----0
  6
CONTINUOUS
  5
FE
 10
349.678288
 20
443.016383
 30
0.0
 11
352.848551
 21
446.186646
 31
0.0
  0
LINE
  8
LC-003-005-----0
  6
CONTINUOUS
  5
FF
 10
346.693431
 20
442.859953
 30
0.0
 11
349.863694
 21
446.030216
 31
0.0
  0
LINE
  8
LC-003-005-----0
  6
CONTINUOUS
  5
100
 10
343.708574
 20
442.703523
 30
0.0
 11
346.878837
 21
445.873787
 31
0.0
  0
LINE
  8
LC-003-005-----0
  6
CONTINUOUS
  5
101
 10
340.723717
 20
442.547094
 30
0.0
 11
343.893981
 21
445.717357
 31
0.0
  0
LINE
  8
LC-003-005-----0
  6
CONTINUOUS
  5
102
 10
337.73886
 20
442.390664
 30
0.0
 11
340.909124
 21
445.560927
 31
0.0
  0
LINE
  8
LC-003-005-----0
  6
CONTINUOUS
  5
103
 10
334.754003
 20
442.234234
 30
0.0
 11
337.924267
 21
445.404498
 31
0.0
  0
LINE
  8
LC-003-005-----0
  6
CONTINUOUS
  5
104
 10
331.769147
 20
442.077804
 30
0.0
 11
334.93941
 21
445.248068
 31
0.0
  0
LINE
  8
LC-003-005-----0
  6
CONTINUOUS
  5
105
 10
328.78429
 20
441.921375
 30
0.0
 11
331.954553
 21
445.091638
 31
0.0
  0
LINE
  8
LC-003-005-----0
  6
CONTINUOUS
  5
106
 10
325.799433
 20
441.764945
 30
0.0
 11
328.969696
 21
444.935208
 31
0.0
  0
LINE
  8
LC-003-005-----0
  6
CONTINUOUS
  5
107
 10
322.814576
 20
441.608515
 30
0.0
 11
325.984839
 21
444.778779
 31
0.0
  0
LINE
  8
LC-003-005-----0
  6
CONTINUOUS
  5
108
 10
319.829719
 20
441.452086
 30
0.0
 11
322.999983
 21
444.622349
 31
0.0
  0
LINE
  8
LC-003-005-----0
  6
CONTINUOUS
  5
109
 10
316.844862
 20
441.295656
 30
0.0
 11
320.015126
 21
444.465919
 31
0.0
  0
LINE
  8
LC-003-005-----0
  6
CONTINUOUS
  5
10A
 10
313.860005
 20
441.139226
 30
0.0
 11
317.030269
 21
444.30949
 31
0.0
  0
LINE
  8
LC-003-005-----0
  6
CONTINUOUS
  5
10B
 10
310.875149
 20
440.982796
 30
0.0
 11
314.045412
 21
444.15306
 31
0.0
  0
LINE
  8
LC-003-005-----0
  6
CONTINUOUS
  5
10C
 10
307.890292
 20
440.826367
 30
0.0
 11
311.060555
 21
443.99663
 31
0.0
  0
LINE
  8
LC-003-005-----0
  6
CONTINUOUS
  5
10D
 10
304.905435
 20
440.669937
 30
0.0
 11
308.075698
 21
443.8402
 31
0.0
  0
LINE
  8
LC-003-005-----0
  6
CONTINUOUS
  5
10E
 10
302.423143
 20
441.016072
 30
0.0
 11
305.090842
 21
443.683771
 31
0.0
  0
ENDBLK
  8
0
  5
10F
  0
BLOCK
  8
0
  5
111
  2
*X8
 70
    65
 10
287.545263
 20
431.544911
 30
0.0
  3
*X8
  0
LINE
  8
LC-003-005-----0
  6
CONTINUOUS
  5
112
 10
298.688003
 20
431.624078
 30
0.0
 11
301.709266
 21
434.645341
 31
0.0
  0
LINE
  8
LC-003-005-----0
  6
CONTINUOUS
  5
113
 10
298.264032
 20
434.028534
 30
0.0
 11
298.706263
 21
434.470765
 31
0.0
  0
ENDBLK
  8
0
  5
114
  0
BLOCK
  8
0
  5
116
  2
*X9
 70
    65
 10
205.423143
 20
498.942854
 30
0.0
  3
*X9
  0
LINE
  8
LC-003-005-----0
  6
CONTINUOUS
  5
117
 10
230.242277
 20
498.942854
 30
0.0
 11
230.290688
 21
498.991265
 31
0.0
  0
LINE
  8
LC-003-005-----0
  6
CONTINUOUS
  5
118
 10
227.767436
 20
499.29644
 30
0.0
 11
230.128135
 21
501.657138
 31
0.0
  0
LINE
  8
LC-003-005-----0
  6
CONTINUOUS
  5
119
 10
227.604883
 20
501.962314
 30
0.0
 11
229.965581
 21
504.323012
 31
0.0
  0
LINE
  8
LC-003-005-----0
  6
CONTINUOUS
  5
11A
 10
227.44233
 20
504.628188
 30
0.0
 11
229.803028
 21
506.988886
 31
0.0
  0
LINE
  8
LC-003-005-----0
  6
CONTINUOUS
  5
11B
 10
225.129257
 20
505.143543
 30
0.0
 11
227.436913
 21
507.451199
 31
0.0
  0
LINE
  8
LC-003-005-----0
  6
CONTINUOUS
  5
11C
 10
222.528378
 20
505.37109
 30
0.0
 11
224.836034
 21
507.678746
 31
0.0
  0
LINE
  8
LC-003-005-----0
  6
CONTINUOUS
  5
11D
 10
219.927498
 20
505.598638
 30
0.0
 11
222.235154
 21
507.906294
 31
0.0
  0
LINE
  8
LC-003-005-----0
  6
CONTINUOUS
  5
11E
 10
217.326618
 20
505.826185
 30
0.0
 11
219.634274
 21
508.133841
 31
0.0
  0
LINE
  8
LC-003-005-----0
  6
CONTINUOUS
  5
11F
 10
214.725739
 20
506.053733
 30
0.0
 11
217.033395
 21
508.361389
 31
0.0
  0
LINE
  8
LC-003-005-----0
  6
CONTINUOUS
  5
120
 10
212.124859
 20
506.28128
 30
0.0
 11
214.432515
 21
508.588936
 31
0.0
  0
LINE
  8
LC-003-005-----0
  6
CONTINUOUS
  5
121
 10
209.52398
 20
506.508828
 30
0.0
 11
211.831635
 21
508.816483
 31
0.0
  0
LINE
  8
LC-003-005-----0
  6
CONTINUOUS
  5
122
 10
206.9231
 20
506.736375
 30
0.0
 11
209.230756
 21
509.044031
 31
0.0
  0
LINE
  8
LC-003-005-----0
  6
CONTINUOUS
  5
123
 10
205.423143
 20
508.064845
 30
0.0
 11
206.629876
 21
509.271578
 31
0.0
  0
ENDBLK
  8
0
  5
124
  0
BLOCK
  8
0
  5
126
  2
*X10
 70
    65
 10
229.67924
 20
451.268428
 30
0.0
  3
*X10
  0
LINE
  8
LC-003-005-----0
  6
CONTINUOUS
  5
127
 10
284.494536
 20
451.371737
 30
0.0
 11
285.423143
 21
452.300343
 31
0.0
  0
LINE
  8
LC-003-005-----0
  6
CONTINUOUS
  5
128
 10
281.949273
 20
451.654901
 30
0.0
 11
284.203789
 21
453.909416
 31
0.0
  0
LINE
  8
LC-003-005-----0
  6
CONTINUOUS
  5
129
 10
279.40401
 20
451.938065
 30
0.0
 11
281.659196
 21
454.193251
 31
0.0
  0
LINE
  8
LC-003-005-----0
  6
CONTINUOUS
  5
12A
 10
276.858747
 20
452.221229
 30
0.0
 11
279.114603
 21
454.477085
 31
0.0
  0
LINE
  8
LC-003-005-----0
  6
CONTINUOUS
  5
12B
 10
274.313484
 20
452.504393
 30
0.0
 11
276.570011
 21
454.76092
 31
0.0
  0
LINE
  8
LC-003-005-----0
  6
CONTINUOUS
  5
12C
 10
271.768222
 20
452.787557
 30
0.0
 11
274.025418
 21
455.044754
 31
0.0
  0
LINE
  8
LC-003-005-----0
  6
CONTINUOUS
  5
12D
 10
269.222959
 20
453.070722
 30
0.0
 11
271.480825
 21
455.328588
 31
0.0
  0
LINE
  8
LC-003-005-----0
  6
CONTINUOUS
  5
12E
 10
266.677696
 20
453.353886
 30
0.0
 11
268.936233
 21
455.612423
 31
0.0
  0
LINE
  8
LC-003-005-----0
  6
CONTINUOUS
  5
12F
 10
264.132433
 20
453.63705
 30
0.0
 11
266.39164
 21
455.896257
 31
0.0
  0
LINE
  8
LC-003-005-----0
  6
CONTINUOUS
  5
130
 10
261.58717
 20
453.920214
 30
0.0
 11
263.847047
 21
456.180092
 31
0.0
  0
LINE
  8
LC-003-005-----0
  6
CONTINUOUS
  5
131
 10
259.041907
 20
454.203378
 30
0.0
 11
261.302455
 21
456.463926
 31
0.0
  0
LINE
  8
LC-003-005-----0
  6
CONTINUOUS
  5
132
 10
256.496644
 20
454.486542
 30
0.0
 11
258.757862
 21
456.747761
 31
0.0
  0
LINE
  8
LC-003-005-----0
  6
CONTINUOUS
  5
133
 10
253.951381
 20
454.769706
 30
0.0
 11
256.213269
 21
457.031595
 31
0.0
  0
LINE
  8
LC-003-005-----0
  6
CONTINUOUS
  5
134
 10
251.406118
 20
455.05287
 30
0.0
 11
253.668677
 21
457.315429
 31
0.0
  0
LINE
  8
LC-003-005-----0
  6
CONTINUOUS
  5
135
 10
248.860855
 20
455.336035
 30
0.0
 11
251.124084
 21
457.599264
 31
0.0
  0
LINE
  8
LC-003-005-----0
  6
CONTINUOUS
  5
136
 10
246.315592
 20
455.619199
 30
0.0
 11
248.579491
 21
457.883098
 31
0.0
  0
LINE
  8
LC-003-005-----0
  6
CONTINUOUS
  5
137
 10
243.770329
 20
455.902363
 30
0.0
 11
246.034898
 21
458.166933
 31
0.0
  0
LINE
  8
LC-003-005-----0
  6
CONTINUOUS
  5
138
 10
241.225066
 20
456.185527
 30
0.0
 11
243.490306
 21
458.450767
 31
0.0
  0
LINE
  8
LC-003-005-----0
  6
CONTINUOUS
  5
139
 10
238.689627
 20
456.478515
 30
0.0
 11
240.945713
 21
458.734602
 31
0.0
  0
LINE
  8
LC-003-005-----0
  6
CONTINUOUS
  5
13A
 10
236.555896
 20
457.173212
 30
0.0
 11
238.479615
 21
459.096931
 31
0.0
  0
LINE
  8
LC-003-005-----0
  6
CONTINUOUS
  5
13B
 10
234.877863
 20
458.323606
 30
0.0
 11
236.661382
 21
460.107125
 31
0.0
  0
LINE
  8
LC-003-005-----0
  6
CONTINUOUS
  5
13C
 10
233.585363
 20
459.859533
 30
0.0
 11
235.438503
 21
461.712673
 31
0.0
  0
LINE
  8
LC-003-005-----0
  6
CONTINUOUS
  5
13D
 10
232.708651
 20
461.811249
 30
0.0
 11
234.927132
 21
464.029729
 31
0.0
  0
LINE
  8
LC-003-005-----0
  6
CONTINUOUS
  5
13E
 10
232.219808
 20
464.150832
 30
0.0
 11
234.097857
 21
466.028881
 31
0.0
  0
LINE
  8
LC-003-005-----0
  6
CONTINUOUS
  5
13F
 10
230.805594
 20
465.565046
 30
0.0
 11
232.683643
 21
467.443094
 31
0.0
  0
LINE
  8
LC-003-005-----0
  6
CONTINUOUS
  5
140
 10
229.718076
 20
467.305954
 30
0.0
 11
230.354975
 21
467.942854
 31
0.0
  0
ENDBLK
  8
0
  5
141
  0
BLOCK
  8
0
  5
143
  2
*X11
 70
    65
 10
289.423143
 20
449.377154
 30
0.0
  3
*X11
  0
LINE
  8
LC-003-005-----0
  6
CONTINUOUS
  5
144
 10
302.311377
 20
449.389588
 30
0.0
 11
302.423143
 21
449.501353
 31
0.0
  0
LINE
  8
LC-003-005-----0
  6
CONTINUOUS
  5
145
 10
299.766114
 20
449.672752
 30
0.0
 11
302.015938
 21
451.922575
 31
0.0
  0
LINE
  8
LC-003-005-----0
  6
CONTINUOUS
  5
146
 10
297.220851
 20
449.955916
 30
0.0
 11
299.471345
 21
452.20641
 31
0.0
  0
LINE
  8
LC-003-005-----0
  6
CONTINUOUS
  5
147
 10
294.675588
 20
450.23908
 30
0.0
 11
296.926752
 21
452.490244
 31
0.0
  0
LINE
  8
LC-003-005-----0
  6
CONTINUOUS
  5
148
 10
292.130325
 20
450.522244
 30
0.0
 11
294.38216
 21
452.774079
 31
0.0
  0
LINE
  8
LC-003-005-----0
  6
CONTINUOUS
  5
149
 10
289.585062
 20
450.805409
 30
0.0
 11
291.837567
 21
453.057913
 31
0.0
  0
ENDBLK
  8
0
  5
14A
  0
BLOCK
  8
0
  5
14C
  2
*X12
 70
    65
 10
374.552646
 20
498.942854
 30
0.0
  3
*X12
  0
LINE
  8
LC-003-005-----0
  6
CONTINUOUS
  5
14D
 10
399.383944
 20
506.864175
 30
0.0
 11
399.423143
 21
506.903374
 31
0.0
  0
LINE
  8
LC-003-005-----0
  6
CONTINUOUS
  5
14E
 10
396.284336
 20
506.592994
 30
0.0
 11
399.034494
 21
509.343152
 31
0.0
  0
LINE
  8
LC-003-005-----0
  6
CONTINUOUS
  5
14F
 10
393.184729
 20
506.321814
 30
0.0
 11
395.934886
 21
509.071971
 31
0.0
  0
LINE
  8
LC-003-005-----0
  6
CONTINUOUS
  5
150
 10
390.085121
 20
506.050633
 30
0.0
 11
392.835278
 21
508.80079
 31
0.0
  0
LINE
  8
LC-003-005-----0
  6
CONTINUOUS
  5
151
 10
386.985514
 20
505.779453
 30
0.0
 11
389.735671
 21
508.52961
 31
0.0
  0
LINE
  8
LC-003-005-----0
  6
CONTINUOUS
  5
152
 10
383.885906
 20
505.508272
 30
0.0
 11
386.636063
 21
508.258429
 31
0.0
  0
LINE
  8
LC-003-005-----0
  6
CONTINUOUS
  5
153
 10
374.55658
 20
499.007374
 30
0.0
 11
377.223862
 21
501.674656
 31
0.0
  0
LINE
  8
LC-003-005-----0
  6
CONTINUOUS
  5
154
 10
380.786298
 20
505.237092
 30
0.0
 11
383.536455
 21
507.987249
 31
0.0
  0
LINE
  8
LC-003-005-----0
  6
CONTINUOUS
  5
155
 10
374.740244
 20
502.019465
 30
0.0
 11
377.407527
 21
504.686747
 31
0.0
  0
LINE
  8
LC-003-005-----0
  6
CONTINUOUS
  5
156
 10
377.686691
 20
504.965911
 30
0.0
 11
380.436848
 21
507.716068
 31
0.0
  0
LINE
  8
LC-003-005-----0
  6
CONTINUOUS
  5
157
 10
374.923908
 20
505.031556
 30
0.0
 11
377.33724
 21
507.444888
 31
0.0
  0
ENDBLK
  8
0
  5
158
  0
BLOCK
  8
0
  5
15A
  2
*X13
 70
    65
 10
319.423143
 20
451.268428
 30
0.0
  3
*X13
  0
LINE
  8
LC-003-005-----0
  6
CONTINUOUS
  5
15B
 10
365.935494
 20
456.445162
 30
0.0
 11
372.35977
 21
462.869438
 31
0.0
  0
LINE
  8
LC-003-005-----0
  6
CONTINUOUS
  5
15C
 10
362.750571
 20
456.088666
 30
0.0
 11
365.586306
 21
458.924401
 31
0.0
  0
LINE
  8
LC-003-005-----0
  6
CONTINUOUS
  5
15D
 10
369.853316
 20
463.191411
 30
0.0
 11
374.604759
 21
467.942854
 31
0.0
  0
LINE
  8
LC-003-005-----0
  6
CONTINUOUS
  5
15E
 10
359.568088
 20
455.73461
 30
0.0
 11
362.400787
 21
458.567309
 31
0.0
  0
LINE
  8
LC-003-005-----0
  6
CONTINUOUS
  5
15F
 10
356.385605
 20
455.380555
 30
0.0
 11
359.217256
 21
458.212205
 31
0.0
  0
LINE
  8
LC-003-005-----0
  6
CONTINUOUS
  5
160
 10
353.203122
 20
455.026499
 30
0.0
 11
356.033724
 21
457.857101
 31
0.0
  0
LINE
  8
LC-003-005-----0
  6
CONTINUOUS
  5
161
 10
350.020639
 20
454.672443
 30
0.0
 11
352.850193
 21
457.501996
 31
0.0
  0
LINE
  8
LC-003-005-----0
  6
CONTINUOUS
  5
162
 10
346.838157
 20
454.318387
 30
0.0
 11
349.666661
 21
457.146892
 31
0.0
  0
LINE
  8
LC-003-005-----0
  6
CONTINUOUS
  5
163
 10
343.655674
 20
453.964332
 30
0.0
 11
346.48313
 21
456.791788
 31
0.0
  0
LINE
  8
LC-003-005-----0
  6
CONTINUOUS
  5
164
 10
340.473191
 20
453.610276
 30
0.0
 11
343.299598
 21
456.436683
 31
0.0
  0
LINE
  8
LC-003-005-----0
  6
CONTINUOUS
  5
165
 10
337.290708
 20
453.25622
 30
0.0
 11
340.116067
 21
456.081579
 31
0.0
  0
LINE
  8
LC-003-005-----0
  6
CONTINUOUS
  5
166
 10
334.108225
 20
452.902164
 30
0.0
 11
336.932536
 21
455.726475
 31
0.0
  0
LINE
  8
LC-003-005-----0
  6
CONTINUOUS
  5
167
 10
330.925742
 20
452.548109
 30
0.0
 11
333.749004
 21
455.371371
 31
0.0
  0
LINE
  8
LC-003-005-----0
  6
CONTINUOUS
  5
168
 10
327.743259
 20
452.194053
 30
0.0
 11
330.565473
 21
455.016266
 31
0.0
  0
LINE
  8
LC-003-005-----0
  6
CONTINUOUS
  5
169
 10
324.560777
 20
451.839997
 30
0.0
 11
327.381941
 21
454.661162
 31
0.0
  0
LINE
  8
LC-003-005-----0
  6
CONTINUOUS
  5
16A
 10
321.378294
 20
451.485941
 30
0.0
 11
324.19841
 21
454.306058
 31
0.0
  0
LINE
  8
LC-003-005-----0
  6
CONTINUOUS
  5
16B
 10
319.423143
 20
452.359218
 30
0.0
 11
321.014878
 21
453.950953
 31
0.0
  0
ENDBLK
  8
0
  5
16C
  0
BLOCK
  8
0
  5
16E
  2
*X14
 70
    65
 10
302.423143
 20
449.377154
 30
0.0
  3
*X14
  0
LINE
  8
LC-003-005-----0
  6
CONTINUOUS
  5
16F
 10
315.013328
 20
450.77783
 30
0.0
 11
315.423143
 21
451.187645
 31
0.0
  0
LINE
  8
LC-003-005-----0
  6
CONTINUOUS
  5
170
 10
311.830845
 20
450.423774
 30
0.0
 11
314.647816
 21
453.240745
 31
0.0
  0
LINE
  8
LC-003-005-----0
  6
CONTINUOUS
  5
171
 10
308.648362
 20
450.069718
 30
0.0
 11
311.464284
 21
452.88564
 31
0.0
  0
LINE
  8
LC-003-005-----0
  6
CONTINUOUS
  5
172
 10
305.465879
 20
449.715663
 30
0.0
 11
308.280753
 21
452.530536
 31
0.0
  0
LINE
  8
LC-003-005-----0
  6
CONTINUOUS
  5
173
 10
302.423143
 20
449.501353
 30
0.0
 11
305.097221
 21
452.175432
 31
0.0
  0
ENDBLK
  8
0
  5
174
  0
BLOCK
  8
0
  5
176
  2
*D15
 70
    65
 10
0.0
 20
0.0
 30
0.0
  3
*D15
  0
LINE
  8
LC-005-003-MTH-0
  6
CONTINUOUS
  5
178
 10
219.302453
 20
329.367604
 30
0.0
 11
219.302453
 21
149.2
 31
0.0
  0
LINE
  8
LC-005-003-MTH-0
  6
CONTINUOUS
  5
179
 10
385.543832
 20
329.367604
 30
0.0
 11
385.543832
 21
149.2
 31
0.0
  0
LINE
  8
LC-006-003-MTG-0
  6
CONTINUOUS
  5
17B
 10
219.302453
 20
160.0
 30
0.0
 11
385.543832
 21
160.0
 31
0.0
  0
LINE
  8
LC-004-003-----0
  6
CONTINUOUS
  5
17D
 10
237.148461
 20
162.349471
 30
0.0
 11
219.302453
 21
160.0
 31
0.0
  0
LINE
  8
LC-004-003-----0
  6
CONTINUOUS
  5
17E
 10
219.302453
 20
160.0
 30
0.0
 11
237.148461
 21
157.650529
 31
0.0
  0
LINE
  8
LC-004-003-----0
  6
CONTINUOUS
  5
17F
 10
237.148461
 20
157.650529
 30
0.0
 11
237.148461
 21
162.349471
 31
0.0
  0
LINE
  8
LC-004-003-----0
  6
CONTINUOUS
  5
180
 10
237.188499
 20
161.738609
 30
0.0
 11
223.982453
 21
160.0
 31
0.0
  0
LINE
  8
LC-004-003-----0
  6
CONTINUOUS
  5
181
 10
223.982453
 20
160.0
 30
0.0
 11
237.188499
 21
158.261391
 31
0.0
  0
LINE
  8
LC-004-003-----0
  6
CONTINUOUS
  5
182
 10
237.228537
 20
161.127746
 30
0.0
 11
228.662453
 21
160.0
 31
0.0
  0
LINE
  8
LC-004-003-----0
  6
CONTINUOUS
  5
183
 10
228.662453
 20
160.0
 30
0.0
 11
237.228537
 21
158.872254
 31
0.0
  0
LINE
  8
LC-004-003-----0
  6
CONTINUOUS
  5
184
 10
237.268575
 20
160.516884
 30
0.0
 11
233.342453
 21
160.0
 31
0.0
  0
LINE
  8
LC-004-003-----0
  6
CONTINUOUS
  5
185
 10
233.342453
 20
160.0
 30
0.0
 11
237.268575
 21
159.483116
 31
0.0
  0
LINE
  8
LC-004-003-----0
  6
CONTINUOUS
  5
186
 10
367.697825
 20
157.650529
 30
0.0
 11
385.543832
 21
160.0
 31
0.0
  0
LINE
  8
LC-004-003-----0
  6
CONTINUOUS
  5
187
 10
385.543832
 20
160.0
 30
0.0
 11
367.697825
 21
162.349471
 31
0.0
  0
LINE
  8
LC-004-003-----0
  6
CONTINUOUS
  5
188
 10
367.697825
 20
162.349471
 30
0.0
 11
367.697825
 21
157.650529
 31
0.0
  0
LINE
  8
LC-004-003-----0
  6
CONTINUOUS
  5
189
 10
367.657787
 20
158.261391
 30
0.0
 11
380.863832
 21
160.0
 31
0.0
  0
LINE
  8
LC-004-003-----0
  6
CONTINUOUS
  5
18A
 10
380.863832
 20
160.0
 30
0.0
 11
367.657787
 21
161.738609
 31
0.0
  0
LINE
  8
LC-004-003-----0
  6
CONTINUOUS
  5
18B
 10
367.617749
 20
158.872254
 30
0.0
 11
376.183832
 21
160.0
 31
0.0
  0
LINE
  8
LC-004-003-----0
  6
CONTINUOUS
  5
18C
 10
376.183832
 20
160.0
 30
0.0
 11
367.617749
 21
161.127746
 31
0.0
  0
LINE
  8
LC-004-003-----0
  6
CONTINUOUS
  5
18D
 10
367.577711
 20
159.483116
 30
0.0
 11
371.503832
 21
160.0
 31
0.0
  0
LINE
  8
LC-004-003-----0
  6
CONTINUOUS
  5
18E
 10
371.503832
 20
160.0
 30
0.0
 11
367.577711
 21
160.516884
 31
0.0
  0
TEXT
  8
LC-004-003-----0
  6
CONTINUOUS
 62
     6
  5
190
 10
272.161952
 20
170.431999
 30
0.0
 40
18.0
  1
Ø166
 41
0.9
 51
15.0
  7
LC-TXTSTYLE-150-400-0-0-D0
 72
     1
 11
296.653291
 21
170.431999
 31
0.0
  0
ENDBLK
  8
0
  5
191
  0
BLOCK
  8
0
  5
193
  2
*D16
 70
    65
 10
0.0
 20
0.0
 30
0.0
  3
*D16
  0
LINE
  8
LC-005-003-MTH-0
  6
CONTINUOUS
  5
194
 10
415.423143
 20
511.367604
 30
0.0
 11
490.8
 21
511.367604
 31
0.0
  0
LINE
  8
LC-005-003-MTH-0
  6
CONTINUOUS
  5
195
 10
424.423143
 20
535.367604
 30
0.0
 11
490.8
 21
535.367604
 31
0.0
  0
LINE
  8
LC-004-003-----0
  6
CONTINUOUS
  5
196
 10
482.349471
 20
493.521597
 30
0.0
 11
480.0
 21
511.367604
 31
0.0
  0
LINE
  8
LC-004-003-----0
  6
CONTINUOUS
  5
197
 10
480.0
 20
511.367604
 30
0.0
 11
477.650529
 21
493.521597
 31
0.0
  0
LINE
  8
LC-004-003-----0
  6
CONTINUOUS
  5
198
 10
477.650529
 20
493.521597
 30
0.0
 11
482.349471
 21
493.521597
 31
0.0
  0
LINE
  8
LC-004-003-----0
  6
CONTINUOUS
  5
199
 10
481.738609
 20
493.481559
 30
0.0
 11
480.0
 21
506.687604
 31
0.0
  0
LINE
  8
LC-004-003-----0
  6
CONTINUOUS
  5
19A
 10
480.0
 20
506.687604
 30
0.0
 11
478.261391
 21
493.481559
 31
0.0
  0
LINE
  8
LC-004-003-----0
  6
CONTINUOUS
  5
19B
 10
481.127746
 20
493.441521
 30
0.0
 11
480.0
 21
502.007604
 31
0.0
  0
LINE
  8
LC-004-003-----0
  6
CONTINUOUS
  5
19C
 10
480.0
 20
502.007604
 30
0.0
 11
478.872254
 21
493.441521
 31
0.0
  0
LINE
  8
LC-004-003-----0
  6
CONTINUOUS
  5
19D
 10
480.516884
 20
493.401483
 30
0.0
 11
480.0
 21
497.327604
 31
0.0
  0
LINE
  8
LC-004-003-----0
  6
CONTINUOUS
  5
19E
 10
480.0
 20
497.327604
 30
0.0
 11
479.483116
 21
493.401483
 31
0.0
  0
LINE
  8
LC-004-003-----0
  6
CONTINUOUS
  5
19F
 10
477.650529
 20
553.213612
 30
0.0
 11
480.0
 21
535.367604
 31
0.0
  0
LINE
  8
LC-004-003-----0
  6
CONTINUOUS
  5
1A0
 10
480.0
 20
535.367604
 30
0.0
 11
482.349471
 21
553.213612
 31
0.0
  0
LINE
  8
LC-004-003-----0
  6
CONTINUOUS
  5
1A1
 10
482.349471
 20
553.213612
 30
0.0
 11
477.650529
 21
553.213612
 31
0.0
  0
LINE
  8
LC-004-003-----0
  6
CONTINUOUS
  5
1A2
 10
478.261391
 20
553.25365
 30
0.0
 11
480.0
 21
540.047604
 31
0.0
  0
LINE
  8
LC-004-003-----0
  6
CONTINUOUS
  5
1A3
 10
480.0
 20
540.047604
 30
0.0
 11
481.738609
 21
553.25365
 31
0.0
  0
LINE
  8
LC-004-003-----0
  6
CONTINUOUS
  5
1A4
 10
478.872254
 20
553.293688
 30
0.0
 11
480.0
 21
544.727604
 31
0.0
  0
LINE
  8
LC-004-003-----0
  6
CONTINUOUS
  5
1A5
 10
480.0
 20
544.727604
 30
0.0
 11
481.127746
 21
553.293688
 31
0.0
  0
LINE
  8
LC-004-003-----0
  6
CONTINUOUS
  5
1A6
 10
479.483116
 20
553.333726
 30
0.0
 11
480.0
 21
549.407604
 31
0.0
  0
LINE
  8
LC-004-003-----0
  6
CONTINUOUS
  5
1A7
 10
480.0
 20
549.407604
 30
0.0
 11
480.516884
 21
553.333726
 31
0.0
  0
LINE
  8
LC-006-003-MTG-0
  6
CONTINUOUS
  5
1A8
 10
480.0
 20
486.167604
 30
0.0
 11
480.0
 21
593.370124
 31
0.0
  0
TEXT
  8
LC-004-003-----0
  6
CONTINUOUS
 62
     6
  5
1A9
 10
469.568001
 20
562.64285
 30
0.0
 40
18.0
  1
24
 50
90.0
 51
15.0
  7
LC-TXTSTYLE-150-400-0-0-D0
  0
ENDBLK
  8
0
  5
1AA
  0
BLOCK
  8
0
  5
1AC
  2
*D17
 70
    65
 10
0.0
 20
0.0
 30
0.0
  3
*D17
  0
LINE
  8
LC-005-003-MTH-0
  6
CONTINUOUS
  5
1AD
 10
383.113742
 20
323.367604
 30
0.0
 11
514.8
 21
323.367604
 31
0.0
  0
LINE
  8
LC-005-003-MTH-0
  6
CONTINUOUS
  5
1AE
 10
424.423143
 20
535.367604
 30
0.0
 11
514.8
 21
535.367604
 31
0.0
  0
LINE
  8
LC-006-003-MTG-0
  6
CONTINUOUS
  5
1AF
 10
504.0
 20
323.367604
 30
0.0
 11
504.0
 21
535.367604
 31
0.0
  0
LINE
  8
LC-004-003-----0
  6
CONTINUOUS
  5
1B0
 10
501.650529
 20
341.213612
 30
0.0
 11
504.0
 21
323.367604
 31
0.0
  0
LINE
  8
LC-004-003-----0
  6
CONTINUOUS
  5
1B1
 10
504.0
 20
323.367604
 30
0.0
 11
506.349471
 21
341.213612
 31
0.0
  0
LINE
  8
LC-004-003-----0
  6
CONTINUOUS
  5
1B2
 10
506.349471
 20
341.213612
 30
0.0
 11
501.650529
 21
341.213612
 31
0.0
  0
LINE
  8
LC-004-003-----0
  6
CONTINUOUS
  5
1B3
 10
502.261391
 20
341.25365
 30
0.0
 11
504.0
 21
328.047604
 31
0.0
  0
LINE
  8
LC-004-003-----0
  6
CONTINUOUS
  5
1B4
 10
504.0
 20
328.047604
 30
0.0
 11
505.738609
 21
341.25365
 31
0.0
  0
LINE
  8
LC-004-003-----0
  6
CONTINUOUS
  5
1B5
 10
502.872254
 20
341.293688
 30
0.0
 11
504.0
 21
332.727604
 31
0.0
  0
LINE
  8
LC-004-003-----0
  6
CONTINUOUS
  5
1B6
 10
504.0
 20
332.727604
 30
0.0
 11
505.127746
 21
341.293688
 31
0.0
  0
LINE
  8
LC-004-003-----0
  6
CONTINUOUS
  5
1B7
 10
503.483116
 20
341.333726
 30
0.0
 11
504.0
 21
337.407604
 31
0.0
  0
LINE
  8
LC-004-003-----0
  6
CONTINUOUS
  5
1B8
 10
504.0
 20
337.407604
 30
0.0
 11
504.516884
 21
341.333726
 31
0.0
  0
LINE
  8
LC-004-003-----0
  6
CONTINUOUS
  5
1B9
 10
506.349471
 20
517.521597
 30
0.0
 11
504.0
 21
535.367604
 31
0.0
  0
LINE
  8
LC-004-003-----0
  6
CONTINUOUS
  5
1BA
 10
504.0
 20
535.367604
 30
0.0
 11
501.650529
 21
517.521597
 31
0.0
  0
LINE
  8
LC-004-003-----0
  6
CONTINUOUS
  5
1BB
 10
501.650529
 20
517.521597
 30
0.0
 11
506.349471
 21
517.521597
 31
0.0
  0
LINE
  8
LC-004-003-----0
  6
CONTINUOUS
  5
1BC
 10
505.738609
 20
517.481559
 30
0.0
 11
504.0
 21
530.687604
 31
0.0
  0
LINE
  8
LC-004-003-----0
  6
CONTINUOUS
  5
1BD
 10
504.0
 20
530.687604
 30
0.0
 11
502.261391
 21
517.481559
 31
0.0
  0
LINE
  8
LC-004-003-----0
  6
CONTINUOUS
  5
1BE
 10
505.127746
 20
517.441521
 30
0.0
 11
504.0
 21
526.007604
 31
0.0
  0
LINE
  8
LC-004-003-----0
  6
CONTINUOUS
  5
1BF
 10
504.0
 20
526.007604
 30
0.0
 11
502.872254
 21
517.441521
 31
0.0
  0
LINE
  8
LC-004-003-----0
  6
CONTINUOUS
  5
1C0
 10
504.516884
 20
517.401483
 30
0.0
 11
504.0
 21
521.327604
 31
0.0
  0
LINE
  8
LC-004-003-----0
  6
CONTINUOUS
  5
1C1
 10
504.0
 20
521.327604
 30
0.0
 11
503.483116
 21
517.401483
 31
0.0
  0
TEXT
  8
LC-004-003-----0
  6
CONTINUOUS
 62
     6
  5
1C2
 10
493.568001
 20
413.028992
 30
0.0
 40
18.0
  1
213
 50
90.0
 51
15.0
  7
LC-TXTSTYLE-150-400-0-0-D0
 72
     1
 11
493.568001
 21
432.16285
 31
0.0
  0
ENDBLK
  8
0
  5
1C3
  0
BLOCK
  8
0
  5
1C5
  2
*D18
 70
    65
 10
0.0
 20
0.0
 30
0.0
  3
*D18
  0
LINE
  8
LC-005-003-MTH-0
  6
CONTINUOUS
  5
1C6
 10
180.423143
 20
535.367604
 30
0.0
 11
180.423143
 21
610.8
 31
0.0
  0
LINE
  8
LC-005-003-MTH-0
  6
CONTINUOUS
  5
1C7
 10
424.423143
 20
535.367604
 30
0.0
 11
424.423143
 21
610.8
 31
0.0
  0
LINE
  8
LC-006-003-MTG-0
  6
CONTINUOUS
  5
1C8
 10
180.423143
 20
600.0
 30
0.0
 11
424.423143
 21
600.0
 31
0.0
  0
LINE
  8
LC-004-003-----0
  6
CONTINUOUS
  5
1C9
 10
198.26915
 20
602.349471
 30
0.0
 11
180.423143
 21
600.0
 31
0.0
  0
LINE
  8
LC-004-003-----0
  6
CONTINUOUS
  5
1CA
 10
180.423143
 20
600.0
 30
0.0
 11
198.26915
 21
597.650529
 31
0.0
  0
LINE
  8
LC-004-003-----0
  6
CONTINUOUS
  5
1CB
 10
198.26915
 20
597.650529
 30
0.0
 11
198.26915
 21
602.349471
 31
0.0
  0
LINE
  8
LC-004-003-----0
  6
CONTINUOUS
  5
1CC
 10
198.309188
 20
601.738609
 30
0.0
 11
185.103143
 21
600.0
 31
0.0
  0
LINE
  8
LC-004-003-----0
  6
CONTINUOUS
  5
1CD
 10
185.103143
 20
600.0
 30
0.0
 11
198.309188
 21
598.261391
 31
0.0
  0
LINE
  8
LC-004-003-----0
  6
CONTINUOUS
  5
1CE
 10
198.349226
 20
601.127746
 30
0.0
 11
189.783143
 21
600.0
 31
0.0
  0
LINE
  8
LC-004-003-----0
  6
CONTINUOUS
  5
1CF
 10
189.783143
 20
600.0
 30
0.0
 11
198.349226
 21
598.872254
 31
0.0
  0
LINE
  8
LC-004-003-----0
  6
CONTINUOUS
  5
1D0
 10
198.389264
 20
600.516884
 30
0.0
 11
194.463143
 21
600.0
 31
0.0
  0
LINE
  8
LC-004-003-----0
  6
CONTINUOUS
  5
1D1
 10
194.463143
 20
600.0
 30
0.0
 11
198.389264
 21
599.483116
 31
0.0
  0
LINE
  8
LC-004-003-----0
  6
CONTINUOUS
  5
1D2
 10
406.577135
 20
597.650529
 30
0.0
 11
424.423143
 21
600.0
 31
0.0
  0
LINE
  8
LC-004-003-----0
  6
CONTINUOUS
  5
1D3
 10
424.423143
 20
600.0
 30
0.0
 11
406.577135
 21
602.349471
 31
0.0
  0
LINE
  8
LC-004-003-----0
  6
CONTINUOUS
  5
1D4
 10
406.577135
 20
602.349471
 30
0.0
 11
406.577135
 21
597.650529
 31
0.0
  0
LINE
  8
LC-004-003-----0
  6
CONTINUOUS
  5
1D5
 10
406.537097
 20
598.261391
 30
0.0
 11
419.743143
 21
600.0
 31
0.0
  0
LINE
  8
LC-004-003-----0
  6
CONTINUOUS
  5
1D6
 10
419.743143
 20
600.0
 30
0.0
 11
406.537097
 21
601.738609
 31
0.0
  0
LINE
  8
LC-004-003-----0
  6
CONTINUOUS
  5
1D7
 10
406.497059
 20
598.872254
 30
0.0
 11
415.063143
 21
600.0
 31
0.0
  0
LINE
  8
LC-004-003-----0
  6
CONTINUOUS
  5
1D8
 10
415.063143
 20
600.0
 30
0.0
 11
406.497059
 21
601.127746
 31
0.0
  0
LINE
  8
LC-004-003-----0
  6
CONTINUOUS
  5
1D9
 10
406.457021
 20
599.483116
 30
0.0
 11
410.383143
 21
600.0
 31
0.0
  0
LINE
  8
LC-004-003-----0
  6
CONTINUOUS
  5
1DA
 10
410.383143
 20
600.0
 30
0.0
 11
406.457021
 21
600.516884
 31
0.0
  0
TEXT
  8
LC-004-003-----0
  6
CONTINUOUS
 62
     6
  5
1DB
 10
293.206732
 20
610.431999
 30
0.0
 40
18.0
  1
244
 51
15.0
  7
LC-TXTSTYLE-150-400-0-0-D0
 72
     1
 11
312.34059
 21
610.431999
 31
0.0
  0
ENDBLK
  8
0
  5
1DC
  0
BLOCK
  8
0
  5
1DE
  2
*X19
 70
    65
 10
180.423143
 20
261.367604
 30
0.0
  3
*X19
  0
LINE
  8
LC-003-005-----0
  6
CONTINUOUS
  5
1DF
 10
188.423143
 20
532.825774
 30
0.0
 11
185.881312
 21
535.367604
 31
0.0
  0
LINE
  8
LC-003-005-----0
  6
CONTINUOUS
  5
1E0
 10
203.923143
 20
514.497347
 30
0.0
 11
203.052885
 21
515.367604
 31
0.0
  0
LINE
  8
LC-003-005-----0
  6
CONTINUOUS
  5
1E1
 10
188.423143
 20
529.997347
 30
0.0
 11
183.052885
 21
535.367604
 31
0.0
  0
LINE
  8
LC-003-005-----0
  6
CONTINUOUS
  5
1E2
 10
203.923143
 20
511.66892
 30
0.0
 11
200.224458
 21
515.367604
 31
0.0
  0
LINE
  8
LC-003-005-----0
  6
CONTINUOUS
  5
1E3
 10
188.423143
 20
527.16892
 30
0.0
 11
184.423143
 21
531.16892
 31
0.0
  0
LINE
  8
LC-003-005-----0
  6
CONTINUOUS
  5
1E4
 10
184.224458
 20
531.367604
 30
0.0
 11
180.423143
 21
535.16892
 31
0.0
  0
LINE
  8
LC-003-005-----0
  6
CONTINUOUS
  5
1E5
 10
203.923143
 20
508.840493
 30
0.0
 11
197.396031
 21
515.367604
 31
0.0
  0
LINE
  8
LC-003-005-----0
  6
CONTINUOUS
  5
1E6
 10
188.423143
 20
524.340493
 30
0.0
 11
184.423143
 21
528.340493
 31
0.0
  0
LINE
  8
LC-003-005-----0
  6
CONTINUOUS
  5
1E7
 10
181.396031
 20
531.367604
 30
0.0
 11
180.423143
 21
532.340493
 31
0.0
  0
LINE
  8
LC-003-005-----0
  6
CONTINUOUS
  5
1E8
 10
203.923143
 20
506.012065
 30
0.0
 11
199.923143
 21
510.012065
 31
0.0
  0
LINE
  8
LC-003-005-----0
  6
CONTINUOUS
  5
1E9
 10
198.567604
 20
511.367604
 30
0.0
 11
194.567604
 21
515.367604
 31
0.0
  0
LINE
  8
LC-003-005-----0
  6
CONTINUOUS
  5
1EA
 10
188.423143
 20
521.512065
 30
0.0
 11
184.423143
 21
525.512065
 31
0.0
  0
LINE
  8
LC-003-005-----0
  6
CONTINUOUS
  5
1EB
 10
203.923143
 20
503.183638
 30
0.0
 11
199.923143
 21
507.183638
 31
0.0
  0
LINE
  8
LC-003-005-----0
  6
CONTINUOUS
  5
1EC
 10
195.739177
 20
511.367604
 30
0.0
 11
191.739177
 21
515.367604
 31
0.0
  0
LINE
  8
LC-003-005-----0
  6
CONTINUOUS
  5
1ED
 10
188.423143
 20
518.683638
 30
0.0
 11
184.423143
 21
522.683638
 31
0.0
  0
LINE
  8
LC-003-005-----0
  6
CONTINUOUS
  5
1EE
 10
203.923143
 20
500.355211
 30
0.0
 11
199.923143
 21
504.355211
 31
0.0
  0
LINE
  8
LC-003-005-----0
  6
CONTINUOUS
  5
1EF
 10
192.91075
 20
511.367604
 30
0.0
 11
188.91075
 21
515.367604
 31
0.0
  0
LINE
  8
LC-003-005-----0
  6
CONTINUOUS
  5
1F0
 10
188.423143
 20
515.855211
 30
0.0
 11
184.423143
 21
519.855211
 31
0.0
  0
LINE
  8
LC-003-005-----0
  6
CONTINUOUS
  5
1F1
 10
212.423143
 20
489.026784
 30
0.0
 11
212.082323
 21
489.367604
 31
0.0
  0
LINE
  8
LC-003-005-----0
  6
CONTINUOUS
  5
1F2
 10
203.923143
 20
497.526784
 30
0.0
 11
199.923143
 21
501.526784
 31
0.0
  0
LINE
  8
LC-003-005-----0
  6
CONTINUOUS
  5
1F3
 10
190.082323
 20
511.367604
 30
0.0
 11
184.423143
 21
517.026784
 31
0.0
  0
LINE
  8
LC-003-005-----0
  6
CONTINUOUS
  5
1F4
 10
212.423143
 20
486.198357
 30
0.0
 11
209.253895
 21
489.367604
 31
0.0
  0
LINE
  8
LC-003-005-----0
  6
CONTINUOUS
  5
1F5
 10
203.923143
 20
494.698357
 30
0.0
 11
199.923143
 21
498.698357
 31
0.0
  0
LINE
  8
LC-003-005-----0
  6
CONTINUOUS
  5
1F6
 10
212.423143
 20
483.36993
 30
0.0
 11
205.840559
 21
489.952513
 31
0.0
  0
LINE
  8
LC-003-005-----0
  6
CONTINUOUS
  5
1F7
 10
204.508052
 20
491.285021
 30
0.0
 11
199.923143
 21
495.86993
 31
0.0
  0
LINE
  8
LC-003-005-----0
  6
CONTINUOUS
  5
1F8
 10
212.423143
 20
480.541503
 30
0.0
 11
208.423143
 21
484.541503
 31
0.0
  0
LINE
  8
LC-003-005-----0
  6
CONTINUOUS
  5
1F9
 10
207.590106
 20
485.374539
 30
0.0
 11
199.930078
 21
493.034568
 31
0.0
  0
LINE
  8
LC-003-005-----0
  6
CONTINUOUS
  5
1FA
 10
212.423143
 20
477.713076
 30
0.0
 11
208.423143
 21
481.713076
 31
0.0
  0
LINE
  8
LC-003-005-----0
  6
CONTINUOUS
  5
1FB
 10
203.291459
 20
486.84476
 30
0.0
 11
201.400298
 21
488.73592
 31
0.0
  0
LINE
  8
LC-003-005-----0
  6
CONTINUOUS
  5
1FC
 10
212.423143
 20
474.884648
 30
0.0
 11
208.423143
 21
478.884648
 31
0.0
  0
LINE
  8
LC-003-005-----0
  6
CONTINUOUS
  5
1FD
 10
212.423143
 20
472.056221
 30
0.0
 11
208.423143
 21
476.056221
 31
0.0
  0
LINE
  8
LC-003-005-----0
  6
CONTINUOUS
  5
1FE
 10
212.423143
 20
469.227794
 30
0.0
 11
208.423143
 21
473.227794
 31
0.0
  0
LINE
  8
LC-003-005-----0
  6
CONTINUOUS
  5
1FF
 10
212.423143
 20
466.399367
 30
0.0
 11
208.423143
 21
470.399367
 31
0.0
  0
LINE
  8
LC-003-005-----0
  6
CONTINUOUS
  5
200
 10
212.423143
 20
463.57094
 30
0.0
 11
208.423143
 21
467.57094
 31
0.0
  0
LINE
  8
LC-003-005-----0
  6
CONTINUOUS
  5
201
 10
216.423467
 20
456.742189
 30
0.0
 11
215.798051
 21
457.367604
 31
0.0
  0
LINE
  8
LC-003-005-----0
  6
CONTINUOUS
  5
202
 10
212.423143
 20
460.742513
 30
0.0
 11
208.423143
 21
464.742513
 31
0.0
  0
LINE
  8
LC-003-005-----0
  6
CONTINUOUS
  5
203
 10
216.424932
 20
453.912296
 30
0.0
 11
212.969624
 21
457.367604
 31
0.0
  0
LINE
  8
LC-003-005-----0
  6
CONTINUOUS
  5
204
 10
212.423143
 20
457.914086
 30
0.0
 11
208.423143
 21
461.914086
 31
0.0
  0
LINE
  8
LC-003-005-----0
  6
CONTINUOUS
  5
205
 10
216.426398
 20
451.082404
 30
0.0
 11
208.423143
 21
459.085659
 31
0.0
  0
LINE
  8
LC-003-005-----0
  6
CONTINUOUS
  5
206
 10
216.427863
 20
448.252511
 30
0.0
 11
212.423143
 21
452.257232
 31
0.0
  0
LINE
  8
LC-003-005-----0
  6
CONTINUOUS
  5
207
 10
211.080814
 20
453.599561
 30
0.0
 11
208.655099
 21
456.025275
 31
0.0
  0
LINE
  8
LC-003-005-----0
  6
CONTINUOUS
  5
208
 10
216.429329
 20
445.422618
 30
0.0
 11
212.423143
 21
449.428804
 31
0.0
  0
LINE
  8
LC-003-005-----0
  6
CONTINUOUS
  5
209
 10
216.480158
 20
442.543362
 30
0.0
 11
212.423143
 21
446.600377
 31
0.0
  0
LINE
  8
LC-003-005-----0
  6
CONTINUOUS
  5
20A
 10
216.6618
 20
439.533293
 30
0.0
 11
212.423143
 21
443.77195
 31
0.0
  0
LINE
  8
LC-003-005-----0
  6
CONTINUOUS
  5
20B
 10
216.843442
 20
436.523224
 30
0.0
 11
212.578818
 21
440.787848
 31
0.0
  0
LINE
  8
LC-003-005-----0
  6
CONTINUOUS
  5
20C
 10
217.025084
 20
433.513154
 30
0.0
 11
212.76046
 21
437.777779
 31
0.0
  0
LINE
  8
LC-003-005-----0
  6
CONTINUOUS
  5
20D
 10
217.206726
 20
430.503085
 30
0.0
 11
212.942102
 21
434.76771
 31
0.0
  0
LINE
  8
LC-003-005-----0
  6
CONTINUOUS
  5
20E
 10
217.388368
 20
427.493016
 30
0.0
 11
213.123744
 21
431.75764
 31
0.0
  0
LINE
  8
LC-003-005-----0
  6
CONTINUOUS
  5
20F
 10
217.570011
 20
424.482947
 30
0.0
 11
213.305386
 21
428.747571
 31
0.0
  0
LINE
  8
LC-003-005-----0
  6
CONTINUOUS
  5
210
 10
217.751653
 20
421.472877
 30
0.0
 11
213.487028
 21
425.737502
 31
0.0
  0
LINE
  8
LC-003-005-----0
  6
CONTINUOUS
  5
211
 10
217.933295
 20
418.462808
 30
0.0
 11
213.66867
 21
422.727433
 31
0.0
  0
LINE
  8
LC-003-005-----0
  6
CONTINUOUS
  5
212
 10
218.114937
 20
415.452739
 30
0.0
 11
213.850313
 21
419.717363
 31
0.0
  0
LINE
  8
LC-003-005-----0
  6
CONTINUOUS
  5
213
 10
218.296579
 20
412.44267
 30
0.0
 11
214.031955
 21
416.707294
 31
0.0
  0
LINE
  8
LC-003-005-----0
  6
CONTINUOUS
  5
214
 10
218.478221
 20
409.432601
 30
0.0
 11
214.213597
 21
413.697225
 31
0.0
  0
LINE
  8
LC-003-005-----0
  6
CONTINUOUS
  5
215
 10
218.659863
 20
406.422531
 30
0.0
 11
214.395239
 21
410.687156
 31
0.0
  0
LINE
  8
LC-003-005-----0
  6
CONTINUOUS
  5
216
 10
218.841505
 20
403.412462
 30
0.0
 11
214.576881
 21
407.677086
 31
0.0
  0
LINE
  8
LC-003-005-----0
  6
CONTINUOUS
  5
217
 10
219.023147
 20
400.402393
 30
0.0
 11
214.758523
 21
404.667017
 31
0.0
  0
LINE
  8
LC-003-005-----0
  6
CONTINUOUS
  5
218
 10
219.20479
 20
397.392324
 30
0.0
 11
214.940165
 21
401.656948
 31
0.0
  0
LINE
  8
LC-003-005-----0
  6
CONTINUOUS
  5
219
 10
219.386432
 20
394.382254
 30
0.0
 11
215.121807
 21
398.646879
 31
0.0
  0
LINE
  8
LC-003-005-----0
  6
CONTINUOUS
  5
21A
 10
219.568074
 20
391.372185
 30
0.0
 11
215.303449
 21
395.63681
 31
0.0
  0
LINE
  8
LC-003-005-----0
  6
CONTINUOUS
  5
21B
 10
219.749716
 20
388.362116
 30
0.0
 11
215.485092
 21
392.62674
 31
0.0
  0
LINE
  8
LC-003-005-----0
  6
CONTINUOUS
  5
21C
 10
219.931358
 20
385.352047
 30
0.0
 11
215.666734
 21
389.616671
 31
0.0
  0
LINE
  8
LC-003-005-----0
  6
CONTINUOUS
  5
21D
 10
220.113
 20
382.341977
 30
0.0
 11
215.848376
 21
386.606602
 31
0.0
  0
LINE
  8
LC-003-005-----0
  6
CONTINUOUS
  5
21E
 10
220.294642
 20
379.331908
 30
0.0
 11
216.030018
 21
383.596533
 31
0.0
  0
LINE
  8
LC-003-005-----0
  6
CONTINUOUS
  5
21F
 10
220.476284
 20
376.321839
 30
0.0
 11
216.21166
 21
380.586463
 31
0.0
  0
LINE
  8
LC-003-005-----0
  6
CONTINUOUS
  5
220
 10
220.657926
 20
373.31177
 30
0.0
 11
216.393302
 21
377.576394
 31
0.0
  0
LINE
  8
LC-003-005-----0
  6
CONTINUOUS
  5
221
 10
220.839569
 20
370.301701
 30
0.0
 11
216.574944
 21
374.566325
 31
0.0
  0
LINE
  8
LC-003-005-----0
  6
CONTINUOUS
  5
222
 10
221.021211
 20
367.291631
 30
0.0
 11
216.756586
 21
371.556256
 31
0.0
  0
LINE
  8
LC-003-005-----0
  6
CONTINUOUS
  5
223
 10
221.202853
 20
364.281562
 30
0.0
 11
216.938228
 21
368.546186
 31
0.0
  0
LINE
  8
LC-003-005-----0
  6
CONTINUOUS
  5
224
 10
221.384495
 20
361.271493
 30
0.0
 11
217.11987
 21
365.536117
 31
0.0
  0
LINE
  8
LC-003-005-----0
  6
CONTINUOUS
  5
225
 10
221.566137
 20
358.261424
 30
0.0
 11
217.301513
 21
362.526048
 31
0.0
  0
LINE
  8
LC-003-005-----0
  6
CONTINUOUS
  5
226
 10
251.423143
 20
325.575991
 30
0.0
 11
249.631529
 21
327.367604
 31
0.0
  0
LINE
  8
LC-003-005-----0
  6
CONTINUOUS
  5
227
 10
221.747779
 20
355.251354
 30
0.0
 11
217.483155
 21
359.515979
 31
0.0
  0
LINE
  8
LC-003-005-----0
  6
CONTINUOUS
  5
228
 10
251.423143
 20
322.747564
 30
0.0
 11
246.803102
 21
327.367604
 31
0.0
  0
LINE
  8
LC-003-005-----0
  6
CONTINUOUS
  5
229
 10
221.929421
 20
352.241285
 30
0.0
 11
217.664797
 21
356.50591
 31
0.0
  0
LINE
  8
LC-003-005-----0
  6
CONTINUOUS
  5
22A
 10
251.423143
 20
319.919136
 30
0.0
 11
243.974675
 21
327.367604
 31
0.0
  0
LINE
  8
LC-003-005-----0
  6
CONTINUOUS
  5
22B
 10
222.111063
 20
349.231216
 30
0.0
 11
217.846439
 21
353.49584
 31
0.0
  0
LINE
  8
LC-003-005-----0
  6
CONTINUOUS
  5
22C
 10
251.423143
 20
317.090709
 30
0.0
 11
247.423143
 21
321.090709
 31
0.0
  0
LINE
  8
LC-003-005-----0
  6
CONTINUOUS
  5
22D
 10
245.146248
 20
323.367604
 30
0.0
 11
241.146248
 21
327.367604
 31
0.0
  0
LINE
  8
LC-003-005-----0
  6
CONTINUOUS
  5
22E
 10
222.292705
 20
346.221147
 30
0.0
 11
218.028081
 21
350.485771
 31
0.0
  0
LINE
  8
LC-003-005-----0
  6
CONTINUOUS
  5
22F
 10
251.423143
 20
314.262282
 30
0.0
 11
247.423143
 21
318.262282
 31
0.0
  0
LINE
  8
LC-003-005-----0
  6
CONTINUOUS
  5
230
 10
242.317821
 20
323.367604
 30
0.0
 11
238.317821
 21
327.367604
 31
0.0
  0
LINE
  8
LC-003-005-----0
  6
CONTINUOUS
  5
231
 10
222.474348
 20
343.211077
 30
0.0
 11
218.209723
 21
347.475702
 31
0.0
  0
LINE
  8
LC-003-005-----0
  6
CONTINUOUS
  5
232
 10
251.423143
 20
311.433855
 30
0.0
 11
247.423143
 21
315.433855
 31
0.0
  0
LINE
  8
LC-003-005-----0
  6
CONTINUOUS
  5
233
 10
239.489393
 20
323.367604
 30
0.0
 11
235.489393
 21
327.367604
 31
0.0
  0
LINE
  8
LC-003-005-----0
  6
CONTINUOUS
  5
234
 10
222.65599
 20
340.201008
 30
0.0
 11
218.391365
 21
344.465633
 31
0.0
  0
LINE
  8
LC-003-005-----0
  6
CONTINUOUS
  5
235
 10
251.423143
 20
308.605428
 30
0.0
 11
247.423143
 21
312.605428
 31
0.0
  0
LINE
  8
LC-003-005-----0
  6
CONTINUOUS
  5
236
 10
236.660966
 20
323.367604
 30
0.0
 11
232.660966
 21
327.367604
 31
0.0
  0
LINE
  8
LC-003-005-----0
  6
CONTINUOUS
  5
237
 10
222.837632
 20
337.190939
 30
0.0
 11
218.573007
 21
341.455563
 31
0.0
  0
LINE
  8
LC-003-005-----0
  6
CONTINUOUS
  5
238
 10
251.423143
 20
305.777001
 30
0.0
 11
247.423143
 21
309.777001
 31
0.0
  0
LINE
  8
LC-003-005-----0
  6
CONTINUOUS
  5
239
 10
233.832539
 20
323.367604
 30
0.0
 11
229.832539
 21
327.367604
 31
0.0
  0
LINE
  8
LC-003-005-----0
  6
CONTINUOUS
  5
23A
 10
223.019274
 20
334.18087
 30
0.0
 11
218.754649
 21
338.445494
 31
0.0
  0
LINE
  8
LC-003-005-----0
  6
CONTINUOUS
  5
23B
 10
251.423143
 20
302.948574
 30
0.0
 11
247.423143
 21
306.948574
 31
0.0
  0
LINE
  8
LC-003-005-----0
  6
CONTINUOUS
  5
23C
 10
231.004112
 20
323.367604
 30
0.0
 11
227.004112
 21
327.367604
 31
0.0
  0
LINE
  8
LC-003-005-----0
  6
CONTINUOUS
  5
23D
 10
223.200916
 20
331.1708
 30
0.0
 11
218.936292
 21
335.435425
 31
0.0
  0
LINE
  8
LC-003-005-----0
  6
CONTINUOUS
  5
23E
 10
251.423143
 20
300.120147
 30
0.0
 11
247.423143
 21
304.120147
 31
0.0
  0
LINE
  8
LC-003-005-----0
  6
CONTINUOUS
  5
23F
 10
228.175685
 20
323.367604
 30
0.0
 11
219.117934
 21
332.425356
 31
0.0
  0
LINE
  8
LC-003-005-----0
  6
CONTINUOUS
  5
240
 10
251.423143
 20
297.291719
 30
0.0
 11
247.423143
 21
301.291719
 31
0.0
  0
LINE
  8
LC-003-005-----0
  6
CONTINUOUS
  5
241
 10
225.347258
 20
323.367604
 30
0.0
 11
219.299576
 21
329.415286
 31
0.0
  0
LINE
  8
LC-003-005-----0
  6
CONTINUOUS
  5
242
 10
251.423143
 20
294.463292
 30
0.0
 11
247.423143
 21
298.463292
 31
0.0
  0
LINE
  8
LC-003-005-----0
  6
CONTINUOUS
  5
243
 10
251.423143
 20
291.634865
 30
0.0
 11
247.423143
 21
295.634865
 31
0.0
  0
LINE
  8
LC-003-005-----0
  6
CONTINUOUS
  5
244
 10
251.423143
 20
288.806438
 30
0.0
 11
247.423143
 21
292.806438
 31
0.0
  0
LINE
  8
LC-003-005-----0
  6
CONTINUOUS
  5
245
 10
251.423143
 20
285.978011
 30
0.0
 11
247.423143
 21
289.978011
 31
0.0
  0
LINE
  8
LC-003-005-----0
  6
CONTINUOUS
  5
246
 10
251.423143
 20
283.149584
 30
0.0
 11
247.423143
 21
287.149584
 31
0.0
  0
LINE
  8
LC-003-005-----0
  6
CONTINUOUS
  5
247
 10
251.423143
 20
280.321157
 30
0.0
 11
247.423143
 21
284.321157
 31
0.0
  0
LINE
  8
LC-003-005-----0
  6
CONTINUOUS
  5
248
 10
251.423143
 20
277.49273
 30
0.0
 11
247.423143
 21
281.49273
 31
0.0
  0
LINE
  8
LC-003-005-----0
  6
CONTINUOUS
  5
249
 10
251.423143
 20
274.664302
 30
0.0
 11
247.423143
 21
278.664302
 31
0.0
  0
LINE
  8
LC-003-005-----0
  6
CONTINUOUS
  5
24A
 10
251.423143
 20
271.835875
 30
0.0
 11
247.423143
 21
275.835875
 31
0.0
  0
LINE
  8
LC-003-005-----0
  6
CONTINUOUS
  5
24B
 10
251.423143
 20
269.007448
 30
0.0
 11
247.423143
 21
273.007448
 31
0.0
  0
LINE
  8
LC-003-005-----0
  6
CONTINUOUS
  5
24C
 10
251.423143
 20
266.179021
 30
0.0
 11
247.423143
 21
270.179021
 31
0.0
  0
LINE
  8
LC-003-005-----0
  6
CONTINUOUS
  5
24D
 10
251.423143
 20
263.350594
 30
0.0
 11
247.423143
 21
267.350594
 31
0.0
  0
LINE
  8
LC-003-005-----0
  6
CONTINUOUS
  5
24E
 10
250.577705
 20
261.367604
 30
0.0
 11
247.915607
 21
264.029702
 31
0.0
  0
ENDBLK
  8
0
  5
24F
  0
BLOCK
  8
0
  5
251
  2
*D20
 70
    65
 10
0.0
 20
0.0
 30
0.0
  3
*D20
  0
LINE
  8
LC-005-003-MTH-0
  6
CONTINUOUS
  5
252
 10
212.423143
 20
443.367604
 30
0.0
 11
212.423143
 21
109.2
 31
0.0
  0
LINE
  8
LC-005-003-MTH-0
  6
CONTINUOUS
  5
253
 10
392.423143
 20
443.367604
 30
0.0
 11
392.423143
 21
109.2
 31
0.0
  0
LINE
  8
LC-006-003-MTG-0
  6
CONTINUOUS
  5
254
 10
212.423143
 20
120.0
 30
0.0
 11
392.423143
 21
120.0
 31
0.0
  0
LINE
  8
LC-004-003-----0
  6
CONTINUOUS
  5
255
 10
230.26915
 20
122.349471
 30
0.0
 11
212.423143
 21
120.0
 31
0.0
  0
LINE
  8
LC-004-003-----0
  6
CONTINUOUS
  5
256
 10
212.423143
 20
120.0
 30
0.0
 11
230.26915
 21
117.650529
 31
0.0
  0
LINE
  8
LC-004-003-----0
  6
CONTINUOUS
  5
257
 10
230.26915
 20
117.650529
 30
0.0
 11
230.26915
 21
122.349471
 31
0.0
  0
LINE
  8
LC-004-003-----0
  6
CONTINUOUS
  5
258
 10
230.309188
 20
121.738609
 30
0.0
 11
217.103143
 21
120.0
 31
0.0
  0
LINE
  8
LC-004-003-----0
  6
CONTINUOUS
  5
259
 10
217.103143
 20
120.0
 30
0.0
 11
230.309188
 21
118.261391
 31
0.0
  0
LINE
  8
LC-004-003-----0
  6
CONTINUOUS
  5
25A
 10
230.349226
 20
121.127746
 30
0.0
 11
221.783143
 21
120.0
 31
0.0
  0
LINE
  8
LC-004-003-----0
  6
CONTINUOUS
  5
25B
 10
221.783143
 20
120.0
 30
0.0
 11
230.349226
 21
118.872254
 31
0.0
  0
LINE
  8
LC-004-003-----0
  6
CONTINUOUS
  5
25C
 10
230.389264
 20
120.516884
 30
0.0
 11
226.463143
 21
120.0
 31
0.0
  0
LINE
  8
LC-004-003-----0
  6
CONTINUOUS
  5
25D
 10
226.463143
 20
120.0
 30
0.0
 11
230.389264
 21
119.483116
 31
0.0
  0
LINE
  8
LC-004-003-----0
  6
CONTINUOUS
  5
25E
 10
374.577135
 20
117.650529
 30
0.0
 11
392.423143
 21
120.0
 31
0.0
  0
LINE
  8
LC-004-003-----0
  6
CONTINUOUS
  5
25F
 10
392.423143
 20
120.0
 30
0.0
 11
374.577135
 21
122.349471
 31
0.0
  0
LINE
  8
LC-004-003-----0
  6
CONTINUOUS
  5
260
 10
374.577135
 20
122.349471
 30
0.0
 11
374.577135
 21
117.650529
 31
0.0
  0
LINE
  8
LC-004-003-----0
  6
CONTINUOUS
  5
261
 10
374.537097
 20
118.261391
 30
0.0
 11
387.743143
 21
120.0
 31
0.0
  0
LINE
  8
LC-004-003-----0
  6
CONTINUOUS
  5
262
 10
387.743143
 20
120.0
 30
0.0
 11
374.537097
 21
121.738609
 31
0.0
  0
LINE
  8
LC-004-003-----0
  6
CONTINUOUS
  5
263
 10
374.497059
 20
118.872254
 30
0.0
 11
383.063143
 21
120.0
 31
0.0
  0
LINE
  8
LC-004-003-----0
  6
CONTINUOUS
  5
264
 10
383.063143
 20
120.0
 30
0.0
 11
374.497059
 21
121.127746
 31
0.0
  0
LINE
  8
LC-004-003-----0
  6
CONTINUOUS
  5
265
 10
374.457021
 20
119.483116
 30
0.0
 11
378.383143
 21
120.0
 31
0.0
  0
LINE
  8
LC-004-003-----0
  6
CONTINUOUS
  5
266
 10
378.383143
 20
120.0
 30
0.0
 11
374.457021
 21
120.516884
 31
0.0
  0
TEXT
  8
LC-004-003-----0
  6
CONTINUOUS
 62
     6
  5
267
 10
272.161952
 20
130.431999
 30
0.0
 40
18.0
  1
Ø180
 51
15.0
  7
LC-TXTSTYLE-150-400-0-0-D0
 72
     1
 11
296.653291
 21
130.431999
 31
0.0
  0
ENDBLK
  8
0
  5
268
  0
BLOCK
  8
0
  5
26A
  2
*X21
 70
    65
 10
353.423143
 20
261.367604
 30
0.0
  3
*X21
  0
LINE
  8
LC-003-005-----0
  6
CONTINUOUS
  5
26B
 10
424.423143
 20
534.413652
 30
0.0
 11
423.469191
 21
535.367604
 31
0.0
  0
LINE
  8
LC-003-005-----0
  6
CONTINUOUS
  5
26C
 10
424.423143
 20
531.585225
 30
0.0
 11
420.640764
 21
535.367604
 31
0.0
  0
LINE
  8
LC-003-005-----0
  6
CONTINUOUS
  5
26D
 10
421.812337
 20
531.367604
 30
0.0
 11
417.812337
 21
535.367604
 31
0.0
  0
LINE
  8
LC-003-005-----0
  6
CONTINUOUS
  5
26E
 10
420.423143
 20
529.928371
 30
0.0
 11
416.423143
 21
533.928371
 31
0.0
  0
LINE
  8
LC-003-005-----0
  6
CONTINUOUS
  5
26F
 10
420.423143
 20
527.099944
 30
0.0
 11
416.423143
 21
531.099944
 31
0.0
  0
LINE
  8
LC-003-005-----0
  6
CONTINUOUS
  5
270
 10
420.423143
 20
524.271517
 30
0.0
 11
416.423143
 21
528.271517
 31
0.0
  0
LINE
  8
LC-003-005-----0
  6
CONTINUOUS
  5
271
 10
420.423143
 20
521.44309
 30
0.0
 11
416.423143
 21
525.44309
 31
0.0
  0
LINE
  8
LC-003-005-----0
  6
CONTINUOUS
  5
272
 10
420.423143
 20
518.614663
 30
0.0
 11
416.423143
 21
522.614663
 31
0.0
  0
LINE
  8
LC-003-005-----0
  6
CONTINUOUS
  5
273
 10
420.392698
 20
515.81668
 30
0.0
 11
416.423143
 21
519.786235
 31
0.0
  0
LINE
  8
LC-003-005-----0
  6
CONTINUOUS
  5
274
 10
419.663214
 20
513.717737
 30
0.0
 11
416.423143
 21
516.957808
 31
0.0
  0
LINE
  8
LC-003-005-----0
  6
CONTINUOUS
  5
275
 10
418.284936
 20
512.267588
 30
0.0
 11
415.18492
 21
515.367604
 31
0.0
  0
LINE
  8
LC-003-005-----0
  6
CONTINUOUS
  5
276
 10
416.28215
 20
511.441946
 30
0.0
 11
412.356493
 21
515.367604
 31
0.0
  0
LINE
  8
LC-003-005-----0
  6
CONTINUOUS
  5
277
 10
413.528065
 20
511.367604
 30
0.0
 11
409.528065
 21
515.367604
 31
0.0
  0
LINE
  8
LC-003-005-----0
  6
CONTINUOUS
  5
278
 10
410.699638
 20
511.367604
 30
0.0
 11
406.699638
 21
515.367604
 31
0.0
  0
LINE
  8
LC-003-005-----0
  6
CONTINUOUS
  5
279
 10
407.871211
 20
511.367604
 30
0.0
 11
403.871211
 21
515.367604
 31
0.0
  0
LINE
  8
LC-003-005-----0
  6
CONTINUOUS
  5
27A
 10
405.042784
 20
511.367604
 30
0.0
 11
401.042784
 21
515.367604
 31
0.0
  0
LINE
  8
LC-003-005-----0
  6
CONTINUOUS
  5
27B
 10
404.923143
 20
508.658818
 30
0.0
 11
400.923143
 21
512.658818
 31
0.0
  0
LINE
  8
LC-003-005-----0
  6
CONTINUOUS
  5
27C
 10
404.923143
 20
505.830391
 30
0.0
 11
400.923143
 21
509.830391
 31
0.0
  0
LINE
  8
LC-003-005-----0
  6
CONTINUOUS
  5
27D
 10
404.923143
 20
503.001964
 30
0.0
 11
400.923143
 21
507.001964
 31
0.0
  0
LINE
  8
LC-003-005-----0
  6
CONTINUOUS
  5
27E
 10
404.923143
 20
500.173537
 30
0.0
 11
400.923143
 21
504.173537
 31
0.0
  0
LINE
  8
LC-003-005-----0
  6
CONTINUOUS
  5
27F
 10
404.923143
 20
497.34511
 30
0.0
 11
400.923143
 21
501.34511
 31
0.0
  0
LINE
  8
LC-003-005-----0
  6
CONTINUOUS
  5
280
 10
404.923143
 20
494.516683
 30
0.0
 11
400.923143
 21
498.516683
 31
0.0
  0
LINE
  8
LC-003-005-----0
  6
CONTINUOUS
  5
281
 10
404.7752
 20
491.836199
 30
0.0
 11
400.923143
 21
495.688256
 31
0.0
  0
LINE
  8
LC-003-005-----0
  6
CONTINUOUS
  5
282
 10
404.049877
 20
489.733095
 30
0.0
 11
400.89436
 21
492.888611
 31
0.0
  0
LINE
  8
LC-003-005-----0
  6
CONTINUOUS
  5
283
 10
402.902151
 20
488.052394
 30
0.0
 11
400.063928
 21
490.890616
 31
0.0
  0
LINE
  8
LC-003-005-----0
  6
CONTINUOUS
  5
284
 10
401.393178
 20
486.732939
 30
0.0
 11
398.453986
 21
489.672131
 31
0.0
  0
LINE
  8
LC-003-005-----0
  6
CONTINUOUS
  5
285
 10
399.502769
 20
485.794921
 30
0.0
 11
395.930086
 21
489.367604
 31
0.0
  0
LINE
  8
LC-003-005-----0
  6
CONTINUOUS
  5
286
 10
397.09971
 20
485.369553
 30
0.0
 11
393.101659
 21
489.367604
 31
0.0
  0
LINE
  8
LC-003-005-----0
  6
CONTINUOUS
  5
287
 10
396.423143
 20
483.217693
 30
0.0
 11
392.423143
 21
487.217693
 31
0.0
  0
LINE
  8
LC-003-005-----0
  6
CONTINUOUS
  5
288
 10
396.423143
 20
480.389266
 30
0.0
 11
392.423143
 21
484.389266
 31
0.0
  0
LINE
  8
LC-003-005-----0
  6
CONTINUOUS
  5
289
 10
396.423143
 20
477.560839
 30
0.0
 11
392.423143
 21
481.560839
 31
0.0
  0
LINE
  8
LC-003-005-----0
  6
CONTINUOUS
  5
28A
 10
396.423143
 20
474.732412
 30
0.0
 11
392.423143
 21
478.732412
 31
0.0
  0
LINE
  8
LC-003-005-----0
  6
CONTINUOUS
  5
28B
 10
396.423143
 20
471.903984
 30
0.0
 11
392.423143
 21
475.903984
 31
0.0
  0
LINE
  8
LC-003-005-----0
  6
CONTINUOUS
  5
28C
 10
396.423143
 20
469.075557
 30
0.0
 11
392.423143
 21
473.075557
 31
0.0
  0
LINE
  8
LC-003-005-----0
  6
CONTINUOUS
  5
28D
 10
396.423143
 20
466.24713
 30
0.0
 11
392.423143
 21
470.24713
 31
0.0
  0
LINE
  8
LC-003-005-----0
  6
CONTINUOUS
  5
28E
 10
396.423143
 20
463.418703
 30
0.0
 11
392.423143
 21
467.418703
 31
0.0
  0
LINE
  8
LC-003-005-----0
  6
CONTINUOUS
  5
28F
 10
396.423143
 20
460.590276
 30
0.0
 11
392.423143
 21
464.590276
 31
0.0
  0
LINE
  8
LC-003-005-----0
  6
CONTINUOUS
  5
290
 10
396.423143
 20
457.761849
 30
0.0
 11
392.423143
 21
461.761849
 31
0.0
  0
LINE
  8
LC-003-005-----0
  6
CONTINUOUS
  5
291
 10
395.923965
 20
455.432599
 30
0.0
 11
392.423143
 21
458.933422
 31
0.0
  0
LINE
  8
LC-003-005-----0
  6
CONTINUOUS
  5
292
 10
394.548911
 20
453.979226
 30
0.0
 11
391.160533
 21
457.367604
 31
0.0
  0
LINE
  8
LC-003-005-----0
  6
CONTINUOUS
  5
293
 10
392.423143
 20
453.276567
 30
0.0
 11
388.423096
 21
457.276615
 31
0.0
  0
LINE
  8
LC-003-005-----0
  6
CONTINUOUS
  5
294
 10
392.423143
 20
450.44814
 30
0.0
 11
388.421632
 21
454.449651
 31
0.0
  0
LINE
  8
LC-003-005-----0
  6
CONTINUOUS
  5
295
 10
392.423143
 20
447.619713
 30
0.0
 11
388.420168
 21
451.622688
 31
0.0
  0
LINE
  8
LC-003-005-----0
  6
CONTINUOUS
  5
296
 10
392.423143
 20
444.791286
 30
0.0
 11
388.418704
 21
448.795725
 31
0.0
  0
LINE
  8
LC-003-005-----0
  6
CONTINUOUS
  5
297
 10
392.343198
 20
442.042804
 30
0.0
 11
388.41724
 21
445.968762
 31
0.0
  0
LINE
  8
LC-003-005-----0
  6
CONTINUOUS
  5
298
 10
392.182231
 20
439.375344
 30
0.0
 11
388.403011
 21
443.154564
 31
0.0
  0
LINE
  8
LC-003-005-----0
  6
CONTINUOUS
  5
299
 10
392.021263
 20
436.707884
 30
0.0
 11
388.242043
 21
440.487104
 31
0.0
  0
LINE
  8
LC-003-005-----0
  6
CONTINUOUS
  5
29A
 10
391.860296
 20
434.040425
 30
0.0
 11
388.081076
 21
437.819645
 31
0.0
  0
LINE
  8
LC-003-005-----0
  6
CONTINUOUS
  5
29B
 10
391.699328
 20
431.372965
 30
0.0
 11
387.920108
 21
435.152185
 31
0.0
  0
LINE
  8
LC-003-005-----0
  6
CONTINUOUS
  5
29C
 10
391.538361
 20
428.705505
 30
0.0
 11
387.759141
 21
432.484725
 31
0.0
  0
LINE
  8
LC-003-005-----0
  6
CONTINUOUS
  5
29D
 10
391.377394
 20
426.038045
 30
0.0
 11
387.598174
 21
429.817265
 31
0.0
  0
LINE
  8
LC-003-005-----0
  6
CONTINUOUS
  5
29E
 10
391.216426
 20
423.370586
 30
0.0
 11
387.437206
 21
427.149806
 31
0.0
  0
LINE
  8
LC-003-005-----0
  6
CONTINUOUS
  5
29F
 10
391.055459
 20
420.703126
 30
0.0
 11
387.276239
 21
424.482346
 31
0.0
  0
LINE
  8
LC-003-005-----0
  6
CONTINUOUS
  5
2A0
 10
390.894491
 20
418.035666
 30
0.0
 11
387.115271
 21
421.814886
 31
0.0
  0
LINE
  8
LC-003-005-----0
  6
CONTINUOUS
  5
2A1
 10
390.733524
 20
415.368207
 30
0.0
 11
386.954304
 21
419.147427
 31
0.0
  0
LINE
  8
LC-003-005-----0
  6
CONTINUOUS
  5
2A2
 10
390.572557
 20
412.700747
 30
0.0
 11
386.793337
 21
416.479967
 31
0.0
  0
LINE
  8
LC-003-005-----0
  6
CONTINUOUS
  5
2A3
 10
390.411589
 20
410.033287
 30
0.0
 11
386.632369
 21
413.812507
 31
0.0
  0
LINE
  8
LC-003-005-----0
  6
CONTINUOUS
  5
2A4
 10
390.250622
 20
407.365827
 30
0.0
 11
386.471402
 21
411.145047
 31
0.0
  0
LINE
  8
LC-003-005-----0
  6
CONTINUOUS
  5
2A5
 10
390.089654
 20
404.698368
 30
0.0
 11
386.310434
 21
408.477588
 31
0.0
  0
LINE
  8
LC-003-005-----0
  6
CONTINUOUS
  5
2A6
 10
389.928687
 20
402.030908
 30
0.0
 11
386.149467
 21
405.810128
 31
0.0
  0
LINE
  8
LC-003-005-----0
  6
CONTINUOUS
  5
2A7
 10
389.76772
 20
399.363448
 30
0.0
 11
385.9885
 21
403.142668
 31
0.0
  0
LINE
  8
LC-003-005-----0
  6
CONTINUOUS
  5
2A8
 10
389.606752
 20
396.695988
 30
0.0
 11
385.827532
 21
400.475208
 31
0.0
  0
LINE
  8
LC-003-005-----0
  6
CONTINUOUS
  5
2A9
 10
389.445785
 20
394.028529
 30
0.0
 11
385.666565
 21
397.807749
 31
0.0
  0
LINE
  8
LC-003-005-----0
  6
CONTINUOUS
  5
2AA
 10
389.284817
 20
391.361069
 30
0.0
 11
385.505597
 21
395.140289
 31
0.0
  0
LINE
  8
LC-003-005-----0
  6
CONTINUOUS
  5
2AB
 10
389.12385
 20
388.693609
 30
0.0
 11
385.34463
 21
392.472829
 31
0.0
  0
LINE
  8
LC-003-005-----0
  6
CONTINUOUS
  5
2AC
 10
388.962883
 20
386.02615
 30
0.0
 11
385.183663
 21
389.80537
 31
0.0
  0
LINE
  8
LC-003-005-----0
  6
CONTINUOUS
  5
2AD
 10
388.801915
 20
383.35869
 30
0.0
 11
385.022695
 21
387.13791
 31
0.0
  0
LINE
  8
LC-003-005-----0
  6
CONTINUOUS
  5
2AE
 10
388.640948
 20
380.69123
 30
0.0
 11
384.861728
 21
384.47045
 31
0.0
  0
LINE
  8
LC-003-005-----0
  6
CONTINUOUS
  5
2AF
 10
388.47998
 20
378.02377
 30
0.0
 11
384.70076
 21
381.80299
 31
0.0
  0
LINE
  8
LC-003-005-----0
  6
CONTINUOUS
  5
2B0
 10
388.319013
 20
375.356311
 30
0.0
 11
384.539793
 21
379.135531
 31
0.0
  0
LINE
  8
LC-003-005-----0
  6
CONTINUOUS
  5
2B1
 10
388.158046
 20
372.688851
 30
0.0
 11
384.378826
 21
376.468071
 31
0.0
  0
LINE
  8
LC-003-005-----0
  6
CONTINUOUS
  5
2B2
 10
387.997078
 20
370.021391
 30
0.0
 11
384.217858
 21
373.800611
 31
0.0
  0
LINE
  8
LC-003-005-----0
  6
CONTINUOUS
  5
2B3
 10
387.836111
 20
367.353931
 30
0.0
 11
384.056891
 21
371.133151
 31
0.0
  0
LINE
  8
LC-003-005-----0
  6
CONTINUOUS
  5
2B4
 10
387.675143
 20
364.686472
 30
0.0
 11
383.895923
 21
368.465692
 31
0.0
  0
LINE
  8
LC-003-005-----0
  6
CONTINUOUS
  5
2B5
 10
387.514176
 20
362.019012
 30
0.0
 11
383.734956
 21
365.798232
 31
0.0
  0
LINE
  8
LC-003-005-----0
  6
CONTINUOUS
  5
2B6
 10
387.353209
 20
359.351552
 30
0.0
 11
383.573989
 21
363.130772
 31
0.0
  0
LINE
  8
LC-003-005-----0
  6
CONTINUOUS
  5
2B7
 10
387.192241
 20
356.684093
 30
0.0
 11
383.413021
 21
360.463313
 31
0.0
  0
LINE
  8
LC-003-005-----0
  6
CONTINUOUS
  5
2B8
 10
387.031274
 20
354.016633
 30
0.0
 11
383.252054
 21
357.795853
 31
0.0
  0
LINE
  8
LC-003-005-----0
  6
CONTINUOUS
  5
2B9
 10
386.870306
 20
351.349173
 30
0.0
 11
383.091086
 21
355.128393
 31
0.0
  0
LINE
  8
LC-003-005-----0
  6
CONTINUOUS
  5
2BA
 10
386.709339
 20
348.681713
 30
0.0
 11
382.930119
 21
352.460933
 31
0.0
  0
LINE
  8
LC-003-005-----0
  6
CONTINUOUS
  5
2BB
 10
386.548372
 20
346.014254
 30
0.0
 11
382.769152
 21
349.793474
 31
0.0
  0
LINE
  8
LC-003-005-----0
  6
CONTINUOUS
  5
2BC
 10
386.387404
 20
343.346794
 30
0.0
 11
382.608184
 21
347.126014
 31
0.0
  0
LINE
  8
LC-003-005-----0
  6
CONTINUOUS
  5
2BD
 10
386.226437
 20
340.679334
 30
0.0
 11
382.447217
 21
344.458554
 31
0.0
  0
LINE
  8
LC-003-005-----0
  6
CONTINUOUS
  5
2BE
 10
386.065469
 20
338.011874
 30
0.0
 11
382.286249
 21
341.791094
 31
0.0
  0
LINE
  8
LC-003-005-----0
  6
CONTINUOUS
  5
2BF
 10
385.904502
 20
335.344415
 30
0.0
 11
382.125282
 21
339.123635
 31
0.0
  0
LINE
  8
LC-003-005-----0
  6
CONTINUOUS
  5
2C0
 10
385.743535
 20
332.676955
 30
0.0
 11
381.964315
 21
336.456175
 31
0.0
  0
LINE
  8
LC-003-005-----0
  6
CONTINUOUS
  5
2C1
 10
385.582567
 20
330.009495
 30
0.0
 11
381.803347
 21
333.788715
 31
0.0
  0
LINE
  8
LC-003-005-----0
  6
CONTINUOUS
  5
2C2
 10
384.757683
 20
328.005953
 30
0.0
 11
381.64238
 21
331.121256
 31
0.0
  0
LINE
  8
LC-003-005-----0
  6
CONTINUOUS
  5
2C3
 10
383.722406
 20
326.212802
 30
0.0
 11
380.794203
 21
329.141005
 31
0.0
  0
LINE
  8
LC-003-005-----0
  6
CONTINUOUS
  5
2C4
 10
382.68713
 20
324.419651
 30
0.0
 11
379.739177
 21
327.367604
 31
0.0
  0
LINE
  8
LC-003-005-----0
  6
CONTINUOUS
  5
2C5
 10
380.91075
 20
323.367604
 30
0.0
 11
376.91075
 21
327.367604
 31
0.0
  0
LINE
  8
LC-003-005-----0
  6
CONTINUOUS
  5
2C6
 10
378.082323
 20
323.367604
 30
0.0
 11
374.082323
 21
327.367604
 31
0.0
  0
LINE
  8
LC-003-005-----0
  6
CONTINUOUS
  5
2C7
 10
375.253895
 20
323.367604
 30
0.0
 11
371.253895
 21
327.367604
 31
0.0
  0
LINE
  8
LC-003-005-----0
  6
CONTINUOUS
  5
2C8
 10
372.425468
 20
323.367604
 30
0.0
 11
368.425468
 21
327.367604
 31
0.0
  0
LINE
  8
LC-003-005-----0
  6
CONTINUOUS
  5
2C9
 10
369.597041
 20
323.367604
 30
0.0
 11
365.597041
 21
327.367604
 31
0.0
  0
LINE
  8
LC-003-005-----0
  6
CONTINUOUS
  5
2CA
 10
366.768614
 20
323.367604
 30
0.0
 11
362.768614
 21
327.367604
 31
0.0
  0
LINE
  8
LC-003-005-----0
  6
CONTINUOUS
  5
2CB
 10
363.940187
 20
323.367604
 30
0.0
 11
359.940187
 21
327.367604
 31
0.0
  0
LINE
  8
LC-003-005-----0
  6
CONTINUOUS
  5
2CC
 10
361.11176
 20
323.367604
 30
0.0
 11
357.11176
 21
327.367604
 31
0.0
  0
LINE
  8
LC-003-005-----0
  6
CONTINUOUS
  5
2CD
 10
358.283333
 20
323.367604
 30
0.0
 11
354.283333
 21
327.367604
 31
0.0
  0
LINE
  8
LC-003-005-----0
  6
CONTINUOUS
  5
2CE
 10
357.423143
 20
321.399367
 30
0.0
 11
353.423143
 21
325.399367
 31
0.0
  0
LINE
  8
LC-003-005-----0
  6
CONTINUOUS
  5
2CF
 10
357.423143
 20
318.57094
 30
0.0
 11
353.423143
 21
322.57094
 31
0.0
  0
LINE
  8
LC-003-005-----0
  6
CONTINUOUS
  5
2D0
 10
357.423143
 20
315.742513
 30
0.0
 11
353.423143
 21
319.742513
 31
0.0
  0
LINE
  8
LC-003-005-----0
  6
CONTINUOUS
  5
2D1
 10
357.423143
 20
312.914086
 30
0.0
 11
353.423143
 21
316.914086
 31
0.0
  0
LINE
  8
LC-003-005-----0
  6
CONTINUOUS
  5
2D2
 10
357.423143
 20
310.085659
 30
0.0
 11
353.423143
 21
314.085659
 31
0.0
  0
LINE
  8
LC-003-005-----0
  6
CONTINUOUS
  5
2D3
 10
357.423143
 20
307.257232
 30
0.0
 11
353.423143
 21
311.257232
 31
0.0
  0
LINE
  8
LC-003-005-----0
  6
CONTINUOUS
  5
2D4
 10
357.423143
 20
304.428804
 30
0.0
 11
353.423143
 21
308.428804
 31
0.0
  0
LINE
  8
LC-003-005-----0
  6
CONTINUOUS
  5
2D5
 10
357.423143
 20
301.600377
 30
0.0
 11
353.423143
 21
305.600377
 31
0.0
  0
LINE
  8
LC-003-005-----0
  6
CONTINUOUS
  5
2D6
 10
357.423143
 20
298.77195
 30
0.0
 11
353.423143
 21
302.77195
 31
0.0
  0
LINE
  8
LC-003-005-----0
  6
CONTINUOUS
  5
2D7
 10
357.423143
 20
295.943523
 30
0.0
 11
353.423143
 21
299.943523
 31
0.0
  0
LINE
  8
LC-003-005-----0
  6
CONTINUOUS
  5
2D8
 10
357.423143
 20
293.115096
 30
0.0
 11
353.423143
 21
297.115096
 31
0.0
  0
LINE
  8
LC-003-005-----0
  6
CONTINUOUS
  5
2D9
 10
357.423143
 20
290.286669
 30
0.0
 11
353.423143
 21
294.286669
 31
0.0
  0
LINE
  8
LC-003-005-----0
  6
CONTINUOUS
  5
2DA
 10
357.423143
 20
287.458242
 30
0.0
 11
353.423143
 21
291.458242
 31
0.0
  0
LINE
  8
LC-003-005-----0
  6
CONTINUOUS
  5
2DB
 10
357.423143
 20
284.629815
 30
0.0
 11
353.423143
 21
288.629815
 31
0.0
  0
LINE
  8
LC-003-005-----0
  6
CONTINUOUS
  5
2DC
 10
357.423143
 20
281.801387
 30
0.0
 11
353.423143
 21
285.801387
 31
0.0
  0
LINE
  8
LC-003-005-----0
  6
CONTINUOUS
  5
2DD
 10
357.423143
 20
278.97296
 30
0.0
 11
353.423143
 21
282.97296
 31
0.0
  0
LINE
  8
LC-003-005-----0
  6
CONTINUOUS
  5
2DE
 10
357.423143
 20
276.144533
 30
0.0
 11
353.423143
 21
280.144533
 31
0.0
  0
LINE
  8
LC-003-005-----0
  6
CONTINUOUS
  5
2DF
 10
357.423143
 20
273.316106
 30
0.0
 11
353.423143
 21
277.316106
 31
0.0
  0
LINE
  8
LC-003-005-----0
  6
CONTINUOUS
  5
2E0
 10
357.423143
 20
270.487679
 30
0.0
 11
353.423143
 21
274.487679
 31
0.0
  0
LINE
  8
LC-003-005-----0
  6
CONTINUOUS
  5
2E1
 10
357.423143
 20
267.659252
 30
0.0
 11
353.423143
 21
271.659252
 31
0.0
  0
LINE
  8
LC-003-005-----0
  6
CONTINUOUS
  5
2E2
 10
357.204045
 20
265.049922
 30
0.0
 11
353.423143
 21
268.830825
 31
0.0
  0
LINE
  8
LC-003-005-----0
  6
CONTINUOUS
  5
2E3
 10
356.606329
 20
262.819212
 30
0.0
 11
353.423143
 21
266.002398
 31
0.0
  0
LINE
  8
LC-003-005-----0
  6
CONTINUOUS
  5
2E4
 10
355.229509
 20
261.367604
 30
0.0
 11
353.423143
 21
263.17397
 31
0.0
  0
ENDBLK
  8
0
  5
2E5
  0
BLOCK
  8
0
  5
2E7
  2
*D22
 70
    65
 10
0.0
 20
0.0
 30
0.0
  3
*D22
  0
LINE
  8
LC-005-003-MTH-0
  6
CONTINUOUS
  5
2E8
 10
247.423143
 20
265.867604
 30
0.0
 11
247.423143
 21
189.2
 31
0.0
  0
LINE
  8
LC-005-003-MTH-0
  6
CONTINUOUS
  5
2E9
 10
357.423143
 20
265.867604
 30
0.0
 11
357.423143
 21
189.2
 31
0.0
  0
LINE
  8
LC-006-003-MTG-0
  6
CONTINUOUS
  5
2EA
 10
247.423143
 20
200.0
 30
0.0
 11
357.423143
 21
200.0
 31
0.0
  0
LINE
  8
LC-004-003-----0
  6
CONTINUOUS
  5
2EB
 10
265.26915
 20
202.349471
 30
0.0
 11
247.423143
 21
200.0
 31
0.0
  0
LINE
  8
LC-004-003-----0
  6
CONTINUOUS
  5
2EC
 10
247.423143
 20
200.0
 30
0.0
 11
265.26915
 21
197.650529
 31
0.0
  0
LINE
  8
LC-004-003-----0
  6
CONTINUOUS
  5
2ED
 10
265.26915
 20
197.650529
 30
0.0
 11
265.26915
 21
202.349471
 31
0.0
  0
LINE
  8
LC-004-003-----0
  6
CONTINUOUS
  5
2EE
 10
265.309188
 20
201.738609
 30
0.0
 11
252.103143
 21
200.0
 31
0.0
  0
LINE
  8
LC-004-003-----0
  6
CONTINUOUS
  5
2EF
 10
252.103143
 20
200.0
 30
0.0
 11
265.309188
 21
198.261391
 31
0.0
  0
LINE
  8
LC-004-003-----0
  6
CONTINUOUS
  5
2F0
 10
265.349226
 20
201.127746
 30
0.0
 11
256.783143
 21
200.0
 31
0.0
  0
LINE
  8
LC-004-003-----0
  6
CONTINUOUS
  5
2F1
 10
256.783143
 20
200.0
 30
0.0
 11
265.349226
 21
198.872254
 31
0.0
  0
LINE
  8
LC-004-003-----0
  6
CONTINUOUS
  5
2F2
 10
265.389264
 20
200.516884
 30
0.0
 11
261.463143
 21
200.0
 31
0.0
  0
LINE
  8
LC-004-003-----0
  6
CONTINUOUS
  5
2F3
 10
261.463143
 20
200.0
 30
0.0
 11
265.389264
 21
199.483116
 31
0.0
  0
LINE
  8
LC-004-003-----0
  6
CONTINUOUS
  5
2F4
 10
339.577135
 20
197.650529
 30
0.0
 11
357.423143
 21
200.0
 31
0.0
  0
LINE
  8
LC-004-003-----0
  6
CONTINUOUS
  5
2F5
 10
357.423143
 20
200.0
 30
0.0
 11
339.577135
 21
202.349471
 31
0.0
  0
LINE
  8
LC-004-003-----0
  6
CONTINUOUS
  5
2F6
 10
339.577135
 20
202.349471
 30
0.0
 11
339.577135
 21
197.650529
 31
0.0
  0
LINE
  8
LC-004-003-----0
  6
CONTINUOUS
  5
2F7
 10
339.537097
 20
198.261391
 30
0.0
 11
352.743143
 21
200.0
 31
0.0
  0
LINE
  8
LC-004-003-----0
  6
CONTINUOUS
  5
2F8
 10
352.743143
 20
200.0
 30
0.0
 11
339.537097
 21
201.738609
 31
0.0
  0
LINE
  8
LC-004-003-----0
  6
CONTINUOUS
  5
2F9
 10
339.497059
 20
198.872254
 30
0.0
 11
348.063143
 21
200.0
 31
0.0
  0
LINE
  8
LC-004-003-----0
  6
CONTINUOUS
  5
2FA
 10
348.063143
 20
200.0
 30
0.0
 11
339.497059
 21
201.127746
 31
0.0
  0
LINE
  8
LC-004-003-----0
  6
CONTINUOUS
  5
2FB
 10
339.457021
 20
199.483116
 30
0.0
 11
343.383143
 21
200.0
 31
0.0
  0
LINE
  8
LC-004-003-----0
  6
CONTINUOUS
  5
2FC
 10
343.383143
 20
200.0
 30
0.0
 11
339.457021
 21
200.516884
 31
0.0
  0
TEXT
  8
LC-004-003-----0
  6
CONTINUOUS
 62
     6
  5
2FD
 10
270.406115
 20
210.431999
 30
0.0
 40
18.0
  1
DN100
 51
15.0
  7
LC-TXTSTYLE-150-400-0-0-D0
 72
     1
 11
304.081706
 21
210.431999
 31
0.0
  0
ENDBLK
  8
0
  5
2FE
  0
BLOCK
  8
0
  5
300
  2
*D23
 70
    65
 10
0.0
 20
0.0
 30
0.0
  3
*D23
  0
LINE
  8
LC-005-003-MTH-0
  6
CONTINUOUS
  5
301
 10
190.923143
 20
535.367604
 30
0.0
 11
190.923143
 21
570.8
 31
0.0
  0
LINE
  8
LC-005-003-MTH-0
  6
CONTINUOUS
  5
302
 10
413.923143
 20
535.367604
 30
0.0
 11
413.923143
 21
570.8
 31
0.0
  0
LINE
  8
LC-006-003-MTG-0
  6
CONTINUOUS
  5
303
 10
190.923143
 20
560.0
 30
0.0
 11
413.923143
 21
560.0
 31
0.0
  0
LINE
  8
LC-004-003-----0
  6
CONTINUOUS
  5
304
 10
208.76915
 20
562.349471
 30
0.0
 11
190.923143
 21
560.0
 31
0.0
  0
LINE
  8
LC-004-003-----0
  6
CONTINUOUS
  5
305
 10
190.923143
 20
560.0
 30
0.0
 11
208.76915
 21
557.650529
 31
0.0
  0
LINE
  8
LC-004-003-----0
  6
CONTINUOUS
  5
306
 10
208.76915
 20
557.650529
 30
0.0
 11
208.76915
 21
562.349471
 31
0.0
  0
LINE
  8
LC-004-003-----0
  6
CONTINUOUS
  5
307
 10
208.809188
 20
561.738609
 30
0.0
 11
195.603143
 21
560.0
 31
0.0
  0
LINE
  8
LC-004-003-----0
  6
CONTINUOUS
  5
308
 10
195.603143
 20
560.0
 30
0.0
 11
208.809188
 21
558.261391
 31
0.0
  0
LINE
  8
LC-004-003-----0
  6
CONTINUOUS
  5
309
 10
208.849226
 20
561.127746
 30
0.0
 11
200.283143
 21
560.0
 31
0.0
  0
LINE
  8
LC-004-003-----0
  6
CONTINUOUS
  5
30A
 10
200.283143
 20
560.0
 30
0.0
 11
208.849226
 21
558.872254
 31
0.0
  0
LINE
  8
LC-004-003-----0
  6
CONTINUOUS
  5
30B
 10
208.889264
 20
560.516884
 30
0.0
 11
204.963143
 21
560.0
 31
0.0
  0
LINE
  8
LC-004-003-----0
  6
CONTINUOUS
  5
30C
 10
204.963143
 20
560.0
 30
0.0
 11
208.889264
 21
559.483116
 31
0.0
  0
LINE
  8
LC-004-003-----0
  6
CONTINUOUS
  5
30D
 10
396.077135
 20
557.650529
 30
0.0
 11
413.923143
 21
560.0
 31
0.0
  0
LINE
  8
LC-004-003-----0
  6
CONTINUOUS
  5
30E
 10
413.923143
 20
560.0
 30
0.0
 11
396.077135
 21
562.349471
 31
0.0
  0
LINE
  8
LC-004-003-----0
  6
CONTINUOUS
  5
30F
 10
396.077135
 20
562.349471
 30
0.0
 11
396.077135
 21
557.650529
 31
0.0
  0
LINE
  8
LC-004-003-----0
  6
CONTINUOUS
  5
310
 10
396.037097
 20
558.261391
 30
0.0
 11
409.243143
 21
560.0
 31
0.0
  0
LINE
  8
LC-004-003-----0
  6
CONTINUOUS
  5
311
 10
409.243143
 20
560.0
 30
0.0
 11
396.037097
 21
561.738609
 31
0.0
  0
LINE
  8
LC-004-003-----0
  6
CONTINUOUS
  5
312
 10
395.997059
 20
558.872254
 30
0.0
 11
404.563143
 21
560.0
 31
0.0
  0
LINE
  8
LC-004-003-----0
  6
CONTINUOUS
  5
313
 10
404.563143
 20
560.0
 30
0.0
 11
395.997059
 21
561.127746
 31
0.0
  0
LINE
  8
LC-004-003-----0
  6
CONTINUOUS
  5
314
 10
395.957021
 20
559.483116
 30
0.0
 11
399.883143
 21
560.0
 31
0.0
  0
LINE
  8
LC-004-003-----0
  6
CONTINUOUS
  5
315
 10
399.883143
 20
560.0
 30
0.0
 11
395.957021
 21
560.516884
 31
0.0
  0
TEXT
  8
LC-004-003-----0
  6
CONTINUOUS
 62
     6
  5
316
 10
286.08453
 20
570.431999
 30
0.0
 40
18.0
  1
226
 51
15.0
  7
LC-TXTSTYLE-150-400-0-0-D0
 72
     1
 11
305.218389
 21
570.431999
 31
0.0
  0
ENDBLK
  8
0
  5
317
  0
BLOCK
  8
0
  5
319
  2
*D24
 70
    65
 10
0.0
 20
0.0
 30
0.0
  3
*D24
  0
LINE
  8
LC-005-003-MTH-0
  6
CONTINUOUS
  5
31A
 10
356.217371
 20
261.367604
 30
0.0
 11
514.8
 21
261.367604
 31
0.0
  0
LINE
  8
LC-005-003-MTH-0
  6
CONTINUOUS
  5
31B
 10
382.079731
 20
323.367604
 30
0.0
 11
514.8
 21
323.367604
 31
0.0
  0
LINE
  8
LC-006-003-MTG-0
  6
CONTINUOUS
  5
31C
 10
504.0
 20
261.367604
 30
0.0
 11
504.0
 21
323.367604
 31
0.0
  0
LINE
  8
LC-004-003-----0
  6
CONTINUOUS
  5
31D
 10
501.650529
 20
279.213612
 30
0.0
 11
504.0
 21
261.367604
 31
0.0
  0
LINE
  8
LC-004-003-----0
  6
CONTINUOUS
  5
31E
 10
504.0
 20
261.367604
 30
0.0
 11
506.349471
 21
279.213612
 31
0.0
  0
LINE
  8
LC-004-003-----0
  6
CONTINUOUS
  5
31F
 10
506.349471
 20
279.213612
 30
0.0
 11
501.650529
 21
279.213612
 31
0.0
  0
LINE
  8
LC-004-003-----0
  6
CONTINUOUS
  5
320
 10
502.261391
 20
279.25365
 30
0.0
 11
504.0
 21
266.047604
 31
0.0
  0
LINE
  8
LC-004-003-----0
  6
CONTINUOUS
  5
321
 10
504.0
 20
266.047604
 30
0.0
 11
505.738609
 21
279.25365
 31
0.0
  0
LINE
  8
LC-004-003-----0
  6
CONTINUOUS
  5
322
 10
502.872254
 20
279.293688
 30
0.0
 11
504.0
 21
270.727604
 31
0.0
  0
LINE
  8
LC-004-003-----0
  6
CONTINUOUS
  5
323
 10
504.0
 20
270.727604
 30
0.0
 11
505.127746
 21
279.293688
 31
0.0
  0
LINE
  8
LC-004-003-----0
  6
CONTINUOUS
  5
324
 10
503.483116
 20
279.333726
 30
0.0
 11
504.0
 21
275.407604
 31
0.0
  0
LINE
  8
LC-004-003-----0
  6
CONTINUOUS
  5
325
 10
504.0
 20
275.407604
 30
0.0
 11
504.516884
 21
279.333726
 31
0.0
  0
LINE
  8
LC-004-003-----0
  6
CONTINUOUS
  5
326
 10
506.349471
 20
305.521597
 30
0.0
 11
504.0
 21
323.367604
 31
0.0
  0
LINE
  8
LC-004-003-----0
  6
CONTINUOUS
  5
327
 10
504.0
 20
323.367604
 30
0.0
 11
501.650529
 21
305.521597
 31
0.0
  0
LINE
  8
LC-004-003-----0
  6
CONTINUOUS
  5
328
 10
501.650529
 20
305.521597
 30
0.0
 11
506.349471
 21
305.521597
 31
0.0
  0
LINE
  8
LC-004-003-----0
  6
CONTINUOUS
  5
329
 10
505.738609
 20
305.481559
 30
0.0
 11
504.0
 21
318.687604
 31
0.0
  0
LINE
  8
LC-004-003-----0
  6
CONTINUOUS
  5
32A
 10
504.0
 20
318.687604
 30
0.0
 11
502.261391
 21
305.481559
 31
0.0
  0
LINE
  8
LC-004-003-----0
  6
CONTINUOUS
  5
32B
 10
505.127746
 20
305.441521
 30
0.0
 11
504.0
 21
314.007604
 31
0.0
  0
LINE
  8
LC-004-003-----0
  6
CONTINUOUS
  5
32C
 10
504.0
 20
314.007604
 30
0.0
 11
502.872254
 21
305.441521
 31
0.0
  0
LINE
  8
LC-004-003-----0
  6
CONTINUOUS
  5
32D
 10
504.516884
 20
305.401483
 30
0.0
 11
504.0
 21
309.327604
 31
0.0
  0
LINE
  8
LC-004-003-----0
  6
CONTINUOUS
  5
32E
 10
504.0
 20
309.327604
 30
0.0
 11
503.483116
 21
305.401483
 31
0.0
  0
TEXT
  8
LC-004-003-----0
  6
CONTINUOUS
 62
     6
  5
32F
 10
493.568001
 20
283.299858
 30
0.0
 40
18.0
  1
62
 50
90.0
 51
15.0
  7
LC-TXTSTYLE-150-400-0-0-D0
 72
     1
 11
493.568001
 21
295.16285
 31
0.0
  0
ENDBLK
  8
0
  5
330
  0
BLOCK
  8
0
  5
332
  2
BLK1
 70
    64
 10
0.0
 20
0.0
 30
0.0
  3
BLK1
  0
ENDBLK
  8
0
  5
333
  0
BLOCK
  8
0
  5
335
  2
*X26
 70
    65
 10
237.420884
 20
501.367604
 30
0.0
  3
*X26
  0
LINE
  8
LC-003-005-----0
  6
CONTINUOUS
  5
336
 10
367.219774
 20
529.391624
 30
0.0
 11
361.243794
 21
535.367604
 31
0.0
  0
LINE
  8
LC-003-005-----0
  6
CONTINUOUS
  5
337
 10
367.078924
 20
526.704047
 30
0.0
 11
358.415367
 21
535.367604
 31
0.0
  0
LINE
  8
LC-003-005-----0
  6
CONTINUOUS
  5
338
 10
366.797224
 20
521.328893
 30
0.0
 11
352.758513
 21
535.367604
 31
0.0
  0
LINE
  8
LC-003-005-----0
  6
CONTINUOUS
  5
339
 10
366.656374
 20
518.641316
 30
0.0
 11
349.930086
 21
535.367604
 31
0.0
  0
LINE
  8
LC-003-005-----0
  6
CONTINUOUS
  5
33A
 10
364.586877
 20
515.053958
 30
0.0
 11
344.273231
 21
535.367604
 31
0.0
  0
LINE
  8
LC-003-005-----0
  6
CONTINUOUS
  5
33B
 10
363.551019
 20
513.26139
 30
0.0
 11
341.444804
 21
535.367604
 31
0.0
  0
LINE
  8
LC-003-005-----0
  6
CONTINUOUS
  5
33C
 10
358.955194
 20
512.20036
 30
0.0
 11
335.78795
 21
535.367604
 31
0.0
  0
LINE
  8
LC-003-005-----0
  6
CONTINUOUS
  5
33D
 10
356.657282
 20
511.669845
 30
0.0
 11
332.959523
 21
535.367604
 31
0.0
  0
LINE
  8
LC-003-005-----0
  6
CONTINUOUS
  5
33E
 10
352.061458
 20
510.608816
 30
0.0
 11
327.302669
 21
535.367604
 31
0.0
  0
LINE
  8
LC-003-005-----0
  6
CONTINUOUS
  5
33F
 10
349.763545
 20
510.078301
 30
0.0
 11
324.474242
 21
535.367604
 31
0.0
  0
LINE
  8
LC-003-005-----0
  6
CONTINUOUS
  5
340
 10
345.167721
 20
509.017271
 30
0.0
 11
318.817387
 21
535.367604
 31
0.0
  0
LINE
  8
LC-003-005-----0
  6
CONTINUOUS
  5
341
 10
342.869808
 20
508.486756
 30
0.0
 11
315.98896
 21
535.367604
 31
0.0
  0
LINE
  8
LC-003-005-----0
  6
CONTINUOUS
  5
342
 10
338.273984
 20
507.425726
 30
0.0
 11
310.332106
 21
535.367604
 31
0.0
  0
LINE
  8
LC-003-005-----0
  6
CONTINUOUS
  5
343
 10
335.976072
 20
506.895212
 30
0.0
 11
307.503679
 21
535.367604
 31
0.0
  0
LINE
  8
LC-003-005-----0
  6
CONTINUOUS
  5
344
 10
331.380247
 20
505.834182
 30
0.0
 11
301.846825
 21
535.367604
 31
0.0
  0
LINE
  8
LC-003-005-----0
  6
CONTINUOUS
  5
345
 10
329.082335
 20
505.303667
 30
0.0
 11
299.018397
 21
535.367604
 31
0.0
  0
LINE
  8
LC-003-005-----0
  6
CONTINUOUS
  5
346
 10
324.48651
 20
504.242637
 30
0.0
 11
293.361543
 21
535.367604
 31
0.0
  0
LINE
  8
LC-003-005-----0
  6
CONTINUOUS
  5
347
 10
322.188598
 20
503.712122
 30
0.0
 11
290.533116
 21
535.367604
 31
0.0
  0
LINE
  8
LC-003-005-----0
  6
CONTINUOUS
  5
348
 10
317.592773
 20
502.651093
 30
0.0
 11
284.876262
 21
535.367604
 31
0.0
  0
LINE
  8
LC-003-005-----0
  6
CONTINUOUS
  5
349
 10
315.294861
 20
502.120578
 30
0.0
 11
282.047835
 21
535.367604
 31
0.0
  0
LINE
  8
LC-003-005-----0
  6
CONTINUOUS
  5
34A
 10
310.39098
 20
501.367604
 30
0.0
 11
276.39098
 21
535.367604
 31
0.0
  0
LINE
  8
LC-003-005-----0
  6
CONTINUOUS
  5
34B
 10
307.562553
 20
501.367604
 30
0.0
 11
273.562553
 21
535.367604
 31
0.0
  0
LINE
  8
LC-003-005-----0
  6
CONTINUOUS
  5
34C
 10
301.905699
 20
501.367604
 30
0.0
 11
267.905699
 21
535.367604
 31
0.0
  0
LINE
  8
LC-003-005-----0
  6
CONTINUOUS
  5
34D
 10
299.077272
 20
501.367604
 30
0.0
 11
265.077272
 21
535.367604
 31
0.0
  0
LINE
  8
LC-003-005-----0
  6
CONTINUOUS
  5
34E
 10
293.420418
 20
501.367604
 30
0.0
 11
259.420418
 21
535.367604
 31
0.0
  0
LINE
  8
LC-003-005-----0
  6
CONTINUOUS
  5
34F
 10
289.923164
 20
502.036431
 30
0.0
 11
256.591991
 21
535.367604
 31
0.0
  0
LINE
  8
LC-003-005-----0
  6
CONTINUOUS
  5
350
 10
282.568307
 20
503.734433
 30
0.0
 11
250.935136
 21
535.367604
 31
0.0
  0
LINE
  8
LC-003-005-----0
  6
CONTINUOUS
  5
351
 10
278.890879
 20
504.583435
 30
0.0
 11
248.106709
 21
535.367604
 31
0.0
  0
LINE
  8
LC-003-005-----0
  6
CONTINUOUS
  5
352
 10
271.536022
 20
506.281437
 30
0.0
 11
242.449855
 21
535.367604
 31
0.0
  0
LINE
  8
LC-003-005-----0
  6
CONTINUOUS
  5
353
 10
267.858594
 20
507.130438
 30
0.0
 11
239.621428
 21
535.367604
 31
0.0
  0
LINE
  8
LC-003-005-----0
  6
CONTINUOUS
  5
354
 10
260.503737
 20
508.828441
 30
0.0
 11
237.49853
 21
531.833648
 31
0.0
  0
LINE
  8
LC-003-005-----0
  6
CONTINUOUS
  5
355
 10
256.826309
 20
509.677442
 30
0.0
 11
237.65496
 21
528.848791
 31
0.0
  0
LINE
  8
LC-003-005-----0
  6
CONTINUOUS
  5
356
 10
249.471452
 20
511.375445
 30
0.0
 11
237.967819
 21
522.879077
 31
0.0
  0
LINE
  8
LC-003-005-----0
  6
CONTINUOUS
  5
357
 10
245.794024
 20
512.224446
 30
0.0
 11
238.124249
 21
519.89422
 31
0.0
  0
ENDBLK
  8
0
  5
358
  0
BLOCK
  8
0
  5
35A
  2
*X27
 70
    65
 10
397.425402
 20
515.367604
 30
0.0
  3
*X27
  0
LINE
  8
LC-003-005-----0
  6
CONTINUOUS
  5
35B
 10
413.913443
 20
533.609644
 30
0.0
 11
412.170182
 21
535.352905
 31
0.0
  0
LINE
  8
LC-003-005-----0
  6
CONTINUOUS
  5
35C
 10
413.660372
 20
528.205861
 30
0.0
 11
406.498628
 21
535.367604
 31
0.0
  0
LINE
  8
LC-003-005-----0
  6
CONTINUOUS
  5
35D
 10
413.519522
 20
525.518283
 30
0.0
 11
403.670201
 21
535.367604
 31
0.0
  0
LINE
  8
LC-003-005-----0
  6
CONTINUOUS
  5
35E
 10
413.237822
 20
520.143129
 30
0.0
 11
398.336052
 21
535.044899
 31
0.0
  0
LINE
  8
LC-003-005-----0
  6
CONTINUOUS
  5
35F
 10
413.096972
 20
517.455552
 30
0.0
 11
397.435806
 21
533.116718
 31
0.0
  0
LINE
  8
LC-003-005-----0
  6
CONTINUOUS
  5
360
 10
409.528065
 20
515.367604
 30
0.0
 11
397.748665
 21
527.147005
 31
0.0
  0
LINE
  8
LC-003-005-----0
  6
CONTINUOUS
  5
361
 10
406.699638
 20
515.367604
 30
0.0
 11
397.905095
 21
524.162148
 31
0.0
  0
LINE
  8
LC-003-005-----0
  6
CONTINUOUS
  5
362
 10
401.042784
 20
515.367604
 30
0.0
 11
398.217954
 21
518.192434
 31
0.0
  0
ENDBLK
  8
0
  5
363
  0
BLOCK
  8
0
  5
365
  2
*X28
 70
    65
 10
190.925402
 20
515.367604
 30
0.0
  3
*X28
  0
LINE
  8
LC-003-005-----0
  6
CONTINUOUS
  5
366
 10
203.218261
 20
529.344364
 30
0.0
 11
197.195021
 21
535.367604
 31
0.0
  0
LINE
  8
LC-003-005-----0
  6
CONTINUOUS
  5
367
 10
203.077411
 20
526.656787
 30
0.0
 11
194.366594
 21
535.367604
 31
0.0
  0
LINE
  8
LC-003-005-----0
  6
CONTINUOUS
  5
368
 10
202.795711
 20
521.281633
 30
0.0
 11
190.934433
 21
533.142911
 31
0.0
  0
LINE
  8
LC-003-005-----0
  6
CONTINUOUS
  5
369
 10
202.654861
 20
518.594055
 30
0.0
 11
191.090863
 21
530.158054
 31
0.0
  0
LINE
  8
LC-003-005-----0
  6
CONTINUOUS
  5
36A
 10
200.224458
 20
515.367604
 30
0.0
 11
191.403722
 21
524.188341
 31
0.0
  0
LINE
  8
LC-003-005-----0
  6
CONTINUOUS
  5
36B
 10
197.396031
 20
515.367604
 30
0.0
 11
191.560152
 21
521.203484
 31
0.0
  0
ENDBLK
  8
0
  5
36C
  0
ENDSEC
  0
SECTION
  2
ENTITIES
  0
VIEWPORT
  8
LC-000
  5
494
 67
     1
 68
     1
 10
420.0
 20
297.0
 30
0.0
 40
840.0
 41
594.0
 69
     1
1001
ACAD
1000
MVIEW
1002
{
1070
    16
1010
0.0
1020
0.0
1030
0.0
1010
0.0
1020
0.0
1030
1.0
1040
0.0
1040
594.0
1040
420.0
1040
297.0
1040
50.0
1040
0.0
1040
0.0
1070
     0
1070
   100
1070
     1
1070
     1
1070
     0
1070
     0
1070
     0
1070
     0
1040
0.0
1040
0.0
1040
0.0
1040
1.0
1040
1.0
1040
0.0
1040
0.0
1070
     0
1002
{
1002
}
1002
}
  0
VIEWPORT
  8
0
  5
495
 67
     1
 68
     1
 10
0.0
 20
0.0
 30
0.0
 40
0.0
 41
0.0
 69
     1
1001
ACAD
1000
MVIEW
1002
{
1070
    16
1010
0.0
1020
0.0
1030
0.0
1010
0.0
1020
0.0
1030
1.0
1040
0.0
1040
594.0
1040
0.0
1040
0.0
1040
50.0
1040
0.0
1040
0.0
1070
     0
1070
   100
1070
     0
1070
     1
1070
     0
1070
     0
1070
     0
1070
     0
1040
0.0
1040
0.0
1040
0.0
1040
0.5
1040
0.5
1040
0.5
1040
0.5
1070
     0
1002
{
1002
}
1002
}
  0
INSERT
  8
0
  5
36D
  2
*X0
 10
384.423143
 20
447.51495
 30
0.0
  0
INSERT
  8
0
  5
36E
  2
*X1
 10
216.423143
 20
447.51495
 30
0.0
  0
INSERT
  8
0
  5
36F
  2
*X2
 10
213.423143
 20
349.603127
 30
0.0
  0
INSERT
  8
0
  5
370
  2
*X3
 10
302.423143
 20
347.743302
 30
0.0
  0
INSERT
  8
0
  5
371
  2
*X4
 10
302.423143
 20
347.446377
 30
0.0
  0
INSERT
  8
0
  5
372
  2
*X5
 10
287.545263
 20
410.441046
 30
0.0
  0
INSERT
  8
0
  5
373
  2
*X6
 10
291.773017
 20
423.542918
 30
0.0
  0
INSERT
  8
0
  5
374
  2
*X7
 10
302.423143
 20
440.539845
 30
0.0
  0
INSERT
  8
0
  5
375
  2
*X8
 10
287.545263
 20
431.544911
 30
0.0
  0
INSERT
  8
0
  5
376
  2
*X9
 10
205.423143
 20
498.942854
 30
0.0
  0
INSERT
  8
0
  5
377
  2
*X10
 10
229.67924
 20
451.268428
 30
0.0
  0
INSERT
  8
0
  5
378
  2
*X11
 10
289.423143
 20
449.377154
 30
0.0
  0
INSERT
  8
0
  5
379
  2
*X12
 10
374.552646
 20
498.942854
 30
0.0
  0
INSERT
  8
0
  5
37A
  2
*X13
 10
319.423143
 20
451.268428
 30
0.0
  0
INSERT
  8
0
  5
37B
  2
*X14
 10
302.423143
 20
449.377154
 30
0.0
  0
DIMENSION
  8
0
  5
37C
  2
*D15
 10
293.858045
 20
160.0
 30
0.0
 11
293.858045
 21
160.0
 31
0.0
  1
%%c166
 13
219.302453
 23
329.367604
 33
0.0
 14
385.543832
 24
329.367604
 34
0.0
  3
LC-DIM-L-0090-02-02
  0
DIMENSION
  8
0
  5
37D
  2
*D16
 10
480.0
 20
560.674605
 30
0.0
 11
480.0
 21
560.674605
 31
0.0
  1
24
 13
424.423143
 23
535.367604
 33
0.0
 14
415.423143
 24
511.367604
 34
0.0
 50
90.0
  3
LC-DIM-L-0090-02-02
  0
DIMENSION
  8
0
  5
37E
  2
*D17
 10
504.0
 20
429.367604
 30
0.0
 11
504.0
 21
429.367604
 31
0.0
  1
213
 13
424.423143
 23
535.367604
 33
0.0
 14
383.113742
 24
323.367604
 34
0.0
 50
90.0
  3
LC-DIM-L-0090-02-02
  0
DIMENSION
  8
0
  5
37F
  2
*D18
 10
309.545345
 20
600.0
 30
0.0
 11
309.545345
 21
600.0
 31
0.0
 13
180.423143
 23
535.367604
 33
0.0
 14
424.423143
 24
535.367604
 34
0.0
  3
LC-DIM-L-0090-02-02
  0
INSERT
  8
0
  5
380
  2
*X19
 10
180.423143
 20
261.367604
 30
0.0
  0
DIMENSION
  8
0
  5
381
  2
*D20
 10
293.858045
 20
120.0
 30
0.0
 11
293.858045
 21
120.0
 31
0.0
  1
%%c<>
 13
212.423143
 23
443.367604
 33
0.0
 14
392.423143
 24
443.367604
 34
0.0
  3
LC-DIM-L-0090-02-02
  0
INSERT
  8
0
  5
382
  2
*X21
 10
353.423143
 20
261.367604
 30
0.0
  0
DIMENSION
  8
0
  5
383
  2
*D22
 10
301.28646
 20
200.0
 30
0.0
 11
301.28646
 21
200.0
 31
0.0
  1
DN100
 13
247.423143
 23
265.867604
 33
0.0
 14
357.423143
 24
265.867604
 34
0.0
  3
LC-DIM-L-0090-02-02
  0
DIMENSION
  8
0
  5
384
  2
*D23
 10
302.423143
 20
560.0
 30
0.0
 11
302.423143
 21
560.0
 31
0.0
  1
226
 13
190.923143
 23
535.367604
 33
0.0
 14
413.923143
 24
535.367604
 34
0.0
  3
LC-DIM-L-0090-02-02
  0
DIMENSION
  8
0
  5
385
  2
*D24
 10
504.0
 20
292.367604
 30
0.0
 11
504.0
 21
292.367604
 31
0.0
 13
382.079731
 23
323.367604
 33
0.0
 14
356.217371
 24
261.367604
 34
0.0
 50
90.0
  3
LC-DIM-L-0090-02-02
  0
INSERT
  8
0
  5
387
  2
BLK1
 10
0.0
 20
0.0
 30
0.0
  0
INSERT
  8
0
  5
388
  2
*X26
 10
237.420884
 20
501.367604
 30
0.0
  0
INSERT
  8
0
  5
389
  2
*X27
 10
397.425402
 20
515.367604
 30
0.0
  0
INSERT
  8
0
  5
38A
  2
*X28
 10
190.925402
 20
515.367604
 30
0.0
  0
LINE
  8
LC-001-002-----0
  6
CONTINUOUS
  5
38C
 10
222.923143
 20
455.867604
 30
0.0
 11
217.923143
 21
460.867604
 31
0.0
  0
ARC
  8
LC-002-002-RND-0
  6
CONTINUOUS
  5
38E
 10
214.923143
 20
459.367604
 30
0.0
 40
1.5
 50
90.0
 51
180.0
  0
ARC
  8
LC-002-002-RND-0
  6
CONTINUOUS
  5
38F
 10
214.923143
 20
459.367604
 30
0.0
 40
1.5
 50
180.0
 51
270.0
  0
LINE
  8
LC-001-002-----0
  6
CONTINUOUS
  5
390
 10
222.923143
 20
455.867604
 30
0.0
 11
222.923143
 21
444.998587
 31
0.0
  0
LINE
  8
LC-001-002-----0
  6
CONTINUOUS
  5
391
 10
219.923143
 20
444.867604
 30
0.0
 11
225.423733
 21
381.995572
 31
0.0
  0
LINE
  8
LC-001-002-----0
  6
CONTINUOUS
  5
392
 10
222.923143
 20
444.998587
 30
0.0
 11
228.412317
 21
382.257039
 31
0.0
  0
ARC
  8
LC-001-002-----0
  6
CONTINUOUS
  5
393
 10
218.423143
 20
451.220258
 30
0.0
 40
2.0
 50
0.0
 51
180.0
  0
ARC
  8
LC-001-002-----0
  6
CONTINUOUS
  5
394
 10
218.423143
 20
449.51495
 30
0.0
 40
2.0
 50
180.0
 51
0.0
  0
LINE
  8
LC-001-002-----0
  6
CONTINUOUS
  5
395
 10
217.173143
 20
447.294542
 30
0.0
 11
217.173143
 21
444.867604
 31
0.0
  0
LINE
  8
LC-001-002-----0
  6
CONTINUOUS
  5
396
 10
220.423143
 20
447.867604
 30
0.0
 11
217.173143
 21
447.294542
 31
0.0
  0
LINE
  8
LC-001-002-----0
  6
CONTINUOUS
  5
397
 10
220.423143
 20
449.51495
 30
0.0
 11
220.423143
 21
447.867604
 31
0.0
  0
LINE
  8
LC-001-002-----0
  6
CONTINUOUS
  5
398
 10
220.423143
 20
452.867604
 30
0.0
 11
220.423143
 21
451.220258
 31
0.0
  0
LINE
  8
LC-001-002-----0
  6
CONTINUOUS
  5
399
 10
220.423143
 20
452.867604
 30
0.0
 11
217.173143
 21
453.440667
 31
0.0
  0
ARC
  8
LC-002-002-RND-0
  6
CONTINUOUS
  5
39A
 10
250.3286
 20
384.174466
 30
0.0
 40
25.0
 50
185.0
 51
260.0
  0
ARC
  8
LC-002-002-RND-0
  6
CONTINUOUS
  5
39B
 10
250.3286
 20
384.174466
 30
0.0
 40
22.0
 50
185.0
 51
260.0
  0
LINE
  8
LC-001-002-----0
  6
CONTINUOUS
  5
39C
 10
245.987396
 20
359.554272
 30
0.0
 11
312.970733
 21
347.743302
 31
0.0
  0
LINE
  8
LC-001-002-----0
  6
CONTINUOUS
  5
39D
 10
246.50834
 20
362.508695
 30
0.0
 11
312.416356
 21
350.887334
 31
0.0
  0
LINE
  8
LC-001-002-----0
  6
CONTINUOUS
  5
39E
 10
316.97763
 20
348.054145
 30
0.0
 11
301.349294
 21
436.686843
 31
0.0
  0
LINE
  8
LC-001-002-----0
  6
CONTINUOUS
  5
39F
 10
313.530803
 20
347.446377
 30
0.0
 11
297.902467
 21
436.079075
 31
0.0
  0
LINE
  8
LC-001-002-----0
  6
CONTINUOUS
  5
3A0
 10
313.530803
 20
347.446377
 30
0.0
 11
316.97763
 21
348.054145
 31
0.0
  0
LINE
  8
LC-001-002-----0
  6
CONTINUOUS
  5
3A1
 10
389.923143
 20
460.867604
 30
0.0
 11
382.923143
 21
460.867604
 31
0.0
  0
ARC
  8
LC-002-002-RND-0
  6
CONTINUOUS
  5
3A2
 10
389.923143
 20
459.367604
 30
0.0
 40
1.5
 50
0.0
 51
90.0
  0
ARC
  8
LC-002-002-RND-0
  6
CONTINUOUS
  5
3A3
 10
389.923143
 20
459.367604
 30
0.0
 40
1.5
 50
270.0
 51
0.0
  0
LINE
  8
LC-001-002-----0
  6
CONTINUOUS
  5
3A4
 10
384.423143
 20
452.867604
 30
0.0
 11
387.673143
 21
453.440667
 31
0.0
  0
LINE
  8
LC-001-002-----0
  6
CONTINUOUS
  5
3A5
 10
384.423143
 20
452.867604
 30
0.0
 11
384.423143
 21
447.867604
 31
0.0
  0
ARC
  8
LC-001-002-----0
  6
CONTINUOUS
  5
3A6
 10
386.423143
 20
451.220258
 30
0.0
 40
2.0
 50
0.0
 51
180.0
  0
ARC
  8
LC-001-002-----0
  6
CONTINUOUS
  5
3A7
 10
386.423143
 20
449.51495
 30
0.0
 40
2.0
 50
180.0
 51
0.0
  0
LINE
  8
LC-001-002-----0
  6
CONTINUOUS
  5
3A8
 10
387.673143
 20
447.294542
 30
0.0
 11
387.673143
 21
444.867604
 31
0.0
  0
LINE
  8
LC-001-002-----0
  6
CONTINUOUS
  5
3A9
 10
381.923143
 20
455.867604
 30
0.0
 11
381.923143
 21
447.710381
 31
0.0
  0
LINE
  8
LC-001-002-----0
  6
CONTINUOUS
  5
3AA
 10
381.923143
 20
455.867604
 30
0.0
 11
386.923143
 21
460.867604
 31
0.0
  0
LINE
  8
LC-001-002-----0
  6
CONTINUOUS
  5
3AB
 10
291.784906
 20
429.356666
 30
0.0
 11
299.322151
 21
428.027646
 31
0.0
  0
LINE
  8
LC-001-002-----0
  6
CONTINUOUS
  5
3AC
 10
313.530803
 20
347.446377
 30
0.0
 11
297.902467
 21
436.079075
 31
0.0
  0
LINE
  8
LC-001-002-----0
  6
CONTINUOUS
  5
3AD
 10
316.97763
 20
348.054145
 30
0.0
 11
301.349294
 21
436.686843
 31
0.0
  0
ARC
  8
LC-001-002-----0
  6
CONTINUOUS
  5
3AE
 10
298.050731
 20
442.778523
 30
0.0
 40
8.333581
 50
254.215261
 51
270.960321
  0
ARC
  8
LC-001-002-----0
  6
CONTINUOUS
  5
3AF
 10
297.445371
 20
441.445019
 30
0.0
 40
9.900108
 50
257.247905
 51
277.211487
  0
ARC
  8
LC-001-002-----0
  6
DASHED
 62
     2
  5
3B1
 10
297.445371
 20
441.445019
 30
0.0
 40
9.900108
 50
277.211487
 51
297.751064
  0
ARC
  8
LC-001-002-----0
  6
DASHED
 62
     2
  5
3B2
 10
298.050731
 20
442.778523
 30
0.0
 40
8.333581
 50
270.960321
 51
295.240372
  0
CIRCLE
  8
LC-001-002-----0
  6
CONTINUOUS
  5
3B3
 10
299.62588
 20
436.382959
 30
0.0
 40
1.75
  0
LINE
  8
LC-001-002-----0
  6
DASHDOT
 62
     2
  5
3B5
 10
297.93551
 20
435.930026
 30
0.0
 11
301.31625
 21
436.835892
 31
0.0
  0
LINE
  8
LC-001-002-----0
  6
DASHDOT
 62
     2
  5
3B6
 10
299.172947
 20
438.073329
 30
0.0
 11
300.078814
 21
434.692589
 31
0.0
  0
ARC
  8
LC-001-002-----0
  6
CONTINUOUS
  5
3B7
 10
298.050731
 20
442.778523
 30
0.0
 40
8.333581
 50
295.240372
 51
330.42979
  0
ARC
  8
LC-001-002-----0
  6
CONTINUOUS
  5
3B8
 10
297.445371
 20
441.445019
 30
0.0
 40
9.900108
 50
297.751064
 51
340.960298
  0
ARC
  8
LC-002-002-RND-0
  6
CONTINUOUS
  5
3B9
 10
306.033837
 20
438.288639
 30
0.0
 40
0.75
 50
339.820923
 51
85.0
  0
ARC
  8
LC-002-002-RND-0
  6
CONTINUOUS
  5
3BA
 10
305.95119
 20
438.29587
 30
0.0
 40
0.75
 50
85.0
 51
150.42979
  0
LINE
  8
LC-001-002-----0
  6
CONTINUOUS
  5
3BB
 10
384.423143
 20
447.867604
 30
0.0
 11
387.673143
 21
447.294542
 31
0.0
  0
LINE
  8
LC-001-002-----0
  6
CONTINUOUS
  5
3BC
 10
305.95119
 20
439.04587
 30
0.0
 11
306.099204
 21
439.035785
 31
0.0
  0
LINE
  8
LC-001-002-----0
  6
CONTINUOUS
  5
3BD
 10
295.246219
 20
431.779956
 30
0.0
 11
298.770078
 21
431.158604
 31
0.0
  0
LINE
  8
LC-001-002-----0
  6
CONTINUOUS
  5
3BE
 10
388.423143
 20
451.220258
 30
0.0
 11
388.423143
 21
449.51495
 31
0.0
  0
LINE
  8
LC-001-002-----0
  6
CONTINUOUS
  5
3BF
 10
247.423143
 20
323.367604
 30
0.0
 11
247.423143
 21
265.867604
 31
0.0
  0
LINE
  8
LC-001-002-----0
  6
CONTINUOUS
  5
3C0
 10
357.423143
 20
323.367604
 30
0.0
 11
357.423143
 21
265.867604
 31
0.0
  0
LINE
  8
LC-001-002-----0
  6
CONTINUOUS
  5
3C1
 10
353.423143
 20
327.367604
 30
0.0
 11
353.423143
 21
261.367604
 31
0.0
  0
LINE
  8
LC-001-002-----0
  6
CONTINUOUS
  5
3C2
 10
251.423143
 20
327.367604
 30
0.0
 11
251.423143
 21
261.367604
 31
0.0
  0
LINE
  8
LC-001-002-----0
  6
CONTINUOUS
  5
3C3
 10
212.423143
 20
453.367604
 30
0.0
 11
212.423143
 21
443.367604
 31
0.0
  0
LINE
  8
LC-001-002-----0
  6
CONTINUOUS
  5
3C4
 10
216.423143
 20
457.367604
 30
0.0
 11
216.423143
 21
443.367604
 31
0.0
  0
LINE
  8
LC-001-002-----0
  6
CONTINUOUS
  5
3C5
 10
392.423143
 20
453.367604
 30
0.0
 11
392.423143
 21
443.367604
 31
0.0
  0
LINE
  8
LC-001-002-----0
  6
CONTINUOUS
  5
3C6
 10
388.423143
 20
457.367604
 30
0.0
 11
388.423143
 21
443.367604
 31
0.0
  0
LINE
  8
LC-001-002-----0
  6
CONTINUOUS
  5
3C7
 10
212.423143
 20
453.367604
 30
0.0
 11
212.423143
 21
453.367604
 31
0.0
  0
ARC
  8
LC-002-002-RND-0
  6
CONTINUOUS
  5
3C8
 10
212.423143
 20
457.367604
 30
0.0
 40
4.0
 50
180.0
 51
270.0
  0
LINE
  8
LC-001-002-----0
  6
CONTINUOUS
  5
3C9
 10
392.423143
 20
453.367604
 30
0.0
 11
392.423143
 21
453.367604
 31
0.0
  0
ARC
  8
LC-002-002-RND-0
  6
CONTINUOUS
  5
3CA
 10
392.423143
 20
457.367604
 30
0.0
 40
4.0
 50
270.0
 51
0.0
  0
LINE
  8
LC-001-002-----0
  6
CONTINUOUS
  5
3CB
 10
199.923143
 20
511.367604
 30
0.0
 11
199.923143
 21
493.367604
 31
0.0
  0
ARC
  8
LC-002-002-RND-0
  6
CONTINUOUS
  5
3CC
 10
207.923143
 20
493.367604
 30
0.0
 40
8.0
 50
180.0
 51
270.0
  0
LINE
  8
LC-001-002-----0
  6
CONTINUOUS
  5
3CD
 10
207.923143
 20
485.367604
 30
0.0
 11
208.423143
 21
485.367604
 31
0.0
  0
LINE
  8
LC-001-002-----0
  6
CONTINUOUS
  5
3CE
 10
404.923143
 20
511.367604
 30
0.0
 11
404.923143
 21
493.367604
 31
0.0
  0
ARC
  8
LC-002-002-RND-0
  6
CONTINUOUS
  5
3CF
 10
396.923143
 20
493.367604
 30
0.0
 40
8.0
 50
270.0
 51
0.0
  0
LINE
  8
LC-001-002-----0
  6
CONTINUOUS
  5
3D0
 10
396.923143
 20
485.367604
 30
0.0
 11
396.423143
 21
485.367604
 31
0.0
  0
ARC
  8
LC-002-002-RND-0
  6
CONTINUOUS
  5
3D1
 10
207.923143
 20
493.367604
 30
0.0
 40
4.0
 50
180.0
 51
270.0
  0
LINE
  8
LC-001-002-----0
  6
CONTINUOUS
  5
3D2
 10
400.923143
 20
515.367604
 30
0.0
 11
400.923143
 21
493.367604
 31
0.0
  0
ARC
  8
LC-002-002-RND-0
  6
CONTINUOUS
  5
3D3
 10
396.923143
 20
493.367604
 30
0.0
 40
4.0
 50
270.0
 51
0.0
  0
LINE
  8
LC-001-002-----0
  6
CONTINUOUS
  5
3D4
 10
208.423143
 20
485.367604
 30
0.0
 11
208.423143
 21
457.367604
 31
0.0
  0
LINE
  8
LC-001-002-----0
  6
CONTINUOUS
  5
3D5
 10
396.423143
 20
485.367604
 30
0.0
 11
396.423143
 21
457.367604
 31
0.0
  0
LINE
  8
LC-001-002-----0
  6
DASHDOT
 62
     2
  5
3D6
 10
302.423143
 20
535.367604
 30
0.0
 11
302.423143
 21
261.367604
 31
0.0
  0
LINE
  8
LC-001-002-----0
  6
CONTINUOUS
  5
3D7
 10
180.423143
 20
535.367604
 30
0.0
 11
180.423143
 21
531.367604
 31
0.0
  0
LINE
  8
LC-001-002-----0
  6
CONTINUOUS
  5
3D8
 10
180.423143
 20
531.367604
 30
0.0
 11
184.423143
 21
531.367604
 31
0.0
  0
LINE
  8
LC-001-002-----0
  6
CONTINUOUS
  5
3D9
 10
188.423143
 20
535.367604
 30
0.0
 11
188.423143
 21
515.367604
 31
0.0
  0
LINE
  8
LC-001-002-----0
  6
CONTINUOUS
  5
3DA
 10
184.423143
 20
531.367604
 30
0.0
 11
184.423143
 21
516.367604
 31
0.0
  0
ARC
  8
LC-002-002-RND-0
  6
CONTINUOUS
  5
3DB
 10
189.423143
 20
516.367604
 30
0.0
 40
5.0
 50
180.0
 51
270.0
  0
LINE
  8
LC-001-002-----0
  6
CONTINUOUS
  5
3DC
 10
189.423143
 20
511.367604
 30
0.0
 11
199.923143
 21
511.367604
 31
0.0
  0
LINE
  8
LC-001-002-----0
  6
CONTINUOUS
  5
3DD
 10
424.423143
 20
535.367604
 30
0.0
 11
424.423143
 21
531.367604
 31
0.0
  0
LINE
  8
LC-001-002-----0
  6
CONTINUOUS
  5
3DE
 10
424.423143
 20
531.367604
 30
0.0
 11
420.423143
 21
531.367604
 31
0.0
  0
LINE
  8
LC-001-002-----0
  6
CONTINUOUS
  5
3DF
 10
420.423143
 20
531.367604
 30
0.0
 11
420.423143
 21
516.367604
 31
0.0
  0
LINE
  8
LC-001-002-----0
  6
CONTINUOUS
  5
3E0
 10
416.423143
 20
535.367604
 30
0.0
 11
416.423143
 21
515.367604
 31
0.0
  0
ARC
  8
LC-002-002-RND-0
  6
CONTINUOUS
  5
3E1
 10
415.423143
 20
516.367604
 30
0.0
 40
5.0
 50
270.0
 51
0.0
  0
LINE
  8
LC-001-002-----0
  6
CONTINUOUS
  5
3E2
 10
415.423143
 20
511.367604
 30
0.0
 11
404.923143
 21
511.367604
 31
0.0
  0
LINE
  8
LC-001-002-----0
  6
CONTINUOUS
  5
3E3
 10
188.423143
 20
515.367604
 30
0.0
 11
238.256664
 21
515.367604
 31
0.0
  0
LINE
  8
LC-001-002-----0
  6
CONTINUOUS
  5
3E4
 10
184.423143
 20
516.367604
 30
0.0
 11
184.423143
 21
511.367604
 31
0.0
  0
LINE
  8
LC-001-002-----0
  6
CONTINUOUS
  5
3E5
 10
184.423143
 20
511.367604
 30
0.0
 11
208.423143
 21
459.899438
 31
0.0
  0
LINE
  8
LC-001-002-----0
  6
CONTINUOUS
  5
3E6
 10
420.423143
 20
511.367604
 30
0.0
 11
396.423143
 21
459.899438
 31
0.0
  0
LINE
  8
LC-001-002-----0
  6
CONTINUOUS
  5
3E7
 10
420.423143
 20
516.367604
 30
0.0
 11
420.423143
 21
511.367604
 31
0.0
  0
LINE
  8
LC-001-002-----0
  6
CONTINUOUS
  5
3E8
 10
203.923143
 20
515.367604
 30
0.0
 11
203.923143
 21
493.367604
 31
0.0
  0
LINE
  8
LC-001-002-----0
  6
CONTINUOUS
  5
3E9
 10
216.423143
 20
451.220258
 30
0.0
 11
216.423143
 21
449.51495
 31
0.0
  0
LINE
  8
LC-001-002-----0
  6
CONTINUOUS
  5
3EA
 10
220.423143
 20
451.220258
 30
0.0
 11
220.423143
 21
449.51495
 31
0.0
  0
LINE
  8
LC-001-002-----0
  6
CONTINUOUS
  5
3EB
 10
381.923143
 20
447.710381
 30
0.0
 11
302.141703
 21
443.529213
 31
0.0
  0
ARC
  8
LC-002-002-RND-0
  6
CONTINUOUS
  5
3EC
 10
302.665063
 20
433.542918
 30
0.0
 40
10.0
 50
93.0
 51
170.0
  0
LINE
  8
LC-001-002-----0
  6
CONTINUOUS
  5
3ED
 10
291.773017
 20
429.358762
 30
0.0
 11
292.816985
 21
435.279399
 31
0.0
  0
LINE
  8
LC-001-002-----0
  6
CONTINUOUS
  5
3EE
 10
385.080151
 20
444.871716
 30
0.0
 11
302.298711
 21
440.533324
 31
0.0
  0
ARC
  8
LC-002-002-RND-0
  6
CONTINUOUS
  5
3EF
 10
302.665063
 20
433.542918
 30
0.0
 40
7.0
 50
93.0
 51
170.0
  0
LINE
  8
LC-001-002-----0
  6
CONTINUOUS
  5
3F0
 10
295.246219
 20
431.779956
 30
0.0
 11
295.771408
 21
434.758455
 31
0.0
  0
LINE
  8
LC-001-002-----0
  6
CONTINUOUS
  5
3F1
 10
312.970733
 20
347.743302
 30
0.0
 11
312.416356
 21
350.887334
 31
0.0
  0
LINE
  8
LC-001-002-----0
  6
CONTINUOUS
  5
3F2
 10
217.173143
 20
457.867604
 30
0.0
 11
217.173143
 21
453.440667
 31
0.0
  0
LINE
  8
LC-001-002-----0
  6
CONTINUOUS
  5
3F3
 10
214.923143
 20
457.867604
 30
0.0
 11
217.173143
 21
457.867604
 31
0.0
  0
LINE
  8
LC-001-002-----0
  6
CONTINUOUS
  5
3F4
 10
217.173143
 20
444.867604
 30
0.0
 11
219.923143
 21
444.867604
 31
0.0
  0
LINE
  8
LC-001-002-----0
  6
CONTINUOUS
  5
3F5
 10
387.673143
 20
457.867604
 30
0.0
 11
387.673143
 21
453.440667
 31
0.0
  0
LINE
  8
LC-001-002-----0
  6
CONTINUOUS
  5
3F6
 10
387.673143
 20
444.867604
 30
0.0
 11
385.001701
 21
444.867604
 31
0.0
  0
LINE
  8
LC-001-002-----0
  6
CONTINUOUS
  5
3F7
 10
387.673143
 20
457.867604
 30
0.0
 11
389.923143
 21
457.867604
 31
0.0
  0
LINE
  8
LC-001-002-----0
  6
CONTINUOUS
  5
3F8
 10
212.423143
 20
457.367604
 30
0.0
 11
216.423143
 21
457.367604
 31
0.0
  0
LINE
  8
LC-001-002-----0
  6
CONTINUOUS
  5
3F9
 10
388.423143
 20
457.367604
 30
0.0
 11
392.423143
 21
457.367604
 31
0.0
  0
LINE
  8
LC-001-002-----0
  6
CONTINUOUS
  5
3FA
 10
205.423143
 20
506.867604
 30
0.0
 11
227.423143
 21
504.942854
 31
0.0
  0
LINE
  8
LC-001-002-----0
  6
CONTINUOUS
  5
3FB
 10
205.423143
 20
509.377154
 30
0.0
 11
229.787377
 21
507.24556
 31
0.0
  0
LINE
  8
LC-001-002-----0
  6
CONTINUOUS
  5
3FC
 10
229.787377
 20
507.24556
 30
0.0
 11
267.359949
 21
507.24556
 31
0.0
  0
LINE
  8
LC-001-002-----0
  6
CONTINUOUS
  5
3FD
 10
227.788996
 20
498.942854
 30
0.0
 11
230.29364
 21
498.942854
 31
0.0
  0
LINE
  8
LC-001-002-----0
  6
CONTINUOUS
  5
3FE
 10
229.67924
 20
467.942854
 30
0.0
 11
232.183884
 21
467.942854
 31
0.0
  0
LINE
  8
LC-001-002-----0
  6
CONTINUOUS
  5
3FF
 10
227.423143
 20
504.942854
 30
0.0
 11
229.760504
 21
466.610136
 31
0.0
  0
LINE
  8
LC-001-002-----0
  6
CONTINUOUS
  5
400
 10
232.427786
 20
463.942854
 30
0.0
 11
229.760504
 21
466.610136
 31
0.0
  0
LINE
  8
LC-001-002-----0
  6
CONTINUOUS
  5
401
 10
247.423143
 20
265.867604
 30
0.0
 11
248.628914
 21
261.367604
 31
0.0
  0
LINE
  8
LC-001-002-----0
  6
CONTINUOUS
  5
402
 10
357.423143
 20
265.867604
 30
0.0
 11
356.217371
 21
261.367604
 31
0.0
  0
LINE
  8
LC-001-002-----0
  6
CONTINUOUS
  5
403
 10
248.628914
 20
261.367604
 30
0.0
 11
356.217371
 21
261.367604
 31
0.0
  0
LINE
  8
LC-001-002-----0
  6
CONTINUOUS
  5
404
 10
232.183884
 20
467.942854
 30
0.0
 11
234.851166
 21
465.275571
 31
0.0
  0
LINE
  8
LC-001-002-----0
  6
CONTINUOUS
  5
405
 10
229.787377
 20
507.24556
 30
0.0
 11
232.183884
 21
467.942854
 31
0.0
  0
LINE
  8
LC-001-002-----0
  6
CONTINUOUS
  5
406
 10
232.418508
 20
467.942854
 30
0.0
 11
232.418508
 21
467.877154
 31
0.0
  0
LINE
  8
LC-001-002-----0
  6
CONTINUOUS
  5
407
 10
234.851166
 20
465.275571
 30
0.0
 11
234.954991
 21
463.572841
 31
0.0
  0
LINE
  8
LC-001-002-----0
  6
CONTINUOUS
  5
408
 10
239.089239
 20
456.423141
 30
0.0
 11
302.423143
 21
449.377154
 31
0.0
  0
LINE
  8
LC-001-002-----0
  6
CONTINUOUS
  5
409
 10
239.391439
 20
458.907972
 30
0.0
 11
302.423143
 21
451.877154
 31
0.0
  0
ARC
  8
LC-002-002-RND-0
  6
CONTINUOUS
  5
40A
 10
239.918508
 20
463.877154
 30
0.0
 40
7.5
 50
180.0
 51
263.651867
  0
ARC
  8
LC-002-002-RND-0
  6
CONTINUOUS
  5
40B
 10
239.945722
 20
463.877154
 30
0.0
 40
5.0
 50
183.489325
 51
263.635301
  0
LINE
  8
LC-001-002-----0
  6
CONTINUOUS
  5
40C
 10
285.423143
 20
453.773404
 30
0.0
 11
285.423143
 21
451.268428
 31
0.0
  0
LINE
  8
LC-001-002-----0
  6
CONTINUOUS
  5
40D
 10
289.423143
 20
453.327228
 30
0.0
 11
289.423143
 21
450.823422
 31
0.0
  0
LINE
  8
LC-001-002-----0
  6
CONTINUOUS
  5
40E
 10
234.851166
 20
465.275571
 30
0.0
 11
302.423143
 21
465.275571
 31
0.0
  0
LINE
  8
LC-001-002-----0
  6
CONTINUOUS
  5
40F
 10
295.423143
 20
498.942854
 30
0.0
 11
295.423143
 21
467.942854
 31
0.0
  0
LINE
  8
LC-001-002-----0
  6
CONTINUOUS
  5
410
 10
283.423143
 20
498.942854
 30
0.0
 11
283.423143
 21
467.942854
 31
0.0
  0
LINE
  8
LC-001-002-----0
  6
CONTINUOUS
  5
411
 10
271.423143
 20
498.942854
 30
0.0
 11
271.423143
 21
467.942854
 31
0.0
  0
LINE
  8
LC-001-002-----0
  6
CONTINUOUS
  5
412
 10
261.423143
 20
498.942854
 30
0.0
 11
261.423143
 21
467.942854
 31
0.0
  0
LINE
  8
LC-001-002-----0
  6
CONTINUOUS
  5
413
 10
251.423143
 20
498.942854
 30
0.0
 11
251.423143
 21
467.942854
 31
0.0
  0
LINE
  8
LC-001-002-----0
  6
CONTINUOUS
  5
414
 10
242.423143
 20
498.942854
 30
0.0
 11
242.423143
 21
467.942854
 31
0.0
  0
LINE
  8
LC-001-002-----0
  6
CONTINUOUS
  5
415
 10
241.423143
 20
498.942854
 30
0.0
 11
241.423143
 21
467.942854
 31
0.0
  0
LINE
  8
LC-001-002-----0
  6
CONTINUOUS
  5
416
 10
281.423143
 20
498.942854
 30
0.0
 11
281.423143
 21
467.942854
 31
0.0
  0
LINE
  8
LC-001-002-----0
  6
CONTINUOUS
  5
417
 10
259.923143
 20
498.942854
 30
0.0
 11
259.923143
 21
467.942854
 31
0.0
  0
LINE
  8
LC-001-002-----0
  6
CONTINUOUS
  5
418
 10
234.423143
 20
498.942854
 30
0.0
 11
242.423143
 21
498.942854
 31
0.0
  0
LINE
  8
LC-001-002-----0
  6
CONTINUOUS
  5
419
 10
251.423143
 20
498.942854
 30
0.0
 11
261.423143
 21
498.942854
 31
0.0
  0
LINE
  8
LC-001-002-----0
  6
CONTINUOUS
  5
41A
 10
295.423143
 20
498.942854
 30
0.0
 11
302.423143
 21
498.942854
 31
0.0
  0
LINE
  8
LC-001-002-----0
  6
CONTINUOUS
  5
41B
 10
271.423143
 20
498.942854
 30
0.0
 11
283.423143
 21
498.942854
 31
0.0
  0
LINE
  8
LC-001-002-----0
  6
CONTINUOUS
  5
41C
 10
295.423143
 20
467.942854
 30
0.0
 11
302.423143
 21
467.942854
 31
0.0
  0
LINE
  8
LC-001-002-----0
  6
CONTINUOUS
  5
41D
 10
271.423143
 20
467.942854
 30
0.0
 11
283.423143
 21
467.942854
 31
0.0
  0
LINE
  8
LC-001-002-----0
  6
CONTINUOUS
  5
41E
 10
251.423143
 20
467.942854
 30
0.0
 11
261.423143
 21
467.942854
 31
0.0
  0
LINE
  8
LC-001-002-----0
  6
CONTINUOUS
  5
41F
 10
234.423143
 20
498.942854
 30
0.0
 11
236.313387
 21
467.942854
 31
0.0
  0
LINE
  8
LC-001-002-----0
  6
CONTINUOUS
  5
420
 10
236.313387
 20
467.942854
 30
0.0
 11
242.423143
 21
467.942854
 31
0.0
  0
LINE
  8
LC-001-002-----0
  6
CONTINUOUS
  5
421
 10
205.423143
 20
509.377154
 30
0.0
 11
258.127
 21
509.377154
 31
0.0
  0
LINE
  8
LC-001-002-----0
  6
CONTINUOUS
  5
422
 10
399.423143
 20
509.377154
 30
0.0
 11
346.726545
 21
509.377154
 31
0.0
  0
LINE
  8
LC-001-002-----0
  6
CONTINUOUS
  5
423
 10
399.423143
 20
509.377154
 30
0.0
 11
399.423143
 21
506.867604
 31
0.0
  0
LINE
  8
LC-001-002-----0
  6
CONTINUOUS
  5
424
 10
375.058908
 20
507.24556
 30
0.0
 11
372.662402
 21
467.942854
 31
0.0
  0
LINE
  8
LC-001-002-----0
  6
CONTINUOUS
  5
425
 10
375.058908
 20
507.24556
 30
0.0
 11
337.493596
 21
507.24556
 31
0.0
  0
LINE
  8
LC-001-002-----0
  6
CONTINUOUS
  5
426
 10
375.167045
 20
467.942854
 30
0.0
 11
372.662402
 21
467.942854
 31
0.0
  0
LINE
  8
LC-001-002-----0
  6
CONTINUOUS
  5
427
 10
399.423143
 20
509.377154
 30
0.0
 11
375.058908
 21
507.24556
 31
0.0
  0
LINE
  8
LC-001-002-----0
  6
CONTINUOUS
  5
428
 10
399.423143
 20
506.867604
 30
0.0
 11
377.423143
 21
504.942854
 31
0.0
  0
LINE
  8
LC-001-002-----0
  6
CONTINUOUS
  5
429
 10
377.057289
 20
498.942854
 30
0.0
 11
374.552646
 21
498.942854
 31
0.0
  0
LINE
  8
LC-001-002-----0
  6
CONTINUOUS
  5
42A
 10
372.4185
 20
463.942854
 30
0.0
 11
375.085782
 21
466.610136
 31
0.0
  0
LINE
  8
LC-001-002-----0
  6
CONTINUOUS
  5
42B
 10
369.99512
 20
465.275571
 30
0.0
 11
302.423143
 21
465.275571
 31
0.0
  0
LINE
  8
LC-001-002-----0
  6
CONTINUOUS
  5
42C
 10
377.423143
 20
504.942854
 30
0.0
 11
375.085782
 21
466.610136
 31
0.0
  0
LINE
  8
LC-001-002-----0
  6
CONTINUOUS
  5
42D
 10
369.99512
 20
465.275571
 30
0.0
 11
369.891295
 21
463.572841
 31
0.0
  0
LINE
  8
LC-001-002-----0
  6
CONTINUOUS
  5
42E
 10
372.662402
 20
467.942854
 30
0.0
 11
369.99512
 21
465.275571
 31
0.0
  0
LINE
  8
LC-001-002-----0
  6
CONTINUOUS
  5
42F
 10
315.423143
 20
453.327228
 30
0.0
 11
315.423143
 21
450.823422
 31
0.0
  0
ARC
  8
LC-002-002-RND-0
  6
CONTINUOUS
  5
430
 10
364.927777
 20
463.877154
 30
0.0
 40
7.5
 50
276.348133
 51
0.0
  0
LINE
  8
LC-001-002-----0
  6
CONTINUOUS
  5
431
 10
372.427777
 20
467.942854
 30
0.0
 11
372.427777
 21
467.877154
 31
0.0
  0
ARC
  8
LC-002-002-RND-0
  6
CONTINUOUS
  5
432
 10
364.900564
 20
463.877154
 30
0.0
 40
5.0
 50
276.364699
 51
356.510675
  0
LINE
  8
LC-001-002-----0
  6
CONTINUOUS
  5
433
 10
319.423143
 20
453.773404
 30
0.0
 11
319.423143
 21
451.268428
 31
0.0
  0
LINE
  8
LC-001-002-----0
  6
CONTINUOUS
  5
434
 10
365.757047
 20
456.423141
 30
0.0
 11
302.423143
 21
449.377154
 31
0.0
  0
LINE
  8
LC-001-002-----0
  6
CONTINUOUS
  5
435
 10
368.532899
 20
467.942854
 30
0.0
 11
362.423143
 21
467.942854
 31
0.0
  0
LINE
  8
LC-001-002-----0
  6
CONTINUOUS
  5
436
 10
365.454847
 20
458.907972
 30
0.0
 11
302.423143
 21
451.877154
 31
0.0
  0
LINE
  8
LC-001-002-----0
  6
CONTINUOUS
  5
437
 10
370.423143
 20
498.942854
 30
0.0
 11
362.423143
 21
498.942854
 31
0.0
  0
LINE
  8
LC-001-002-----0
  6
CONTINUOUS
  5
438
 10
309.423143
 20
498.942854
 30
0.0
 11
309.423143
 21
467.942854
 31
0.0
  0
LINE
  8
LC-001-002-----0
  6
CONTINUOUS
  5
439
 10
321.423143
 20
498.942854
 30
0.0
 11
321.423143
 21
467.942854
 31
0.0
  0
LINE
  8
LC-001-002-----0
  6
CONTINUOUS
  5
43A
 10
333.423143
 20
498.942854
 30
0.0
 11
333.423143
 21
467.942854
 31
0.0
  0
LINE
  8
LC-001-002-----0
  6
CONTINUOUS
  5
43B
 10
343.423143
 20
498.942854
 30
0.0
 11
343.423143
 21
467.942854
 31
0.0
  0
LINE
  8
LC-001-002-----0
  6
CONTINUOUS
  5
43C
 10
353.423143
 20
498.942854
 30
0.0
 11
353.423143
 21
467.942854
 31
0.0
  0
LINE
  8
LC-001-002-----0
  6
CONTINUOUS
  5
43D
 10
362.423143
 20
498.942854
 30
0.0
 11
362.423143
 21
467.942854
 31
0.0
  0
LINE
  8
LC-001-002-----0
  6
CONTINUOUS
  5
43E
 10
363.423143
 20
498.942854
 30
0.0
 11
363.423143
 21
467.942854
 31
0.0
  0
LINE
  8
LC-001-002-----0
  6
CONTINUOUS
  5
43F
 10
344.923143
 20
498.942854
 30
0.0
 11
344.923143
 21
467.942854
 31
0.0
  0
LINE
  8
LC-001-002-----0
  6
CONTINUOUS
  5
440
 10
323.423143
 20
498.942854
 30
0.0
 11
323.423143
 21
467.942854
 31
0.0
  0
LINE
  8
LC-001-002-----0
  6
CONTINUOUS
  5
441
 10
353.423143
 20
498.942854
 30
0.0
 11
343.423143
 21
498.942854
 31
0.0
  0
LINE
  8
LC-001-002-----0
  6
CONTINUOUS
  5
442
 10
333.423143
 20
498.942854
 30
0.0
 11
321.423143
 21
498.942854
 31
0.0
  0
LINE
  8
LC-001-002-----0
  6
CONTINUOUS
  5
443
 10
309.423143
 20
498.942854
 30
0.0
 11
302.423143
 21
498.942854
 31
0.0
  0
LINE
  8
LC-001-002-----0
  6
CONTINUOUS
  5
444
 10
309.423143
 20
467.942854
 30
0.0
 11
302.423143
 21
467.942854
 31
0.0
  0
LINE
  8
LC-001-002-----0
  6
CONTINUOUS
  5
445
 10
333.423143
 20
467.942854
 30
0.0
 11
321.423143
 21
467.942854
 31
0.0
  0
LINE
  8
LC-001-002-----0
  6
CONTINUOUS
  5
446
 10
353.423143
 20
467.942854
 30
0.0
 11
343.423143
 21
467.942854
 31
0.0
  0
LINE
  8
LC-001-002-----0
  6
CONTINUOUS
  5
447
 10
370.423143
 20
498.942854
 30
0.0
 11
368.532899
 21
467.942854
 31
0.0
  0
LINE
  8
LC-001-002-----0
  6
CONTINUOUS
  5
448
 10
205.423143
 20
509.377154
 30
0.0
 11
205.423143
 21
491.367604
 31
0.0
  0
ARC
  8
LC-002-002-RND-0
  6
CONTINUOUS
  5
449
 10
206.923143
 20
491.367604
 30
0.0
 40
1.5
 50
180.0
 51
270.0
  0
ARC
  8
LC-002-002-RND-0
  6
CONTINUOUS
  5
44A
 10
210.974884
 20
491.367604
 30
0.0
 40
1.5
 50
270.0
 51
345.0
  0
LINE
  8
LC-001-002-----0
  6
CONTINUOUS
  5
44B
 10
216.423143
 20
505.905229
 30
0.0
 11
212.423772
 21
490.979376
 31
0.0
  0
ARC
  8
LC-002-002-RND-0
  6
CONTINUOUS
  5
44C
 10
397.923143
 20
491.367604
 30
0.0
 40
1.5
 50
270.0
 51
0.0
  0
ARC
  8
LC-002-002-RND-0
  6
CONTINUOUS
  5
44D
 10
393.871402
 20
491.367604
 30
0.0
 40
1.5
 50
195.0
 51
270.0
  0
LINE
  8
LC-001-002-----0
  6
CONTINUOUS
  5
44E
 10
388.423143
 20
505.905229
 30
0.0
 11
392.422513
 21
490.979376
 31
0.0
  0
LINE
  8
LC-001-002-----0
  6
CONTINUOUS
  5
44F
 10
399.423143
 20
506.867604
 30
0.0
 11
399.423143
 21
491.367604
 31
0.0
  0
LINE
  8
LC-001-002-----0
  6
CONTINUOUS
  5
450
 10
392.423143
 20
489.367604
 30
0.0
 11
396.923143
 21
489.367604
 31
0.0
  0
LINE
  8
LC-001-002-----0
  6
CONTINUOUS
  5
451
 10
207.923143
 20
489.367604
 30
0.0
 11
212.423143
 21
489.367604
 31
0.0
  0
LINE
  8
LC-001-002-----0
  6
CONTINUOUS
  5
452
 10
212.423143
 20
489.367604
 30
0.0
 11
212.423143
 21
457.367604
 31
0.0
  0
LINE
  8
LC-001-002-----0
  6
CONTINUOUS
  5
453
 10
392.423143
 20
489.367604
 30
0.0
 11
392.423143
 21
457.367604
 31
0.0
  0
LINE
  8
LC-001-002-----0
  6
CONTINUOUS
  5
454
 10
397.923143
 20
489.867604
 30
0.0
 11
393.871402
 21
489.867604
 31
0.0
  0
LINE
  8
LC-001-002-----0
  6
CONTINUOUS
  5
455
 10
214.923143
 20
460.867604
 30
0.0
 11
233.04882
 21
460.867604
 31
0.0
  0
LINE
  8
LC-001-002-----0
  6
CONTINUOUS
  5
456
 10
222.923143
 20
455.867604
 30
0.0
 11
244.082761
 21
455.867604
 31
0.0
  0
LINE
  8
LC-001-002-----0
  6
CONTINUOUS
  5
457
 10
360.763525
 20
455.867604
 30
0.0
 11
381.923143
 21
455.867604
 31
0.0
  0
LINE
  8
LC-001-002-----0
  6
CONTINUOUS
  5
458
 10
371.797465
 20
460.867604
 30
0.0
 11
382.923143
 21
460.867604
 31
0.0
  0
LINE
  8
LC-001-002-----0
  6
CONTINUOUS
 62
     2
  5
459
 10
271.424573
 20
585.347487
 30
0.0
 11
271.424573
 21
570.347487
 31
0.0
  0
LINE
  8
LC-001-002-----0
  6
CONTINUOUS
 62
     2
  5
45A
 10
256.424573
 20
585.347487
 30
0.0
 11
271.424573
 21
585.347487
 31
0.0
  0
LINE
  8
LC-001-002-----0
  6
CONTINUOUS
 62
     2
  5
45B
 10
256.424573
 20
624.942376
 30
0.0
 11
256.424573
 21
609.942376
 31
0.0
  0
LINE
  8
LC-001-002-----0
  6
CONTINUOUS
 62
     2
  5
45C
 10
256.424573
 20
609.942376
 30
0.0
 11
271.424573
 21
609.942376
 31
0.0
  0
LINE
  8
LC-001-002-----0
  6
CONTINUOUS
 62
     2
  5
45D
 10
256.424573
 20
624.942376
 30
0.0
 11
271.424573
 21
624.942376
 31
0.0
  0
LINE
  8
LC-001-002-----0
  6
CONTINUOUS
 62
     2
  5
45E
 10
271.424573
 20
624.942376
 30
0.0
 11
271.424573
 21
609.942376
 31
0.0
  0
LINE
  8
LC-001-002-----0
  6
CONTINUOUS
  5
45F
 10
206.923143
 20
489.867604
 30
0.0
 11
210.974884
 21
489.867604
 31
0.0
  0
LINE
  8
LC-001-002-----0
  6
CONTINUOUS
 62
     2
  5
460
 10
256.424573
 20
570.347487
 30
0.0
 11
271.424573
 21
570.347487
 31
0.0
  0
LINE
  8
LC-001-002-----0
  6
CONTINUOUS
 62
     2
  5
461
 10
256.424573
 20
585.347487
 30
0.0
 11
256.424573
 21
570.347487
 31
0.0
  0
LINE
  8
LC-001-002-----0
  6
CONTINUOUS
  5
462
 10
416.423143
 20
535.367604
 30
0.0
 11
424.423143
 21
535.367604
 31
0.0
  0
LINE
  8
LC-001-002-----0
  6
CONTINUOUS
  5
463
 10
180.423143
 20
535.367604
 30
0.0
 11
188.423143
 21
535.367604
 31
0.0
  0
LINE
  8
LC-001-002-----0
  6
CONTINUOUS
  5
464
 10
222.766555
 20
323.367604
 30
0.0
 11
247.423143
 21
323.367604
 31
0.0
  0
LINE
  8
LC-001-002-----0
  6
CONTINUOUS
  5
465
 10
219.302453
 20
329.367604
 30
0.0
 11
212.423143
 21
443.367604
 31
0.0
  0
LINE
  8
LC-001-002-----0
  6
CONTINUOUS
  5
466
 10
219.302453
 20
329.367604
 30
0.0
 11
222.766555
 21
323.367604
 31
0.0
  0
LINE
  8
LC-001-002-----0
  6
CONTINUOUS
  5
467
 10
223.238352
 20
330.550427
 30
0.0
 11
216.430393
 21
443.368042
 31
0.0
  0
LINE
  8
LC-001-002-----0
  6
CONTINUOUS
  5
468
 10
223.238352
 20
330.550427
 30
0.0
 11
225.075956
 21
327.367604
 31
0.0
  0
LINE
  8
LC-001-002-----0
  6
CONTINUOUS
  5
469
 10
381.607933
 20
330.550427
 30
0.0
 11
379.77033
 21
327.367604
 31
0.0
  0
LINE
  8
LC-001-002-----0
  6
CONTINUOUS
  5
46A
 10
385.543832
 20
329.367604
 30
0.0
 11
392.423143
 21
443.367604
 31
0.0
  0
LINE
  8
LC-001-002-----0
  6
CONTINUOUS
  5
46B
 10
357.423143
 20
323.367604
 30
0.0
 11
382.079731
 21
323.367604
 31
0.0
  0
LINE
  8
LC-001-002-----0
  6
CONTINUOUS
  5
46C
 10
225.075956
 20
327.367604
 30
0.0
 11
379.77033
 21
327.367604
 31
0.0
  0
LINE
  8
LC-001-002-----0
  6
CONTINUOUS
  5
46D
 10
381.607933
 20
330.550427
 30
0.0
 11
388.430406
 21
443.608545
 31
0.0
  0
LINE
  8
LC-001-002-----0
  6
CONTINUOUS
  5
46E
 10
385.543832
 20
329.367604
 30
0.0
 11
382.079731
 21
323.367604
 31
0.0
  0
LINE
  8
LC-001-002-----0
  6
DASHDOT
 62
     2
  5
46F
 10
384.796751
 20
407.245608
 30
0.0
 11
300.224415
 21
438.027421
 31
0.0
  0
LINE
  8
LC-001-002-----0
  6
DASHDOT
 62
     2
  5
470
 10
383.599681
 20
403.956684
 30
0.0
 11
299.027345
 21
434.738497
 31
0.0
  0
LINE
  8
LC-001-002-----0
  6
DASHDOT
 62
     2
  5
471
 10
383.599681
 20
403.956684
 30
0.0
 11
384.796751
 21
407.245608
 31
0.0
  0
LINE
  8
LC-001-002-----0
  6
CONTINUOUS
  5
472
 10
366.589622
 20
515.367604
 30
0.0
 11
416.423143
 21
515.367604
 31
0.0
  0
LINE
  8
LC-001-002-----0
  6
CONTINUOUS
  5
473
 10
302.426772
 20
501.367604
 30
0.0
 11
312.033374
 21
501.367604
 31
0.0
  0
LINE
  8
LC-001-002-----0
  6
CONTINUOUS
  5
474
 10
365.425402
 20
535.367604
 30
0.0
 11
239.420884
 21
535.367604
 31
0.0
  0
LINE
  8
LC-001-002-----0
  6
CONTINUOUS
  5
475
 10
292.820171
 20
501.367604
 30
0.0
 11
240.259408
 21
513.502212
 31
0.0
  0
LINE
  8
LC-001-002-----0
  6
CONTINUOUS
  5
476
 10
292.820171
 20
501.367604
 30
0.0
 11
302.426772
 21
501.367604
 31
0.0
  0
LINE
  8
LC-001-002-----0
  6
CONTINUOUS
  5
477
 10
413.086877
 20
517.262932
 30
0.0
 11
413.925402
 21
533.262932
 31
0.0
  0
LINE
  8
LC-001-002-----0
  6
CONTINUOUS
  5
478
 10
366.584136
 20
517.262932
 30
0.0
 11
367.422661
 21
533.262932
 31
0.0
  0
LINE
  8
LC-001-002-----0
  6
CONTINUOUS
  5
479
 10
397.428143
 20
533.262932
 30
0.0
 11
398.266667
 21
517.262932
 31
0.0
  0
LINE
  8
LC-001-002-----0
  6
CONTINUOUS
  5
47A
 10
411.928143
 20
535.367604
 30
0.0
 11
365.425402
 21
535.367604
 31
0.0
  0
LINE
  8
LC-001-002-----0
  6
CONTINUOUS
  5
47B
 10
400.263926
 20
515.367604
 30
0.0
 11
411.089618
 21
515.367604
 31
0.0
  0
LINE
  8
LC-001-002-----0
  6
CONTINUOUS
  5
47C
 10
190.928143
 20
533.262932
 30
0.0
 11
191.766667
 21
517.262932
 31
0.0
  0
LINE
  8
LC-001-002-----0
  6
CONTINUOUS
  5
47D
 10
239.420884
 20
535.367604
 30
0.0
 11
192.925402
 21
535.367604
 31
0.0
  0
LINE
  8
LC-001-002-----0
  6
CONTINUOUS
  5
47E
 10
237.423625
 20
533.262932
 30
0.0
 11
238.262149
 21
517.262932
 31
0.0
  0
LINE
  8
LC-001-002-----0
  6
CONTINUOUS
  5
47F
 10
202.5851
 20
517.262932
 30
0.0
 11
203.423625
 21
533.262932
 31
0.0
  0
LINE
  8
LC-008-100-D00-0
  6
CONTINUOUS
  5
481
 10
193.763926
 20
515.367604
 30
0.0
 11
200.587841
 21
515.367604
 31
0.0
  0
LINE
  8
LC-001-002-----0
  6
CONTINUOUS
  5
482
 10
200.587841
 20
515.367604
 30
0.0
 11
240.259408
 21
515.367604
 31
0.0
  0
LINE
  8
LC-001-002-----0
  6
CONTINUOUS
  5
483
 10
364.586877
 20
515.367604
 30
0.0
 11
400.263926
 21
515.367604
 31
0.0
  0
LINE
  8
LC-001-002-----0
  6
CONTINUOUS
  5
484
 10
364.586877
 20
515.367604
 30
0.0
 11
364.586877
 21
513.500537
 31
0.0
  0
LINE
  8
LC-001-002-----0
  6
CONTINUOUS
  5
485
 10
364.586877
 20
513.500537
 30
0.0
 11
312.033374
 21
501.367604
 31
0.0
  0
LINE
  8
LC-001-002-----0
  6
CONTINUOUS
  5
486
 10
240.259408
 20
515.367604
 30
0.0
 11
240.259408
 21
513.502212
 31
0.0
  0
ARC
  8
LC-001-002-----0
  6
CONTINUOUS
  5
487
 10
411.928143
 20
533.367604
 30
0.0
 40
2.0
 50
357.0
 51
90.0
  0
ARC
  8
LC-001-002-----0
  6
CONTINUOUS
  5
488
 10
411.089618
 20
517.367604
 30
0.0
 40
2.0
 50
270.0
 51
357.0
  0
ARC
  8
LC-001-002-----0
  6
CONTINUOUS
  5
489
 10
365.425402
 20
533.367604
 30
0.0
 40
2.0
 50
357.0
 51
90.0
  0
ARC
  8
LC-001-002-----0
  6
CONTINUOUS
  5
48A
 10
364.586877
 20
517.367604
 30
0.0
 40
2.0
 50
270.0
 51
357.0
  0
ARC
  8
LC-001-002-----0
  6
CONTINUOUS
  5
48B
 10
399.425402
 20
533.367604
 30
0.0
 40
2.0
 50
90.0
 51
183.0
  0
ARC
  8
LC-001-002-----0
  6
CONTINUOUS
  5
48C
 10
400.263926
 20
517.367604
 30
0.0
 40
2.0
 50
183.0
 51
270.0
  0
ARC
  8
LC-001-002-----0
  6
CONTINUOUS
  5
48D
 10
192.925402
 20
533.367604
 30
0.0
 40
2.0
 50
90.0
 51
183.0
  0
ARC
  8
LC-001-002-----0
  6
CONTINUOUS
  5
48E
 10
193.763926
 20
517.367604
 30
0.0
 40
2.0
 50
183.0
 51
270.0
  0
ARC
  8
LC-001-002-----0
  6
CONTINUOUS
  5
48F
 10
239.420884
 20
533.367604
 30
0.0
 40
2.0
 50
90.0
 51
183.0
  0
ARC
  8
LC-001-002-----0
  6
CONTINUOUS
  5
490
 10
240.259408
 20
517.367604
 30
0.0
 40
2.0
 50
183.0
 51
270.0
  0
ARC
  8
LC-001-002-----0
  6
CONTINUOUS
  5
491
 10
201.426366
 20
533.367604
 30
0.0
 40
2.0
 50
357.0
 51
90.0
  0
ARC
  8
LC-001-002-----0
  6
CONTINUOUS
  5
492
 10
200.587841
 20
517.367604
 30
0.0
 40
2.0
 50
270.0
 51
357.0
  0
ENDSEC
  0
EOF
