  0
SECTION
  2
HEADER
  9
$ACADVER
  1
AC1015
  9
$ACADMAINTVER
 70
     6
  9
$DWGCODEPAGE
  3
ANSI_1252
  9
$INSBASE
 10
0.0
 20
0.0
 30
0.0
  9
$EXTMIN
 10
-412.086255
 20
-256.755374
 30
0.0
  9
$EXTMAX
 10
427.913745
 20
337.244626
 30
0.0
  9
$LIMMIN
 10
-412.086255
 20
-256.755374
  9
$LIMMAX
 10
427.913745
 20
337.244626
  9
$ORTHOMODE
 70
     0
  9
$REGENMODE
 70
     1
  9
$FILLMODE
 70
     1
  9
$QTEXTMODE
 70
     0
  9
$MIRRTEXT
 70
     1
  9
$LTSCALE
 40
2.0
  9
$ATTMODE
 70
     1
  9
$TEXTSIZE
 40
2.5
  9
$TRACEWID
 40
1.0
  9
$TEXTSTYLE
  7
Standard
  9
$CLAYER
  8
0
  9
$CELTYPE
  6
ByLayer
  9
$CECOLOR
 62
     7
  9
$CELTSCALE
 40
1.0
  9
$DISPSILH
 70
     0
  9
$DIMSCALE
 40
2.0
  9
$DIMASZ
 40
3.5
  9
$DIMEXO
 40
0.625
  9
$DIMDLI
 40
3.75
  9
$DIMRND
 40
0.0
  9
$DIMDLE
 40
0.0
  9
$DIMEXE
 40
1.25
  9
$DIMTP
 40
0.0
  9
$DIMTM
 40
0.0
  9
$DIMTXT
 40
3.5
  9
$DIMCEN
 40
2.5
  9
$DIMTSZ
 40
0.0
  9
$DIMTOL
 70
     0
  9
$DIMLIM
 70
     0
  9
$DIMTIH
 70
     0
  9
$DIMTOH
 70
     0
  9
$DIMSE1
 70
     0
  9
$DIMSE2
 70
     0
  9
$DIMTAD
 70
     1
  9
$DIMZIN
 70
     8
  9
$DIMBLK
  1

  9
$DIMASO
 70
     1
  9
$DIMSHO
 70
     1
  9
$DIMPOST
  1

  9
$DIMAPOST
  1

  9
$DIMALT
 70
     0
  9
$DIMALTD
 70
     3
  9
$DIMALTF
 40
0.03937
  9
$DIMLFAC
 40
1.0
  9
$DIMTOFL
 70
     1
  9
$DIMTVP
 40
0.0
  9
$DIMTIX
 70
     0
  9
$DIMSOXD
 70
     0
  9
$DIMSAH
 70
     0
  9
$DIMBLK1
  1

  9
$DIMBLK2
  1

  9
$DIMSTYLE
  2
ISO-25
  9
$DIMCLRD
 70
     0
  9
$DIMCLRE
 70
     0
  9
$DIMCLRT
 70
     0
  9
$DIMTFAC
 40
1.0
  9
$DIMGAP
 40
0.625
  9
$DIMJUST
 70
     0
  9
$DIMSD1
 70
     0
  9
$DIMSD2
 70
     0
  9
$DIMTOLJ
 70
     0
  9
$DIMTZIN
 70
     8
  9
$DIMALTZ
 70
     0
  9
$DIMALTTZ
 70
     0
  9
$DIMUPT
 70
     0
  9
$DIMDEC
 70
     2
  9
$DIMTDEC
 70
     2
  9
$DIMALTU
 70
     2
  9
$DIMALTTD
 70
     3
  9
$DIMTXSTY
  7
Standard
  9
$DIMAUNIT
 70
     0
  9
$DIMADEC
 70
     0
  9
$DIMALTRND
 40
0.0
  9
$DIMAZIN
 70
     0
  9
$DIMDSEP
 70
    44
  9
$DIMATFIT
 70
     3
  9
$DIMFRAC
 70
     0
  9
$DIMLDRBLK
  1

  9
$DIMLUNIT
 70
     2
  9
$DIMLWD
 70
    -2
  9
$DIMLWE
 70
    -2
  9
$DIMTMOVE
 70
     0
  9
$LUNITS
 70
     2
  9
$LUPREC
 70
     4
  9
$SKETCHINC
 40
1.0
  9
$FILLETRAD
 40
10.0
  9
$AUNITS
 70
     0
  9
$AUPREC
 70
     0
  9
$MENU
  1
.
  9
$ELEVATION
 40
0.0
  9
$PELEVATION
 40
0.0
  9
$THICKNESS
 40
0.0
  9
$LIMCHECK
 70
     0
  9
$CHAMFERA
 40
10.0
  9
$CHAMFERB
 40
10.0
  9
$CHAMFERC
 40
20.0
  9
$CHAMFERD
 40
0.0
  9
$SKPOLY
 70
     0
  9
$TDCREATE
 40
2456273.465511528
  9
$TDUCREATE
 40
2456273.423844861
  9
$TDUPDATE
 40
2456273.46551154
  9
$TDUUPDATE
 40
2456273.423844873
  9
$TDINDWG
 40
0.0000000116
  9
$TDUSRTIMER
 40
0.0000000116
  9
$USRTIMER
 70
     1
  9
$ANGBASE
 50
0.0
  9
$ANGDIR
 70
     0
  9
$PDMODE
 70
     0
  9
$PDSIZE
 40
0.0
  9
$PLINEWID
 40
0.0
  9
$SPLFRAME
 70
     0
  9
$SPLINETYPE
 70
     6
  9
$SPLINESEGS
 70
     8
  9
$HANDSEED
  5
C7
  9
$SURFTAB1
 70
     6
  9
$SURFTAB2
 70
     6
  9
$SURFTYPE
 70
     6
  9
$SURFU
 70
     6
  9
$SURFV
 70
     6
  9
$UCSBASE
  2

  9
$UCSNAME
  2

  9
$UCSORG
 10
0.0
 20
0.0
 30
0.0
  9
$UCSXDIR
 10
1.0
 20
0.0
 30
0.0
  9
$UCSYDIR
 10
0.0
 20
1.0
 30
0.0
  9
$UCSORTHOREF
  2

  9
$UCSORTHOVIEW
 70
     0
  9
$UCSORGTOP
 10
0.0
 20
0.0
 30
0.0
  9
$UCSORGBOTTOM
 10
0.0
 20
0.0
 30
0.0
  9
$UCSORGLEFT
 10
0.0
 20
0.0
 30
0.0
  9
$UCSORGRIGHT
 10
0.0
 20
0.0
 30
0.0
  9
$UCSORGFRONT
 10
0.0
 20
0.0
 30
0.0
  9
$UCSORGBACK
 10
0.0
 20
0.0
 30
0.0
  9
$PUCSBASE
  2

  9
$PUCSNAME
  2

  9
$PUCSORG
 10
0.0
 20
0.0
 30
0.0
  9
$PUCSXDIR
 10
1.0
 20
0.0
 30
0.0
  9
$PUCSYDIR
 10
0.0
 20
1.0
 30
0.0
  9
$PUCSORTHOREF
  2

  9
$PUCSORTHOVIEW
 70
     0
  9
$PUCSORGTOP
 10
0.0
 20
0.0
 30
0.0
  9
$PUCSORGBOTTOM
 10
0.0
 20
0.0
 30
0.0
  9
$PUCSORGLEFT
 10
0.0
 20
0.0
 30
0.0
  9
$PUCSORGRIGHT
 10
0.0
 20
0.0
 30
0.0
  9
$PUCSORGFRONT
 10
0.0
 20
0.0
 30
0.0
  9
$PUCSORGBACK
 10
0.0
 20
0.0
 30
0.0
  9
$USERI1
 70
     0
  9
$USERI2
 70
     0
  9
$USERI3
 70
     0
  9
$USERI4
 70
     0
  9
$USERI5
 70
     0
  9
$USERR1
 40
0.0
  9
$USERR2
 40
0.0
  9
$USERR3
 40
0.0
  9
$USERR4
 40
0.0
  9
$USERR5
 40
0.0
  9
$WORLDVIEW
 70
     1
  9
$SHADEDGE
 70
     3
  9
$SHADEDIF
 70
    70
  9
$TILEMODE
 70
     1
  9
$MAXACTVP
 70
    64
  9
$PINSBASE
 10
0.0
 20
0.0
 30
0.0
  9
$PLIMCHECK
 70
     0
  9
$PEXTMIN
 10
-412.086255
 20
-256.755374
 30
0.0
  9
$PEXTMAX
 10
427.913745
 20
337.244626
 30
0.0
  9
$PLIMMIN
 10
-412.086255
 20
-256.755374
  9
$PLIMMAX
 10
427.913745
 20
337.244626
  9
$UNITMODE
 70
     0
  9
$VISRETAIN
 70
     1
  9
$PLINEGEN
 70
     0
  9
$PSLTSCALE
 70
     1
  9
$TREEDEPTH
 70
  3020
  9
$CMLSTYLE
  2
Standard
  9
$CMLJUST
 70
     0
  9
$CMLSCALE
 40
20.0
  9
$PROXYGRAPHICS
 70
     1
  9
$MEASUREMENT
 70
     1
  9
$CELWEIGHT
370
    -1
  9
$ENDCAPS
280
     0
  9
$JOINSTYLE
280
     0
  9
$LWDISPLAY
290
     0
  9
$INSUNITS
 70
     4
  9
$HYPERLINKBASE
  1

  9
$STYLESHEET
  1

  9
$XEDIT
290
     1
  9
$CEPSNTYPE
380
     0
  9
$PSTYLEMODE
290
     1
  9
$FINGERPRINTGUID
  2
{FAEB1C30-E019-11D5-929B-00C0DF256EC4}
  9
$VERSIONGUID
  2
{FAEB1C32-E019-11D5-929B-00C0DF256EC4}
  9
$EXTNAMES
290
     1
  9
$PSVPSCALE
 40
0.0
  9
$OLESTARTUP
290
     0
  0
ENDSEC
  0
SECTION
  2
CLASSES
  0
CLASS
  1
ACDBDICTIONARYWDFLT
  2
AcDbDictionaryWithDefault
  3
ObjectDBX Classes
 90
        0
280
     0
281
     0
  0
CLASS
  1
ACDBPLACEHOLDER
  2
AcDbPlaceHolder
  3
ObjectDBX Classes
 90
        0
280
     0
281
     0
  0
CLASS
  1
LAYOUT
  2
AcDbLayout
  3
ObjectDBX Classes
 90
        0
280
     0
281
     0
  0
ENDSEC
  0
SECTION
  2
TABLES
  0
TABLE
  2
VPORT
  5
8
330
0
100
AcDbSymbolTable
 70
     2
  0
VPORT
  5
29
330
8
100
AcDbSymbolTableRecord
100
AcDbViewportTableRecord
  2
*ACTIVE
 70
     0
 10
0.0
 20
0.0
 11
1.0
 21
1.0
 12
7.913745
 22
40.244626
 13
0.0
 23
0.0
 14
1.0
 24
1.0
 15
0.0
 25
0.0
 16
0.0
 26
0.0
 36
1.0
 17
0.0
 27
0.0
 37
0.0
 40
594.0
 41
1.414141
 42
50.0
 43
0.0
 44
0.0
 50
0.0
 51
0.0
 71
    16
 72
   100
 73
     1
 74
     0
 75
     0
 76
     0
 77
     0
 78
     0
281
     0
 65
     0
110
0.0
120
0.0
130
0.0
111
1.0
121
0.0
131
0.0
112
0.0
122
1.0
132
0.0
 79
     0
146
0.0
  0
ENDTAB
  0
TABLE
  2
LTYPE
  5
5
330
0
100
AcDbSymbolTable
 70
     3
  0
LTYPE
  5
14
330
5
100
AcDbSymbolTableRecord
100
AcDbLinetypeTableRecord
  2
ByBlock
 70
     0
  3

 72
    65
 73
     0
 40
0.0
  0
LTYPE
  5
15
330
5
100
AcDbSymbolTableRecord
100
AcDbLinetypeTableRecord
  2
ByLayer
 70
     0
  3

 72
    65
 73
     0
 40
0.0
  0
LTYPE
  5
16
330
5
100
AcDbSymbolTableRecord
100
AcDbLinetypeTableRecord
  2
Continuous
 70
     0
  3
Solid line
 72
    65
 73
     0
 40
0.0
  0
LTYPE
  5
2A
330
5
100
AcDbSymbolTableRecord
100
AcDbLinetypeTableRecord
  2
DASHED
 70
     0
  3
__ __ __ __ __
 72
    65
 73
     2
 40
6.25
 49
5.0
 74
     4
 75
     0
340
0
 46
1.0
 50
0.0
 44
0.0
 45
0.0
 49
-1.25
 74
     4
 75
     0
340
0
 46
1.0
 50
0.0
 44
0.0
 45
0.0
  0
LTYPE
  5
B2
330
5
100
AcDbSymbolTableRecord
100
AcDbLinetypeTableRecord
  2
DIVIDE
 70
     0
  3
__ . . __ . . __ . . __
 72
    65
 73
     6
 40
8.75
 49
5.0
 74
     4
 75
     0
340
0
 46
1.0
 50
0.0
 44
0.0
 45
0.0
 49
-1.25
 74
     4
 75
     0
340
0
 46
1.0
 50
0.0
 44
0.0
 45
0.0
 49
0.0
 74
     4
 75
     0
340
0
 46
1.0
 50
0.0
 44
0.0
 45
0.0
 49
-1.25
 74
     4
 75
     0
340
0
 46
1.0
 50
0.0
 44
0.0
 45
0.0
 49
0.0
 74
     4
 75
     0
340
0
 46
1.0
 50
0.0
 44
0.0
 45
0.0
 49
-1.25
 74
     4
 75
     0
340
0
 46
1.0
 50
0.0
 44
0.0
 45
0.0
  0
ENDTAB
  0
TABLE
  2
LAYER
  5
2
330
0
100
AcDbSymbolTable
 70
     7
  0
LAYER
  5
10
330
2
100
AcDbSymbolTableRecord
100
AcDbLayerTableRecord
  2
0
 70
     0
 62
     7
  6
Continuous
370
    -3
390
F
  0
LAYER
  5
2B
330
2
100
AcDbSymbolTableRecord
100
AcDbLayerTableRecord
  2
LC-INFO-1-2-mm-A3-0
 70
     1
 62
     7
  6
ByBlock
370
    -3
390
F
  0
LAYER
  5
2C
330
2
100
AcDbSymbolTableRecord
100
AcDbLayerTableRecord
  2
LC-CUT-HIDDEN
 70
     0
 62
     7
  6
DASHED
370
    -3
390
F
  0
LAYER
  5
2D
330
2
100
AcDbSymbolTableRecord
100
AcDbLayerTableRecord
  2
LC-VIEWPORT
 70
     0
 62
     7
  6
ByBlock
370
    -3
390
F
  0
LAYER
  5
2E
330
2
100
AcDbSymbolTableRecord
100
AcDbLayerTableRecord
  2
LC-3D-HIDDEN
 70
     0
 62
     9
  6
DASHED
370
    -3
390
F
  0
LAYER
  5
32
330
2
100
AcDbSymbolTableRecord
100
AcDbLayerTableRecord
  2
LC-001-101-D00-0
 70
     0
 62
     2
  6
ByBlock
370
    -3
390
F
  0
LAYER
  5
34
330
2
100
AcDbSymbolTableRecord
100
AcDbLayerTableRecord
  2
Defpoints
 70
     0
 62
     7
  6
Continuous
290
     0
370
    -3
390
F
  0
ENDTAB
  0
TABLE
  2
STYLE
  5
3
330
0
100
AcDbSymbolTable
 70
     3
  0
STYLE
  5
11
330
3
100
AcDbSymbolTableRecord
100
AcDbTextStyleTableRecord
  2
Standard
 70
     0
 40
0.0
 41
1.0
 50
0.0
 71
     0
 42
2.5
  3
txt
  4

  0
STYLE
  5
2F
330
3
100
AcDbSymbolTableRecord
100
AcDbTextStyleTableRecord
  2
LCTX15-400-0-0-Arial
 70
     0
 40
0.0
 41
0.8
 50
0.0
 71
     0
 42
3.5
  3

  4

1001
ACAD
1000
Arial
1071
 16777218
  0
STYLE
  5
30
330
3
100
AcDbSymbolTableRecord
100
AcDbTextStyleTableRecord
  2
LCTX15-400-0-0pDIN-Schrift
 70
     0
 40
2.5
 41
0.8
 50
15.0
 71
     0
 42
3.5
  3
STANDARD
  4

  0
ENDTAB
  0
TABLE
  2
VIEW
  5
6
330
0
100
AcDbSymbolTable
 70
     0
  0
ENDTAB
  0
TABLE
  2
UCS
  5
7
330
0
100
AcDbSymbolTable
 70
     0
  0
ENDTAB
  0
TABLE
  2
APPID
  5
9
330
0
100
AcDbSymbolTable
 70
     1
  0
APPID
  5
12
330
9
100
AcDbSymbolTableRecord
100
AcDbRegAppTableRecord
  2
ACAD
 70
     0
  0
ENDTAB
  0
TABLE
  2
DIMSTYLE
  5
A
330
0
100
AcDbSymbolTable
 70
     2
100
AcDbDimStyleTable
  0
DIMSTYLE
105
27
330
A
100
AcDbSymbolTableRecord
100
AcDbDimStyleTableRecord
  2
ISO-25
 70
     0
 41
2.5
 42
0.625
 43
3.75
 44
1.25
 73
     0
 74
     0
 77
     1
 78
     8
140
2.5
141
2.5
143
0.03937
147
0.625
171
     3
172
     1
271
     2
272
     2
274
     3
278
    44
283
     0
284
     8
340
11
  0
DIMSTYLE
105
31
102
{ACAD_REACTORS
330
33
330
41
330
4F
330
5C
102
}
330
A
100
AcDbSymbolTableRecord
100
AcDbDimStyleTableRecord
  2
LC-DIM-L-0140-02-02
 70
     0
 40
2.0
 41
14.0
 42
0.0
 43
7.5
 44
1.8
 73
     0
 74
     0
 77
     1
 78
     8
 79
     2
140
14.0
141
0.0
146
0.71
147
1.5
176
     2
177
     2
178
     2
179
     2
271
     2
278
    44
289
     1
340
30
  0
ENDTAB
  0
TABLE
  2
BLOCK_RECORD
  5
1
330
0
100
AcDbSymbolTable
 70
     9
  0
BLOCK_RECORD
  5
1F
330
1
100
AcDbSymbolTableRecord
100
AcDbBlockTableRecord
  2
*Model_Space
340
22
  0
BLOCK_RECORD
  5
1B
330
1
100
AcDbSymbolTableRecord
100
AcDbBlockTableRecord
  2
*Paper_Space
340
1E
  0
BLOCK_RECORD
  5
23
330
1
100
AcDbSymbolTableRecord
100
AcDbBlockTableRecord
  2
*Paper_Space0
340
26
  0
BLOCK_RECORD
  5
35
330
1
100
AcDbSymbolTableRecord
100
AcDbBlockTableRecord
  2
*D1
340
0
  0
BLOCK_RECORD
  5
42
330
1
100
AcDbSymbolTableRecord
100
AcDbBlockTableRecord
  2
*D2
340
0
  0
BLOCK_RECORD
  5
50
330
1
100
AcDbSymbolTableRecord
100
AcDbBlockTableRecord
  2
*D3
340
0
  0
BLOCK_RECORD
  5
5D
330
1
100
AcDbSymbolTableRecord
100
AcDbBlockTableRecord
  2
*D4
340
0
  0
BLOCK_RECORD
  5
69
330
1
100
AcDbSymbolTableRecord
100
AcDbBlockTableRecord
  2
KLON1
340
0
102
{BLKREFS
331
86
102
}
  0
BLOCK_RECORD
  5
6C
330
1
100
AcDbSymbolTableRecord
100
AcDbBlockTableRecord
  2
KLON2
340
0
102
{BLKREFS
331
77
102
}
  0
BLOCK_RECORD
  5
78
330
1
100
AcDbSymbolTableRecord
100
AcDbBlockTableRecord
  2
KLON3
340
0
102
{BLKREFS
331
83
102
}
  0
BLOCK_RECORD
  5
87
330
1
100
AcDbSymbolTableRecord
100
AcDbBlockTableRecord
  2
KLON4
340
0
102
{BLKREFS
331
C6
102
}
  0
ENDTAB
  0
ENDSEC
  0
SECTION
  2
BLOCKS
  0
BLOCK
  5
20
330
1F
100
AcDbEntity
  8
0
100
AcDbBlockBegin
  2
*Model_Space
 70
     0
 71
     0
 10
0.0
 20
0.0
 30
0.0
  3
*Model_Space
  1

  0
ENDBLK
  5
21
330
1F
100
AcDbEntity
  8
0
100
AcDbBlockEnd
  0
BLOCK
  5
1C
330
1B
100
AcDbEntity
 67
     1
  8
0
100
AcDbBlockBegin
  2
*Paper_Space
 70
     0
 71
     0
 10
0.0
 20
0.0
 30
0.0
  3
*Paper_Space
  1

  0
ENDBLK
  5
1D
330
1B
100
AcDbEntity
 67
     1
  8
0
100
AcDbBlockEnd
  0
BLOCK
  5
24
330
23
100
AcDbEntity
  8
0
100
AcDbBlockBegin
  2
*Paper_Space0
 70
     0
 71
     0
 10
0.0
 20
0.0
 30
0.0
  3
*Paper_Space0
  1

  0
ENDBLK
  5
25
330
23
100
AcDbEntity
  8
0
100
AcDbBlockEnd
  0
BLOCK
  5
3F
330
35
100
AcDbEntity
  8
0
100
AcDbBlockBegin
  2
*D1
 70
     1
 71
     0
 10
0.0
 20
0.0
 30
0.0
  3
*D1
  1

  0
LINE
  5
36
330
35
100
AcDbEntity
  8
LC-001-101-D00-0
 62
     2
370
    -2
100
AcDbLine
 10
45.1
 20
3.5
 30
0.0
 11
45.1
 21
-58.395374
 31
0.0
  0
LINE
  5
37
330
35
100
AcDbEntity
  8
LC-001-101-D00-0
 62
     2
370
    -2
100
AcDbLine
 10
-44.9
 20
3.5
 30
0.0
 11
-44.9
 21
-58.395374
 31
0.0
  0
LINE
  5
38
330
35
100
AcDbEntity
  8
LC-001-101-D00-0
 62
     2
370
    -2
100
AcDbLine
 10
17.1
 20
-54.795374
 30
0.0
 11
-16.9
 21
-54.795374
 31
0.0
  0
SOLID
  5
39
330
35
100
AcDbEntity
  8
LC-001-101-D00-0
 62
     2
100
AcDbTrace
 10
17.1
 20
-59.462041
 30
0.0
 11
17.1
 21
-50.128708
 31
0.0
 12
45.1
 22
-54.795374
 32
0.0
 13
45.1
 23
-54.795374
 33
0.0
  0
SOLID
  5
3A
330
35
100
AcDbEntity
  8
LC-001-101-D00-0
 62
     2
100
AcDbTrace
 10
-16.9
 20
-50.128708
 30
0.0
 11
-16.9
 21
-59.462041
 31
0.0
 12
-44.9
 22
-54.795374
 32
0.0
 13
-44.9
 23
-54.795374
 33
0.0
  0
MTEXT
  5
3B
330
35
100
AcDbEntity
  8
LC-001-101-D00-0
 62
     2
100
AcDbMText
 10
-1.670167
 20
-23.995374
 30
0.0
 40
28.0
 41
0.0
 71
     5
 72
     1
  1
DN\A1;90
  7
LCTX15-400-0-0pDIN-Schrift
 73
     1
 44
1.0
  0
POINT
  5
3C
330
35
100
AcDbEntity
  8
Defpoints
 62
     0
100
AcDbPoint
 10
45.1
 20
3.5
 30
0.0
  0
POINT
  5
3D
330
35
100
AcDbEntity
  8
Defpoints
 62
     0
100
AcDbPoint
 10
-44.9
 20
3.5
 30
0.0
  0
POINT
  5
3E
330
35
100
AcDbEntity
  8
Defpoints
 62
     0
100
AcDbPoint
 10
-44.9
 20
-54.795374
 30
0.0
  0
ENDBLK
  5
40
330
35
100
AcDbEntity
  8
0
100
AcDbBlockEnd
  0
BLOCK
  5
4D
330
42
100
AcDbEntity
  8
0
100
AcDbBlockBegin
  2
*D2
 70
     1
 71
     0
 10
0.0
 20
0.0
 30
0.0
  3
*D2
  1

  0
LINE
  5
43
330
42
100
AcDbEntity
  8
LC-001-101-D00-0
 62
     2
370
    -2
100
AcDbLine
 10
37.6
 20
96.5
 30
0.0
 11
37.6
 21
134.726626
 31
0.0
  0
LINE
  5
44
330
42
100
AcDbEntity
  8
LC-001-101-D00-0
 62
     2
370
    -2
100
AcDbLine
 10
-37.4
 20
96.5
 30
0.0
 11
-37.4
 21
134.726626
 31
0.0
  0
LINE
  5
45
330
42
100
AcDbEntity
  8
LC-001-101-D00-0
 62
     2
370
    -2
100
AcDbLine
 10
9.6
 20
131.126626
 30
0.0
 11
-9.4
 21
131.126626
 31
0.0
  0
LINE
  5
46
330
42
100
AcDbEntity
  8
LC-001-101-D00-0
 62
     2
370
    -2
100
AcDbLine
 10
37.6
 20
131.126626
 30
0.0
 11
99.740302
 21
131.126626
 31
0.0
  0
SOLID
  5
47
330
42
100
AcDbEntity
  8
LC-001-101-D00-0
 62
     2
100
AcDbTrace
 10
9.6
 20
126.459959
 30
0.0
 11
9.6
 21
135.793292
 31
0.0
 12
37.6
 22
131.126626
 32
0.0
 13
37.6
 23
131.126626
 33
0.0
  0
SOLID
  5
48
330
42
100
AcDbEntity
  8
LC-001-101-D00-0
 62
     2
100
AcDbTrace
 10
-9.4
 20
135.793292
 30
0.0
 11
-9.4
 21
126.459959
 31
0.0
 12
-37.4
 22
131.126626
 32
0.0
 13
-37.4
 23
131.126626
 33
0.0
  0
MTEXT
  5
49
330
42
100
AcDbEntity
  8
LC-001-101-D00-0
 62
     2
100
AcDbMText
 10
53.703544
 20
161.926626
 30
0.0
 40
28.0
 41
0.0
 71
     5
 72
     1
  1
\A1;DN70
  7
LCTX15-400-0-0pDIN-Schrift
 73
     1
 44
1.0
  0
POINT
  5
4A
330
42
100
AcDbEntity
  8
Defpoints
 62
     0
100
AcDbPoint
 10
37.6
 20
96.5
 30
0.0
  0
POINT
  5
4B
330
42
100
AcDbEntity
  8
Defpoints
 62
     0
100
AcDbPoint
 10
-37.4
 20
96.5
 30
0.0
  0
POINT
  5
4C
330
42
100
AcDbEntity
  8
Defpoints
 62
     0
100
AcDbPoint
 10
-37.4
 20
131.126626
 30
0.0
  0
ENDBLK
  5
4E
330
42
100
AcDbEntity
  8
0
100
AcDbBlockEnd
  0
BLOCK
  5
5A
330
50
100
AcDbEntity
  8
0
100
AcDbBlockBegin
  2
*D3
 70
     1
 71
     0
 10
0.0
 20
0.0
 30
0.0
  3
*D3
  1

  0
LINE
  5
51
330
50
100
AcDbEntity
  8
LC-001-101-D00-0
 62
     2
370
    -2
100
AcDbLine
 10
52.6
 20
47.55621
 30
0.0
 11
52.6
 21
-113.043374
 31
0.0
  0
LINE
  5
52
330
50
100
AcDbEntity
  8
LC-001-101-D00-0
 62
     2
370
    -2
100
AcDbLine
 10
-52.4
 20
47.55621
 30
0.0
 11
-52.4
 21
-113.043374
 31
0.0
  0
LINE
  5
53
330
50
100
AcDbEntity
  8
LC-001-101-D00-0
 62
     2
370
    -2
100
AcDbLine
 10
24.6
 20
-109.443374
 30
0.0
 11
-24.4
 21
-109.443374
 31
0.0
  0
SOLID
  5
54
330
50
100
AcDbEntity
  8
LC-001-101-D00-0
 62
     2
100
AcDbTrace
 10
24.6
 20
-114.110041
 30
0.0
 11
24.6
 21
-104.776708
 31
0.0
 12
52.6
 22
-109.443374
 32
0.0
 13
52.6
 23
-109.443374
 33
0.0
  0
SOLID
  5
55
330
50
100
AcDbEntity
  8
LC-001-101-D00-0
 62
     2
100
AcDbTrace
 10
-24.4
 20
-104.776708
 30
0.0
 11
-24.4
 21
-114.110041
 31
0.0
 12
-52.4
 22
-109.443374
 32
0.0
 13
-52.4
 23
-109.443374
 33
0.0
  0
MTEXT
  5
56
330
50
100
AcDbEntity
  8
LC-001-101-D00-0
 62
     2
100
AcDbMText
 10
-8.059441
 20
-78.643374
 30
0.0
 40
28.0
 41
0.0
 71
     5
 72
     1
  1
%%c\A1;105
  7
LCTX15-400-0-0pDIN-Schrift
 73
     1
 44
1.0
  0
POINT
  5
57
330
50
100
AcDbEntity
  8
Defpoints
 62
     0
100
AcDbPoint
 10
52.6
 20
47.55621
 30
0.0
  0
POINT
  5
58
330
50
100
AcDbEntity
  8
Defpoints
 62
     0
100
AcDbPoint
 10
-52.4
 20
47.55621
 30
0.0
  0
POINT
  5
59
330
50
100
AcDbEntity
  8
Defpoints
 62
     0
100
AcDbPoint
 10
-52.4
 20
-109.443374
 30
0.0
  0
ENDBLK
  5
5B
330
50
100
AcDbEntity
  8
0
100
AcDbBlockEnd
  0
BLOCK
  5
67
330
5D
100
AcDbEntity
  8
0
100
AcDbBlockBegin
  2
*D4
 70
     1
 71
     0
 10
0.0
 20
0.0
 30
0.0
  3
*D4
  1

  0
LINE
  5
5E
330
5D
100
AcDbEntity
  8
LC-001-101-D00-0
 62
     2
370
    -2
100
AcDbLine
 10
44.162178
 20
0.0
 30
0.0
 11
115.871892
 21
0.0
 31
0.0
  0
LINE
  5
5F
330
5D
100
AcDbEntity
  8
LC-001-101-D00-0
 62
     2
370
    -2
100
AcDbLine
 10
36.662178
 20
100.0
 30
0.0
 11
115.871892
 21
100.0
 31
0.0
  0
LINE
  5
60
330
5D
100
AcDbEntity
  8
LC-001-101-D00-0
 62
     2
370
    -2
100
AcDbLine
 10
112.271892
 20
28.0
 30
0.0
 11
112.271892
 21
72.0
 31
0.0
  0
SOLID
  5
61
330
5D
100
AcDbEntity
  8
LC-001-101-D00-0
 62
     2
100
AcDbTrace
 10
107.605226
 20
28.0
 30
0.0
 11
116.938559
 21
28.0
 31
0.0
 12
112.271892
 22
0.0
 32
0.0
 13
112.271892
 23
0.0
 33
0.0
  0
SOLID
  5
62
330
5D
100
AcDbEntity
  8
LC-001-101-D00-0
 62
     2
100
AcDbTrace
 10
116.938559
 20
72.0
 30
0.0
 11
107.605226
 21
72.0
 31
0.0
 12
112.271892
 22
100.0
 32
0.0
 13
112.271892
 23
100.0
 33
0.0
  0
MTEXT
  5
63
330
5D
100
AcDbEntity
  8
LC-001-101-D00-0
 62
     2
100
AcDbMText
 10
81.471892
 20
44.996626
 30
0.0
 40
28.0
 41
0.0
 71
     5
 72
     1
  1
\A1;100
  7
LCTX15-400-0-0pDIN-Schrift
 11
6.123031769111886E-17
 21
1.0
 31
0.0
 73
     1
 44
1.0
  0
POINT
  5
64
330
5D
100
AcDbEntity
  8
Defpoints
 62
     0
100
AcDbPoint
 10
44.162178
 20
0.0
 30
0.0
  0
POINT
  5
65
330
5D
100
AcDbEntity
  8
Defpoints
 62
     0
100
AcDbPoint
 10
36.662178
 20
100.0
 30
0.0
  0
POINT
  5
66
330
5D
100
AcDbEntity
  8
Defpoints
 62
     0
100
AcDbPoint
 10
112.271892
 20
100.0
 30
0.0
  0
ENDBLK
  5
68
330
5D
100
AcDbEntity
  8
0
100
AcDbBlockEnd
  0
BLOCK
  5
6A
330
69
100
AcDbEntity
  8
0
100
AcDbBlockBegin
  2
KLON1
 70
     0
 71
     0
 10
0.0
 20
0.0
 30
0.0
  3
KLON1
  1

  4
KLON1
  0
INSERT
  5
77
330
69
100
AcDbEntity
  8
LC-001-101-D00-0
 62
     7
370
    35
100
AcDbBlockReference
  2
KLON2
 10
0.0
 20
0.0
 30
0.0
  0
INSERT
  5
83
330
69
100
AcDbEntity
  8
LC-001-101-D00-0
 62
     7
370
    35
100
AcDbBlockReference
  2
KLON3
 10
0.0
 20
0.0
 30
0.0
  0
CIRCLE
  5
84
330
69
100
AcDbEntity
  8
LC-001-101-D00-0
 62
     7
370
    13
100
AcDbCircle
 10
51.1
 20
52.5
 30
0.0
 40
2.0
  0
CIRCLE
  5
85
330
69
100
AcDbEntity
  8
LC-001-101-D00-0
 62
     7
370
    13
100
AcDbCircle
 10
-50.9
 20
52.5
 30
0.0
 40
2.0
  0
ENDBLK
  5
6B
330
69
100
AcDbEntity
  8
0
100
AcDbBlockEnd
  0
BLOCK
  5
6D
330
6C
100
AcDbEntity
  8
0
100
AcDbBlockBegin
  2
KLON2
 70
     0
 71
     0
 10
0.0
 20
0.0
 30
0.0
  3
KLON2
  1

  4
KLON2
  0
LINE
  5
6F
330
6C
100
AcDbEntity
  8
LC-001-101-D00-0
 62
     7
370
    35
100
AcDbLine
 10
52.365507
 20
50.951293
 30
0.0
 11
52.648707
 21
51.234493
 31
0.0
  0
LINE
  5
70
330
6C
100
AcDbEntity
  8
LC-001-101-D00-0
 62
     7
370
    35
100
AcDbLine
 10
50.571179
 20
50.571179
 30
0.0
 11
53.028821
 21
53.028821
 31
0.0
  0
LINE
  5
71
330
6C
100
AcDbEntity
  8
LC-001-101-D00-0
 62
     7
370
    35
100
AcDbLine
 10
49.678698
 20
51.092911
 30
0.0
 11
52.507089
 21
53.921302
 31
0.0
  0
LINE
  5
72
330
6C
100
AcDbEntity
  8
LC-001-101-D00-0
 62
     7
370
    35
100
AcDbLine
 10
49.165172
 20
51.993599
 30
0.0
 11
51.606401
 21
54.434828
 31
0.0
  0
LINE
  5
73
330
6C
100
AcDbEntity
  8
LC-001-101-D00-0
 62
     7
370
    35
100
AcDbLine
 10
53.025605
 20
53.040412
 30
0.0
 11
51.640412
 21
54.425605
 31
0.0
  0
LINE
  5
74
330
6C
100
AcDbEntity
  8
LC-001-101-D00-0
 62
     7
370
    35
100
AcDbLine
 10
52.938696
 20
51.713108
 30
0.0
 11
50.313108
 21
54.338696
 31
0.0
  0
LINE
  5
75
330
6C
100
AcDbEntity
  8
LC-001-101-D00-0
 62
     7
370
    35
100
AcDbLine
 10
52.321352
 20
50.916239
 30
0.0
 11
49.516239
 21
53.721352
 31
0.0
  0
LINE
  5
76
330
6C
100
AcDbEntity
  8
LC-001-101-D00-0
 62
     7
370
    35
100
AcDbLine
 10
51.312098
 20
50.511278
 30
0.0
 11
49.111278
 21
52.712098
 31
0.0
  0
ENDBLK
  5
6E
330
6C
100
AcDbEntity
  8
0
100
AcDbBlockEnd
  0
BLOCK
  5
79
330
78
100
AcDbEntity
  8
0
100
AcDbBlockBegin
  2
KLON3
 70
     0
 71
     0
 10
0.0
 20
0.0
 30
0.0
  3
KLON3
  1

  4
KLON3
  0
LINE
  5
7B
330
78
100
AcDbEntity
  8
LC-001-101-D00-0
 62
     7
370
    35
100
AcDbLine
 10
-51.285811
 20
50.537565
 30
0.0
 11
-48.937565
 21
52.885811
 31
0.0
  0
LINE
  5
7C
330
78
100
AcDbEntity
  8
LC-001-101-D00-0
 62
     7
370
    35
100
AcDbLine
 10
-52.230675
 20
51.006915
 30
0.0
 11
-49.406915
 21
53.830675
 31
0.0
  0
LINE
  5
7D
330
78
100
AcDbEntity
  8
LC-001-101-D00-0
 62
     7
370
    35
100
AcDbLine
 10
-52.794069
 20
51.857735
 30
0.0
 11
-50.257735
 21
54.394069
 31
0.0
  0
LINE
  5
7E
330
78
100
AcDbEntity
  8
LC-001-101-D00-0
 62
     7
370
    35
100
AcDbLine
 10
-52.705331
 20
53.360687
 30
0.0
 11
-51.760687
 21
54.305331
 31
0.0
  0
LINE
  5
7F
330
78
100
AcDbEntity
  8
LC-001-101-D00-0
 62
     7
370
    35
100
AcDbLine
 10
-49.074584
 20
53.317225
 30
0.0
 11
-50.082775
 21
54.325416
 31
0.0
  0
LINE
  5
80
330
78
100
AcDbEntity
  8
LC-001-101-D00-0
 62
     7
370
    35
100
AcDbLine
 10
-49.011918
 20
51.840345
 30
0.0
 11
-51.559655
 21
54.388082
 31
0.0
  0
LINE
  5
81
330
78
100
AcDbEntity
  8
LC-001-101-D00-0
 62
     7
370
    35
100
AcDbLine
 10
-49.581734
 20
50.995947
 30
0.0
 11
-52.404053
 21
53.818266
 31
0.0
  0
LINE
  5
82
330
78
100
AcDbEntity
  8
LC-001-101-D00-0
 62
     7
370
    35
100
AcDbLine
 10
-50.53381
 20
50.53381
 30
0.0
 11
-52.86619
 21
52.86619
 31
0.0
  0
ENDBLK
  5
7A
330
78
100
AcDbEntity
  8
0
100
AcDbBlockEnd
  0
BLOCK
  5
88
330
87
100
AcDbEntity
  8
0
100
AcDbBlockBegin
  2
KLON4
 70
     0
 71
     0
 10
0.0
 20
0.0
 30
0.0
  3
KLON4
  1

  4
KLON4
  0
ARC
  5
8A
330
87
100
AcDbEntity
  8
LC-001-101-D00-0
 62
     7
370
    13
100
AcDbCircle
 10
46.1
 20
40.0
 30
0.0
 40
1.0
100
AcDbArc
 50
90.0
 51
180.0
  0
ARC
  5
8B
330
87
100
AcDbEntity
  8
LC-001-101-D00-0
 62
     7
370
    13
100
AcDbCircle
 10
-45.9
 20
40.0
 30
0.0
 40
1.0
100
AcDbArc
 50
0.0
 51
90.0
  0
ARC
  5
8C
330
87
100
AcDbEntity
  8
LC-001-101-D00-0
 62
     7
370
    13
100
AcDbCircle
 10
-51.4
 20
42.0
 30
0.0
 40
1.0
100
AcDbArc
 50
180.0
 51
270.0
  0
ARC
  5
8D
330
87
100
AcDbEntity
  8
LC-001-101-D00-0
 62
     7
370
    13
100
AcDbCircle
 10
51.6
 20
42.0
 30
0.0
 40
1.0
100
AcDbArc
 50
270.0
 51
0.0
  0
ARC
  5
8E
330
87
100
AcDbEntity
  8
LC-001-101-D00-0
 62
     7
370
    13
100
AcDbCircle
 10
-51.4
 20
63.0
 30
0.0
 40
1.0
100
AcDbArc
 50
90.0
 51
180.0
  0
ARC
  5
8F
330
87
100
AcDbEntity
  8
LC-001-101-D00-0
 62
     7
370
    13
100
AcDbCircle
 10
51.6
 20
63.0
 30
0.0
 40
1.0
100
AcDbArc
 50
0.0
 51
90.0
  0
LINE
  5
90
330
87
100
AcDbEntity
  8
LC-001-101-D00-0
 62
     7
370
    13
100
AcDbLine
 10
37.6
 20
96.5
 30
0.0
 11
36.662178
 21
100.0
 31
0.0
  0
LINE
  5
91
330
87
100
AcDbEntity
  8
LC-001-101-D00-0
 62
     7
370
    13
100
AcDbLine
 10
52.6
 20
55.35621
 30
0.0
 11
52.6
 21
57.44379
 31
0.0
  0
LINE
  5
92
330
87
100
AcDbEntity
  8
LC-001-101-D00-0
 62
     7
370
    13
100
AcDbLine
 10
49.1
 20
55.05
 30
0.0
 11
52.6
 21
55.35621
 31
0.0
  0
LINE
  5
93
330
87
100
AcDbEntity
  8
LC-001-101-D00-0
 62
     7
370
    13
100
AcDbLine
 10
49.1
 20
49.95
 30
0.0
 11
49.1
 21
55.05
 31
0.0
  0
LINE
  5
94
330
87
100
AcDbEntity
  8
LC-001-101-D00-0
 62
     7
370
    13
100
AcDbLine
 10
52.6
 20
49.64379
 30
0.0
 11
49.1
 21
49.95
 31
0.0
  0
LINE
  5
95
330
87
100
AcDbEntity
  8
LC-001-101-D00-0
 62
     7
370
    13
100
AcDbLine
 10
49.1
 20
61.9
 30
0.0
 11
49.1
 21
57.75
 31
0.0
  0
LINE
  5
96
330
87
100
AcDbEntity
  8
LC-001-101-D00-0
 62
     7
370
    13
100
AcDbLine
 10
44.162178
 20
0.0
 30
0.0
 11
45.1
 21
3.5
 31
0.0
  0
LINE
  5
97
330
87
100
AcDbEntity
  8
LC-001-101-D00-0
 62
     7
370
    13
100
AcDbLine
 10
45.1
 20
40.0
 30
0.0
 11
45.1
 21
3.5
 31
0.0
  0
LINE
  5
98
330
87
100
AcDbEntity
  8
LC-001-101-D00-0
 62
     7
370
    13
100
AcDbLine
 10
52.6
 20
49.64379
 30
0.0
 11
52.6
 21
47.55621
 31
0.0
  0
LINE
  5
99
330
87
100
AcDbEntity
  8
LC-001-101-D00-0
 62
     7
370
    13
100
AcDbLine
 10
49.1
 20
47.25
 30
0.0
 11
49.1
 21
43.1
 31
0.0
  0
LINE
  5
9A
330
87
100
AcDbEntity
  8
LC-001-101-D00-0
 62
     7
370
    13
100
AcDbLine
 10
44.162178
 20
0.0
 30
0.0
 11
0.0
 21
0.0
 31
0.0
  0
LINE
  5
9B
330
87
100
AcDbEntity
  8
LC-001-101-D00-0
 62
     7
370
    13
100
AcDbLine
 10
36.662178
 20
100.0
 30
0.0
 11
0.0
 21
100.0
 31
0.0
  0
LINE
  5
9C
330
87
100
AcDbEntity
  8
LC-001-101-D00-0
 62
     7
370
    13
100
AcDbLine
 10
51.6
 20
41.0
 30
0.0
 11
46.1
 21
41.0
 31
0.0
  0
LINE
  5
9D
330
87
100
AcDbEntity
  8
LC-001-101-D00-0
 62
     7
370
    13
100
AcDbLine
 10
49.1
 20
43.1
 30
0.0
 11
52.6
 21
42.79379
 31
0.0
  0
LINE
  5
9E
330
87
100
AcDbEntity
  8
LC-001-101-D00-0
 62
     7
370
    13
100
AcDbLine
 10
-52.4
 20
42.79379
 30
0.0
 11
-48.9
 21
43.1
 31
0.0
  0
LINE
  5
9F
330
87
100
AcDbEntity
  8
LC-001-101-D00-0
 62
     7
370
    13
100
AcDbLine
 10
-45.9
 20
41.0
 30
0.0
 11
-51.4
 21
41.0
 31
0.0
  0
LINE
  5
A0
330
87
100
AcDbEntity
  8
LC-001-101-D00-0
 62
     7
370
    13
100
AcDbLine
 10
-48.9
 20
47.25
 30
0.0
 11
-52.4
 21
47.55621
 31
0.0
  0
LINE
  5
A1
330
87
100
AcDbEntity
  8
LC-001-101-D00-0
 62
     7
370
    13
100
AcDbLine
 10
-48.9
 20
43.1
 30
0.0
 11
-48.9
 21
47.25
 31
0.0
  0
LINE
  5
A2
330
87
100
AcDbEntity
  8
LC-001-101-D00-0
 62
     7
370
    13
100
AcDbLine
 10
-52.4
 20
47.55621
 30
0.0
 11
-52.4
 21
49.64379
 31
0.0
  0
LINE
  5
A3
330
87
100
AcDbEntity
  8
LC-001-101-D00-0
 62
     7
370
    13
100
AcDbLine
 10
-52.4
 20
57.44379
 30
0.0
 11
-48.9
 21
57.75
 31
0.0
  0
LINE
  5
A4
330
87
100
AcDbEntity
  8
LC-001-101-D00-0
 62
     7
370
    13
100
AcDbLine
 10
-44.9
 20
3.5
 30
0.0
 11
-44.9
 21
40.0
 31
0.0
  0
LINE
  5
A5
330
87
100
AcDbEntity
  8
LC-001-101-D00-0
 62
     7
370
    13
100
AcDbLine
 10
-43.962178
 20
0.0
 30
0.0
 11
0.0
 21
0.0
 31
0.0
  0
LINE
  5
A6
330
87
100
AcDbEntity
  8
LC-001-101-D00-0
 62
     7
370
    13
100
AcDbLine
 10
-44.9
 20
3.5
 30
0.0
 11
-43.962178
 21
0.0
 31
0.0
  0
LINE
  5
A7
330
87
100
AcDbEntity
  8
LC-001-101-D00-0
 62
     7
370
    13
100
AcDbLine
 10
-48.9
 20
57.75
 30
0.0
 11
-48.9
 21
61.9
 31
0.0
  0
LINE
  5
A8
330
87
100
AcDbEntity
  8
LC-001-101-D00-0
 62
     7
370
    13
100
AcDbLine
 10
-37.4
 20
64.0
 30
0.0
 11
-37.4
 21
96.5
 31
0.0
  0
LINE
  5
A9
330
87
100
AcDbEntity
  8
LC-001-101-D00-0
 62
     7
370
    13
100
AcDbLine
 10
-48.9
 20
49.95
 30
0.0
 11
-52.4
 21
49.64379
 31
0.0
  0
LINE
  5
AA
330
87
100
AcDbEntity
  8
LC-001-101-D00-0
 62
     7
370
    13
100
AcDbLine
 10
-48.9
 20
55.05
 30
0.0
 11
-48.9
 21
49.95
 31
0.0
  0
LINE
  5
AB
330
87
100
AcDbEntity
  8
LC-001-101-D00-0
 62
     7
370
    13
100
AcDbLine
 10
-52.4
 20
55.35621
 30
0.0
 11
-48.9
 21
55.05
 31
0.0
  0
LINE
  5
AC
330
87
100
AcDbEntity
  8
LC-001-101-D00-0
 62
     7
370
    13
100
AcDbLine
 10
-52.4
 20
57.44379
 30
0.0
 11
-52.4
 21
55.35621
 31
0.0
  0
LINE
  5
AD
330
87
100
AcDbEntity
  8
LC-001-101-D00-0
 62
     7
370
    13
100
AcDbLine
 10
-36.462178
 20
100.0
 30
0.0
 11
-37.4
 21
96.5
 31
0.0
  0
LINE
  5
AE
330
87
100
AcDbEntity
  8
LC-001-101-D00-0
 62
     7
370
    13
100
AcDbLine
 10
0.0
 20
100.0
 30
0.0
 11
-36.462178
 21
100.0
 31
0.0
  0
LINE
  5
AF
330
87
100
AcDbEntity
  8
LC-001-101-D00-0
 62
     7
370
    13
100
AcDbLine
 10
-37.4
 20
64.0
 30
0.0
 11
-51.4
 21
64.0
 31
0.0
  0
LINE
  5
B0
330
87
100
AcDbEntity
  8
LC-001-101-D00-0
 62
     7
370
    13
100
AcDbLine
 10
37.6
 20
64.0
 30
0.0
 11
51.6
 21
64.0
 31
0.0
  0
LINE
  5
B1
330
87
100
AcDbEntity
  8
LC-001-101-D00-0
 62
     7
370
    13
100
AcDbLine
 10
37.6
 20
96.5
 30
0.0
 11
37.6
 21
64.0
 31
0.0
  0
LINE
  5
B3
330
87
100
AcDbEntity
  8
LC-001-101-D00-0
  6
DIVIDE
 62
     7
370
    25
100
AcDbLine
 10
0.1
 20
-2.853132
 30
0.0
 11
0.1
 21
102.309229
 31
0.0
  0
LINE
  5
B4
330
87
100
AcDbEntity
  8
LC-001-101-D00-0
 62
     7
370
    13
100
AcDbLine
 10
-37.4
 20
96.5
 30
0.0
 11
37.6
 21
96.5
 31
0.0
  0
LINE
  5
B5
330
87
100
AcDbEntity
  8
LC-001-101-D00-0
 62
     7
370
    13
100
AcDbLine
 10
-37.4
 20
64.0
 30
0.0
 11
37.6
 21
64.0
 31
0.0
  0
LINE
  5
B6
330
87
100
AcDbEntity
  8
LC-001-101-D00-0
 62
     7
370
    13
100
AcDbLine
 10
49.1
 20
61.9
 30
0.0
 11
-48.9
 21
61.9
 31
0.0
  0
LINE
  5
B7
330
87
100
AcDbEntity
  8
LC-001-101-D00-0
 62
     7
370
    13
100
AcDbLine
 10
-48.9
 20
57.75
 30
0.0
 11
49.1
 21
57.75
 31
0.0
  0
LINE
  5
B8
330
87
100
AcDbEntity
  8
LC-001-101-D00-0
 62
     7
370
    13
100
AcDbLine
 10
49.1
 20
55.05
 30
0.0
 11
-48.9
 21
55.05
 31
0.0
  0
LINE
  5
B9
330
87
100
AcDbEntity
  8
LC-001-101-D00-0
 62
     7
370
    13
100
AcDbLine
 10
-48.9
 20
49.95
 30
0.0
 11
49.1
 21
49.95
 31
0.0
  0
LINE
  5
BA
330
87
100
AcDbEntity
  8
LC-001-101-D00-0
 62
     7
370
    13
100
AcDbLine
 10
49.1
 20
47.25
 30
0.0
 11
-48.9
 21
47.25
 31
0.0
  0
LINE
  5
BB
330
87
100
AcDbEntity
  8
LC-001-101-D00-0
 62
     7
370
    13
100
AcDbLine
 10
-48.9
 20
43.1
 30
0.0
 11
49.1
 21
43.1
 31
0.0
  0
LINE
  5
BC
330
87
100
AcDbEntity
  8
LC-001-101-D00-0
 62
     7
370
    13
100
AcDbLine
 10
46.1
 20
41.0
 30
0.0
 11
-45.9
 21
41.0
 31
0.0
  0
LINE
  5
BD
330
87
100
AcDbEntity
  8
LC-001-101-D00-0
 62
     7
370
    13
100
AcDbLine
 10
-44.9
 20
3.5
 30
0.0
 11
45.1
 21
3.5
 31
0.0
  0
LINE
  5
BE
330
87
100
AcDbEntity
  8
LC-001-101-D00-0
 62
     7
370
    13
100
AcDbLine
 10
49.1
 20
57.75
 30
0.0
 11
52.6
 21
57.44379
 31
0.0
  0
LINE
  5
BF
330
87
100
AcDbEntity
  8
LC-001-101-D00-0
 62
     7
370
    13
100
AcDbLine
 10
52.6
 20
47.55621
 30
0.0
 11
49.1
 21
47.25
 31
0.0
  0
LINE
  5
C0
330
87
100
AcDbEntity
  8
LC-001-101-D00-0
 62
     7
370
    13
100
AcDbLine
 10
52.6
 20
42.0
 30
0.0
 11
52.6
 21
42.79379
 31
0.0
  0
LINE
  5
C1
330
87
100
AcDbEntity
  8
LC-001-101-D00-0
 62
     7
370
    13
100
AcDbLine
 10
-52.4
 20
42.0
 30
0.0
 11
-52.4
 21
42.79379
 31
0.0
  0
LINE
  5
C2
330
87
100
AcDbEntity
  8
LC-001-101-D00-0
 62
     7
370
    13
100
AcDbLine
 10
-52.4
 20
62.20621
 30
0.0
 11
-52.4
 21
63.0
 31
0.0
  0
LINE
  5
C3
330
87
100
AcDbEntity
  8
LC-001-101-D00-0
 62
     7
370
    13
100
AcDbLine
 10
-48.9
 20
61.9
 30
0.0
 11
-52.4
 21
62.20621
 31
0.0
  0
LINE
  5
C4
330
87
100
AcDbEntity
  8
LC-001-101-D00-0
 62
     7
370
    13
100
AcDbLine
 10
52.6
 20
62.20621
 30
0.0
 11
52.6
 21
63.0
 31
0.0
  0
LINE
  5
C5
330
87
100
AcDbEntity
  8
LC-001-101-D00-0
 62
     7
370
    13
100
AcDbLine
 10
52.6
 20
62.20621
 30
0.0
 11
49.1
 21
61.9
 31
0.0
  0
ENDBLK
  5
89
330
87
100
AcDbEntity
  8
0
100
AcDbBlockEnd
  0
ENDSEC
  0
SECTION
  2
ENTITIES
  0
DIMENSION
  5
33
330
1F
100
AcDbEntity
  8
LC-001-101-D00-0
 62
     7
370
    25
100
AcDbDimension
  2
*D1
 10
-44.9
 20
-54.795374
 30
0.0
 11
-1.670167
 21
-23.995374
 31
0.0
 70
   160
  1
DN<>
 71
     5
 42
90.0
  3
LC-DIM-L-0140-02-02
100
AcDbAlignedDimension
 13
45.1
 23
3.5
 33
0.0
 14
-44.9
 24
3.5
 34
0.0
100
AcDbRotatedDimension
  0
DIMENSION
  5
41
330
1F
100
AcDbEntity
  8
LC-001-101-D00-0
 62
     7
370
    25
100
AcDbDimension
  2
*D2
 10
-37.4
 20
131.126626
 30
0.0
 11
53.703544
 21
161.926626
 31
0.0
 70
   160
  1
DN70
 71
     5
 42
75.0
  3
LC-DIM-L-0140-02-02
100
AcDbAlignedDimension
 13
37.6
 23
96.5
 33
0.0
 14
-37.4
 24
96.5
 34
0.0
100
AcDbRotatedDimension
  0
DIMENSION
  5
4F
330
1F
100
AcDbEntity
  8
LC-001-101-D00-0
 62
     7
370
    25
100
AcDbDimension
  2
*D3
 10
-52.4
 20
-109.443374
 30
0.0
 11
-8.059441
 21
-78.643374
 31
0.0
 70
   160
  1
%%c<>
 71
     5
 42
105.0
  3
LC-DIM-L-0140-02-02
100
AcDbAlignedDimension
 13
52.6
 23
47.55621
 33
0.0
 14
-52.4
 24
47.55621
 34
0.0
100
AcDbRotatedDimension
  0
DIMENSION
  5
5C
330
1F
100
AcDbEntity
  8
LC-001-101-D00-0
 62
     7
370
    25
100
AcDbDimension
  2
*D4
 10
112.271892
 20
100.0
 30
0.0
 11
81.471892
 21
44.996626
 31
0.0
 70
   160
 71
     5
 42
100.0
 53
90.0
  3
LC-DIM-L-0140-02-02
100
AcDbAlignedDimension
 13
44.162178
 23
0.0
 33
0.0
 14
36.662178
 24
100.0
 34
0.0
 50
90.0
100
AcDbRotatedDimension
  0
INSERT
  5
86
330
1F
100
AcDbEntity
  8
LC-001-101-D00-0
 62
     7
370
    50
100
AcDbBlockReference
  2
KLON1
 10
0.0
 20
0.0
 30
0.0
  0
INSERT
  5
C6
330
1F
100
AcDbEntity
  8
LC-001-101-D00-0
 62
     7
370
    50
100
AcDbBlockReference
  2
KLON4
 10
0.0
 20
0.0
 30
0.0
  0
ENDSEC
  0
SECTION
  2
OBJECTS
  0
DICTIONARY
  5
C
330
0
100
AcDbDictionary
281
     1
  3
ACAD_GROUP
350
D
  3
ACAD_LAYOUT
350
1A
  3
ACAD_MLINESTYLE
350
17
  3
ACAD_PLOTSETTINGS
350
19
  3
ACAD_PLOTSTYLENAME
350
E
  0
DICTIONARY
  5
D
102
{ACAD_REACTORS
330
C
102
}
330
C
100
AcDbDictionary
281
     1
  0
DICTIONARY
  5
1A
102
{ACAD_REACTORS
330
C
102
}
330
C
100
AcDbDictionary
281
     1
  3
Layout1
350
1E
  3
Layout2
350
26
  3
Model
350
22
  0
DICTIONARY
  5
17
102
{ACAD_REACTORS
330
C
102
}
330
C
100
AcDbDictionary
281
     1
  3
Standard
350
18
  0
DICTIONARY
  5
19
102
{ACAD_REACTORS
330
C
102
}
330
C
100
AcDbDictionary
281
     1
  0
ACDBDICTIONARYWDFLT
  5
E
102
{ACAD_REACTORS
330
C
102
}
330
C
100
AcDbDictionary
281
     1
  3
Normal
350
F
100
AcDbDictionaryWithDefault
340
F
  0
LAYOUT
  5
1E
102
{ACAD_REACTORS
330
1A
102
}
330
1A
100
AcDbPlotSettings
  1

  2

  4

  6

 40
0.0
 41
0.0
 42
0.0
 43
0.0
 44
0.0
 45
0.0
 46
0.0
 47
0.0
 48
0.0
 49
0.0
140
0.0
141
0.0
142
1.0
143
1.0
 70
   688
 72
     0
 73
     0
 74
     5
  7

 75
    16
147
1.0
148
0.0
149
0.0
100
AcDbLayout
  1
Layout1
 70
     1
 71
     1
 10
-412.086255
 20
-256.755374
 11
427.913745
 21
337.244626
 12
0.0
 22
0.0
 32
0.0
 14
-412.086255
 24
-256.755374
 34
0.0
 15
427.913745
 25
337.244626
 35
0.0
146
0.0
 13
0.0
 23
0.0
 33
0.0
 16
1.0
 26
0.0
 36
0.0
 17
0.0
 27
1.0
 37
0.0
 76
     0
330
1B
  0
LAYOUT
  5
26
102
{ACAD_REACTORS
330
1A
102
}
330
1A
100
AcDbPlotSettings
  1

  2

  4

  6

 40
0.0
 41
0.0
 42
0.0
 43
0.0
 44
0.0
 45
0.0
 46
0.0
 47
0.0
 48
0.0
 49
0.0
140
0.0
141
0.0
142
1.0
143
1.0
 70
   688
 72
     0
 73
     0
 74
     5
  7

 75
    16
147
1.0
148
0.0
149
0.0
100
AcDbLayout
  1
Layout2
 70
     1
 71
     2
 10
0.0
 20
0.0
 11
0.0
 21
0.0
 12
0.0
 22
0.0
 32
0.0
 14
0.0
 24
0.0
 34
0.0
 15
0.0
 25
0.0
 35
0.0
146
0.0
 13
0.0
 23
0.0
 33
0.0
 16
1.0
 26
0.0
 36
0.0
 17
0.0
 27
1.0
 37
0.0
 76
     0
330
23
  0
LAYOUT
  5
22
102
{ACAD_REACTORS
330
1A
102
}
330
1A
100
AcDbPlotSettings
  1

  2

  4

  6

 40
0.0
 41
0.0
 42
0.0
 43
0.0
 44
0.0
 45
0.0
 46
0.0
 47
0.0
 48
0.0
 49
0.0
140
0.0
141
0.0
142
1.0
143
1.0
 70
  1776
 72
     0
 73
     0
 74
     0
  7

 75
     0
147
1.0
148
0.0
149
0.0
100
AcDbLayout
  1
Model
 70
     1
 71
     0
 10
-412.086255
 20
-256.755374
 11
427.913745
 21
337.244626
 12
0.0
 22
0.0
 32
0.0
 14
-412.086255
 24
-256.755374
 34
0.0
 15
427.913745
 25
337.244626
 35
0.0
146
0.0
 13
0.0
 23
0.0
 33
0.0
 16
1.0
 26
0.0
 36
0.0
 17
0.0
 27
1.0
 37
0.0
 76
     0
330
1F
  0
MLINESTYLE
  5
18
102
{ACAD_REACTORS
330
17
102
}
330
17
100
AcDbMlineStyle
  2
Standard
 70
     0
  3

 62
   256
 51
90.0
 52
90.0
 71
     2
 49
0.5
 62
   256
  6
BYLAYER
 49
-0.5
 62
   256
  6
BYLAYER
  0
ACDBPLACEHOLDER
  5
F
102
{ACAD_REACTORS
330
E
102
}
330
E
  0
ENDSEC
  0
EOF
