  0
SECTION
  2
HEADER
  9
$ACADVER
  1
AC1015
  9
$ACADMAINTVER
 70
     6
  9
$DWGCODEPAGE
  3
DOS850
  9
$INSBASE
 10
0.0
 20
0.0
 30
0.0
  9
$EXTMIN
 10
0.0
 20
0.0
 30
0.0
  9
$EXTMAX
 10
840.0
 20
594.0
 30
0.0
  9
$LIMMIN
 10
0.0
 20
0.0
  9
$LIMMAX
 10
840.0
 20
594.0
  9
$ORTHOMODE
 70
     0
  9
$REGENMODE
 70
     1
  9
$FILLMODE
 70
     1
  9
$QTEXTMODE
 70
     0
  9
$MIRRTEXT
 70
     1
  9
$LTSCALE
 40
2.0
  9
$ATTMODE
 70
     1
  9
$TEXTSIZE
 40
0.2
  9
$TRACEWID
 40
0.05
  9
$TEXTSTYLE
  7
Standard
  9
$CLAYER
  8
0
  9
$CELTYPE
  6
ByBlock
  9
$CECOLOR
 62
     7
  9
$CELTSCALE
 40
1.0
  9
$DISPSILH
 70
     0
  9
$DIMSCALE
 40
2.0
  9
$DIMASZ
 40
3.5
  9
$DIMEXO
 40
0.0625
  9
$DIMDLI
 40
0.38
  9
$DIMRND
 40
0.0
  9
$DIMDLE
 40
0.0
  9
$DIMEXE
 40
0.18
  9
$DIMTP
 40
0.0
  9
$DIMTM
 40
0.0
  9
$DIMTXT
 40
3.5
  9
$DIMCEN
 40
0.09
  9
$DIMTSZ
 40
0.0
  9
$DIMTOL
 70
     0
  9
$DIMLIM
 70
     0
  9
$DIMTIH
 70
     1
  9
$DIMTOH
 70
     1
  9
$DIMSE1
 70
     0
  9
$DIMSE2
 70
     0
  9
$DIMTAD
 70
     1
  9
$DIMZIN
 70
     0
  9
$DIMBLK
  1

  9
$DIMASO
 70
     1
  9
$DIMSHO
 70
     1
  9
$DIMPOST
  1

  9
$DIMAPOST
  1

  9
$DIMALT
 70
     0
  9
$DIMALTD
 70
     2
  9
$DIMALTF
 40
25.4
  9
$DIMLFAC
 40
1.0
  9
$DIMTOFL
 70
     0
  9
$DIMTVP
 40
0.0
  9
$DIMTIX
 70
     0
  9
$DIMSOXD
 70
     0
  9
$DIMSAH
 70
     0
  9
$DIMBLK1
  1

  9
$DIMBLK2
  1

  9
$DIMSTYLE
  2
Standard
  9
$DIMCLRD
 70
     0
  9
$DIMCLRE
 70
     0
  9
$DIMCLRT
 70
     0
  9
$DIMTFAC
 40
1.0
  9
$DIMGAP
 40
0.09
  9
$DIMJUST
 70
     0
  9
$DIMSD1
 70
     0
  9
$DIMSD2
 70
     0
  9
$DIMTOLJ
 70
     1
  9
$DIMTZIN
 70
     0
  9
$DIMALTZ
 70
     0
  9
$DIMALTTZ
 70
     0
  9
$DIMUPT
 70
     0
  9
$DIMDEC
 70
     4
  9
$DIMTDEC
 70
     4
  9
$DIMALTU
 70
     2
  9
$DIMALTTD
 70
     2
  9
$DIMTXSTY
  7
Standard
  9
$DIMAUNIT
 70
     0
  9
$DIMADEC
 70
     0
  9
$DIMALTRND
 40
0.0
  9
$DIMAZIN
 70
     0
  9
$DIMDSEP
 70
     0
  9
$DIMATFIT
 70
     3
  9
$DIMFRAC
 70
     0
  9
$DIMLDRBLK
  1

  9
$DIMLUNIT
 70
     2
  9
$DIMLWD
 70
     0
  9
$DIMLWE
 70
     0
  9
$DIMTMOVE
 70
     0
  9
$LUNITS
 70
     2
  9
$LUPREC
 70
     6
  9
$SKETCHINC
 40
0.1
  9
$FILLETRAD
 40
0.0
  9
$AUNITS
 70
     0
  9
$AUPREC
 70
     0
  9
$MENU
  1
acad
  9
$ELEVATION
 40
0.0
  9
$PELEVATION
 40
0.0
  9
$THICKNESS
 40
0.0
  9
$LIMCHECK
 70
     0
  9
$CHAMFERA
 40
0.0
  9
$CHAMFERB
 40
0.0
  9
$CHAMFERC
 40
0.0
  9
$CHAMFERD
 40
0.0
  9
$SKPOLY
 70
     0
  9
$TDCREATE
 40
0.000000000
  9
$TDUCREATE
 40
0.000000000
  9
$TDUPDATE
 40
0.000000000
  9
$TDUUPDATE
 40
0.000000000
  9
$TDINDWG
 40
0.0000000000
  9
$TDUSRTIMER
 40
0.0000000000
  9
$USRTIMER
 70
     1
  9
$ANGBASE
 50
0.0
  9
$ANGDIR
 70
     0
  9
$PDMODE
 70
     0
  9
$PDSIZE
 40
0.0
  9
$PLINEWID
 40
0.0
  9
$SPLFRAME
 70
     0
  9
$SPLINETYPE
 70
     6
  9
$SPLINESEGS
 70
     8
  9
$HANDSEED
  5
1FA
  9
$SURFTAB1
 70
     6
  9
$SURFTAB2
 70
     6
  9
$SURFTYPE
 70
     6
  9
$SURFU
 70
     6
  9
$SURFV
 70
     6
  9
$UCSBASE
  2

  9
$UCSNAME
  2

  9
$UCSORG
 10
0.0
 20
0.0
 30
0.0
  9
$UCSXDIR
 10
1.0
 20
0.0
 30
0.0
  9
$UCSYDIR
 10
0.0
 20
1.0
 30
0.0
  9
$UCSORTHOREF
  2

  9
$UCSORTHOVIEW
 70
     0
  9
$UCSORGTOP
 10
0.0
 20
0.0
 30
0.0
  9
$UCSORGBOTTOM
 10
0.0
 20
0.0
 30
0.0
  9
$UCSORGLEFT
 10
0.0
 20
0.0
 30
0.0
  9
$UCSORGRIGHT
 10
0.0
 20
0.0
 30
0.0
  9
$UCSORGFRONT
 10
0.0
 20
0.0
 30
0.0
  9
$UCSORGBACK
 10
0.0
 20
0.0
 30
0.0
  9
$PUCSBASE
  2

  9
$PUCSNAME
  2

  9
$PUCSORG
 10
0.0
 20
0.0
 30
0.0
  9
$PUCSXDIR
 10
1.0
 20
0.0
 30
0.0
  9
$PUCSYDIR
 10
0.0
 20
1.0
 30
0.0
  9
$PUCSORTHOREF
  2

  9
$PUCSORTHOVIEW
 70
     0
  9
$PUCSORGTOP
 10
0.0
 20
0.0
 30
0.0
  9
$PUCSORGBOTTOM
 10
0.0
 20
0.0
 30
0.0
  9
$PUCSORGLEFT
 10
0.0
 20
0.0
 30
0.0
  9
$PUCSORGRIGHT
 10
0.0
 20
0.0
 30
0.0
  9
$PUCSORGFRONT
 10
0.0
 20
0.0
 30
0.0
  9
$PUCSORGBACK
 10
0.0
 20
0.0
 30
0.0
  9
$USERI1
 70
     0
  9
$USERI2
 70
     0
  9
$USERI3
 70
     0
  9
$USERI4
 70
     0
  9
$USERI5
 70
     0
  9
$USERR1
 40
0.0
  9
$USERR2
 40
0.0
  9
$USERR3
 40
0.0
  9
$USERR4
 40
0.0
  9
$USERR5
 40
0.0
  9
$WORLDVIEW
 70
     1
  9
$SHADEDGE
 70
     3
  9
$SHADEDIF
 70
    70
  9
$TILEMODE
 70
     1
  9
$MAXACTVP
 70
    16
  9
$PINSBASE
 10
0.0
 20
0.0
 30
0.0
  9
$PLIMCHECK
 70
     0
  9
$PEXTMIN
 10
0.0
 20
0.0
 30
0.0
  9
$PEXTMAX
 10
840.0
 20
594.0
 30
0.0
  9
$PLIMMIN
 10
0.0
 20
0.0
  9
$PLIMMAX
 10
840.0
 20
594.0
  9
$UNITMODE
 70
     0
  9
$VISRETAIN
 70
     0
  9
$PLINEGEN
 70
     1
  9
$PSLTSCALE
 70
     0
  9
$TREEDEPTH
 70
  3020
  9
$CMLSTYLE
  2
Standard
  9
$CMLJUST
 70
     0
  9
$CMLSCALE
 40
1.0
  9
$PROXYGRAPHICS
 70
     0
  9
$MEASUREMENT
 70
     0
  9
$CELWEIGHT
370
     0
  9
$ENDCAPS
280
     0
  9
$JOINSTYLE
280
     0
  9
$LWDISPLAY
290
     0
  9
$INSUNITS
 70
     0
  9
$HYPERLINKBASE
  1

  9
$STYLESHEET
  1

  9
$XEDIT
290
     1
  9
$CEPSNTYPE
380
     0
  9
$PSTYLEMODE
290
     1
  9
$FINGERPRINTGUID
  2

  9
$VERSIONGUID
  2

  9
$EXTNAMES
290
     1
  9
$PSVPSCALE
 40
0.0
  0
ENDSEC
  0
SECTION
  2
CLASSES
  0
CLASS
  1
LWPOLYLINE
  2
AcDbPolyline
  3
AutoCAD 2000
 90
        0
280
     0
281
     1
  0
CLASS
  1
IMAGE
  2
AcDbRasterImage
  3
ISM
 90
      127
280
     0
281
     1
  0
CLASS
  1
OLE2FRAME
  2
AcDbOle2Frame
  3
AutoCAD 2000
 90
        0
280
     0
281
     1
  0
CLASS
  1
HATCH
  2
AcDbHatch
  3
AutoCAD 2000
 90
        0
280
     0
281
     1
  0
CLASS
  1
DICTIONARYVAR
  2
AcDbDictionaryVar
  3
AutoCAD 2000
 90
        0
280
     0
281
     0
  0
CLASS
  1
RASTERVARIABLES
  2
AcDbRasterVariables
  3
ISM
 90
        0
280
     0
281
     0
  0
CLASS
  1
IMAGEDEF
  2
AcDbRasterImageDef
  3
ISM
 90
        0
280
     0
281
     0
  0
CLASS
  1
IMAGEDEF_REACTOR
  2
AcDbRasterImageDefReactor
  3
ISM
 90
        1
280
     0
281
     0
  0
CLASS
  1
IDBUFFER
  2
AcDbIdBuffer
  3
AutoCAD 2000
 90
        0
280
     0
281
     0
  0
CLASS
  1
SPATIAL_FILTER
  2
AcDbSpatialFilter
  3
AutoCAD 2000
 90
        0
280
     0
281
     0
  0
CLASS
  1
XRECORD
  2
AcDbXrecord
  3
AutoCAD 2000
 90
        0
280
     0
281
     0
  0
CLASS
  1
SORTENTSTABLE
  2
AcDbSortentsTable
  3
AutoCAD 2000
 90
        0
280
     0
281
     0
  0
CLASS
  1
LAYER_INDEX
  2
AcDbLayerIndex
  3
AutoCAD 2000
 90
        0
280
     0
281
     0
  0
CLASS
  1
SPATIAL_INDEX
  2
AcDbSpatialIndex
  3
AutoCAD 2000
 90
        0
280
     0
281
     0
  0
CLASS
  1
OBJECT_PTR
  2
CAseDLPNTableRecord
  3
"ASE-LPNTableRecord"
 90
        1
280
     0
281
     0
  0
CLASS
  1
LAYOUT
  2
AcDbLayout
  3
AutoCAD 2000
 90
        0
280
     0
281
     0
  0
CLASS
  1
PLOTSETTINGS
  2
AcDbPlotSettings
  3
AutoCAD 2000
 90
        0
280
     0
281
     0
  0
CLASS
  1
ACDBDICTIONARYWDFLT
  2
AcDbDictionaryWithDefault
  3
AutoCAD 2000
 90
        0
280
     0
281
     0
  0
CLASS
  1
ACDBPLACEHOLDER
  2
AcDbPlaceHolder
  3
AutoCAD 2000
 90
        0
280
     0
281
     0
  0
ENDSEC
  0
SECTION
  2
TABLES
  0
TABLE
  2
VPORT
  5
7
100
AcDbSymbolTable
 70
     1
  0
VPORT
  5
15
100
AcDbSymbolTableRecord
100
AcDbViewportTableRecord
  2
*ACTIVE
 70
     0
 10
0.0
 20
0.0
 11
1.0
 21
1.0
 12
420.0
 22
297.0
 13
0.0
 23
0.0
 14
1.0
 24
1.0
 15
0.0
 25
0.0
 16
0.0
 26
0.0
 36
1.0
 17
0.0
 27
0.0
 37
0.0
 40
594.0
 41
1.604229
 42
50.0
 43
0.0
 44
0.0
 50
0.0
 51
0.0
 71
     0
 72
   100
 73
     1
 74
     1
 75
     0
 76
     0
 77
     0
 78
     0
281
     0
 65
     0
110
0.0
120
0.0
130
0.0
111
1.0
121
0.0
131
0.0
112
0.0
122
1.0
132
0.0
345
0
346
0
 79
     0
146
0.0
  0
ENDTAB
  0
TABLE
  2
LTYPE
  5
4
100
AcDbSymbolTable
 70
     5
  0
LTYPE
  5
11
100
AcDbSymbolTableRecord
100
AcDbLinetypeTableRecord
  2
ByBlock
 70
    64
  3

 72
    65
 73
     0
 40
0.0
  0
LTYPE
  5
12
100
AcDbSymbolTableRecord
100
AcDbLinetypeTableRecord
  2
ByLayer
 70
    64
  3

 72
    65
 73
     0
 40
0.0
  0
LTYPE
  5
13
100
AcDbSymbolTableRecord
100
AcDbLinetypeTableRecord
  2
Continuous
 70
    64
  3
Solid line
 72
    65
 73
     0
 40
0.0
  0
LTYPE
  5
23
100
AcDbSymbolTableRecord
100
AcDbLinetypeTableRecord
  2
DASHED
 70
    64
  3
__ __ __ __ __
 72
    65
 73
     2
 40
6.25
 49
5.0
 74
     0
 49
-1.25
 74
     0
  0
LTYPE
  5
2A
100
AcDbSymbolTableRecord
100
AcDbLinetypeTableRecord
  2
DASHDOT
 70
    64
  3
__ . __ . __ . __ . __
 72
    65
 73
     4
 40
7.5
 49
5.0
 74
     0
 49
-1.25
 74
     0
 49
0.0
 74
     0
 49
-1.25
 74
     0
  0
ENDTAB
  0
TABLE
  2
LAYER
  5
2
100
AcDbSymbolTable
 70
    11
  0
LAYER
  5
14
100
AcDbSymbolTableRecord
100
AcDbLayerTableRecord
  2
0
 70
     0
 62
     7
  6
Continuous
290
     1
370
    -3
390
1D
  0
LAYER
  5
24
100
AcDbSymbolTableRecord
100
AcDbLayerTableRecord
  2
LC-INFO-1-2-mm-A3-0
 70
     1
 62
   255
  6
ByBlock
290
     1
370
    -3
390
1D
  0
LAYER
  5
25
100
AcDbSymbolTableRecord
100
AcDbLayerTableRecord
  2
LC-3D-HIDDEN
 70
     0
 62
     9
  6
DASHED
290
     1
370
    -3
390
1D
  0
LAYER
  5
26
100
AcDbSymbolTableRecord
100
AcDbLayerTableRecord
  2
LC-CUT-HIDDEN
 70
     0
 62
     9
  6
DASHED
290
     1
370
    -3
390
1D
  0
LAYER
  5
27
100
AcDbSymbolTableRecord
100
AcDbLayerTableRecord
  2
LC-VIEWPORT
 70
     0
 62
     7
  6
ByBlock
290
     1
370
    -3
390
1D
  0
LAYER
  5
2B
100
AcDbSymbolTableRecord
100
AcDbLayerTableRecord
  2
LC-001-002-----0
 70
     0
 62
     2
  6
DASHDOT
290
     1
370
    -3
390
1D
  0
LAYER
  5
34
100
AcDbSymbolTableRecord
100
AcDbLayerTableRecord
  2
LC-002-003-MTH-0
 70
     0
 62
     2
  6
ByBlock
290
     1
370
    -3
390
1D
  0
LAYER
  5
37
100
AcDbSymbolTableRecord
100
AcDbLayerTableRecord
  2
LC-003-003-MTG-0
 70
     0
 62
     2
  6
ByBlock
290
     1
370
    -3
390
1D
  0
LAYER
  5
39
100
AcDbSymbolTableRecord
100
AcDbLayerTableRecord
  2
LC-004-003-----0
 70
     0
 62
     2
  6
ByBlock
290
     1
370
    -3
390
1D
  0
LAYER
  5
C4
100
AcDbSymbolTableRecord
100
AcDbLayerTableRecord
  2
LC-005-005-----0
 70
     0
 62
     2
  6
ByBlock
290
     1
370
    -3
390
1D
  0
LAYER
  5
C9
100
AcDbSymbolTableRecord
100
AcDbLayerTableRecord
  2
LC-006-002-RND-0
 70
     0
 62
     1
  6
ByBlock
290
     1
370
    -3
390
1D
  0
ENDTAB
  0
TABLE
  2
STYLE
  5
3
100
AcDbSymbolTable
 70
     3
  0
STYLE
  5
17
100
AcDbSymbolTableRecord
100
AcDbTextStyleTableRecord
  2
Standard
 70
     0
 40
0.0
 41
1.0
 50
0.0
 71
     0
 42
0.0
  3
txt
  4

  0
STYLE
  5
29
100
AcDbSymbolTableRecord
100
AcDbTextStyleTableRecord
  2
LCTX15-400-0-0-ARIAL
 70
    64
 40
3.5
 41
1.0
 50
0.0
 71
     0
 42
0.0
  3
Arial
  4

1001
ACAD
1000
Arial
1071
 16777216
  0
STYLE
  5
31
100
AcDbSymbolTableRecord
100
AcDbTextStyleTableRecord
  2
LCTX15-400-0-0-DIN-SCHRIFTP
 70
    64
 40
0.0
 41
1.0
 50
1.5
 71
     0
 42
3.5
  3
STANDARD
  4

  0
ENDTAB
  0
TABLE
  2
VIEW
  5
5
100
AcDbSymbolTable
 70
     0
  0
ENDTAB
  0
TABLE
  2
UCS
  5
6
100
AcDbSymbolTable
 70
     0
  0
ENDTAB
  0
TABLE
  2
APPID
  5
8
100
AcDbSymbolTable
 70
     1
  0
APPID
  5
16
100
AcDbSymbolTableRecord
100
AcDbRegAppTableRecord
  2
ACAD
 70
     0
  0
ENDTAB
  0
TABLE
  2
DIMSTYLE
  5
9
100
AcDbSymbolTable
 70
     3
100
AcDbDimStyleTable
 71
     0
  0
DIMSTYLE
105
18
100
AcDbSymbolTableRecord
100
AcDbDimStyleTableRecord
  2
Standard
 70
     0
  3

  4

 40
1.0
 41
0.18
 42
0.0625
 43
0.38
 44
0.18
 45
0.0
 46
0.0
 47
0.0
 48
0.0
 71
     0
 72
     0
 73
     1
 74
     1
 75
     0
 76
     0
 77
     0
 78
     0
 79
     0
140
0.18
141
0.09
142
0.0
143
25.4
144
1.0
145
0.0
146
1.0
147
0.09
148
0.0
170
     0
171
     2
172
     0
173
     0
174
     0
175
     0
176
     0
177
     0
178
     0
179
     0
271
     4
272
     4
273
     2
274
     2
275
     0
276
     0
277
     2
278
    46
279
     0
280
     0
281
     0
282
     0
283
     1
284
     0
285
     0
286
     0
288
     0
289
     0
340
17
341
0
342
0
343
0
344
0
371
    -2
372
    -2
  0
DIMSTYLE
105
30
100
AcDbSymbolTableRecord
100
AcDbDimStyleTableRecord
  2
LC-DIM-L-0140-01-02
 70
     0
  3

  4

 40
2.0
 41
3.5
 42
0.0
 43
7.5
 44
1.8
 45
0.0
 46
0.0
 47
0.0
 48
0.0
 71
     0
 72
     0
 73
     0
 74
     0
 75
     0
 76
     0
 77
     1
 78
     8
 79
     0
140
14.0
141
0.0
142
0.0
143
25.4
144
1.0
145
0.0
146
0.71
147
1.5
148
0.0
170
     0
171
     2
172
     0
173
     0
174
     0
175
     0
176
     2
177
     2
178
     2
179
     1
271
     1
272
     4
273
     2
274
     2
275
     0
276
     0
277
     2
278
    44
279
     0
280
     0
281
     0
282
     0
283
     1
284
     0
285
     0
286
     0
288
     0
289
     0
340
31
341
0
342
0
343
0
344
0
371
    -3
372
     0
  0
DIMSTYLE
105
1C2
100
AcDbSymbolTableRecord
100
AcDbDimStyleTableRecord
  2
LC-DIM-L-0140-02-02
 70
     0
  3

  4

 40
2.0
 41
3.5
 42
0.0
 43
7.5
 44
1.8
 45
0.0
 46
0.0
 47
0.0
 48
0.0
 71
     0
 72
     0
 73
     0
 74
     0
 75
     0
 76
     0
 77
     1
 78
     8
 79
     0
140
14.0
141
0.0
142
0.0
143
25.4
144
1.0
145
0.0
146
0.71
147
1.5
148
0.0
170
     0
171
     2
172
     0
173
     0
174
     0
175
     0
176
     2
177
     2
178
     2
179
     2
271
     2
272
     4
273
     2
274
     2
275
     0
276
     0
277
     2
278
    44
279
     0
280
     0
281
     0
282
     0
283
     1
284
     0
285
     0
286
     0
288
     0
289
     0
340
31
341
0
342
0
343
0
344
0
371
    -3
372
     0
  0
ENDTAB
  0
TABLE
  2
BLOCK_RECORD
  5
1
100
AcDbSymbolTable
 70
     6
  0
BLOCK_RECORD
  5
A
100
AcDbSymbolTableRecord
100
AcDbBlockTableRecord
  2
*MODEL_SPACE
340
20
  0
BLOCK_RECORD
  5
B
100
AcDbSymbolTableRecord
100
AcDbBlockTableRecord
  2
*PAPER_SPACE
340
21
  0
BLOCK_RECORD
  5
32
100
AcDbSymbolTableRecord
100
AcDbBlockTableRecord
  2
*D0
340
0
  0
BLOCK_RECORD
  5
4F
100
AcDbSymbolTableRecord
100
AcDbBlockTableRecord
  2
*D1
340
0
  0
BLOCK_RECORD
  5
CF
100
AcDbSymbolTableRecord
100
AcDbBlockTableRecord
  2
*X2
340
0
102
{BLKREFS
331
144
102
}
  0
BLOCK_RECORD
  5
145
100
AcDbSymbolTableRecord
100
AcDbBlockTableRecord
  2
*X3
340
0
102
{BLKREFS
331
1C0
102
}
  0
BLOCK_RECORD
  5
1C3
100
AcDbSymbolTableRecord
100
AcDbBlockTableRecord
  2
*D4
340
0
  0
BLOCK_RECORD
  5
1DE
100
AcDbSymbolTableRecord
100
AcDbBlockTableRecord
  2
*D5
340
0
  0
ENDTAB
  0
ENDSEC
  0
SECTION
  2
BLOCKS
  0
BLOCK
  5
D
100
AcDbEntity
  8
0
390
0
100
AcDbBlockBegin
  2
*MODEL_SPACE
 70
     0
 10
0.0
 20
0.0
 30
0.0
  3
*MODEL_SPACE
  1

  0
ENDBLK
  5
E
100
AcDbEntity
  8
0
390
0
100
AcDbBlockEnd
  0
BLOCK
  5
F
100
AcDbEntity
 67
     1
  8
0
390
0
100
AcDbBlockBegin
  2
*PAPER_SPACE
 70
     0
 10
0.0
 20
0.0
 30
0.0
  3
*PAPER_SPACE
  1

  0
ENDBLK
  5
10
100
AcDbEntity
 67
     1
  8
0
390
0
100
AcDbBlockEnd
  0
BLOCK
  5
33
100
AcDbEntity
  8
0
390
0
100
AcDbBlockBegin
  2
*D0
 70
    65
 10
0.0
 20
0.0
 30
0.0
  3
*D0
  1

  0
LINE
  5
35
100
AcDbEntity
  8
LC-002-003-MTH-0
370
    25
390
0
 62
     2
100
AcDbLine
 10
295.525983
 20
260.662667
 30
0.0
 11
369.6
 21
260.662667
 31
0.0
  0
LINE
  5
36
100
AcDbEntity
  8
LC-002-003-MTH-0
370
    25
390
0
 62
     2
100
AcDbLine
 10
319.100286
 20
460.662667
 30
0.0
 11
369.6
 21
460.662667
 31
0.0
  0
LINE
  5
38
100
AcDbEntity
  8
LC-003-003-MTG-0
370
    25
390
0
 62
     2
100
AcDbLine
 10
352.8
 20
260.662667
 30
0.0
 11
352.8
 21
460.662667
 31
0.0
  0
LINE
  5
3A
100
AcDbEntity
  8
LC-004-003-----0
370
    25
390
0
 62
     2
100
AcDbLine
 10
349.145267
 20
288.423124
 30
0.0
 11
352.8
 21
260.662667
 31
0.0
  0
LINE
  5
3B
100
AcDbEntity
  8
LC-004-003-----0
370
    25
390
0
 62
     2
100
AcDbLine
 10
352.8
 20
260.662667
 30
0.0
 11
356.454733
 21
288.423124
 31
0.0
  0
LINE
  5
3C
100
AcDbEntity
  8
LC-004-003-----0
370
    25
390
0
 62
     2
100
AcDbLine
 10
356.454733
 20
288.423124
 30
0.0
 11
349.145267
 21
288.423124
 31
0.0
  0
LINE
  5
3D
100
AcDbEntity
  8
LC-004-003-----0
370
    25
390
0
 62
     2
100
AcDbLine
 10
350.095497
 20
288.485405
 30
0.0
 11
352.8
 21
267.942667
 31
0.0
  0
LINE
  5
3E
100
AcDbEntity
  8
LC-004-003-----0
370
    25
390
0
 62
     2
100
AcDbLine
 10
352.8
 20
267.942667
 30
0.0
 11
355.504503
 21
288.485405
 31
0.0
  0
LINE
  5
3F
100
AcDbEntity
  8
LC-004-003-----0
370
    25
390
0
 62
     2
100
AcDbLine
 10
351.045728
 20
288.547686
 30
0.0
 11
352.8
 21
275.222667
 31
0.0
  0
LINE
  5
40
100
AcDbEntity
  8
LC-004-003-----0
370
    25
390
0
 62
     2
100
AcDbLine
 10
352.8
 20
275.222667
 30
0.0
 11
354.554272
 21
288.547686
 31
0.0
  0
LINE
  5
41
100
AcDbEntity
  8
LC-004-003-----0
370
    25
390
0
 62
     2
100
AcDbLine
 10
351.995959
 20
288.609968
 30
0.0
 11
352.8
 21
282.502667
 31
0.0
  0
LINE
  5
42
100
AcDbEntity
  8
LC-004-003-----0
370
    25
390
0
 62
     2
100
AcDbLine
 10
352.8
 20
282.502667
 30
0.0
 11
353.604041
 21
288.609968
 31
0.0
  0
LINE
  5
43
100
AcDbEntity
  8
LC-004-003-----0
370
    25
390
0
 62
     2
100
AcDbLine
 10
356.454733
 20
432.902211
 30
0.0
 11
352.8
 21
460.662667
 31
0.0
  0
LINE
  5
44
100
AcDbEntity
  8
LC-004-003-----0
370
    25
390
0
 62
     2
100
AcDbLine
 10
352.8
 20
460.662667
 30
0.0
 11
349.145267
 21
432.902211
 31
0.0
  0
LINE
  5
45
100
AcDbEntity
  8
LC-004-003-----0
370
    25
390
0
 62
     2
100
AcDbLine
 10
349.145267
 20
432.902211
 30
0.0
 11
356.454733
 21
432.902211
 31
0.0
  0
LINE
  5
46
100
AcDbEntity
  8
LC-004-003-----0
370
    25
390
0
 62
     2
100
AcDbLine
 10
355.504503
 20
432.83993
 30
0.0
 11
352.8
 21
453.382667
 31
0.0
  0
LINE
  5
47
100
AcDbEntity
  8
LC-004-003-----0
370
    25
390
0
 62
     2
100
AcDbLine
 10
352.8
 20
453.382667
 30
0.0
 11
350.095497
 21
432.83993
 31
0.0
  0
LINE
  5
48
100
AcDbEntity
  8
LC-004-003-----0
370
    25
390
0
 62
     2
100
AcDbLine
 10
354.554272
 20
432.777649
 30
0.0
 11
352.8
 21
446.102667
 31
0.0
  0
LINE
  5
49
100
AcDbEntity
  8
LC-004-003-----0
370
    25
390
0
 62
     2
100
AcDbLine
 10
352.8
 20
446.102667
 30
0.0
 11
351.045728
 21
432.777649
 31
0.0
  0
LINE
  5
4A
100
AcDbEntity
  8
LC-004-003-----0
370
    25
390
0
 62
     2
100
AcDbLine
 10
353.604041
 20
432.715367
 30
0.0
 11
352.8
 21
438.822667
 31
0.0
  0
LINE
  5
4B
100
AcDbEntity
  8
LC-004-003-----0
370
    25
390
0
 62
     2
100
AcDbLine
 10
352.8
 20
438.822667
 30
0.0
 11
351.995959
 21
432.715367
 31
0.0
  0
TEXT
  5
4C
100
AcDbEntity
  8
LC-004-003-----0
370
    -2
390
0
 62
     7
100
AcDbText
 10
344.972446
 20
338.382827
 30
0.0
 40
28.0
  1
200
 50
90.0
 41
0.9
 51
15.0
  7
LCTX15-400-0-0-ARIAL
 72
     1
 11
344.972446
 21
365.010827
 31
0.0
100
AcDbText
  0
ENDBLK
  5
4D
100
AcDbEntity
  8
0
390
0
100
AcDbBlockEnd
  0
BLOCK
  5
50
100
AcDbEntity
  8
0
390
0
100
AcDbBlockBegin
  2
*D1
 70
    65
 10
0.0
 20
0.0
 30
0.0
  3
*D1
  1

  0
LINE
  5
51
100
AcDbEntity
  8
LC-002-003-MTH-0
370
    25
390
0
 62
     2
100
AcDbLine
 10
186.731755
 20
265.162667
 30
0.0
 11
186.731755
 21
179.2
 31
0.0
  0
LINE
  5
52
100
AcDbEntity
  8
LC-002-003-MTH-0
370
    25
390
0
 62
     2
100
AcDbLine
 10
296.731755
 20
265.162667
 30
0.0
 11
296.731755
 21
179.2
 31
0.0
  0
LINE
  5
53
100
AcDbEntity
  8
LC-003-003-MTG-0
370
    25
390
0
 62
     2
100
AcDbLine
 10
186.731755
 20
196.0
 30
0.0
 11
296.731755
 21
196.0
 31
0.0
  0
LINE
  5
54
100
AcDbEntity
  8
LC-004-003-----0
370
    25
390
0
 62
     2
100
AcDbLine
 10
214.492211
 20
199.654733
 30
0.0
 11
186.731755
 21
196.0
 31
0.0
  0
LINE
  5
55
100
AcDbEntity
  8
LC-004-003-----0
370
    25
390
0
 62
     2
100
AcDbLine
 10
186.731755
 20
196.0
 30
0.0
 11
214.492211
 21
192.345267
 31
0.0
  0
LINE
  5
56
100
AcDbEntity
  8
LC-004-003-----0
370
    25
390
0
 62
     2
100
AcDbLine
 10
214.492211
 20
192.345267
 30
0.0
 11
214.492211
 21
199.654733
 31
0.0
  0
LINE
  5
57
100
AcDbEntity
  8
LC-004-003-----0
370
    25
390
0
 62
     2
100
AcDbLine
 10
214.554492
 20
198.704503
 30
0.0
 11
194.011755
 21
196.0
 31
0.0
  0
LINE
  5
58
100
AcDbEntity
  8
LC-004-003-----0
370
    25
390
0
 62
     2
100
AcDbLine
 10
194.011755
 20
196.0
 30
0.0
 11
214.554492
 21
193.295497
 31
0.0
  0
LINE
  5
59
100
AcDbEntity
  8
LC-004-003-----0
370
    25
390
0
 62
     2
100
AcDbLine
 10
214.616774
 20
197.754272
 30
0.0
 11
201.291755
 21
196.0
 31
0.0
  0
LINE
  5
5A
100
AcDbEntity
  8
LC-004-003-----0
370
    25
390
0
 62
     2
100
AcDbLine
 10
201.291755
 20
196.0
 30
0.0
 11
214.616774
 21
194.245728
 31
0.0
  0
LINE
  5
5B
100
AcDbEntity
  8
LC-004-003-----0
370
    25
390
0
 62
     2
100
AcDbLine
 10
214.679055
 20
196.804041
 30
0.0
 11
208.571755
 21
196.0
 31
0.0
  0
LINE
  5
5C
100
AcDbEntity
  8
LC-004-003-----0
370
    25
390
0
 62
     2
100
AcDbLine
 10
208.571755
 20
196.0
 30
0.0
 11
214.679055
 21
195.195959
 31
0.0
  0
LINE
  5
5D
100
AcDbEntity
  8
LC-004-003-----0
370
    25
390
0
 62
     2
100
AcDbLine
 10
268.971299
 20
192.345267
 30
0.0
 11
296.731755
 21
196.0
 31
0.0
  0
LINE
  5
5E
100
AcDbEntity
  8
LC-004-003-----0
370
    25
390
0
 62
     2
100
AcDbLine
 10
296.731755
 20
196.0
 30
0.0
 11
268.971299
 21
199.654733
 31
0.0
  0
LINE
  5
5F
100
AcDbEntity
  8
LC-004-003-----0
370
    25
390
0
 62
     2
100
AcDbLine
 10
268.971299
 20
199.654733
 30
0.0
 11
268.971299
 21
192.345267
 31
0.0
  0
LINE
  5
60
100
AcDbEntity
  8
LC-004-003-----0
370
    25
390
0
 62
     2
100
AcDbLine
 10
268.909017
 20
193.295497
 30
0.0
 11
289.451755
 21
196.0
 31
0.0
  0
LINE
  5
61
100
AcDbEntity
  8
LC-004-003-----0
370
    25
390
0
 62
     2
100
AcDbLine
 10
289.451755
 20
196.0
 30
0.0
 11
268.909017
 21
198.704503
 31
0.0
  0
LINE
  5
62
100
AcDbEntity
  8
LC-004-003-----0
370
    25
390
0
 62
     2
100
AcDbLine
 10
268.846736
 20
194.245728
 30
0.0
 11
282.171755
 21
196.0
 31
0.0
  0
LINE
  5
63
100
AcDbEntity
  8
LC-004-003-----0
370
    25
390
0
 62
     2
100
AcDbLine
 10
282.171755
 20
196.0
 30
0.0
 11
268.846736
 21
197.754272
 31
0.0
  0
LINE
  5
64
100
AcDbEntity
  8
LC-004-003-----0
370
    25
390
0
 62
     2
100
AcDbLine
 10
268.784455
 20
195.195959
 30
0.0
 11
274.891755
 21
196.0
 31
0.0
  0
LINE
  5
65
100
AcDbEntity
  8
LC-004-003-----0
370
    25
390
0
 62
     2
100
AcDbLine
 10
274.891755
 20
196.0
 30
0.0
 11
268.784455
 21
196.804041
 31
0.0
  0
TEXT
  5
66
100
AcDbEntity
  8
LC-004-003-----0
370
    -2
390
0
 62
     7
100
AcDbText
 10
183.079915
 20
203.827554
 30
0.0
 40
28.0
  1
%%c110
 41
0.9
 51
15.0
  7
LCTX15-400-0-0-ARIAL
 72
     1
 11
246.079915
 21
203.827554
 31
0.0
100
AcDbText
  0
ENDBLK
  5
67
100
AcDbEntity
  8
0
390
0
100
AcDbBlockEnd
  0
BLOCK
  5
D0
100
AcDbEntity
  8
0
390
0
100
AcDbBlockBegin
  2
*X2
 70
    65
 10
0.0
 20
0.0
 30
0.0
  3
*X2
  1

  0
LINE
  5
D1
100
AcDbEntity
  8
LC-005-005-----0
370
    25
390
0
 62
     2
100
AcDbLine
 10
294.603793
 20
260.662667
 30
0.0
 11
295.863529
 21
261.922403
 31
0.0
  0
LINE
  5
D2
100
AcDbEntity
  8
LC-005-005-----0
370
    25
390
0
 62
     2
100
AcDbLine
 10
293.731755
 20
262.619056
 30
0.0
 11
296.731755
 21
265.619056
 31
0.0
  0
LINE
  5
D3
100
AcDbEntity
  8
LC-005-005-----0
370
    25
390
0
 62
     2
100
AcDbLine
 10
293.731755
 20
265.447484
 30
0.0
 11
296.731755
 21
268.447484
 31
0.0
  0
LINE
  5
D4
100
AcDbEntity
  8
LC-005-005-----0
370
    25
390
0
 62
     2
100
AcDbLine
 10
293.731755
 20
268.275911
 30
0.0
 11
296.731755
 21
271.275911
 31
0.0
  0
LINE
  5
D5
100
AcDbEntity
  8
LC-005-005-----0
370
    25
390
0
 62
     2
100
AcDbLine
 10
293.731755
 20
271.104338
 30
0.0
 11
296.731755
 21
274.104338
 31
0.0
  0
LINE
  5
D6
100
AcDbEntity
  8
LC-005-005-----0
370
    25
390
0
 62
     2
100
AcDbLine
 10
293.731755
 20
273.932765
 30
0.0
 11
296.731755
 21
276.932765
 31
0.0
  0
LINE
  5
D7
100
AcDbEntity
  8
LC-005-005-----0
370
    25
390
0
 62
     2
100
AcDbLine
 10
293.731755
 20
276.761192
 30
0.0
 11
296.731755
 21
279.761192
 31
0.0
  0
LINE
  5
D8
100
AcDbEntity
  8
LC-005-005-----0
370
    25
390
0
 62
     2
100
AcDbLine
 10
293.731755
 20
279.589619
 30
0.0
 11
296.731755
 21
282.589619
 31
0.0
  0
LINE
  5
D9
100
AcDbEntity
  8
LC-005-005-----0
370
    25
390
0
 62
     2
100
AcDbLine
 10
293.731755
 20
282.418046
 30
0.0
 11
296.731755
 21
285.418046
 31
0.0
  0
LINE
  5
DA
100
AcDbEntity
  8
LC-005-005-----0
370
    25
390
0
 62
     2
100
AcDbLine
 10
293.731755
 20
285.246473
 30
0.0
 11
296.731755
 21
288.246473
 31
0.0
  0
LINE
  5
DB
100
AcDbEntity
  8
LC-005-005-----0
370
    25
390
0
 62
     2
100
AcDbLine
 10
293.731755
 20
288.074901
 30
0.0
 11
296.731755
 21
291.074901
 31
0.0
  0
LINE
  5
DC
100
AcDbEntity
  8
LC-005-005-----0
370
    25
390
0
 62
     2
100
AcDbLine
 10
293.731755
 20
290.903328
 30
0.0
 11
296.731755
 21
293.903328
 31
0.0
  0
LINE
  5
DD
100
AcDbEntity
  8
LC-005-005-----0
370
    25
390
0
 62
     2
100
AcDbLine
 10
293.731755
 20
293.731755
 30
0.0
 11
296.731755
 21
296.731755
 31
0.0
  0
LINE
  5
DE
100
AcDbEntity
  8
LC-005-005-----0
370
    25
390
0
 62
     2
100
AcDbLine
 10
293.731755
 20
296.560182
 30
0.0
 11
296.731755
 21
299.560182
 31
0.0
  0
LINE
  5
DF
100
AcDbEntity
  8
LC-005-005-----0
370
    25
390
0
 62
     2
100
AcDbLine
 10
293.731755
 20
299.388609
 30
0.0
 11
296.731755
 21
302.388609
 31
0.0
  0
LINE
  5
E0
100
AcDbEntity
  8
LC-005-005-----0
370
    25
390
0
 62
     2
100
AcDbLine
 10
293.731755
 20
302.217036
 30
0.0
 11
296.731755
 21
305.217036
 31
0.0
  0
LINE
  5
E1
100
AcDbEntity
  8
LC-005-005-----0
370
    25
390
0
 62
     2
100
AcDbLine
 10
293.731755
 20
305.045463
 30
0.0
 11
296.731755
 21
308.045463
 31
0.0
  0
LINE
  5
E2
100
AcDbEntity
  8
LC-005-005-----0
370
    25
390
0
 62
     2
100
AcDbLine
 10
293.731755
 20
307.87389
 30
0.0
 11
296.731755
 21
310.87389
 31
0.0
  0
LINE
  5
E3
100
AcDbEntity
  8
LC-005-005-----0
370
    25
390
0
 62
     2
100
AcDbLine
 10
293.731755
 20
310.702318
 30
0.0
 11
296.731755
 21
313.702318
 31
0.0
  0
LINE
  5
E4
100
AcDbEntity
  8
LC-005-005-----0
370
    25
390
0
 62
     2
100
AcDbLine
 10
293.731755
 20
313.530745
 30
0.0
 11
296.731755
 21
316.530745
 31
0.0
  0
LINE
  5
E5
100
AcDbEntity
  8
LC-005-005-----0
370
    25
390
0
 62
     2
100
AcDbLine
 10
293.731755
 20
316.359172
 30
0.0
 11
296.731755
 21
319.359172
 31
0.0
  0
LINE
  5
E6
100
AcDbEntity
  8
LC-005-005-----0
370
    25
390
0
 62
     2
100
AcDbLine
 10
293.731755
 20
319.187599
 30
0.0
 11
296.731755
 21
322.187599
 31
0.0
  0
LINE
  5
E7
100
AcDbEntity
  8
LC-005-005-----0
370
    25
390
0
 62
     2
100
AcDbLine
 10
293.731755
 20
322.016026
 30
0.0
 11
296.731755
 21
325.016026
 31
0.0
  0
LINE
  5
E8
100
AcDbEntity
  8
LC-005-005-----0
370
    25
390
0
 62
     2
100
AcDbLine
 10
293.731755
 20
324.844453
 30
0.0
 11
296.731755
 21
327.844453
 31
0.0
  0
LINE
  5
E9
100
AcDbEntity
  8
LC-005-005-----0
370
    25
390
0
 62
     2
100
AcDbLine
 10
293.731755
 20
327.67288
 30
0.0
 11
296.731755
 21
330.67288
 31
0.0
  0
LINE
  5
EA
100
AcDbEntity
  8
LC-005-005-----0
370
    25
390
0
 62
     2
100
AcDbLine
 10
293.731755
 20
330.501307
 30
0.0
 11
296.731755
 21
333.501307
 31
0.0
  0
LINE
  5
EB
100
AcDbEntity
  8
LC-005-005-----0
370
    25
390
0
 62
     2
100
AcDbLine
 10
293.731755
 20
333.329735
 30
0.0
 11
296.731755
 21
336.329735
 31
0.0
  0
LINE
  5
EC
100
AcDbEntity
  8
LC-005-005-----0
370
    25
390
0
 62
     2
100
AcDbLine
 10
293.731755
 20
336.158162
 30
0.0
 11
296.731755
 21
339.158162
 31
0.0
  0
LINE
  5
ED
100
AcDbEntity
  8
LC-005-005-----0
370
    25
390
0
 62
     2
100
AcDbLine
 10
293.731755
 20
338.986589
 30
0.0
 11
296.731755
 21
341.986589
 31
0.0
  0
LINE
  5
EE
100
AcDbEntity
  8
LC-005-005-----0
370
    25
390
0
 62
     2
100
AcDbLine
 10
293.731755
 20
341.815016
 30
0.0
 11
296.731755
 21
344.815016
 31
0.0
  0
LINE
  5
EF
100
AcDbEntity
  8
LC-005-005-----0
370
    25
390
0
 62
     2
100
AcDbLine
 10
293.731755
 20
344.643443
 30
0.0
 11
296.731755
 21
347.643443
 31
0.0
  0
LINE
  5
F0
100
AcDbEntity
  8
LC-005-005-----0
370
    25
390
0
 62
     2
100
AcDbLine
 10
293.731755
 20
347.47187
 30
0.0
 11
296.731755
 21
350.47187
 31
0.0
  0
LINE
  5
F1
100
AcDbEntity
  8
LC-005-005-----0
370
    25
390
0
 62
     2
100
AcDbLine
 10
293.731755
 20
350.300297
 30
0.0
 11
296.731755
 21
353.300297
 31
0.0
  0
LINE
  5
F2
100
AcDbEntity
  8
LC-005-005-----0
370
    25
390
0
 62
     2
100
AcDbLine
 10
293.731755
 20
353.128724
 30
0.0
 11
296.731755
 21
356.128724
 31
0.0
  0
LINE
  5
F3
100
AcDbEntity
  8
LC-005-005-----0
370
    25
390
0
 62
     2
100
AcDbLine
 10
293.731755
 20
355.957152
 30
0.0
 11
296.731755
 21
358.957152
 31
0.0
  0
LINE
  5
F4
100
AcDbEntity
  8
LC-005-005-----0
370
    25
390
0
 62
     2
100
AcDbLine
 10
293.731755
 20
358.785579
 30
0.0
 11
296.731755
 21
361.785579
 31
0.0
  0
LINE
  5
F5
100
AcDbEntity
  8
LC-005-005-----0
370
    25
390
0
 62
     2
100
AcDbLine
 10
293.731755
 20
361.614006
 30
0.0
 11
296.731755
 21
364.614006
 31
0.0
  0
LINE
  5
F6
100
AcDbEntity
  8
LC-005-005-----0
370
    25
390
0
 62
     2
100
AcDbLine
 10
293.731755
 20
364.442433
 30
0.0
 11
296.731755
 21
367.442433
 31
0.0
  0
LINE
  5
F7
100
AcDbEntity
  8
LC-005-005-----0
370
    25
390
0
 62
     2
100
AcDbLine
 10
293.731755
 20
367.27086
 30
0.0
 11
296.731755
 21
370.27086
 31
0.0
  0
LINE
  5
F8
100
AcDbEntity
  8
LC-005-005-----0
370
    25
390
0
 62
     2
100
AcDbLine
 10
293.731755
 20
370.099287
 30
0.0
 11
296.731755
 21
373.099287
 31
0.0
  0
LINE
  5
F9
100
AcDbEntity
  8
LC-005-005-----0
370
    25
390
0
 62
     2
100
AcDbLine
 10
293.731755
 20
372.927714
 30
0.0
 11
296.731755
 21
375.927714
 31
0.0
  0
LINE
  5
FA
100
AcDbEntity
  8
LC-005-005-----0
370
    25
390
0
 62
     2
100
AcDbLine
 10
293.731755
 20
375.756141
 30
0.0
 11
296.731755
 21
378.756141
 31
0.0
  0
LINE
  5
FB
100
AcDbEntity
  8
LC-005-005-----0
370
    25
390
0
 62
     2
100
AcDbLine
 10
395.031867
 20
477.056254
 30
0.0
 11
395.731755
 21
477.756141
 31
0.0
  0
LINE
  5
FC
100
AcDbEntity
  8
LC-005-005-----0
370
    25
390
0
 62
     2
100
AcDbLine
 10
293.731755
 20
378.584569
 30
0.0
 11
296.731755
 21
381.584569
 31
0.0
  0
LINE
  5
FD
100
AcDbEntity
  8
LC-005-005-----0
370
    25
390
0
 62
     2
100
AcDbLine
 10
392.20344
 20
477.056254
 30
0.0
 11
394.856858
 21
479.709672
 31
0.0
  0
LINE
  5
FE
100
AcDbEntity
  8
LC-005-005-----0
370
    25
390
0
 62
     2
100
AcDbLine
 10
293.731755
 20
381.412996
 30
0.0
 11
296.731755
 21
384.412996
 31
0.0
  0
LINE
  5
FF
100
AcDbEntity
  8
LC-005-005-----0
370
    25
390
0
 62
     2
100
AcDbLine
 10
389.375013
 20
477.056254
 30
0.0
 11
392.37491
 21
480.056151
 31
0.0
  0
LINE
  5
100
100
AcDbEntity
  8
LC-005-005-----0
370
    25
390
0
 62
     2
100
AcDbLine
 10
293.731755
 20
384.241423
 30
0.0
 11
296.731755
 21
387.241423
 31
0.0
  0
LINE
  5
101
100
AcDbEntity
  8
LC-005-005-----0
370
    25
390
0
 62
     2
100
AcDbLine
 10
386.546586
 20
477.056254
 30
0.0
 11
389.54649
 21
480.056158
 31
0.0
  0
LINE
  5
102
100
AcDbEntity
  8
LC-005-005-----0
370
    25
390
0
 62
     2
100
AcDbLine
 10
293.731755
 20
387.06985
 30
0.0
 11
296.731755
 21
390.06985
 31
0.0
  0
LINE
  5
103
100
AcDbEntity
  8
LC-005-005-----0
370
    25
390
0
 62
     2
100
AcDbLine
 10
383.718159
 20
477.056254
 30
0.0
 11
386.718071
 21
480.056166
 31
0.0
  0
LINE
  5
104
100
AcDbEntity
  8
LC-005-005-----0
370
    25
390
0
 62
     2
100
AcDbLine
 10
293.731755
 20
389.898277
 30
0.0
 11
296.731755
 21
392.898277
 31
0.0
  0
LINE
  5
105
100
AcDbEntity
  8
LC-005-005-----0
370
    25
390
0
 62
     2
100
AcDbLine
 10
380.889732
 20
477.056254
 30
0.0
 11
383.889651
 21
480.056173
 31
0.0
  0
LINE
  5
106
100
AcDbEntity
  8
LC-005-005-----0
370
    25
390
0
 62
     2
100
AcDbLine
 10
293.731755
 20
392.726704
 30
0.0
 11
296.731755
 21
395.726704
 31
0.0
  0
LINE
  5
107
100
AcDbEntity
  8
LC-005-005-----0
370
    25
390
0
 62
     2
100
AcDbLine
 10
378.061305
 20
477.056254
 30
0.0
 11
381.061232
 21
480.056181
 31
0.0
  0
LINE
  5
108
100
AcDbEntity
  8
LC-005-005-----0
370
    25
390
0
 62
     2
100
AcDbLine
 10
293.731755
 20
395.555131
 30
0.0
 11
296.731755
 21
398.555131
 31
0.0
  0
LINE
  5
109
100
AcDbEntity
  8
LC-005-005-----0
370
    25
390
0
 62
     2
100
AcDbLine
 10
375.232877
 20
477.056254
 30
0.0
 11
378.232812
 21
480.056189
 31
0.0
  0
LINE
  5
10A
100
AcDbEntity
  8
LC-005-005-----0
370
    25
390
0
 62
     2
100
AcDbLine
 10
293.731755
 20
398.383558
 30
0.0
 11
296.731755
 21
401.383558
 31
0.0
  0
LINE
  5
10B
100
AcDbEntity
  8
LC-005-005-----0
370
    25
390
0
 62
     2
100
AcDbLine
 10
372.40445
 20
477.056254
 30
0.0
 11
375.404392
 21
480.056196
 31
0.0
  0
LINE
  5
10C
100
AcDbEntity
  8
LC-005-005-----0
370
    25
390
0
 62
     2
100
AcDbLine
 10
293.731755
 20
401.211986
 30
0.0
 11
296.731755
 21
404.211986
 31
0.0
  0
LINE
  5
10D
100
AcDbEntity
  8
LC-005-005-----0
370
    25
390
0
 62
     2
100
AcDbLine
 10
369.576023
 20
477.056254
 30
0.0
 11
372.575973
 21
480.056204
 31
0.0
  0
LINE
  5
10E
100
AcDbEntity
  8
LC-005-005-----0
370
    25
390
0
 62
     2
100
AcDbLine
 10
293.731755
 20
404.040413
 30
0.0
 11
296.731755
 21
407.040413
 31
0.0
  0
LINE
  5
10F
100
AcDbEntity
  8
LC-005-005-----0
370
    25
390
0
 62
     2
100
AcDbLine
 10
366.747596
 20
477.056254
 30
0.0
 11
369.747553
 21
480.056211
 31
0.0
  0
LINE
  5
110
100
AcDbEntity
  8
LC-005-005-----0
370
    25
390
0
 62
     2
100
AcDbLine
 10
293.731755
 20
406.86884
 30
0.0
 11
296.731755
 21
409.86884
 31
0.0
  0
LINE
  5
111
100
AcDbEntity
  8
LC-005-005-----0
370
    25
390
0
 62
     2
100
AcDbLine
 10
363.919169
 20
477.056254
 30
0.0
 11
366.919134
 21
480.056219
 31
0.0
  0
LINE
  5
112
100
AcDbEntity
  8
LC-005-005-----0
370
    25
390
0
 62
     2
100
AcDbLine
 10
293.731755
 20
409.697267
 30
0.0
 11
296.731755
 21
412.697267
 31
0.0
  0
LINE
  5
113
100
AcDbEntity
  8
LC-005-005-----0
370
    25
390
0
 62
     2
100
AcDbLine
 10
361.090742
 20
477.056254
 30
0.0
 11
364.090714
 21
480.056226
 31
0.0
  0
LINE
  5
114
100
AcDbEntity
  8
LC-005-005-----0
370
    25
390
0
 62
     2
100
AcDbLine
 10
293.731755
 20
412.525694
 30
0.0
 11
296.731755
 21
415.525694
 31
0.0
  0
LINE
  5
115
100
AcDbEntity
  8
LC-005-005-----0
370
    25
390
0
 62
     2
100
AcDbLine
 10
358.262315
 20
477.056254
 30
0.0
 11
361.262295
 21
480.056234
 31
0.0
  0
LINE
  5
116
100
AcDbEntity
  8
LC-005-005-----0
370
    25
390
0
 62
     2
100
AcDbLine
 10
293.731755
 20
415.354121
 30
0.0
 11
296.731755
 21
418.354121
 31
0.0
  0
LINE
  5
117
100
AcDbEntity
  8
LC-005-005-----0
370
    25
390
0
 62
     2
100
AcDbLine
 10
355.433888
 20
477.056254
 30
0.0
 11
358.433875
 21
480.056241
 31
0.0
  0
LINE
  5
118
100
AcDbEntity
  8
LC-005-005-----0
370
    25
390
0
 62
     2
100
AcDbLine
 10
293.731755
 20
418.182548
 30
0.0
 11
296.731755
 21
421.182548
 31
0.0
  0
LINE
  5
119
100
AcDbEntity
  8
LC-005-005-----0
370
    25
390
0
 62
     2
100
AcDbLine
 10
352.60546
 20
477.056254
 30
0.0
 11
355.605455
 21
480.056249
 31
0.0
  0
LINE
  5
11A
100
AcDbEntity
  8
LC-005-005-----0
370
    25
390
0
 62
     2
100
AcDbLine
 10
293.731755
 20
421.010975
 30
0.0
 11
296.731755
 21
424.010975
 31
0.0
  0
LINE
  5
11B
100
AcDbEntity
  8
LC-005-005-----0
370
    25
390
0
 62
     2
100
AcDbLine
 10
349.777033
 20
477.056254
 30
0.0
 11
352.760075
 21
480.039296
 31
0.0
  0
LINE
  5
11C
100
AcDbEntity
  8
LC-005-005-----0
370
    25
390
0
 62
     2
100
AcDbLine
 10
293.731755
 20
423.839403
 30
0.0
 11
296.731755
 21
426.839403
 31
0.0
  0
LINE
  5
11D
100
AcDbEntity
  8
LC-005-005-----0
370
    25
390
0
 62
     2
100
AcDbLine
 10
346.320656
 20
476.428304
 30
0.0
 11
349.881408
 21
479.989056
 31
0.0
  0
LINE
  5
11E
100
AcDbEntity
  8
LC-005-005-----0
370
    25
390
0
 62
     2
100
AcDbLine
 10
293.731755
 20
426.66783
 30
0.0
 11
296.731755
 21
429.66783
 31
0.0
  0
LINE
  5
11F
100
AcDbEntity
  8
LC-005-005-----0
370
    25
390
0
 62
     2
100
AcDbLine
 10
342.621263
 20
475.557338
 30
0.0
 11
346.652342
 21
479.588417
 31
0.0
  0
LINE
  5
120
100
AcDbEntity
  8
LC-005-005-----0
370
    25
390
0
 62
     2
100
AcDbLine
 10
293.731755
 20
429.496257
 30
0.0
 11
296.731755
 21
432.496257
 31
0.0
  0
LINE
  5
121
100
AcDbEntity
  8
LC-005-005-----0
370
    25
390
0
 62
     2
100
AcDbLine
 10
338.921871
 20
474.686373
 30
0.0
 11
342.95295
 21
478.717452
 31
0.0
  0
LINE
  5
122
100
AcDbEntity
  8
LC-005-005-----0
370
    25
390
0
 62
     2
100
AcDbLine
 10
293.731755
 20
432.324684
 30
0.0
 11
296.731755
 21
435.324684
 31
0.0
  0
LINE
  5
123
100
AcDbEntity
  8
LC-005-005-----0
370
    25
390
0
 62
     2
100
AcDbLine
 10
335.222478
 20
473.815407
 30
0.0
 11
339.253557
 21
477.846486
 31
0.0
  0
LINE
  5
124
100
AcDbEntity
  8
LC-005-005-----0
370
    25
390
0
 62
     2
100
AcDbLine
 10
293.731755
 20
435.153111
 30
0.0
 11
296.731755
 21
438.153111
 31
0.0
  0
LINE
  5
125
100
AcDbEntity
  8
LC-005-005-----0
370
    25
390
0
 62
     2
100
AcDbLine
 10
331.523086
 20
472.944442
 30
0.0
 11
335.554164
 21
476.975521
 31
0.0
  0
LINE
  5
126
100
AcDbEntity
  8
LC-005-005-----0
370
    25
390
0
 62
     2
100
AcDbLine
 10
293.731755
 20
437.981538
 30
0.0
 11
296.731755
 21
440.981538
 31
0.0
  0
LINE
  5
127
100
AcDbEntity
  8
LC-005-005-----0
370
    25
390
0
 62
     2
100
AcDbLine
 10
316.412884
 20
460.662667
 30
0.0
 11
319.100286
 21
463.350069
 31
0.0
  0
LINE
  5
128
100
AcDbEntity
  8
LC-005-005-----0
370
    25
390
0
 62
     2
100
AcDbLine
 10
324.776071
 20
469.025854
 30
0.0
 11
331.854772
 21
476.104555
 31
0.0
  0
LINE
  5
129
100
AcDbEntity
  8
LC-005-005-----0
370
    25
390
0
 62
     2
100
AcDbLine
 10
293.731755
 20
440.809965
 30
0.0
 11
296.731755
 21
443.809965
 31
0.0
  0
LINE
  5
12A
100
AcDbEntity
  8
LC-005-005-----0
370
    25
390
0
 62
     2
100
AcDbLine
 10
312.653312
 20
459.731522
 30
0.0
 11
319.100286
 21
466.178496
 31
0.0
  0
LINE
  5
12B
100
AcDbEntity
  8
LC-005-005-----0
370
    25
390
0
 62
     2
100
AcDbLine
 10
321.947643
 20
469.025854
 30
0.0
 11
328.155379
 21
475.23359
 31
0.0
  0
LINE
  5
12C
100
AcDbEntity
  8
LC-005-005-----0
370
    25
390
0
 62
     2
100
AcDbLine
 10
293.731755
 20
443.638392
 30
0.0
 11
296.731755
 21
446.638392
 31
0.0
  0
LINE
  5
12D
100
AcDbEntity
  8
LC-005-005-----0
370
    25
390
0
 62
     2
100
AcDbLine
 10
309.884419
 20
459.791056
 30
0.0
 11
311.483513
 21
461.390151
 31
0.0
  0
LINE
  5
12E
100
AcDbEntity
  8
LC-005-005-----0
370
    25
390
0
 62
     2
100
AcDbLine
 10
314.031755
 20
463.938392
 30
0.0
 11
319.100286
 21
469.006924
 31
0.0
  0
LINE
  5
12F
100
AcDbEntity
  8
LC-005-005-----0
370
    25
390
0
 62
     2
100
AcDbLine
 10
319.119216
 20
469.025854
 30
0.0
 11
321.664216
 21
471.570854
 31
0.0
  0
LINE
  5
130
100
AcDbEntity
  8
LC-005-005-----0
370
    25
390
0
 62
     2
100
AcDbLine
 10
324.276286
 20
474.182924
 30
0.0
 11
325.227216
 21
475.133854
 31
0.0
  0
LINE
  5
131
100
AcDbEntity
  8
LC-005-005-----0
370
    25
390
0
 62
     2
100
AcDbLine
 10
293.731755
 20
446.46682
 30
0.0
 11
296.731755
 21
449.46682
 31
0.0
  0
LINE
  5
132
100
AcDbEntity
  8
LC-005-005-----0
370
    25
390
0
 62
     2
100
AcDbLine
 10
307.678901
 20
460.413966
 30
0.0
 11
308.931755
 21
461.66682
 31
0.0
  0
LINE
  5
133
100
AcDbEntity
  8
LC-005-005-----0
370
    25
390
0
 62
     2
100
AcDbLine
 10
314.031755
 20
466.76682
 30
0.0
 11
318.835789
 21
471.570854
 31
0.0
  0
LINE
  5
134
100
AcDbEntity
  8
LC-005-005-----0
370
    25
390
0
 62
     2
100
AcDbLine
 10
293.731755
 20
449.295247
 30
0.0
 11
296.731755
 21
452.295247
 31
0.0
  0
LINE
  5
135
100
AcDbEntity
  8
LC-005-005-----0
370
    25
390
0
 62
     2
100
AcDbLine
 10
305.10226
 20
460.665752
 30
0.0
 11
308.931755
 21
464.495247
 31
0.0
  0
LINE
  5
136
100
AcDbEntity
  8
LC-005-005-----0
370
    25
390
0
 62
     2
100
AcDbLine
 10
314.031755
 20
469.595247
 30
0.0
 11
317.449755
 21
473.013247
 31
0.0
  0
LINE
  5
137
100
AcDbEntity
  8
LC-005-005-----0
370
    25
390
0
 62
     2
100
AcDbLine
 10
293.731755
 20
452.123674
 30
0.0
 11
296.731755
 21
455.123674
 31
0.0
  0
LINE
  5
138
100
AcDbEntity
  8
LC-005-005-----0
370
    25
390
0
 62
     2
100
AcDbLine
 10
302.273833
 20
460.665752
 30
0.0
 11
308.931755
 21
467.323674
 31
0.0
  0
LINE
  5
139
100
AcDbEntity
  8
LC-005-005-----0
370
    25
390
0
 62
     2
100
AcDbLine
 10
314.031755
 20
472.423674
 30
0.0
 11
316.741935
 21
475.133854
 31
0.0
  0
LINE
  5
13A
100
AcDbEntity
  8
LC-005-005-----0
370
    25
390
0
 62
     2
100
AcDbLine
 10
293.731755
 20
454.952101
 30
0.0
 11
296.731755
 21
457.952101
 31
0.0
  0
LINE
  5
13B
100
AcDbEntity
  8
LC-005-005-----0
370
    25
390
0
 62
     2
100
AcDbLine
 10
299.445406
 20
460.665752
 30
0.0
 11
308.931755
 21
470.152101
 31
0.0
  0
LINE
  5
13C
100
AcDbEntity
  8
LC-005-005-----0
370
    25
390
0
 62
     2
100
AcDbLine
 10
293.731755
 20
457.780528
 30
0.0
 11
299.615685
 21
463.664458
 31
0.0
  0
LINE
  5
13D
100
AcDbEntity
  8
LC-005-005-----0
370
    25
390
0
 62
     2
100
AcDbLine
 10
301.481869
 20
465.530642
 30
0.0
 11
308.931755
 21
472.980528
 31
0.0
  0
LINE
  5
13E
100
AcDbEntity
  8
LC-005-005-----0
370
    25
390
0
 62
     2
100
AcDbLine
 10
293.731755
 20
460.608955
 30
0.0
 11
296.78788
 21
463.66508
 31
0.0
  0
LINE
  5
13F
100
AcDbEntity
  8
LC-005-005-----0
370
    25
390
0
 62
     2
100
AcDbLine
 10
301.481869
 20
468.359069
 30
0.0
 11
308.256654
 21
475.133854
 31
0.0
  0
LINE
  5
140
100
AcDbEntity
  8
LC-005-005-----0
370
    25
390
0
 62
     2
100
AcDbLine
 10
293.731755
 20
463.437382
 30
0.0
 11
293.960074
 21
463.665702
 31
0.0
  0
LINE
  5
141
100
AcDbEntity
  8
LC-005-005-----0
370
    25
390
0
 62
     2
100
AcDbLine
 10
301.481869
 20
471.187497
 30
0.0
 11
305.513755
 21
475.219382
 31
0.0
  0
LINE
  5
142
100
AcDbEntity
  8
LC-005-005-----0
370
    25
390
0
 62
     2
100
AcDbLine
 10
301.481869
 20
474.015924
 30
0.0
 11
304.126292
 21
476.660347
 31
0.0
  0
ENDBLK
  5
143
100
AcDbEntity
  8
0
390
0
100
AcDbBlockEnd
  0
BLOCK
  5
146
100
AcDbEntity
  8
0
390
0
100
AcDbBlockBegin
  2
*X3
 70
    65
 10
0.0
 20
0.0
 30
0.0
  3
*X3
  1

  0
LINE
  5
147
100
AcDbEntity
  8
LC-005-005-----0
370
    25
390
0
 62
     2
100
AcDbLine
 10
187.765515
 20
261.304621
 30
0.0
 11
189.731755
 21
263.27086
 31
0.0
  0
LINE
  5
148
100
AcDbEntity
  8
LC-005-005-----0
370
    25
390
0
 62
     2
100
AcDbLine
 10
187.167798
 20
263.535331
 30
0.0
 11
189.731755
 21
266.099287
 31
0.0
  0
LINE
  5
149
100
AcDbEntity
  8
LC-005-005-----0
370
    25
390
0
 62
     2
100
AcDbLine
 10
186.731755
 20
265.927714
 30
0.0
 11
189.731755
 21
268.927714
 31
0.0
  0
LINE
  5
14A
100
AcDbEntity
  8
LC-005-005-----0
370
    25
390
0
 62
     2
100
AcDbLine
 10
186.731755
 20
268.756141
 30
0.0
 11
189.731755
 21
271.756141
 31
0.0
  0
LINE
  5
14B
100
AcDbEntity
  8
LC-005-005-----0
370
    25
390
0
 62
     2
100
AcDbLine
 10
186.731755
 20
271.584569
 30
0.0
 11
189.731755
 21
274.584569
 31
0.0
  0
LINE
  5
14C
100
AcDbEntity
  8
LC-005-005-----0
370
    25
390
0
 62
     2
100
AcDbLine
 10
186.731755
 20
274.412996
 30
0.0
 11
189.731755
 21
277.412996
 31
0.0
  0
LINE
  5
14D
100
AcDbEntity
  8
LC-005-005-----0
370
    25
390
0
 62
     2
100
AcDbLine
 10
186.731755
 20
277.241423
 30
0.0
 11
189.731755
 21
280.241423
 31
0.0
  0
LINE
  5
14E
100
AcDbEntity
  8
LC-005-005-----0
370
    25
390
0
 62
     2
100
AcDbLine
 10
186.731755
 20
280.06985
 30
0.0
 11
189.731755
 21
283.06985
 31
0.0
  0
LINE
  5
14F
100
AcDbEntity
  8
LC-005-005-----0
370
    25
390
0
 62
     2
100
AcDbLine
 10
186.731755
 20
282.898277
 30
0.0
 11
189.731755
 21
285.898277
 31
0.0
  0
LINE
  5
150
100
AcDbEntity
  8
LC-005-005-----0
370
    25
390
0
 62
     2
100
AcDbLine
 10
186.731755
 20
285.726704
 30
0.0
 11
189.731755
 21
288.726704
 31
0.0
  0
LINE
  5
151
100
AcDbEntity
  8
LC-005-005-----0
370
    25
390
0
 62
     2
100
AcDbLine
 10
186.731755
 20
288.555131
 30
0.0
 11
189.731755
 21
291.555131
 31
0.0
  0
LINE
  5
152
100
AcDbEntity
  8
LC-005-005-----0
370
    25
390
0
 62
     2
100
AcDbLine
 10
186.731755
 20
291.383558
 30
0.0
 11
189.731755
 21
294.383558
 31
0.0
  0
LINE
  5
153
100
AcDbEntity
  8
LC-005-005-----0
370
    25
390
0
 62
     2
100
AcDbLine
 10
186.731755
 20
294.211986
 30
0.0
 11
189.731755
 21
297.211986
 31
0.0
  0
LINE
  5
154
100
AcDbEntity
  8
LC-005-005-----0
370
    25
390
0
 62
     2
100
AcDbLine
 10
186.731755
 20
297.040413
 30
0.0
 11
189.731755
 21
300.040413
 31
0.0
  0
LINE
  5
155
100
AcDbEntity
  8
LC-005-005-----0
370
    25
390
0
 62
     2
100
AcDbLine
 10
186.731755
 20
299.86884
 30
0.0
 11
189.731755
 21
302.86884
 31
0.0
  0
LINE
  5
156
100
AcDbEntity
  8
LC-005-005-----0
370
    25
390
0
 62
     2
100
AcDbLine
 10
186.731755
 20
302.697267
 30
0.0
 11
189.731755
 21
305.697267
 31
0.0
  0
LINE
  5
157
100
AcDbEntity
  8
LC-005-005-----0
370
    25
390
0
 62
     2
100
AcDbLine
 10
186.731755
 20
305.525694
 30
0.0
 11
189.731755
 21
308.525694
 31
0.0
  0
LINE
  5
158
100
AcDbEntity
  8
LC-005-005-----0
370
    25
390
0
 62
     2
100
AcDbLine
 10
186.731755
 20
308.354121
 30
0.0
 11
189.731755
 21
311.354121
 31
0.0
  0
LINE
  5
159
100
AcDbEntity
  8
LC-005-005-----0
370
    25
390
0
 62
     2
100
AcDbLine
 10
186.731755
 20
311.182548
 30
0.0
 11
189.731755
 21
314.182548
 31
0.0
  0
LINE
  5
15A
100
AcDbEntity
  8
LC-005-005-----0
370
    25
390
0
 62
     2
100
AcDbLine
 10
186.731755
 20
314.010975
 30
0.0
 11
189.731755
 21
317.010975
 31
0.0
  0
LINE
  5
15B
100
AcDbEntity
  8
LC-005-005-----0
370
    25
390
0
 62
     2
100
AcDbLine
 10
186.731755
 20
316.839403
 30
0.0
 11
189.731755
 21
319.839403
 31
0.0
  0
LINE
  5
15C
100
AcDbEntity
  8
LC-005-005-----0
370
    25
390
0
 62
     2
100
AcDbLine
 10
186.731755
 20
319.66783
 30
0.0
 11
189.731755
 21
322.66783
 31
0.0
  0
LINE
  5
15D
100
AcDbEntity
  8
LC-005-005-----0
370
    25
390
0
 62
     2
100
AcDbLine
 10
186.731755
 20
322.496257
 30
0.0
 11
189.731755
 21
325.496257
 31
0.0
  0
LINE
  5
15E
100
AcDbEntity
  8
LC-005-005-----0
370
    25
390
0
 62
     2
100
AcDbLine
 10
186.731755
 20
325.324684
 30
0.0
 11
189.731755
 21
328.324684
 31
0.0
  0
LINE
  5
15F
100
AcDbEntity
  8
LC-005-005-----0
370
    25
390
0
 62
     2
100
AcDbLine
 10
186.731755
 20
328.153111
 30
0.0
 11
189.731755
 21
331.153111
 31
0.0
  0
LINE
  5
160
100
AcDbEntity
  8
LC-005-005-----0
370
    25
390
0
 62
     2
100
AcDbLine
 10
186.731755
 20
330.981538
 30
0.0
 11
189.731755
 21
333.981538
 31
0.0
  0
LINE
  5
161
100
AcDbEntity
  8
LC-005-005-----0
370
    25
390
0
 62
     2
100
AcDbLine
 10
186.731755
 20
333.809965
 30
0.0
 11
189.731755
 21
336.809965
 31
0.0
  0
LINE
  5
162
100
AcDbEntity
  8
LC-005-005-----0
370
    25
390
0
 62
     2
100
AcDbLine
 10
186.731755
 20
336.638392
 30
0.0
 11
189.731755
 21
339.638392
 31
0.0
  0
LINE
  5
163
100
AcDbEntity
  8
LC-005-005-----0
370
    25
390
0
 62
     2
100
AcDbLine
 10
186.731755
 20
339.46682
 30
0.0
 11
189.731755
 21
342.46682
 31
0.0
  0
LINE
  5
164
100
AcDbEntity
  8
LC-005-005-----0
370
    25
390
0
 62
     2
100
AcDbLine
 10
186.731755
 20
342.295247
 30
0.0
 11
189.731755
 21
345.295247
 31
0.0
  0
LINE
  5
165
100
AcDbEntity
  8
LC-005-005-----0
370
    25
390
0
 62
     2
100
AcDbLine
 10
186.731755
 20
345.123674
 30
0.0
 11
189.731755
 21
348.123674
 31
0.0
  0
LINE
  5
166
100
AcDbEntity
  8
LC-005-005-----0
370
    25
390
0
 62
     2
100
AcDbLine
 10
186.731755
 20
347.952101
 30
0.0
 11
189.731755
 21
350.952101
 31
0.0
  0
LINE
  5
167
100
AcDbEntity
  8
LC-005-005-----0
370
    25
390
0
 62
     2
100
AcDbLine
 10
186.731755
 20
350.780528
 30
0.0
 11
189.731755
 21
353.780528
 31
0.0
  0
LINE
  5
168
100
AcDbEntity
  8
LC-005-005-----0
370
    25
390
0
 62
     2
100
AcDbLine
 10
186.731755
 20
353.608955
 30
0.0
 11
189.731755
 21
356.608955
 31
0.0
  0
LINE
  5
169
100
AcDbEntity
  8
LC-005-005-----0
370
    25
390
0
 62
     2
100
AcDbLine
 10
186.731755
 20
356.437382
 30
0.0
 11
189.731755
 21
359.437382
 31
0.0
  0
LINE
  5
16A
100
AcDbEntity
  8
LC-005-005-----0
370
    25
390
0
 62
     2
100
AcDbLine
 10
186.731755
 20
359.265809
 30
0.0
 11
189.731755
 21
362.265809
 31
0.0
  0
LINE
  5
16B
100
AcDbEntity
  8
LC-005-005-----0
370
    25
390
0
 62
     2
100
AcDbLine
 10
186.731755
 20
362.094237
 30
0.0
 11
189.731755
 21
365.094237
 31
0.0
  0
LINE
  5
16C
100
AcDbEntity
  8
LC-005-005-----0
370
    25
390
0
 62
     2
100
AcDbLine
 10
186.731755
 20
364.922664
 30
0.0
 11
189.731755
 21
367.922664
 31
0.0
  0
LINE
  5
16D
100
AcDbEntity
  8
LC-005-005-----0
370
    25
390
0
 62
     2
100
AcDbLine
 10
186.731755
 20
367.751091
 30
0.0
 11
189.731755
 21
370.751091
 31
0.0
  0
LINE
  5
16E
100
AcDbEntity
  8
LC-005-005-----0
370
    25
390
0
 62
     2
100
AcDbLine
 10
186.731755
 20
370.579518
 30
0.0
 11
189.731755
 21
373.579518
 31
0.0
  0
LINE
  5
16F
100
AcDbEntity
  8
LC-005-005-----0
370
    25
390
0
 62
     2
100
AcDbLine
 10
186.731755
 20
373.407945
 30
0.0
 11
189.731755
 21
376.407945
 31
0.0
  0
LINE
  5
170
100
AcDbEntity
  8
LC-005-005-----0
370
    25
390
0
 62
     2
100
AcDbLine
 10
186.731755
 20
376.236372
 30
0.0
 11
189.731755
 21
379.236372
 31
0.0
  0
LINE
  5
171
100
AcDbEntity
  8
LC-005-005-----0
370
    25
390
0
 62
     2
100
AcDbLine
 10
186.731755
 20
379.064799
 30
0.0
 11
189.731755
 21
382.064799
 31
0.0
  0
LINE
  5
172
100
AcDbEntity
  8
LC-005-005-----0
370
    25
390
0
 62
     2
100
AcDbLine
 10
186.731755
 20
381.893226
 30
0.0
 11
189.731755
 21
384.893226
 31
0.0
  0
LINE
  5
173
100
AcDbEntity
  8
LC-005-005-----0
370
    25
390
0
 62
     2
100
AcDbLine
 10
186.731755
 20
384.721654
 30
0.0
 11
189.731755
 21
387.721654
 31
0.0
  0
LINE
  5
174
100
AcDbEntity
  8
LC-005-005-----0
370
    25
390
0
 62
     2
100
AcDbLine
 10
186.731755
 20
387.550081
 30
0.0
 11
189.731755
 21
390.550081
 31
0.0
  0
LINE
  5
175
100
AcDbEntity
  8
LC-005-005-----0
370
    25
390
0
 62
     2
100
AcDbLine
 10
186.731755
 20
390.378508
 30
0.0
 11
189.731755
 21
393.378508
 31
0.0
  0
LINE
  5
176
100
AcDbEntity
  8
LC-005-005-----0
370
    25
390
0
 62
     2
100
AcDbLine
 10
186.731755
 20
393.206935
 30
0.0
 11
189.731755
 21
396.206935
 31
0.0
  0
LINE
  5
177
100
AcDbEntity
  8
LC-005-005-----0
370
    25
390
0
 62
     2
100
AcDbLine
 10
186.731755
 20
396.035362
 30
0.0
 11
189.731755
 21
399.035362
 31
0.0
  0
LINE
  5
178
100
AcDbEntity
  8
LC-005-005-----0
370
    25
390
0
 62
     2
100
AcDbLine
 10
186.731755
 20
398.863789
 30
0.0
 11
189.731755
 21
401.863789
 31
0.0
  0
LINE
  5
179
100
AcDbEntity
  8
LC-005-005-----0
370
    25
390
0
 62
     2
100
AcDbLine
 10
186.731755
 20
401.692216
 30
0.0
 11
189.731755
 21
404.692216
 31
0.0
  0
LINE
  5
17A
100
AcDbEntity
  8
LC-005-005-----0
370
    25
390
0
 62
     2
100
AcDbLine
 10
186.731755
 20
404.520643
 30
0.0
 11
189.731755
 21
407.520643
 31
0.0
  0
LINE
  5
17B
100
AcDbEntity
  8
LC-005-005-----0
370
    25
390
0
 62
     2
100
AcDbLine
 10
186.731755
 20
407.349071
 30
0.0
 11
189.731755
 21
410.349071
 31
0.0
  0
LINE
  5
17C
100
AcDbEntity
  8
LC-005-005-----0
370
    25
390
0
 62
     2
100
AcDbLine
 10
186.731755
 20
410.177498
 30
0.0
 11
189.731755
 21
413.177498
 31
0.0
  0
LINE
  5
17D
100
AcDbEntity
  8
LC-005-005-----0
370
    25
390
0
 62
     2
100
AcDbLine
 10
186.731755
 20
413.005925
 30
0.0
 11
189.731755
 21
416.005925
 31
0.0
  0
LINE
  5
17E
100
AcDbEntity
  8
LC-005-005-----0
370
    25
390
0
 62
     2
100
AcDbLine
 10
186.731755
 20
415.834352
 30
0.0
 11
189.731755
 21
418.834352
 31
0.0
  0
LINE
  5
17F
100
AcDbEntity
  8
LC-005-005-----0
370
    25
390
0
 62
     2
100
AcDbLine
 10
186.731755
 20
418.662779
 30
0.0
 11
189.731755
 21
421.662779
 31
0.0
  0
LINE
  5
180
100
AcDbEntity
  8
LC-005-005-----0
370
    25
390
0
 62
     2
100
AcDbLine
 10
186.731755
 20
421.491206
 30
0.0
 11
189.731755
 21
424.491206
 31
0.0
  0
LINE
  5
181
100
AcDbEntity
  8
LC-005-005-----0
370
    25
390
0
 62
     2
100
AcDbLine
 10
186.731755
 20
424.319633
 30
0.0
 11
189.731755
 21
427.319633
 31
0.0
  0
LINE
  5
182
100
AcDbEntity
  8
LC-005-005-----0
370
    25
390
0
 62
     2
100
AcDbLine
 10
186.731755
 20
427.14806
 30
0.0
 11
189.731755
 21
430.14806
 31
0.0
  0
LINE
  5
183
100
AcDbEntity
  8
LC-005-005-----0
370
    25
390
0
 62
     2
100
AcDbLine
 10
186.731755
 20
429.976488
 30
0.0
 11
189.731755
 21
432.976488
 31
0.0
  0
LINE
  5
184
100
AcDbEntity
  8
LC-005-005-----0
370
    25
390
0
 62
     2
100
AcDbLine
 10
186.731755
 20
432.804915
 30
0.0
 11
189.731755
 21
435.804915
 31
0.0
  0
LINE
  5
185
100
AcDbEntity
  8
LC-005-005-----0
370
    25
390
0
 62
     2
100
AcDbLine
 10
186.731755
 20
435.633342
 30
0.0
 11
189.731755
 21
438.633342
 31
0.0
  0
LINE
  5
186
100
AcDbEntity
  8
LC-005-005-----0
370
    25
390
0
 62
     2
100
AcDbLine
 10
186.731755
 20
438.461769
 30
0.0
 11
189.731755
 21
441.461769
 31
0.0
  0
LINE
  5
187
100
AcDbEntity
  8
LC-005-005-----0
370
    25
390
0
 62
     2
100
AcDbLine
 10
186.731755
 20
441.290196
 30
0.0
 11
189.731755
 21
444.290196
 31
0.0
  0
LINE
  5
188
100
AcDbEntity
  8
LC-005-005-----0
370
    25
390
0
 62
     2
100
AcDbLine
 10
186.731755
 20
444.118623
 30
0.0
 11
189.731755
 21
447.118623
 31
0.0
  0
LINE
  5
189
100
AcDbEntity
  8
LC-005-005-----0
370
    25
390
0
 62
     2
100
AcDbLine
 10
186.731755
 20
446.94705
 30
0.0
 11
189.731755
 21
449.94705
 31
0.0
  0
LINE
  5
18A
100
AcDbEntity
  8
LC-005-005-----0
370
    25
390
0
 62
     2
100
AcDbLine
 10
186.731755
 20
449.775477
 30
0.0
 11
189.731755
 21
452.775477
 31
0.0
  0
LINE
  5
18B
100
AcDbEntity
  8
LC-005-005-----0
370
    25
390
0
 62
     2
100
AcDbLine
 10
186.731755
 20
452.603905
 30
0.0
 11
189.731755
 21
455.603905
 31
0.0
  0
LINE
  5
18C
100
AcDbEntity
  8
LC-005-005-----0
370
    25
390
0
 62
     2
100
AcDbLine
 10
186.731755
 20
455.432332
 30
0.0
 11
189.731755
 21
458.432332
 31
0.0
  0
LINE
  5
18D
100
AcDbEntity
  8
LC-005-005-----0
370
    25
390
0
 62
     2
100
AcDbLine
 10
186.731755
 20
458.260759
 30
0.0
 11
189.731755
 21
461.260759
 31
0.0
  0
LINE
  5
18E
100
AcDbEntity
  8
LC-005-005-----0
370
    25
390
0
 62
     2
100
AcDbLine
 10
186.308321
 20
460.665752
 30
0.0
 11
189.308321
 21
463.665752
 31
0.0
  0
LINE
  5
18F
100
AcDbEntity
  8
LC-005-005-----0
370
    25
390
0
 62
     2
100
AcDbLine
 10
183.479894
 20
460.665752
 30
0.0
 11
186.479894
 21
463.665752
 31
0.0
  0
LINE
  5
190
100
AcDbEntity
  8
LC-005-005-----0
370
    25
390
0
 62
     2
100
AcDbLine
 10
180.651466
 20
460.665752
 30
0.0
 11
183.651466
 21
463.665752
 31
0.0
  0
LINE
  5
191
100
AcDbEntity
  8
LC-005-005-----0
370
    25
390
0
 62
     2
100
AcDbLine
 10
177.823039
 20
460.665752
 30
0.0
 11
181.981728
 21
464.824441
 31
0.0
  0
LINE
  5
192
100
AcDbEntity
  8
LC-005-005-----0
370
    25
390
0
 62
     2
100
AcDbLine
 10
174.252819
 20
459.923958
 30
0.0
 11
181.981728
 21
467.652868
 31
0.0
  0
LINE
  5
193
100
AcDbEntity
  8
LC-005-005-----0
370
    25
390
0
 62
     2
100
AcDbLine
 10
171.194155
 20
459.693722
 30
0.0
 11
172.890584
 21
461.390151
 31
0.0
  0
LINE
  5
194
100
AcDbEntity
  8
LC-005-005-----0
370
    25
390
0
 62
     2
100
AcDbLine
 10
174.531755
 20
463.031322
 30
0.0
 11
181.981728
 21
470.481295
 31
0.0
  0
LINE
  5
195
100
AcDbEntity
  8
LC-005-005-----0
370
    25
390
0
 62
     2
100
AcDbLine
 10
168.840762
 20
460.168756
 30
0.0
 11
170.062157
 21
461.390151
 31
0.0
  0
LINE
  5
196
100
AcDbEntity
  8
LC-005-005-----0
370
    25
390
0
 62
     2
100
AcDbLine
 10
174.531755
 20
465.859749
 30
0.0
 11
181.981728
 21
473.309722
 31
0.0
  0
LINE
  5
197
100
AcDbEntity
  8
LC-005-005-----0
370
    25
390
0
 62
     2
100
AcDbLine
 10
166.506247
 20
460.662667
 30
0.0
 11
169.431755
 21
463.588176
 31
0.0
  0
LINE
  5
198
100
AcDbEntity
  8
LC-005-005-----0
370
    25
390
0
 62
     2
100
AcDbLine
 10
174.531755
 20
468.688176
 30
0.0
 11
181.981728
 21
476.138149
 31
0.0
  0
LINE
  5
199
100
AcDbEntity
  8
LC-005-005-----0
370
    25
390
0
 62
     2
100
AcDbLine
 10
164.363224
 20
461.348072
 30
0.0
 11
169.431755
 21
466.416603
 31
0.0
  0
LINE
  5
19A
100
AcDbEntity
  8
LC-005-005-----0
370
    25
390
0
 62
     2
100
AcDbLine
 10
174.531755
 20
471.516603
 30
0.0
 11
181.981728
 21
478.966576
 31
0.0
  0
LINE
  5
19B
100
AcDbEntity
  8
LC-005-005-----0
370
    25
390
0
 62
     2
100
AcDbLine
 10
164.363224
 20
464.176499
 30
0.0
 11
169.431755
 21
469.24503
 31
0.0
  0
LINE
  5
19C
100
AcDbEntity
  8
LC-005-005-----0
370
    25
390
0
 62
     2
100
AcDbLine
 10
174.531755
 20
474.34503
 30
0.0
 11
175.320757
 21
475.134032
 31
0.0
  0
LINE
  5
19D
100
AcDbEntity
  8
LC-005-005-----0
370
    25
390
0
 62
     2
100
AcDbLine
 10
178.949755
 20
478.76303
 30
0.0
 11
179.899287
 21
479.712562
 31
0.0
  0
LINE
  5
19E
100
AcDbEntity
  8
LC-005-005-----0
370
    25
390
0
 62
     2
100
AcDbLine
 10
164.363224
 20
467.004926
 30
0.0
 11
169.431755
 21
472.073457
 31
0.0
  0
LINE
  5
19F
100
AcDbEntity
  8
LC-005-005-----0
370
    25
390
0
 62
     2
100
AcDbLine
 10
163.555724
 20
469.025854
 30
0.0
 11
169.431755
 21
474.901884
 31
0.0
  0
LINE
  5
1A0
100
AcDbEntity
  8
LC-005-005-----0
370
    25
390
0
 62
     2
100
AcDbLine
 10
160.727297
 20
469.025854
 30
0.0
 11
163.272297
 21
471.570854
 31
0.0
  0
LINE
  5
1A1
100
AcDbEntity
  8
LC-005-005-----0
370
    25
390
0
 62
     2
100
AcDbLine
 10
166.013755
 20
474.312311
 30
0.0
 11
166.835297
 21
475.133854
 31
0.0
  0
LINE
  5
1A2
100
AcDbEntity
  8
LC-005-005-----0
370
    25
390
0
 62
     2
100
AcDbLine
 10
157.89887
 20
469.025854
 30
0.0
 11
160.44387
 21
471.570854
 31
0.0
  0
LINE
  5
1A3
100
AcDbEntity
  8
LC-005-005-----0
370
    25
390
0
 62
     2
100
AcDbLine
 10
156.153833
 20
470.109244
 30
0.0
 11
159.287224
 21
473.242635
 31
0.0
  0
LINE
  5
1A4
100
AcDbEntity
  8
LC-005-005-----0
370
    25
390
0
 62
     2
100
AcDbLine
 10
154.73962
 20
471.523458
 30
0.0
 11
158.350016
 21
475.133854
 31
0.0
  0
LINE
  5
1A5
100
AcDbEntity
  8
LC-005-005-----0
370
    25
390
0
 62
     2
100
AcDbLine
 10
153.066953
 20
472.679218
 30
0.0
 11
155.56164
 21
475.173905
 31
0.0
  0
LINE
  5
1A6
100
AcDbEntity
  8
LC-005-005-----0
370
    25
390
0
 62
     2
100
AcDbLine
 10
150.777534
 20
473.218226
 30
0.0
 11
153.272221
 21
475.712913
 31
0.0
  0
LINE
  5
1A7
100
AcDbEntity
  8
LC-005-005-----0
370
    25
390
0
 62
     2
100
AcDbLine
 10
148.488116
 20
473.757235
 30
0.0
 11
150.982803
 21
476.251922
 31
0.0
  0
LINE
  5
1A8
100
AcDbEntity
  8
LC-005-005-----0
370
    25
390
0
 62
     2
100
AcDbLine
 10
146.198697
 20
474.296244
 30
0.0
 11
148.693384
 21
476.790931
 31
0.0
  0
LINE
  5
1A9
100
AcDbEntity
  8
LC-005-005-----0
370
    25
390
0
 62
     2
100
AcDbLine
 10
143.909279
 20
474.835252
 30
0.0
 11
146.403966
 21
477.329939
 31
0.0
  0
LINE
  5
1AA
100
AcDbEntity
  8
LC-005-005-----0
370
    25
390
0
 62
     2
100
AcDbLine
 10
141.61986
 20
475.374261
 30
0.0
 11
144.114547
 21
477.868948
 31
0.0
  0
LINE
  5
1AB
100
AcDbEntity
  8
LC-005-005-----0
370
    25
390
0
 62
     2
100
AcDbLine
 10
139.330442
 20
475.913269
 30
0.0
 11
141.825129
 21
478.407956
 31
0.0
  0
LINE
  5
1AC
100
AcDbEntity
  8
LC-005-005-----0
370
    25
390
0
 62
     2
100
AcDbLine
 10
137.041023
 20
476.452278
 30
0.0
 11
139.53571
 21
478.946965
 31
0.0
  0
LINE
  5
1AD
100
AcDbEntity
  8
LC-005-005-----0
370
    25
390
0
 62
     2
100
AcDbLine
 10
134.751605
 20
476.991287
 30
0.0
 11
137.246292
 21
479.485974
 31
0.0
  0
LINE
  5
1AE
100
AcDbEntity
  8
LC-005-005-----0
370
    25
390
0
 62
     2
100
AcDbLine
 10
131.988145
 20
477.056254
 30
0.0
 11
134.897982
 21
479.966091
 31
0.0
  0
LINE
  5
1AF
100
AcDbEntity
  8
LC-005-005-----0
370
    25
390
0
 62
     2
100
AcDbLine
 10
129.159718
 20
477.056254
 30
0.0
 11
132.118071
 21
480.014607
 31
0.0
  0
LINE
  5
1B0
100
AcDbEntity
  8
LC-005-005-----0
370
    25
390
0
 62
     2
100
AcDbLine
 10
126.33129
 20
477.056254
 30
0.0
 11
129.331889
 21
480.056852
 31
0.0
  0
LINE
  5
1B1
100
AcDbEntity
  8
LC-005-005-----0
370
    25
390
0
 62
     2
100
AcDbLine
 10
123.502863
 20
477.056254
 30
0.0
 11
126.503469
 21
480.05686
 31
0.0
  0
LINE
  5
1B2
100
AcDbEntity
  8
LC-005-005-----0
370
    25
390
0
 62
     2
100
AcDbLine
 10
120.674436
 20
477.056254
 30
0.0
 11
123.67505
 21
480.056868
 31
0.0
  0
LINE
  5
1B3
100
AcDbEntity
  8
LC-005-005-----0
370
    25
390
0
 62
     2
100
AcDbLine
 10
117.846009
 20
477.056254
 30
0.0
 11
120.84663
 21
480.056875
 31
0.0
  0
LINE
  5
1B4
100
AcDbEntity
  8
LC-005-005-----0
370
    25
390
0
 62
     2
100
AcDbLine
 10
115.017582
 20
477.056254
 30
0.0
 11
118.018211
 21
480.056883
 31
0.0
  0
LINE
  5
1B5
100
AcDbEntity
  8
LC-005-005-----0
370
    25
390
0
 62
     2
100
AcDbLine
 10
112.189155
 20
477.056254
 30
0.0
 11
115.189791
 21
480.05689
 31
0.0
  0
LINE
  5
1B6
100
AcDbEntity
  8
LC-005-005-----0
370
    25
390
0
 62
     2
100
AcDbLine
 10
109.360728
 20
477.056254
 30
0.0
 11
112.361372
 21
480.056898
 31
0.0
  0
LINE
  5
1B7
100
AcDbEntity
  8
LC-005-005-----0
370
    25
390
0
 62
     2
100
AcDbLine
 10
106.532301
 20
477.056254
 30
0.0
 11
109.532952
 21
480.056905
 31
0.0
  0
LINE
  5
1B8
100
AcDbEntity
  8
LC-005-005-----0
370
    25
390
0
 62
     2
100
AcDbLine
 10
103.703873
 20
477.056254
 30
0.0
 11
106.704532
 21
480.056913
 31
0.0
  0
LINE
  5
1B9
100
AcDbEntity
  8
LC-005-005-----0
370
    25
390
0
 62
     2
100
AcDbLine
 10
100.875446
 20
477.056254
 30
0.0
 11
103.876113
 21
480.05692
 31
0.0
  0
LINE
  5
1BA
100
AcDbEntity
  8
LC-005-005-----0
370
    25
390
0
 62
     2
100
AcDbLine
 10
98.047019
 20
477.056254
 30
0.0
 11
101.047693
 21
480.056928
 31
0.0
  0
LINE
  5
1BB
100
AcDbEntity
  8
LC-005-005-----0
370
    25
390
0
 62
     2
100
AcDbLine
 10
95.218592
 20
477.056254
 30
0.0
 11
98.219274
 21
480.056935
 31
0.0
  0
LINE
  5
1BC
100
AcDbEntity
  8
LC-005-005-----0
370
    25
390
0
 62
     2
100
AcDbLine
 10
92.390165
 20
477.056254
 30
0.0
 11
95.390854
 21
480.056943
 31
0.0
  0
LINE
  5
1BD
100
AcDbEntity
  8
LC-005-005-----0
370
    25
390
0
 62
     2
100
AcDbLine
 10
89.561738
 20
477.056254
 30
0.0
 11
92.562434
 21
480.056951
 31
0.0
  0
LINE
  5
1BE
100
AcDbEntity
  8
LC-005-005-----0
370
    25
390
0
 62
     2
100
AcDbLine
 10
87.731755
 20
478.054698
 30
0.0
 11
89.734015
 21
480.056958
 31
0.0
  0
ENDBLK
  5
1BF
100
AcDbEntity
  8
0
390
0
100
AcDbBlockEnd
  0
BLOCK
  5
1C4
100
AcDbEntity
  8
0
390
0
100
AcDbBlockBegin
  2
*D4
 70
    65
 10
0.0
 20
0.0
 30
0.0
  3
*D4
  1

  0
LINE
  5
1C5
100
AcDbEntity
  8
LC-002-003-MTH-0
370
    25
390
0
 62
     2
100
AcDbLine
 10
87.731755
 20
477.056254
 30
0.0
 11
87.731755
 21
526.4
 31
0.0
  0
LINE
  5
1C6
100
AcDbEntity
  8
LC-002-003-MTH-0
370
    25
390
0
 62
     2
100
AcDbLine
 10
395.731755
 20
477.056254
 30
0.0
 11
395.731755
 21
526.4
 31
0.0
  0
LINE
  5
1C7
100
AcDbEntity
  8
LC-003-003-MTG-0
370
    25
390
0
 62
     2
100
AcDbLine
 10
87.731755
 20
509.6
 30
0.0
 11
195.095221
 21
509.6
 31
0.0
  0
LINE
  5
1C8
100
AcDbEntity
  8
LC-003-003-MTG-0
370
    25
390
0
 62
     2
100
AcDbLine
 10
302.862155
 20
509.6
 30
0.0
 11
395.731755
 21
509.6
 31
0.0
  0
LINE
  5
1C9
100
AcDbEntity
  8
LC-004-003-----0
370
    25
390
0
 62
     2
100
AcDbLine
 10
115.492211
 20
513.254733
 30
0.0
 11
87.731755
 21
509.6
 31
0.0
  0
LINE
  5
1CA
100
AcDbEntity
  8
LC-004-003-----0
370
    25
390
0
 62
     2
100
AcDbLine
 10
87.731755
 20
509.6
 30
0.0
 11
115.492211
 21
505.945267
 31
0.0
  0
LINE
  5
1CB
100
AcDbEntity
  8
LC-004-003-----0
370
    25
390
0
 62
     2
100
AcDbLine
 10
115.492211
 20
505.945267
 30
0.0
 11
115.492211
 21
513.254733
 31
0.0
  0
LINE
  5
1CC
100
AcDbEntity
  8
LC-004-003-----0
370
    25
390
0
 62
     2
100
AcDbLine
 10
115.554492
 20
512.304503
 30
0.0
 11
95.011755
 21
509.6
 31
0.0
  0
LINE
  5
1CD
100
AcDbEntity
  8
LC-004-003-----0
370
    25
390
0
 62
     2
100
AcDbLine
 10
95.011755
 20
509.6
 30
0.0
 11
115.554492
 21
506.895497
 31
0.0
  0
LINE
  5
1CE
100
AcDbEntity
  8
LC-004-003-----0
370
    25
390
0
 62
     2
100
AcDbLine
 10
115.616774
 20
511.354272
 30
0.0
 11
102.291755
 21
509.6
 31
0.0
  0
LINE
  5
1CF
100
AcDbEntity
  8
LC-004-003-----0
370
    25
390
0
 62
     2
100
AcDbLine
 10
102.291755
 20
509.6
 30
0.0
 11
115.616774
 21
507.845728
 31
0.0
  0
LINE
  5
1D0
100
AcDbEntity
  8
LC-004-003-----0
370
    25
390
0
 62
     2
100
AcDbLine
 10
115.679055
 20
510.404041
 30
0.0
 11
109.571755
 21
509.6
 31
0.0
  0
LINE
  5
1D1
100
AcDbEntity
  8
LC-004-003-----0
370
    25
390
0
 62
     2
100
AcDbLine
 10
109.571755
 20
509.6
 30
0.0
 11
115.679055
 21
508.795959
 31
0.0
  0
LINE
  5
1D2
100
AcDbEntity
  8
LC-004-003-----0
370
    25
390
0
 62
     2
100
AcDbLine
 10
367.971299
 20
505.945267
 30
0.0
 11
395.731755
 21
509.6
 31
0.0
  0
LINE
  5
1D3
100
AcDbEntity
  8
LC-004-003-----0
370
    25
390
0
 62
     2
100
AcDbLine
 10
395.731755
 20
509.6
 30
0.0
 11
367.971299
 21
513.254733
 31
0.0
  0
LINE
  5
1D4
100
AcDbEntity
  8
LC-004-003-----0
370
    25
390
0
 62
     2
100
AcDbLine
 10
367.971299
 20
513.254733
 30
0.0
 11
367.971299
 21
505.945267
 31
0.0
  0
LINE
  5
1D5
100
AcDbEntity
  8
LC-004-003-----0
370
    25
390
0
 62
     2
100
AcDbLine
 10
367.909017
 20
506.895497
 30
0.0
 11
388.451755
 21
509.6
 31
0.0
  0
LINE
  5
1D6
100
AcDbEntity
  8
LC-004-003-----0
370
    25
390
0
 62
     2
100
AcDbLine
 10
388.451755
 20
509.6
 30
0.0
 11
367.909017
 21
512.304503
 31
0.0
  0
LINE
  5
1D7
100
AcDbEntity
  8
LC-004-003-----0
370
    25
390
0
 62
     2
100
AcDbLine
 10
367.846736
 20
507.845728
 30
0.0
 11
381.171755
 21
509.6
 31
0.0
  0
LINE
  5
1D8
100
AcDbEntity
  8
LC-004-003-----0
370
    25
390
0
 62
     2
100
AcDbLine
 10
381.171755
 20
509.6
 30
0.0
 11
367.846736
 21
511.354272
 31
0.0
  0
LINE
  5
1D9
100
AcDbEntity
  8
LC-004-003-----0
370
    25
390
0
 62
     2
100
AcDbLine
 10
367.784455
 20
508.795959
 30
0.0
 11
373.891755
 21
509.6
 31
0.0
  0
LINE
  5
1DA
100
AcDbEntity
  8
LC-004-003-----0
370
    25
390
0
 62
     2
100
AcDbLine
 10
373.891755
 20
509.6
 30
0.0
 11
367.784455
 21
510.404041
 31
0.0
  0
TEXT
  5
1DB
100
AcDbEntity
  8
LC-004-003-----0
370
    -2
390
0
 62
     7
100
AcDbText
 10
183.079915
 20
517.427554
 30
0.0
 40
28.0
  1
%%c308
 41
0.9
 51
15.0
  7
LCTX15-400-0-0-ARIAL
 72
     1
 11
246.079915
 21
517.427554
 31
0.0
100
AcDbText
  0
ENDBLK
  5
1DC
100
AcDbEntity
  8
0
390
0
100
AcDbBlockEnd
  0
BLOCK
  5
1DF
100
AcDbEntity
  8
0
390
0
100
AcDbBlockBegin
  2
*D5
 70
    65
 10
0.0
 20
0.0
 30
0.0
  3
*D5
  1

  0
LINE
  5
1E0
100
AcDbEntity
  8
LC-002-003-MTH-0
370
    25
390
0
 62
     2
100
AcDbLine
 10
293.731755
 20
260.662667
 30
0.0
 11
448.0
 21
260.662667
 31
0.0
  0
LINE
  5
1E1
100
AcDbEntity
  8
LC-002-003-MTH-0
370
    25
390
0
 62
     2
100
AcDbLine
 10
395.731755
 20
477.056254
 30
0.0
 11
448.0
 21
477.056254
 31
0.0
  0
LINE
  5
1E2
100
AcDbEntity
  8
LC-003-003-MTG-0
370
    25
390
0
 62
     2
100
AcDbLine
 10
431.2
 20
260.662667
 30
0.0
 11
431.2
 21
334.654927
 31
0.0
  0
LINE
  5
1E3
100
AcDbEntity
  8
LC-003-003-MTG-0
370
    25
390
0
 62
     2
100
AcDbLine
 10
431.2
 20
417.557861
 30
0.0
 11
431.2
 21
477.056254
 31
0.0
  0
LINE
  5
1E4
100
AcDbEntity
  8
LC-004-003-----0
370
    25
390
0
 62
     2
100
AcDbLine
 10
427.545267
 20
288.423124
 30
0.0
 11
431.2
 21
260.662667
 31
0.0
  0
LINE
  5
1E5
100
AcDbEntity
  8
LC-004-003-----0
370
    25
390
0
 62
     2
100
AcDbLine
 10
431.2
 20
260.662667
 30
0.0
 11
434.854733
 21
288.423124
 31
0.0
  0
LINE
  5
1E6
100
AcDbEntity
  8
LC-004-003-----0
370
    25
390
0
 62
     2
100
AcDbLine
 10
434.854733
 20
288.423124
 30
0.0
 11
427.545267
 21
288.423124
 31
0.0
  0
LINE
  5
1E7
100
AcDbEntity
  8
LC-004-003-----0
370
    25
390
0
 62
     2
100
AcDbLine
 10
428.495497
 20
288.485405
 30
0.0
 11
431.2
 21
267.942667
 31
0.0
  0
LINE
  5
1E8
100
AcDbEntity
  8
LC-004-003-----0
370
    25
390
0
 62
     2
100
AcDbLine
 10
431.2
 20
267.942667
 30
0.0
 11
433.904503
 21
288.485405
 31
0.0
  0
LINE
  5
1E9
100
AcDbEntity
  8
LC-004-003-----0
370
    25
390
0
 62
     2
100
AcDbLine
 10
429.445728
 20
288.547686
 30
0.0
 11
431.2
 21
275.222667
 31
0.0
  0
LINE
  5
1EA
100
AcDbEntity
  8
LC-004-003-----0
370
    25
390
0
 62
     2
100
AcDbLine
 10
431.2
 20
275.222667
 30
0.0
 11
432.954272
 21
288.547686
 31
0.0
  0
LINE
  5
1EB
100
AcDbEntity
  8
LC-004-003-----0
370
    25
390
0
 62
     2
100
AcDbLine
 10
430.395959
 20
288.609968
 30
0.0
 11
431.2
 21
282.502667
 31
0.0
  0
LINE
  5
1EC
100
AcDbEntity
  8
LC-004-003-----0
370
    25
390
0
 62
     2
100
AcDbLine
 10
431.2
 20
282.502667
 30
0.0
 11
432.004041
 21
288.609968
 31
0.0
  0
LINE
  5
1ED
100
AcDbEntity
  8
LC-004-003-----0
370
    25
390
0
 62
     2
100
AcDbLine
 10
434.854733
 20
449.295798
 30
0.0
 11
431.2
 21
477.056254
 31
0.0
  0
LINE
  5
1EE
100
AcDbEntity
  8
LC-004-003-----0
370
    25
390
0
 62
     2
100
AcDbLine
 10
431.2
 20
477.056254
 30
0.0
 11
427.545267
 21
449.295798
 31
0.0
  0
LINE
  5
1EF
100
AcDbEntity
  8
LC-004-003-----0
370
    25
390
0
 62
     2
100
AcDbLine
 10
427.545267
 20
449.295798
 30
0.0
 11
434.854733
 21
449.295798
 31
0.0
  0
LINE
  5
1F0
100
AcDbEntity
  8
LC-004-003-----0
370
    25
390
0
 62
     2
100
AcDbLine
 10
433.904503
 20
449.233516
 30
0.0
 11
431.2
 21
469.776254
 31
0.0
  0
LINE
  5
1F1
100
AcDbEntity
  8
LC-004-003-----0
370
    25
390
0
 62
     2
100
AcDbLine
 10
431.2
 20
469.776254
 30
0.0
 11
428.495497
 21
449.233516
 31
0.0
  0
LINE
  5
1F2
100
AcDbEntity
  8
LC-004-003-----0
370
    25
390
0
 62
     2
100
AcDbLine
 10
432.954272
 20
449.171235
 30
0.0
 11
431.2
 21
462.496254
 31
0.0
  0
LINE
  5
1F3
100
AcDbEntity
  8
LC-004-003-----0
370
    25
390
0
 62
     2
100
AcDbLine
 10
431.2
 20
462.496254
 30
0.0
 11
429.445728
 21
449.171235
 31
0.0
  0
LINE
  5
1F4
100
AcDbEntity
  8
LC-004-003-----0
370
    25
390
0
 62
     2
100
AcDbLine
 10
432.004041
 20
449.108954
 30
0.0
 11
431.2
 21
455.216254
 31
0.0
  0
LINE
  5
1F5
100
AcDbEntity
  8
LC-004-003-----0
370
    25
390
0
 62
     2
100
AcDbLine
 10
431.2
 20
455.216254
 30
0.0
 11
430.395959
 21
449.108954
 31
0.0
  0
TEXT
  5
1F6
100
AcDbEntity
  8
LC-004-003-----0
370
    -2
390
0
 62
     7
100
AcDbText
 10
423.372446
 20
346.579621
 30
0.0
 40
28.0
  1
216
 50
90.0
 41
0.9
 51
15.0
  7
LCTX15-400-0-0-ARIAL
 72
     1
 11
423.372446
 21
373.207621
 31
0.0
100
AcDbText
  0
ENDBLK
  5
1F7
100
AcDbEntity
  8
0
390
0
100
AcDbBlockEnd
  0
ENDSEC
  0
SECTION
  2
ENTITIES
  0
VIEWPORT
  5
1F9
100
AcDbEntity
 67
     1
  8
LC-VIEWPORT
390
0
100
AcDbViewport
 10
420.0
 20
297.0
 30
0.0
 40
840.0
 41
594.0
 68
     1
 69
     1
 12
420.0
 22
297.0
 13
0.0
 23
0.0
 14
1.0
 24
1.0
 15
0.0
 25
0.0
 16
0.0
 26
0.0
 36
1.0
 17
0.0
 27
0.0
 37
0.0
 42
50.0
 43
0.0
 44
0.0
 45
594.0
 50
0.0
 51
0.0
 72
   100
 90
    32928
340
0
  1

281
     0
 71
     0
 74
     1
110
0.0
120
0.0
130
0.0
111
1.0
121
0.0
131
0.0
112
0.0
122
1.0
132
0.0
345
0
346
0
 79
     0
146
0.0
  0
LINE
  5
2C
100
AcDbEntity
  8
LC-001-002-----0
370
    25
390
0
 62
     2
100
AcDbLine
 10
241.731755
 20
480.056553
 30
0.0
 11
241.731755
 21
260.662667
 31
0.0
  0
LINE
  5
2D
100
AcDbEntity
  8
LC-001-002-----0
370
    25
390
0
 62
     2
100
AcDbLine
 10
171.985312
 20
459.662659
 30
0.0
 11
171.985312
 21
475.642854
 31
0.0
  0
LINE
  5
2E
100
AcDbEntity
  8
LC-001-002-----0
370
    25
390
0
 62
     2
100
AcDbLine
 10
311.481733
 20
459.662658
 30
0.0
 11
311.481733
 21
475.642854
 31
0.0
  0
LINE
  5
2F
100
AcDbEntity
  8
LC-001-002-----0
370
    50
390
0
  6
ByBlock
 62
     7
100
AcDbLine
 10
353.731763
 20
480.056254
 30
0.0
 11
348.231755
 21
479.960266
 31
0.0
  0
DIMENSION
  5
4E
100
AcDbEntity
  8
LC-004-003-----0
370
    25
390
0
 62
     2
100
AcDbDimension
  2
*D0
 10
352.8
 20
360.662667
 30
0.0
 11
352.8
 21
360.662667
 31
0.0
 71
     5
 72
     1
 41
1.0
 42
0.0
  3
LC-DIM-L-0140-01-02
100
AcDbAlignedDimension
 13
319.100286
 23
460.662667
 33
0.0
 14
295.525983
 24
260.662667
 34
0.0
 50
90.0
100
AcDbRotatedDimension
  0
DIMENSION
  5
68
100
AcDbEntity
  8
LC-004-003-----0
370
    25
390
0
 62
     2
100
AcDbDimension
  2
*D1
 10
241.731755
 20
196.0
 30
0.0
 11
241.731755
 21
196.0
 31
0.0
 71
     5
 72
     1
 41
1.0
 42
0.0
  1
%%c<>
  3
LC-DIM-L-0140-01-02
100
AcDbAlignedDimension
 13
186.731755
 23
265.162667
 33
0.0
 14
296.731755
 24
265.162667
 34
0.0
100
AcDbRotatedDimension
  0
LINE
  5
69
100
AcDbEntity
  8
LC-001-002-----0
370
    50
390
0
  6
ByBlock
 62
     7
100
AcDbLine
 10
187.937526
 20
260.662667
 30
0.0
 11
186.731755
 21
265.162667
 31
0.0
  0
ARC
  5
6A
100
AcDbEntity
  8
LC-001-002-----0
370
    50
390
0
  6
ByBlock
 62
     7
100
AcDbCircle
 10
311.481755
 20
469.662658
 30
0.0
 40
10.0
100
AcDbArc
 50
244.157941
 51
295.841807
  0
LINE
  5
6B
100
AcDbEntity
  8
LC-001-002-----0
370
    50
390
0
  6
ByBlock
 62
     7
100
AcDbLine
 10
319.100286
 20
469.025854
 30
0.0
 11
319.100286
 21
460.662667
 31
0.0
  0
LINE
  5
6C
100
AcDbEntity
  8
LC-001-002-----0
370
    50
390
0
  6
ByBlock
 62
     7
100
AcDbLine
 10
189.731755
 20
463.665752
 30
0.0
 11
181.981728
 21
463.665752
 31
0.0
  0
LINE
  5
6D
100
AcDbEntity
  8
LC-001-002-----0
370
    50
390
0
  6
ByBlock
 62
     7
100
AcDbLine
 10
319.100286
 20
460.662667
 30
0.0
 11
315.840674
 21
460.662667
 31
0.0
  0
LINE
  5
6E
100
AcDbEntity
  8
LC-001-002-----0
370
    50
390
0
  6
ByBlock
 62
     7
100
AcDbLine
 10
293.731755
 20
463.665752
 30
0.0
 11
301.481869
 21
463.664048
 31
0.0
  0
LINE
  5
6F
100
AcDbEntity
  8
LC-001-002-----0
370
    50
390
0
  6
ByBlock
 62
     7
100
AcDbLine
 10
293.731755
 20
260.662667
 30
0.0
 11
189.731755
 21
260.662667
 31
0.0
  0
LINE
  5
70
100
AcDbEntity
  8
LC-001-002-----0
370
    50
390
0
  6
ByBlock
 62
     7
100
AcDbLine
 10
296.731745
 20
459.956257
 30
0.0
 11
296.731745
 21
459.956231
 31
0.0
  0
LINE
  5
71
100
AcDbEntity
  8
LC-001-002-----0
370
    50
390
0
  6
ByBlock
 62
     7
100
AcDbLine
 10
186.731755
 20
460.665752
 30
0.0
 11
186.731755
 21
265.162667
 31
0.0
  0
LINE
  5
72
100
AcDbEntity
  8
LC-001-002-----0
370
    50
390
0
  6
ByBlock
 62
     7
100
AcDbLine
 10
296.731755
 20
460.665752
 30
0.0
 11
296.731755
 21
265.162667
 31
0.0
  0
LINE
  5
73
100
AcDbEntity
  8
LC-001-002-----0
370
    50
390
0
  6
ByBlock
 62
     7
100
AcDbLine
 10
189.731755
 20
463.665752
 30
0.0
 11
189.731755
 21
260.662667
 31
0.0
  0
LINE
  5
74
100
AcDbEntity
  8
LC-001-002-----0
370
    50
390
0
  6
ByBlock
 62
     7
100
AcDbLine
 10
293.731755
 20
463.665752
 30
0.0
 11
293.731755
 21
260.662667
 31
0.0
  0
LINE
  5
75
100
AcDbEntity
  8
LC-001-002-----0
370
    50
390
0
  6
ByBlock
 62
     7
100
AcDbLine
 10
295.525983
 20
260.662667
 30
0.0
 11
296.731755
 21
265.162667
 31
0.0
  0
LINE
  5
76
100
AcDbEntity
  8
LC-001-002-----0
370
    50
390
0
  6
ByBlock
 62
     7
100
AcDbLine
 10
189.731755
 20
260.662667
 30
0.0
 11
187.937526
 21
260.662667
 31
0.0
  0
LINE
  5
77
100
AcDbEntity
  8
LC-001-002-----0
370
    50
390
0
  6
ByBlock
 62
     7
100
AcDbLine
 10
293.731755
 20
260.662667
 30
0.0
 11
295.525983
 21
260.662667
 31
0.0
  0
LINE
  5
78
100
AcDbEntity
  8
LC-001-002-----0
370
    50
390
0
  6
ByBlock
 62
     7
100
AcDbLine
 10
164.363224
 20
460.662667
 30
0.0
 11
167.622836
 21
460.662667
 31
0.0
  0
LINE
  5
79
100
AcDbEntity
  8
LC-001-002-----0
370
    50
390
0
  6
ByBlock
 62
     7
100
AcDbLine
 10
241.731755
 20
463.665752
 30
0.0
 11
293.731755
 21
463.665752
 31
0.0
  0
ARC
  5
7A
100
AcDbEntity
  8
LC-001-002-----0
370
    50
390
0
  6
ByBlock
 62
     7
100
AcDbCircle
 10
171.981755
 20
469.662658
 30
0.0
 40
10.0
100
AcDbArc
 50
244.158193
 51
295.88257
  0
LINE
  5
7B
100
AcDbEntity
  8
LC-001-002-----0
370
    50
390
0
  6
ByBlock
 62
     7
100
AcDbLine
 10
241.731755
 20
463.665752
 30
0.0
 11
189.731755
 21
463.665752
 31
0.0
  0
LINE
  5
7C
100
AcDbEntity
  8
LC-001-002-----0
370
    50
390
0
  6
ByBlock
 62
     7
100
AcDbLine
 10
324.276286
 20
471.570853
 30
0.0
 11
324.276286
 21
475.133853
 31
0.0
  0
LINE
  5
7D
100
AcDbEntity
  8
LC-001-002-----0
370
    50
390
0
  6
ByBlock
 62
     7
100
AcDbLine
 10
317.449755
 20
475.133854
 30
0.0
 11
317.449755
 21
471.570854
 31
0.0
  0
LINE
  5
7E
100
AcDbEntity
  8
LC-001-002-----0
370
    50
390
0
  6
ByBlock
 62
     7
100
AcDbLine
 10
270.287188
 20
476.660151
 30
0.0
 11
270.287188
 21
479.714151
 31
0.0
  0
LINE
  5
7F
100
AcDbEntity
  8
LC-001-002-----0
370
    50
390
0
  6
ByBlock
 62
     7
100
AcDbLine
 10
270.287188
 20
479.714151
 30
0.0
 11
275.325768
 21
479.714151
 31
0.0
  0
LINE
  5
80
100
AcDbEntity
  8
LC-001-002-----0
370
    50
390
0
  6
ByBlock
 62
     7
100
AcDbLine
 10
275.325768
 20
479.714151
 30
0.0
 11
275.325768
 21
476.660151
 31
0.0
  0
LINE
  5
81
100
AcDbEntity
  8
LC-001-002-----0
370
    50
390
0
  6
ByBlock
 62
     7
100
AcDbLine
 10
159.287224
 20
471.570854
 30
0.0
 11
159.287224
 21
475.133854
 31
0.0
  0
LINE
  5
82
100
AcDbEntity
  8
LC-001-002-----0
370
    50
390
0
  6
ByBlock
 62
     7
100
AcDbLine
 10
167.749755
 20
475.642854
 30
0.0
 11
167.455884
 21
475.133854
 31
0.0
  0
LINE
  5
83
100
AcDbEntity
  8
LC-001-002-----0
370
    50
390
0
  6
ByBlock
 62
     7
100
AcDbLine
 10
168.043626
 20
475.133854
 30
0.0
 11
167.749755
 21
475.642854
 31
0.0
  0
LINE
  5
84
100
AcDbEntity
  8
LC-001-002-----0
370
    50
390
0
  6
ByBlock
 62
     7
100
AcDbLine
 10
169.449755
 20
475.642854
 30
0.0
 11
169.155884
 21
475.133854
 31
0.0
  0
LINE
  5
85
100
AcDbEntity
  8
LC-001-002-----0
370
    50
390
0
  6
ByBlock
 62
     7
100
AcDbLine
 10
308.619884
 20
475.133854
 30
0.0
 11
308.913755
 21
475.642854
 31
0.0
  0
LINE
  5
86
100
AcDbEntity
  8
LC-001-002-----0
370
    50
390
0
  6
ByBlock
 62
     7
100
AcDbLine
 10
181.981728
 20
479.712562
 30
0.0
 11
178.949755
 21
479.712562
 31
0.0
  0
LINE
  5
87
100
AcDbEntity
  8
LC-001-002-----0
370
    50
390
0
  6
ByBlock
 62
     7
100
AcDbLine
 10
155.731755
 20
475.133854
 30
0.0
 11
159.287224
 21
475.133854
 31
0.0
  0
LINE
  5
88
100
AcDbEntity
  8
LC-001-002-----0
370
    50
390
0
  6
ByBlock
 62
     7
100
AcDbLine
 10
324.276286
 20
475.133854
 30
0.0
 11
317.449755
 21
475.133854
 31
0.0
  0
LINE
  5
89
100
AcDbEntity
  8
LC-001-002-----0
370
    50
390
0
  6
ByBlock
 62
     7
100
AcDbLine
 10
177.949755
 20
476.660151
 30
0.0
 11
177.949755
 21
475.133151
 31
0.0
  0
LINE
  5
8A
100
AcDbEntity
  8
LC-001-002-----0
370
    50
390
0
  6
ByBlock
 62
     7
100
AcDbLine
 10
178.949755
 20
476.660283
 30
0.0
 11
178.949755
 21
479.712562
 31
0.0
  0
LINE
  5
8B
100
AcDbEntity
  8
LC-001-002-----0
370
    50
390
0
  6
ByBlock
 62
     7
100
AcDbLine
 10
181.981728
 20
476.660151
 30
0.0
 11
241.731755
 21
476.660151
 31
0.0
  0
LINE
  5
8C
100
AcDbEntity
  8
LC-001-002-----0
370
    50
390
0
  6
ByBlock
 62
     7
100
AcDbLine
 10
166.013755
 20
475.133854
 30
0.0
 11
166.013755
 21
471.570854
 31
0.0
  0
LINE
  5
8D
100
AcDbEntity
  8
LC-001-002-----0
370
    50
390
0
  6
ByBlock
 62
     7
100
AcDbLine
 10
393.73176
 20
480.056147
 30
0.0
 11
241.731755
 21
480.056553
 31
0.0
  0
LINE
  5
8E
100
AcDbEntity
  8
LC-001-002-----0
370
    50
390
0
  6
ByBlock
 62
     7
100
AcDbLine
 10
348.231755
 20
479.960266
 30
0.0
 11
327.731755
 21
475.133854
 31
0.0
  0
LINE
  5
8F
100
AcDbEntity
  8
LC-001-002-----0
370
    50
390
0
  6
ByBlock
 62
     7
100
AcDbLine
 10
129.697506
 20
480.056852
 30
0.0
 11
135.231755
 21
479.960266
 31
0.0
  0
LINE
  5
90
100
AcDbEntity
  8
LC-001-002-----0
370
    50
390
0
  6
ByBlock
 62
     7
100
AcDbLine
 10
395.731755
 20
477.056254
 30
0.0
 11
348.987851
 21
477.056254
 31
0.0
  0
LINE
  5
91
100
AcDbEntity
  8
LC-001-002-----0
370
    50
390
0
  6
ByBlock
 62
     7
100
AcDbLine
 10
181.981728
 20
476.660151
 30
0.0
 11
181.981728
 21
479.714151
 31
0.0
  0
LINE
  5
92
100
AcDbEntity
  8
LC-001-002-----0
370
    50
390
0
  6
ByBlock
 62
     7
100
AcDbLine
 10
177.949755
 20
475.133157
 30
0.0
 11
171.981755
 21
475.135143
 31
0.0
  0
LINE
  5
93
100
AcDbEntity
  8
LC-001-002-----0
370
    50
390
0
  6
ByBlock
 62
     7
100
AcDbLine
 10
317.449755
 20
471.570854
 30
0.0
 11
324.276286
 21
471.570854
 31
0.0
  0
LINE
  5
94
100
AcDbEntity
  8
LC-001-002-----0
370
    50
390
0
  6
ByBlock
 62
     7
100
AcDbLine
 10
166.013755
 20
471.570854
 30
0.0
 11
159.287224
 21
471.570854
 31
0.0
  0
LINE
  5
95
100
AcDbEntity
  8
LC-001-002-----0
370
    50
390
0
  6
ByBlock
 62
     7
100
AcDbLine
 10
319.100286
 20
469.025854
 30
0.0
 11
326.226286
 21
469.025854
 31
0.0
  0
LINE
  5
96
100
AcDbEntity
  8
LC-001-002-----0
370
    50
390
0
  6
ByBlock
 62
     7
100
AcDbLine
 10
326.226286
 20
469.025854
 30
0.0
 11
329.720477
 21
472.520045
 31
0.0
  0
LINE
  5
97
100
AcDbEntity
  8
LC-001-002-----0
370
    50
390
0
  6
ByBlock
 62
     7
100
AcDbLine
 10
306.919884
 20
475.133854
 30
0.0
 11
307.213755
 21
475.642854
 31
0.0
  0
LINE
  5
98
100
AcDbEntity
  8
LC-001-002-----0
370
    50
390
0
  6
ByBlock
 62
     7
100
AcDbLine
 10
307.213755
 20
475.642854
 30
0.0
 11
307.507626
 21
475.133854
 31
0.0
  0
LINE
  5
99
100
AcDbEntity
  8
LC-001-002-----0
370
    50
390
0
  6
ByBlock
 62
     7
100
AcDbLine
 10
305.513755
 20
475.133854
 30
0.0
 11
311.481755
 21
475.133854
 31
0.0
  0
LINE
  5
9A
100
AcDbEntity
  8
LC-001-002-----0
370
    50
390
0
  6
ByBlock
 62
     7
100
AcDbLine
 10
169.743626
 20
475.133854
 30
0.0
 11
169.449755
 21
475.642854
 31
0.0
  0
LINE
  5
9B
100
AcDbEntity
  8
LC-001-002-----0
370
    50
390
0
  6
ByBlock
 62
     7
100
AcDbLine
 10
164.363224
 20
469.025854
 30
0.0
 11
157.237224
 21
469.025854
 31
0.0
  0
LINE
  5
9C
100
AcDbEntity
  8
LC-001-002-----0
370
    50
390
0
  6
ByBlock
 62
     7
100
AcDbLine
 10
157.237224
 20
469.025854
 30
0.0
 11
153.743032
 21
472.520045
 31
0.0
  0
LINE
  5
9D
100
AcDbEntity
  8
LC-001-002-----0
370
    50
390
0
  6
ByBlock
 62
     7
100
AcDbLine
 10
171.149755
 20
475.642854
 30
0.0
 11
170.855884
 21
475.133854
 31
0.0
  0
LINE
  5
9E
100
AcDbEntity
  8
LC-001-002-----0
370
    50
390
0
  6
ByBlock
 62
     7
100
AcDbLine
 10
171.443626
 20
475.133854
 30
0.0
 11
171.149755
 21
475.642854
 31
0.0
  0
LINE
  5
9F
100
AcDbEntity
  8
LC-001-002-----0
370
    50
390
0
  6
ByBlock
 62
     7
100
AcDbLine
 10
172.849755
 20
475.642854
 30
0.0
 11
172.555884
 21
475.133854
 31
0.0
  0
LINE
  5
A0
100
AcDbEntity
  8
LC-001-002-----0
370
    50
390
0
  6
ByBlock
 62
     7
100
AcDbLine
 10
173.143626
 20
475.133854
 30
0.0
 11
172.849755
 21
475.642854
 31
0.0
  0
LINE
  5
A1
100
AcDbEntity
  8
LC-001-002-----0
370
    50
390
0
  6
ByBlock
 62
     7
100
AcDbLine
 10
308.931755
 20
475.133854
 30
0.0
 11
308.931755
 21
461.390151
 31
0.0
  0
LINE
  5
A2
100
AcDbEntity
  8
LC-001-002-----0
370
    50
390
0
  6
ByBlock
 62
     7
100
AcDbLine
 10
171.981755
 20
475.133854
 30
0.0
 11
159.287224
 21
475.133854
 31
0.0
  0
LINE
  5
A3
100
AcDbEntity
  8
LC-001-002-----0
370
    50
390
0
  6
ByBlock
 62
     7
100
AcDbLine
 10
87.731755
 20
477.056254
 30
0.0
 11
134.475659
 21
477.056254
 31
0.0
  0
LINE
  5
A4
100
AcDbEntity
  8
LC-001-002-----0
370
    50
390
0
  6
ByBlock
 62
     7
100
AcDbLine
 10
314.031755
 20
475.133854
 30
0.0
 11
314.031755
 21
461.390151
 31
0.0
  0
LINE
  5
A5
100
AcDbEntity
  8
LC-001-002-----0
370
    50
390
0
  6
ByBlock
 62
     7
100
AcDbLine
 10
314.031755
 20
461.390151
 30
0.0
 11
308.931755
 21
461.390151
 31
0.0
  0
LINE
  5
A6
100
AcDbEntity
  8
LC-001-002-----0
370
    50
390
0
  6
ByBlock
 62
     7
100
AcDbLine
 10
135.231755
 20
479.960266
 30
0.0
 11
155.731755
 21
475.133854
 31
0.0
  0
LINE
  5
A7
100
AcDbEntity
  8
LC-001-002-----0
370
    50
390
0
  6
ByBlock
 62
     7
100
AcDbLine
 10
174.549755
 20
475.642854
 30
0.0
 11
174.255884
 21
475.133854
 31
0.0
  0
LINE
  5
A8
100
AcDbEntity
  8
LC-001-002-----0
370
    50
390
0
  6
ByBlock
 62
     7
100
AcDbLine
 10
311.481755
 20
475.133854
 30
0.0
 11
317.449755
 21
475.133854
 31
0.0
  0
LINE
  5
A9
100
AcDbEntity
  8
LC-001-002-----0
370
    50
390
0
  6
ByBlock
 62
     7
100
AcDbLine
 10
169.431755
 20
461.390151
 30
0.0
 11
174.531755
 21
461.390151
 31
0.0
  0
LINE
  5
AA
100
AcDbEntity
  8
LC-001-002-----0
370
    50
390
0
  6
ByBlock
 62
     7
100
AcDbLine
 10
177.949755
 20
476.660151
 30
0.0
 11
178.949755
 21
476.660151
 31
0.0
  0
LINE
  5
AB
100
AcDbEntity
  8
LC-001-002-----0
370
    50
390
0
  6
ByBlock
 62
     7
100
AcDbLine
 10
174.843626
 20
475.133854
 30
0.0
 11
174.549755
 21
475.642854
 31
0.0
  0
LINE
  5
AC
100
AcDbEntity
  8
LC-001-002-----0
370
    50
390
0
  6
ByBlock
 62
     7
100
AcDbLine
 10
181.981728
 20
476.660151
 30
0.0
 11
181.981728
 21
463.665752
 31
0.0
  0
LINE
  5
AD
100
AcDbEntity
  8
LC-001-002-----0
370
    50
390
0
  6
ByBlock
 62
     7
100
AcDbLine
 10
305.513755
 20
476.660077
 30
0.0
 11
301.511869
 21
476.660854
 31
0.0
  0
LINE
  5
AE
100
AcDbEntity
  8
LC-001-002-----0
370
    50
390
0
  6
ByBlock
 62
     7
100
AcDbLine
 10
324.276286
 20
475.133854
 30
0.0
 11
327.731755
 21
475.133854
 31
0.0
  0
LINE
  5
AF
100
AcDbEntity
  8
LC-001-002-----0
370
    50
390
0
  6
ByBlock
 62
     7
100
AcDbLine
 10
301.481869
 20
476.660151
 30
0.0
 11
301.481869
 21
463.664048
 31
0.0
  0
LINE
  5
B0
100
AcDbEntity
  8
LC-001-002-----0
370
    50
390
0
  6
ByBlock
 62
     7
100
AcDbLine
 10
241.731755
 20
476.660151
 30
0.0
 11
301.481869
 21
476.660151
 31
0.0
  0
LINE
  5
B1
100
AcDbEntity
  8
LC-001-002-----0
370
    50
390
0
  6
ByBlock
 62
     7
100
AcDbLine
 10
164.363224
 20
469.025854
 30
0.0
 11
164.363224
 21
460.662667
 31
0.0
  0
LINE
  5
B2
100
AcDbEntity
  8
LC-001-002-----0
370
    50
390
0
  6
ByBlock
 62
     7
100
AcDbLine
 10
176.249755
 20
475.642854
 30
0.0
 11
175.955884
 21
475.133854
 31
0.0
  0
LINE
  5
B3
100
AcDbEntity
  8
LC-001-002-----0
370
    50
390
0
  6
ByBlock
 62
     7
100
AcDbLine
 10
176.543758
 20
475.133625
 30
0.0
 11
176.249755
 21
475.642854
 31
0.0
  0
LINE
  5
B4
100
AcDbEntity
  8
LC-001-002-----0
370
    50
390
0
  6
ByBlock
 62
     7
100
AcDbLine
 10
310.319884
 20
475.133854
 30
0.0
 11
310.613755
 21
475.642854
 31
0.0
  0
LINE
  5
B5
100
AcDbEntity
  8
LC-001-002-----0
370
    50
390
0
  6
ByBlock
 62
     7
100
AcDbLine
 10
174.531755
 20
475.133854
 30
0.0
 11
174.531755
 21
461.390151
 31
0.0
  0
LINE
  5
B6
100
AcDbEntity
  8
LC-001-002-----0
370
    50
390
0
  6
ByBlock
 62
     7
100
AcDbLine
 10
169.431755
 20
475.133854
 30
0.0
 11
169.431755
 21
461.390151
 31
0.0
  0
LINE
  5
B7
100
AcDbEntity
  8
LC-001-002-----0
370
    50
390
0
  6
ByBlock
 62
     7
100
AcDbLine
 10
305.513755
 20
476.660151
 30
0.0
 11
305.513755
 21
475.133854
 31
0.0
  0
LINE
  5
B8
100
AcDbEntity
  8
LC-001-002-----0
370
    50
390
0
  6
ByBlock
 62
     7
100
AcDbLine
 10
167.749755
 20
475.642854
 30
0.0
 11
176.249755
 21
475.642854
 31
0.0
  0
LINE
  5
B9
100
AcDbEntity
  8
LC-001-002-----0
370
    50
390
0
  6
ByBlock
 62
     7
100
AcDbLine
 10
315.713755
 20
475.642854
 30
0.0
 11
305.513755
 21
475.642854
 31
0.0
  0
LINE
  5
BA
100
AcDbEntity
  8
LC-001-002-----0
370
    50
390
0
  6
ByBlock
 62
     7
100
AcDbLine
 10
312.019884
 20
475.133854
 30
0.0
 11
312.313755
 21
475.642854
 31
0.0
  0
LINE
  5
BB
100
AcDbEntity
  8
LC-001-002-----0
370
    50
390
0
  6
ByBlock
 62
     7
100
AcDbLine
 10
313.719884
 20
475.133854
 30
0.0
 11
314.013755
 21
475.642854
 31
0.0
  0
LINE
  5
BC
100
AcDbEntity
  8
LC-001-002-----0
370
    50
390
0
  6
ByBlock
 62
     7
100
AcDbLine
 10
315.419884
 20
475.133854
 30
0.0
 11
315.713755
 21
475.642854
 31
0.0
  0
LINE
  5
BD
100
AcDbEntity
  8
LC-001-002-----0
370
    50
390
0
  6
ByBlock
 62
     7
100
AcDbLine
 10
315.713755
 20
475.642854
 30
0.0
 11
316.007626
 21
475.133854
 31
0.0
  0
LINE
  5
BE
100
AcDbEntity
  8
LC-001-002-----0
370
    50
390
0
  6
ByBlock
 62
     7
100
AcDbLine
 10
314.013755
 20
475.642854
 30
0.0
 11
314.307626
 21
475.133854
 31
0.0
  0
LINE
  5
BF
100
AcDbEntity
  8
LC-001-002-----0
370
    50
390
0
  6
ByBlock
 62
     7
100
AcDbLine
 10
312.313755
 20
475.642854
 30
0.0
 11
312.607626
 21
475.133854
 31
0.0
  0
LINE
  5
C0
100
AcDbEntity
  8
LC-001-002-----0
370
    50
390
0
  6
ByBlock
 62
     7
100
AcDbLine
 10
310.613755
 20
475.642854
 30
0.0
 11
310.907626
 21
475.133854
 31
0.0
  0
LINE
  5
C1
100
AcDbEntity
  8
LC-001-002-----0
370
    50
390
0
  6
ByBlock
 62
     7
100
AcDbLine
 10
308.913755
 20
475.642854
 30
0.0
 11
309.207626
 21
475.133854
 31
0.0
  0
LINE
  5
C2
100
AcDbEntity
  8
LC-001-002-----0
370
    50
390
0
  6
ByBlock
 62
     7
100
AcDbLine
 10
296.731755
 20
460.665752
 30
0.0
 11
307.116474
 21
460.665752
 31
0.0
  0
LINE
  5
C3
100
AcDbEntity
  8
LC-001-002-----0
370
    50
390
0
  6
ByBlock
 62
     7
100
AcDbLine
 10
186.731755
 20
460.665752
 30
0.0
 11
176.347036
 21
460.665752
 31
0.0
  0
LINE
  5
C5
100
AcDbEntity
  8
LC-005-005-----0
370
    25
390
0
 62
     2
100
AcDbLine
 10
169.374654
 20
475.512776
 30
0.0
 11
169.469878
 21
475.608
 31
0.0
  0
LINE
  5
C6
100
AcDbEntity
  8
LC-005-005-----0
370
    25
390
0
 62
     2
100
AcDbLine
 10
324.276286
 20
474.850916
 30
0.0
 11
324.559224
 21
475.133854
 31
0.0
  0
LINE
  5
C7
100
AcDbEntity
  8
LC-001-002-----0
370
    50
390
0
  6
ByBlock
 62
     7
100
AcDbLine
 10
395.731755
 20
478.056147
 30
0.0
 11
395.731755
 21
477.056254
 31
0.0
  0
LINE
  5
C8
100
AcDbEntity
  8
LC-001-002-----0
370
    50
390
0
  6
ByBlock
 62
     7
100
AcDbLine
 10
87.731755
 20
478.056958
 30
0.0
 11
87.731755
 21
477.056254
 31
0.0
  0
ARC
  5
CA
100
AcDbEntity
  8
LC-006-002-RND-0
370
    50
390
0
 62
     1
100
AcDbCircle
 10
393.731755
 20
478.056147
 30
0.0
 40
2.0
100
AcDbArc
 50
360.0
 51
89.999847
  0
LINE
  5
CB
100
AcDbEntity
  8
LC-001-002-----0
370
    50
390
0
  6
ByBlock
 62
     1
100
AcDbLine
 10
348.987851
 20
477.056254
 30
0.0
 11
329.720477
 21
472.520045
 31
0.0
  0
ARC
  5
CC
100
AcDbEntity
  8
LC-006-002-RND-0
370
    50
390
0
 62
     1
100
AcDbCircle
 10
89.731755
 20
478.056958
 30
0.0
 40
2.0
100
AcDbArc
 50
89.999847
 51
180.0
  0
LINE
  5
CD
100
AcDbEntity
  8
LC-001-002-----0
370
    50
390
0
  6
ByBlock
 62
     1
100
AcDbLine
 10
241.731755
 20
480.056553
 30
0.0
 11
89.73176
 21
480.056958
 31
0.0
  0
LINE
  5
CE
100
AcDbEntity
  8
LC-001-002-----0
370
    50
390
0
  6
ByBlock
 62
     1
100
AcDbLine
 10
134.475659
 20
477.056254
 30
0.0
 11
153.743032
 21
472.520045
 31
0.0
  0
INSERT
  5
144
100
AcDbEntity
  8
LC-005-005-----0
370
    25
390
0
 62
     2
100
AcDbBlockReference
  2
*X2
 10
0.0
 20
0.0
 30
0.0
  0
INSERT
  5
1C0
100
AcDbEntity
  8
LC-005-005-----0
370
    25
390
0
 62
     2
100
AcDbBlockReference
  2
*X3
 10
0.0
 20
0.0
 30
0.0
  0
LINE
  5
1C1
100
AcDbEntity
  8
LC-001-002-----0
370
    50
390
0
  6
ByBlock
 62
     1
100
AcDbLine
 10
135.231755
 20
479.960266
 30
0.0
 11
348.231755
 21
479.960266
 31
0.0
  0
DIMENSION
  5
1DD
100
AcDbEntity
  8
LC-004-003-----0
370
    25
390
0
 62
     2
100
AcDbDimension
  2
*D4
 10
241.731755
 20
509.6
 30
0.0
 11
241.731755
 21
509.6
 31
0.0
 71
     5
 72
     1
 41
1.0
 42
0.0
  1
%%c<>
  3
LC-DIM-L-0140-02-02
100
AcDbAlignedDimension
 13
87.731755
 23
477.056254
 33
0.0
 14
395.731755
 24
477.056254
 34
0.0
100
AcDbRotatedDimension
  0
DIMENSION
  5
1F8
100
AcDbEntity
  8
LC-004-003-----0
370
    25
390
0
 62
     2
100
AcDbDimension
  2
*D5
 10
431.2
 20
368.859461
 30
0.0
 11
431.2
 21
368.859461
 31
0.0
 71
     5
 72
     1
 41
1.0
 42
0.0
  1
216
  3
LC-DIM-L-0140-02-02
100
AcDbAlignedDimension
 13
395.731755
 23
477.056254
 33
0.0
 14
293.731755
 24
260.662667
 34
0.0
 50
90.0
100
AcDbRotatedDimension
  0
ENDSEC
  0
SECTION
  2
OBJECTS
  0
DICTIONARY
  5
19
100
AcDbDictionary
280
     0
281
     1
  3
ACAD_GROUP
350
1A
  3
ACAD_MLINESTYLE
350
1B
  3
ACAD_LAYOUT
350
1E
  3
ACAD_PLOTSETTINGS
350
22
  3
ACAD_PLOTSTYLENAME
350
1F
  0
DICTIONARY
  5
1A
102
{ACAD_REACTORS
330
19
102
}
100
AcDbDictionary
280
     0
281
     1
  0
DICTIONARY
  5
1B
102
{ACAD_REACTORS
330
19
102
}
100
AcDbDictionary
280
     0
281
     1
  3
Standard
350
1C
  0
MLINESTYLE
  5
1C
102
{ACAD_REACTORS
330
1B
102
}
100
AcDbMlineStyle
  2
Standard
 70
     0
  3

 62
     0
 51
90.0
 52
90.0
 71
     2
 49
0.5
 62
   256
  6
ByLayer
 49
-0.5
 62
   256
  6
ByLayer
  0
ACDBDICTIONARYWDFLT
  5
1F
102
{ACAD_REACTORS
330
19
102
}
100
AcDbDictionary
281
     1
  3
Normal
350
1D
100
AcDbDictionaryWithDefault
340
1D
  0
ACDBPLACEHOLDER
  5
1D
102
{ACAD_REACTORS
330
1F
102
}
  0
LAYOUT
  5
20
102
{ACAD_REACTORS
330
1E
102
}
100
AcDbPlotSettings
  1

  2

  4

  6

 40
0.0
 41
0.0
 42
0.0
 43
0.0
 44
0.0
 45
0.0
 46
0.0
 47
0.0
 48
0.0
 49
0.0
140
0.0
141
0.0
142
1.0
143
1.0
 70
  1152
 72
     0
 73
     0
 74
     0
  7

 75
     0
147
1.0
148
0.0
149
0.0
100
AcDbLayout
  1
Model
 70
     0
 71
     0
 10
0.0
 20
0.0
 11
0.0
 21
0.0
 12
0.0
 22
0.0
 32
0.0
 14
0.0
 24
0.0
 34
0.0
 15
0.0
 25
0.0
 35
0.0
146
0.0
 13
0.0
 23
0.0
 33
0.0
 16
0.0
 26
0.0
 36
0.0
 17
0.0
 27
0.0
 37
0.0
 76
     0
330
A
331
0
345
0
346
0
  0
LAYOUT
  5
21
102
{ACAD_REACTORS
330
1E
102
}
100
AcDbPlotSettings
  1

  2

  4

  6

 40
0.0
 41
0.0
 42
0.0
 43
0.0
 44
0.0
 45
0.0
 46
0.0
 47
0.0
 48
0.0
 49
0.0
140
0.0
141
0.0
142
1.0
143
1.0
 70
   128
 72
     0
 73
     0
 74
     0
  7

 75
     0
147
1.0
148
0.0
149
0.0
100
AcDbLayout
  1
Layout1
 70
     0
 71
     0
 10
0.0
 20
0.0
 11
0.0
 21
0.0
 12
0.0
 22
0.0
 32
0.0
 14
0.0
 24
0.0
 34
0.0
 15
0.0
 25
0.0
 35
0.0
146
0.0
 13
0.0
 23
0.0
 33
0.0
 16
0.0
 26
0.0
 36
0.0
 17
0.0
 27
0.0
 37
0.0
 76
     0
330
B
331
0
345
0
346
0
  0
DICTIONARY
  5
1E
102
{ACAD_REACTORS
330
19
102
}
100
AcDbDictionary
280
     0
281
     1
  3
Layout1
350
21
  3
Model
350
20
  0
DICTIONARY
  5
22
102
{ACAD_REACTORS
330
19
102
}
100
AcDbDictionary
280
     0
281
     1
  0
ENDSEC
  0
EOF
