  0
SECTION
  2
HEADER
  9
$ACADVER
  1
AC1009
  9
$INSBASE
 10
0.0
 20
0.0
 30
0.0
  9
$EXTMIN
 10
0.0
 20
0.0
 30
0.0
  9
$EXTMAX
 10
840.0
 20
594.0
 30
0.0
  9
$LIMMIN
 10
0.0
 20
0.0
  9
$LIMMAX
 10
840.0
 20
594.0
  9
$ORTHOMODE
 70
     0
  9
$REGENMODE
 70
     1
  9
$FILLMODE
 70
     1
  9
$QTEXTMODE
 70
     0
  9
$MIRRTEXT
 70
     1
  9
$DRAGMODE
 70
     2
  9
$LTSCALE
 40
2.0
  9
$OSMODE
 70
     0
  9
$ATTMODE
 70
     1
  9
$TEXTSIZE
 40
0.2
  9
$TRACEWID
 40
0.05
  9
$TEXTSTYLE
  7
STANDARD
  9
$CLAYER
  8
0
  9
$CELTYPE
  6
BYLAYER
  9
$CECOLOR
 62
     7
  9
$DIMSCALE
 40
2.0
  9
$DIMASZ
 40
3.5
  9
$DIMEXO
 40
0.0625
  9
$DIMDLI
 40
0.38
  9
$DIMRND
 40
0.0
  9
$DIMDLE
 40
0.0
  9
$DIMEXE
 40
0.18
  9
$DIMTP
 40
0.0
  9
$DIMTM
 40
0.0
  9
$DIMTXT
 40
3.5
  9
$DIMCEN
 40
0.09
  9
$DIMTSZ
 40
0.0
  9
$DIMTOL
 70
     0
  9
$DIMLIM
 70
     0
  9
$DIMTIH
 70
     1
  9
$DIMTOH
 70
     1
  9
$DIMSE1
 70
     0
  9
$DIMSE2
 70
     0
  9
$DIMTAD
 70
     1
  9
$DIMZIN
 70
     0
  9
$DIMBLK
  1

  9
$DIMASO
 70
     1
  9
$DIMSHO
 70
     1
  9
$DIMPOST
  1

  9
$DIMAPOST
  1

  9
$DIMALT
 70
     0
  9
$DIMALTD
 70
     2
  9
$DIMALTF
 40
25.4
  9
$DIMLFAC
 40
1.0
  9
$DIMTOFL
 70
     0
  9
$DIMTVP
 40
0.0
  9
$DIMTIX
 70
     0
  9
$DIMSOXD
 70
     0
  9
$DIMSAH
 70
     0
  9
$DIMBLK1
  1

  9
$DIMBLK2
  1

  9
$DIMSTYLE
  2
STANDARD
  9
$DIMCLRD
 70
     0
  9
$DIMCLRE
 70
     0
  9
$DIMCLRT
 70
     0
  9
$DIMTFAC
 40
1.0
  9
$DIMGAP
 40
0.09
  9
$LUNITS
 70
     2
  9
$LUPREC
 70
     2
  9
$AXISMODE
 70
     0
  9
$AXISUNIT
 10
0.0
 20
0.0
  9
$SKETCHINC
 40
0.1
  9
$FILLETRAD
 40
0.0
  9
$AUNITS
 70
     0
  9
$AUPREC
 70
     0
  9
$MENU
  1
acad
  9
$ELEVATION
 40
0.0
  9
$PELEVATION
 40
0.0
  9
$THICKNESS
 40
0.0
  9
$LIMCHECK
 70
     0
  9
$BLIPMODE
 70
     1
  9
$CHAMFERA
 40
0.0
  9
$CHAMFERB
 40
0.0
  9
$SKPOLY
 70
     0
  9
$TDCREATE
 40
0.000000000
  9
$TDUPDATE
 40
0.000000000
  9
$TDINDWG
 40
0.0000000000
  9
$TDUSRTIMER
 40
0.0000000000
  9
$USRTIMER
 70
     1
  9
$ANGBASE
 50
0.0
  9
$ANGDIR
 70
     0
  9
$PDMODE
 70
     0
  9
$PDSIZE
 40
0.0
  9
$PLINEWID
 40
0.0
  9
$COORDS
 70
     0
  9
$SPLFRAME
 70
     0
  9
$SPLINETYPE
 70
     6
  9
$SPLINESEGS
 70
     8
  9
$ATTDIA
 70
     0
  9
$ATTREQ
 70
     1
  9
$HANDLING
 70
     1
  9
$HANDSEED
  5
6F5
  9
$SURFTAB1
 70
     6
  9
$SURFTAB2
 70
     6
  9
$SURFTYPE
 70
     6
  9
$SURFU
 70
     6
  9
$SURFV
 70
     6
  9
$UCSNAME
  2

  9
$UCSORG
 10
0.0
 20
0.0
 30
0.0
  9
$UCSXDIR
 10
1.0
 20
0.0
 30
0.0
  9
$UCSYDIR
 10
0.0
 20
1.0
 30
0.0
  9
$PUCSNAME
  2

  9
$PUCSORG
 10
0.0
 20
0.0
 30
0.0
  9
$PUCSXDIR
 10
1.0
 20
0.0
 30
0.0
  9
$PUCSYDIR
 10
0.0
 20
1.0
 30
0.0
  9
$USERI1
 70
     0
  9
$USERI2
 70
     0
  9
$USERI3
 70
     0
  9
$USERI4
 70
     0
  9
$USERI5
 70
     0
  9
$USERR1
 40
0.0
  9
$USERR2
 40
0.0
  9
$USERR3
 40
0.0
  9
$USERR4
 40
0.0
  9
$USERR5
 40
0.0
  9
$WORLDVIEW
 70
     1
  9
$SHADEDGE
 70
     3
  9
$SHADEDIF
 70
    70
  9
$TILEMODE
 70
     1
  9
$MAXACTVP
 70
    16
  9
$PINSBASE
 10
0.0
 20
0.0
 30
0.0
  9
$PLIMCHECK
 70
     0
  9
$PEXTMIN
 10
1.000000E+20
 20
1.000000E+20
 30
1.000000E+20
  9
$PEXTMAX
 10
-1.000000E+20
 20
-1.000000E+20
 30
-1.000000E+20
  9
$PLIMMIN
 10
0.0
 20
0.0
  9
$PLIMMAX
 10
840.0
 20
594.0
  9
$UNITMODE
 70
     0
  9
$VISRETAIN
 70
     0
  9
$PLINEGEN
 70
     1
  9
$PSLTSCALE
 70
     0
  9
$TREEDEPTH
 70
  3020
  9
$DWGCODEPAGE
  3
dos850
  0
ENDSEC
  0
SECTION
  2
TABLES
  0
TABLE
  2
VPORT
 70
     1
  0
VPORT
  2
*ACTIVE
 70
     0
 10
0.0
 20
0.0
 11
1.0
 21
1.0
 12
420.0
 22
297.0
 13
0.0
 23
0.0
 14
1.0
 24
1.0
 15
0.0
 25
0.0
 16
0.0
 26
0.0
 36
1.0
 17
0.0
 27
0.0
 37
0.0
 40
594.0
 41
1.604229
 42
50.0
 43
0.0
 44
0.0
 50
0.0
 51
0.0
 71
     0
 72
   100
 73
     1
 74
     1
 75
     0
 76
     0
 77
     0
 78
     0
  0
ENDTAB
  0
TABLE
  2
LTYPE
 70
     2
  0
LTYPE
  2
CONTINUOUS
 70
    64
  3
Solid line
 72
    65
 73
     0
 40
0.0
  0
LTYPE
  2
DASHDOT
 70
    64
  3
__ . __ . __ . __ . __
 72
    65
 73
     4
 40
7.5
 49
5.0
 49
-1.25
 49
0.0
 49
-1.25
  0
ENDTAB
  0
TABLE
  2
LAYER
 70
    12
  0
LAYER
  2
0
 70
     0
 62
     7
  6
CONTINUOUS
  0
LAYER
  2
LC-INFO-1-2-MM-A3-0
 70
     1
 62
    -1
  6
CONTINUOUS
  0
LAYER
  2
LC-004-003-MTH-0
 70
     0
 62
     2
  6
CONTINUOUS
  0
LAYER
  2
LC-005-003-MTG-0
 70
     0
 62
     2
  6
CONTINUOUS
  0
LAYER
  2
LC-003-003-----0
 70
     0
 62
     2
  6
CONTINUOUS
  0
LAYER
  2
LC-008-005-----0
 70
     0
 62
     2
  6
CONTINUOUS
  0
LAYER
  2
LC-007-000-----0
 70
     0
 62
     7
  6
CONTINUOUS
  0
LAYER
  2
LC-009-000-----0
 70
     0
 62
     7
  6
CONTINUOUS
  0
LAYER
  2
LC-001-002-----0
 70
     0
 62
     1
  6
CONTINUOUS
  0
LAYER
  2
LC-002-004-----0
 70
     0
 62
     1
  6
CONTINUOUS
  0
LAYER
  2
LC-006-002-RND-0
 70
     0
 62
     1
  6
CONTINUOUS
  0
LAYER
  2
LC-000
 70
     0
 62
     7
  6
CONTINUOUS
  0
ENDTAB
  0
TABLE
  2
STYLE
 70
     4
  0
STYLE
  2
STANDARD
 70
     0
 40
0.0
 41
1.0
 50
0.0
 71
     0
 42
0.0
  3
txt
  4

  0
STYLE
  2
LC-STANDARD
 70
    64
 40
0.0
 41
1.0
 50
0.0
 71
     0
 42
3.5
  3
MONOTXT
  4

  0
STYLE
  2
LC-TXTSTYLE-150-400-0-0-D2
 70
    64
 40
0.0
 41
1.0
 50
15.0
 71
     0
 42
3.5
  3
MONOTXT
  4

  0
STYLE
  2
LC-TXTSTYLE-150-400-0-0-D3
 70
    64
 40
0.0
 41
1.0
 50
15.0
 71
     0
 42
3.5
  3
LC-STANDARD
  4

  0
ENDTAB
  0
TABLE
  2
VIEW
 70
     0
  0
ENDTAB
  0
TABLE
  2
UCS
 70
     0
  0
ENDTAB
  0
TABLE
  2
APPID
 70
     1
  0
APPID
  2
ACAD
 70
     0
  0
ENDTAB
  0
TABLE
  2
DIMSTYLE
 70
     3
  0
DIMSTYLE
  2
STANDARD
 70
     0
  3

  4

  5

  6

  7

 40
1.0
 41
0.18
 42
0.0625
 43
0.38
 44
0.18
 45
0.0
 46
0.0
 47
0.0
 48
0.0
 71
     0
 72
     0
 73
     1
 74
     1
 75
     0
 76
     0
 77
     0
 78
     0
140
0.18
141
0.09
142
0.0
143
25.4
144
1.0
145
0.0
146
1.0
147
0.09
170
     0
171
     2
172
     0
173
     0
174
     0
175
     0
176
     0
177
     0
178
     0
  0
DIMSTYLE
  2
LC-STANDARD
 70
     0
  3

  4

  5

  6

  7

 40
1.0
 41
3.5
 42
0.0
 43
7.5
 44
1.8
 45
0.0
 46
0.0
 47
0.0
 48
0.0
 71
     0
 72
     0
 73
     0
 74
     0
 75
     0
 76
     0
 77
     1
 78
     8
140
3.5
141
0.0
142
0.0
143
25.4
144
1.0
145
0.0
146
0.71
147
1.5
170
     0
171
     2
172
     1
173
     0
174
     0
175
     0
176
     0
177
     0
178
     3
  0
DIMSTYLE
  2
LC-DIM-L-0090-02-02
 70
     0
  3

  4

  5

  6

  7

 40
2.0
 41
3.5
 42
0.0
 43
7.5
 44
1.8
 45
0.0
 46
0.0
 47
0.0
 48
0.0
 71
     0
 72
     0
 73
     0
 74
     0
 75
     0
 76
     0
 77
     1
 78
     8
140
9.0
141
0.0
142
0.0
143
25.4
144
1.0
145
0.0
146
0.71
147
1.5
170
     0
171
     2
172
     0
173
     0
174
     0
175
     0
176
     2
177
     2
178
     6
  0
ENDTAB
  0
ENDSEC
  0
SECTION
  2
BLOCKS
  0
BLOCK
  8
0
  5
23
  2
*D0
 70
    65
 10
0.0
 20
0.0
 30
0.0
  3
*D0
  0
LINE
  8
LC-004-003-MTH-0
  6
CONTINUOUS
  5
25
 10
215.839514
 20
236.665606
 30
0.0
 11
215.839514
 21
171.2
 31
0.0
  0
LINE
  8
LC-004-003-MTH-0
  6
CONTINUOUS
  5
26
 10
325.839514
 20
236.665606
 30
0.0
 11
325.839514
 21
171.2
 31
0.0
  0
LINE
  8
LC-005-003-MTG-0
  6
CONTINUOUS
  5
28
 10
215.839514
 20
182.0
 30
0.0
 11
325.839514
 21
182.0
 31
0.0
  0
LINE
  8
LC-003-003-----0
  6
CONTINUOUS
  5
2A
 10
233.685521
 20
184.349471
 30
0.0
 11
215.839514
 21
182.0
 31
0.0
  0
LINE
  8
LC-003-003-----0
  6
CONTINUOUS
  5
2B
 10
215.839514
 20
182.0
 30
0.0
 11
233.685521
 21
179.650529
 31
0.0
  0
LINE
  8
LC-003-003-----0
  6
CONTINUOUS
  5
2C
 10
233.685521
 20
179.650529
 30
0.0
 11
233.685521
 21
184.349471
 31
0.0
  0
LINE
  8
LC-003-003-----0
  6
CONTINUOUS
  5
2D
 10
233.725559
 20
183.738609
 30
0.0
 11
220.519514
 21
182.0
 31
0.0
  0
LINE
  8
LC-003-003-----0
  6
CONTINUOUS
  5
2E
 10
220.519514
 20
182.0
 30
0.0
 11
233.725559
 21
180.261391
 31
0.0
  0
LINE
  8
LC-003-003-----0
  6
CONTINUOUS
  5
2F
 10
233.765597
 20
183.127746
 30
0.0
 11
225.199514
 21
182.0
 31
0.0
  0
LINE
  8
LC-003-003-----0
  6
CONTINUOUS
  5
30
 10
225.199514
 20
182.0
 30
0.0
 11
233.765597
 21
180.872254
 31
0.0
  0
LINE
  8
LC-003-003-----0
  6
CONTINUOUS
  5
31
 10
233.805635
 20
182.516884
 30
0.0
 11
229.879514
 21
182.0
 31
0.0
  0
LINE
  8
LC-003-003-----0
  6
CONTINUOUS
  5
32
 10
229.879514
 20
182.0
 30
0.0
 11
233.805635
 21
181.483116
 31
0.0
  0
LINE
  8
LC-003-003-----0
  6
CONTINUOUS
  5
33
 10
307.993506
 20
179.650529
 30
0.0
 11
325.839514
 21
182.0
 31
0.0
  0
LINE
  8
LC-003-003-----0
  6
CONTINUOUS
  5
34
 10
325.839514
 20
182.0
 30
0.0
 11
307.993506
 21
184.349471
 31
0.0
  0
LINE
  8
LC-003-003-----0
  6
CONTINUOUS
  5
35
 10
307.993506
 20
184.349471
 30
0.0
 11
307.993506
 21
179.650529
 31
0.0
  0
LINE
  8
LC-003-003-----0
  6
CONTINUOUS
  5
36
 10
307.953468
 20
180.261391
 30
0.0
 11
321.159514
 21
182.0
 31
0.0
  0
LINE
  8
LC-003-003-----0
  6
CONTINUOUS
  5
37
 10
321.159514
 20
182.0
 30
0.0
 11
307.953468
 21
183.738609
 31
0.0
  0
LINE
  8
LC-003-003-----0
  6
CONTINUOUS
  5
38
 10
307.91343
 20
180.872254
 30
0.0
 11
316.479514
 21
182.0
 31
0.0
  0
LINE
  8
LC-003-003-----0
  6
CONTINUOUS
  5
39
 10
316.479514
 20
182.0
 30
0.0
 11
307.91343
 21
183.127746
 31
0.0
  0
LINE
  8
LC-003-003-----0
  6
CONTINUOUS
  5
3A
 10
307.873392
 20
181.483116
 30
0.0
 11
311.799514
 21
182.0
 31
0.0
  0
LINE
  8
LC-003-003-----0
  6
CONTINUOUS
  5
3B
 10
311.799514
 20
182.0
 30
0.0
 11
307.873392
 21
182.516884
 31
0.0
  0
TEXT
  8
LC-003-003-----0
  6
CONTINUOUS
 62
     6
  5
3D
 10
239.959169
 20
192.431999
 30
0.0
 40
18.0
  1
DN100
 41
0.9
 51
15.0
  7
LC-TXTSTYLE-150-400-0-0-D0
 72
     1
 11
273.634759
 21
192.431999
 31
0.0
  0
ENDBLK
  8
0
  5
3E
  0
BLOCK
  8
0
  5
40
  2
*D1
 70
    65
 10
0.0
 20
0.0
 30
0.0
  3
*D1
  0
LINE
  8
LC-004-003-MTH-0
  6
CONTINUOUS
  5
41
 10
322.839514
 20
232.165606
 30
0.0
 11
374.8
 21
232.165606
 31
0.0
  0
LINE
  8
LC-004-003-MTH-0
  6
CONTINUOUS
  5
42
 10
346.840035
 20
432.166293
 30
0.0
 11
374.8
 21
432.166293
 31
0.0
  0
LINE
  8
LC-005-003-MTG-0
  6
CONTINUOUS
  5
43
 10
364.0
 20
232.165606
 30
0.0
 11
364.0
 21
432.166293
 31
0.0
  0
LINE
  8
LC-003-003-----0
  6
CONTINUOUS
  5
44
 10
361.650529
 20
250.011614
 30
0.0
 11
364.0
 21
232.165606
 31
0.0
  0
LINE
  8
LC-003-003-----0
  6
CONTINUOUS
  5
45
 10
364.0
 20
232.165606
 30
0.0
 11
366.349471
 21
250.011614
 31
0.0
  0
LINE
  8
LC-003-003-----0
  6
CONTINUOUS
  5
46
 10
366.349471
 20
250.011614
 30
0.0
 11
361.650529
 21
250.011614
 31
0.0
  0
LINE
  8
LC-003-003-----0
  6
CONTINUOUS
  5
47
 10
362.261391
 20
250.051652
 30
0.0
 11
364.0
 21
236.845606
 31
0.0
  0
LINE
  8
LC-003-003-----0
  6
CONTINUOUS
  5
48
 10
364.0
 20
236.845606
 30
0.0
 11
365.738609
 21
250.051652
 31
0.0
  0
LINE
  8
LC-003-003-----0
  6
CONTINUOUS
  5
49
 10
362.872254
 20
250.09169
 30
0.0
 11
364.0
 21
241.525606
 31
0.0
  0
LINE
  8
LC-003-003-----0
  6
CONTINUOUS
  5
4A
 10
364.0
 20
241.525606
 30
0.0
 11
365.127746
 21
250.09169
 31
0.0
  0
LINE
  8
LC-003-003-----0
  6
CONTINUOUS
  5
4B
 10
363.483116
 20
250.131728
 30
0.0
 11
364.0
 21
246.205606
 31
0.0
  0
LINE
  8
LC-003-003-----0
  6
CONTINUOUS
  5
4C
 10
364.0
 20
246.205606
 30
0.0
 11
364.516884
 21
250.131728
 31
0.0
  0
LINE
  8
LC-003-003-----0
  6
CONTINUOUS
  5
4D
 10
366.349471
 20
414.320286
 30
0.0
 11
364.0
 21
432.166293
 31
0.0
  0
LINE
  8
LC-003-003-----0
  6
CONTINUOUS
  5
4E
 10
364.0
 20
432.166293
 30
0.0
 11
361.650529
 21
414.320286
 31
0.0
  0
LINE
  8
LC-003-003-----0
  6
CONTINUOUS
  5
4F
 10
361.650529
 20
414.320286
 30
0.0
 11
366.349471
 21
414.320286
 31
0.0
  0
LINE
  8
LC-003-003-----0
  6
CONTINUOUS
  5
50
 10
365.738609
 20
414.280248
 30
0.0
 11
364.0
 21
427.486293
 31
0.0
  0
LINE
  8
LC-003-003-----0
  6
CONTINUOUS
  5
51
 10
364.0
 20
427.486293
 30
0.0
 11
362.261391
 21
414.280248
 31
0.0
  0
LINE
  8
LC-003-003-----0
  6
CONTINUOUS
  5
52
 10
365.127746
 20
414.24021
 30
0.0
 11
364.0
 21
422.806293
 31
0.0
  0
LINE
  8
LC-003-003-----0
  6
CONTINUOUS
  5
53
 10
364.0
 20
422.806293
 30
0.0
 11
362.872254
 21
414.24021
 31
0.0
  0
LINE
  8
LC-003-003-----0
  6
CONTINUOUS
  5
54
 10
364.516884
 20
414.200172
 30
0.0
 11
364.0
 21
418.126293
 31
0.0
  0
LINE
  8
LC-003-003-----0
  6
CONTINUOUS
  5
55
 10
364.0
 20
418.126293
 30
0.0
 11
363.483116
 21
414.200172
 31
0.0
  0
TEXT
  8
LC-003-003-----0
  6
CONTINUOUS
 62
     6
  5
56
 10
353.568001
 20
315.827337
 30
0.0
 40
18.0
  1
200
 50
90.0
 51
15.0
  7
LC-TXTSTYLE-150-400-0-0-D0
 72
     1
 11
353.568001
 21
334.961195
 31
0.0
  0
ENDBLK
  8
0
  5
57
  0
BLOCK
  8
0
  5
59
  2
BLK1
 70
    64
 10
0.0
 20
0.0
 30
0.0
  3
BLK1
  0
ENDBLK
  8
0
  5
5A
  0
BLOCK
  8
0
  5
5C
  2
BLK2
 70
    64
 10
0.0
 20
0.0
 30
0.0
  3
BLK2
  0
ENDBLK
  8
0
  5
5D
  0
BLOCK
  8
0
  5
5F
  2
*D4
 70
    65
 10
0.0
 20
0.0
 30
0.0
  3
*D4
  0
LINE
  8
LC-004-003-MTH-0
  6
CONTINUOUS
  5
60
 10
322.675274
 20
232.165606
 30
0.0
 11
416.8
 21
232.165606
 31
0.0
  0
LINE
  8
LC-004-003-MTH-0
  6
CONTINUOUS
  5
61
 10
385.839514
 20
448.642876
 30
0.0
 11
416.8
 21
448.642876
 31
0.0
  0
LINE
  8
LC-005-003-MTG-0
  6
CONTINUOUS
  5
62
 10
406.0
 20
232.165606
 30
0.0
 11
406.0
 21
448.642876
 31
0.0
  0
LINE
  8
LC-003-003-----0
  6
CONTINUOUS
  5
63
 10
403.650529
 20
250.011614
 30
0.0
 11
406.0
 21
232.165606
 31
0.0
  0
LINE
  8
LC-003-003-----0
  6
CONTINUOUS
  5
64
 10
406.0
 20
232.165606
 30
0.0
 11
408.349471
 21
250.011614
 31
0.0
  0
LINE
  8
LC-003-003-----0
  6
CONTINUOUS
  5
65
 10
408.349471
 20
250.011614
 30
0.0
 11
403.650529
 21
250.011614
 31
0.0
  0
LINE
  8
LC-003-003-----0
  6
CONTINUOUS
  5
66
 10
404.261391
 20
250.051652
 30
0.0
 11
406.0
 21
236.845606
 31
0.0
  0
LINE
  8
LC-003-003-----0
  6
CONTINUOUS
  5
67
 10
406.0
 20
236.845606
 30
0.0
 11
407.738609
 21
250.051652
 31
0.0
  0
LINE
  8
LC-003-003-----0
  6
CONTINUOUS
  5
68
 10
404.872254
 20
250.09169
 30
0.0
 11
406.0
 21
241.525606
 31
0.0
  0
LINE
  8
LC-003-003-----0
  6
CONTINUOUS
  5
69
 10
406.0
 20
241.525606
 30
0.0
 11
407.127746
 21
250.09169
 31
0.0
  0
LINE
  8
LC-003-003-----0
  6
CONTINUOUS
  5
6A
 10
405.483116
 20
250.131728
 30
0.0
 11
406.0
 21
246.205606
 31
0.0
  0
LINE
  8
LC-003-003-----0
  6
CONTINUOUS
  5
6B
 10
406.0
 20
246.205606
 30
0.0
 11
406.516884
 21
250.131728
 31
0.0
  0
LINE
  8
LC-003-003-----0
  6
CONTINUOUS
  5
6C
 10
408.349471
 20
430.796868
 30
0.0
 11
406.0
 21
448.642876
 31
0.0
  0
LINE
  8
LC-003-003-----0
  6
CONTINUOUS
  5
6D
 10
406.0
 20
448.642876
 30
0.0
 11
403.650529
 21
430.796868
 31
0.0
  0
LINE
  8
LC-003-003-----0
  6
CONTINUOUS
  5
6E
 10
403.650529
 20
430.796868
 30
0.0
 11
408.349471
 21
430.796868
 31
0.0
  0
LINE
  8
LC-003-003-----0
  6
CONTINUOUS
  5
6F
 10
407.738609
 20
430.75683
 30
0.0
 11
406.0
 21
443.962876
 31
0.0
  0
LINE
  8
LC-003-003-----0
  6
CONTINUOUS
  5
70
 10
406.0
 20
443.962876
 30
0.0
 11
404.261391
 21
430.75683
 31
0.0
  0
LINE
  8
LC-003-003-----0
  6
CONTINUOUS
  5
71
 10
407.127746
 20
430.716792
 30
0.0
 11
406.0
 21
439.282876
 31
0.0
  0
LINE
  8
LC-003-003-----0
  6
CONTINUOUS
  5
72
 10
406.0
 20
439.282876
 30
0.0
 11
404.872254
 21
430.716792
 31
0.0
  0
LINE
  8
LC-003-003-----0
  6
CONTINUOUS
  5
73
 10
406.516884
 20
430.676754
 30
0.0
 11
406.0
 21
434.602876
 31
0.0
  0
LINE
  8
LC-003-003-----0
  6
CONTINUOUS
  5
74
 10
406.0
 20
434.602876
 30
0.0
 11
405.483116
 21
430.676754
 31
0.0
  0
TEXT
  8
LC-003-003-----0
  6
CONTINUOUS
 62
     6
  5
75
 10
395.568001
 20
324.065628
 30
0.0
 40
18.0
  1
216
 50
90.0
 51
15.0
  7
LC-TXTSTYLE-150-400-0-0-D0
 72
     1
 11
395.568001
 21
343.199487
 31
0.0
  0
ENDBLK
  8
0
  5
76
  0
BLOCK
  8
0
  5
78
  2
*X5
 70
    65
 10
70.839514
 20
452.161287
 30
0.0
  3
*X5
  0
LINE
  8
LC-008-005-----0
  6
CONTINUOUS
  5
7A
 10
72.86921
 20
452.161287
 30
0.0
 11
73.089024
 21
452.381102
 31
0.0
  0
LINE
  8
LC-008-005-----0
  6
CONTINUOUS
  5
7B
 10
72.586367
 20
452.161287
 30
0.0
 11
73.089024
 21
452.663944
 31
0.0
  0
LINE
  8
LC-008-005-----0
  6
CONTINUOUS
  5
7C
 10
72.303524
 20
452.161287
 30
0.0
 11
73.089024
 21
452.946787
 31
0.0
  0
LINE
  8
LC-008-005-----0
  6
CONTINUOUS
  5
7D
 10
72.020682
 20
452.161287
 30
0.0
 11
73.089024
 21
453.22963
 31
0.0
  0
LINE
  8
LC-008-005-----0
  6
CONTINUOUS
  5
7E
 10
71.737839
 20
452.161287
 30
0.0
 11
73.089024
 21
453.512473
 31
0.0
  0
LINE
  8
LC-008-005-----0
  6
CONTINUOUS
  5
7F
 10
71.454996
 20
452.161287
 30
0.0
 11
73.089024
 21
453.795315
 31
0.0
  0
LINE
  8
LC-008-005-----0
  6
CONTINUOUS
  5
80
 10
71.172154
 20
452.161287
 30
0.0
 11
73.089024
 21
454.078158
 31
0.0
  0
LINE
  8
LC-008-005-----0
  6
CONTINUOUS
  5
81
 10
70.889311
 20
452.161287
 30
0.0
 11
73.089024
 21
454.361001
 31
0.0
  0
LINE
  8
LC-008-005-----0
  6
CONTINUOUS
  5
82
 10
70.839514
 20
452.394333
 30
0.0
 11
73.089024
 21
454.643843
 31
0.0
  0
LINE
  8
LC-008-005-----0
  6
CONTINUOUS
  5
83
 10
70.839514
 20
452.677176
 30
0.0
 11
73.089024
 21
454.926686
 31
0.0
  0
LINE
  8
LC-008-005-----0
  6
CONTINUOUS
  5
84
 10
70.839514
 20
452.960018
 30
0.0
 11
73.040783
 21
455.161287
 31
0.0
  0
LINE
  8
LC-008-005-----0
  6
CONTINUOUS
  5
85
 10
70.839514
 20
453.242861
 30
0.0
 11
72.75794
 21
455.161287
 31
0.0
  0
LINE
  8
LC-008-005-----0
  6
CONTINUOUS
  5
86
 10
70.839514
 20
453.525704
 30
0.0
 11
72.475097
 21
455.161287
 31
0.0
  0
LINE
  8
LC-008-005-----0
  6
CONTINUOUS
  5
87
 10
70.839514
 20
453.808546
 30
0.0
 11
72.192255
 21
455.161287
 31
0.0
  0
LINE
  8
LC-008-005-----0
  6
CONTINUOUS
  5
88
 10
70.839514
 20
454.091389
 30
0.0
 11
71.909412
 21
455.161287
 31
0.0
  0
LINE
  8
LC-008-005-----0
  6
CONTINUOUS
  5
89
 10
70.839514
 20
454.374232
 30
0.0
 11
71.626569
 21
455.161287
 31
0.0
  0
LINE
  8
LC-008-005-----0
  6
CONTINUOUS
  5
8A
 10
70.839514
 20
454.657074
 30
0.0
 11
71.343726
 21
455.161287
 31
0.0
  0
LINE
  8
LC-008-005-----0
  6
CONTINUOUS
  5
8B
 10
70.839514
 20
454.939917
 30
0.0
 11
71.060884
 21
455.161287
 31
0.0
  0
ENDBLK
  8
0
  5
8C
  0
BLOCK
  8
0
  5
8E
  2
*X6
 70
    65
 10
78.089024
 20
452.161287
 30
0.0
  3
*X6
  0
LINE
  8
LC-008-005-----0
  6
CONTINUOUS
  5
8F
 10
83.051547
 20
452.161287
 30
0.0
 11
83.089024
 21
452.198764
 31
0.0
  0
LINE
  8
LC-008-005-----0
  6
CONTINUOUS
  5
90
 10
82.768705
 20
452.161287
 30
0.0
 11
83.089024
 21
452.481607
 31
0.0
  0
LINE
  8
LC-008-005-----0
  6
CONTINUOUS
  5
91
 10
82.485862
 20
452.161287
 30
0.0
 11
83.089024
 21
452.764449
 31
0.0
  0
LINE
  8
LC-008-005-----0
  6
CONTINUOUS
  5
92
 10
82.203019
 20
452.161287
 30
0.0
 11
83.089024
 21
453.047292
 31
0.0
  0
LINE
  8
LC-008-005-----0
  6
CONTINUOUS
  5
93
 10
81.920177
 20
452.161287
 30
0.0
 11
83.089024
 21
453.330135
 31
0.0
  0
LINE
  8
LC-008-005-----0
  6
CONTINUOUS
  5
94
 10
81.637334
 20
452.161287
 30
0.0
 11
83.089024
 21
453.612978
 31
0.0
  0
LINE
  8
LC-008-005-----0
  6
CONTINUOUS
  5
95
 10
81.354491
 20
452.161287
 30
0.0
 11
83.089024
 21
453.89582
 31
0.0
  0
LINE
  8
LC-008-005-----0
  6
CONTINUOUS
  5
96
 10
81.071648
 20
452.161287
 30
0.0
 11
83.089024
 21
454.178663
 31
0.0
  0
LINE
  8
LC-008-005-----0
  6
CONTINUOUS
  5
97
 10
80.788806
 20
452.161287
 30
0.0
 11
83.089024
 21
454.461506
 31
0.0
  0
LINE
  8
LC-008-005-----0
  6
CONTINUOUS
  5
98
 10
80.505963
 20
452.161287
 30
0.0
 11
83.089024
 21
454.744348
 31
0.0
  0
LINE
  8
LC-008-005-----0
  6
CONTINUOUS
  5
99
 10
80.22312
 20
452.161287
 30
0.0
 11
83.089024
 21
455.027191
 31
0.0
  0
LINE
  8
LC-008-005-----0
  6
CONTINUOUS
  5
9A
 10
79.940278
 20
452.161287
 30
0.0
 11
82.940278
 21
455.161287
 31
0.0
  0
LINE
  8
LC-008-005-----0
  6
CONTINUOUS
  5
9B
 10
79.657435
 20
452.161287
 30
0.0
 11
82.657435
 21
455.161287
 31
0.0
  0
LINE
  8
LC-008-005-----0
  6
CONTINUOUS
  5
9C
 10
79.374592
 20
452.161287
 30
0.0
 11
82.374592
 21
455.161287
 31
0.0
  0
LINE
  8
LC-008-005-----0
  6
CONTINUOUS
  5
9D
 10
79.091749
 20
452.161287
 30
0.0
 11
82.091749
 21
455.161287
 31
0.0
  0
LINE
  8
LC-008-005-----0
  6
CONTINUOUS
  5
9E
 10
78.808907
 20
452.161287
 30
0.0
 11
81.808907
 21
455.161287
 31
0.0
  0
LINE
  8
LC-008-005-----0
  6
CONTINUOUS
  5
9F
 10
78.526064
 20
452.161287
 30
0.0
 11
81.526064
 21
455.161287
 31
0.0
  0
LINE
  8
LC-008-005-----0
  6
CONTINUOUS
  5
A0
 10
78.243221
 20
452.161287
 30
0.0
 11
81.243221
 21
455.161287
 31
0.0
  0
LINE
  8
LC-008-005-----0
  6
CONTINUOUS
  5
A1
 10
78.089024
 20
452.289933
 30
0.0
 11
80.960379
 21
455.161287
 31
0.0
  0
LINE
  8
LC-008-005-----0
  6
CONTINUOUS
  5
A2
 10
78.089024
 20
452.572776
 30
0.0
 11
80.677536
 21
455.161287
 31
0.0
  0
LINE
  8
LC-008-005-----0
  6
CONTINUOUS
  5
A3
 10
78.089024
 20
452.855618
 30
0.0
 11
80.394693
 21
455.161287
 31
0.0
  0
LINE
  8
LC-008-005-----0
  6
CONTINUOUS
  5
A4
 10
78.089024
 20
453.138461
 30
0.0
 11
80.11185
 21
455.161287
 31
0.0
  0
LINE
  8
LC-008-005-----0
  6
CONTINUOUS
  5
A5
 10
78.089024
 20
453.421304
 30
0.0
 11
79.829008
 21
455.161287
 31
0.0
  0
LINE
  8
LC-008-005-----0
  6
CONTINUOUS
  5
A6
 10
78.089024
 20
453.704146
 30
0.0
 11
79.546165
 21
455.161287
 31
0.0
  0
LINE
  8
LC-008-005-----0
  6
CONTINUOUS
  5
A7
 10
78.089024
 20
453.986989
 30
0.0
 11
79.263322
 21
455.161287
 31
0.0
  0
LINE
  8
LC-008-005-----0
  6
CONTINUOUS
  5
A8
 10
78.089024
 20
454.269832
 30
0.0
 11
78.98048
 21
455.161287
 31
0.0
  0
LINE
  8
LC-008-005-----0
  6
CONTINUOUS
  5
A9
 10
78.089024
 20
454.552675
 30
0.0
 11
78.697637
 21
455.161287
 31
0.0
  0
LINE
  8
LC-008-005-----0
  6
CONTINUOUS
  5
AA
 10
78.089024
 20
454.835517
 30
0.0
 11
78.414794
 21
455.161287
 31
0.0
  0
LINE
  8
LC-008-005-----0
  6
CONTINUOUS
  5
AB
 10
78.089024
 20
455.11836
 30
0.0
 11
78.131951
 21
455.161287
 31
0.0
  0
ENDBLK
  8
0
  5
AC
  0
BLOCK
  8
0
  5
AE
  2
*X7
 70
    65
 10
88.089024
 20
452.161287
 30
0.0
  3
*X7
  0
LINE
  8
LC-008-005-----0
  6
CONTINUOUS
  5
AF
 10
92.951042
 20
452.161287
 30
0.0
 11
93.089024
 21
452.299269
 31
0.0
  0
LINE
  8
LC-008-005-----0
  6
CONTINUOUS
  5
B0
 10
92.6682
 20
452.161287
 30
0.0
 11
93.089024
 21
452.582112
 31
0.0
  0
LINE
  8
LC-008-005-----0
  6
CONTINUOUS
  5
B1
 10
92.385357
 20
452.161287
 30
0.0
 11
93.089024
 21
452.864955
 31
0.0
  0
LINE
  8
LC-008-005-----0
  6
CONTINUOUS
  5
B2
 10
92.102514
 20
452.161287
 30
0.0
 11
93.089024
 21
453.147797
 31
0.0
  0
LINE
  8
LC-008-005-----0
  6
CONTINUOUS
  5
B3
 10
91.819672
 20
452.161287
 30
0.0
 11
93.089024
 21
453.43064
 31
0.0
  0
LINE
  8
LC-008-005-----0
  6
CONTINUOUS
  5
B4
 10
91.536829
 20
452.161287
 30
0.0
 11
93.089024
 21
453.713483
 31
0.0
  0
LINE
  8
LC-008-005-----0
  6
CONTINUOUS
  5
B5
 10
91.253986
 20
452.161287
 30
0.0
 11
93.089024
 21
453.996325
 31
0.0
  0
LINE
  8
LC-008-005-----0
  6
CONTINUOUS
  5
B6
 10
90.971143
 20
452.161287
 30
0.0
 11
93.089024
 21
454.279168
 31
0.0
  0
LINE
  8
LC-008-005-----0
  6
CONTINUOUS
  5
B7
 10
90.688301
 20
452.161287
 30
0.0
 11
93.089024
 21
454.562011
 31
0.0
  0
LINE
  8
LC-008-005-----0
  6
CONTINUOUS
  5
B8
 10
90.405458
 20
452.161287
 30
0.0
 11
93.089024
 21
454.844853
 31
0.0
  0
LINE
  8
LC-008-005-----0
  6
CONTINUOUS
  5
B9
 10
90.122615
 20
452.161287
 30
0.0
 11
93.089024
 21
455.127696
 31
0.0
  0
LINE
  8
LC-008-005-----0
  6
CONTINUOUS
  5
BA
 10
89.839773
 20
452.161287
 30
0.0
 11
92.839773
 21
455.161287
 31
0.0
  0
LINE
  8
LC-008-005-----0
  6
CONTINUOUS
  5
BB
 10
89.55693
 20
452.161287
 30
0.0
 11
92.55693
 21
455.161287
 31
0.0
  0
LINE
  8
LC-008-005-----0
  6
CONTINUOUS
  5
BC
 10
89.274087
 20
452.161287
 30
0.0
 11
92.274087
 21
455.161287
 31
0.0
  0
LINE
  8
LC-008-005-----0
  6
CONTINUOUS
  5
BD
 10
88.991244
 20
452.161287
 30
0.0
 11
91.991244
 21
455.161287
 31
0.0
  0
LINE
  8
LC-008-005-----0
  6
CONTINUOUS
  5
BE
 10
88.708402
 20
452.161287
 30
0.0
 11
91.708402
 21
455.161287
 31
0.0
  0
LINE
  8
LC-008-005-----0
  6
CONTINUOUS
  5
BF
 10
88.425559
 20
452.161287
 30
0.0
 11
91.425559
 21
455.161287
 31
0.0
  0
LINE
  8
LC-008-005-----0
  6
CONTINUOUS
  5
C0
 10
88.142716
 20
452.161287
 30
0.0
 11
91.142716
 21
455.161287
 31
0.0
  0
LINE
  8
LC-008-005-----0
  6
CONTINUOUS
  5
C1
 10
88.089024
 20
452.390438
 30
0.0
 11
90.859874
 21
455.161287
 31
0.0
  0
LINE
  8
LC-008-005-----0
  6
CONTINUOUS
  5
C2
 10
88.089024
 20
452.673281
 30
0.0
 11
90.577031
 21
455.161287
 31
0.0
  0
LINE
  8
LC-008-005-----0
  6
CONTINUOUS
  5
C3
 10
88.089024
 20
452.956123
 30
0.0
 11
90.294188
 21
455.161287
 31
0.0
  0
LINE
  8
LC-008-005-----0
  6
CONTINUOUS
  5
C4
 10
88.089024
 20
453.238966
 30
0.0
 11
90.011345
 21
455.161287
 31
0.0
  0
LINE
  8
LC-008-005-----0
  6
CONTINUOUS
  5
C5
 10
88.089024
 20
453.521809
 30
0.0
 11
89.728503
 21
455.161287
 31
0.0
  0
LINE
  8
LC-008-005-----0
  6
CONTINUOUS
  5
C6
 10
88.089024
 20
453.804651
 30
0.0
 11
89.44566
 21
455.161287
 31
0.0
  0
LINE
  8
LC-008-005-----0
  6
CONTINUOUS
  5
C7
 10
88.089024
 20
454.087494
 30
0.0
 11
89.162817
 21
455.161287
 31
0.0
  0
LINE
  8
LC-008-005-----0
  6
CONTINUOUS
  5
C8
 10
88.089024
 20
454.370337
 30
0.0
 11
88.879975
 21
455.161287
 31
0.0
  0
LINE
  8
LC-008-005-----0
  6
CONTINUOUS
  5
C9
 10
88.089024
 20
454.65318
 30
0.0
 11
88.597132
 21
455.161287
 31
0.0
  0
LINE
  8
LC-008-005-----0
  6
CONTINUOUS
  5
CA
 10
88.089024
 20
454.936022
 30
0.0
 11
88.314289
 21
455.161287
 31
0.0
  0
ENDBLK
  8
0
  5
CB
  0
BLOCK
  8
0
  5
CD
  2
*X8
 70
    65
 10
98.089024
 20
452.161287
 30
0.0
  3
*X8
  0
LINE
  8
LC-008-005-----0
  6
CONTINUOUS
  5
CE
 10
102.850537
 20
452.161287
 30
0.0
 11
103.089024
 21
452.399774
 31
0.0
  0
LINE
  8
LC-008-005-----0
  6
CONTINUOUS
  5
CF
 10
102.567695
 20
452.161287
 30
0.0
 11
103.089024
 21
452.682617
 31
0.0
  0
LINE
  8
LC-008-005-----0
  6
CONTINUOUS
  5
D0
 10
102.284852
 20
452.161287
 30
0.0
 11
103.089024
 21
452.96546
 31
0.0
  0
LINE
  8
LC-008-005-----0
  6
CONTINUOUS
  5
D1
 10
102.002009
 20
452.161287
 30
0.0
 11
103.089024
 21
453.248302
 31
0.0
  0
LINE
  8
LC-008-005-----0
  6
CONTINUOUS
  5
D2
 10
101.719166
 20
452.161287
 30
0.0
 11
103.089024
 21
453.531145
 31
0.0
  0
LINE
  8
LC-008-005-----0
  6
CONTINUOUS
  5
D3
 10
101.436324
 20
452.161287
 30
0.0
 11
103.089024
 21
453.813988
 31
0.0
  0
LINE
  8
LC-008-005-----0
  6
CONTINUOUS
  5
D4
 10
101.153481
 20
452.161287
 30
0.0
 11
103.089024
 21
454.09683
 31
0.0
  0
LINE
  8
LC-008-005-----0
  6
CONTINUOUS
  5
D5
 10
100.870638
 20
452.161287
 30
0.0
 11
103.089024
 21
454.379673
 31
0.0
  0
LINE
  8
LC-008-005-----0
  6
CONTINUOUS
  5
D6
 10
100.587796
 20
452.161287
 30
0.0
 11
103.089024
 21
454.662516
 31
0.0
  0
LINE
  8
LC-008-005-----0
  6
CONTINUOUS
  5
D7
 10
100.304953
 20
452.161287
 30
0.0
 11
103.089024
 21
454.945359
 31
0.0
  0
LINE
  8
LC-008-005-----0
  6
CONTINUOUS
  5
D8
 10
100.02211
 20
452.161287
 30
0.0
 11
103.02211
 21
455.161287
 31
0.0
  0
LINE
  8
LC-008-005-----0
  6
CONTINUOUS
  5
D9
 10
99.739267
 20
452.161287
 30
0.0
 11
102.739267
 21
455.161287
 31
0.0
  0
LINE
  8
LC-008-005-----0
  6
CONTINUOUS
  5
DA
 10
99.456425
 20
452.161287
 30
0.0
 11
102.456425
 21
455.161287
 31
0.0
  0
LINE
  8
LC-008-005-----0
  6
CONTINUOUS
  5
DB
 10
99.173582
 20
452.161287
 30
0.0
 11
102.173582
 21
455.161287
 31
0.0
  0
LINE
  8
LC-008-005-----0
  6
CONTINUOUS
  5
DC
 10
98.890739
 20
452.161287
 30
0.0
 11
101.890739
 21
455.161287
 31
0.0
  0
LINE
  8
LC-008-005-----0
  6
CONTINUOUS
  5
DD
 10
98.607897
 20
452.161287
 30
0.0
 11
101.607897
 21
455.161287
 31
0.0
  0
LINE
  8
LC-008-005-----0
  6
CONTINUOUS
  5
DE
 10
98.325054
 20
452.161287
 30
0.0
 11
101.325054
 21
455.161287
 31
0.0
  0
LINE
  8
LC-008-005-----0
  6
CONTINUOUS
  5
DF
 10
98.089024
 20
452.2081
 30
0.0
 11
101.042211
 21
455.161287
 31
0.0
  0
LINE
  8
LC-008-005-----0
  6
CONTINUOUS
  5
E0
 10
98.089024
 20
452.490943
 30
0.0
 11
100.759368
 21
455.161287
 31
0.0
  0
LINE
  8
LC-008-005-----0
  6
CONTINUOUS
  5
E1
 10
98.089024
 20
452.773786
 30
0.0
 11
100.476526
 21
455.161287
 31
0.0
  0
LINE
  8
LC-008-005-----0
  6
CONTINUOUS
  5
E2
 10
98.089024
 20
453.056628
 30
0.0
 11
100.193683
 21
455.161287
 31
0.0
  0
LINE
  8
LC-008-005-----0
  6
CONTINUOUS
  5
E3
 10
98.089024
 20
453.339471
 30
0.0
 11
99.91084
 21
455.161287
 31
0.0
  0
LINE
  8
LC-008-005-----0
  6
CONTINUOUS
  5
E4
 10
98.089024
 20
453.622314
 30
0.0
 11
99.627998
 21
455.161287
 31
0.0
  0
LINE
  8
LC-008-005-----0
  6
CONTINUOUS
  5
E5
 10
98.089024
 20
453.905157
 30
0.0
 11
99.345155
 21
455.161287
 31
0.0
  0
LINE
  8
LC-008-005-----0
  6
CONTINUOUS
  5
E6
 10
98.089024
 20
454.187999
 30
0.0
 11
99.062312
 21
455.161287
 31
0.0
  0
LINE
  8
LC-008-005-----0
  6
CONTINUOUS
  5
E7
 10
98.089024
 20
454.470842
 30
0.0
 11
98.779469
 21
455.161287
 31
0.0
  0
LINE
  8
LC-008-005-----0
  6
CONTINUOUS
  5
E8
 10
98.089024
 20
454.753685
 30
0.0
 11
98.496627
 21
455.161287
 31
0.0
  0
LINE
  8
LC-008-005-----0
  6
CONTINUOUS
  5
E9
 10
98.089024
 20
455.036527
 30
0.0
 11
98.213784
 21
455.161287
 31
0.0
  0
ENDBLK
  8
0
  5
EA
  0
BLOCK
  8
0
  5
EC
  2
*X9
 70
    65
 10
108.089024
 20
452.161287
 30
0.0
  3
*X9
  0
LINE
  8
LC-008-005-----0
  6
CONTINUOUS
  5
ED
 10
113.032875
 20
452.161287
 30
0.0
 11
113.089024
 21
452.217436
 31
0.0
  0
LINE
  8
LC-008-005-----0
  6
CONTINUOUS
  5
EE
 10
112.750032
 20
452.161287
 30
0.0
 11
113.089024
 21
452.500279
 31
0.0
  0
LINE
  8
LC-008-005-----0
  6
CONTINUOUS
  5
EF
 10
112.46719
 20
452.161287
 30
0.0
 11
113.089024
 21
452.783122
 31
0.0
  0
LINE
  8
LC-008-005-----0
  6
CONTINUOUS
  5
F0
 10
112.184347
 20
452.161287
 30
0.0
 11
113.089024
 21
453.065965
 31
0.0
  0
LINE
  8
LC-008-005-----0
  6
CONTINUOUS
  5
F1
 10
111.901504
 20
452.161287
 30
0.0
 11
113.089024
 21
453.348807
 31
0.0
  0
LINE
  8
LC-008-005-----0
  6
CONTINUOUS
  5
F2
 10
111.618661
 20
452.161287
 30
0.0
 11
113.089024
 21
453.63165
 31
0.0
  0
LINE
  8
LC-008-005-----0
  6
CONTINUOUS
  5
F3
 10
111.335819
 20
452.161287
 30
0.0
 11
113.089024
 21
453.914493
 31
0.0
  0
LINE
  8
LC-008-005-----0
  6
CONTINUOUS
  5
F4
 10
111.052976
 20
452.161287
 30
0.0
 11
113.089024
 21
454.197335
 31
0.0
  0
LINE
  8
LC-008-005-----0
  6
CONTINUOUS
  5
F5
 10
110.770133
 20
452.161287
 30
0.0
 11
113.089024
 21
454.480178
 31
0.0
  0
LINE
  8
LC-008-005-----0
  6
CONTINUOUS
  5
F6
 10
110.487291
 20
452.161287
 30
0.0
 11
113.089024
 21
454.763021
 31
0.0
  0
LINE
  8
LC-008-005-----0
  6
CONTINUOUS
  5
F7
 10
110.204448
 20
452.161287
 30
0.0
 11
113.089024
 21
455.045864
 31
0.0
  0
LINE
  8
LC-008-005-----0
  6
CONTINUOUS
  5
F8
 10
109.921605
 20
452.161287
 30
0.0
 11
112.921605
 21
455.161287
 31
0.0
  0
LINE
  8
LC-008-005-----0
  6
CONTINUOUS
  5
F9
 10
109.638762
 20
452.161287
 30
0.0
 11
112.638762
 21
455.161287
 31
0.0
  0
LINE
  8
LC-008-005-----0
  6
CONTINUOUS
  5
FA
 10
109.35592
 20
452.161287
 30
0.0
 11
112.35592
 21
455.161287
 31
0.0
  0
LINE
  8
LC-008-005-----0
  6
CONTINUOUS
  5
FB
 10
109.073077
 20
452.161287
 30
0.0
 11
112.073077
 21
455.161287
 31
0.0
  0
LINE
  8
LC-008-005-----0
  6
CONTINUOUS
  5
FC
 10
108.790234
 20
452.161287
 30
0.0
 11
111.790234
 21
455.161287
 31
0.0
  0
LINE
  8
LC-008-005-----0
  6
CONTINUOUS
  5
FD
 10
108.507392
 20
452.161287
 30
0.0
 11
111.507392
 21
455.161287
 31
0.0
  0
LINE
  8
LC-008-005-----0
  6
CONTINUOUS
  5
FE
 10
108.224549
 20
452.161287
 30
0.0
 11
111.224549
 21
455.161287
 31
0.0
  0
LINE
  8
LC-008-005-----0
  6
CONTINUOUS
  5
FF
 10
108.089024
 20
452.308605
 30
0.0
 11
110.941706
 21
455.161287
 31
0.0
  0
LINE
  8
LC-008-005-----0
  6
CONTINUOUS
  5
100
 10
108.089024
 20
452.591448
 30
0.0
 11
110.658863
 21
455.161287
 31
0.0
  0
LINE
  8
LC-008-005-----0
  6
CONTINUOUS
  5
101
 10
108.089024
 20
452.874291
 30
0.0
 11
110.376021
 21
455.161287
 31
0.0
  0
LINE
  8
LC-008-005-----0
  6
CONTINUOUS
  5
102
 10
108.089024
 20
453.157133
 30
0.0
 11
110.093178
 21
455.161287
 31
0.0
  0
LINE
  8
LC-008-005-----0
  6
CONTINUOUS
  5
103
 10
108.089024
 20
453.439976
 30
0.0
 11
109.810335
 21
455.161287
 31
0.0
  0
LINE
  8
LC-008-005-----0
  6
CONTINUOUS
  5
104
 10
108.089024
 20
453.722819
 30
0.0
 11
109.527493
 21
455.161287
 31
0.0
  0
LINE
  8
LC-008-005-----0
  6
CONTINUOUS
  5
105
 10
108.089024
 20
454.005662
 30
0.0
 11
109.24465
 21
455.161287
 31
0.0
  0
LINE
  8
LC-008-005-----0
  6
CONTINUOUS
  5
106
 10
108.089024
 20
454.288504
 30
0.0
 11
108.961807
 21
455.161287
 31
0.0
  0
LINE
  8
LC-008-005-----0
  6
CONTINUOUS
  5
107
 10
108.089024
 20
454.571347
 30
0.0
 11
108.678964
 21
455.161287
 31
0.0
  0
LINE
  8
LC-008-005-----0
  6
CONTINUOUS
  5
108
 10
108.089024
 20
454.85419
 30
0.0
 11
108.396122
 21
455.161287
 31
0.0
  0
LINE
  8
LC-008-005-----0
  6
CONTINUOUS
  5
109
 10
108.089024
 20
455.137032
 30
0.0
 11
108.113279
 21
455.161287
 31
0.0
  0
ENDBLK
  8
0
  5
10A
  0
BLOCK
  8
0
  5
10C
  2
*X10
 70
    65
 10
118.089024
 20
452.161287
 30
0.0
  3
*X10
  0
LINE
  8
LC-008-005-----0
  6
CONTINUOUS
  5
10D
 10
122.93237
 20
452.161287
 30
0.0
 11
123.089024
 21
452.317942
 31
0.0
  0
LINE
  8
LC-008-005-----0
  6
CONTINUOUS
  5
10E
 10
122.649527
 20
452.161287
 30
0.0
 11
123.089024
 21
452.600784
 31
0.0
  0
LINE
  8
LC-008-005-----0
  6
CONTINUOUS
  5
10F
 10
122.366684
 20
452.161287
 30
0.0
 11
123.089024
 21
452.883627
 31
0.0
  0
LINE
  8
LC-008-005-----0
  6
CONTINUOUS
  5
110
 10
122.083842
 20
452.161287
 30
0.0
 11
123.089024
 21
453.16647
 31
0.0
  0
LINE
  8
LC-008-005-----0
  6
CONTINUOUS
  5
111
 10
121.800999
 20
452.161287
 30
0.0
 11
123.089024
 21
453.449312
 31
0.0
  0
LINE
  8
LC-008-005-----0
  6
CONTINUOUS
  5
112
 10
121.518156
 20
452.161287
 30
0.0
 11
123.089024
 21
453.732155
 31
0.0
  0
LINE
  8
LC-008-005-----0
  6
CONTINUOUS
  5
113
 10
121.235314
 20
452.161287
 30
0.0
 11
123.089024
 21
454.014998
 31
0.0
  0
LINE
  8
LC-008-005-----0
  6
CONTINUOUS
  5
114
 10
120.952471
 20
452.161287
 30
0.0
 11
123.089024
 21
454.297841
 31
0.0
  0
LINE
  8
LC-008-005-----0
  6
CONTINUOUS
  5
115
 10
120.669628
 20
452.161287
 30
0.0
 11
123.089024
 21
454.580683
 31
0.0
  0
LINE
  8
LC-008-005-----0
  6
CONTINUOUS
  5
116
 10
120.386785
 20
452.161287
 30
0.0
 11
123.089024
 21
454.863526
 31
0.0
  0
LINE
  8
LC-008-005-----0
  6
CONTINUOUS
  5
117
 10
120.103943
 20
452.161287
 30
0.0
 11
123.089024
 21
455.146369
 31
0.0
  0
LINE
  8
LC-008-005-----0
  6
CONTINUOUS
  5
118
 10
119.8211
 20
452.161287
 30
0.0
 11
122.8211
 21
455.161287
 31
0.0
  0
LINE
  8
LC-008-005-----0
  6
CONTINUOUS
  5
119
 10
119.538257
 20
452.161287
 30
0.0
 11
122.538257
 21
455.161287
 31
0.0
  0
LINE
  8
LC-008-005-----0
  6
CONTINUOUS
  5
11A
 10
119.255415
 20
452.161287
 30
0.0
 11
122.255415
 21
455.161287
 31
0.0
  0
LINE
  8
LC-008-005-----0
  6
CONTINUOUS
  5
11B
 10
118.972572
 20
452.161287
 30
0.0
 11
121.972572
 21
455.161287
 31
0.0
  0
LINE
  8
LC-008-005-----0
  6
CONTINUOUS
  5
11C
 10
118.689729
 20
452.161287
 30
0.0
 11
121.689729
 21
455.161287
 31
0.0
  0
LINE
  8
LC-008-005-----0
  6
CONTINUOUS
  5
11D
 10
118.406886
 20
452.161287
 30
0.0
 11
121.406886
 21
455.161287
 31
0.0
  0
LINE
  8
LC-008-005-----0
  6
CONTINUOUS
  5
11E
 10
118.124044
 20
452.161287
 30
0.0
 11
121.124044
 21
455.161287
 31
0.0
  0
LINE
  8
LC-008-005-----0
  6
CONTINUOUS
  5
11F
 10
118.089024
 20
452.40911
 30
0.0
 11
120.841201
 21
455.161287
 31
0.0
  0
LINE
  8
LC-008-005-----0
  6
CONTINUOUS
  5
120
 10
118.089024
 20
452.691953
 30
0.0
 11
120.558358
 21
455.161287
 31
0.0
  0
LINE
  8
LC-008-005-----0
  6
CONTINUOUS
  5
121
 10
118.089024
 20
452.974796
 30
0.0
 11
120.275516
 21
455.161287
 31
0.0
  0
LINE
  8
LC-008-005-----0
  6
CONTINUOUS
  5
122
 10
118.089024
 20
453.257639
 30
0.0
 11
119.992673
 21
455.161287
 31
0.0
  0
LINE
  8
LC-008-005-----0
  6
CONTINUOUS
  5
123
 10
118.089024
 20
453.540481
 30
0.0
 11
119.70983
 21
455.161287
 31
0.0
  0
LINE
  8
LC-008-005-----0
  6
CONTINUOUS
  5
124
 10
118.089024
 20
453.823324
 30
0.0
 11
119.426987
 21
455.161287
 31
0.0
  0
LINE
  8
LC-008-005-----0
  6
CONTINUOUS
  5
125
 10
118.089024
 20
454.106167
 30
0.0
 11
119.144145
 21
455.161287
 31
0.0
  0
LINE
  8
LC-008-005-----0
  6
CONTINUOUS
  5
126
 10
118.089024
 20
454.389009
 30
0.0
 11
118.861302
 21
455.161287
 31
0.0
  0
LINE
  8
LC-008-005-----0
  6
CONTINUOUS
  5
127
 10
118.089024
 20
454.671852
 30
0.0
 11
118.578459
 21
455.161287
 31
0.0
  0
LINE
  8
LC-008-005-----0
  6
CONTINUOUS
  5
128
 10
118.089024
 20
454.954695
 30
0.0
 11
118.295617
 21
455.161287
 31
0.0
  0
ENDBLK
  8
0
  5
129
  0
BLOCK
  8
0
  5
12B
  2
*X11
 70
    65
 10
128.089024
 20
452.161287
 30
0.0
  3
*X11
  0
LINE
  8
LC-008-005-----0
  6
CONTINUOUS
  5
12C
 10
132.831865
 20
452.161287
 30
0.0
 11
133.089024
 21
452.418447
 31
0.0
  0
LINE
  8
LC-008-005-----0
  6
CONTINUOUS
  5
12D
 10
132.549022
 20
452.161287
 30
0.0
 11
133.089024
 21
452.701289
 31
0.0
  0
LINE
  8
LC-008-005-----0
  6
CONTINUOUS
  5
12E
 10
132.266179
 20
452.161287
 30
0.0
 11
133.089024
 21
452.984132
 31
0.0
  0
LINE
  8
LC-008-005-----0
  6
CONTINUOUS
  5
12F
 10
131.983337
 20
452.161287
 30
0.0
 11
133.089024
 21
453.266975
 31
0.0
  0
LINE
  8
LC-008-005-----0
  6
CONTINUOUS
  5
130
 10
131.700494
 20
452.161287
 30
0.0
 11
133.089024
 21
453.549817
 31
0.0
  0
LINE
  8
LC-008-005-----0
  6
CONTINUOUS
  5
131
 10
131.417651
 20
452.161287
 30
0.0
 11
133.089024
 21
453.83266
 31
0.0
  0
LINE
  8
LC-008-005-----0
  6
CONTINUOUS
  5
132
 10
131.134809
 20
452.161287
 30
0.0
 11
133.089024
 21
454.115503
 31
0.0
  0
LINE
  8
LC-008-005-----0
  6
CONTINUOUS
  5
133
 10
130.851966
 20
452.161287
 30
0.0
 11
133.089024
 21
454.398346
 31
0.0
  0
LINE
  8
LC-008-005-----0
  6
CONTINUOUS
  5
134
 10
130.569123
 20
452.161287
 30
0.0
 11
133.089024
 21
454.681188
 31
0.0
  0
LINE
  8
LC-008-005-----0
  6
CONTINUOUS
  5
135
 10
130.28628
 20
452.161287
 30
0.0
 11
133.089024
 21
454.964031
 31
0.0
  0
LINE
  8
LC-008-005-----0
  6
CONTINUOUS
  5
136
 10
130.003438
 20
452.161287
 30
0.0
 11
133.003438
 21
455.161287
 31
0.0
  0
LINE
  8
LC-008-005-----0
  6
CONTINUOUS
  5
137
 10
129.720595
 20
452.161287
 30
0.0
 11
132.720595
 21
455.161287
 31
0.0
  0
LINE
  8
LC-008-005-----0
  6
CONTINUOUS
  5
138
 10
129.437752
 20
452.161287
 30
0.0
 11
132.437752
 21
455.161287
 31
0.0
  0
LINE
  8
LC-008-005-----0
  6
CONTINUOUS
  5
139
 10
129.15491
 20
452.161287
 30
0.0
 11
132.15491
 21
455.161287
 31
0.0
  0
LINE
  8
LC-008-005-----0
  6
CONTINUOUS
  5
13A
 10
128.872067
 20
452.161287
 30
0.0
 11
131.872067
 21
455.161287
 31
0.0
  0
LINE
  8
LC-008-005-----0
  6
CONTINUOUS
  5
13B
 10
128.589224
 20
452.161287
 30
0.0
 11
131.589224
 21
455.161287
 31
0.0
  0
LINE
  8
LC-008-005-----0
  6
CONTINUOUS
  5
13C
 10
128.306381
 20
452.161287
 30
0.0
 11
131.306381
 21
455.161287
 31
0.0
  0
LINE
  8
LC-008-005-----0
  6
CONTINUOUS
  5
13D
 10
128.089024
 20
452.226773
 30
0.0
 11
131.023539
 21
455.161287
 31
0.0
  0
LINE
  8
LC-008-005-----0
  6
CONTINUOUS
  5
13E
 10
128.089024
 20
452.509615
 30
0.0
 11
130.740696
 21
455.161287
 31
0.0
  0
LINE
  8
LC-008-005-----0
  6
CONTINUOUS
  5
13F
 10
128.089024
 20
452.792458
 30
0.0
 11
130.457853
 21
455.161287
 31
0.0
  0
LINE
  8
LC-008-005-----0
  6
CONTINUOUS
  5
140
 10
128.089024
 20
453.075301
 30
0.0
 11
130.175011
 21
455.161287
 31
0.0
  0
LINE
  8
LC-008-005-----0
  6
CONTINUOUS
  5
141
 10
128.089024
 20
453.358144
 30
0.0
 11
129.892168
 21
455.161287
 31
0.0
  0
LINE
  8
LC-008-005-----0
  6
CONTINUOUS
  5
142
 10
128.089024
 20
453.640986
 30
0.0
 11
129.609325
 21
455.161287
 31
0.0
  0
LINE
  8
LC-008-005-----0
  6
CONTINUOUS
  5
143
 10
128.089024
 20
453.923829
 30
0.0
 11
129.326482
 21
455.161287
 31
0.0
  0
LINE
  8
LC-008-005-----0
  6
CONTINUOUS
  5
144
 10
128.089024
 20
454.206672
 30
0.0
 11
129.04364
 21
455.161287
 31
0.0
  0
LINE
  8
LC-008-005-----0
  6
CONTINUOUS
  5
145
 10
128.089024
 20
454.489514
 30
0.0
 11
128.760797
 21
455.161287
 31
0.0
  0
LINE
  8
LC-008-005-----0
  6
CONTINUOUS
  5
146
 10
128.089024
 20
454.772357
 30
0.0
 11
128.477954
 21
455.161287
 31
0.0
  0
LINE
  8
LC-008-005-----0
  6
CONTINUOUS
  5
147
 10
128.089024
 20
455.0552
 30
0.0
 11
128.195112
 21
455.161287
 31
0.0
  0
ENDBLK
  8
0
  5
148
  0
BLOCK
  8
0
  5
14A
  2
*X12
 70
    65
 10
138.089024
 20
452.161287
 30
0.0
  3
*X12
  0
LINE
  8
LC-008-005-----0
  6
CONTINUOUS
  5
14B
 10
143.014202
 20
452.161287
 30
0.0
 11
143.089024
 21
452.236109
 31
0.0
  0
LINE
  8
LC-008-005-----0
  6
CONTINUOUS
  5
14C
 10
142.73136
 20
452.161287
 30
0.0
 11
143.089024
 21
452.518952
 31
0.0
  0
LINE
  8
LC-008-005-----0
  6
CONTINUOUS
  5
14D
 10
142.448517
 20
452.161287
 30
0.0
 11
143.089024
 21
452.801794
 31
0.0
  0
LINE
  8
LC-008-005-----0
  6
CONTINUOUS
  5
14E
 10
142.165674
 20
452.161287
 30
0.0
 11
143.089024
 21
453.084637
 31
0.0
  0
LINE
  8
LC-008-005-----0
  6
CONTINUOUS
  5
14F
 10
141.882832
 20
452.161287
 30
0.0
 11
143.089024
 21
453.36748
 31
0.0
  0
LINE
  8
LC-008-005-----0
  6
CONTINUOUS
  5
150
 10
141.599989
 20
452.161287
 30
0.0
 11
143.089024
 21
453.650323
 31
0.0
  0
LINE
  8
LC-008-005-----0
  6
CONTINUOUS
  5
151
 10
141.317146
 20
452.161287
 30
0.0
 11
143.089024
 21
453.933165
 31
0.0
  0
LINE
  8
LC-008-005-----0
  6
CONTINUOUS
  5
152
 10
141.034303
 20
452.161287
 30
0.0
 11
143.089024
 21
454.216008
 31
0.0
  0
LINE
  8
LC-008-005-----0
  6
CONTINUOUS
  5
153
 10
140.751461
 20
452.161287
 30
0.0
 11
143.089024
 21
454.498851
 31
0.0
  0
LINE
  8
LC-008-005-----0
  6
CONTINUOUS
  5
154
 10
140.468618
 20
452.161287
 30
0.0
 11
143.089024
 21
454.781693
 31
0.0
  0
LINE
  8
LC-008-005-----0
  6
CONTINUOUS
  5
155
 10
140.185775
 20
452.161287
 30
0.0
 11
143.089024
 21
455.064536
 31
0.0
  0
LINE
  8
LC-008-005-----0
  6
CONTINUOUS
  5
156
 10
139.902933
 20
452.161287
 30
0.0
 11
142.902933
 21
455.161287
 31
0.0
  0
LINE
  8
LC-008-005-----0
  6
CONTINUOUS
  5
157
 10
139.62009
 20
452.161287
 30
0.0
 11
142.62009
 21
455.161287
 31
0.0
  0
LINE
  8
LC-008-005-----0
  6
CONTINUOUS
  5
158
 10
139.337247
 20
452.161287
 30
0.0
 11
142.337247
 21
455.161287
 31
0.0
  0
LINE
  8
LC-008-005-----0
  6
CONTINUOUS
  5
159
 10
139.054404
 20
452.161287
 30
0.0
 11
142.054404
 21
455.161287
 31
0.0
  0
LINE
  8
LC-008-005-----0
  6
CONTINUOUS
  5
15A
 10
138.771562
 20
452.161287
 30
0.0
 11
141.771562
 21
455.161287
 31
0.0
  0
LINE
  8
LC-008-005-----0
  6
CONTINUOUS
  5
15B
 10
138.488719
 20
452.161287
 30
0.0
 11
141.488719
 21
455.161287
 31
0.0
  0
LINE
  8
LC-008-005-----0
  6
CONTINUOUS
  5
15C
 10
138.205876
 20
452.161287
 30
0.0
 11
141.205876
 21
455.161287
 31
0.0
  0
LINE
  8
LC-008-005-----0
  6
CONTINUOUS
  5
15D
 10
138.089024
 20
452.327278
 30
0.0
 11
140.923034
 21
455.161287
 31
0.0
  0
LINE
  8
LC-008-005-----0
  6
CONTINUOUS
  5
15E
 10
138.089024
 20
452.610121
 30
0.0
 11
140.640191
 21
455.161287
 31
0.0
  0
LINE
  8
LC-008-005-----0
  6
CONTINUOUS
  5
15F
 10
138.089024
 20
452.892963
 30
0.0
 11
140.357348
 21
455.161287
 31
0.0
  0
LINE
  8
LC-008-005-----0
  6
CONTINUOUS
  5
160
 10
138.089024
 20
453.175806
 30
0.0
 11
140.074506
 21
455.161287
 31
0.0
  0
LINE
  8
LC-008-005-----0
  6
CONTINUOUS
  5
161
 10
138.089024
 20
453.458649
 30
0.0
 11
139.791663
 21
455.161287
 31
0.0
  0
LINE
  8
LC-008-005-----0
  6
CONTINUOUS
  5
162
 10
138.089024
 20
453.741491
 30
0.0
 11
139.50882
 21
455.161287
 31
0.0
  0
LINE
  8
LC-008-005-----0
  6
CONTINUOUS
  5
163
 10
138.089024
 20
454.024334
 30
0.0
 11
139.225977
 21
455.161287
 31
0.0
  0
LINE
  8
LC-008-005-----0
  6
CONTINUOUS
  5
164
 10
138.089024
 20
454.307177
 30
0.0
 11
138.943135
 21
455.161287
 31
0.0
  0
LINE
  8
LC-008-005-----0
  6
CONTINUOUS
  5
165
 10
138.089024
 20
454.59002
 30
0.0
 11
138.660292
 21
455.161287
 31
0.0
  0
LINE
  8
LC-008-005-----0
  6
CONTINUOUS
  5
166
 10
138.089024
 20
454.872862
 30
0.0
 11
138.377449
 21
455.161287
 31
0.0
  0
LINE
  8
LC-008-005-----0
  6
CONTINUOUS
  5
167
 10
138.089024
 20
455.155705
 30
0.0
 11
138.094607
 21
455.161287
 31
0.0
  0
ENDBLK
  8
0
  5
168
  0
BLOCK
  8
0
  5
16A
  2
*X13
 70
    65
 10
148.089024
 20
452.161287
 30
0.0
  3
*X13
  0
LINE
  8
LC-008-005-----0
  6
CONTINUOUS
  5
16B
 10
152.913697
 20
452.161287
 30
0.0
 11
153.089024
 21
452.336614
 31
0.0
  0
LINE
  8
LC-008-005-----0
  6
CONTINUOUS
  5
16C
 10
152.630855
 20
452.161287
 30
0.0
 11
153.089024
 21
452.619457
 31
0.0
  0
LINE
  8
LC-008-005-----0
  6
CONTINUOUS
  5
16D
 10
152.348012
 20
452.161287
 30
0.0
 11
153.089024
 21
452.902299
 31
0.0
  0
LINE
  8
LC-008-005-----0
  6
CONTINUOUS
  5
16E
 10
152.065169
 20
452.161287
 30
0.0
 11
153.089024
 21
453.185142
 31
0.0
  0
LINE
  8
LC-008-005-----0
  6
CONTINUOUS
  5
16F
 10
151.782327
 20
452.161287
 30
0.0
 11
153.089024
 21
453.467985
 31
0.0
  0
LINE
  8
LC-008-005-----0
  6
CONTINUOUS
  5
170
 10
151.499484
 20
452.161287
 30
0.0
 11
153.089024
 21
453.750828
 31
0.0
  0
LINE
  8
LC-008-005-----0
  6
CONTINUOUS
  5
171
 10
151.216641
 20
452.161287
 30
0.0
 11
153.089024
 21
454.03367
 31
0.0
  0
LINE
  8
LC-008-005-----0
  6
CONTINUOUS
  5
172
 10
150.933798
 20
452.161287
 30
0.0
 11
153.089024
 21
454.316513
 31
0.0
  0
LINE
  8
LC-008-005-----0
  6
CONTINUOUS
  5
173
 10
150.650956
 20
452.161287
 30
0.0
 11
153.089024
 21
454.599356
 31
0.0
  0
LINE
  8
LC-008-005-----0
  6
CONTINUOUS
  5
174
 10
150.368113
 20
452.161287
 30
0.0
 11
153.089024
 21
454.882198
 31
0.0
  0
LINE
  8
LC-008-005-----0
  6
CONTINUOUS
  5
175
 10
150.08527
 20
452.161287
 30
0.0
 11
153.08527
 21
455.161287
 31
0.0
  0
LINE
  8
LC-008-005-----0
  6
CONTINUOUS
  5
176
 10
149.802428
 20
452.161287
 30
0.0
 11
152.802428
 21
455.161287
 31
0.0
  0
LINE
  8
LC-008-005-----0
  6
CONTINUOUS
  5
177
 10
149.519585
 20
452.161287
 30
0.0
 11
152.519585
 21
455.161287
 31
0.0
  0
LINE
  8
LC-008-005-----0
  6
CONTINUOUS
  5
178
 10
149.236742
 20
452.161287
 30
0.0
 11
152.236742
 21
455.161287
 31
0.0
  0
LINE
  8
LC-008-005-----0
  6
CONTINUOUS
  5
179
 10
148.953899
 20
452.161287
 30
0.0
 11
151.953899
 21
455.161287
 31
0.0
  0
LINE
  8
LC-008-005-----0
  6
CONTINUOUS
  5
17A
 10
148.671057
 20
452.161287
 30
0.0
 11
151.671057
 21
455.161287
 31
0.0
  0
LINE
  8
LC-008-005-----0
  6
CONTINUOUS
  5
17B
 10
148.388214
 20
452.161287
 30
0.0
 11
151.388214
 21
455.161287
 31
0.0
  0
LINE
  8
LC-008-005-----0
  6
CONTINUOUS
  5
17C
 10
148.105371
 20
452.161287
 30
0.0
 11
151.105371
 21
455.161287
 31
0.0
  0
LINE
  8
LC-008-005-----0
  6
CONTINUOUS
  5
17D
 10
148.089024
 20
452.427783
 30
0.0
 11
150.822529
 21
455.161287
 31
0.0
  0
LINE
  8
LC-008-005-----0
  6
CONTINUOUS
  5
17E
 10
148.089024
 20
452.710626
 30
0.0
 11
150.539686
 21
455.161287
 31
0.0
  0
LINE
  8
LC-008-005-----0
  6
CONTINUOUS
  5
17F
 10
148.089024
 20
452.993468
 30
0.0
 11
150.256843
 21
455.161287
 31
0.0
  0
LINE
  8
LC-008-005-----0
  6
CONTINUOUS
  5
180
 10
148.089024
 20
453.276311
 30
0.0
 11
149.974
 21
455.161287
 31
0.0
  0
LINE
  8
LC-008-005-----0
  6
CONTINUOUS
  5
181
 10
148.089024
 20
453.559154
 30
0.0
 11
149.691158
 21
455.161287
 31
0.0
  0
LINE
  8
LC-008-005-----0
  6
CONTINUOUS
  5
182
 10
148.089024
 20
453.841996
 30
0.0
 11
149.408315
 21
455.161287
 31
0.0
  0
LINE
  8
LC-008-005-----0
  6
CONTINUOUS
  5
183
 10
148.089024
 20
454.124839
 30
0.0
 11
149.125472
 21
455.161287
 31
0.0
  0
LINE
  8
LC-008-005-----0
  6
CONTINUOUS
  5
184
 10
148.089024
 20
454.407682
 30
0.0
 11
148.84263
 21
455.161287
 31
0.0
  0
LINE
  8
LC-008-005-----0
  6
CONTINUOUS
  5
185
 10
148.089024
 20
454.690525
 30
0.0
 11
148.559787
 21
455.161287
 31
0.0
  0
LINE
  8
LC-008-005-----0
  6
CONTINUOUS
  5
186
 10
148.089024
 20
454.973367
 30
0.0
 11
148.276944
 21
455.161287
 31
0.0
  0
ENDBLK
  8
0
  5
187
  0
BLOCK
  8
0
  5
189
  2
*X14
 70
    65
 10
168.089024
 20
449.565203
 30
0.0
  3
*X14
  0
LINE
  8
LC-008-005-----0
  6
CONTINUOUS
  5
18A
 10
172.978746
 20
449.598918
 30
0.0
 11
173.089024
 21
449.709197
 31
0.0
  0
LINE
  8
LC-008-005-----0
  6
CONTINUOUS
  5
18B
 10
172.762129
 20
449.665145
 30
0.0
 11
173.089024
 21
449.99204
 31
0.0
  0
LINE
  8
LC-008-005-----0
  6
CONTINUOUS
  5
18C
 10
172.545513
 20
449.731371
 30
0.0
 11
173.089024
 21
450.274882
 31
0.0
  0
LINE
  8
LC-008-005-----0
  6
CONTINUOUS
  5
18D
 10
172.328896
 20
449.797597
 30
0.0
 11
173.089024
 21
450.557725
 31
0.0
  0
LINE
  8
LC-008-005-----0
  6
CONTINUOUS
  5
18E
 10
172.11228
 20
449.863823
 30
0.0
 11
173.089024
 21
450.840568
 31
0.0
  0
LINE
  8
LC-008-005-----0
  6
CONTINUOUS
  5
18F
 10
171.895663
 20
449.93005
 30
0.0
 11
173.089024
 21
451.123411
 31
0.0
  0
LINE
  8
LC-008-005-----0
  6
CONTINUOUS
  5
190
 10
171.679047
 20
449.996276
 30
0.0
 11
173.089024
 21
451.406253
 31
0.0
  0
LINE
  8
LC-008-005-----0
  6
CONTINUOUS
  5
191
 10
171.462431
 20
450.062502
 30
0.0
 11
173.089024
 21
451.689096
 31
0.0
  0
LINE
  8
LC-008-005-----0
  6
CONTINUOUS
  5
192
 10
171.245814
 20
450.128729
 30
0.0
 11
173.089024
 21
451.971939
 31
0.0
  0
LINE
  8
LC-008-005-----0
  6
CONTINUOUS
  5
193
 10
171.029198
 20
450.194955
 30
0.0
 11
173.089024
 21
452.254781
 31
0.0
  0
LINE
  8
LC-008-005-----0
  6
CONTINUOUS
  5
194
 10
170.812581
 20
450.261181
 30
0.0
 11
173.089024
 21
452.537624
 31
0.0
  0
LINE
  8
LC-008-005-----0
  6
CONTINUOUS
  5
195
 10
170.595965
 20
450.327407
 30
0.0
 11
172.998509
 21
452.729951
 31
0.0
  0
LINE
  8
LC-008-005-----0
  6
CONTINUOUS
  5
196
 10
170.379348
 20
450.393634
 30
0.0
 11
172.781892
 21
452.796178
 31
0.0
  0
LINE
  8
LC-008-005-----0
  6
CONTINUOUS
  5
197
 10
170.162732
 20
450.45986
 30
0.0
 11
172.565276
 21
452.862404
 31
0.0
  0
LINE
  8
LC-008-005-----0
  6
CONTINUOUS
  5
198
 10
169.946116
 20
450.526086
 30
0.0
 11
172.348659
 21
452.92863
 31
0.0
  0
LINE
  8
LC-008-005-----0
  6
CONTINUOUS
  5
199
 10
169.729499
 20
450.592313
 30
0.0
 11
172.132043
 21
452.994857
 31
0.0
  0
LINE
  8
LC-008-005-----0
  6
CONTINUOUS
  5
19A
 10
169.512883
 20
450.658539
 30
0.0
 11
171.915427
 21
453.061083
 31
0.0
  0
LINE
  8
LC-008-005-----0
  6
CONTINUOUS
  5
19B
 10
169.296266
 20
450.724765
 30
0.0
 11
171.69881
 21
453.127309
 31
0.0
  0
LINE
  8
LC-008-005-----0
  6
CONTINUOUS
  5
19C
 10
169.07965
 20
450.790991
 30
0.0
 11
171.482194
 21
453.193535
 31
0.0
  0
LINE
  8
LC-008-005-----0
  6
CONTINUOUS
  5
19D
 10
168.863033
 20
450.857218
 30
0.0
 11
171.265577
 21
453.259762
 31
0.0
  0
LINE
  8
LC-008-005-----0
  6
CONTINUOUS
  5
19E
 10
168.646417
 20
450.923444
 30
0.0
 11
171.048961
 21
453.325988
 31
0.0
  0
LINE
  8
LC-008-005-----0
  6
CONTINUOUS
  5
19F
 10
168.429801
 20
450.98967
 30
0.0
 11
170.832344
 21
453.392214
 31
0.0
  0
LINE
  8
LC-008-005-----0
  6
CONTINUOUS
  5
1A0
 10
168.213184
 20
451.055897
 30
0.0
 11
170.615728
 21
453.458441
 31
0.0
  0
LINE
  8
LC-008-005-----0
  6
CONTINUOUS
  5
1A1
 10
168.089024
 20
451.214579
 30
0.0
 11
170.399112
 21
453.524667
 31
0.0
  0
LINE
  8
LC-008-005-----0
  6
CONTINUOUS
  5
1A2
 10
168.089024
 20
451.497422
 30
0.0
 11
170.182495
 21
453.590893
 31
0.0
  0
LINE
  8
LC-008-005-----0
  6
CONTINUOUS
  5
1A3
 10
168.089024
 20
451.780265
 30
0.0
 11
169.965879
 21
453.657119
 31
0.0
  0
LINE
  8
LC-008-005-----0
  6
CONTINUOUS
  5
1A4
 10
168.089024
 20
452.063108
 30
0.0
 11
169.749262
 21
453.723346
 31
0.0
  0
LINE
  8
LC-008-005-----0
  6
CONTINUOUS
  5
1A5
 10
168.089024
 20
452.34595
 30
0.0
 11
169.532646
 21
453.789572
 31
0.0
  0
LINE
  8
LC-008-005-----0
  6
CONTINUOUS
  5
1A6
 10
168.089024
 20
452.628793
 30
0.0
 11
169.316029
 21
453.855798
 31
0.0
  0
LINE
  8
LC-008-005-----0
  6
CONTINUOUS
  5
1A7
 10
168.089024
 20
452.911636
 30
0.0
 11
169.099413
 21
453.922025
 31
0.0
  0
LINE
  8
LC-008-005-----0
  6
CONTINUOUS
  5
1A8
 10
168.089024
 20
453.194478
 30
0.0
 11
168.882797
 21
453.988251
 31
0.0
  0
LINE
  8
LC-008-005-----0
  6
CONTINUOUS
  5
1A9
 10
168.089024
 20
453.477321
 30
0.0
 11
168.66618
 21
454.054477
 31
0.0
  0
LINE
  8
LC-008-005-----0
  6
CONTINUOUS
  5
1AA
 10
168.089024
 20
453.760164
 30
0.0
 11
168.449564
 21
454.120703
 31
0.0
  0
LINE
  8
LC-008-005-----0
  6
CONTINUOUS
  5
1AB
 10
168.089024
 20
454.043007
 30
0.0
 11
168.232947
 21
454.18693
 31
0.0
  0
ENDBLK
  8
0
  5
1AC
  0
BLOCK
  8
0
  5
1AE
  2
*X15
 70
    65
 10
178.089024
 20
446.507896
 30
0.0
  3
*X15
  0
LINE
  8
LC-008-005-----0
  6
CONTINUOUS
  5
1AF
 10
182.943101
 20
446.552509
 30
0.0
 11
183.089024
 21
446.698432
 31
0.0
  0
LINE
  8
LC-008-005-----0
  6
CONTINUOUS
  5
1B0
 10
182.726485
 20
446.618735
 30
0.0
 11
183.089024
 21
446.981275
 31
0.0
  0
LINE
  8
LC-008-005-----0
  6
CONTINUOUS
  5
1B1
 10
182.509868
 20
446.684962
 30
0.0
 11
183.089024
 21
447.264118
 31
0.0
  0
LINE
  8
LC-008-005-----0
  6
CONTINUOUS
  5
1B2
 10
182.293252
 20
446.751188
 30
0.0
 11
183.089024
 21
447.54696
 31
0.0
  0
LINE
  8
LC-008-005-----0
  6
CONTINUOUS
  5
1B3
 10
182.076635
 20
446.817414
 30
0.0
 11
183.089024
 21
447.829803
 31
0.0
  0
LINE
  8
LC-008-005-----0
  6
CONTINUOUS
  5
1B4
 10
181.860019
 20
446.883641
 30
0.0
 11
183.089024
 21
448.112646
 31
0.0
  0
LINE
  8
LC-008-005-----0
  6
CONTINUOUS
  5
1B5
 10
181.643403
 20
446.949867
 30
0.0
 11
183.089024
 21
448.395489
 31
0.0
  0
LINE
  8
LC-008-005-----0
  6
CONTINUOUS
  5
1B6
 10
181.426786
 20
447.016093
 30
0.0
 11
183.089024
 21
448.678331
 31
0.0
  0
LINE
  8
LC-008-005-----0
  6
CONTINUOUS
  5
1B7
 10
181.21017
 20
447.082319
 30
0.0
 11
183.089024
 21
448.961174
 31
0.0
  0
LINE
  8
LC-008-005-----0
  6
CONTINUOUS
  5
1B8
 10
180.993553
 20
447.148546
 30
0.0
 11
183.089024
 21
449.244017
 31
0.0
  0
LINE
  8
LC-008-005-----0
  6
CONTINUOUS
  5
1B9
 10
180.776937
 20
447.214772
 30
0.0
 11
183.089024
 21
449.526859
 31
0.0
  0
LINE
  8
LC-008-005-----0
  6
CONTINUOUS
  5
1BA
 10
180.56032
 20
447.280998
 30
0.0
 11
182.962864
 21
449.683542
 31
0.0
  0
LINE
  8
LC-008-005-----0
  6
CONTINUOUS
  5
1BB
 10
180.343704
 20
447.347225
 30
0.0
 11
182.746248
 21
449.749768
 31
0.0
  0
LINE
  8
LC-008-005-----0
  6
CONTINUOUS
  5
1BC
 10
180.127088
 20
447.413451
 30
0.0
 11
182.529631
 21
449.815995
 31
0.0
  0
LINE
  8
LC-008-005-----0
  6
CONTINUOUS
  5
1BD
 10
179.910471
 20
447.479677
 30
0.0
 11
182.313015
 21
449.882221
 31
0.0
  0
LINE
  8
LC-008-005-----0
  6
CONTINUOUS
  5
1BE
 10
179.693855
 20
447.545903
 30
0.0
 11
182.096399
 21
449.948447
 31
0.0
  0
LINE
  8
LC-008-005-----0
  6
CONTINUOUS
  5
1BF
 10
179.477238
 20
447.61213
 30
0.0
 11
181.879782
 21
450.014674
 31
0.0
  0
LINE
  8
LC-008-005-----0
  6
CONTINUOUS
  5
1C0
 10
179.260622
 20
447.678356
 30
0.0
 11
181.663166
 21
450.0809
 31
0.0
  0
LINE
  8
LC-008-005-----0
  6
CONTINUOUS
  5
1C1
 10
179.044005
 20
447.744582
 30
0.0
 11
181.446549
 21
450.147126
 31
0.0
  0
LINE
  8
LC-008-005-----0
  6
CONTINUOUS
  5
1C2
 10
178.827389
 20
447.810809
 30
0.0
 11
181.229933
 21
450.213352
 31
0.0
  0
LINE
  8
LC-008-005-----0
  6
CONTINUOUS
  5
1C3
 10
178.610773
 20
447.877035
 30
0.0
 11
181.013316
 21
450.279579
 31
0.0
  0
LINE
  8
LC-008-005-----0
  6
CONTINUOUS
  5
1C4
 10
178.394156
 20
447.943261
 30
0.0
 11
180.7967
 21
450.345805
 31
0.0
  0
LINE
  8
LC-008-005-----0
  6
CONTINUOUS
  5
1C5
 10
178.17754
 20
448.009487
 30
0.0
 11
180.580084
 21
450.412031
 31
0.0
  0
LINE
  8
LC-008-005-----0
  6
CONTINUOUS
  5
1C6
 10
178.089024
 20
448.203815
 30
0.0
 11
180.363467
 21
450.478258
 31
0.0
  0
LINE
  8
LC-008-005-----0
  6
CONTINUOUS
  5
1C7
 10
178.089024
 20
448.486657
 30
0.0
 11
180.146851
 21
450.544484
 31
0.0
  0
LINE
  8
LC-008-005-----0
  6
CONTINUOUS
  5
1C8
 10
178.089024
 20
448.7695
 30
0.0
 11
179.930234
 21
450.61071
 31
0.0
  0
LINE
  8
LC-008-005-----0
  6
CONTINUOUS
  5
1C9
 10
178.089024
 20
449.052343
 30
0.0
 11
179.713618
 21
450.676936
 31
0.0
  0
LINE
  8
LC-008-005-----0
  6
CONTINUOUS
  5
1CA
 10
178.089024
 20
449.335186
 30
0.0
 11
179.497001
 21
450.743163
 31
0.0
  0
LINE
  8
LC-008-005-----0
  6
CONTINUOUS
  5
1CB
 10
178.089024
 20
449.618028
 30
0.0
 11
179.280385
 21
450.809389
 31
0.0
  0
LINE
  8
LC-008-005-----0
  6
CONTINUOUS
  5
1CC
 10
178.089024
 20
449.900871
 30
0.0
 11
179.063769
 21
450.875615
 31
0.0
  0
LINE
  8
LC-008-005-----0
  6
CONTINUOUS
  5
1CD
 10
178.089024
 20
450.183714
 30
0.0
 11
178.847152
 21
450.941842
 31
0.0
  0
LINE
  8
LC-008-005-----0
  6
CONTINUOUS
  5
1CE
 10
178.089024
 20
450.466556
 30
0.0
 11
178.630536
 21
451.008068
 31
0.0
  0
LINE
  8
LC-008-005-----0
  6
CONTINUOUS
  5
1CF
 10
178.089024
 20
450.749399
 30
0.0
 11
178.413919
 21
451.074294
 31
0.0
  0
LINE
  8
LC-008-005-----0
  6
CONTINUOUS
  5
1D0
 10
178.089024
 20
451.032242
 30
0.0
 11
178.197303
 21
451.14052
 31
0.0
  0
ENDBLK
  8
0
  5
1D1
  0
BLOCK
  8
0
  5
1D3
  2
*X16
 70
    65
 10
188.089024
 20
445.666987
 30
0.0
  3
*X16
  0
LINE
  8
LC-008-005-----0
  6
CONTINUOUS
  5
1D4
 10
193.088445
 20
445.666987
 30
0.0
 11
193.089024
 21
445.667566
 31
0.0
  0
LINE
  8
LC-008-005-----0
  6
CONTINUOUS
  5
1D5
 10
192.805602
 20
445.666987
 30
0.0
 11
193.089024
 21
445.950409
 31
0.0
  0
LINE
  8
LC-008-005-----0
  6
CONTINUOUS
  5
1D6
 10
192.522759
 20
445.666987
 30
0.0
 11
193.089024
 21
446.233252
 31
0.0
  0
LINE
  8
LC-008-005-----0
  6
CONTINUOUS
  5
1D7
 10
192.239917
 20
445.666987
 30
0.0
 11
193.089024
 21
446.516095
 31
0.0
  0
LINE
  8
LC-008-005-----0
  6
CONTINUOUS
  5
1D8
 10
191.957074
 20
445.666987
 30
0.0
 11
193.089024
 21
446.798937
 31
0.0
  0
LINE
  8
LC-008-005-----0
  6
CONTINUOUS
  5
1D9
 10
191.674231
 20
445.666987
 30
0.0
 11
193.089024
 21
447.08178
 31
0.0
  0
LINE
  8
LC-008-005-----0
  6
CONTINUOUS
  5
1DA
 10
191.391388
 20
445.666987
 30
0.0
 11
193.089024
 21
447.364623
 31
0.0
  0
LINE
  8
LC-008-005-----0
  6
CONTINUOUS
  5
1DB
 10
191.108546
 20
445.666987
 30
0.0
 11
193.089024
 21
447.647465
 31
0.0
  0
LINE
  8
LC-008-005-----0
  6
CONTINUOUS
  5
1DC
 10
190.825703
 20
445.666987
 30
0.0
 11
193.089024
 21
447.930308
 31
0.0
  0
LINE
  8
LC-008-005-----0
  6
CONTINUOUS
  5
1DD
 10
190.54286
 20
445.666987
 30
0.0
 11
193.089024
 21
448.213151
 31
0.0
  0
LINE
  8
LC-008-005-----0
  6
CONTINUOUS
  5
1DE
 10
190.260018
 20
445.666987
 30
0.0
 11
193.089024
 21
448.495994
 31
0.0
  0
LINE
  8
LC-008-005-----0
  6
CONTINUOUS
  5
1DF
 10
189.977175
 20
445.666987
 30
0.0
 11
192.977175
 21
448.666987
 31
0.0
  0
LINE
  8
LC-008-005-----0
  6
CONTINUOUS
  5
1E0
 10
189.694332
 20
445.666987
 30
0.0
 11
192.694332
 21
448.666987
 31
0.0
  0
LINE
  8
LC-008-005-----0
  6
CONTINUOUS
  5
1E1
 10
189.411489
 20
445.666987
 30
0.0
 11
192.411489
 21
448.666987
 31
0.0
  0
LINE
  8
LC-008-005-----0
  6
CONTINUOUS
  5
1E2
 10
189.128647
 20
445.666987
 30
0.0
 11
192.128647
 21
448.666987
 31
0.0
  0
LINE
  8
LC-008-005-----0
  6
CONTINUOUS
  5
1E3
 10
188.845804
 20
445.666987
 30
0.0
 11
191.845804
 21
448.666987
 31
0.0
  0
LINE
  8
LC-008-005-----0
  6
CONTINUOUS
  5
1E4
 10
188.562961
 20
445.666987
 30
0.0
 11
191.562961
 21
448.666987
 31
0.0
  0
LINE
  8
LC-008-005-----0
  6
CONTINUOUS
  5
1E5
 10
188.280119
 20
445.666987
 30
0.0
 11
191.280119
 21
448.666987
 31
0.0
  0
LINE
  8
LC-008-005-----0
  6
CONTINUOUS
  5
1E6
 10
188.089024
 20
445.758735
 30
0.0
 11
190.997276
 21
448.666987
 31
0.0
  0
LINE
  8
LC-008-005-----0
  6
CONTINUOUS
  5
1E7
 10
188.089024
 20
446.041578
 30
0.0
 11
190.714433
 21
448.666987
 31
0.0
  0
LINE
  8
LC-008-005-----0
  6
CONTINUOUS
  5
1E8
 10
188.089024
 20
446.324421
 30
0.0
 11
190.43159
 21
448.666987
 31
0.0
  0
LINE
  8
LC-008-005-----0
  6
CONTINUOUS
  5
1E9
 10
188.089024
 20
446.607263
 30
0.0
 11
190.148748
 21
448.666987
 31
0.0
  0
LINE
  8
LC-008-005-----0
  6
CONTINUOUS
  5
1EA
 10
188.089024
 20
446.890106
 30
0.0
 11
189.865905
 21
448.666987
 31
0.0
  0
LINE
  8
LC-008-005-----0
  6
CONTINUOUS
  5
1EB
 10
188.089024
 20
447.172949
 30
0.0
 11
189.583062
 21
448.666987
 31
0.0
  0
LINE
  8
LC-008-005-----0
  6
CONTINUOUS
  5
1EC
 10
188.089024
 20
447.455792
 30
0.0
 11
189.30022
 21
448.666987
 31
0.0
  0
LINE
  8
LC-008-005-----0
  6
CONTINUOUS
  5
1ED
 10
188.089024
 20
447.738634
 30
0.0
 11
189.017377
 21
448.666987
 31
0.0
  0
LINE
  8
LC-008-005-----0
  6
CONTINUOUS
  5
1EE
 10
188.089024
 20
448.021477
 30
0.0
 11
188.734534
 21
448.666987
 31
0.0
  0
LINE
  8
LC-008-005-----0
  6
CONTINUOUS
  5
1EF
 10
188.089024
 20
448.30432
 30
0.0
 11
188.451691
 21
448.666987
 31
0.0
  0
LINE
  8
LC-008-005-----0
  6
CONTINUOUS
  5
1F0
 10
188.089024
 20
448.587162
 30
0.0
 11
188.168849
 21
448.666987
 31
0.0
  0
ENDBLK
  8
0
  5
1F1
  0
BLOCK
  8
0
  5
1F3
  2
*X17
 70
    65
 10
203.839024
 20
447.166296
 30
0.0
  3
*X17
  0
LINE
  8
LC-008-005-----0
  6
CONTINUOUS
  5
1F4
 10
205.901463
 20
447.166296
 30
0.0
 11
206.089402
 21
447.354235
 31
0.0
  0
LINE
  8
LC-008-005-----0
  6
CONTINUOUS
  5
1F5
 10
205.61862
 20
447.166296
 30
0.0
 11
206.089402
 21
447.637078
 31
0.0
  0
LINE
  8
LC-008-005-----0
  6
CONTINUOUS
  5
1F6
 10
205.335777
 20
447.166296
 30
0.0
 11
206.089402
 21
447.919921
 31
0.0
  0
LINE
  8
LC-008-005-----0
  6
CONTINUOUS
  5
1F7
 10
205.052935
 20
447.166296
 30
0.0
 11
206.089402
 21
448.202763
 31
0.0
  0
LINE
  8
LC-008-005-----0
  6
CONTINUOUS
  5
1F8
 10
204.770092
 20
447.166296
 30
0.0
 11
206.089402
 21
448.485606
 31
0.0
  0
LINE
  8
LC-008-005-----0
  6
CONTINUOUS
  5
1F9
 10
204.487249
 20
447.166296
 30
0.0
 11
206.089402
 21
448.768449
 31
0.0
  0
LINE
  8
LC-008-005-----0
  6
CONTINUOUS
  5
1FA
 10
204.204406
 20
447.166296
 30
0.0
 11
206.089402
 21
449.051292
 31
0.0
  0
LINE
  8
LC-008-005-----0
  6
CONTINUOUS
  5
1FB
 10
203.921564
 20
447.166296
 30
0.0
 11
206.089402
 21
449.334134
 31
0.0
  0
LINE
  8
LC-008-005-----0
  6
CONTINUOUS
  5
1FC
 10
203.839024
 20
447.3666
 30
0.0
 11
206.089402
 21
449.616977
 31
0.0
  0
LINE
  8
LC-008-005-----0
  6
CONTINUOUS
  5
1FD
 10
203.839024
 20
447.649442
 30
0.0
 11
206.089402
 21
449.89982
 31
0.0
  0
LINE
  8
LC-008-005-----0
  6
CONTINUOUS
  5
1FE
 10
203.839024
 20
447.932285
 30
0.0
 11
206.073036
 21
450.166296
 31
0.0
  0
LINE
  8
LC-008-005-----0
  6
CONTINUOUS
  5
1FF
 10
203.839024
 20
448.215128
 30
0.0
 11
205.790193
 21
450.166296
 31
0.0
  0
LINE
  8
LC-008-005-----0
  6
CONTINUOUS
  5
200
 10
203.839024
 20
448.497971
 30
0.0
 11
205.50735
 21
450.166296
 31
0.0
  0
LINE
  8
LC-008-005-----0
  6
CONTINUOUS
  5
201
 10
203.839024
 20
448.780813
 30
0.0
 11
205.224507
 21
450.166296
 31
0.0
  0
LINE
  8
LC-008-005-----0
  6
CONTINUOUS
  5
202
 10
203.839024
 20
449.063656
 30
0.0
 11
204.941665
 21
450.166296
 31
0.0
  0
LINE
  8
LC-008-005-----0
  6
CONTINUOUS
  5
203
 10
203.839024
 20
449.346499
 30
0.0
 11
204.658822
 21
450.166296
 31
0.0
  0
LINE
  8
LC-008-005-----0
  6
CONTINUOUS
  5
204
 10
203.839024
 20
449.629341
 30
0.0
 11
204.375979
 21
450.166296
 31
0.0
  0
LINE
  8
LC-008-005-----0
  6
CONTINUOUS
  5
205
 10
203.839024
 20
449.912184
 30
0.0
 11
204.093137
 21
450.166296
 31
0.0
  0
ENDBLK
  8
0
  5
206
  0
BLOCK
  8
0
  5
208
  2
*X18
 70
    65
 10
158.089024
 20
451.949258
 30
0.0
  3
*X18
  0
LINE
  8
LC-008-005-----0
  6
CONTINUOUS
  5
209
 10
162.890492
 20
451.955744
 30
0.0
 11
163.089024
 21
452.154276
 31
0.0
  0
LINE
  8
LC-008-005-----0
  6
CONTINUOUS
  5
20A
 10
162.616597
 20
451.964692
 30
0.0
 11
163.089024
 21
452.437119
 31
0.0
  0
LINE
  8
LC-008-005-----0
  6
CONTINUOUS
  5
20B
 10
162.342702
 20
451.973639
 30
0.0
 11
163.089024
 21
452.719962
 31
0.0
  0
LINE
  8
LC-008-005-----0
  6
CONTINUOUS
  5
20C
 10
162.068807
 20
451.982587
 30
0.0
 11
163.089024
 21
453.002805
 31
0.0
  0
LINE
  8
LC-008-005-----0
  6
CONTINUOUS
  5
20D
 10
161.794912
 20
451.991535
 30
0.0
 11
163.089024
 21
453.285647
 31
0.0
  0
LINE
  8
LC-008-005-----0
  6
CONTINUOUS
  5
20E
 10
161.521017
 20
452.000483
 30
0.0
 11
163.089024
 21
453.56849
 31
0.0
  0
LINE
  8
LC-008-005-----0
  6
CONTINUOUS
  5
20F
 10
161.247122
 20
452.00943
 30
0.0
 11
163.089024
 21
453.851333
 31
0.0
  0
LINE
  8
LC-008-005-----0
  6
CONTINUOUS
  5
210
 10
160.973227
 20
452.018378
 30
0.0
 11
163.089024
 21
454.134175
 31
0.0
  0
LINE
  8
LC-008-005-----0
  6
CONTINUOUS
  5
211
 10
160.699332
 20
452.027326
 30
0.0
 11
163.089024
 21
454.417018
 31
0.0
  0
LINE
  8
LC-008-005-----0
  6
CONTINUOUS
  5
212
 10
160.425437
 20
452.036274
 30
0.0
 11
163.089024
 21
454.699861
 31
0.0
  0
LINE
  8
LC-008-005-----0
  6
CONTINUOUS
  5
213
 10
160.151542
 20
452.045221
 30
0.0
 11
163.058187
 21
454.951866
 31
0.0
  0
LINE
  8
LC-008-005-----0
  6
CONTINUOUS
  5
214
 10
159.877647
 20
452.054169
 30
0.0
 11
162.784292
 21
454.960814
 31
0.0
  0
LINE
  8
LC-008-005-----0
  6
CONTINUOUS
  5
215
 10
159.603752
 20
452.063117
 30
0.0
 11
162.510397
 21
454.969762
 31
0.0
  0
LINE
  8
LC-008-005-----0
  6
CONTINUOUS
  5
216
 10
159.329857
 20
452.072064
 30
0.0
 11
162.236502
 21
454.978709
 31
0.0
  0
LINE
  8
LC-008-005-----0
  6
CONTINUOUS
  5
217
 10
159.055962
 20
452.081012
 30
0.0
 11
161.962607
 21
454.987657
 31
0.0
  0
LINE
  8
LC-008-005-----0
  6
CONTINUOUS
  5
218
 10
158.782067
 20
452.08996
 30
0.0
 11
161.688712
 21
454.996605
 31
0.0
  0
LINE
  8
LC-008-005-----0
  6
CONTINUOUS
  5
219
 10
158.508172
 20
452.098908
 30
0.0
 11
161.414817
 21
455.005552
 31
0.0
  0
LINE
  8
LC-008-005-----0
  6
CONTINUOUS
  5
21A
 10
158.234277
 20
452.107855
 30
0.0
 11
161.140922
 21
455.0145
 31
0.0
  0
LINE
  8
LC-008-005-----0
  6
CONTINUOUS
  5
21B
 10
158.089024
 20
452.245445
 30
0.0
 11
160.867027
 21
455.023448
 31
0.0
  0
LINE
  8
LC-008-005-----0
  6
CONTINUOUS
  5
21C
 10
158.089024
 20
452.528288
 30
0.0
 11
160.593132
 21
455.032396
 31
0.0
  0
LINE
  8
LC-008-005-----0
  6
CONTINUOUS
  5
21D
 10
158.089024
 20
452.811131
 30
0.0
 11
160.319237
 21
455.041343
 31
0.0
  0
LINE
  8
LC-008-005-----0
  6
CONTINUOUS
  5
21E
 10
158.089024
 20
453.093973
 30
0.0
 11
160.045342
 21
455.050291
 31
0.0
  0
LINE
  8
LC-008-005-----0
  6
CONTINUOUS
  5
21F
 10
158.089024
 20
453.376816
 30
0.0
 11
159.771447
 21
455.059239
 31
0.0
  0
LINE
  8
LC-008-005-----0
  6
CONTINUOUS
  5
220
 10
158.089024
 20
453.659659
 30
0.0
 11
159.497552
 21
455.068187
 31
0.0
  0
LINE
  8
LC-008-005-----0
  6
CONTINUOUS
  5
221
 10
158.089024
 20
453.942501
 30
0.0
 11
159.223657
 21
455.077134
 31
0.0
  0
LINE
  8
LC-008-005-----0
  6
CONTINUOUS
  5
222
 10
158.089024
 20
454.225344
 30
0.0
 11
158.949762
 21
455.086082
 31
0.0
  0
LINE
  8
LC-008-005-----0
  6
CONTINUOUS
  5
223
 10
158.089024
 20
454.508187
 30
0.0
 11
158.675867
 21
455.09503
 31
0.0
  0
LINE
  8
LC-008-005-----0
  6
CONTINUOUS
  5
224
 10
158.089024
 20
454.79103
 30
0.0
 11
158.401972
 21
455.103977
 31
0.0
  0
LINE
  8
LC-008-005-----0
  6
CONTINUOUS
  5
225
 10
158.089024
 20
455.073872
 30
0.0
 11
158.128077
 21
455.112925
 31
0.0
  0
ENDBLK
  8
0
  5
226
  0
BLOCK
  8
0
  5
228
  2
*X19
 70
    65
 10
335.589621
 20
447.166296
 30
0.0
  3
*X19
  0
LINE
  8
LC-008-005-----0
  6
CONTINUOUS
  5
229
 10
337.706167
 20
447.166296
 30
0.0
 11
337.839999
 21
447.300128
 31
0.0
  0
LINE
  8
LC-008-005-----0
  6
CONTINUOUS
  5
22A
 10
337.423324
 20
447.166296
 30
0.0
 11
337.839999
 21
447.582971
 31
0.0
  0
LINE
  8
LC-008-005-----0
  6
CONTINUOUS
  5
22B
 10
337.140481
 20
447.166296
 30
0.0
 11
337.839999
 21
447.865814
 31
0.0
  0
LINE
  8
LC-008-005-----0
  6
CONTINUOUS
  5
22C
 10
336.857639
 20
447.166296
 30
0.0
 11
337.839999
 21
448.148656
 31
0.0
  0
LINE
  8
LC-008-005-----0
  6
CONTINUOUS
  5
22D
 10
336.574796
 20
447.166296
 30
0.0
 11
337.839999
 21
448.431499
 31
0.0
  0
LINE
  8
LC-008-005-----0
  6
CONTINUOUS
  5
22E
 10
336.291953
 20
447.166296
 30
0.0
 11
337.839999
 21
448.714342
 31
0.0
  0
LINE
  8
LC-008-005-----0
  6
CONTINUOUS
  5
22F
 10
336.00911
 20
447.166296
 30
0.0
 11
337.839999
 21
448.997185
 31
0.0
  0
LINE
  8
LC-008-005-----0
  6
CONTINUOUS
  5
230
 10
335.726268
 20
447.166296
 30
0.0
 11
337.839999
 21
449.280027
 31
0.0
  0
LINE
  8
LC-008-005-----0
  6
CONTINUOUS
  5
231
 10
335.589621
 20
447.312493
 30
0.0
 11
337.839999
 21
449.56287
 31
0.0
  0
LINE
  8
LC-008-005-----0
  6
CONTINUOUS
  5
232
 10
335.589621
 20
447.595335
 30
0.0
 11
337.839999
 21
449.845713
 31
0.0
  0
LINE
  8
LC-008-005-----0
  6
CONTINUOUS
  5
233
 10
335.589621
 20
447.878178
 30
0.0
 11
337.839999
 21
450.128555
 31
0.0
  0
LINE
  8
LC-008-005-----0
  6
CONTINUOUS
  5
234
 10
335.589621
 20
448.161021
 30
0.0
 11
337.594897
 21
450.166296
 31
0.0
  0
LINE
  8
LC-008-005-----0
  6
CONTINUOUS
  5
235
 10
335.589621
 20
448.443864
 30
0.0
 11
337.312054
 21
450.166296
 31
0.0
  0
LINE
  8
LC-008-005-----0
  6
CONTINUOUS
  5
236
 10
335.589621
 20
448.726706
 30
0.0
 11
337.029211
 21
450.166296
 31
0.0
  0
LINE
  8
LC-008-005-----0
  6
CONTINUOUS
  5
237
 10
335.589621
 20
449.009549
 30
0.0
 11
336.746369
 21
450.166296
 31
0.0
  0
LINE
  8
LC-008-005-----0
  6
CONTINUOUS
  5
238
 10
335.589621
 20
449.292392
 30
0.0
 11
336.463526
 21
450.166296
 31
0.0
  0
LINE
  8
LC-008-005-----0
  6
CONTINUOUS
  5
239
 10
335.589621
 20
449.575234
 30
0.0
 11
336.180683
 21
450.166296
 31
0.0
  0
LINE
  8
LC-008-005-----0
  6
CONTINUOUS
  5
23A
 10
335.589621
 20
449.858077
 30
0.0
 11
335.897841
 21
450.166296
 31
0.0
  0
LINE
  8
LC-008-005-----0
  6
CONTINUOUS
  5
23B
 10
335.589621
 20
450.14092
 30
0.0
 11
335.614998
 21
450.166296
 31
0.0
  0
ENDBLK
  8
0
  5
23C
  0
BLOCK
  8
0
  5
23E
  2
*X20
 70
    65
 10
348.590003
 20
445.666987
 30
0.0
  3
*X20
  0
LINE
  8
LC-008-005-----0
  6
CONTINUOUS
  5
23F
 10
353.460263
 20
445.666987
 30
0.0
 11
353.590003
 21
445.796727
 31
0.0
  0
LINE
  8
LC-008-005-----0
  6
CONTINUOUS
  5
240
 10
353.17742
 20
445.666987
 30
0.0
 11
353.590003
 21
446.07957
 31
0.0
  0
LINE
  8
LC-008-005-----0
  6
CONTINUOUS
  5
241
 10
352.894577
 20
445.666987
 30
0.0
 11
353.590003
 21
446.362413
 31
0.0
  0
LINE
  8
LC-008-005-----0
  6
CONTINUOUS
  5
242
 10
352.611734
 20
445.666987
 30
0.0
 11
353.590003
 21
446.645255
 31
0.0
  0
LINE
  8
LC-008-005-----0
  6
CONTINUOUS
  5
243
 10
352.328892
 20
445.666987
 30
0.0
 11
353.590003
 21
446.928098
 31
0.0
  0
LINE
  8
LC-008-005-----0
  6
CONTINUOUS
  5
244
 10
352.046049
 20
445.666987
 30
0.0
 11
353.590003
 21
447.210941
 31
0.0
  0
LINE
  8
LC-008-005-----0
  6
CONTINUOUS
  5
245
 10
351.763206
 20
445.666987
 30
0.0
 11
353.590003
 21
447.493784
 31
0.0
  0
LINE
  8
LC-008-005-----0
  6
CONTINUOUS
  5
246
 10
351.480364
 20
445.666987
 30
0.0
 11
353.590003
 21
447.776626
 31
0.0
  0
LINE
  8
LC-008-005-----0
  6
CONTINUOUS
  5
247
 10
351.197521
 20
445.666987
 30
0.0
 11
353.590003
 21
448.059469
 31
0.0
  0
LINE
  8
LC-008-005-----0
  6
CONTINUOUS
  5
248
 10
350.914678
 20
445.666987
 30
0.0
 11
353.590003
 21
448.342312
 31
0.0
  0
LINE
  8
LC-008-005-----0
  6
CONTINUOUS
  5
249
 10
350.631835
 20
445.666987
 30
0.0
 11
353.590003
 21
448.625154
 31
0.0
  0
LINE
  8
LC-008-005-----0
  6
CONTINUOUS
  5
24A
 10
350.348993
 20
445.666987
 30
0.0
 11
353.348993
 21
448.666987
 31
0.0
  0
LINE
  8
LC-008-005-----0
  6
CONTINUOUS
  5
24B
 10
350.06615
 20
445.666987
 30
0.0
 11
353.06615
 21
448.666987
 31
0.0
  0
LINE
  8
LC-008-005-----0
  6
CONTINUOUS
  5
24C
 10
349.783307
 20
445.666987
 30
0.0
 11
352.783307
 21
448.666987
 31
0.0
  0
LINE
  8
LC-008-005-----0
  6
CONTINUOUS
  5
24D
 10
349.500465
 20
445.666987
 30
0.0
 11
352.500465
 21
448.666987
 31
0.0
  0
LINE
  8
LC-008-005-----0
  6
CONTINUOUS
  5
24E
 10
349.217622
 20
445.666987
 30
0.0
 11
352.217622
 21
448.666987
 31
0.0
  0
LINE
  8
LC-008-005-----0
  6
CONTINUOUS
  5
24F
 10
348.934779
 20
445.666987
 30
0.0
 11
351.934779
 21
448.666987
 31
0.0
  0
LINE
  8
LC-008-005-----0
  6
CONTINUOUS
  5
250
 10
348.651937
 20
445.666987
 30
0.0
 11
351.651937
 21
448.666987
 31
0.0
  0
LINE
  8
LC-008-005-----0
  6
CONTINUOUS
  5
251
 10
348.590003
 20
445.887896
 30
0.0
 11
351.369094
 21
448.666987
 31
0.0
  0
LINE
  8
LC-008-005-----0
  6
CONTINUOUS
  5
252
 10
348.590003
 20
446.170739
 30
0.0
 11
351.086251
 21
448.666987
 31
0.0
  0
LINE
  8
LC-008-005-----0
  6
CONTINUOUS
  5
253
 10
348.590003
 20
446.453582
 30
0.0
 11
350.803408
 21
448.666987
 31
0.0
  0
LINE
  8
LC-008-005-----0
  6
CONTINUOUS
  5
254
 10
348.590003
 20
446.736424
 30
0.0
 11
350.520566
 21
448.666987
 31
0.0
  0
LINE
  8
LC-008-005-----0
  6
CONTINUOUS
  5
255
 10
348.590003
 20
447.019267
 30
0.0
 11
350.237723
 21
448.666987
 31
0.0
  0
LINE
  8
LC-008-005-----0
  6
CONTINUOUS
  5
256
 10
348.590003
 20
447.30211
 30
0.0
 11
349.95488
 21
448.666987
 31
0.0
  0
LINE
  8
LC-008-005-----0
  6
CONTINUOUS
  5
257
 10
348.590003
 20
447.584952
 30
0.0
 11
349.672038
 21
448.666987
 31
0.0
  0
LINE
  8
LC-008-005-----0
  6
CONTINUOUS
  5
258
 10
348.590003
 20
447.867795
 30
0.0
 11
349.389195
 21
448.666987
 31
0.0
  0
LINE
  8
LC-008-005-----0
  6
CONTINUOUS
  5
259
 10
348.590003
 20
448.150638
 30
0.0
 11
349.106352
 21
448.666987
 31
0.0
  0
LINE
  8
LC-008-005-----0
  6
CONTINUOUS
  5
25A
 10
348.590003
 20
448.433481
 30
0.0
 11
348.823509
 21
448.666987
 31
0.0
  0
ENDBLK
  8
0
  5
25B
  0
BLOCK
  8
0
  5
25D
  2
*X21
 70
    65
 10
358.590003
 20
446.507896
 30
0.0
  3
*X21
  0
LINE
  8
LC-008-005-----0
  6
CONTINUOUS
  5
25E
 10
363.412227
 20
447.982198
 30
0.0
 11
363.590003
 21
448.159974
 31
0.0
  0
LINE
  8
LC-008-005-----0
  6
CONTINUOUS
  5
25F
 10
363.00483
 20
447.857644
 30
0.0
 11
363.590003
 21
448.442817
 31
0.0
  0
LINE
  8
LC-008-005-----0
  6
CONTINUOUS
  5
260
 10
362.597434
 20
447.73309
 30
0.0
 11
363.590003
 21
448.72566
 31
0.0
  0
LINE
  8
LC-008-005-----0
  6
CONTINUOUS
  5
261
 10
362.190038
 20
447.608537
 30
0.0
 11
363.590003
 21
449.008502
 31
0.0
  0
LINE
  8
LC-008-005-----0
  6
CONTINUOUS
  5
262
 10
361.782642
 20
447.483983
 30
0.0
 11
363.590003
 21
449.291345
 31
0.0
  0
LINE
  8
LC-008-005-----0
  6
CONTINUOUS
  5
263
 10
361.375245
 20
447.35943
 30
0.0
 11
363.590003
 21
449.574188
 31
0.0
  0
LINE
  8
LC-008-005-----0
  6
CONTINUOUS
  5
264
 10
360.967849
 20
447.234876
 30
0.0
 11
363.590003
 21
449.85703
 31
0.0
  0
LINE
  8
LC-008-005-----0
  6
CONTINUOUS
  5
265
 10
360.560453
 20
447.110323
 30
0.0
 11
363.590003
 21
450.139873
 31
0.0
  0
LINE
  8
LC-008-005-----0
  6
CONTINUOUS
  5
266
 10
360.153057
 20
446.985769
 30
0.0
 11
363.590003
 21
450.422716
 31
0.0
  0
LINE
  8
LC-008-005-----0
  6
CONTINUOUS
  5
267
 10
359.74566
 20
446.861216
 30
0.0
 11
363.590003
 21
450.705559
 31
0.0
  0
LINE
  8
LC-008-005-----0
  6
CONTINUOUS
  5
268
 10
359.338264
 20
446.736662
 30
0.0
 11
363.590003
 21
450.988401
 31
0.0
  0
LINE
  8
LC-008-005-----0
  6
CONTINUOUS
  5
269
 10
358.930868
 20
446.612109
 30
0.0
 11
363.449396
 21
451.130637
 31
0.0
  0
LINE
  8
LC-008-005-----0
  6
CONTINUOUS
  5
26A
 10
358.590003
 20
446.554087
 30
0.0
 11
363.041999
 21
451.006083
 31
0.0
  0
LINE
  8
LC-008-005-----0
  6
CONTINUOUS
  5
26B
 10
358.590003
 20
446.836929
 30
0.0
 11
362.634603
 21
450.88153
 31
0.0
  0
LINE
  8
LC-008-005-----0
  6
CONTINUOUS
  5
26C
 10
358.590003
 20
447.119772
 30
0.0
 11
362.227207
 21
450.756976
 31
0.0
  0
LINE
  8
LC-008-005-----0
  6
CONTINUOUS
  5
26D
 10
358.590003
 20
447.402615
 30
0.0
 11
361.819811
 21
450.632422
 31
0.0
  0
LINE
  8
LC-008-005-----0
  6
CONTINUOUS
  5
26E
 10
358.590003
 20
447.685458
 30
0.0
 11
361.412414
 21
450.507869
 31
0.0
  0
LINE
  8
LC-008-005-----0
  6
CONTINUOUS
  5
26F
 10
358.590003
 20
447.9683
 30
0.0
 11
361.005018
 21
450.383315
 31
0.0
  0
LINE
  8
LC-008-005-----0
  6
CONTINUOUS
  5
270
 10
358.590003
 20
448.251143
 30
0.0
 11
360.597622
 21
450.258762
 31
0.0
  0
LINE
  8
LC-008-005-----0
  6
CONTINUOUS
  5
271
 10
358.590003
 20
448.533986
 30
0.0
 11
360.190226
 21
450.134208
 31
0.0
  0
LINE
  8
LC-008-005-----0
  6
CONTINUOUS
  5
272
 10
358.590003
 20
448.816828
 30
0.0
 11
359.78283
 21
450.009655
 31
0.0
  0
LINE
  8
LC-008-005-----0
  6
CONTINUOUS
  5
273
 10
358.590003
 20
449.099671
 30
0.0
 11
359.375433
 21
449.885101
 31
0.0
  0
LINE
  8
LC-008-005-----0
  6
CONTINUOUS
  5
274
 10
358.590003
 20
449.382514
 30
0.0
 11
358.968037
 21
449.760548
 31
0.0
  0
ENDBLK
  8
0
  5
275
  0
BLOCK
  8
0
  5
277
  2
*X22
 70
    65
 10
368.590003
 20
449.565203
 30
0.0
  3
*X22
  0
LINE
  8
LC-008-005-----0
  6
CONTINUOUS
  5
278
 10
373.189736
 20
450.971482
 30
0.0
 11
373.590003
 21
451.371749
 31
0.0
  0
LINE
  8
LC-008-005-----0
  6
CONTINUOUS
  5
279
 10
372.78234
 20
450.846929
 30
0.0
 11
373.590003
 21
451.654592
 31
0.0
  0
LINE
  8
LC-008-005-----0
  6
CONTINUOUS
  5
27A
 10
372.374944
 20
450.722375
 30
0.0
 11
373.590003
 21
451.937434
 31
0.0
  0
LINE
  8
LC-008-005-----0
  6
CONTINUOUS
  5
27B
 10
371.967548
 20
450.597822
 30
0.0
 11
373.590003
 21
452.220277
 31
0.0
  0
LINE
  8
LC-008-005-----0
  6
CONTINUOUS
  5
27C
 10
371.560151
 20
450.473268
 30
0.0
 11
373.590003
 21
452.50312
 31
0.0
  0
LINE
  8
LC-008-005-----0
  6
CONTINUOUS
  5
27D
 10
371.152755
 20
450.348715
 30
0.0
 11
373.590003
 21
452.785963
 31
0.0
  0
LINE
  8
LC-008-005-----0
  6
CONTINUOUS
  5
27E
 10
370.745359
 20
450.224161
 30
0.0
 11
373.590003
 21
453.068805
 31
0.0
  0
LINE
  8
LC-008-005-----0
  6
CONTINUOUS
  5
27F
 10
370.337963
 20
450.099608
 30
0.0
 11
373.590003
 21
453.351648
 31
0.0
  0
LINE
  8
LC-008-005-----0
  6
CONTINUOUS
  5
280
 10
369.930566
 20
449.975054
 30
0.0
 11
373.590003
 21
453.634491
 31
0.0
  0
LINE
  8
LC-008-005-----0
  6
CONTINUOUS
  5
281
 10
369.52317
 20
449.850501
 30
0.0
 11
373.590003
 21
453.917333
 31
0.0
  0
LINE
  8
LC-008-005-----0
  6
CONTINUOUS
  5
282
 10
369.115774
 20
449.725947
 30
0.0
 11
373.590003
 21
454.200176
 31
0.0
  0
LINE
  8
LC-008-005-----0
  6
CONTINUOUS
  5
283
 10
368.708378
 20
449.601393
 30
0.0
 11
373.226906
 21
454.119921
 31
0.0
  0
LINE
  8
LC-008-005-----0
  6
CONTINUOUS
  5
284
 10
368.590003
 20
449.765862
 30
0.0
 11
372.819509
 21
453.995368
 31
0.0
  0
LINE
  8
LC-008-005-----0
  6
CONTINUOUS
  5
285
 10
368.590003
 20
450.048704
 30
0.0
 11
372.412113
 21
453.870814
 31
0.0
  0
LINE
  8
LC-008-005-----0
  6
CONTINUOUS
  5
286
 10
368.590003
 20
450.331547
 30
0.0
 11
372.004717
 21
453.746261
 31
0.0
  0
LINE
  8
LC-008-005-----0
  6
CONTINUOUS
  5
287
 10
368.590003
 20
450.61439
 30
0.0
 11
371.597321
 21
453.621707
 31
0.0
  0
LINE
  8
LC-008-005-----0
  6
CONTINUOUS
  5
288
 10
368.590003
 20
450.897232
 30
0.0
 11
371.189924
 21
453.497154
 31
0.0
  0
LINE
  8
LC-008-005-----0
  6
CONTINUOUS
  5
289
 10
368.590003
 20
451.180075
 30
0.0
 11
370.782528
 21
453.3726
 31
0.0
  0
LINE
  8
LC-008-005-----0
  6
CONTINUOUS
  5
28A
 10
368.590003
 20
451.462918
 30
0.0
 11
370.375132
 21
453.248047
 31
0.0
  0
LINE
  8
LC-008-005-----0
  6
CONTINUOUS
  5
28B
 10
368.590003
 20
451.745761
 30
0.0
 11
369.967736
 21
453.123493
 31
0.0
  0
LINE
  8
LC-008-005-----0
  6
CONTINUOUS
  5
28C
 10
368.590003
 20
452.028603
 30
0.0
 11
369.560339
 21
452.99894
 31
0.0
  0
LINE
  8
LC-008-005-----0
  6
CONTINUOUS
  5
28D
 10
368.590003
 20
452.311446
 30
0.0
 11
369.152943
 21
452.874386
 31
0.0
  0
LINE
  8
LC-008-005-----0
  6
CONTINUOUS
  5
28E
 10
368.590003
 20
452.594289
 30
0.0
 11
368.745547
 21
452.749832
 31
0.0
  0
ENDBLK
  8
0
  5
28F
  0
BLOCK
  8
0
  5
291
  2
*X23
 70
    65
 10
378.590003
 20
451.949258
 30
0.0
  3
*X23
  0
LINE
  8
LC-008-005-----0
  6
CONTINUOUS
  5
292
 10
383.374791
 20
452.10557
 30
0.0
 11
383.590003
 21
452.320782
 31
0.0
  0
LINE
  8
LC-008-005-----0
  6
CONTINUOUS
  5
293
 10
383.082396
 20
452.096018
 30
0.0
 11
383.590003
 21
452.603625
 31
0.0
  0
LINE
  8
LC-008-005-----0
  6
CONTINUOUS
  5
294
 10
382.790001
 20
452.086466
 30
0.0
 11
383.590003
 21
452.886468
 31
0.0
  0
LINE
  8
LC-008-005-----0
  6
CONTINUOUS
  5
295
 10
382.497606
 20
452.076914
 30
0.0
 11
383.590003
 21
453.16931
 31
0.0
  0
LINE
  8
LC-008-005-----0
  6
CONTINUOUS
  5
296
 10
382.205212
 20
452.067362
 30
0.0
 11
383.590003
 21
453.452153
 31
0.0
  0
LINE
  8
LC-008-005-----0
  6
CONTINUOUS
  5
297
 10
381.912817
 20
452.057809
 30
0.0
 11
383.590003
 21
453.734996
 31
0.0
  0
LINE
  8
LC-008-005-----0
  6
CONTINUOUS
  5
298
 10
381.620422
 20
452.048257
 30
0.0
 11
383.590003
 21
454.017838
 31
0.0
  0
LINE
  8
LC-008-005-----0
  6
CONTINUOUS
  5
299
 10
381.328027
 20
452.038705
 30
0.0
 11
383.590003
 21
454.300681
 31
0.0
  0
LINE
  8
LC-008-005-----0
  6
CONTINUOUS
  5
29A
 10
381.035632
 20
452.029153
 30
0.0
 11
383.590003
 21
454.583524
 31
0.0
  0
LINE
  8
LC-008-005-----0
  6
CONTINUOUS
  5
29B
 10
380.743238
 20
452.019601
 30
0.0
 11
383.590003
 21
454.866367
 31
0.0
  0
LINE
  8
LC-008-005-----0
  6
CONTINUOUS
  5
29C
 10
380.450843
 20
452.010049
 30
0.0
 11
383.553812
 21
455.113019
 31
0.0
  0
LINE
  8
LC-008-005-----0
  6
CONTINUOUS
  5
29D
 10
380.158448
 20
452.000497
 30
0.0
 11
383.261418
 21
455.103467
 31
0.0
  0
LINE
  8
LC-008-005-----0
  6
CONTINUOUS
  5
29E
 10
379.866053
 20
451.990945
 30
0.0
 11
382.969023
 21
455.093914
 31
0.0
  0
LINE
  8
LC-008-005-----0
  6
CONTINUOUS
  5
29F
 10
379.573658
 20
451.981393
 30
0.0
 11
382.676628
 21
455.084362
 31
0.0
  0
LINE
  8
LC-008-005-----0
  6
CONTINUOUS
  5
2A0
 10
379.281264
 20
451.971841
 30
0.0
 11
382.384233
 21
455.07481
 31
0.0
  0
LINE
  8
LC-008-005-----0
  6
CONTINUOUS
  5
2A1
 10
378.988869
 20
451.962289
 30
0.0
 11
382.091838
 21
455.065258
 31
0.0
  0
LINE
  8
LC-008-005-----0
  6
CONTINUOUS
  5
2A2
 10
378.696474
 20
451.952737
 30
0.0
 11
381.799444
 21
455.055706
 31
0.0
  0
LINE
  8
LC-008-005-----0
  6
CONTINUOUS
  5
2A3
 10
378.590003
 20
452.129108
 30
0.0
 11
381.507049
 21
455.046154
 31
0.0
  0
LINE
  8
LC-008-005-----0
  6
CONTINUOUS
  5
2A4
 10
378.590003
 20
452.411951
 30
0.0
 11
381.214654
 21
455.036602
 31
0.0
  0
LINE
  8
LC-008-005-----0
  6
CONTINUOUS
  5
2A5
 10
378.590003
 20
452.694794
 30
0.0
 11
380.922259
 21
455.02705
 31
0.0
  0
LINE
  8
LC-008-005-----0
  6
CONTINUOUS
  5
2A6
 10
378.590003
 20
452.977636
 30
0.0
 11
380.629864
 21
455.017498
 31
0.0
  0
LINE
  8
LC-008-005-----0
  6
CONTINUOUS
  5
2A7
 10
378.590003
 20
453.260479
 30
0.0
 11
380.33747
 21
455.007946
 31
0.0
  0
LINE
  8
LC-008-005-----0
  6
CONTINUOUS
  5
2A8
 10
378.590003
 20
453.543322
 30
0.0
 11
380.045075
 21
454.998394
 31
0.0
  0
LINE
  8
LC-008-005-----0
  6
CONTINUOUS
  5
2A9
 10
378.590003
 20
453.826165
 30
0.0
 11
379.75268
 21
454.988842
 31
0.0
  0
LINE
  8
LC-008-005-----0
  6
CONTINUOUS
  5
2AA
 10
378.590003
 20
454.109007
 30
0.0
 11
379.460285
 21
454.979289
 31
0.0
  0
LINE
  8
LC-008-005-----0
  6
CONTINUOUS
  5
2AB
 10
378.590003
 20
454.39185
 30
0.0
 11
379.16789
 21
454.969737
 31
0.0
  0
LINE
  8
LC-008-005-----0
  6
CONTINUOUS
  5
2AC
 10
378.590003
 20
454.674693
 30
0.0
 11
378.875496
 21
454.960185
 31
0.0
  0
ENDBLK
  8
0
  5
2AD
  0
BLOCK
  8
0
  5
2AF
  2
*X24
 70
    65
 10
388.590003
 20
452.161287
 30
0.0
  3
*X24
  0
LINE
  8
LC-008-005-----0
  6
CONTINUOUS
  5
2B0
 10
393.330003
 20
452.161287
 30
0.0
 11
393.590003
 21
452.421287
 31
0.0
  0
LINE
  8
LC-008-005-----0
  6
CONTINUOUS
  5
2B1
 10
393.04716
 20
452.161287
 30
0.0
 11
393.590003
 21
452.70413
 31
0.0
  0
LINE
  8
LC-008-005-----0
  6
CONTINUOUS
  5
2B2
 10
392.764318
 20
452.161287
 30
0.0
 11
393.590003
 21
452.986973
 31
0.0
  0
LINE
  8
LC-008-005-----0
  6
CONTINUOUS
  5
2B3
 10
392.481475
 20
452.161287
 30
0.0
 11
393.590003
 21
453.269815
 31
0.0
  0
LINE
  8
LC-008-005-----0
  6
CONTINUOUS
  5
2B4
 10
392.198632
 20
452.161287
 30
0.0
 11
393.590003
 21
453.552658
 31
0.0
  0
LINE
  8
LC-008-005-----0
  6
CONTINUOUS
  5
2B5
 10
391.915789
 20
452.161287
 30
0.0
 11
393.590003
 21
453.835501
 31
0.0
  0
LINE
  8
LC-008-005-----0
  6
CONTINUOUS
  5
2B6
 10
391.632947
 20
452.161287
 30
0.0
 11
393.590003
 21
454.118344
 31
0.0
  0
LINE
  8
LC-008-005-----0
  6
CONTINUOUS
  5
2B7
 10
391.350104
 20
452.161287
 30
0.0
 11
393.590003
 21
454.401186
 31
0.0
  0
LINE
  8
LC-008-005-----0
  6
CONTINUOUS
  5
2B8
 10
391.067261
 20
452.161287
 30
0.0
 11
393.590003
 21
454.684029
 31
0.0
  0
LINE
  8
LC-008-005-----0
  6
CONTINUOUS
  5
2B9
 10
390.784419
 20
452.161287
 30
0.0
 11
393.590003
 21
454.966872
 31
0.0
  0
LINE
  8
LC-008-005-----0
  6
CONTINUOUS
  5
2BA
 10
390.501576
 20
452.161287
 30
0.0
 11
393.501576
 21
455.161287
 31
0.0
  0
LINE
  8
LC-008-005-----0
  6
CONTINUOUS
  5
2BB
 10
390.218733
 20
452.161287
 30
0.0
 11
393.218733
 21
455.161287
 31
0.0
  0
LINE
  8
LC-008-005-----0
  6
CONTINUOUS
  5
2BC
 10
389.93589
 20
452.161287
 30
0.0
 11
392.93589
 21
455.161287
 31
0.0
  0
LINE
  8
LC-008-005-----0
  6
CONTINUOUS
  5
2BD
 10
389.653048
 20
452.161287
 30
0.0
 11
392.653048
 21
455.161287
 31
0.0
  0
LINE
  8
LC-008-005-----0
  6
CONTINUOUS
  5
2BE
 10
389.370205
 20
452.161287
 30
0.0
 11
392.370205
 21
455.161287
 31
0.0
  0
LINE
  8
LC-008-005-----0
  6
CONTINUOUS
  5
2BF
 10
389.087362
 20
452.161287
 30
0.0
 11
392.087362
 21
455.161287
 31
0.0
  0
LINE
  8
LC-008-005-----0
  6
CONTINUOUS
  5
2C0
 10
388.80452
 20
452.161287
 30
0.0
 11
391.80452
 21
455.161287
 31
0.0
  0
LINE
  8
LC-008-005-----0
  6
CONTINUOUS
  5
2C1
 10
388.590003
 20
452.229613
 30
0.0
 11
391.521677
 21
455.161287
 31
0.0
  0
LINE
  8
LC-008-005-----0
  6
CONTINUOUS
  5
2C2
 10
388.590003
 20
452.512456
 30
0.0
 11
391.238834
 21
455.161287
 31
0.0
  0
LINE
  8
LC-008-005-----0
  6
CONTINUOUS
  5
2C3
 10
388.590003
 20
452.795299
 30
0.0
 11
390.955991
 21
455.161287
 31
0.0
  0
LINE
  8
LC-008-005-----0
  6
CONTINUOUS
  5
2C4
 10
388.590003
 20
453.078142
 30
0.0
 11
390.673149
 21
455.161287
 31
0.0
  0
LINE
  8
LC-008-005-----0
  6
CONTINUOUS
  5
2C5
 10
388.590003
 20
453.360984
 30
0.0
 11
390.390306
 21
455.161287
 31
0.0
  0
LINE
  8
LC-008-005-----0
  6
CONTINUOUS
  5
2C6
 10
388.590003
 20
453.643827
 30
0.0
 11
390.107463
 21
455.161287
 31
0.0
  0
LINE
  8
LC-008-005-----0
  6
CONTINUOUS
  5
2C7
 10
388.590003
 20
453.92667
 30
0.0
 11
389.824621
 21
455.161287
 31
0.0
  0
LINE
  8
LC-008-005-----0
  6
CONTINUOUS
  5
2C8
 10
388.590003
 20
454.209512
 30
0.0
 11
389.541778
 21
455.161287
 31
0.0
  0
LINE
  8
LC-008-005-----0
  6
CONTINUOUS
  5
2C9
 10
388.590003
 20
454.492355
 30
0.0
 11
389.258935
 21
455.161287
 31
0.0
  0
LINE
  8
LC-008-005-----0
  6
CONTINUOUS
  5
2CA
 10
388.590003
 20
454.775198
 30
0.0
 11
388.976092
 21
455.161287
 31
0.0
  0
LINE
  8
LC-008-005-----0
  6
CONTINUOUS
  5
2CB
 10
388.590003
 20
455.058041
 30
0.0
 11
388.69325
 21
455.161287
 31
0.0
  0
ENDBLK
  8
0
  5
2CC
  0
BLOCK
  8
0
  5
2CE
  2
*X25
 70
    65
 10
398.590003
 20
452.161287
 30
0.0
  3
*X25
  0
LINE
  8
LC-008-005-----0
  6
CONTINUOUS
  5
2CF
 10
403.512341
 20
452.161287
 30
0.0
 11
403.590003
 21
452.23895
 31
0.0
  0
LINE
  8
LC-008-005-----0
  6
CONTINUOUS
  5
2D0
 10
403.229498
 20
452.161287
 30
0.0
 11
403.590003
 21
452.521792
 31
0.0
  0
LINE
  8
LC-008-005-----0
  6
CONTINUOUS
  5
2D1
 10
402.946655
 20
452.161287
 30
0.0
 11
403.590003
 21
452.804635
 31
0.0
  0
LINE
  8
LC-008-005-----0
  6
CONTINUOUS
  5
2D2
 10
402.663813
 20
452.161287
 30
0.0
 11
403.590003
 21
453.087478
 31
0.0
  0
LINE
  8
LC-008-005-----0
  6
CONTINUOUS
  5
2D3
 10
402.38097
 20
452.161287
 30
0.0
 11
403.590003
 21
453.37032
 31
0.0
  0
LINE
  8
LC-008-005-----0
  6
CONTINUOUS
  5
2D4
 10
402.098127
 20
452.161287
 30
0.0
 11
403.590003
 21
453.653163
 31
0.0
  0
LINE
  8
LC-008-005-----0
  6
CONTINUOUS
  5
2D5
 10
401.815284
 20
452.161287
 30
0.0
 11
403.590003
 21
453.936006
 31
0.0
  0
LINE
  8
LC-008-005-----0
  6
CONTINUOUS
  5
2D6
 10
401.532442
 20
452.161287
 30
0.0
 11
403.590003
 21
454.218849
 31
0.0
  0
LINE
  8
LC-008-005-----0
  6
CONTINUOUS
  5
2D7
 10
401.249599
 20
452.161287
 30
0.0
 11
403.590003
 21
454.501691
 31
0.0
  0
LINE
  8
LC-008-005-----0
  6
CONTINUOUS
  5
2D8
 10
400.966756
 20
452.161287
 30
0.0
 11
403.590003
 21
454.784534
 31
0.0
  0
LINE
  8
LC-008-005-----0
  6
CONTINUOUS
  5
2D9
 10
400.683914
 20
452.161287
 30
0.0
 11
403.590003
 21
455.067377
 31
0.0
  0
LINE
  8
LC-008-005-----0
  6
CONTINUOUS
  5
2DA
 10
400.401071
 20
452.161287
 30
0.0
 11
403.401071
 21
455.161287
 31
0.0
  0
LINE
  8
LC-008-005-----0
  6
CONTINUOUS
  5
2DB
 10
400.118228
 20
452.161287
 30
0.0
 11
403.118228
 21
455.161287
 31
0.0
  0
LINE
  8
LC-008-005-----0
  6
CONTINUOUS
  5
2DC
 10
399.835385
 20
452.161287
 30
0.0
 11
402.835385
 21
455.161287
 31
0.0
  0
LINE
  8
LC-008-005-----0
  6
CONTINUOUS
  5
2DD
 10
399.552543
 20
452.161287
 30
0.0
 11
402.552543
 21
455.161287
 31
0.0
  0
LINE
  8
LC-008-005-----0
  6
CONTINUOUS
  5
2DE
 10
399.2697
 20
452.161287
 30
0.0
 11
402.2697
 21
455.161287
 31
0.0
  0
LINE
  8
LC-008-005-----0
  6
CONTINUOUS
  5
2DF
 10
398.986857
 20
452.161287
 30
0.0
 11
401.986857
 21
455.161287
 31
0.0
  0
LINE
  8
LC-008-005-----0
  6
CONTINUOUS
  5
2E0
 10
398.704015
 20
452.161287
 30
0.0
 11
401.704015
 21
455.161287
 31
0.0
  0
LINE
  8
LC-008-005-----0
  6
CONTINUOUS
  5
2E1
 10
398.590003
 20
452.330118
 30
0.0
 11
401.421172
 21
455.161287
 31
0.0
  0
LINE
  8
LC-008-005-----0
  6
CONTINUOUS
  5
2E2
 10
398.590003
 20
452.612961
 30
0.0
 11
401.138329
 21
455.161287
 31
0.0
  0
LINE
  8
LC-008-005-----0
  6
CONTINUOUS
  5
2E3
 10
398.590003
 20
452.895804
 30
0.0
 11
400.855486
 21
455.161287
 31
0.0
  0
LINE
  8
LC-008-005-----0
  6
CONTINUOUS
  5
2E4
 10
398.590003
 20
453.178647
 30
0.0
 11
400.572644
 21
455.161287
 31
0.0
  0
LINE
  8
LC-008-005-----0
  6
CONTINUOUS
  5
2E5
 10
398.590003
 20
453.461489
 30
0.0
 11
400.289801
 21
455.161287
 31
0.0
  0
LINE
  8
LC-008-005-----0
  6
CONTINUOUS
  5
2E6
 10
398.590003
 20
453.744332
 30
0.0
 11
400.006958
 21
455.161287
 31
0.0
  0
LINE
  8
LC-008-005-----0
  6
CONTINUOUS
  5
2E7
 10
398.590003
 20
454.027175
 30
0.0
 11
399.724116
 21
455.161287
 31
0.0
  0
LINE
  8
LC-008-005-----0
  6
CONTINUOUS
  5
2E8
 10
398.590003
 20
454.310017
 30
0.0
 11
399.441273
 21
455.161287
 31
0.0
  0
LINE
  8
LC-008-005-----0
  6
CONTINUOUS
  5
2E9
 10
398.590003
 20
454.59286
 30
0.0
 11
399.15843
 21
455.161287
 31
0.0
  0
LINE
  8
LC-008-005-----0
  6
CONTINUOUS
  5
2EA
 10
398.590003
 20
454.875703
 30
0.0
 11
398.875587
 21
455.161287
 31
0.0
  0
LINE
  8
LC-008-005-----0
  6
CONTINUOUS
  5
2EB
 10
398.590003
 20
455.158546
 30
0.0
 11
398.592745
 21
455.161287
 31
0.0
  0
ENDBLK
  8
0
  5
2EC
  0
BLOCK
  8
0
  5
2EE
  2
*X26
 70
    65
 10
408.590003
 20
452.161287
 30
0.0
  3
*X26
  0
LINE
  8
LC-008-005-----0
  6
CONTINUOUS
  5
2EF
 10
413.411836
 20
452.161287
 30
0.0
 11
413.590003
 21
452.339455
 31
0.0
  0
LINE
  8
LC-008-005-----0
  6
CONTINUOUS
  5
2F0
 10
413.128993
 20
452.161287
 30
0.0
 11
413.590003
 21
452.622297
 31
0.0
  0
LINE
  8
LC-008-005-----0
  6
CONTINUOUS
  5
2F1
 10
412.84615
 20
452.161287
 30
0.0
 11
413.590003
 21
452.90514
 31
0.0
  0
LINE
  8
LC-008-005-----0
  6
CONTINUOUS
  5
2F2
 10
412.563307
 20
452.161287
 30
0.0
 11
413.590003
 21
453.187983
 31
0.0
  0
LINE
  8
LC-008-005-----0
  6
CONTINUOUS
  5
2F3
 10
412.280465
 20
452.161287
 30
0.0
 11
413.590003
 21
453.470826
 31
0.0
  0
LINE
  8
LC-008-005-----0
  6
CONTINUOUS
  5
2F4
 10
411.997622
 20
452.161287
 30
0.0
 11
413.590003
 21
453.753668
 31
0.0
  0
LINE
  8
LC-008-005-----0
  6
CONTINUOUS
  5
2F5
 10
411.714779
 20
452.161287
 30
0.0
 11
413.590003
 21
454.036511
 31
0.0
  0
LINE
  8
LC-008-005-----0
  6
CONTINUOUS
  5
2F6
 10
411.431937
 20
452.161287
 30
0.0
 11
413.590003
 21
454.319354
 31
0.0
  0
LINE
  8
LC-008-005-----0
  6
CONTINUOUS
  5
2F7
 10
411.149094
 20
452.161287
 30
0.0
 11
413.590003
 21
454.602196
 31
0.0
  0
LINE
  8
LC-008-005-----0
  6
CONTINUOUS
  5
2F8
 10
410.866251
 20
452.161287
 30
0.0
 11
413.590003
 21
454.885039
 31
0.0
  0
LINE
  8
LC-008-005-----0
  6
CONTINUOUS
  5
2F9
 10
410.583408
 20
452.161287
 30
0.0
 11
413.583408
 21
455.161287
 31
0.0
  0
LINE
  8
LC-008-005-----0
  6
CONTINUOUS
  5
2FA
 10
410.300566
 20
452.161287
 30
0.0
 11
413.300566
 21
455.161287
 31
0.0
  0
LINE
  8
LC-008-005-----0
  6
CONTINUOUS
  5
2FB
 10
410.017723
 20
452.161287
 30
0.0
 11
413.017723
 21
455.161287
 31
0.0
  0
LINE
  8
LC-008-005-----0
  6
CONTINUOUS
  5
2FC
 10
409.73488
 20
452.161287
 30
0.0
 11
412.73488
 21
455.161287
 31
0.0
  0
LINE
  8
LC-008-005-----0
  6
CONTINUOUS
  5
2FD
 10
409.452038
 20
452.161287
 30
0.0
 11
412.452038
 21
455.161287
 31
0.0
  0
LINE
  8
LC-008-005-----0
  6
CONTINUOUS
  5
2FE
 10
409.169195
 20
452.161287
 30
0.0
 11
412.169195
 21
455.161287
 31
0.0
  0
LINE
  8
LC-008-005-----0
  6
CONTINUOUS
  5
2FF
 10
408.886352
 20
452.161287
 30
0.0
 11
411.886352
 21
455.161287
 31
0.0
  0
LINE
  8
LC-008-005-----0
  6
CONTINUOUS
  5
300
 10
408.603509
 20
452.161287
 30
0.0
 11
411.603509
 21
455.161287
 31
0.0
  0
LINE
  8
LC-008-005-----0
  6
CONTINUOUS
  5
301
 10
408.590003
 20
452.430624
 30
0.0
 11
411.320667
 21
455.161287
 31
0.0
  0
LINE
  8
LC-008-005-----0
  6
CONTINUOUS
  5
302
 10
408.590003
 20
452.713466
 30
0.0
 11
411.037824
 21
455.161287
 31
0.0
  0
LINE
  8
LC-008-005-----0
  6
CONTINUOUS
  5
303
 10
408.590003
 20
452.996309
 30
0.0
 11
410.754981
 21
455.161287
 31
0.0
  0
LINE
  8
LC-008-005-----0
  6
CONTINUOUS
  5
304
 10
408.590003
 20
453.279152
 30
0.0
 11
410.472139
 21
455.161287
 31
0.0
  0
LINE
  8
LC-008-005-----0
  6
CONTINUOUS
  5
305
 10
408.590003
 20
453.561994
 30
0.0
 11
410.189296
 21
455.161287
 31
0.0
  0
LINE
  8
LC-008-005-----0
  6
CONTINUOUS
  5
306
 10
408.590003
 20
453.844837
 30
0.0
 11
409.906453
 21
455.161287
 31
0.0
  0
LINE
  8
LC-008-005-----0
  6
CONTINUOUS
  5
307
 10
408.590003
 20
454.12768
 30
0.0
 11
409.62361
 21
455.161287
 31
0.0
  0
LINE
  8
LC-008-005-----0
  6
CONTINUOUS
  5
308
 10
408.590003
 20
454.410523
 30
0.0
 11
409.340768
 21
455.161287
 31
0.0
  0
LINE
  8
LC-008-005-----0
  6
CONTINUOUS
  5
309
 10
408.590003
 20
454.693365
 30
0.0
 11
409.057925
 21
455.161287
 31
0.0
  0
LINE
  8
LC-008-005-----0
  6
CONTINUOUS
  5
30A
 10
408.590003
 20
454.976208
 30
0.0
 11
408.775082
 21
455.161287
 31
0.0
  0
ENDBLK
  8
0
  5
30B
  0
BLOCK
  8
0
  5
30D
  2
*X27
 70
    65
 10
418.590003
 20
452.161287
 30
0.0
  3
*X27
  0
LINE
  8
LC-008-005-----0
  6
CONTINUOUS
  5
30E
 10
423.311331
 20
452.161287
 30
0.0
 11
423.590003
 21
452.43996
 31
0.0
  0
LINE
  8
LC-008-005-----0
  6
CONTINUOUS
  5
30F
 10
423.028488
 20
452.161287
 30
0.0
 11
423.590003
 21
452.722802
 31
0.0
  0
LINE
  8
LC-008-005-----0
  6
CONTINUOUS
  5
310
 10
422.745645
 20
452.161287
 30
0.0
 11
423.590003
 21
453.005645
 31
0.0
  0
LINE
  8
LC-008-005-----0
  6
CONTINUOUS
  5
311
 10
422.462802
 20
452.161287
 30
0.0
 11
423.590003
 21
453.288488
 31
0.0
  0
LINE
  8
LC-008-005-----0
  6
CONTINUOUS
  5
312
 10
422.17996
 20
452.161287
 30
0.0
 11
423.590003
 21
453.571331
 31
0.0
  0
LINE
  8
LC-008-005-----0
  6
CONTINUOUS
  5
313
 10
421.897117
 20
452.161287
 30
0.0
 11
423.590003
 21
453.854173
 31
0.0
  0
LINE
  8
LC-008-005-----0
  6
CONTINUOUS
  5
314
 10
421.614274
 20
452.161287
 30
0.0
 11
423.590003
 21
454.137016
 31
0.0
  0
LINE
  8
LC-008-005-----0
  6
CONTINUOUS
  5
315
 10
421.331432
 20
452.161287
 30
0.0
 11
423.590003
 21
454.419859
 31
0.0
  0
LINE
  8
LC-008-005-----0
  6
CONTINUOUS
  5
316
 10
421.048589
 20
452.161287
 30
0.0
 11
423.590003
 21
454.702701
 31
0.0
  0
LINE
  8
LC-008-005-----0
  6
CONTINUOUS
  5
317
 10
420.765746
 20
452.161287
 30
0.0
 11
423.590003
 21
454.985544
 31
0.0
  0
LINE
  8
LC-008-005-----0
  6
CONTINUOUS
  5
318
 10
420.482903
 20
452.161287
 30
0.0
 11
423.482903
 21
455.161287
 31
0.0
  0
LINE
  8
LC-008-005-----0
  6
CONTINUOUS
  5
319
 10
420.200061
 20
452.161287
 30
0.0
 11
423.200061
 21
455.161287
 31
0.0
  0
LINE
  8
LC-008-005-----0
  6
CONTINUOUS
  5
31A
 10
419.917218
 20
452.161287
 30
0.0
 11
422.917218
 21
455.161287
 31
0.0
  0
LINE
  8
LC-008-005-----0
  6
CONTINUOUS
  5
31B
 10
419.634375
 20
452.161287
 30
0.0
 11
422.634375
 21
455.161287
 31
0.0
  0
LINE
  8
LC-008-005-----0
  6
CONTINUOUS
  5
31C
 10
419.351533
 20
452.161287
 30
0.0
 11
422.351533
 21
455.161287
 31
0.0
  0
LINE
  8
LC-008-005-----0
  6
CONTINUOUS
  5
31D
 10
419.06869
 20
452.161287
 30
0.0
 11
422.06869
 21
455.161287
 31
0.0
  0
LINE
  8
LC-008-005-----0
  6
CONTINUOUS
  5
31E
 10
418.785847
 20
452.161287
 30
0.0
 11
421.785847
 21
455.161287
 31
0.0
  0
LINE
  8
LC-008-005-----0
  6
CONTINUOUS
  5
31F
 10
418.590003
 20
452.248286
 30
0.0
 11
421.503004
 21
455.161287
 31
0.0
  0
LINE
  8
LC-008-005-----0
  6
CONTINUOUS
  5
320
 10
418.590003
 20
452.531129
 30
0.0
 11
421.220162
 21
455.161287
 31
0.0
  0
LINE
  8
LC-008-005-----0
  6
CONTINUOUS
  5
321
 10
418.590003
 20
452.813971
 30
0.0
 11
420.937319
 21
455.161287
 31
0.0
  0
LINE
  8
LC-008-005-----0
  6
CONTINUOUS
  5
322
 10
418.590003
 20
453.096814
 30
0.0
 11
420.654476
 21
455.161287
 31
0.0
  0
LINE
  8
LC-008-005-----0
  6
CONTINUOUS
  5
323
 10
418.590003
 20
453.379657
 30
0.0
 11
420.371634
 21
455.161287
 31
0.0
  0
LINE
  8
LC-008-005-----0
  6
CONTINUOUS
  5
324
 10
418.590003
 20
453.662499
 30
0.0
 11
420.088791
 21
455.161287
 31
0.0
  0
LINE
  8
LC-008-005-----0
  6
CONTINUOUS
  5
325
 10
418.590003
 20
453.945342
 30
0.0
 11
419.805948
 21
455.161287
 31
0.0
  0
LINE
  8
LC-008-005-----0
  6
CONTINUOUS
  5
326
 10
418.590003
 20
454.228185
 30
0.0
 11
419.523105
 21
455.161287
 31
0.0
  0
LINE
  8
LC-008-005-----0
  6
CONTINUOUS
  5
327
 10
418.590003
 20
454.511028
 30
0.0
 11
419.240263
 21
455.161287
 31
0.0
  0
LINE
  8
LC-008-005-----0
  6
CONTINUOUS
  5
328
 10
418.590003
 20
454.79387
 30
0.0
 11
418.95742
 21
455.161287
 31
0.0
  0
LINE
  8
LC-008-005-----0
  6
CONTINUOUS
  5
329
 10
418.590003
 20
455.076713
 30
0.0
 11
418.674577
 21
455.161287
 31
0.0
  0
ENDBLK
  8
0
  5
32A
  0
BLOCK
  8
0
  5
32C
  2
*X28
 70
    65
 10
428.590003
 20
452.161287
 30
0.0
  3
*X28
  0
LINE
  8
LC-008-005-----0
  6
CONTINUOUS
  5
32D
 10
433.493668
 20
452.161287
 30
0.0
 11
433.590003
 21
452.257622
 31
0.0
  0
LINE
  8
LC-008-005-----0
  6
CONTINUOUS
  5
32E
 10
433.210825
 20
452.161287
 30
0.0
 11
433.590003
 21
452.540465
 31
0.0
  0
LINE
  8
LC-008-005-----0
  6
CONTINUOUS
  5
32F
 10
432.927983
 20
452.161287
 30
0.0
 11
433.590003
 21
452.823308
 31
0.0
  0
LINE
  8
LC-008-005-----0
  6
CONTINUOUS
  5
330
 10
432.64514
 20
452.161287
 30
0.0
 11
433.590003
 21
453.10615
 31
0.0
  0
LINE
  8
LC-008-005-----0
  6
CONTINUOUS
  5
331
 10
432.362297
 20
452.161287
 30
0.0
 11
433.590003
 21
453.388993
 31
0.0
  0
LINE
  8
LC-008-005-----0
  6
CONTINUOUS
  5
332
 10
432.079455
 20
452.161287
 30
0.0
 11
433.590003
 21
453.671836
 31
0.0
  0
LINE
  8
LC-008-005-----0
  6
CONTINUOUS
  5
333
 10
431.796612
 20
452.161287
 30
0.0
 11
433.590003
 21
453.954678
 31
0.0
  0
LINE
  8
LC-008-005-----0
  6
CONTINUOUS
  5
334
 10
431.513769
 20
452.161287
 30
0.0
 11
433.590003
 21
454.237521
 31
0.0
  0
LINE
  8
LC-008-005-----0
  6
CONTINUOUS
  5
335
 10
431.230926
 20
452.161287
 30
0.0
 11
433.590003
 21
454.520364
 31
0.0
  0
LINE
  8
LC-008-005-----0
  6
CONTINUOUS
  5
336
 10
430.948084
 20
452.161287
 30
0.0
 11
433.590003
 21
454.803207
 31
0.0
  0
LINE
  8
LC-008-005-----0
  6
CONTINUOUS
  5
337
 10
430.665241
 20
452.161287
 30
0.0
 11
433.590003
 21
455.086049
 31
0.0
  0
LINE
  8
LC-008-005-----0
  6
CONTINUOUS
  5
338
 10
430.382398
 20
452.161287
 30
0.0
 11
433.382398
 21
455.161287
 31
0.0
  0
LINE
  8
LC-008-005-----0
  6
CONTINUOUS
  5
339
 10
430.099556
 20
452.161287
 30
0.0
 11
433.099556
 21
455.161287
 31
0.0
  0
LINE
  8
LC-008-005-----0
  6
CONTINUOUS
  5
33A
 10
429.816713
 20
452.161287
 30
0.0
 11
432.816713
 21
455.161287
 31
0.0
  0
LINE
  8
LC-008-005-----0
  6
CONTINUOUS
  5
33B
 10
429.53387
 20
452.161287
 30
0.0
 11
432.53387
 21
455.161287
 31
0.0
  0
LINE
  8
LC-008-005-----0
  6
CONTINUOUS
  5
33C
 10
429.251027
 20
452.161287
 30
0.0
 11
432.251027
 21
455.161287
 31
0.0
  0
LINE
  8
LC-008-005-----0
  6
CONTINUOUS
  5
33D
 10
428.968185
 20
452.161287
 30
0.0
 11
431.968185
 21
455.161287
 31
0.0
  0
LINE
  8
LC-008-005-----0
  6
CONTINUOUS
  5
33E
 10
428.685342
 20
452.161287
 30
0.0
 11
431.685342
 21
455.161287
 31
0.0
  0
LINE
  8
LC-008-005-----0
  6
CONTINUOUS
  5
33F
 10
428.590003
 20
452.348791
 30
0.0
 11
431.402499
 21
455.161287
 31
0.0
  0
LINE
  8
LC-008-005-----0
  6
CONTINUOUS
  5
340
 10
428.590003
 20
452.631634
 30
0.0
 11
431.119657
 21
455.161287
 31
0.0
  0
LINE
  8
LC-008-005-----0
  6
CONTINUOUS
  5
341
 10
428.590003
 20
452.914476
 30
0.0
 11
430.836814
 21
455.161287
 31
0.0
  0
LINE
  8
LC-008-005-----0
  6
CONTINUOUS
  5
342
 10
428.590003
 20
453.197319
 30
0.0
 11
430.553971
 21
455.161287
 31
0.0
  0
LINE
  8
LC-008-005-----0
  6
CONTINUOUS
  5
343
 10
428.590003
 20
453.480162
 30
0.0
 11
430.271129
 21
455.161287
 31
0.0
  0
LINE
  8
LC-008-005-----0
  6
CONTINUOUS
  5
344
 10
428.590003
 20
453.763004
 30
0.0
 11
429.988286
 21
455.161287
 31
0.0
  0
LINE
  8
LC-008-005-----0
  6
CONTINUOUS
  5
345
 10
428.590003
 20
454.045847
 30
0.0
 11
429.705443
 21
455.161287
 31
0.0
  0
LINE
  8
LC-008-005-----0
  6
CONTINUOUS
  5
346
 10
428.590003
 20
454.32869
 30
0.0
 11
429.4226
 21
455.161287
 31
0.0
  0
LINE
  8
LC-008-005-----0
  6
CONTINUOUS
  5
347
 10
428.590003
 20
454.611533
 30
0.0
 11
429.139758
 21
455.161287
 31
0.0
  0
LINE
  8
LC-008-005-----0
  6
CONTINUOUS
  5
348
 10
428.590003
 20
454.894375
 30
0.0
 11
428.856915
 21
455.161287
 31
0.0
  0
ENDBLK
  8
0
  5
349
  0
BLOCK
  8
0
  5
34B
  2
*X29
 70
    65
 10
438.590003
 20
452.161287
 30
0.0
  3
*X29
  0
LINE
  8
LC-008-005-----0
  6
CONTINUOUS
  5
34C
 10
443.393163
 20
452.161287
 30
0.0
 11
443.590003
 21
452.358127
 31
0.0
  0
LINE
  8
LC-008-005-----0
  6
CONTINUOUS
  5
34D
 10
443.11032
 20
452.161287
 30
0.0
 11
443.590003
 21
452.64097
 31
0.0
  0
LINE
  8
LC-008-005-----0
  6
CONTINUOUS
  5
34E
 10
442.827478
 20
452.161287
 30
0.0
 11
443.590003
 21
452.923813
 31
0.0
  0
LINE
  8
LC-008-005-----0
  6
CONTINUOUS
  5
34F
 10
442.544635
 20
452.161287
 30
0.0
 11
443.590003
 21
453.206655
 31
0.0
  0
LINE
  8
LC-008-005-----0
  6
CONTINUOUS
  5
350
 10
442.261792
 20
452.161287
 30
0.0
 11
443.590003
 21
453.489498
 31
0.0
  0
LINE
  8
LC-008-005-----0
  6
CONTINUOUS
  5
351
 10
441.97895
 20
452.161287
 30
0.0
 11
443.590003
 21
453.772341
 31
0.0
  0
LINE
  8
LC-008-005-----0
  6
CONTINUOUS
  5
352
 10
441.696107
 20
452.161287
 30
0.0
 11
443.590003
 21
454.055183
 31
0.0
  0
LINE
  8
LC-008-005-----0
  6
CONTINUOUS
  5
353
 10
441.413264
 20
452.161287
 30
0.0
 11
443.590003
 21
454.338026
 31
0.0
  0
LINE
  8
LC-008-005-----0
  6
CONTINUOUS
  5
354
 10
441.130421
 20
452.161287
 30
0.0
 11
443.590003
 21
454.620869
 31
0.0
  0
LINE
  8
LC-008-005-----0
  6
CONTINUOUS
  5
355
 10
440.847579
 20
452.161287
 30
0.0
 11
443.590003
 21
454.903712
 31
0.0
  0
LINE
  8
LC-008-005-----0
  6
CONTINUOUS
  5
356
 10
440.564736
 20
452.161287
 30
0.0
 11
443.564736
 21
455.161287
 31
0.0
  0
LINE
  8
LC-008-005-----0
  6
CONTINUOUS
  5
357
 10
440.281893
 20
452.161287
 30
0.0
 11
443.281893
 21
455.161287
 31
0.0
  0
LINE
  8
LC-008-005-----0
  6
CONTINUOUS
  5
358
 10
439.999051
 20
452.161287
 30
0.0
 11
442.999051
 21
455.161287
 31
0.0
  0
LINE
  8
LC-008-005-----0
  6
CONTINUOUS
  5
359
 10
439.716208
 20
452.161287
 30
0.0
 11
442.716208
 21
455.161287
 31
0.0
  0
LINE
  8
LC-008-005-----0
  6
CONTINUOUS
  5
35A
 10
439.433365
 20
452.161287
 30
0.0
 11
442.433365
 21
455.161287
 31
0.0
  0
LINE
  8
LC-008-005-----0
  6
CONTINUOUS
  5
35B
 10
439.150522
 20
452.161287
 30
0.0
 11
442.150522
 21
455.161287
 31
0.0
  0
LINE
  8
LC-008-005-----0
  6
CONTINUOUS
  5
35C
 10
438.86768
 20
452.161287
 30
0.0
 11
441.86768
 21
455.161287
 31
0.0
  0
LINE
  8
LC-008-005-----0
  6
CONTINUOUS
  5
35D
 10
438.590003
 20
452.166453
 30
0.0
 11
441.584837
 21
455.161287
 31
0.0
  0
LINE
  8
LC-008-005-----0
  6
CONTINUOUS
  5
35E
 10
438.590003
 20
452.449296
 30
0.0
 11
441.301994
 21
455.161287
 31
0.0
  0
LINE
  8
LC-008-005-----0
  6
CONTINUOUS
  5
35F
 10
438.590003
 20
452.732139
 30
0.0
 11
441.019152
 21
455.161287
 31
0.0
  0
LINE
  8
LC-008-005-----0
  6
CONTINUOUS
  5
360
 10
438.590003
 20
453.014981
 30
0.0
 11
440.736309
 21
455.161287
 31
0.0
  0
LINE
  8
LC-008-005-----0
  6
CONTINUOUS
  5
361
 10
438.590003
 20
453.297824
 30
0.0
 11
440.453466
 21
455.161287
 31
0.0
  0
LINE
  8
LC-008-005-----0
  6
CONTINUOUS
  5
362
 10
438.590003
 20
453.580667
 30
0.0
 11
440.170623
 21
455.161287
 31
0.0
  0
LINE
  8
LC-008-005-----0
  6
CONTINUOUS
  5
363
 10
438.590003
 20
453.86351
 30
0.0
 11
439.887781
 21
455.161287
 31
0.0
  0
LINE
  8
LC-008-005-----0
  6
CONTINUOUS
  5
364
 10
438.590003
 20
454.146352
 30
0.0
 11
439.604938
 21
455.161287
 31
0.0
  0
LINE
  8
LC-008-005-----0
  6
CONTINUOUS
  5
365
 10
438.590003
 20
454.429195
 30
0.0
 11
439.322095
 21
455.161287
 31
0.0
  0
LINE
  8
LC-008-005-----0
  6
CONTINUOUS
  5
366
 10
438.590003
 20
454.712038
 30
0.0
 11
439.039253
 21
455.161287
 31
0.0
  0
LINE
  8
LC-008-005-----0
  6
CONTINUOUS
  5
367
 10
438.590003
 20
454.99488
 30
0.0
 11
438.75641
 21
455.161287
 31
0.0
  0
ENDBLK
  8
0
  5
368
  0
BLOCK
  8
0
  5
36A
  2
*X30
 70
    65
 10
448.590003
 20
452.161287
 30
0.0
  3
*X30
  0
LINE
  8
LC-008-005-----0
  6
CONTINUOUS
  5
36B
 10
453.575501
 20
452.161287
 30
0.0
 11
453.590003
 21
452.17579
 31
0.0
  0
LINE
  8
LC-008-005-----0
  6
CONTINUOUS
  5
36C
 10
453.292658
 20
452.161287
 30
0.0
 11
453.590003
 21
452.458632
 31
0.0
  0
LINE
  8
LC-008-005-----0
  6
CONTINUOUS
  5
36D
 10
453.009815
 20
452.161287
 30
0.0
 11
453.590003
 21
452.741475
 31
0.0
  0
LINE
  8
LC-008-005-----0
  6
CONTINUOUS
  5
36E
 10
452.726973
 20
452.161287
 30
0.0
 11
453.590003
 21
453.024318
 31
0.0
  0
LINE
  8
LC-008-005-----0
  6
CONTINUOUS
  5
36F
 10
452.44413
 20
452.161287
 30
0.0
 11
453.590003
 21
453.30716
 31
0.0
  0
LINE
  8
LC-008-005-----0
  6
CONTINUOUS
  5
370
 10
452.161287
 20
452.161287
 30
0.0
 11
453.590003
 21
453.590003
 31
0.0
  0
LINE
  8
LC-008-005-----0
  6
CONTINUOUS
  5
371
 10
451.878444
 20
452.161287
 30
0.0
 11
453.590003
 21
453.872846
 31
0.0
  0
LINE
  8
LC-008-005-----0
  6
CONTINUOUS
  5
372
 10
451.595602
 20
452.161287
 30
0.0
 11
453.590003
 21
454.155689
 31
0.0
  0
LINE
  8
LC-008-005-----0
  6
CONTINUOUS
  5
373
 10
451.312759
 20
452.161287
 30
0.0
 11
453.590003
 21
454.438531
 31
0.0
  0
LINE
  8
LC-008-005-----0
  6
CONTINUOUS
  5
374
 10
451.029916
 20
452.161287
 30
0.0
 11
453.590003
 21
454.721374
 31
0.0
  0
LINE
  8
LC-008-005-----0
  6
CONTINUOUS
  5
375
 10
450.747074
 20
452.161287
 30
0.0
 11
453.590003
 21
455.004217
 31
0.0
  0
LINE
  8
LC-008-005-----0
  6
CONTINUOUS
  5
376
 10
450.464231
 20
452.161287
 30
0.0
 11
453.464231
 21
455.161287
 31
0.0
  0
LINE
  8
LC-008-005-----0
  6
CONTINUOUS
  5
377
 10
450.181388
 20
452.161287
 30
0.0
 11
453.181388
 21
455.161287
 31
0.0
  0
LINE
  8
LC-008-005-----0
  6
CONTINUOUS
  5
378
 10
449.898546
 20
452.161287
 30
0.0
 11
452.898546
 21
455.161287
 31
0.0
  0
LINE
  8
LC-008-005-----0
  6
CONTINUOUS
  5
379
 10
449.615703
 20
452.161287
 30
0.0
 11
452.615703
 21
455.161287
 31
0.0
  0
LINE
  8
LC-008-005-----0
  6
CONTINUOUS
  5
37A
 10
449.33286
 20
452.161287
 30
0.0
 11
452.33286
 21
455.161287
 31
0.0
  0
LINE
  8
LC-008-005-----0
  6
CONTINUOUS
  5
37B
 10
449.050017
 20
452.161287
 30
0.0
 11
452.050017
 21
455.161287
 31
0.0
  0
LINE
  8
LC-008-005-----0
  6
CONTINUOUS
  5
37C
 10
448.767175
 20
452.161287
 30
0.0
 11
451.767175
 21
455.161287
 31
0.0
  0
LINE
  8
LC-008-005-----0
  6
CONTINUOUS
  5
37D
 10
448.590003
 20
452.266958
 30
0.0
 11
451.484332
 21
455.161287
 31
0.0
  0
LINE
  8
LC-008-005-----0
  6
CONTINUOUS
  5
37E
 10
448.590003
 20
452.549801
 30
0.0
 11
451.201489
 21
455.161287
 31
0.0
  0
LINE
  8
LC-008-005-----0
  6
CONTINUOUS
  5
37F
 10
448.590003
 20
452.832644
 30
0.0
 11
450.918647
 21
455.161287
 31
0.0
  0
LINE
  8
LC-008-005-----0
  6
CONTINUOUS
  5
380
 10
448.590003
 20
453.115486
 30
0.0
 11
450.635804
 21
455.161287
 31
0.0
  0
LINE
  8
LC-008-005-----0
  6
CONTINUOUS
  5
381
 10
448.590003
 20
453.398329
 30
0.0
 11
450.352961
 21
455.161287
 31
0.0
  0
LINE
  8
LC-008-005-----0
  6
CONTINUOUS
  5
382
 10
448.590003
 20
453.681172
 30
0.0
 11
450.070118
 21
455.161287
 31
0.0
  0
LINE
  8
LC-008-005-----0
  6
CONTINUOUS
  5
383
 10
448.590003
 20
453.964015
 30
0.0
 11
449.787276
 21
455.161287
 31
0.0
  0
LINE
  8
LC-008-005-----0
  6
CONTINUOUS
  5
384
 10
448.590003
 20
454.246857
 30
0.0
 11
449.504433
 21
455.161287
 31
0.0
  0
LINE
  8
LC-008-005-----0
  6
CONTINUOUS
  5
385
 10
448.590003
 20
454.5297
 30
0.0
 11
449.22159
 21
455.161287
 31
0.0
  0
LINE
  8
LC-008-005-----0
  6
CONTINUOUS
  5
386
 10
448.590003
 20
454.812543
 30
0.0
 11
448.938748
 21
455.161287
 31
0.0
  0
LINE
  8
LC-008-005-----0
  6
CONTINUOUS
  5
387
 10
448.590003
 20
455.095385
 30
0.0
 11
448.655905
 21
455.161287
 31
0.0
  0
ENDBLK
  8
0
  5
388
  0
BLOCK
  8
0
  5
38A
  2
*X31
 70
    65
 10
458.590003
 20
452.161287
 30
0.0
  3
*X31
  0
LINE
  8
LC-008-005-----0
  6
CONTINUOUS
  5
38B
 10
463.474996
 20
452.161287
 30
0.0
 11
463.590003
 21
452.276295
 31
0.0
  0
LINE
  8
LC-008-005-----0
  6
CONTINUOUS
  5
38C
 10
463.192153
 20
452.161287
 30
0.0
 11
463.590003
 21
452.559137
 31
0.0
  0
LINE
  8
LC-008-005-----0
  6
CONTINUOUS
  5
38D
 10
462.90931
 20
452.161287
 30
0.0
 11
463.590003
 21
452.84198
 31
0.0
  0
LINE
  8
LC-008-005-----0
  6
CONTINUOUS
  5
38E
 10
462.626468
 20
452.161287
 30
0.0
 11
463.590003
 21
453.124823
 31
0.0
  0
LINE
  8
LC-008-005-----0
  6
CONTINUOUS
  5
38F
 10
462.343625
 20
452.161287
 30
0.0
 11
463.590003
 21
453.407665
 31
0.0
  0
LINE
  8
LC-008-005-----0
  6
CONTINUOUS
  5
390
 10
462.060782
 20
452.161287
 30
0.0
 11
463.590003
 21
453.690508
 31
0.0
  0
LINE
  8
LC-008-005-----0
  6
CONTINUOUS
  5
391
 10
461.777939
 20
452.161287
 30
0.0
 11
463.590003
 21
453.973351
 31
0.0
  0
LINE
  8
LC-008-005-----0
  6
CONTINUOUS
  5
392
 10
461.495097
 20
452.161287
 30
0.0
 11
463.590003
 21
454.256194
 31
0.0
  0
LINE
  8
LC-008-005-----0
  6
CONTINUOUS
  5
393
 10
461.212254
 20
452.161287
 30
0.0
 11
463.590003
 21
454.539036
 31
0.0
  0
LINE
  8
LC-008-005-----0
  6
CONTINUOUS
  5
394
 10
460.929411
 20
452.161287
 30
0.0
 11
463.590003
 21
454.821879
 31
0.0
  0
LINE
  8
LC-008-005-----0
  6
CONTINUOUS
  5
395
 10
460.646569
 20
452.161287
 30
0.0
 11
463.590003
 21
455.104722
 31
0.0
  0
LINE
  8
LC-008-005-----0
  6
CONTINUOUS
  5
396
 10
460.363726
 20
452.161287
 30
0.0
 11
463.363726
 21
455.161287
 31
0.0
  0
LINE
  8
LC-008-005-----0
  6
CONTINUOUS
  5
397
 10
460.080883
 20
452.161287
 30
0.0
 11
463.080883
 21
455.161287
 31
0.0
  0
LINE
  8
LC-008-005-----0
  6
CONTINUOUS
  5
398
 10
459.79804
 20
452.161287
 30
0.0
 11
462.79804
 21
455.161287
 31
0.0
  0
LINE
  8
LC-008-005-----0
  6
CONTINUOUS
  5
399
 10
459.515198
 20
452.161287
 30
0.0
 11
462.515198
 21
455.161287
 31
0.0
  0
LINE
  8
LC-008-005-----0
  6
CONTINUOUS
  5
39A
 10
459.232355
 20
452.161287
 30
0.0
 11
462.232355
 21
455.161287
 31
0.0
  0
LINE
  8
LC-008-005-----0
  6
CONTINUOUS
  5
39B
 10
458.949512
 20
452.161287
 30
0.0
 11
461.949512
 21
455.161287
 31
0.0
  0
LINE
  8
LC-008-005-----0
  6
CONTINUOUS
  5
39C
 10
458.66667
 20
452.161287
 30
0.0
 11
461.66667
 21
455.161287
 31
0.0
  0
LINE
  8
LC-008-005-----0
  6
CONTINUOUS
  5
39D
 10
458.590003
 20
452.367463
 30
0.0
 11
461.383827
 21
455.161287
 31
0.0
  0
LINE
  8
LC-008-005-----0
  6
CONTINUOUS
  5
39E
 10
458.590003
 20
452.650306
 30
0.0
 11
461.100984
 21
455.161287
 31
0.0
  0
LINE
  8
LC-008-005-----0
  6
CONTINUOUS
  5
39F
 10
458.590003
 20
452.933149
 30
0.0
 11
460.818141
 21
455.161287
 31
0.0
  0
LINE
  8
LC-008-005-----0
  6
CONTINUOUS
  5
3A0
 10
458.590003
 20
453.215992
 30
0.0
 11
460.535299
 21
455.161287
 31
0.0
  0
LINE
  8
LC-008-005-----0
  6
CONTINUOUS
  5
3A1
 10
458.590003
 20
453.498834
 30
0.0
 11
460.252456
 21
455.161287
 31
0.0
  0
LINE
  8
LC-008-005-----0
  6
CONTINUOUS
  5
3A2
 10
458.590003
 20
453.781677
 30
0.0
 11
459.969613
 21
455.161287
 31
0.0
  0
LINE
  8
LC-008-005-----0
  6
CONTINUOUS
  5
3A3
 10
458.590003
 20
454.06452
 30
0.0
 11
459.686771
 21
455.161287
 31
0.0
  0
LINE
  8
LC-008-005-----0
  6
CONTINUOUS
  5
3A4
 10
458.590003
 20
454.347362
 30
0.0
 11
459.403928
 21
455.161287
 31
0.0
  0
LINE
  8
LC-008-005-----0
  6
CONTINUOUS
  5
3A5
 10
458.590003
 20
454.630205
 30
0.0
 11
459.121085
 21
455.161287
 31
0.0
  0
LINE
  8
LC-008-005-----0
  6
CONTINUOUS
  5
3A6
 10
458.590003
 20
454.913048
 30
0.0
 11
458.838242
 21
455.161287
 31
0.0
  0
ENDBLK
  8
0
  5
3A7
  0
BLOCK
  8
0
  5
3A9
  2
*X32
 70
    65
 10
468.590003
 20
452.161287
 30
0.0
  3
*X32
  0
LINE
  8
LC-008-005-----0
  6
CONTINUOUS
  5
3AA
 10
470.828906
 20
452.161287
 30
0.0
 11
470.839514
 21
452.171895
 31
0.0
  0
LINE
  8
LC-008-005-----0
  6
CONTINUOUS
  5
3AB
 10
470.546064
 20
452.161287
 30
0.0
 11
470.839514
 21
452.454737
 31
0.0
  0
LINE
  8
LC-008-005-----0
  6
CONTINUOUS
  5
3AC
 10
470.263221
 20
452.161287
 30
0.0
 11
470.839514
 21
452.73758
 31
0.0
  0
LINE
  8
LC-008-005-----0
  6
CONTINUOUS
  5
3AD
 10
469.980378
 20
452.161287
 30
0.0
 11
470.839514
 21
453.020423
 31
0.0
  0
LINE
  8
LC-008-005-----0
  6
CONTINUOUS
  5
3AE
 10
469.697535
 20
452.161287
 30
0.0
 11
470.839514
 21
453.303265
 31
0.0
  0
LINE
  8
LC-008-005-----0
  6
CONTINUOUS
  5
3AF
 10
469.414693
 20
452.161287
 30
0.0
 11
470.839514
 21
453.586108
 31
0.0
  0
LINE
  8
LC-008-005-----0
  6
CONTINUOUS
  5
3B0
 10
469.13185
 20
452.161287
 30
0.0
 11
470.839514
 21
453.868951
 31
0.0
  0
LINE
  8
LC-008-005-----0
  6
CONTINUOUS
  5
3B1
 10
468.849007
 20
452.161287
 30
0.0
 11
470.839514
 21
454.151794
 31
0.0
  0
LINE
  8
LC-008-005-----0
  6
CONTINUOUS
  5
3B2
 10
468.590003
 20
452.185126
 30
0.0
 11
470.839514
 21
454.434636
 31
0.0
  0
LINE
  8
LC-008-005-----0
  6
CONTINUOUS
  5
3B3
 10
468.590003
 20
452.467968
 30
0.0
 11
470.839514
 21
454.717479
 31
0.0
  0
LINE
  8
LC-008-005-----0
  6
CONTINUOUS
  5
3B4
 10
468.590003
 20
452.750811
 30
0.0
 11
470.839514
 21
455.000322
 31
0.0
  0
LINE
  8
LC-008-005-----0
  6
CONTINUOUS
  5
3B5
 10
468.590003
 20
453.033654
 30
0.0
 11
470.717636
 21
455.161287
 31
0.0
  0
LINE
  8
LC-008-005-----0
  6
CONTINUOUS
  5
3B6
 10
468.590003
 20
453.316497
 30
0.0
 11
470.434794
 21
455.161287
 31
0.0
  0
LINE
  8
LC-008-005-----0
  6
CONTINUOUS
  5
3B7
 10
468.590003
 20
453.599339
 30
0.0
 11
470.151951
 21
455.161287
 31
0.0
  0
LINE
  8
LC-008-005-----0
  6
CONTINUOUS
  5
3B8
 10
468.590003
 20
453.882182
 30
0.0
 11
469.869108
 21
455.161287
 31
0.0
  0
LINE
  8
LC-008-005-----0
  6
CONTINUOUS
  5
3B9
 10
468.590003
 20
454.165025
 30
0.0
 11
469.586266
 21
455.161287
 31
0.0
  0
LINE
  8
LC-008-005-----0
  6
CONTINUOUS
  5
3BA
 10
468.590003
 20
454.447867
 30
0.0
 11
469.303423
 21
455.161287
 31
0.0
  0
LINE
  8
LC-008-005-----0
  6
CONTINUOUS
  5
3BB
 10
468.590003
 20
454.73071
 30
0.0
 11
469.02058
 21
455.161287
 31
0.0
  0
LINE
  8
LC-008-005-----0
  6
CONTINUOUS
  5
3BC
 10
468.590003
 20
455.013553
 30
0.0
 11
468.737737
 21
455.161287
 31
0.0
  0
ENDBLK
  8
0
  5
3BD
  0
BLOCK
  8
0
  5
3BF
  2
*X33
 70
    65
 10
185.654177
 20
448.666976
 30
0.0
  3
*X33
  0
LINE
  8
LC-008-005-----0
  6
CONTINUOUS
  5
3C0
 10
212.693285
 20
448.86695
 30
0.0
 11
213.830115
 21
450.00378
 31
0.0
  0
LINE
  8
LC-008-005-----0
  6
CONTINUOUS
  5
3C1
 10
211.339521
 20
448.927399
 30
0.0
 11
211.979067
 21
449.566945
 31
0.0
  0
LINE
  8
LC-008-005-----0
  6
CONTINUOUS
  5
3C2
 10
212.57907
 20
450.166949
 30
0.0
 11
213.208507
 21
450.796385
 31
0.0
  0
LINE
  8
LC-008-005-----0
  6
CONTINUOUS
  5
3C3
 10
211.164848
 20
450.16694
 30
0.0
 11
211.864852
 21
450.866944
 31
0.0
  0
LINE
  8
LC-008-005-----0
  6
CONTINUOUS
  5
3C4
 10
209.750625
 20
450.166931
 30
0.0
 11
210.45063
 21
450.866935
 31
0.0
  0
LINE
  8
LC-008-005-----0
  6
CONTINUOUS
  5
3C5
 10
208.336403
 20
450.166922
 30
0.0
 11
209.036407
 21
450.866927
 31
0.0
  0
LINE
  8
LC-008-005-----0
  6
CONTINUOUS
  5
3C6
 10
207.303238
 20
450.54797
 30
0.0
 11
207.803237
 21
451.04797
 31
0.0
  0
LINE
  8
LC-008-005-----0
  6
CONTINUOUS
  5
3C7
 10
206.507965
 20
451.166911
 30
0.0
 11
207.139973
 21
451.798919
 31
0.0
  0
LINE
  8
LC-008-005-----0
  6
CONTINUOUS
  5
3C8
 10
205.093742
 20
451.166902
 30
0.0
 11
205.793746
 21
451.866906
 31
0.0
  0
LINE
  8
LC-008-005-----0
  6
CONTINUOUS
  5
3C9
 10
196.608408
 20
451.166849
 30
0.0
 11
197.089029
 21
451.64747
 31
0.0
  0
LINE
  8
LC-008-005-----0
  6
CONTINUOUS
  5
3CA
 10
192.694332
 20
448.666986
 30
0.0
 11
195.89419
 21
451.866844
 31
0.0
  0
LINE
  8
LC-008-005-----0
  6
CONTINUOUS
  5
3CB
 10
191.280115
 20
448.666983
 30
0.0
 11
191.980116
 21
449.366985
 31
0.0
  0
LINE
  8
LC-008-005-----0
  6
CONTINUOUS
  5
3CC
 10
189.865898
 20
448.66698
 30
0.0
 11
190.5659
 21
449.366982
 31
0.0
  0
LINE
  8
LC-008-005-----0
  6
CONTINUOUS
  5
3CD
 10
188.458095
 20
448.673391
 30
0.0
 11
189.151683
 21
449.366979
 31
0.0
  0
LINE
  8
LC-008-005-----0
  6
CONTINUOUS
  5
3CE
 10
187.340422
 20
448.969932
 30
0.0
 11
187.874506
 21
449.504015
 31
0.0
  0
LINE
  8
LC-008-005-----0
  6
CONTINUOUS
  5
3CF
 10
186.517451
 20
449.561174
 30
0.0
 11
187.015326
 21
450.059048
 31
0.0
  0
LINE
  8
LC-008-005-----0
  6
CONTINUOUS
  5
3D0
 10
185.937143
 20
450.395079
 30
0.0
 11
186.209049
 21
450.666985
 31
0.0
  0
ENDBLK
  8
0
  5
3D1
  0
BLOCK
  8
0
  5
3D3
  2
BLK3
 70
    64
 10
0.0
 20
0.0
 30
0.0
  3
BLK3
  0
ENDBLK
  8
0
  5
3D4
  0
BLOCK
  8
0
  5
3D6
  2
BLK4
 70
    64
 10
0.0
 20
0.0
 30
0.0
  3
BLK4
  0
ENDBLK
  8
0
  5
3D7
  0
BLOCK
  8
0
  5
3D9
  2
BLK5
 70
    64
 10
0.0
 20
0.0
 30
0.0
  3
BLK5
  0
ENDBLK
  8
0
  5
3DA
  0
BLOCK
  8
0
  5
3DC
  2
BLK6
 70
    64
 10
0.0
 20
0.0
 30
0.0
  3
BLK6
  0
ENDBLK
  8
0
  5
3DD
  0
BLOCK
  8
0
  5
3DF
  2
BLK7
 70
    64
 10
0.0
 20
0.0
 30
0.0
  3
BLK7
  0
ENDBLK
  8
0
  5
3E0
  0
BLOCK
  8
0
  5
3E2
  2
BLK8
 70
    64
 10
0.0
 20
0.0
 30
0.0
  3
BLK8
  0
ENDBLK
  8
0
  5
3E3
  0
BLOCK
  8
0
  5
3E5
  2
BLK9
 70
    64
 10
0.0
 20
0.0
 30
0.0
  3
BLK9
  0
ENDBLK
  8
0
  5
3E6
  0
BLOCK
  8
0
  5
3E8
  2
BLK10
 70
    64
 10
0.0
 20
0.0
 30
0.0
  3
BLK10
  0
ENDBLK
  8
0
  5
3E9
  0
BLOCK
  8
0
  5
3EB
  2
BLK11
 70
    64
 10
0.0
 20
0.0
 30
0.0
  3
BLK11
  0
ENDBLK
  8
0
  5
3EC
  0
BLOCK
  8
0
  5
3EE
  2
BLK12
 70
    64
 10
0.0
 20
0.0
 30
0.0
  3
BLK12
  0
ENDBLK
  8
0
  5
3EF
  0
BLOCK
  8
0
  5
3F1
  2
BLK13
 70
    64
 10
0.0
 20
0.0
 30
0.0
  3
BLK13
  0
ENDBLK
  8
0
  5
3F2
  0
BLOCK
  8
0
  5
3F4
  2
BLK14
 70
    64
 10
0.0
 20
0.0
 30
0.0
  3
BLK14
  0
ENDBLK
  8
0
  5
3F5
  0
BLOCK
  8
0
  5
3F7
  2
BLK15
 70
    64
 10
0.0
 20
0.0
 30
0.0
  3
BLK15
  0
ENDBLK
  8
0
  5
3F8
  0
BLOCK
  8
0
  5
3FA
  2
BLK16
 70
    64
 10
0.0
 20
0.0
 30
0.0
  3
BLK16
  0
ENDBLK
  8
0
  5
3FB
  0
BLOCK
  8
0
  5
3FD
  2
BLK17
 70
    64
 10
0.0
 20
0.0
 30
0.0
  3
BLK17
  0
ENDBLK
  8
0
  5
3FE
  0
BLOCK
  8
0
  5
400
  2
BLK18
 70
    64
 10
0.0
 20
0.0
 30
0.0
  3
BLK18
  0
ENDBLK
  8
0
  5
401
  0
BLOCK
  8
0
  5
403
  2
BLK19
 70
    64
 10
0.0
 20
0.0
 30
0.0
  3
BLK19
  0
ENDBLK
  8
0
  5
404
  0
BLOCK
  8
0
  5
406
  2
BLK20
 70
    64
 10
0.0
 20
0.0
 30
0.0
  3
BLK20
  0
ENDBLK
  8
0
  5
407
  0
BLOCK
  8
0
  5
409
  2
BLK21
 70
    64
 10
0.0
 20
0.0
 30
0.0
  3
BLK21
  0
ENDBLK
  8
0
  5
40A
  0
BLOCK
  8
0
  5
40C
  2
BLK22
 70
    64
 10
0.0
 20
0.0
 30
0.0
  3
BLK22
  0
ENDBLK
  8
0
  5
40D
  0
BLOCK
  8
0
  5
40F
  2
BLK23
 70
    64
 10
0.0
 20
0.0
 30
0.0
  3
BLK23
  0
ENDBLK
  8
0
  5
410
  0
BLOCK
  8
0
  5
412
  2
BLK24
 70
    64
 10
0.0
 20
0.0
 30
0.0
  3
BLK24
  0
ENDBLK
  8
0
  5
413
  0
BLOCK
  8
0
  5
415
  2
BLK25
 70
    64
 10
0.0
 20
0.0
 30
0.0
  3
BLK25
  0
ENDBLK
  8
0
  5
416
  0
BLOCK
  8
0
  5
418
  2
BLK26
 70
    64
 10
0.0
 20
0.0
 30
0.0
  3
BLK26
  0
ENDBLK
  8
0
  5
419
  0
BLOCK
  8
0
  5
41B
  2
BLK27
 70
    64
 10
0.0
 20
0.0
 30
0.0
  3
BLK27
  0
ENDBLK
  8
0
  5
41C
  0
BLOCK
  8
0
  5
41E
  2
BLK28
 70
    64
 10
0.0
 20
0.0
 30
0.0
  3
BLK28
  0
ENDBLK
  8
0
  5
41F
  0
BLOCK
  8
0
  5
421
  2
BLK29
 70
    64
 10
0.0
 20
0.0
 30
0.0
  3
BLK29
  0
ENDBLK
  8
0
  5
422
  0
BLOCK
  8
0
  5
424
  2
BLK30
 70
    64
 10
0.0
 20
0.0
 30
0.0
  3
BLK30
  0
ENDBLK
  8
0
  5
425
  0
BLOCK
  8
0
  5
427
  2
BLK31
 70
    64
 10
0.0
 20
0.0
 30
0.0
  3
BLK31
  0
ENDBLK
  8
0
  5
428
  0
BLOCK
  8
0
  5
42A
  2
BLK32
 70
    64
 10
0.0
 20
0.0
 30
0.0
  3
BLK32
  0
ENDBLK
  8
0
  5
42B
  0
BLOCK
  8
0
  5
42D
  2
BLK33
 70
    64
 10
0.0
 20
0.0
 30
0.0
  3
BLK33
  0
ENDBLK
  8
0
  5
42E
  0
BLOCK
  8
0
  5
430
  2
BLK34
 70
    64
 10
0.0
 20
0.0
 30
0.0
  3
BLK34
  0
ENDBLK
  8
0
  5
431
  0
BLOCK
  8
0
  5
433
  2
BLK35
 70
    64
 10
0.0
 20
0.0
 30
0.0
  3
BLK35
  0
ENDBLK
  8
0
  5
434
  0
BLOCK
  8
0
  5
436
  2
BLK36
 70
    64
 10
0.0
 20
0.0
 30
0.0
  3
BLK36
  0
ENDBLK
  8
0
  5
437
  0
BLOCK
  8
0
  5
439
  2
BLK37
 70
    64
 10
0.0
 20
0.0
 30
0.0
  3
BLK37
  0
ENDBLK
  8
0
  5
43A
  0
BLOCK
  8
0
  5
43C
  2
BLK38
 70
    64
 10
0.0
 20
0.0
 30
0.0
  3
BLK38
  0
ENDBLK
  8
0
  5
43D
  0
BLOCK
  8
0
  5
43F
  2
BLK39
 70
    64
 10
0.0
 20
0.0
 30
0.0
  3
BLK39
  0
ENDBLK
  8
0
  5
440
  0
BLOCK
  8
0
  5
442
  2
BLK40
 70
    64
 10
0.0
 20
0.0
 30
0.0
  3
BLK40
  0
ENDBLK
  8
0
  5
443
  0
BLOCK
  8
0
  5
445
  2
BLK41
 70
    64
 10
0.0
 20
0.0
 30
0.0
  3
BLK41
  0
ENDBLK
  8
0
  5
446
  0
BLOCK
  8
0
  5
448
  2
BLK42
 70
    64
 10
0.0
 20
0.0
 30
0.0
  3
BLK42
  0
ENDBLK
  8
0
  5
449
  0
BLOCK
  8
0
  5
44B
  2
BLK43
 70
    64
 10
0.0
 20
0.0
 30
0.0
  3
BLK43
  0
ENDBLK
  8
0
  5
44C
  0
BLOCK
  8
0
  5
44E
  2
BLK44
 70
    64
 10
0.0
 20
0.0
 30
0.0
  3
BLK44
  0
ENDBLK
  8
0
  5
44F
  0
BLOCK
  8
0
  5
451
  2
BLK45
 70
    64
 10
0.0
 20
0.0
 30
0.0
  3
BLK45
  0
ENDBLK
  8
0
  5
452
  0
BLOCK
  8
0
  5
454
  2
BLK46
 70
    64
 10
0.0
 20
0.0
 30
0.0
  3
BLK46
  0
ENDBLK
  8
0
  5
455
  0
BLOCK
  8
0
  5
457
  2
BLK47
 70
    64
 10
0.0
 20
0.0
 30
0.0
  3
BLK47
  0
ENDBLK
  8
0
  5
458
  0
BLOCK
  8
0
  5
45A
  2
BLK48
 70
    64
 10
0.0
 20
0.0
 30
0.0
  3
BLK48
  0
ENDBLK
  8
0
  5
45B
  0
BLOCK
  8
0
  5
45D
  2
*X80
 70
    65
 10
327.839507
 20
448.666976
 30
0.0
  3
*X80
  0
LINE
  8
LC-008-005-----0
  6
CONTINUOUS
  5
45E
 10
354.122805
 20
448.875114
 30
0.0
 11
355.816712
 21
450.569021
 31
0.0
  0
LINE
  8
LC-008-005-----0
  6
CONTINUOUS
  5
45F
 10
352.500456
 20
448.666979
 30
0.0
 11
353.207783
 21
449.374306
 31
0.0
  0
LINE
  8
LC-008-005-----0
  6
CONTINUOUS
  5
460
 10
351.086246
 20
448.666982
 30
0.0
 11
351.786244
 21
449.36698
 31
0.0
  0
LINE
  8
LC-008-005-----0
  6
CONTINUOUS
  5
461
 10
349.672035
 20
448.666985
 30
0.0
 11
350.372034
 21
449.366983
 31
0.0
  0
LINE
  8
LC-008-005-----0
  6
CONTINUOUS
  5
462
 10
348.338767
 20
448.74793
 30
0.0
 11
348.957823
 21
449.366986
 31
0.0
  0
LINE
  8
LC-008-005-----0
  6
CONTINUOUS
  5
463
 10
347.581144
 20
449.404521
 30
0.0
 11
348.076119
 21
449.899495
 31
0.0
  0
LINE
  8
LC-008-005-----0
  6
CONTINUOUS
  5
464
 10
346.874037
 20
450.111627
 30
0.0
 11
347.369012
 21
450.606602
 31
0.0
  0
LINE
  8
LC-008-005-----0
  6
CONTINUOUS
  5
465
 10
346.166931
 20
450.818734
 30
0.0
 11
346.661905
 21
451.313709
 31
0.0
  0
LINE
  8
LC-008-005-----0
  6
CONTINUOUS
  5
466
 10
345.100832
 20
451.166849
 30
0.0
 11
345.800827
 21
451.866844
 31
0.0
  0
LINE
  8
LC-008-005-----0
  6
CONTINUOUS
  5
467
 10
336.615603
 20
451.166902
 30
0.0
 11
337.089999
 21
451.641297
 31
0.0
  0
LINE
  8
LC-008-005-----0
  6
CONTINUOUS
  5
468
 10
335.201399
 20
451.166911
 30
0.0
 11
335.901394
 21
451.866906
 31
0.0
  0
LINE
  8
LC-008-005-----0
  6
CONTINUOUS
  5
469
 10
332.7872
 20
450.166926
 30
0.0
 11
333.487196
 21
450.866921
 31
0.0
  0
LINE
  8
LC-008-005-----0
  6
CONTINUOUS
  5
46A
 10
330.073011
 20
448.86695
 30
0.0
 11
330.339507
 21
449.133446
 31
0.0
  0
LINE
  8
LC-008-005-----0
  6
CONTINUOUS
  5
46B
 10
331.372995
 20
450.166935
 30
0.0
 11
332.072991
 21
450.86693
 31
0.0
  0
LINE
  8
LC-008-005-----0
  6
CONTINUOUS
  5
46C
 10
328.672792
 20
448.880945
 30
0.0
 11
329.358794
 21
449.566947
 31
0.0
  0
LINE
  8
LC-008-005-----0
  6
CONTINUOUS
  5
46D
 10
329.958791
 20
450.166943
 30
0.0
 11
330.658786
 21
450.866939
 31
0.0
  0
LINE
  8
LC-008-005-----0
  6
CONTINUOUS
  5
46E
 10
327.90055
 20
449.522916
 30
0.0
 11
329.244581
 21
450.866948
 31
0.0
  0
ENDBLK
  8
0
  5
46F
  0
BLOCK
  8
0
  5
471
  2
BLK49
 70
    64
 10
0.0
 20
0.0
 30
0.0
  3
BLK49
  0
ENDBLK
  8
0
  5
472
  0
BLOCK
  8
0
  5
474
  2
BLK50
 70
    64
 10
0.0
 20
0.0
 30
0.0
  3
BLK50
  0
ENDBLK
  8
0
  5
475
  0
BLOCK
  8
0
  5
477
  2
BLK51
 70
    64
 10
0.0
 20
0.0
 30
0.0
  3
BLK51
  0
ENDBLK
  8
0
  5
478
  0
BLOCK
  8
0
  5
47A
  2
*D84
 70
    65
 10
0.0
 20
0.0
 30
0.0
  3
*D84
  0
LINE
  8
LC-004-003-MTH-0
  6
CONTINUOUS
  5
47B
 10
70.839514
 20
455.161287
 30
0.0
 11
70.839514
 21
486.8
 31
0.0
  0
LINE
  8
LC-004-003-MTH-0
  6
CONTINUOUS
  5
47C
 10
470.839514
 20
455.161287
 30
0.0
 11
470.839514
 21
486.8
 31
0.0
  0
LINE
  8
LC-005-003-MTG-0
  6
CONTINUOUS
  5
47D
 10
70.839514
 20
476.0
 30
0.0
 11
470.839514
 21
476.0
 31
0.0
  0
LINE
  8
LC-003-003-----0
  6
CONTINUOUS
  5
47E
 10
88.685521
 20
478.349471
 30
0.0
 11
70.839514
 21
476.0
 31
0.0
  0
LINE
  8
LC-003-003-----0
  6
CONTINUOUS
  5
47F
 10
70.839514
 20
476.0
 30
0.0
 11
88.685521
 21
473.650529
 31
0.0
  0
LINE
  8
LC-003-003-----0
  6
CONTINUOUS
  5
480
 10
88.685521
 20
473.650529
 30
0.0
 11
88.685521
 21
478.349471
 31
0.0
  0
LINE
  8
LC-003-003-----0
  6
CONTINUOUS
  5
481
 10
88.725559
 20
477.738609
 30
0.0
 11
75.519514
 21
476.0
 31
0.0
  0
LINE
  8
LC-003-003-----0
  6
CONTINUOUS
  5
482
 10
75.519514
 20
476.0
 30
0.0
 11
88.725559
 21
474.261391
 31
0.0
  0
LINE
  8
LC-003-003-----0
  6
CONTINUOUS
  5
483
 10
88.765597
 20
477.127746
 30
0.0
 11
80.199514
 21
476.0
 31
0.0
  0
LINE
  8
LC-003-003-----0
  6
CONTINUOUS
  5
484
 10
80.199514
 20
476.0
 30
0.0
 11
88.765597
 21
474.872254
 31
0.0
  0
LINE
  8
LC-003-003-----0
  6
CONTINUOUS
  5
485
 10
88.805635
 20
476.516884
 30
0.0
 11
84.879514
 21
476.0
 31
0.0
  0
LINE
  8
LC-003-003-----0
  6
CONTINUOUS
  5
486
 10
84.879514
 20
476.0
 30
0.0
 11
88.805635
 21
475.483116
 31
0.0
  0
LINE
  8
LC-003-003-----0
  6
CONTINUOUS
  5
487
 10
452.993506
 20
473.650529
 30
0.0
 11
470.839514
 21
476.0
 31
0.0
  0
LINE
  8
LC-003-003-----0
  6
CONTINUOUS
  5
488
 10
470.839514
 20
476.0
 30
0.0
 11
452.993506
 21
478.349471
 31
0.0
  0
LINE
  8
LC-003-003-----0
  6
CONTINUOUS
  5
489
 10
452.993506
 20
478.349471
 30
0.0
 11
452.993506
 21
473.650529
 31
0.0
  0
LINE
  8
LC-003-003-----0
  6
CONTINUOUS
  5
48A
 10
452.953468
 20
474.261391
 30
0.0
 11
466.159514
 21
476.0
 31
0.0
  0
LINE
  8
LC-003-003-----0
  6
CONTINUOUS
  5
48B
 10
466.159514
 20
476.0
 30
0.0
 11
452.953468
 21
477.738609
 31
0.0
  0
LINE
  8
LC-003-003-----0
  6
CONTINUOUS
  5
48C
 10
452.91343
 20
474.872254
 30
0.0
 11
461.479514
 21
476.0
 31
0.0
  0
LINE
  8
LC-003-003-----0
  6
CONTINUOUS
  5
48D
 10
461.479514
 20
476.0
 30
0.0
 11
452.91343
 21
477.127746
 31
0.0
  0
LINE
  8
LC-003-003-----0
  6
CONTINUOUS
  5
48E
 10
452.873392
 20
475.483116
 30
0.0
 11
456.799514
 21
476.0
 31
0.0
  0
LINE
  8
LC-003-003-----0
  6
CONTINUOUS
  5
48F
 10
456.799514
 20
476.0
 30
0.0
 11
452.873392
 21
476.516884
 31
0.0
  0
TEXT
  8
LC-003-003-----0
  6
CONTINUOUS
 62
     6
  5
490
 10
249.143421
 20
486.431999
 30
0.0
 40
18.0
  1
Ø420
 51
15.0
  7
LC-TXTSTYLE-150-400-0-0-D0
 72
     1
 11
273.634759
 21
486.431999
 31
0.0
  0
ENDBLK
  8
0
  5
491
  0
ENDSEC
  0
SECTION
  2
ENTITIES
  0
VIEWPORT
  8
LC-000
  5
6BE
 67
     1
 68
     1
 10
420.0
 20
297.0
 30
0.0
 40
840.0
 41
594.0
 69
     1
1001
ACAD
1000
MVIEW
1002
{
1070
    16
1010
0.0
1020
0.0
1030
0.0
1010
0.0
1020
0.0
1030
1.0
1040
0.0
1040
594.0
1040
420.0
1040
297.0
1040
50.0
1040
0.0
1040
0.0
1070
     0
1070
   100
1070
     1
1070
     1
1070
     0
1070
     0
1070
     0
1070
     0
1040
0.0
1040
0.0
1040
0.0
1040
1.0
1040
1.0
1040
0.0
1040
0.0
1070
     0
1002
{
1002
}
1002
}
  0
VIEWPORT
  8
0
  5
6BF
 67
     1
 68
     1
 10
0.0
 20
0.0
 30
0.0
 40
0.0
 41
0.0
 69
     1
1001
ACAD
1000
MVIEW
1002
{
1070
    16
1010
0.0
1020
0.0
1030
0.0
1010
0.0
1020
0.0
1030
1.0
1040
0.0
1040
594.0
1040
0.0
1040
0.0
1040
50.0
1040
0.0
1040
0.0
1070
     0
1070
   100
1070
     0
1070
     1
1070
     0
1070
     0
1070
     0
1070
     0
1040
0.0
1040
0.0
1040
0.0
1040
0.5
1040
0.5
1040
0.5
1040
0.5
1070
     0
1002
{
1002
}
1002
}
  0
DIMENSION
  8
0
  5
492
  2
*D0
 10
270.839514
 20
182.0
 30
0.0
 11
270.839514
 21
182.0
 31
0.0
  1
DN100
 13
215.839514
 23
236.665606
 33
0.0
 14
325.839514
 24
236.665606
 34
0.0
  3
LC-DIM-L-0090-02-02
  0
DIMENSION
  8
0
  5
493
  2
*D1
 10
364.0
 20
332.16595
 30
0.0
 11
364.0
 21
332.16595
 31
0.0
 13
346.840035
 23
432.166293
 33
0.0
 14
322.839514
 24
232.165606
 34
0.0
 50
90.0
  3
LC-DIM-L-0090-02-02
  0
INSERT
  8
0
  5
495
  2
BLK1
 10
0.0
 20
0.0
 30
0.0
  0
INSERT
  8
0
  5
496
  2
BLK2
 10
0.0
 20
0.0
 30
0.0
  0
DIMENSION
  8
0
  5
497
  2
*D4
 10
406.0
 20
340.404241
 30
0.0
 11
406.0
 21
340.404241
 31
0.0
  1
216
 13
385.839514
 23
448.642876
 33
0.0
 14
322.675274
 24
232.165606
 34
0.0
 50
90.0
  3
LC-DIM-L-0090-02-02
  0
INSERT
  8
0
  5
498
  2
*X5
 10
70.839514
 20
452.161287
 30
0.0
  0
INSERT
  8
0
  5
499
  2
*X6
 10
78.089024
 20
452.161287
 30
0.0
  0
INSERT
  8
0
  5
49A
  2
*X7
 10
88.089024
 20
452.161287
 30
0.0
  0
INSERT
  8
0
  5
49B
  2
*X8
 10
98.089024
 20
452.161287
 30
0.0
  0
INSERT
  8
0
  5
49C
  2
*X9
 10
108.089024
 20
452.161287
 30
0.0
  0
INSERT
  8
0
  5
49D
  2
*X10
 10
118.089024
 20
452.161287
 30
0.0
  0
INSERT
  8
0
  5
49E
  2
*X11
 10
128.089024
 20
452.161287
 30
0.0
  0
INSERT
  8
0
  5
49F
  2
*X12
 10
138.089024
 20
452.161287
 30
0.0
  0
INSERT
  8
0
  5
4A0
  2
*X13
 10
148.089024
 20
452.161287
 30
0.0
  0
INSERT
  8
0
  5
4A1
  2
*X14
 10
168.089024
 20
449.565203
 30
0.0
  0
INSERT
  8
0
  5
4A2
  2
*X15
 10
178.089024
 20
446.507896
 30
0.0
  0
INSERT
  8
0
  5
4A3
  2
*X16
 10
188.089024
 20
445.666987
 30
0.0
  0
INSERT
  8
0
  5
4A4
  2
*X17
 10
203.839024
 20
447.166296
 30
0.0
  0
INSERT
  8
0
  5
4A5
  2
*X18
 10
158.089024
 20
451.949258
 30
0.0
  0
INSERT
  8
0
  5
4A6
  2
*X19
 10
335.589621
 20
447.166296
 30
0.0
  0
INSERT
  8
0
  5
4A7
  2
*X20
 10
348.590003
 20
445.666987
 30
0.0
  0
INSERT
  8
0
  5
4A8
  2
*X21
 10
358.590003
 20
446.507896
 30
0.0
  0
INSERT
  8
0
  5
4A9
  2
*X22
 10
368.590003
 20
449.565203
 30
0.0
  0
INSERT
  8
0
  5
4AA
  2
*X23
 10
378.590003
 20
451.949258
 30
0.0
  0
INSERT
  8
0
  5
4AB
  2
*X24
 10
388.590003
 20
452.161287
 30
0.0
  0
INSERT
  8
0
  5
4AC
  2
*X25
 10
398.590003
 20
452.161287
 30
0.0
  0
INSERT
  8
0
  5
4AD
  2
*X26
 10
408.590003
 20
452.161287
 30
0.0
  0
INSERT
  8
0
  5
4AE
  2
*X27
 10
418.590003
 20
452.161287
 30
0.0
  0
INSERT
  8
0
  5
4AF
  2
*X28
 10
428.590003
 20
452.161287
 30
0.0
  0
INSERT
  8
0
  5
4B0
  2
*X29
 10
438.590003
 20
452.161287
 30
0.0
  0
INSERT
  8
0
  5
4B1
  2
*X30
 10
448.590003
 20
452.161287
 30
0.0
  0
INSERT
  8
0
  5
4B2
  2
*X31
 10
458.590003
 20
452.161287
 30
0.0
  0
INSERT
  8
0
  5
4B3
  2
*X32
 10
468.590003
 20
452.161287
 30
0.0
  0
INSERT
  8
0
  5
4B4
  2
*X33
 10
185.654177
 20
448.666976
 30
0.0
  0
INSERT
  8
0
  5
4B5
  2
BLK3
 10
0.0
 20
0.0
 30
0.0
  0
INSERT
  8
0
  5
4B6
  2
BLK4
 10
0.0
 20
0.0
 30
0.0
  0
INSERT
  8
0
  5
4B8
  2
BLK5
 10
0.0
 20
0.0
 30
0.0
  0
INSERT
  8
0
  5
4B9
  2
BLK6
 10
0.0
 20
0.0
 30
0.0
  0
INSERT
  8
0
  5
4BA
  2
BLK7
 10
0.0
 20
0.0
 30
0.0
  0
INSERT
  8
0
  5
4BB
  2
BLK8
 10
0.0
 20
0.0
 30
0.0
  0
INSERT
  8
0
  5
4BC
  2
BLK9
 10
0.0
 20
0.0
 30
0.0
  0
INSERT
  8
0
  5
4BD
  2
BLK10
 10
0.0
 20
0.0
 30
0.0
  0
INSERT
  8
0
  5
4BE
  2
BLK11
 10
0.0
 20
0.0
 30
0.0
  0
INSERT
  8
0
  5
4BF
  2
BLK12
 10
0.0
 20
0.0
 30
0.0
  0
INSERT
  8
0
  5
4C0
  2
BLK13
 10
0.0
 20
0.0
 30
0.0
  0
INSERT
  8
0
  5
4C1
  2
BLK14
 10
0.0
 20
0.0
 30
0.0
  0
INSERT
  8
0
  5
4C2
  2
BLK15
 10
0.0
 20
0.0
 30
0.0
  0
INSERT
  8
0
  5
4C3
  2
BLK16
 10
0.0
 20
0.0
 30
0.0
  0
INSERT
  8
0
  5
4C4
  2
BLK17
 10
0.0
 20
0.0
 30
0.0
  0
INSERT
  8
0
  5
4C5
  2
BLK18
 10
0.0
 20
0.0
 30
0.0
  0
INSERT
  8
0
  5
4C6
  2
BLK19
 10
0.0
 20
0.0
 30
0.0
  0
INSERT
  8
0
  5
4C7
  2
BLK20
 10
0.0
 20
0.0
 30
0.0
  0
INSERT
  8
0
  5
4C8
  2
BLK21
 10
0.0
 20
0.0
 30
0.0
  0
INSERT
  8
0
  5
4C9
  2
BLK22
 10
0.0
 20
0.0
 30
0.0
  0
INSERT
  8
0
  5
4CA
  2
BLK23
 10
0.0
 20
0.0
 30
0.0
  0
INSERT
  8
0
  5
4CB
  2
BLK24
 10
0.0
 20
0.0
 30
0.0
  0
INSERT
  8
0
  5
4CC
  2
BLK25
 10
0.0
 20
0.0
 30
0.0
  0
INSERT
  8
0
  5
4CD
  2
BLK26
 10
0.0
 20
0.0
 30
0.0
  0
INSERT
  8
0
  5
4CE
  2
BLK27
 10
0.0
 20
0.0
 30
0.0
  0
INSERT
  8
0
  5
4CF
  2
BLK28
 10
0.0
 20
0.0
 30
0.0
  0
INSERT
  8
0
  5
4D0
  2
BLK29
 10
0.0
 20
0.0
 30
0.0
  0
INSERT
  8
0
  5
4D1
  2
BLK30
 10
0.0
 20
0.0
 30
0.0
  0
INSERT
  8
0
  5
4D2
  2
BLK31
 10
0.0
 20
0.0
 30
0.0
  0
INSERT
  8
0
  5
4D3
  2
BLK32
 10
0.0
 20
0.0
 30
0.0
  0
INSERT
  8
0
  5
4D4
  2
BLK33
 10
0.0
 20
0.0
 30
0.0
  0
INSERT
  8
0
  5
4D5
  2
BLK34
 10
0.0
 20
0.0
 30
0.0
  0
INSERT
  8
0
  5
4D6
  2
BLK35
 10
0.0
 20
0.0
 30
0.0
  0
INSERT
  8
0
  5
4D7
  2
BLK36
 10
0.0
 20
0.0
 30
0.0
  0
INSERT
  8
0
  5
4D8
  2
BLK37
 10
0.0
 20
0.0
 30
0.0
  0
INSERT
  8
0
  5
4D9
  2
BLK38
 10
0.0
 20
0.0
 30
0.0
  0
INSERT
  8
0
  5
4DA
  2
BLK39
 10
0.0
 20
0.0
 30
0.0
  0
INSERT
  8
0
  5
4DB
  2
BLK40
 10
0.0
 20
0.0
 30
0.0
  0
INSERT
  8
0
  5
4DC
  2
BLK41
 10
0.0
 20
0.0
 30
0.0
  0
INSERT
  8
0
  5
4DD
  2
BLK42
 10
0.0
 20
0.0
 30
0.0
  0
INSERT
  8
0
  5
4DE
  2
BLK43
 10
0.0
 20
0.0
 30
0.0
  0
INSERT
  8
0
  5
4DF
  2
BLK44
 10
0.0
 20
0.0
 30
0.0
  0
INSERT
  8
0
  5
4E0
  2
BLK45
 10
0.0
 20
0.0
 30
0.0
  0
INSERT
  8
0
  5
4E1
  2
BLK46
 10
0.0
 20
0.0
 30
0.0
  0
INSERT
  8
0
  5
4E2
  2
BLK47
 10
0.0
 20
0.0
 30
0.0
  0
INSERT
  8
0
  5
4E3
  2
BLK48
 10
0.0
 20
0.0
 30
0.0
  0
INSERT
  8
0
  5
4E4
  2
*X80
 10
327.839507
 20
448.666976
 30
0.0
  0
INSERT
  8
0
  5
4E5
  2
BLK49
 10
0.0
 20
0.0
 30
0.0
  0
INSERT
  8
0
  5
4E6
  2
BLK50
 10
0.0
 20
0.0
 30
0.0
  0
INSERT
  8
0
  5
4E7
  2
BLK51
 10
0.0
 20
0.0
 30
0.0
  0
DIMENSION
  8
0
  5
4E8
  2
*D84
 10
270.839514
 20
476.0
 30
0.0
 11
270.839514
 21
476.0
 31
0.0
  1
%%c420
 13
70.839514
 23
455.161287
 33
0.0
 14
470.839514
 24
455.161287
 34
0.0
  3
LC-DIM-L-0090-02-02
  0
LINE
  8
LC-001-002-----0
  6
CONTINUOUS
  5
4EA
 10
346.840035
 20
439.667677
 30
0.0
 11
346.840035
 21
432.166293
 31
0.0
  0
LINE
  8
LC-001-002-----0
  6
DASHDOT
 62
     2
  5
4EC
 10
270.839514
 20
448.666987
 30
0.0
 11
270.839514
 21
232.165606
 31
0.0
  0
LINE
  8
LC-001-002-----0
  6
CONTINUOUS
  5
4ED
 10
156.598697
 20
455.161287
 30
0.0
 11
70.839514
 21
455.161287
 31
0.0
  0
LINE
  8
LC-001-002-----0
  6
CONTINUOUS
  5
4EE
 10
346.840035
 20
432.166293
 30
0.0
 11
345.198882
 21
432.166297
 31
0.0
  0
ARC
  8
LC-001-002-----0
  6
CONTINUOUS
  5
4EF
 10
340.840003
 20
441.166307
 30
0.0
 40
10.0
 50
244.157941
 51
295.841807
  0
LINE
  8
LC-001-002-----0
  6
CONTINUOUS
  5
4F0
 10
332.589738
 20
447.166296
 30
0.0
 11
337.839999
 21
447.166296
 31
0.0
  0
LINE
  8
LC-001-002-----0
  6
CONTINUOUS
  5
4F1
 10
338.340003
 20
439.033515
 30
0.0
 11
338.340003
 21
432.166296
 31
0.0
  0
LINE
  8
LC-001-002-----0
  6
CONTINUOUS
  5
4F2
 10
343.340003
 20
439.03477
 30
0.0
 11
343.340003
 21
432.166296
 31
0.0
  0
LINE
  8
LC-001-002-----0
  6
CONTINUOUS
  5
4F3
 10
343.838741
 20
447.166296
 30
0.0
 11
345.22155
 21
447.166296
 31
0.0
  0
LINE
  8
LC-002-004-----0
  6
CONTINUOUS
  5
4F5
 10
200.838667
 20
434.867443
 30
0.0
 11
200.839007
 21
434.866876
 31
0.0
  0
LINE
  8
LC-001-002-----0
  6
DASHDOT
 62
     2
  5
4F6
 10
200.839024
 20
455.366875
 30
0.0
 11
200.839024
 21
432.166296
 31
0.0
  0
LINE
  8
LC-001-002-----0
  6
CONTINUOUS
  5
4F7
 10
324.633742
 20
232.165606
 30
0.0
 11
325.839514
 21
236.665606
 31
0.0
  0
LINE
  8
LC-001-002-----0
  6
CONTINUOUS
  5
4F8
 10
338.340003
 20
432.166296
 30
0.0
 11
343.340003
 21
432.166296
 31
0.0
  0
LINE
  8
LC-002-004-----0
  6
CONTINUOUS
  5
4F9
 10
200.839024
 20
434.868038
 30
0.0
 11
200.837782
 21
434.865967
 31
0.0
  0
LINE
  8
LC-001-002-----0
  6
DASHDOT
 62
     2
  5
4FA
 10
340.840003
 20
455.366901
 30
0.0
 11
340.840003
 21
432.166296
 31
0.0
  0
LINE
  8
LC-001-002-----0
  6
CONTINUOUS
  5
4FB
 10
188.089024
 20
445.666987
 30
0.0
 11
185.839514
 21
445.666987
 31
0.0
  0
LINE
  8
LC-001-002-----0
  6
CONTINUOUS
  5
4FC
 10
336.481084
 20
432.165606
 30
0.0
 11
325.839514
 21
432.165606
 31
0.0
  0
LINE
  8
LC-001-002-----0
  6
CONTINUOUS
 62
     2
  5
4FD
 10
155.839514
 20
451.152241
 30
0.0
 11
155.839514
 21
450.124019
 31
0.0
  0
LINE
  8
LC-001-002-----0
  6
CONTINUOUS
  5
4FE
 10
166.050716
 20
454.854105
 30
0.0
 11
156.69665
 21
455.159688
 31
0.0
  0
LINE
  8
LC-001-002-----0
  6
CONTINUOUS
  5
4FF
 10
206.089402
 20
450.166296
 30
0.0
 11
206.089402
 21
447.166296
 31
0.0
  0
LINE
  8
LC-001-002-----0
  6
CONTINUOUS
  5
500
 10
345.22155
 20
447.166987
 30
0.0
 11
346.72155
 21
445.666987
 31
0.0
  0
LINE
  8
LC-001-002-----0
  6
CONTINUOUS
  5
501
 10
355.839514
 20
445.666987
 30
0.0
 11
346.72155
 21
445.666987
 31
0.0
  0
LINE
  8
LC-001-002-----0
  6
CONTINUOUS
  5
502
 10
193.089024
 20
448.666987
 30
0.0
 11
193.089024
 21
445.666987
 31
0.0
  0
LINE
  8
LC-001-002-----0
  6
CONTINUOUS
  5
503
 10
218.839514
 20
435.166987
 30
0.0
 11
322.839514
 21
435.166987
 31
0.0
  0
LINE
  8
LC-001-002-----0
  6
CONTINUOUS
  5
504
 10
188.089024
 20
448.666987
 30
0.0
 11
188.089024
 21
445.666987
 31
0.0
  0
LINE
  8
LC-001-002-----0
  6
CONTINUOUS
  5
505
 10
376.124443
 20
451.868712
 30
0.0
 11
385.064688
 21
452.165035
 31
0.0
  0
LINE
  8
LC-001-002-----0
  6
CONTINUOUS
  5
506
 10
330.83954
 20
435.166987
 30
0.0
 11
322.839514
 21
435.166987
 31
0.0
  0
LINE
  8
LC-001-002-----0
  6
CONTINUOUS
  5
507
 10
183.089024
 20
449.644971
 30
0.0
 11
183.089024
 21
446.507896
 31
0.0
  0
LINE
  8
LC-001-002-----0
  6
CONTINUOUS
  5
508
 10
178.089024
 20
451.173625
 30
0.0
 11
178.089024
 21
448.036549
 31
0.0
  0
LINE
  8
LC-001-002-----0
  6
CONTINUOUS
  5
509
 10
173.089024
 20
452.702278
 30
0.0
 11
173.089024
 21
449.565203
 31
0.0
  0
LINE
  8
LC-001-002-----0
  6
CONTINUOUS
 62
     2
  5
50A
 10
385.839514
 20
451.152241
 30
0.0
 11
385.839514
 21
450.124019
 31
0.0
  0
LINE
  8
LC-001-002-----0
  6
CONTINUOUS
  5
50B
 10
270.839514
 20
232.165606
 30
0.0
 11
218.839514
 21
232.165606
 31
0.0
  0
LINE
  8
LC-001-002-----0
  6
CONTINUOUS
  5
50C
 10
156.598697
 20
452.161287
 30
0.0
 11
70.839514
 21
452.161287
 31
0.0
  0
LINE
  8
LC-001-002-----0
  6
CONTINUOUS
  5
50D
 10
197.839024
 20
451.866885
 30
0.0
 11
197.839024
 21
447.166296
 31
0.0
  0
LINE
  8
LC-001-002-----0
  6
CONTINUOUS
  5
50E
 10
203.839024
 20
451.866899
 30
0.0
 11
203.839024
 21
447.166296
 31
0.0
  0
LINE
  8
LC-001-002-----0
  6
CONTINUOUS
  5
50F
 10
168.089024
 20
454.230931
 30
0.0
 11
168.089024
 21
451.093856
 31
0.0
  0
LINE
  8
LC-001-002-----0
  6
CONTINUOUS
  5
510
 10
70.839514
 20
455.161287
 30
0.0
 11
70.839514
 21
452.161287
 31
0.0
  0
LINE
  8
LC-001-002-----0
  6
CONTINUOUS
  5
511
 10
355.839514
 20
445.666987
 30
0.0
 11
376.124443
 21
451.868712
 31
0.0
  0
LINE
  8
LC-001-002-----0
  6
CONTINUOUS
  5
512
 10
186.287867
 20
448.666987
 30
0.0
 11
166.050716
 21
454.854105
 31
0.0
  0
LINE
  8
LC-001-002-----0
  6
CONTINUOUS
  5
513
 10
193.714836
 20
448.666987
 30
0.0
 11
186.287867
 21
448.666987
 31
0.0
  0
ARC
  8
LC-006-002-RND-0
  6
CONTINUOUS
  5
515
 10
383.839514
 20
450.124019
 30
0.0
 40
2.0
 50
360.0
 51
91.898364
  0
LINE
  8
LC-001-002-----0
  6
CONTINUOUS
  5
516
 10
356.287668
 20
442.11531
 30
0.0
 11
376.467743
 21
448.286361
 31
0.0
  0
LINE
  8
LC-001-002-----0
  6
CONTINUOUS
  5
517
 10
195.214146
 20
450.166296
 30
0.0
 11
193.714836
 21
448.666987
 31
0.0
  0
LINE
  8
LC-001-002-----0
  6
CONTINUOUS
  5
518
 10
210.839402
 20
435.166987
 30
0.0
 11
218.739514
 21
435.166987
 31
0.0
  0
LINE
  8
LC-001-002-----0
  6
CONTINUOUS
  5
519
 10
197.839024
 20
450.166296
 30
0.0
 11
195.214146
 21
450.166296
 31
0.0
  0
LINE
  8
LC-001-002-----0
  6
CONTINUOUS
  5
51A
 10
210.839402
 20
450.166296
 30
0.0
 11
203.839024
 21
450.166296
 31
0.0
  0
LINE
  8
LC-001-002-----0
  6
CONTINUOUS
  5
51B
 10
158.089024
 20
455.114201
 30
0.0
 11
158.089024
 21
452.112601
 31
0.0
  0
LINE
  8
LC-001-002-----0
  6
CONTINUOUS
  5
51C
 10
163.089024
 20
454.950859
 30
0.0
 11
163.089024
 21
451.949258
 31
0.0
  0
LINE
  8
LC-001-002-----0
  6
CONTINUOUS
  5
51D
 10
153.089024
 20
455.161287
 30
0.0
 11
153.089024
 21
452.161287
 31
0.0
  0
LINE
  8
LC-001-002-----0
  6
CONTINUOUS
  5
51E
 10
148.089024
 20
455.161287
 30
0.0
 11
148.089024
 21
452.161287
 31
0.0
  0
LINE
  8
LC-001-002-----0
  6
CONTINUOUS
  5
51F
 10
143.089024
 20
455.161287
 30
0.0
 11
143.089024
 21
452.161287
 31
0.0
  0
LINE
  8
LC-001-002-----0
  6
CONTINUOUS
  5
520
 10
270.839514
 20
232.165606
 30
0.0
 11
322.839514
 21
232.165606
 31
0.0
  0
LINE
  8
LC-001-002-----0
  6
CONTINUOUS
  5
521
 10
165.554584
 20
451.868712
 30
0.0
 11
156.598697
 21
452.161287
 31
0.0
  0
LINE
  8
LC-001-002-----0
  6
CONTINUOUS
  5
522
 10
185.391359
 20
442.11531
 30
0.0
 11
165.211284
 21
448.286361
 31
0.0
  0
LINE
  8
LC-001-002-----0
  6
CONTINUOUS
  5
523
 10
138.089024
 20
455.161287
 30
0.0
 11
138.089024
 21
452.161287
 31
0.0
  0
LINE
  8
LC-001-002-----0
  6
CONTINUOUS
  5
524
 10
133.089024
 20
455.161287
 30
0.0
 11
133.089024
 21
452.161287
 31
0.0
  0
LINE
  8
LC-001-002-----0
  6
CONTINUOUS
  5
525
 10
128.089024
 20
455.161287
 30
0.0
 11
128.089024
 21
452.161287
 31
0.0
  0
LINE
  8
LC-001-002-----0
  6
CONTINUOUS
  5
526
 10
123.089024
 20
455.161287
 30
0.0
 11
123.089024
 21
452.161287
 31
0.0
  0
LINE
  8
LC-001-002-----0
  6
CONTINUOUS
  5
527
 10
185.839514
 20
445.666987
 30
0.0
 11
165.554584
 21
451.868712
 31
0.0
  0
LINE
  8
LC-001-002-----0
  6
CONTINUOUS
  5
528
 10
118.089024
 20
455.161287
 30
0.0
 11
118.089024
 21
452.161287
 31
0.0
  0
LINE
  8
LC-001-002-----0
  6
CONTINUOUS
  5
529
 10
196.457477
 20
447.166987
 30
0.0
 11
194.957477
 21
445.666987
 31
0.0
  0
LINE
  8
LC-001-002-----0
  6
CONTINUOUS
  5
52A
 10
113.089024
 20
455.161287
 30
0.0
 11
113.089024
 21
452.161287
 31
0.0
  0
LINE
  8
LC-001-002-----0
  6
CONTINUOUS
  5
52B
 10
218.839514
 20
435.166987
 30
0.0
 11
218.739514
 21
435.166987
 31
0.0
  0
LINE
  8
LC-001-002-----0
  6
CONTINUOUS
  5
52C
 10
215.839514
 20
432.166296
 30
0.0
 11
215.839514
 21
432.166271
 31
0.0
  0
LINE
  8
LC-001-002-----0
  6
CONTINUOUS
  5
52D
 10
108.089024
 20
455.161287
 30
0.0
 11
108.089024
 21
452.161287
 31
0.0
  0
LINE
  8
LC-001-002-----0
  6
CONTINUOUS
  5
52E
 10
103.089024
 20
455.161287
 30
0.0
 11
103.089024
 21
452.161287
 31
0.0
  0
LINE
  8
LC-001-002-----0
  6
CONTINUOUS
  5
52F
 10
325.839514
 20
432.166296
 30
0.0
 11
325.839514
 21
236.665606
 31
0.0
  0
LINE
  8
LC-001-002-----0
  6
CONTINUOUS
  5
530
 10
215.839504
 20
432.166297
 30
0.0
 11
215.839514
 21
236.665606
 31
0.0
  0
LINE
  8
LC-001-002-----0
  6
CONTINUOUS
  5
531
 10
322.839514
 20
435.166987
 30
0.0
 11
322.839514
 21
232.165606
 31
0.0
  0
LINE
  8
LC-001-002-----0
  6
CONTINUOUS
  5
532
 10
218.839504
 20
435.166987
 30
0.0
 11
218.839514
 21
232.165606
 31
0.0
  0
LINE
  8
LC-001-002-----0
  6
CONTINUOUS
  5
533
 10
217.045285
 20
232.165606
 30
0.0
 11
215.839514
 21
236.665606
 31
0.0
  0
LINE
  8
LC-001-002-----0
  6
CONTINUOUS
  5
534
 10
98.089024
 20
455.161287
 30
0.0
 11
98.089024
 21
452.161287
 31
0.0
  0
LINE
  8
LC-001-002-----0
  6
CONTINUOUS
  5
535
 10
325.839514
 20
432.166296
 30
0.0
 11
325.839514
 21
432.166296
 31
0.0
  0
LINE
  8
LC-001-002-----0
  6
CONTINUOUS
  5
536
 10
322.839514
 20
435.166987
 30
0.0
 11
322.939514
 21
435.166987
 31
0.0
  0
LINE
  8
LC-001-002-----0
  6
CONTINUOUS
  5
537
 10
93.089024
 20
455.161287
 30
0.0
 11
93.089024
 21
452.161287
 31
0.0
  0
LINE
  8
LC-001-002-----0
  6
CONTINUOUS
  5
538
 10
330.83954
 20
447.166296
 30
0.0
 11
332.589738
 21
447.166296
 31
0.0
  0
LINE
  8
LC-001-002-----0
  6
CONTINUOUS
  5
539
 10
345.22155
 20
447.166987
 30
0.0
 11
344.589968
 21
447.166987
 31
0.0
  0
LINE
  8
LC-001-002-----0
  6
CONTINUOUS
  5
53A
 10
322.839514
 20
232.165606
 30
0.0
 11
324.633742
 21
232.165606
 31
0.0
  0
LINE
  8
LC-001-002-----0
  6
CONTINUOUS
  5
53B
 10
88.089024
 20
455.161287
 30
0.0
 11
88.089024
 21
452.161287
 31
0.0
  0
LINE
  8
LC-001-002-----0
  6
CONTINUOUS
  5
53C
 10
218.839514
 20
232.165606
 30
0.0
 11
217.045285
 21
232.165606
 31
0.0
  0
LINE
  8
LC-001-002-----0
  6
CONTINUOUS
  5
53D
 10
83.089024
 20
455.161287
 30
0.0
 11
83.089024
 21
452.161287
 31
0.0
  0
LINE
  8
LC-001-002-----0
  6
CONTINUOUS
  5
53E
 10
78.089024
 20
455.161287
 30
0.0
 11
78.089024
 21
452.161287
 31
0.0
  0
LINE
  8
LC-001-002-----0
  6
CONTINUOUS
  5
53F
 10
73.089024
 20
455.161287
 30
0.0
 11
73.089024
 21
452.161287
 31
0.0
  0
LINE
  8
LC-001-002-----0
  6
CONTINUOUS
  5
540
 10
345.22155
 20
447.166987
 30
0.0
 11
346.72155
 21
445.666987
 31
0.0
  0
LINE
  8
LC-001-002-----0
  6
CONTINUOUS
  5
541
 10
330.83954
 20
447.166296
 30
0.0
 11
330.83954
 21
435.166987
 31
0.0
  0
LINE
  8
LC-001-002-----0
  6
CONTINUOUS
  5
542
 10
198.339024
 20
432.166296
 30
0.0
 11
203.339024
 21
432.166296
 31
0.0
  0
LINE
  8
LC-001-002-----0
  6
CONTINUOUS
  5
543
 10
203.339024
 20
439.034698
 30
0.0
 11
203.339024
 21
432.166296
 31
0.0
  0
LINE
  8
LC-001-002-----0
  6
CONTINUOUS
  5
544
 10
198.339024
 20
439.03354
 30
0.0
 11
198.339024
 21
432.166296
 31
0.0
  0
LINE
  8
LC-001-002-----0
  6
CONTINUOUS
  5
545
 10
194.838992
 20
439.667677
 30
0.0
 11
194.838992
 21
432.166293
 31
0.0
  0
LINE
  8
LC-001-002-----0
  6
CONTINUOUS
  5
546
 10
194.838992
 20
432.166293
 30
0.0
 11
196.480145
 21
432.166297
 31
0.0
  0
LINE
  8
LC-001-002-----0
  6
CONTINUOUS
  5
547
 10
194.839514
 20
445.666987
 30
0.0
 11
188.089024
 21
445.666987
 31
0.0
  0
LINE
  8
LC-001-002-----0
  6
CONTINUOUS
  5
548
 10
209.089686
 20
447.166296
 30
0.0
 11
203.83779
 21
447.166296
 31
0.0
  0
LINE
  8
LC-001-002-----0
  6
CONTINUOUS
  5
549
 10
385.08033
 20
452.161287
 30
0.0
 11
470.839514
 21
452.161287
 31
0.0
  0
LINE
  8
LC-001-002-----0
  6
CONTINUOUS
  5
54A
 10
197.839041
 20
447.166296
 30
0.0
 11
196.457477
 21
447.166296
 31
0.0
  0
LINE
  8
LC-001-002-----0
  6
CONTINUOUS
  5
54B
 10
209.089514
 20
447.166987
 30
0.0
 11
330.83954
 21
447.166987
 31
0.0
  0
LINE
  8
LC-001-002-----0
  6
CONTINUOUS
  5
54C
 10
194.957477
 20
445.666987
 30
0.0
 11
194.839514
 21
445.666987
 31
0.0
  0
LINE
  8
LC-001-002-----0
  6
CONTINUOUS
  5
54D
 10
210.839402
 20
450.166296
 30
0.0
 11
210.839402
 21
435.166987
 31
0.0
  0
LINE
  8
LC-001-002-----0
  6
CONTINUOUS
  5
54E
 10
385.08033
 20
455.161287
 30
0.0
 11
470.839514
 21
455.161287
 31
0.0
  0
LINE
  8
LC-001-002-----0
  6
CONTINUOUS
  5
54F
 10
385.839514
 20
450.124019
 30
0.0
 11
385.839514
 21
448.642876
 31
0.0
  0
LINE
  8
LC-001-002-----0
  6
CONTINUOUS
  5
550
 10
468.590003
 20
455.161287
 30
0.0
 11
468.590003
 21
452.161287
 31
0.0
  0
LINE
  8
LC-001-002-----0
  6
CONTINUOUS
  5
551
 10
463.590003
 20
455.161287
 30
0.0
 11
463.590003
 21
452.161287
 31
0.0
  0
LINE
  8
LC-001-002-----0
  6
CONTINUOUS
  5
552
 10
458.590003
 20
455.161287
 30
0.0
 11
458.590003
 21
452.161287
 31
0.0
  0
LINE
  8
LC-001-002-----0
  6
CONTINUOUS
  5
553
 10
453.590003
 20
455.161287
 30
0.0
 11
453.590003
 21
452.161287
 31
0.0
  0
LINE
  8
LC-001-002-----0
  6
CONTINUOUS
  5
554
 10
448.590003
 20
455.161287
 30
0.0
 11
448.590003
 21
452.161287
 31
0.0
  0
LINE
  8
LC-001-002-----0
  6
CONTINUOUS
  5
555
 10
443.590003
 20
455.161287
 30
0.0
 11
443.590003
 21
452.161287
 31
0.0
  0
LINE
  8
LC-001-002-----0
  6
CONTINUOUS
  5
556
 10
438.590003
 20
455.161287
 30
0.0
 11
438.590003
 21
452.161287
 31
0.0
  0
LINE
  8
LC-001-002-----0
  6
CONTINUOUS
  5
557
 10
433.590003
 20
455.161287
 30
0.0
 11
433.590003
 21
452.161287
 31
0.0
  0
LINE
  8
LC-001-002-----0
  6
CONTINUOUS
  5
558
 10
428.590003
 20
455.161287
 30
0.0
 11
428.590003
 21
452.161287
 31
0.0
  0
LINE
  8
LC-001-002-----0
  6
CONTINUOUS
  5
559
 10
423.590003
 20
455.161287
 30
0.0
 11
423.590003
 21
452.161287
 31
0.0
  0
LINE
  8
LC-001-002-----0
  6
CONTINUOUS
  5
55A
 10
418.590003
 20
455.161287
 30
0.0
 11
418.590003
 21
452.161287
 31
0.0
  0
LINE
  8
LC-001-002-----0
  6
CONTINUOUS
  5
55B
 10
413.590003
 20
455.161287
 30
0.0
 11
413.590003
 21
452.161287
 31
0.0
  0
LINE
  8
LC-001-002-----0
  6
CONTINUOUS
  5
55C
 10
408.590003
 20
455.161287
 30
0.0
 11
408.590003
 21
452.161287
 31
0.0
  0
LINE
  8
LC-001-002-----0
  6
CONTINUOUS
  5
55D
 10
403.590003
 20
455.161287
 30
0.0
 11
403.590003
 21
452.161287
 31
0.0
  0
LINE
  8
LC-001-002-----0
  6
CONTINUOUS
  5
55E
 10
385.08033
 20
455.161287
 30
0.0
 11
470.839514
 21
455.161287
 31
0.0
  0
LINE
  8
LC-001-002-----0
  6
CONTINUOUS
  5
55F
 10
393.590003
 20
455.161287
 30
0.0
 11
393.590003
 21
452.161287
 31
0.0
  0
LINE
  8
LC-001-002-----0
  6
CONTINUOUS
  5
560
 10
388.590003
 20
455.161287
 30
0.0
 11
388.590003
 21
452.161287
 31
0.0
  0
LINE
  8
LC-001-002-----0
  6
CONTINUOUS
  5
561
 10
383.590003
 20
455.114201
 30
0.0
 11
383.590003
 21
452.112601
 31
0.0
  0
LINE
  8
LC-001-002-----0
  6
CONTINUOUS
  5
562
 10
378.590003
 20
454.950859
 30
0.0
 11
378.590003
 21
451.949258
 31
0.0
  0
LINE
  8
LC-001-002-----0
  6
CONTINUOUS
  5
563
 10
373.590003
 20
454.230931
 30
0.0
 11
373.590003
 21
451.093856
 31
0.0
  0
LINE
  8
LC-001-002-----0
  6
CONTINUOUS
  5
564
 10
368.590003
 20
452.702278
 30
0.0
 11
368.590003
 21
449.565203
 31
0.0
  0
LINE
  8
LC-001-002-----0
  6
CONTINUOUS
  5
565
 10
363.590003
 20
451.173625
 30
0.0
 11
363.590003
 21
448.036549
 31
0.0
  0
LINE
  8
LC-001-002-----0
  6
CONTINUOUS
  5
566
 10
358.590003
 20
449.644971
 30
0.0
 11
358.590003
 21
446.507896
 31
0.0
  0
LINE
  8
LC-001-002-----0
  6
CONTINUOUS
  5
567
 10
353.590003
 20
448.666987
 30
0.0
 11
353.590003
 21
445.666987
 31
0.0
  0
LINE
  8
LC-001-002-----0
  6
CONTINUOUS
  5
568
 10
348.590003
 20
448.666987
 30
0.0
 11
348.590003
 21
445.666987
 31
0.0
  0
LINE
  8
LC-001-002-----0
  6
CONTINUOUS
  5
569
 10
337.839999
 20
450.166296
 30
0.0
 11
337.839999
 21
447.166296
 31
0.0
  0
ARC
  8
LC-001-002-----0
  6
CONTINUOUS
  5
56A
 10
200.839024
 20
441.166307
 30
0.0
 40
10.0
 50
244.158193
 51
295.842059
  0
LINE
  8
LC-001-002-----0
  6
CONTINUOUS
  5
56B
 10
205.197943
 20
432.166316
 30
0.0
 11
215.839504
 21
432.16634
 31
0.0
  0
LINE
  8
LC-001-002-----0
  6
CONTINUOUS
  5
56C
 10
335.589621
 20
450.166296
 30
0.0
 11
335.589621
 21
447.166296
 31
0.0
  0
LINE
  8
LC-001-002-----0
  6
CONTINUOUS
  5
56D
 10
330.839626
 20
450.166296
 30
0.0
 11
330.839626
 21
435.166987
 31
0.0
  0
LINE
  8
LC-001-002-----0
  6
CONTINUOUS
  5
56E
 10
330.839626
 20
450.166296
 30
0.0
 11
337.839999
 21
450.166296
 31
0.0
  0
LINE
  8
LC-001-002-----0
  6
CONTINUOUS
  5
56F
 10
343.838741
 20
450.166296
 30
0.0
 11
343.838741
 21
447.166296
 31
0.0
  0
LINE
  8
LC-001-002-----0
  6
CONTINUOUS
  5
570
 10
343.838741
 20
450.166296
 30
0.0
 11
346.464881
 21
450.166296
 31
0.0
  0
LINE
  8
LC-001-002-----0
  6
CONTINUOUS
  5
571
 10
346.464881
 20
450.166296
 30
0.0
 11
347.964191
 21
448.666987
 31
0.0
  0
LINE
  8
LC-001-002-----0
  6
CONTINUOUS
  5
572
 10
353.027968
 20
448.666977
 30
0.0
 11
348.732881
 21
448.666987
 31
0.0
  0
LINE
  8
LC-001-002-----0
  6
CONTINUOUS
  5
573
 10
355.391161
 20
448.666987
 30
0.0
 11
375.628312
 21
454.854105
 31
0.0
  0
LINE
  8
LC-001-002-----0
  6
CONTINUOUS
  5
574
 10
375.628312
 20
454.854105
 30
0.0
 11
384.982377
 21
455.159688
 31
0.0
  0
LINE
  8
LC-008-005-----0
  6
CONTINUOUS
  5
575
 10
218.02347
 20
232.165606
 30
0.0
 11
218.839514
 21
232.981649
 31
0.0
  0
LINE
  8
LC-001-002-----0
  6
CONTINUOUS
  5
576
 10
470.839514
 20
455.161287
 30
0.0
 11
470.839514
 21
452.161287
 31
0.0
  0
LINE
  8
LC-001-002-----0
  6
CONTINUOUS
  5
577
 10
344.589999
 20
451.166852
 30
0.0
 11
344.589999
 21
451.866852
 31
0.0
  0
LINE
  8
LC-001-002-----0
  6
CONTINUOUS
  5
578
 10
328.839505
 20
449.56695
 30
0.0
 11
330.339507
 21
449.566941
 31
0.0
  0
LINE
  8
LC-002-004-----0
  6
CONTINUOUS
  5
579
 10
194.839053
 20
451.866892
 30
0.0
 11
200.839053
 21
451.866875
 31
0.0
  0
LINE
  8
LC-002-004-----0
  6
CONTINUOUS
  5
57A
 10
197.839041
 20
447.166296
 30
0.0
 11
197.839021
 21
439.866884
 31
0.0
  0
LINE
  8
LC-002-004-----0
  6
CONTINUOUS
  5
57B
 10
197.839021
 20
439.866884
 30
0.0
 11
200.839024
 21
434.866848
 31
0.0
  0
LINE
  8
LC-001-002-----0
  6
CONTINUOUS
  5
57C
 10
345.81882
 20
451.166844
 30
0.0
 11
344.589999
 21
451.166852
 31
0.0
  0
LINE
  8
LC-002-004-----0
  6
CONTINUOUS
 62
     2
  5
57D
 10
197.839049
 20
450.366883
 30
0.0
 11
198.839049
 21
450.366881
 31
0.0
  0
ARC
  8
LC-001-002-----0
  6
CONTINUOUS
  5
57E
 10
328.839507
 20
449.86695
 30
0.0
 40
1.0
 50
89.998287
 51
270.0
  0
LINE
  8
LC-002-004-----0
  6
CONTINUOUS
 62
     2
  5
57F
 10
198.839049
 20
450.366881
 30
0.0
 11
198.839017
 21
438.366881
 31
0.0
  0
LINE
  8
LC-002-004-----0
  6
CONTINUOUS
  5
580
 10
200.039063
 20
455.366878
 30
0.0
 11
200.039059
 21
453.866878
 31
0.0
  0
LINE
  8
LC-002-004-----0
  6
CONTINUOUS
  5
581
 10
200.039059
 20
453.866878
 30
0.0
 11
200.839059
 21
453.866875
 31
0.0
  0
LINE
  8
LC-001-002-----0
  6
CONTINUOUS
  5
582
 10
185.825747
 20
450.666985
 30
0.0
 11
186.591454
 21
450.666985
 31
0.0
  0
LINE
  8
LC-002-004-----0
  6
CONTINUOUS
  5
583
 10
197.839021
 20
439.866884
 30
0.0
 11
200.839021
 21
439.866875
 31
0.0
  0
ARC
  8
LC-006-002-RND-0
  6
CONTINUOUS
  5
584
 10
195.860207
 20
451.166844
 30
0.0
 40
0.7
 50
90.000358
 51
135.0
  0
LINE
  8
LC-002-004-----0
  6
CONTINUOUS
  5
585
 10
206.837793
 20
451.865962
 30
0.0
 11
200.837793
 21
451.865966
 31
0.0
  0
LINE
  8
LC-002-004-----0
  6
CONTINUOUS
  5
586
 10
203.83779
 20
447.166296
 30
0.0
 11
203.837785
 21
439.865965
 31
0.0
  0
LINE
  8
LC-001-002-----0
  6
CONTINUOUS
  5
587
 10
348.732891
 20
449.366987
 30
0.0
 11
353.027434
 21
449.366977
 31
0.0
  0
LINE
  8
LC-002-004-----0
  6
CONTINUOUS
  5
588
 10
203.837785
 20
439.865965
 30
0.0
 11
200.839024
 21
434.868038
 31
0.0
  0
LINE
  8
LC-002-004-----0
  6
CONTINUOUS
 62
     2
  5
589
 10
203.837792
 20
450.365964
 30
0.0
 11
198.839049
 21
450.365968
 31
0.0
  0
LINE
  8
LC-002-004-----0
  6
CONTINUOUS
 62
     2
  5
58A
 10
202.837792
 20
450.365965
 30
0.0
 11
202.837784
 21
438.365965
 31
0.0
  0
LINE
  8
LC-002-004-----0
  6
CONTINUOUS
  5
58B
 10
201.637795
 20
455.365966
 30
0.0
 11
201.637794
 21
453.865966
 31
0.0
  0
LINE
  8
LC-002-004-----0
  6
CONTINUOUS
  5
58C
 10
201.637794
 20
453.865966
 30
0.0
 11
200.837794
 21
453.865966
 31
0.0
  0
LINE
  8
LC-002-004-----0
  6
CONTINUOUS
  5
58D
 10
203.837785
 20
439.865965
 30
0.0
 11
200.837785
 21
439.865967
 31
0.0
  0
LINE
  8
LC-002-004-----0
  6
CONTINUOUS
  5
58E
 10
194.83906
 20
454.366892
 30
0.0
 11
194.839053
 21
451.866892
 31
0.0
  0
ARC
  8
LC-002-004-----0
  6
CONTINUOUS
  5
58F
 10
195.83906
 20
454.366889
 30
0.0
 40
1.0
 50
89.99996
 51
179.999846
  0
LINE
  8
LC-002-004-----0
  6
CONTINUOUS
  5
590
 10
200.039063
 20
455.366878
 30
0.0
 11
195.839063
 21
455.366889
 31
0.0
  0
ARC
  8
LC-006-002-RND-0
  6
CONTINUOUS
  5
591
 10
206.839029
 20
451.166913
 30
0.0
 40
0.7
 50
36.870027
 51
90.000358
  0
LINE
  8
LC-002-004-----0
  6
CONTINUOUS
  5
592
 10
334.840003
 20
451.866915
 30
0.0
 11
340.840003
 21
451.866899
 31
0.0
  0
ARC
  8
LC-001-002-----0
  6
CONTINUOUS
  5
593
 10
353.02485
 20
451.666976
 30
0.0
 40
3.0
 50
269.940189
 51
340.52896
  0
LINE
  8
LC-001-002-----0
  6
CONTINUOUS
  5
594
 10
186.287867
 20
448.666972
 30
0.0
 11
193.714838
 21
448.666989
 31
0.0
  0
LINE
  8
LC-001-002-----0
  6
CONTINUOUS
  5
595
 10
355.391161
 20
448.666972
 30
0.0
 11
347.964189
 21
448.666989
 31
0.0
  0
LINE
  8
LC-001-002-----0
  6
CONTINUOUS
  5
596
 10
345.81882
 20
451.166844
 30
0.0
 11
348.025785
 21
448.95988
 31
0.0
  0
ARC
  8
LC-006-002-RND-0
  6
CONTINUOUS
  5
597
 10
207.939026
 20
450.86692
 30
0.0
 40
0.7
 50
216.870027
 51
270.000358
  0
LINE
  8
LC-001-002-----0
  6
CONTINUOUS
  5
598
 10
334.839999
 20
451.166913
 30
0.0
 11
337.089999
 21
451.166899
 31
0.0
  0
LINE
  8
LC-002-004-----0
  6
CONTINUOUS
  5
599
 10
337.840003
 20
451.866907
 30
0.0
 11
337.839971
 21
439.866907
 31
0.0
  0
LINE
  8
LC-001-002-----0
  6
CONTINUOUS
  5
59A
 10
334.3
 20
450.446918
 30
0.0
 11
334.839999
 21
451.166913
 31
0.0
  0
ARC
  8
LC-001-002-----0
  6
CONTINUOUS
  5
59B
 10
348.732891
 20
449.666987
 30
0.0
 40
0.3
 50
225.0
 51
269.999874
  0
ARC
  8
LC-001-002-----0
  6
CONTINUOUS
  5
59C
 10
353.02485
 20
451.653441
 30
0.0
 40
2.286465
 50
270.0
 51
334.44147
  0
LINE
  8
LC-002-004-----0
  6
CONTINUOUS
  5
59D
 10
337.839971
 20
439.866907
 30
0.0
 11
340.839957
 21
434.866899
 31
0.0
  0
LINE
  8
LC-002-004-----0
  6
CONTINUOUS
 62
     2
  5
59E
 10
337.839999
 20
450.366907
 30
0.0
 11
338.839999
 21
450.366904
 31
0.0
  0
LINE
  8
LC-001-002-----0
  6
CONTINUOUS
  5
59F
 10
333.739997
 20
450.16692
 30
0.0
 11
328.839509
 21
450.16695
 31
0.0
  0
ARC
  8
LC-006-002-RND-0
  6
CONTINUOUS
  5
5A0
 10
345.81882
 20
451.166844
 30
0.0
 40
0.7
 50
45.0
 51
89.999642
  0
ARC
  8
LC-006-002-RND-0
  6
CONTINUOUS
  5
5A1
 10
333.740001
 20
450.86692
 30
0.0
 40
0.7
 50
269.999642
 51
323.129973
  0
LINE
  8
LC-001-002-----0
  6
CONTINUOUS
  5
5A2
 10
207.939026
 20
450.86692
 30
0.0
 11
207.399028
 21
451.586914
 31
0.0
  0
LINE
  8
LC-002-004-----0
  6
CONTINUOUS
 62
     2
  5
5A3
 10
338.839999
 20
450.366904
 30
0.0
 11
338.839967
 21
438.366904
 31
0.0
  0
LINE
  8
LC-002-004-----0
  6
CONTINUOUS
  5
5A4
 10
340.040013
 20
455.366901
 30
0.0
 11
340.040008
 21
453.866901
 31
0.0
  0
LINE
  8
LC-001-002-----0
  6
CONTINUOUS
  5
5A5
 10
337.089999
 20
451.166899
 30
0.0
 11
337.089999
 21
451.866899
 31
0.0
  0
LINE
  8
LC-001-002-----0
  6
CONTINUOUS
  5
5A6
 10
333.740001
 20
450.86692
 30
0.0
 11
334.28
 21
451.586914
 31
0.0
  0
LINE
  8
LC-002-004-----0
  6
CONTINUOUS
  5
5A7
 10
340.040008
 20
453.866901
 30
0.0
 11
340.840008
 21
453.866899
 31
0.0
  0
LINE
  8
LC-001-002-----0
  6
CONTINUOUS
  5
5A8
 10
328.839513
 20
450.86695
 30
0.0
 11
333.740001
 21
450.86692
 31
0.0
  0
ARC
  8
LC-006-002-RND-0
  6
CONTINUOUS
  5
5A9
 10
334.839999
 20
451.166913
 30
0.0
 40
0.7
 50
89.999642
 51
143.129973
  0
LINE
  8
LC-001-002-----0
  6
CONTINUOUS
  5
5AA
 10
330.339507
 20
449.566941
 30
0.0
 11
330.339507
 21
448.866941
 31
0.0
  0
LINE
  8
LC-002-004-----0
  6
CONTINUOUS
  5
5AB
 10
337.839971
 20
439.866907
 30
0.0
 11
340.839971
 21
439.866899
 31
0.0
  0
LINE
  8
LC-002-004-----0
  6
CONTINUOUS
  5
5AC
 10
346.838742
 20
451.865986
 30
0.0
 11
340.838743
 21
451.86599
 31
0.0
  0
LINE
  8
LC-002-004-----0
  6
CONTINUOUS
  5
5AD
 10
343.838743
 20
451.865988
 30
0.0
 11
343.838735
 21
439.865988
 31
0.0
  0
LINE
  8
LC-001-002-----0
  6
CONTINUOUS
  5
5AE
 10
207.93903
 20
450.16692
 30
0.0
 11
212.839519
 21
450.16695
 31
0.0
  0
LINE
  8
LC-002-004-----0
  6
CONTINUOUS
  5
5AF
 10
343.838735
 20
439.865988
 30
0.0
 11
340.838731
 21
434.86599
 31
0.0
  0
LINE
  8
LC-001-002-----0
  6
CONTINUOUS
  5
5B0
 10
344.589999
 20
451.866852
 30
0.0
 11
345.818825
 21
451.866844
 31
0.0
  0
LINE
  8
LC-001-002-----0
  6
CONTINUOUS
  5
5B1
 10
212.839521
 20
448.86695
 30
0.0
 11
211.339521
 21
448.86695
 31
0.0
  0
LINE
  8
LC-001-002-----0
  6
CONTINUOUS
  5
5B2
 10
188.651059
 20
448.666977
 30
0.0
 11
192.946146
 21
448.666987
 31
0.0
  0
ARC
  8
LC-006-002-RND-0
  6
CONTINUOUS
  5
5B3
 10
348.732891
 20
449.666987
 30
0.0
 40
1.0
 50
225.0
 51
269.999425
  0
LINE
  8
LC-002-004-----0
  6
CONTINUOUS
 62
     2
  5
5B4
 10
343.838742
 20
450.365988
 30
0.0
 11
338.839999
 21
450.365991
 31
0.0
  0
ARC
  8
LC-006-002-RND-0
  6
CONTINUOUS
  5
5B5
 10
192.946136
 20
449.666987
 30
0.0
 40
1.0
 50
270.000575
 51
315.0
  0
LINE
  8
LC-001-002-----0
  6
CONTINUOUS
  5
5B6
 10
195.860207
 20
451.166844
 30
0.0
 11
193.653243
 21
448.95988
 31
0.0
  0
ARC
  8
LC-001-002-----0
  6
CONTINUOUS
  5
5B7
 10
212.839521
 20
449.86695
 30
0.0
 40
1.0
 50
270.0
 51
90.001713
  0
ARC
  8
LC-001-002-----0
  6
CONTINUOUS
  5
5B8
 10
188.654177
 20
451.666976
 30
0.0
 40
3.0
 50
199.47104
 51
270.059811
  0
LINE
  8
LC-001-002-----0
  6
CONTINUOUS
  5
5B9
 10
337.089999
 20
451.866899
 30
0.0
 11
334.840003
 21
451.866913
 31
0.0
  0
LINE
  8
LC-001-002-----0
  6
CONTINUOUS
  5
5BA
 10
346.313795
 20
451.661819
 30
0.0
 11
348.520759
 21
449.454855
 31
0.0
  0
ARC
  8
LC-001-002-----0
  6
CONTINUOUS
  5
5BB
 10
328.839507
 20
449.86695
 30
0.0
 40
0.3
 50
89.990988
 51
270.008296
  0
LINE
  8
LC-001-002-----0
  6
CONTINUOUS
  5
5BC
 10
207.379027
 20
450.446918
 30
0.0
 11
206.839029
 21
451.166913
 31
0.0
  0
LINE
  8
LC-001-002-----0
  6
CONTINUOUS
  5
5BD
 10
212.839522
 20
449.56695
 30
0.0
 11
211.339521
 21
449.566941
 31
0.0
  0
LINE
  8
LC-001-002-----0
  6
CONTINUOUS
  5
5BE
 10
211.339521
 20
449.566941
 30
0.0
 11
211.339521
 21
448.866941
 31
0.0
  0
ARC
  8
LC-001-002-----0
  6
CONTINUOUS
  5
5BF
 10
212.839521
 20
449.86695
 30
0.0
 40
0.3
 50
269.991704
 51
90.009012
  0
LINE
  8
LC-001-002-----0
  6
CONTINUOUS
  5
5C0
 10
206.839029
 20
451.166913
 30
0.0
 11
204.589029
 21
451.166899
 31
0.0
  0
LINE
  8
LC-001-002-----0
  6
CONTINUOUS
  5
5C1
 10
204.589029
 20
451.166899
 30
0.0
 11
204.589029
 21
451.866899
 31
0.0
  0
LINE
  8
LC-002-004-----0
  6
CONTINUOUS
 62
     2
  5
5C2
 10
342.838742
 20
450.365989
 30
0.0
 11
342.838734
 21
438.365989
 31
0.0
  0
LINE
  8
LC-001-002-----0
  6
CONTINUOUS
  5
5C3
 10
204.589029
 20
451.866899
 30
0.0
 11
206.839024
 21
451.866913
 31
0.0
  0
LINE
  8
LC-001-002-----0
  6
CONTINUOUS
  5
5C4
 10
195.860207
 20
451.166844
 30
0.0
 11
197.089029
 21
451.166852
 31
0.0
  0
LINE
  8
LC-001-002-----0
  6
CONTINUOUS
  5
5C5
 10
197.089029
 20
451.166852
 30
0.0
 11
197.089029
 21
451.866852
 31
0.0
  0
LINE
  8
LC-001-002-----0
  6
CONTINUOUS
  5
5C6
 10
197.089029
 20
451.866852
 30
0.0
 11
195.860202
 21
451.866844
 31
0.0
  0
LINE
  8
LC-001-002-----0
  6
CONTINUOUS
  5
5C7
 10
330.339507
 20
448.866941
 30
0.0
 11
328.839507
 21
448.866941
 31
0.0
  0
ARC
  8
LC-001-002-----0
  6
CONTINUOUS
  5
5C8
 10
188.654177
 20
451.653441
 30
0.0
 40
2.286465
 50
205.55853
 51
270.0
  0
LINE
  8
LC-001-002-----0
  6
CONTINUOUS
  5
5C9
 10
195.365232
 20
451.661819
 30
0.0
 11
193.158268
 21
449.454855
 31
0.0
  0
ARC
  8
LC-001-002-----0
  6
CONTINUOUS
  5
5CA
 10
192.946136
 20
449.666987
 30
0.0
 40
0.3
 50
270.000126
 51
315.0
  0
LINE
  8
LC-001-002-----0
  6
CONTINUOUS
  5
5CB
 10
192.946137
 20
449.366987
 30
0.0
 11
188.651594
 21
449.366977
 31
0.0
  0
LINE
  8
LC-001-002-----0
  6
CONTINUOUS
  5
5CC
 10
212.839514
 20
450.86695
 30
0.0
 11
207.939026
 21
450.86692
 31
0.0
  0
LINE
  8
LC-002-004-----0
  6
CONTINUOUS
  5
5CD
 10
341.638745
 20
455.365989
 30
0.0
 11
341.638744
 21
453.865989
 31
0.0
  0
LINE
  8
LC-002-004-----0
  6
CONTINUOUS
  5
5CE
 10
341.638744
 20
453.865989
 30
0.0
 11
340.838744
 21
453.86599
 31
0.0
  0
LINE
  8
LC-002-004-----0
  6
CONTINUOUS
  5
5CF
 10
343.838735
 20
439.865988
 30
0.0
 11
340.838735
 21
439.86599
 31
0.0
  0
LINE
  8
LC-002-004-----0
  6
CONTINUOUS
  5
5D0
 10
334.84001
 20
454.366915
 30
0.0
 11
334.840003
 21
451.866915
 31
0.0
  0
ARC
  8
LC-002-004-----0
  6
CONTINUOUS
  5
5D1
 10
335.84001
 20
454.366912
 30
0.0
 40
1.0
 50
89.99996
 51
179.999846
  0
LINE
  8
LC-002-004-----0
  6
CONTINUOUS
  5
5D2
 10
340.040013
 20
455.366901
 30
0.0
 11
335.840013
 21
455.366912
 31
0.0
  0
LINE
  8
LC-002-004-----0
  6
CONTINUOUS
  5
5D3
 10
346.838744
 20
454.365986
 30
0.0
 11
346.838742
 21
451.865986
 31
0.0
  0
ARC
  8
LC-002-004-----0
  6
CONTINUOUS
  5
5D4
 10
345.838744
 20
454.365986
 30
0.0
 40
1.0
 50
359.999963
 51
90.000002
  0
LINE
  8
LC-002-004-----0
  6
CONTINUOUS
  5
5D5
 10
341.638745
 20
455.365989
 30
0.0
 11
345.838745
 21
455.365986
 31
0.0
  0
LINE
  8
LC-002-004-----0
  6
CONTINUOUS
  5
5D6
 10
206.837794
 20
454.365962
 30
0.0
 11
206.837793
 21
451.865962
 31
0.0
  0
ARC
  8
LC-002-004-----0
  6
CONTINUOUS
  5
5D7
 10
205.837794
 20
454.365963
 30
0.0
 40
1.0
 50
359.999963
 51
90.000002
  0
LINE
  8
LC-002-004-----0
  6
CONTINUOUS
  5
5D8
 10
201.637795
 20
455.365966
 30
0.0
 11
205.837795
 21
455.365963
 31
0.0
  0
LINE
  8
LC-008-005-----0
  6
CONTINUOUS
  5
5D9
 10
216.654283
 20
233.624846
 30
0.0
 11
218.839513
 21
235.810076
 31
0.0
  0
LINE
  8
LC-001-002-----0
  6
CONTINUOUS
  5
5DA
 10
355.087573
 20
450.666985
 30
0.0
 11
355.85328
 21
450.666985
 31
0.0
  0
LINE
  8
LC-001-002-----0
  6
CONTINUOUS
  5
5DB
 10
322.839076
 20
435.166987
 30
0.0
 11
330.839121
 21
435.166987
 31
0.0
  0
LINE
  8
LC-001-002-----0
  6
CONTINUOUS
  5
5DC
 10
330.839121
 20
435.166987
 30
0.0
 11
330.839121
 21
445.166212
 31
0.0
  0
LINE
  8
LC-001-002-----0
  6
CONTINUOUS
  5
5DD
 10
269.339526
 20
435.166987
 30
0.0
 11
272.339501
 21
435.166987
 31
0.0
  0
LINE
  8
LC-001-002-----0
  6
CONTINUOUS
  5
5DE
 10
322.839076
 20
435.166987
 30
0.0
 11
210.839907
 21
435.166987
 31
0.0
  0
LINE
  8
LC-001-002-----0
  6
CONTINUOUS
  5
5DF
 10
210.839907
 20
435.166987
 30
0.0
 11
210.839907
 21
445.166212
 31
0.0
  0
LINE
  8
LC-001-002-----0
  6
CONTINUOUS
  5
5E0
 10
187.838992
 20
439.667677
 30
0.0
 11
185.391359
 21
442.11531
 31
0.0
  0
LINE
  8
LC-001-002-----0
  6
CONTINUOUS
  5
5E1
 10
194.838992
 20
439.667677
 30
0.0
 11
187.838992
 21
439.667677
 31
0.0
  0
LINE
  8
LC-001-002-----0
  6
CONTINUOUS
  5
5E2
 10
187.838992
 20
442.167677
 30
0.0
 11
187.838992
 21
445.667677
 31
0.0
  0
LINE
  8
LC-001-002-----0
  6
CONTINUOUS
  5
5E3
 10
194.838992
 20
442.167677
 30
0.0
 11
187.838992
 21
442.167677
 31
0.0
  0
LINE
  8
LC-001-002-----0
  6
CONTINUOUS
  5
5E4
 10
194.839514
 20
445.667677
 30
0.0
 11
194.839514
 21
442.167677
 31
0.0
  0
LINE
  8
LC-001-002-----0
  6
CONTINUOUS
  5
5E5
 10
353.840035
 20
439.667677
 30
0.0
 11
356.287668
 21
442.11531
 31
0.0
  0
LINE
  8
LC-001-002-----0
  6
CONTINUOUS
  5
5E6
 10
346.840035
 20
439.667677
 30
0.0
 11
353.840035
 21
439.667677
 31
0.0
  0
LINE
  8
LC-001-002-----0
  6
CONTINUOUS
  5
5E7
 10
346.839514
 20
445.667677
 30
0.0
 11
346.839514
 21
442.167677
 31
0.0
  0
LINE
  8
LC-001-002-----0
  6
CONTINUOUS
  5
5E8
 10
346.840035
 20
442.167677
 30
0.0
 11
353.840035
 21
442.167677
 31
0.0
  0
LINE
  8
LC-001-002-----0
  6
CONTINUOUS
  5
5E9
 10
353.840035
 20
442.167677
 30
0.0
 11
353.840035
 21
445.667677
 31
0.0
  0
LINE
  8
LC-001-002-----0
  6
CONTINUOUS
  5
5EA
 10
298.890037
 20
447.166987
 30
0.0
 11
298.890037
 21
450.166987
 31
0.0
  0
LINE
  8
LC-001-002-----0
  6
CONTINUOUS
  5
5EB
 10
298.890037
 20
450.166987
 30
0.0
 11
303.839527
 21
450.166987
 31
0.0
  0
LINE
  8
LC-001-002-----0
  6
CONTINUOUS
  5
5EC
 10
303.839527
 20
450.166987
 30
0.0
 11
303.839527
 21
447.166987
 31
0.0
  0
LINE
  8
LC-008-005-----0
  6
CONTINUOUS
  5
5ED
 10
216.056566
 20
235.855556
 30
0.0
 11
218.839513
 21
238.638503
 31
0.0
  0
LINE
  8
LC-008-005-----0
  6
CONTINUOUS
  5
5EE
 10
215.839514
 20
238.466931
 30
0.0
 11
218.839513
 21
241.46693
 31
0.0
  0
LINE
  8
LC-008-005-----0
  6
CONTINUOUS
  5
5EF
 10
215.839513
 20
241.295358
 30
0.0
 11
218.839513
 21
244.295357
 31
0.0
  0
LINE
  8
LC-008-005-----0
  6
CONTINUOUS
  5
5F0
 10
215.839513
 20
244.123785
 30
0.0
 11
218.839513
 21
247.123784
 31
0.0
  0
LINE
  8
LC-008-005-----0
  6
CONTINUOUS
  5
5F1
 10
215.839513
 20
246.952212
 30
0.0
 11
218.839513
 21
249.952211
 31
0.0
  0
LINE
  8
LC-008-005-----0
  6
CONTINUOUS
  5
5F2
 10
215.839513
 20
249.780639
 30
0.0
 11
218.839513
 21
252.780638
 31
0.0
  0
LINE
  8
LC-008-005-----0
  6
CONTINUOUS
  5
5F3
 10
215.839513
 20
252.609066
 30
0.0
 11
218.839513
 21
255.609065
 31
0.0
  0
LINE
  8
LC-008-005-----0
  6
CONTINUOUS
  5
5F4
 10
215.839513
 20
255.437492
 30
0.0
 11
218.839512
 21
258.437492
 31
0.0
  0
LINE
  8
LC-008-005-----0
  6
CONTINUOUS
  5
5F5
 10
215.839513
 20
258.265919
 30
0.0
 11
218.839512
 21
261.265919
 31
0.0
  0
LINE
  8
LC-008-005-----0
  6
CONTINUOUS
  5
5F6
 10
215.839512
 20
261.094346
 30
0.0
 11
218.839512
 21
264.094346
 31
0.0
  0
LINE
  8
LC-008-005-----0
  6
CONTINUOUS
  5
5F7
 10
215.839512
 20
263.922773
 30
0.0
 11
218.839512
 21
266.922773
 31
0.0
  0
LINE
  8
LC-008-005-----0
  6
CONTINUOUS
  5
5F8
 10
215.839512
 20
266.7512
 30
0.0
 11
218.839512
 21
269.7512
 31
0.0
  0
LINE
  8
LC-008-005-----0
  6
CONTINUOUS
  5
5F9
 10
215.839512
 20
269.579627
 30
0.0
 11
218.839512
 21
272.579627
 31
0.0
  0
LINE
  8
LC-008-005-----0
  6
CONTINUOUS
  5
5FA
 10
215.839512
 20
272.408054
 30
0.0
 11
218.839512
 21
275.408054
 31
0.0
  0
LINE
  8
LC-008-005-----0
  6
CONTINUOUS
  5
5FB
 10
215.839512
 20
275.236481
 30
0.0
 11
218.839512
 21
278.236481
 31
0.0
  0
LINE
  8
LC-008-005-----0
  6
CONTINUOUS
  5
5FC
 10
215.839512
 20
278.064908
 30
0.0
 11
218.839511
 21
281.064908
 31
0.0
  0
LINE
  8
LC-008-005-----0
  6
CONTINUOUS
  5
5FD
 10
215.839512
 20
280.893335
 30
0.0
 11
218.839511
 21
283.893335
 31
0.0
  0
LINE
  8
LC-008-005-----0
  6
CONTINUOUS
  5
5FE
 10
215.839511
 20
283.721762
 30
0.0
 11
218.839511
 21
286.721762
 31
0.0
  0
LINE
  8
LC-008-005-----0
  6
CONTINUOUS
  5
5FF
 10
215.839511
 20
286.550189
 30
0.0
 11
218.839511
 21
289.550189
 31
0.0
  0
LINE
  8
LC-008-005-----0
  6
CONTINUOUS
  5
600
 10
215.839511
 20
289.378616
 30
0.0
 11
218.839511
 21
292.378616
 31
0.0
  0
LINE
  8
LC-008-005-----0
  6
CONTINUOUS
  5
601
 10
215.839511
 20
292.207043
 30
0.0
 11
218.839511
 21
295.207043
 31
0.0
  0
LINE
  8
LC-008-005-----0
  6
CONTINUOUS
  5
602
 10
215.839511
 20
295.03547
 30
0.0
 11
218.839511
 21
298.03547
 31
0.0
  0
LINE
  8
LC-008-005-----0
  6
CONTINUOUS
  5
603
 10
215.839511
 20
297.863897
 30
0.0
 11
218.83951
 21
300.863897
 31
0.0
  0
LINE
  8
LC-008-005-----0
  6
CONTINUOUS
  5
604
 10
215.839511
 20
300.692324
 30
0.0
 11
218.83951
 21
303.692324
 31
0.0
  0
LINE
  8
LC-008-005-----0
  6
CONTINUOUS
  5
605
 10
215.83951
 20
303.520751
 30
0.0
 11
218.83951
 21
306.520751
 31
0.0
  0
LINE
  8
LC-008-005-----0
  6
CONTINUOUS
  5
606
 10
215.83951
 20
306.349178
 30
0.0
 11
218.83951
 21
309.349178
 31
0.0
  0
LINE
  8
LC-008-005-----0
  6
CONTINUOUS
  5
607
 10
215.83951
 20
309.177605
 30
0.0
 11
218.83951
 21
312.177605
 31
0.0
  0
LINE
  8
LC-008-005-----0
  6
CONTINUOUS
  5
608
 10
215.83951
 20
312.006032
 30
0.0
 11
218.83951
 21
315.006032
 31
0.0
  0
LINE
  8
LC-008-005-----0
  6
CONTINUOUS
  5
609
 10
215.83951
 20
314.834459
 30
0.0
 11
218.83951
 21
317.834459
 31
0.0
  0
LINE
  8
LC-008-005-----0
  6
CONTINUOUS
  5
60A
 10
215.83951
 20
317.662886
 30
0.0
 11
218.83951
 21
320.662886
 31
0.0
  0
LINE
  8
LC-008-005-----0
  6
CONTINUOUS
  5
60B
 10
215.83951
 20
320.491313
 30
0.0
 11
218.839509
 21
323.491313
 31
0.0
  0
LINE
  8
LC-008-005-----0
  6
CONTINUOUS
  5
60C
 10
215.839509
 20
323.31974
 30
0.0
 11
218.839509
 21
326.31974
 31
0.0
  0
LINE
  8
LC-008-005-----0
  6
CONTINUOUS
  5
60D
 10
215.839509
 20
326.148167
 30
0.0
 11
218.839509
 21
329.148167
 31
0.0
  0
LINE
  8
LC-008-005-----0
  6
CONTINUOUS
  5
60E
 10
215.839509
 20
328.976594
 30
0.0
 11
218.839509
 21
331.976594
 31
0.0
  0
LINE
  8
LC-008-005-----0
  6
CONTINUOUS
  5
60F
 10
215.839509
 20
331.805021
 30
0.0
 11
218.839509
 21
334.805021
 31
0.0
  0
LINE
  8
LC-008-005-----0
  6
CONTINUOUS
  5
610
 10
215.839509
 20
334.633448
 30
0.0
 11
218.839509
 21
337.633448
 31
0.0
  0
LINE
  8
LC-008-005-----0
  6
CONTINUOUS
  5
611
 10
215.839509
 20
337.461875
 30
0.0
 11
218.839509
 21
340.461875
 31
0.0
  0
LINE
  8
LC-008-005-----0
  6
CONTINUOUS
  5
612
 10
215.839509
 20
340.290302
 30
0.0
 11
218.839508
 21
343.290302
 31
0.0
  0
LINE
  8
LC-008-005-----0
  6
CONTINUOUS
  5
613
 10
215.839508
 20
343.118729
 30
0.0
 11
218.839508
 21
346.118729
 31
0.0
  0
LINE
  8
LC-008-005-----0
  6
CONTINUOUS
  5
614
 10
215.839508
 20
345.947156
 30
0.0
 11
218.839508
 21
348.947156
 31
0.0
  0
LINE
  8
LC-008-005-----0
  6
CONTINUOUS
  5
615
 10
215.839508
 20
348.775583
 30
0.0
 11
218.839508
 21
351.775583
 31
0.0
  0
LINE
  8
LC-008-005-----0
  6
CONTINUOUS
  5
616
 10
215.839508
 20
351.60401
 30
0.0
 11
218.839508
 21
354.60401
 31
0.0
  0
LINE
  8
LC-008-005-----0
  6
CONTINUOUS
  5
617
 10
215.839508
 20
354.432437
 30
0.0
 11
218.839508
 21
357.432437
 31
0.0
  0
LINE
  8
LC-008-005-----0
  6
CONTINUOUS
  5
618
 10
215.839508
 20
357.260864
 30
0.0
 11
218.839508
 21
360.260864
 31
0.0
  0
LINE
  8
LC-008-005-----0
  6
CONTINUOUS
  5
619
 10
215.839508
 20
360.089291
 30
0.0
 11
218.839508
 21
363.089291
 31
0.0
  0
LINE
  8
LC-008-005-----0
  6
CONTINUOUS
  5
61A
 10
215.839508
 20
362.917718
 30
0.0
 11
218.839507
 21
365.917718
 31
0.0
  0
LINE
  8
LC-008-005-----0
  6
CONTINUOUS
  5
61B
 10
215.839507
 20
365.746145
 30
0.0
 11
218.839507
 21
368.746145
 31
0.0
  0
LINE
  8
LC-008-005-----0
  6
CONTINUOUS
  5
61C
 10
215.839507
 20
368.574572
 30
0.0
 11
218.839507
 21
371.574572
 31
0.0
  0
LINE
  8
LC-008-005-----0
  6
CONTINUOUS
  5
61D
 10
215.839507
 20
371.402999
 30
0.0
 11
218.839507
 21
374.402999
 31
0.0
  0
LINE
  8
LC-001-002-----0
  6
CONTINUOUS
  5
61E
 10
155.839514
 20
450.124019
 30
0.0
 11
155.839514
 21
448.642876
 31
0.0
  0
ARC
  8
LC-006-002-RND-0
  6
CONTINUOUS
  5
61F
 10
157.839514
 20
450.124019
 30
0.0
 40
2.0
 50
88.101636
 51
180.0
  0
LINE
  8
LC-001-002-----0
  6
CONTINUOUS
  5
620
 10
165.213863
 20
448.286263
 30
0.0
 11
155.839514
 21
448.642876
 31
0.0
  0
LINE
  8
LC-008-005-----0
  6
CONTINUOUS
  5
621
 10
215.839507
 20
374.231426
 30
0.0
 11
218.839507
 21
377.231426
 31
0.0
  0
LINE
  8
LC-008-005-----0
  6
CONTINUOUS
  5
622
 10
215.839507
 20
377.059853
 30
0.0
 11
218.839507
 21
380.059853
 31
0.0
  0
LINE
  8
LC-008-005-----0
  6
CONTINUOUS
  5
623
 10
215.839507
 20
379.88828
 30
0.0
 11
218.839507
 21
382.88828
 31
0.0
  0
LINE
  8
LC-008-005-----0
  6
CONTINUOUS
  5
624
 10
215.839507
 20
382.716707
 30
0.0
 11
218.839506
 21
385.716707
 31
0.0
  0
LINE
  8
LC-008-005-----0
  6
CONTINUOUS
  5
625
 10
215.839506
 20
385.545134
 30
0.0
 11
218.839506
 21
388.545134
 31
0.0
  0
LINE
  8
LC-008-005-----0
  6
CONTINUOUS
  5
626
 10
215.839506
 20
388.373561
 30
0.0
 11
218.839506
 21
391.373561
 31
0.0
  0
LINE
  8
LC-008-005-----0
  6
CONTINUOUS
  5
627
 10
215.839506
 20
391.201988
 30
0.0
 11
218.839506
 21
394.201988
 31
0.0
  0
LINE
  8
LC-008-005-----0
  6
CONTINUOUS
  5
628
 10
215.839506
 20
394.030415
 30
0.0
 11
218.839506
 21
397.030415
 31
0.0
  0
LINE
  8
LC-008-005-----0
  6
CONTINUOUS
  5
629
 10
215.839506
 20
396.858842
 30
0.0
 11
218.839506
 21
399.858842
 31
0.0
  0
LINE
  8
LC-008-005-----0
  6
CONTINUOUS
  5
62A
 10
215.839506
 20
399.687269
 30
0.0
 11
218.839506
 21
402.687269
 31
0.0
  0
LINE
  8
LC-008-005-----0
  6
CONTINUOUS
  5
62B
 10
215.839506
 20
402.515696
 30
0.0
 11
218.839506
 21
405.515696
 31
0.0
  0
LINE
  8
LC-008-005-----0
  6
CONTINUOUS
  5
62C
 10
215.839505
 20
405.344123
 30
0.0
 11
218.839505
 21
408.344123
 31
0.0
  0
LINE
  8
LC-008-005-----0
  6
CONTINUOUS
  5
62D
 10
215.839505
 20
408.17255
 30
0.0
 11
218.839505
 21
411.17255
 31
0.0
  0
LINE
  8
LC-008-005-----0
  6
CONTINUOUS
  5
62E
 10
215.839505
 20
411.000977
 30
0.0
 11
218.839505
 21
414.000977
 31
0.0
  0
LINE
  8
LC-008-005-----0
  6
CONTINUOUS
  5
62F
 10
215.839505
 20
413.829404
 30
0.0
 11
218.839505
 21
416.829404
 31
0.0
  0
LINE
  8
LC-008-005-----0
  6
CONTINUOUS
  5
630
 10
215.839505
 20
416.657831
 30
0.0
 11
218.839505
 21
419.657831
 31
0.0
  0
LINE
  8
LC-008-005-----0
  6
CONTINUOUS
  5
631
 10
215.839505
 20
419.486258
 30
0.0
 11
218.839505
 21
422.486258
 31
0.0
  0
LINE
  8
LC-008-005-----0
  6
CONTINUOUS
  5
632
 10
215.839505
 20
422.314685
 30
0.0
 11
218.839505
 21
425.314685
 31
0.0
  0
LINE
  8
LC-008-005-----0
  6
CONTINUOUS
  5
633
 10
215.839505
 20
425.143112
 30
0.0
 11
218.839504
 21
428.143112
 31
0.0
  0
LINE
  8
LC-008-005-----0
  6
CONTINUOUS
  5
634
 10
215.839504
 20
427.971539
 30
0.0
 11
218.839504
 21
430.971539
 31
0.0
  0
LINE
  8
LC-008-005-----0
  6
CONTINUOUS
  5
635
 10
215.839504
 20
430.799966
 30
0.0
 11
218.839504
 21
433.799966
 31
0.0
  0
LINE
  8
LC-008-005-----0
  6
CONTINUOUS
  5
636
 10
214.377448
 20
432.166336
 30
0.0
 11
217.378098
 21
435.166987
 31
0.0
  0
LINE
  8
LC-008-005-----0
  6
CONTINUOUS
  5
637
 10
211.549014
 20
432.16633
 30
0.0
 11
214.549671
 21
435.166987
 31
0.0
  0
LINE
  8
LC-008-005-----0
  6
CONTINUOUS
  5
638
 10
208.720581
 20
432.166324
 30
0.0
 11
211.721244
 21
435.166987
 31
0.0
  0
LINE
  8
LC-008-005-----0
  6
CONTINUOUS
  5
639
 10
205.892148
 20
432.166318
 30
0.0
 11
210.839402
 21
437.113571
 31
0.0
  0
LINE
  8
LC-008-005-----0
  6
CONTINUOUS
  5
63A
 10
202.150017
 20
431.252614
 30
0.0
 11
203.063699
 21
432.166296
 31
0.0
  0
LINE
  8
LC-008-005-----0
  6
CONTINUOUS
  5
63B
 10
203.339024
 20
432.441621
 30
0.0
 11
210.839402
 21
439.941999
 31
0.0
  0
LINE
  8
LC-008-005-----0
  6
CONTINUOUS
  5
63C
 10
199.347187
 20
431.278212
 30
0.0
 11
200.235272
 21
432.166296
 31
0.0
  0
LINE
  8
LC-008-005-----0
  6
CONTINUOUS
  5
63D
 10
203.339024
 20
435.270048
 30
0.0
 11
210.839402
 21
442.770426
 31
0.0
  0
LINE
  8
LC-008-005-----0
  6
CONTINUOUS
  5
63E
 10
197.122954
 20
431.882405
 30
0.0
 11
198.339024
 21
433.098476
 31
0.0
  0
LINE
  8
LC-008-005-----0
  6
CONTINUOUS
  5
63F
 10
203.339024
 20
438.098476
 30
0.0
 11
210.839402
 21
445.598853
 31
0.0
  0
LINE
  8
LC-008-005-----0
  6
CONTINUOUS
  5
640
 10
194.838992
 20
432.42687
 30
0.0
 11
198.339024
 21
435.926903
 31
0.0
  0
LINE
  8
LC-008-005-----0
  6
CONTINUOUS
  5
641
 10
203.837786
 20
441.425664
 30
0.0
 11
209.579108
 21
447.166987
 31
0.0
  0
LINE
  8
LC-008-005-----0
  6
CONTINUOUS
  5
642
 10
194.838992
 20
435.255298
 30
0.0
 11
198.339024
 21
438.75533
 31
0.0
  0
LINE
  8
LC-008-005-----0
  6
CONTINUOUS
  5
643
 10
203.837788
 20
444.254093
 30
0.0
 11
206.749991
 21
447.166296
 31
0.0
  0
LINE
  8
LC-008-005-----0
  6
CONTINUOUS
  5
644
 10
194.838992
 20
438.083725
 30
0.0
 11
197.839024
 21
441.083757
 31
0.0
  0
LINE
  8
LC-008-005-----0
  6
CONTINUOUS
  5
645
 10
203.83779
 20
447.082522
 30
0.0
 11
203.921564
 21
447.166296
 31
0.0
  0
LINE
  8
LC-008-005-----0
  6
CONTINUOUS
  5
646
 10
193.594517
 20
439.667677
 30
0.0
 11
197.839032
 21
443.912192
 31
0.0
  0
LINE
  8
LC-008-005-----0
  6
CONTINUOUS
  5
647
 10
190.76609
 20
439.667677
 30
0.0
 11
193.26609
 21
442.167677
 31
0.0
  0
LINE
  8
LC-008-005-----0
  6
CONTINUOUS
  5
648
 10
194.839514
 20
443.741101
 30
0.0
 11
197.839039
 21
446.740626
 31
0.0
  0
LINE
  8
LC-008-005-----0
  6
CONTINUOUS
  5
649
 10
187.937663
 20
439.667677
 30
0.0
 11
190.437663
 21
442.167677
 31
0.0
  0
LINE
  8
LC-008-005-----0
  6
CONTINUOUS
  5
64A
 10
186.474114
 20
441.032555
 30
0.0
 11
187.838992
 21
442.397433
 31
0.0
  0
LINE
  8
LC-008-005-----0
  6
CONTINUOUS
  5
64B
 10
184.883687
 20
442.270556
 30
0.0
 11
187.838992
 21
445.22586
 31
0.0
  0
LINE
  8
LC-008-005-----0
  6
CONTINUOUS
  5
64C
 10
182.717637
 20
442.932932
 30
0.0
 11
185.542498
 21
445.757794
 31
0.0
  0
LINE
  8
LC-008-005-----0
  6
CONTINUOUS
  5
64D
 10
180.551586
 20
443.595309
 30
0.0
 11
183.376334
 21
446.420057
 31
0.0
  0
LINE
  8
LC-008-005-----0
  6
CONTINUOUS
  5
64E
 10
178.385536
 20
444.257685
 30
0.0
 11
181.21017
 21
447.082319
 31
0.0
  0
LINE
  8
LC-008-005-----0
  6
CONTINUOUS
  5
64F
 10
176.219485
 20
444.920062
 30
0.0
 11
179.044005
 21
447.744582
 31
0.0
  0
LINE
  8
LC-008-005-----0
  6
CONTINUOUS
  5
650
 10
174.053434
 20
445.582438
 30
0.0
 11
176.877841
 21
448.406845
 31
0.0
  0
LINE
  8
LC-008-005-----0
  6
CONTINUOUS
  5
651
 10
171.887384
 20
446.244815
 30
0.0
 11
174.711677
 21
449.069108
 31
0.0
  0
LINE
  8
LC-008-005-----0
  6
CONTINUOUS
  5
652
 10
169.721333
 20
446.907192
 30
0.0
 11
172.545513
 21
449.731371
 31
0.0
  0
LINE
  8
LC-008-005-----0
  6
CONTINUOUS
  5
653
 10
167.555283
 20
447.569568
 30
0.0
 11
170.379348
 21
450.393634
 31
0.0
  0
LINE
  8
LC-008-005-----0
  6
CONTINUOUS
  5
654
 10
165.389232
 20
448.231945
 30
0.0
 11
168.213184
 21
451.055897
 31
0.0
  0
LINE
  8
LC-008-005-----0
  6
CONTINUOUS
  5
655
 10
162.71036
 20
448.3815
 30
0.0
 11
166.04702
 21
451.718159
 31
0.0
  0
LINE
  8
LC-008-005-----0
  6
CONTINUOUS
  5
656
 10
159.985587
 20
448.485154
 30
0.0
 11
163.438282
 21
451.937849
 31
0.0
  0
LINE
  8
LC-008-005-----0
  6
CONTINUOUS
  5
657
 10
157.260814
 20
448.588808
 30
0.0
 11
160.699332
 21
452.027326
 31
0.0
  0
LINE
  8
LC-008-005-----0
  6
CONTINUOUS
  5
658
 10
155.839514
 20
449.995935
 30
0.0
 11
157.960382
 21
452.116803
 31
0.0
  0
LINE
  8
LC-001-002-----0
  6
CONTINUOUS
  5
659
 10
376.465165
 20
448.286263
 30
0.0
 11
385.839514
 21
448.642876
 31
0.0
  0
LINE
  8
LC-008-005-----0
  6
CONTINUOUS
  5
65A
 10
322.839514
 20
232.329846
 30
0.0
 11
325.350591
 21
234.840923
 31
0.0
  0
LINE
  8
LC-008-005-----0
  6
CONTINUOUS
  5
65B
 10
322.839514
 20
235.158273
 30
0.0
 11
325.839514
 21
238.158273
 31
0.0
  0
LINE
  8
LC-008-005-----0
  6
CONTINUOUS
  5
65C
 10
322.839514
 20
237.9867
 30
0.0
 11
325.839514
 21
240.9867
 31
0.0
  0
LINE
  8
LC-008-005-----0
  6
CONTINUOUS
  5
65D
 10
322.839514
 20
240.815127
 30
0.0
 11
325.839514
 21
243.815127
 31
0.0
  0
LINE
  8
LC-008-005-----0
  6
CONTINUOUS
  5
65E
 10
322.839514
 20
243.643555
 30
0.0
 11
325.839514
 21
246.643555
 31
0.0
  0
LINE
  8
LC-008-005-----0
  6
CONTINUOUS
  5
65F
 10
322.839514
 20
246.471982
 30
0.0
 11
325.839514
 21
249.471982
 31
0.0
  0
LINE
  8
LC-008-005-----0
  6
CONTINUOUS
  5
660
 10
322.839514
 20
249.300409
 30
0.0
 11
325.839514
 21
252.300409
 31
0.0
  0
LINE
  8
LC-008-005-----0
  6
CONTINUOUS
  5
661
 10
322.839515
 20
252.128836
 30
0.0
 11
325.839515
 21
255.128836
 31
0.0
  0
LINE
  8
LC-008-005-----0
  6
CONTINUOUS
  5
662
 10
322.839515
 20
254.957264
 30
0.0
 11
325.839515
 21
257.957264
 31
0.0
  0
LINE
  8
LC-008-005-----0
  6
CONTINUOUS
  5
663
 10
322.839515
 20
257.785691
 30
0.0
 11
325.839515
 21
260.785691
 31
0.0
  0
LINE
  8
LC-008-005-----0
  6
CONTINUOUS
  5
664
 10
322.839515
 20
260.614118
 30
0.0
 11
325.839515
 21
263.614118
 31
0.0
  0
LINE
  8
LC-008-005-----0
  6
CONTINUOUS
  5
665
 10
322.839515
 20
263.442546
 30
0.0
 11
325.839515
 21
266.442545
 31
0.0
  0
LINE
  8
LC-008-005-----0
  6
CONTINUOUS
  5
666
 10
322.839515
 20
266.270973
 30
0.0
 11
325.839515
 21
269.270973
 31
0.0
  0
LINE
  8
LC-008-005-----0
  6
CONTINUOUS
  5
667
 10
322.839515
 20
269.0994
 30
0.0
 11
325.839515
 21
272.0994
 31
0.0
  0
LINE
  8
LC-008-005-----0
  6
CONTINUOUS
  5
668
 10
322.839516
 20
271.927827
 30
0.0
 11
325.839516
 21
274.927827
 31
0.0
  0
LINE
  8
LC-008-005-----0
  6
CONTINUOUS
  5
669
 10
322.839516
 20
274.756255
 30
0.0
 11
325.839516
 21
277.756255
 31
0.0
  0
LINE
  8
LC-008-005-----0
  6
CONTINUOUS
  5
66A
 10
322.839516
 20
277.584682
 30
0.0
 11
325.839516
 21
280.584682
 31
0.0
  0
LINE
  8
LC-008-005-----0
  6
CONTINUOUS
  5
66B
 10
322.839516
 20
280.413109
 30
0.0
 11
325.839516
 21
283.413109
 31
0.0
  0
LINE
  8
LC-008-005-----0
  6
CONTINUOUS
  5
66C
 10
322.839516
 20
283.241536
 30
0.0
 11
325.839516
 21
286.241536
 31
0.0
  0
LINE
  8
LC-008-005-----0
  6
CONTINUOUS
  5
66D
 10
322.839516
 20
286.069964
 30
0.0
 11
325.839516
 21
289.069964
 31
0.0
  0
LINE
  8
LC-008-005-----0
  6
CONTINUOUS
  5
66E
 10
322.839516
 20
288.898391
 30
0.0
 11
325.839516
 21
291.898391
 31
0.0
  0
LINE
  8
LC-008-005-----0
  6
CONTINUOUS
  5
66F
 10
322.839516
 20
291.726818
 30
0.0
 11
325.839516
 21
294.726818
 31
0.0
  0
LINE
  8
LC-008-005-----0
  6
CONTINUOUS
  5
670
 10
322.839517
 20
294.555245
 30
0.0
 11
325.839517
 21
297.555245
 31
0.0
  0
LINE
  8
LC-008-005-----0
  6
CONTINUOUS
  5
671
 10
322.839517
 20
297.383673
 30
0.0
 11
325.839517
 21
300.383673
 31
0.0
  0
LINE
  8
LC-008-005-----0
  6
CONTINUOUS
  5
672
 10
322.839517
 20
300.2121
 30
0.0
 11
325.839517
 21
303.2121
 31
0.0
  0
LINE
  8
LC-008-005-----0
  6
CONTINUOUS
  5
673
 10
322.839517
 20
303.040527
 30
0.0
 11
325.839517
 21
306.040527
 31
0.0
  0
LINE
  8
LC-008-005-----0
  6
CONTINUOUS
  5
674
 10
322.839517
 20
305.868954
 30
0.0
 11
325.839517
 21
308.868954
 31
0.0
  0
LINE
  8
LC-008-005-----0
  6
CONTINUOUS
  5
675
 10
322.839517
 20
308.697382
 30
0.0
 11
325.839517
 21
311.697382
 31
0.0
  0
LINE
  8
LC-008-005-----0
  6
CONTINUOUS
  5
676
 10
322.839517
 20
311.525809
 30
0.0
 11
325.839517
 21
314.525809
 31
0.0
  0
LINE
  8
LC-008-005-----0
  6
CONTINUOUS
  5
677
 10
322.839518
 20
314.354236
 30
0.0
 11
325.839518
 21
317.354236
 31
0.0
  0
LINE
  8
LC-008-005-----0
  6
CONTINUOUS
  5
678
 10
322.839518
 20
317.182663
 30
0.0
 11
325.839518
 21
320.182663
 31
0.0
  0
LINE
  8
LC-008-005-----0
  6
CONTINUOUS
  5
679
 10
322.839518
 20
320.011091
 30
0.0
 11
325.839518
 21
323.011091
 31
0.0
  0
LINE
  8
LC-008-005-----0
  6
CONTINUOUS
  5
67A
 10
322.839518
 20
322.839518
 30
0.0
 11
325.839518
 21
325.839518
 31
0.0
  0
LINE
  8
LC-008-005-----0
  6
CONTINUOUS
  5
67B
 10
322.839518
 20
325.667945
 30
0.0
 11
325.839518
 21
328.667945
 31
0.0
  0
LINE
  8
LC-008-005-----0
  6
CONTINUOUS
  5
67C
 10
322.839518
 20
328.496372
 30
0.0
 11
325.839518
 21
331.496373
 31
0.0
  0
LINE
  8
LC-008-005-----0
  6
CONTINUOUS
  5
67D
 10
322.839518
 20
331.3248
 30
0.0
 11
325.839518
 21
334.3248
 31
0.0
  0
LINE
  8
LC-008-005-----0
  6
CONTINUOUS
  5
67E
 10
322.839518
 20
334.153227
 30
0.0
 11
325.839519
 21
337.153227
 31
0.0
  0
LINE
  8
LC-008-005-----0
  6
CONTINUOUS
  5
67F
 10
322.839519
 20
336.981654
 30
0.0
 11
325.839519
 21
339.981654
 31
0.0
  0
LINE
  8
LC-008-005-----0
  6
CONTINUOUS
  5
680
 10
322.839519
 20
339.810081
 30
0.0
 11
325.839519
 21
342.810082
 31
0.0
  0
LINE
  8
LC-008-005-----0
  6
CONTINUOUS
  5
681
 10
322.839519
 20
342.638509
 30
0.0
 11
325.839519
 21
345.638509
 31
0.0
  0
LINE
  8
LC-008-005-----0
  6
CONTINUOUS
  5
682
 10
322.839519
 20
345.466936
 30
0.0
 11
325.839519
 21
348.466936
 31
0.0
  0
LINE
  8
LC-008-005-----0
  6
CONTINUOUS
  5
683
 10
322.839519
 20
348.295363
 30
0.0
 11
325.839519
 21
351.295363
 31
0.0
  0
LINE
  8
LC-008-005-----0
  6
CONTINUOUS
  5
684
 10
322.839519
 20
351.12379
 30
0.0
 11
325.839519
 21
354.123791
 31
0.0
  0
LINE
  8
LC-008-005-----0
  6
CONTINUOUS
  5
685
 10
322.839519
 20
353.952218
 30
0.0
 11
325.83952
 21
356.952218
 31
0.0
  0
LINE
  8
LC-008-005-----0
  6
CONTINUOUS
  5
686
 10
322.839519
 20
356.780645
 30
0.0
 11
325.83952
 21
359.780645
 31
0.0
  0
LINE
  8
LC-008-005-----0
  6
CONTINUOUS
  5
687
 10
322.83952
 20
359.609072
 30
0.0
 11
325.83952
 21
362.609072
 31
0.0
  0
LINE
  8
LC-008-005-----0
  6
CONTINUOUS
  5
688
 10
322.83952
 20
362.437499
 30
0.0
 11
325.83952
 21
365.4375
 31
0.0
  0
LINE
  8
LC-008-005-----0
  6
CONTINUOUS
  5
689
 10
322.83952
 20
365.265927
 30
0.0
 11
325.83952
 21
368.265927
 31
0.0
  0
LINE
  8
LC-008-005-----0
  6
CONTINUOUS
  5
68A
 10
322.83952
 20
368.094354
 30
0.0
 11
325.83952
 21
371.094354
 31
0.0
  0
LINE
  8
LC-008-005-----0
  6
CONTINUOUS
  5
68B
 10
322.83952
 20
370.922781
 30
0.0
 11
325.83952
 21
373.922781
 31
0.0
  0
LINE
  8
LC-008-005-----0
  6
CONTINUOUS
  5
68C
 10
322.83952
 20
373.751209
 30
0.0
 11
325.83952
 21
376.751209
 31
0.0
  0
LINE
  8
LC-008-005-----0
  6
CONTINUOUS
  5
68D
 10
322.83952
 20
376.579636
 30
0.0
 11
325.839521
 21
379.579636
 31
0.0
  0
LINE
  8
LC-008-005-----0
  6
CONTINUOUS
  5
68E
 10
322.839521
 20
379.408063
 30
0.0
 11
325.839521
 21
382.408063
 31
0.0
  0
LINE
  8
LC-008-005-----0
  6
CONTINUOUS
  5
68F
 10
322.839521
 20
382.23649
 30
0.0
 11
325.839521
 21
385.23649
 31
0.0
  0
LINE
  8
LC-008-005-----0
  6
CONTINUOUS
  5
690
 10
322.839521
 20
385.064918
 30
0.0
 11
325.839521
 21
388.064918
 31
0.0
  0
LINE
  8
LC-008-005-----0
  6
CONTINUOUS
  5
691
 10
322.839521
 20
387.893345
 30
0.0
 11
325.839521
 21
390.893345
 31
0.0
  0
LINE
  8
LC-008-005-----0
  6
CONTINUOUS
  5
692
 10
322.839521
 20
390.721772
 30
0.0
 11
325.839521
 21
393.721772
 31
0.0
  0
LINE
  8
LC-008-005-----0
  6
CONTINUOUS
  5
693
 10
380.559777
 20
448.442028
 30
0.0
 11
384.251975
 21
452.134226
 31
0.0
  0
LINE
  8
LC-008-005-----0
  6
CONTINUOUS
  5
694
 10
322.839521
 20
393.550199
 30
0.0
 11
325.839521
 21
396.5502
 31
0.0
  0
LINE
  8
LC-008-005-----0
  6
CONTINUOUS
  5
695
 10
377.619497
 20
448.330175
 30
0.0
 11
381.328027
 21
452.038705
 31
0.0
  0
LINE
  8
LC-008-005-----0
  6
CONTINUOUS
  5
696
 10
322.839521
 20
396.378627
 30
0.0
 11
325.839522
 21
399.378627
 31
0.0
  0
LINE
  8
LC-008-005-----0
  6
CONTINUOUS
  5
697
 10
373.989372
 20
447.528477
 30
0.0
 11
378.404079
 21
451.943184
 31
0.0
  0
LINE
  8
LC-008-005-----0
  6
CONTINUOUS
  5
698
 10
322.839521
 20
399.207054
 30
0.0
 11
325.839522
 21
402.207054
 31
0.0
  0
LINE
  8
LC-008-005-----0
  6
CONTINUOUS
  5
699
 10
369.915007
 20
446.28254
 30
0.0
 11
375.226718
 21
451.59425
 31
0.0
  0
LINE
  8
LC-008-005-----0
  6
CONTINUOUS
  5
69A
 10
322.839522
 20
402.035481
 30
0.0
 11
325.839522
 21
405.035481
 31
0.0
  0
LINE
  8
LC-008-005-----0
  6
CONTINUOUS
  5
69B
 10
365.840643
 20
445.036602
 30
0.0
 11
371.152755
 21
450.348715
 31
0.0
  0
LINE
  8
LC-008-005-----0
  6
CONTINUOUS
  5
69C
 10
322.839522
 20
404.863908
 30
0.0
 11
325.839522
 21
407.863909
 31
0.0
  0
LINE
  8
LC-008-005-----0
  6
CONTINUOUS
  5
69D
 10
361.766278
 20
443.790664
 30
0.0
 11
367.078793
 21
449.103179
 31
0.0
  0
LINE
  8
LC-008-005-----0
  6
CONTINUOUS
  5
69E
 10
322.839522
 20
407.692336
 30
0.0
 11
325.839522
 21
410.692336
 31
0.0
  0
LINE
  8
LC-008-005-----0
  6
CONTINUOUS
  5
69F
 10
357.691913
 20
442.544727
 30
0.0
 11
363.00483
 21
447.857644
 31
0.0
  0
LINE
  8
LC-008-005-----0
  6
CONTINUOUS
  5
6A0
 10
322.839522
 20
410.520763
 30
0.0
 11
325.839522
 21
413.520763
 31
0.0
  0
LINE
  8
LC-008-005-----0
  6
CONTINUOUS
  5
6A1
 10
343.996212
 20
431.677453
 30
0.0
 11
346.840035
 21
434.521276
 31
0.0
  0
LINE
  8
LC-008-005-----0
  6
CONTINUOUS
  5
6A2
 10
351.986436
 20
439.667677
 30
0.0
 11
358.930868
 21
446.612109
 31
0.0
  0
LINE
  8
LC-008-005-----0
  6
CONTINUOUS
  5
6A3
 10
322.839522
 20
413.34919
 30
0.0
 11
325.839522
 21
416.34919
 31
0.0
  0
LINE
  8
LC-008-005-----0
  6
CONTINUOUS
  5
6A4
 10
340.65829
 20
431.167958
 30
0.0
 11
341.656628
 21
432.166296
 31
0.0
  0
LINE
  8
LC-008-005-----0
  6
CONTINUOUS
  5
6A5
 10
343.340003
 20
433.849671
 30
0.0
 11
346.840035
 21
437.349703
 31
0.0
  0
LINE
  8
LC-008-005-----0
  6
CONTINUOUS
  5
6A6
 10
349.158009
 20
439.667677
 30
0.0
 11
351.658009
 21
442.167677
 31
0.0
  0
LINE
  8
LC-008-005-----0
  6
CONTINUOUS
  5
6A7
 10
353.840035
 20
444.349703
 30
0.0
 11
355.157319
 21
445.666987
 31
0.0
  0
LINE
  8
LC-008-005-----0
  6
CONTINUOUS
  5
6A8
 10
322.839522
 20
416.177617
 30
0.0
 11
325.839523
 21
419.177618
 31
0.0
  0
LINE
  8
LC-008-005-----0
  6
CONTINUOUS
  5
6A9
 10
338.18665
 20
431.524745
 30
0.0
 11
338.828201
 21
432.166296
 31
0.0
  0
LINE
  8
LC-008-005-----0
  6
CONTINUOUS
  5
6AA
 10
343.340003
 20
436.678098
 30
0.0
 11
348.829582
 21
442.167677
 31
0.0
  0
LINE
  8
LC-008-005-----0
  6
CONTINUOUS
  5
6AB
 10
322.839522
 20
419.006045
 30
0.0
 11
325.839523
 21
422.006045
 31
0.0
  0
LINE
  8
LC-008-005-----0
  6
CONTINUOUS
  5
6AC
 10
335.999795
 20
432.166317
 30
0.0
 11
338.340003
 21
434.506525
 31
0.0
  0
LINE
  8
LC-008-005-----0
  6
CONTINUOUS
  5
6AD
 10
343.840006
 20
440.006528
 30
0.0
 11
346.839514
 21
443.006036
 31
0.0
  0
LINE
  8
LC-008-005-----0
  6
CONTINUOUS
  5
6AE
 10
322.839523
 20
421.834472
 30
0.0
 11
325.839523
 21
424.834472
 31
0.0
  0
LINE
  8
LC-008-005-----0
  6
CONTINUOUS
  5
6AF
 10
333.171374
 20
432.166323
 30
0.0
 11
338.340003
 21
437.334952
 31
0.0
  0
LINE
  8
LC-008-005-----0
  6
CONTINUOUS
  5
6B0
 10
343.839998
 20
442.834948
 30
0.0
 11
346.696794
 21
445.691743
 31
0.0
  0
LINE
  8
LC-008-005-----0
  6
CONTINUOUS
  5
6B1
 10
322.839523
 20
424.662899
 30
0.0
 11
325.839523
 21
427.662899
 31
0.0
  0
LINE
  8
LC-008-005-----0
  6
CONTINUOUS
  5
6B2
 10
330.342953
 20
432.16633
 30
0.0
 11
337.916747
 21
439.740124
 31
0.0
  0
LINE
  8
LC-008-005-----0
  6
CONTINUOUS
  5
6B3
 10
343.839991
 20
445.663367
 30
0.0
 11
345.28258
 21
447.105957
 31
0.0
  0
LINE
  8
LC-008-005-----0
  6
CONTINUOUS
  5
6B4
 10
322.839523
 20
427.491326
 30
0.0
 11
325.839523
 21
430.491327
 31
0.0
  0
LINE
  8
LC-008-005-----0
  6
CONTINUOUS
  5
6B5
 10
327.514532
 20
432.166336
 30
0.0
 11
330.515183
 21
435.166987
 31
0.0
  0
LINE
  8
LC-008-005-----0
  6
CONTINUOUS
  5
6B6
 10
330.839626
 20
435.491429
 30
0.0
 11
337.841241
 21
442.493044
 31
0.0
  0
LINE
  8
LC-008-005-----0
  6
CONTINUOUS
  5
6B7
 10
322.839523
 20
430.319754
 30
0.0
 11
327.686756
 21
435.166987
 31
0.0
  0
LINE
  8
LC-008-005-----0
  6
CONTINUOUS
  5
6B8
 10
330.839626
 20
438.319857
 30
0.0
 11
337.841239
 21
445.32147
 31
0.0
  0
LINE
  8
LC-008-005-----0
  6
CONTINUOUS
  5
6B9
 10
322.839523
 20
433.148181
 30
0.0
 11
324.858329
 21
435.166987
 31
0.0
  0
LINE
  8
LC-008-005-----0
  6
CONTINUOUS
  5
6BA
 10
330.839626
 20
441.148284
 30
0.0
 11
336.857639
 21
447.166296
 31
0.0
  0
LINE
  8
LC-008-005-----0
  6
CONTINUOUS
  5
6BB
 10
330.839626
 20
443.976711
 30
0.0
 11
334.029211
 21
447.166296
 31
0.0
  0
LINE
  8
LC-008-005-----0
  6
CONTINUOUS
  5
6BC
 10
330.839626
 20
446.805138
 30
0.0
 11
331.201475
 21
447.166987
 31
0.0
  0
ENDSEC
  0
EOF
