  0
SECTION
  2
HEADER
  9
$ACADVER
  1
AC1009
  9
$INSBASE
 10
0.0
 20
0.0
 30
0.0
  9
$EXTMIN
 10
0.0
 20
0.0
 30
0.0
  9
$EXTMAX
 10
840.0
 20
594.0
 30
0.0
  9
$LIMMIN
 10
0.0
 20
0.0
  9
$LIMMAX
 10
840.0
 20
594.0
  9
$ORTHOMODE
 70
     0
  9
$REGENMODE
 70
     1
  9
$FILLMODE
 70
     1
  9
$QTEXTMODE
 70
     0
  9
$MIRRTEXT
 70
     1
  9
$DRAGMODE
 70
     2
  9
$LTSCALE
 40
2.0
  9
$OSMODE
 70
     0
  9
$ATTMODE
 70
     1
  9
$TEXTSIZE
 40
0.2
  9
$TRACEWID
 40
0.05
  9
$TEXTSTYLE
  7
STANDARD
  9
$CLAYER
  8
0
  9
$CELTYPE
  6
BYLAYER
  9
$CECOLOR
 62
     7
  9
$DIMSCALE
 40
2.0
  9
$DIMASZ
 40
3.5
  9
$DIMEXO
 40
0.0625
  9
$DIMDLI
 40
0.38
  9
$DIMRND
 40
0.0
  9
$DIMDLE
 40
0.0
  9
$DIMEXE
 40
0.18
  9
$DIMTP
 40
0.0
  9
$DIMTM
 40
0.0
  9
$DIMTXT
 40
3.5
  9
$DIMCEN
 40
0.09
  9
$DIMTSZ
 40
0.0
  9
$DIMTOL
 70
     0
  9
$DIMLIM
 70
     0
  9
$DIMTIH
 70
     1
  9
$DIMTOH
 70
     1
  9
$DIMSE1
 70
     0
  9
$DIMSE2
 70
     0
  9
$DIMTAD
 70
     1
  9
$DIMZIN
 70
     0
  9
$DIMBLK
  1

  9
$DIMASO
 70
     1
  9
$DIMSHO
 70
     1
  9
$DIMPOST
  1

  9
$DIMAPOST
  1

  9
$DIMALT
 70
     0
  9
$DIMALTD
 70
     2
  9
$DIMALTF
 40
25.4
  9
$DIMLFAC
 40
1.0
  9
$DIMTOFL
 70
     0
  9
$DIMTVP
 40
0.0
  9
$DIMTIX
 70
     0
  9
$DIMSOXD
 70
     0
  9
$DIMSAH
 70
     0
  9
$DIMBLK1
  1

  9
$DIMBLK2
  1

  9
$DIMSTYLE
  2
STANDARD
  9
$DIMCLRD
 70
     0
  9
$DIMCLRE
 70
     0
  9
$DIMCLRT
 70
     0
  9
$DIMTFAC
 40
1.0
  9
$DIMGAP
 40
0.09
  9
$LUNITS
 70
     2
  9
$LUPREC
 70
     2
  9
$AXISMODE
 70
     0
  9
$AXISUNIT
 10
0.0
 20
0.0
  9
$SKETCHINC
 40
0.1
  9
$FILLETRAD
 40
0.0
  9
$AUNITS
 70
     0
  9
$AUPREC
 70
     0
  9
$MENU
  1
acad
  9
$ELEVATION
 40
0.0
  9
$PELEVATION
 40
0.0
  9
$THICKNESS
 40
0.0
  9
$LIMCHECK
 70
     0
  9
$BLIPMODE
 70
     1
  9
$CHAMFERA
 40
0.0
  9
$CHAMFERB
 40
0.0
  9
$SKPOLY
 70
     0
  9
$TDCREATE
 40
0.000000000
  9
$TDUPDATE
 40
0.000000000
  9
$TDINDWG
 40
0.0000000000
  9
$TDUSRTIMER
 40
0.0000000000
  9
$USRTIMER
 70
     1
  9
$ANGBASE
 50
0.0
  9
$ANGDIR
 70
     0
  9
$PDMODE
 70
     0
  9
$PDSIZE
 40
0.0
  9
$PLINEWID
 40
0.0
  9
$COORDS
 70
     0
  9
$SPLFRAME
 70
     0
  9
$SPLINETYPE
 70
     6
  9
$SPLINESEGS
 70
     8
  9
$ATTDIA
 70
     0
  9
$ATTREQ
 70
     1
  9
$HANDLING
 70
     1
  9
$HANDSEED
  5
42C
  9
$SURFTAB1
 70
     6
  9
$SURFTAB2
 70
     6
  9
$SURFTYPE
 70
     6
  9
$SURFU
 70
     6
  9
$SURFV
 70
     6
  9
$UCSNAME
  2

  9
$UCSORG
 10
0.0
 20
0.0
 30
0.0
  9
$UCSXDIR
 10
1.0
 20
0.0
 30
0.0
  9
$UCSYDIR
 10
0.0
 20
1.0
 30
0.0
  9
$PUCSNAME
  2

  9
$PUCSORG
 10
0.0
 20
0.0
 30
0.0
  9
$PUCSXDIR
 10
1.0
 20
0.0
 30
0.0
  9
$PUCSYDIR
 10
0.0
 20
1.0
 30
0.0
  9
$USERI1
 70
     0
  9
$USERI2
 70
     0
  9
$USERI3
 70
     0
  9
$USERI4
 70
     0
  9
$USERI5
 70
     0
  9
$USERR1
 40
0.0
  9
$USERR2
 40
0.0
  9
$USERR3
 40
0.0
  9
$USERR4
 40
0.0
  9
$USERR5
 40
0.0
  9
$WORLDVIEW
 70
     1
  9
$SHADEDGE
 70
     3
  9
$SHADEDIF
 70
    70
  9
$TILEMODE
 70
     1
  9
$MAXACTVP
 70
    16
  9
$PINSBASE
 10
0.0
 20
0.0
 30
0.0
  9
$PLIMCHECK
 70
     0
  9
$PEXTMIN
 10
1.000000E+20
 20
1.000000E+20
 30
1.000000E+20
  9
$PEXTMAX
 10
-1.000000E+20
 20
-1.000000E+20
 30
-1.000000E+20
  9
$PLIMMIN
 10
0.0
 20
0.0
  9
$PLIMMAX
 10
840.0
 20
594.0
  9
$UNITMODE
 70
     0
  9
$VISRETAIN
 70
     0
  9
$PLINEGEN
 70
     1
  9
$PSLTSCALE
 70
     0
  9
$TREEDEPTH
 70
  3020
  9
$DWGCODEPAGE
  3
dos850
  0
ENDSEC
  0
SECTION
  2
TABLES
  0
TABLE
  2
VPORT
 70
     1
  0
VPORT
  2
*ACTIVE
 70
     0
 10
0.0
 20
0.0
 11
1.0
 21
1.0
 12
420.0
 22
297.0
 13
0.0
 23
0.0
 14
1.0
 24
1.0
 15
0.0
 25
0.0
 16
0.0
 26
0.0
 36
1.0
 17
0.0
 27
0.0
 37
0.0
 40
594.0
 41
1.604229
 42
50.0
 43
0.0
 44
0.0
 50
0.0
 51
0.0
 71
     0
 72
   100
 73
     1
 74
     1
 75
     0
 76
     0
 77
     0
 78
     0
  0
ENDTAB
  0
TABLE
  2
LTYPE
 70
     4
  0
LTYPE
  2
CONTINUOUS
 70
    64
  3
Solid line
 72
    65
 73
     0
 40
0.0
  0
LTYPE
  2
DASHED
 70
    64
  3
__ __ __ __ __
 72
    65
 73
     2
 40
6.25
 49
5.0
 49
-1.25
  0
LTYPE
  2
DASHDOT
 70
    64
  3
__ . __ . __ . __ . __
 72
    65
 73
     4
 40
7.5
 49
5.0
 49
-1.25
 49
0.0
 49
-1.25
  0
LTYPE
  2
CENTER
 70
    64
  3
__ . __ . __ . __ . __
 72
    65
 73
     4
 40
7.5
 49
5.0
 49
-1.25
 49
0.0
 49
-1.25
  0
ENDTAB
  0
TABLE
  2
LAYER
 70
    13
  0
LAYER
  2
0
 70
     0
 62
     7
  6
CONTINUOUS
  0
LAYER
  2
LC-INFO-1-2-MM-A3-0
 70
     1
 62
    -1
  6
CONTINUOUS
  0
LAYER
  2
LC-005-003-MTH-0
 70
     0
 62
     2
  6
CONTINUOUS
  0
LAYER
  2
LC-006-003-MTG-0
 70
     0
 62
     2
  6
CONTINUOUS
  0
LAYER
  2
LC-004-003-----0
 70
     0
 62
     2
  6
CONTINUOUS
  0
LAYER
  2
LC-003-005-----0
 70
     0
 62
     2
  6
CONTINUOUS
  0
LAYER
  2
LC-001-000-----0
 70
     0
 62
     7
  6
CONTINUOUS
  0
LAYER
  2
LC-010-000-----0
 70
     0
 62
     7
  6
CONTINUOUS
  0
LAYER
  2
LC-002-002-----0
 70
     0
 62
     1
  6
CONTINUOUS
  0
LAYER
  2
LC-007-002-RND-0
 70
     0
 62
     1
  6
CONTINUOUS
  0
LAYER
  2
LC-008-004-----0
 70
     0
 62
     1
  6
CONTINUOUS
  0
LAYER
  2
LC-009-006-MLN-0
 70
     0
 62
     2
  6
CENTER
  0
LAYER
  2
LC-000
 70
     0
 62
     7
  6
CONTINUOUS
  0
ENDTAB
  0
TABLE
  2
STYLE
 70
     4
  0
STYLE
  2
STANDARD
 70
     0
 40
0.0
 41
1.0
 50
0.0
 71
     0
 42
0.0
  3
txt
  4

  0
STYLE
  2
LC-STANDARD
 70
    64
 40
0.0
 41
1.0
 50
0.0
 71
     0
 42
3.5
  3
MONOTXT
  4

  0
STYLE
  2
LC-TXTSTYLE-150-400-0-0-D2
 70
    64
 40
0.0
 41
1.0
 50
15.0
 71
     0
 42
3.5
  3
MONOTXT
  4

  0
STYLE
  2
LC-TXTSTYLE-150-400-0-0-D3
 70
    64
 40
0.0
 41
1.0
 50
15.0
 71
     0
 42
3.5
  3
LC-STANDARD
  4

  0
ENDTAB
  0
TABLE
  2
VIEW
 70
     0
  0
ENDTAB
  0
TABLE
  2
UCS
 70
     0
  0
ENDTAB
  0
TABLE
  2
APPID
 70
     1
  0
APPID
  2
ACAD
 70
     0
  0
ENDTAB
  0
TABLE
  2
DIMSTYLE
 70
     3
  0
DIMSTYLE
  2
STANDARD
 70
     0
  3

  4

  5

  6

  7

 40
1.0
 41
0.18
 42
0.0625
 43
0.38
 44
0.18
 45
0.0
 46
0.0
 47
0.0
 48
0.0
 71
     0
 72
     0
 73
     1
 74
     1
 75
     0
 76
     0
 77
     0
 78
     0
140
0.18
141
0.09
142
0.0
143
25.4
144
1.0
145
0.0
146
1.0
147
0.09
170
     0
171
     2
172
     0
173
     0
174
     0
175
     0
176
     0
177
     0
178
     0
  0
DIMSTYLE
  2
LC-STANDARD
 70
     0
  3

  4

  5

  6

  7

 40
1.0
 41
3.5
 42
0.0
 43
7.5
 44
1.8
 45
0.0
 46
0.0
 47
0.0
 48
0.0
 71
     0
 72
     0
 73
     0
 74
     0
 75
     0
 76
     0
 77
     1
 78
     8
140
3.5
141
0.0
142
0.0
143
25.4
144
1.0
145
0.0
146
0.71
147
1.5
170
     0
171
     2
172
     1
173
     0
174
     0
175
     0
176
     0
177
     0
178
     3
  0
DIMSTYLE
  2
LC-DIM-L-0090-02-02
 70
     0
  3

  4

  5

  6

  7

 40
2.0
 41
3.5
 42
0.0
 43
7.5
 44
1.8
 45
0.0
 46
0.0
 47
0.0
 48
0.0
 71
     0
 72
     0
 73
     0
 74
     0
 75
     0
 76
     0
 77
     1
 78
     8
140
9.0
141
0.0
142
0.0
143
25.4
144
1.0
145
0.0
146
0.71
147
1.5
170
     0
171
     2
172
     0
173
     0
174
     0
175
     0
176
     2
177
     2
178
     6
  0
ENDTAB
  0
ENDSEC
  0
SECTION
  2
BLOCKS
  0
BLOCK
  8
0
  5
23
  2
BLK1
 70
    64
 10
0.0
 20
0.0
 30
0.0
  3
BLK1
  0
ENDBLK
  8
0
  5
24
  0
BLOCK
  8
0
  5
26
  2
*D1
 70
    65
 10
0.0
 20
0.0
 30
0.0
  3
*D1
  0
LINE
  8
LC-005-003-MTH-0
  6
CONTINUOUS
  5
28
 10
414.984892
 20
87.498732
 30
0.0
 11
490.8
 21
87.498732
 31
0.0
  0
LINE
  8
LC-005-003-MTH-0
  6
CONTINUOUS
  5
29
 10
456.485423
 20
287.498732
 30
0.0
 11
490.8
 21
287.498732
 31
0.0
  0
LINE
  8
LC-006-003-MTG-0
  6
CONTINUOUS
  5
2B
 10
480.0
 20
87.498732
 30
0.0
 11
480.0
 21
287.498732
 31
0.0
  0
LINE
  8
LC-004-003-----0
  6
CONTINUOUS
  5
2D
 10
477.650529
 20
105.34474
 30
0.0
 11
480.0
 21
87.498732
 31
0.0
  0
LINE
  8
LC-004-003-----0
  6
CONTINUOUS
  5
2E
 10
480.0
 20
87.498732
 30
0.0
 11
482.349471
 21
105.34474
 31
0.0
  0
LINE
  8
LC-004-003-----0
  6
CONTINUOUS
  5
2F
 10
482.349471
 20
105.34474
 30
0.0
 11
477.650529
 21
105.34474
 31
0.0
  0
LINE
  8
LC-004-003-----0
  6
CONTINUOUS
  5
30
 10
478.261391
 20
105.384778
 30
0.0
 11
480.0
 21
92.178732
 31
0.0
  0
LINE
  8
LC-004-003-----0
  6
CONTINUOUS
  5
31
 10
480.0
 20
92.178732
 30
0.0
 11
481.738609
 21
105.384778
 31
0.0
  0
LINE
  8
LC-004-003-----0
  6
CONTINUOUS
  5
32
 10
478.872254
 20
105.424816
 30
0.0
 11
480.0
 21
96.858732
 31
0.0
  0
LINE
  8
LC-004-003-----0
  6
CONTINUOUS
  5
33
 10
480.0
 20
96.858732
 30
0.0
 11
481.127746
 21
105.424816
 31
0.0
  0
LINE
  8
LC-004-003-----0
  6
CONTINUOUS
  5
34
 10
479.483116
 20
105.464854
 30
0.0
 11
480.0
 21
101.538732
 31
0.0
  0
LINE
  8
LC-004-003-----0
  6
CONTINUOUS
  5
35
 10
480.0
 20
101.538732
 30
0.0
 11
480.516884
 21
105.464854
 31
0.0
  0
LINE
  8
LC-004-003-----0
  6
CONTINUOUS
  5
36
 10
482.349471
 20
269.652725
 30
0.0
 11
480.0
 21
287.498732
 31
0.0
  0
LINE
  8
LC-004-003-----0
  6
CONTINUOUS
  5
37
 10
480.0
 20
287.498732
 30
0.0
 11
477.650529
 21
269.652725
 31
0.0
  0
LINE
  8
LC-004-003-----0
  6
CONTINUOUS
  5
38
 10
477.650529
 20
269.652725
 30
0.0
 11
482.349471
 21
269.652725
 31
0.0
  0
LINE
  8
LC-004-003-----0
  6
CONTINUOUS
  5
39
 10
481.738609
 20
269.612687
 30
0.0
 11
480.0
 21
282.818732
 31
0.0
  0
LINE
  8
LC-004-003-----0
  6
CONTINUOUS
  5
3A
 10
480.0
 20
282.818732
 30
0.0
 11
478.261391
 21
269.612687
 31
0.0
  0
LINE
  8
LC-004-003-----0
  6
CONTINUOUS
  5
3B
 10
481.127746
 20
269.572649
 30
0.0
 11
480.0
 21
278.138732
 31
0.0
  0
LINE
  8
LC-004-003-----0
  6
CONTINUOUS
  5
3C
 10
480.0
 20
278.138732
 30
0.0
 11
478.872254
 21
269.572649
 31
0.0
  0
LINE
  8
LC-004-003-----0
  6
CONTINUOUS
  5
3D
 10
480.516884
 20
269.532611
 30
0.0
 11
480.0
 21
273.458732
 31
0.0
  0
LINE
  8
LC-004-003-----0
  6
CONTINUOUS
  5
3E
 10
480.0
 20
273.458732
 30
0.0
 11
479.483116
 21
269.532611
 31
0.0
  0
TEXT
  8
LC-004-003-----0
  6
CONTINUOUS
 62
     6
  5
40
 10
469.568001
 20
171.16012
 30
0.0
 40
18.0
  1
200
 50
90.0
 41
0.9
 51
15.0
  7
LC-TXTSTYLE-150-400-0-0-D0
 72
     1
 11
469.568001
 21
190.293978
 31
0.0
  0
ENDBLK
  8
0
  5
41
  0
BLOCK
  8
0
  5
43
  2
*D2
 70
    65
 10
0.0
 20
0.0
 30
0.0
  3
*D2
  0
LINE
  8
LC-005-003-MTH-0
  6
CONTINUOUS
  5
44
 10
342.984901
 20
91.998732
 30
0.0
 11
342.984901
 21
29.2
 31
0.0
  0
LINE
  8
LC-005-003-MTH-0
  6
CONTINUOUS
  5
45
 10
417.984892
 20
91.998732
 30
0.0
 11
417.984892
 21
29.2
 31
0.0
  0
LINE
  8
LC-006-003-MTG-0
  6
CONTINUOUS
  5
46
 10
342.984901
 20
40.0
 30
0.0
 11
417.984892
 21
40.0
 31
0.0
  0
LINE
  8
LC-004-003-----0
  6
CONTINUOUS
  5
47
 10
360.830909
 20
42.349471
 30
0.0
 11
342.984901
 21
40.0
 31
0.0
  0
LINE
  8
LC-004-003-----0
  6
CONTINUOUS
  5
48
 10
342.984901
 20
40.0
 30
0.0
 11
360.830909
 21
37.650529
 31
0.0
  0
LINE
  8
LC-004-003-----0
  6
CONTINUOUS
  5
49
 10
360.830909
 20
37.650529
 30
0.0
 11
360.830909
 21
42.349471
 31
0.0
  0
LINE
  8
LC-004-003-----0
  6
CONTINUOUS
  5
4A
 10
360.870947
 20
41.738609
 30
0.0
 11
347.664901
 21
40.0
 31
0.0
  0
LINE
  8
LC-004-003-----0
  6
CONTINUOUS
  5
4B
 10
347.664901
 20
40.0
 30
0.0
 11
360.870947
 21
38.261391
 31
0.0
  0
LINE
  8
LC-004-003-----0
  6
CONTINUOUS
  5
4C
 10
360.910985
 20
41.127746
 30
0.0
 11
352.344901
 21
40.0
 31
0.0
  0
LINE
  8
LC-004-003-----0
  6
CONTINUOUS
  5
4D
 10
352.344901
 20
40.0
 30
0.0
 11
360.910985
 21
38.872254
 31
0.0
  0
LINE
  8
LC-004-003-----0
  6
CONTINUOUS
  5
4E
 10
360.951023
 20
40.516884
 30
0.0
 11
357.024901
 21
40.0
 31
0.0
  0
LINE
  8
LC-004-003-----0
  6
CONTINUOUS
  5
4F
 10
357.024901
 20
40.0
 30
0.0
 11
360.951023
 21
39.483116
 31
0.0
  0
LINE
  8
LC-004-003-----0
  6
CONTINUOUS
  5
50
 10
400.138884
 20
37.650529
 30
0.0
 11
417.984892
 21
40.0
 31
0.0
  0
LINE
  8
LC-004-003-----0
  6
CONTINUOUS
  5
51
 10
417.984892
 20
40.0
 30
0.0
 11
400.138884
 21
42.349471
 31
0.0
  0
LINE
  8
LC-004-003-----0
  6
CONTINUOUS
  5
52
 10
400.138884
 20
42.349471
 30
0.0
 11
400.138884
 21
37.650529
 31
0.0
  0
LINE
  8
LC-004-003-----0
  6
CONTINUOUS
  5
53
 10
400.098846
 20
38.261391
 30
0.0
 11
413.304892
 21
40.0
 31
0.0
  0
LINE
  8
LC-004-003-----0
  6
CONTINUOUS
  5
54
 10
413.304892
 20
40.0
 30
0.0
 11
400.098846
 21
41.738609
 31
0.0
  0
LINE
  8
LC-004-003-----0
  6
CONTINUOUS
  5
55
 10
400.058808
 20
38.872254
 30
0.0
 11
408.624892
 21
40.0
 31
0.0
  0
LINE
  8
LC-004-003-----0
  6
CONTINUOUS
  5
56
 10
408.624892
 20
40.0
 30
0.0
 11
400.058808
 21
41.127746
 31
0.0
  0
LINE
  8
LC-004-003-----0
  6
CONTINUOUS
  5
57
 10
400.01877
 20
39.483116
 30
0.0
 11
403.944892
 21
40.0
 31
0.0
  0
LINE
  8
LC-004-003-----0
  6
CONTINUOUS
  5
58
 10
403.944892
 20
40.0
 30
0.0
 11
400.01877
 21
40.516884
 31
0.0
  0
TEXT
  8
LC-004-003-----0
  6
CONTINUOUS
 62
     6
  5
59
 10
356.875418
 20
50.431999
 30
0.0
 40
18.0
  1
DN70
 51
15.0
  7
LC-TXTSTYLE-150-400-0-0-D0
 72
     1
 11
383.280142
 21
50.431999
 31
0.0
  0
ENDBLK
  8
0
  5
5A
  0
BLOCK
  8
0
  5
5C
  2
*X3
 70
    65
 10
437.484895
 20
302.299457
 30
0.0
  3
*X3
  0
LINE
  8
LC-003-005-----0
  6
CONTINUOUS
  5
5E
 10
481.509542
 20
306.14706
 30
0.0
 11
482.418345
 21
307.055863
 31
0.0
  0
LINE
  8
LC-003-005-----0
  6
CONTINUOUS
  5
5F
 10
477.917609
 20
305.383555
 30
0.0
 11
478.826415
 21
306.292361
 31
0.0
  0
LINE
  8
LC-003-005-----0
  6
CONTINUOUS
  5
60
 10
474.325677
 20
304.62005
 30
0.0
 11
475.234486
 21
305.528859
 31
0.0
  0
LINE
  8
LC-003-005-----0
  6
CONTINUOUS
  5
61
 10
470.733745
 20
303.856545
 30
0.0
 11
471.642557
 21
304.765357
 31
0.0
  0
LINE
  8
LC-003-005-----0
  6
CONTINUOUS
  5
62
 10
467.141813
 20
303.09304
 30
0.0
 11
468.050628
 21
304.001855
 31
0.0
  0
LINE
  8
LC-003-005-----0
  6
CONTINUOUS
  5
63
 10
463.549881
 20
302.329535
 30
0.0
 11
464.458699
 21
303.238353
 31
0.0
  0
LINE
  8
LC-003-005-----0
  6
CONTINUOUS
  5
64
 10
460.691382
 20
302.299463
 30
0.0
 11
461.391381
 21
302.999462
 31
0.0
  0
LINE
  8
LC-003-005-----0
  6
CONTINUOUS
  5
65
 10
457.956337
 20
302.392846
 30
0.0
 11
458.56296
 21
302.999468
 31
0.0
  0
LINE
  8
LC-003-005-----0
  6
CONTINUOUS
  5
66
 10
456.499299
 20
303.764235
 30
0.0
 11
456.994274
 21
304.259209
 31
0.0
  0
LINE
  8
LC-003-005-----0
  6
CONTINUOUS
  5
67
 10
454.705968
 20
304.799331
 30
0.0
 11
455.405964
 21
305.499326
 31
0.0
  0
LINE
  8
LC-003-005-----0
  6
CONTINUOUS
  5
68
 10
446.22074
 20
304.799384
 30
0.0
 11
446.735387
 21
305.31403
 31
0.0
  0
LINE
  8
LC-003-005-----0
  6
CONTINUOUS
  5
69
 10
442.392337
 20
303.799408
 30
0.0
 11
443.092332
 21
304.499403
 31
0.0
  0
LINE
  8
LC-003-005-----0
  6
CONTINUOUS
  5
6A
 10
438.284267
 20
302.519765
 30
0.0
 11
438.963931
 21
303.199429
 31
0.0
  0
LINE
  8
LC-003-005-----0
  6
CONTINUOUS
  5
6B
 10
439.563927
 20
303.799425
 30
0.0
 11
440.263923
 21
304.499421
 31
0.0
  0
ENDBLK
  8
0
  5
6C
  0
BLOCK
  8
0
  5
6E
  2
*D4
 70
    65
 10
0.0
 20
0.0
 30
0.0
  3
*D4
  0
LINE
  8
LC-005-003-MTH-0
  6
CONTINUOUS
  5
6F
 10
265.484901
 20
303.975312
 30
0.0
 11
265.484901
 21
402.8
 31
0.0
  0
LINE
  8
LC-005-003-MTH-0
  6
CONTINUOUS
  5
70
 10
495.484902
 20
303.975312
 30
0.0
 11
495.484902
 21
402.8
 31
0.0
  0
LINE
  8
LC-006-003-MTG-0
  6
CONTINUOUS
  5
71
 10
265.484901
 20
392.0
 30
0.0
 11
495.484902
 21
392.0
 31
0.0
  0
LINE
  8
LC-004-003-----0
  6
CONTINUOUS
  5
72
 10
283.330909
 20
394.349471
 30
0.0
 11
265.484901
 21
392.0
 31
0.0
  0
LINE
  8
LC-004-003-----0
  6
CONTINUOUS
  5
73
 10
265.484901
 20
392.0
 30
0.0
 11
283.330909
 21
389.650529
 31
0.0
  0
LINE
  8
LC-004-003-----0
  6
CONTINUOUS
  5
74
 10
283.330909
 20
389.650529
 30
0.0
 11
283.330909
 21
394.349471
 31
0.0
  0
LINE
  8
LC-004-003-----0
  6
CONTINUOUS
  5
75
 10
283.370947
 20
393.738609
 30
0.0
 11
270.164901
 21
392.0
 31
0.0
  0
LINE
  8
LC-004-003-----0
  6
CONTINUOUS
  5
76
 10
270.164901
 20
392.0
 30
0.0
 11
283.370947
 21
390.261391
 31
0.0
  0
LINE
  8
LC-004-003-----0
  6
CONTINUOUS
  5
77
 10
283.410985
 20
393.127746
 30
0.0
 11
274.844901
 21
392.0
 31
0.0
  0
LINE
  8
LC-004-003-----0
  6
CONTINUOUS
  5
78
 10
274.844901
 20
392.0
 30
0.0
 11
283.410985
 21
390.872254
 31
0.0
  0
LINE
  8
LC-004-003-----0
  6
CONTINUOUS
  5
79
 10
283.451023
 20
392.516884
 30
0.0
 11
279.524901
 21
392.0
 31
0.0
  0
LINE
  8
LC-004-003-----0
  6
CONTINUOUS
  5
7A
 10
279.524901
 20
392.0
 30
0.0
 11
283.451023
 21
391.483116
 31
0.0
  0
LINE
  8
LC-004-003-----0
  6
CONTINUOUS
  5
7B
 10
477.638894
 20
389.650529
 30
0.0
 11
495.484902
 21
392.0
 31
0.0
  0
LINE
  8
LC-004-003-----0
  6
CONTINUOUS
  5
7C
 10
495.484902
 20
392.0
 30
0.0
 11
477.638894
 21
394.349471
 31
0.0
  0
LINE
  8
LC-004-003-----0
  6
CONTINUOUS
  5
7D
 10
477.638894
 20
394.349471
 30
0.0
 11
477.638894
 21
389.650529
 31
0.0
  0
LINE
  8
LC-004-003-----0
  6
CONTINUOUS
  5
7E
 10
477.598856
 20
390.261391
 30
0.0
 11
490.804902
 21
392.0
 31
0.0
  0
LINE
  8
LC-004-003-----0
  6
CONTINUOUS
  5
7F
 10
490.804902
 20
392.0
 30
0.0
 11
477.598856
 21
393.738609
 31
0.0
  0
LINE
  8
LC-004-003-----0
  6
CONTINUOUS
  5
80
 10
477.558818
 20
390.872254
 30
0.0
 11
486.124902
 21
392.0
 31
0.0
  0
LINE
  8
LC-004-003-----0
  6
CONTINUOUS
  5
81
 10
486.124902
 20
392.0
 30
0.0
 11
477.558818
 21
393.127746
 31
0.0
  0
LINE
  8
LC-004-003-----0
  6
CONTINUOUS
  5
82
 10
477.51878
 20
391.483116
 30
0.0
 11
481.444902
 21
392.0
 31
0.0
  0
LINE
  8
LC-004-003-----0
  6
CONTINUOUS
  5
83
 10
481.444902
 20
392.0
 30
0.0
 11
477.51878
 21
392.516884
 31
0.0
  0
TEXT
  8
LC-004-003-----0
  6
CONTINUOUS
 62
     6
  5
84
 10
358.788809
 20
402.431999
 30
0.0
 40
18.0
  1
Ø230
 51
15.0
  7
LC-TXTSTYLE-150-400-0-0-D0
 72
     1
 11
383.280147
 21
402.431999
 31
0.0
  0
ENDBLK
  8
0
  5
85
  0
BLOCK
  8
0
  5
87
  2
BLK2
 70
    64
 10
0.0
 20
0.0
 30
0.0
  3
BLK2
  0
ENDBLK
  8
0
  5
88
  0
BLOCK
  8
0
  5
8A
  2
*X6
 70
    65
 10
274.799161
 20
302.299457
 30
0.0
  3
*X6
  0
LINE
  8
LC-003-005-----0
  6
CONTINUOUS
  5
8B
 10
322.298421
 20
302.499431
 30
0.0
 11
323.470067
 21
303.671077
 31
0.0
  0
LINE
  8
LC-003-005-----0
  6
CONTINUOUS
  5
8C
 10
320.769984
 20
303.799421
 30
0.0
 11
321.469988
 21
304.499426
 31
0.0
  0
LINE
  8
LC-003-005-----0
  6
CONTINUOUS
  5
8D
 10
317.941539
 20
303.799404
 30
0.0
 11
318.641544
 21
304.499408
 31
0.0
  0
LINE
  8
LC-003-005-----0
  6
CONTINUOUS
  5
8E
 10
316.113101
 20
304.799392
 30
0.0
 11
316.757597
 21
305.443888
 31
0.0
  0
LINE
  8
LC-003-005-----0
  6
CONTINUOUS
  5
8F
 10
302.299468
 20
302.299468
 30
0.0
 11
305.499298
 21
305.499298
 31
0.0
  0
LINE
  8
LC-003-005-----0
  6
CONTINUOUS
  5
90
 10
299.471035
 20
302.299462
 30
0.0
 11
300.171036
 21
302.999463
 31
0.0
  0
LINE
  8
LC-003-005-----0
  6
CONTINUOUS
  5
91
 10
296.803672
 20
302.460526
 30
0.0
 11
297.393859
 21
303.050714
 31
0.0
  0
LINE
  8
LC-003-005-----0
  6
CONTINUOUS
  5
92
 10
294.471066
 20
302.956347
 30
0.0
 11
295.061252
 21
303.546534
 31
0.0
  0
LINE
  8
LC-003-005-----0
  6
CONTINUOUS
  5
93
 10
292.13846
 20
303.452168
 30
0.0
 11
292.728645
 21
304.042354
 31
0.0
  0
LINE
  8
LC-003-005-----0
  6
CONTINUOUS
  5
94
 10
289.805854
 20
303.947989
 30
0.0
 11
290.396038
 21
304.538174
 31
0.0
  0
LINE
  8
LC-003-005-----0
  6
CONTINUOUS
  5
95
 10
287.473248
 20
304.443811
 30
0.0
 11
288.063431
 21
305.033994
 31
0.0
  0
LINE
  8
LC-003-005-----0
  6
CONTINUOUS
  5
96
 10
285.140642
 20
304.939632
 30
0.0
 11
285.730824
 21
305.529814
 31
0.0
  0
LINE
  8
LC-003-005-----0
  6
CONTINUOUS
  5
97
 10
282.808036
 20
305.435453
 30
0.0
 11
283.398217
 21
306.025634
 31
0.0
  0
LINE
  8
LC-003-005-----0
  6
CONTINUOUS
  5
98
 10
280.47543
 20
305.931274
 30
0.0
 11
281.06561
 21
306.521454
 31
0.0
  0
LINE
  8
LC-003-005-----0
  6
CONTINUOUS
  5
99
 10
278.142824
 20
306.427096
 30
0.0
 11
278.733003
 21
307.017274
 31
0.0
  0
LINE
  8
LC-003-005-----0
  6
CONTINUOUS
  5
9A
 10
276.022957
 20
307.135655
 30
0.0
 11
276.535248
 21
307.647946
 31
0.0
  0
ENDBLK
  8
0
  5
9B
  0
BLOCK
  8
0
  5
9D
  2
*D7
 70
    65
 10
0.0
 20
0.0
 30
0.0
  3
*D7
  0
LINE
  8
LC-005-003-MTH-0
  6
CONTINUOUS
  5
9E
 10
416.779121
 20
87.498732
 30
0.0
 11
528.8
 21
87.498732
 31
0.0
  0
LINE
  8
LC-005-003-MTH-0
  6
CONTINUOUS
  5
9F
 10
486.110552
 20
303.618699
 30
0.0
 11
528.8
 21
303.618699
 31
0.0
  0
LINE
  8
LC-006-003-MTG-0
  6
CONTINUOUS
  5
A0
 10
518.0
 20
87.498732
 30
0.0
 11
518.0
 21
303.618699
 31
0.0
  0
LINE
  8
LC-004-003-----0
  6
CONTINUOUS
  5
A1
 10
515.650529
 20
105.34474
 30
0.0
 11
518.0
 21
87.498732
 31
0.0
  0
LINE
  8
LC-004-003-----0
  6
CONTINUOUS
  5
A2
 10
518.0
 20
87.498732
 30
0.0
 11
520.349471
 21
105.34474
 31
0.0
  0
LINE
  8
LC-004-003-----0
  6
CONTINUOUS
  5
A3
 10
520.349471
 20
105.34474
 30
0.0
 11
515.650529
 21
105.34474
 31
0.0
  0
LINE
  8
LC-004-003-----0
  6
CONTINUOUS
  5
A4
 10
516.261391
 20
105.384778
 30
0.0
 11
518.0
 21
92.178732
 31
0.0
  0
LINE
  8
LC-004-003-----0
  6
CONTINUOUS
  5
A5
 10
518.0
 20
92.178732
 30
0.0
 11
519.738609
 21
105.384778
 31
0.0
  0
LINE
  8
LC-004-003-----0
  6
CONTINUOUS
  5
A6
 10
516.872254
 20
105.424816
 30
0.0
 11
518.0
 21
96.858732
 31
0.0
  0
LINE
  8
LC-004-003-----0
  6
CONTINUOUS
  5
A7
 10
518.0
 20
96.858732
 30
0.0
 11
519.127746
 21
105.424816
 31
0.0
  0
LINE
  8
LC-004-003-----0
  6
CONTINUOUS
  5
A8
 10
517.483116
 20
105.464854
 30
0.0
 11
518.0
 21
101.538732
 31
0.0
  0
LINE
  8
LC-004-003-----0
  6
CONTINUOUS
  5
A9
 10
518.0
 20
101.538732
 30
0.0
 11
518.516884
 21
105.464854
 31
0.0
  0
LINE
  8
LC-004-003-----0
  6
CONTINUOUS
  5
AA
 10
520.349471
 20
285.772691
 30
0.0
 11
518.0
 21
303.618699
 31
0.0
  0
LINE
  8
LC-004-003-----0
  6
CONTINUOUS
  5
AB
 10
518.0
 20
303.618699
 30
0.0
 11
515.650529
 21
285.772691
 31
0.0
  0
LINE
  8
LC-004-003-----0
  6
CONTINUOUS
  5
AC
 10
515.650529
 20
285.772691
 30
0.0
 11
520.349471
 21
285.772691
 31
0.0
  0
LINE
  8
LC-004-003-----0
  6
CONTINUOUS
  5
AD
 10
519.738609
 20
285.732653
 30
0.0
 11
518.0
 21
298.938699
 31
0.0
  0
LINE
  8
LC-004-003-----0
  6
CONTINUOUS
  5
AE
 10
518.0
 20
298.938699
 30
0.0
 11
516.261391
 21
285.732653
 31
0.0
  0
LINE
  8
LC-004-003-----0
  6
CONTINUOUS
  5
AF
 10
519.127746
 20
285.692615
 30
0.0
 11
518.0
 21
294.258699
 31
0.0
  0
LINE
  8
LC-004-003-----0
  6
CONTINUOUS
  5
B0
 10
518.0
 20
294.258699
 30
0.0
 11
516.872254
 21
285.692615
 31
0.0
  0
LINE
  8
LC-004-003-----0
  6
CONTINUOUS
  5
B1
 10
518.516884
 20
285.652577
 30
0.0
 11
518.0
 21
289.578699
 31
0.0
  0
LINE
  8
LC-004-003-----0
  6
CONTINUOUS
  5
B2
 10
518.0
 20
289.578699
 30
0.0
 11
517.483116
 21
285.652577
 31
0.0
  0
TEXT
  8
LC-004-003-----0
  6
CONTINUOUS
 62
     6
  5
B3
 10
507.568001
 20
179.220103
 30
0.0
 40
18.0
  1
216
 50
90.0
 51
15.0
  7
LC-TXTSTYLE-150-400-0-0-D0
 72
     1
 11
507.568001
 21
198.353961
 31
0.0
  0
ENDBLK
  8
0
  5
B4
  0
BLOCK
  8
0
  5
B6
  2
BLK3
 70
    64
 10
0.0
 20
0.0
 30
0.0
  3
BLK3
  0
ENDBLK
  8
0
  5
B7
  0
BLOCK
  8
0
  5
B9
  2
BLK4
 70
    64
 10
0.0
 20
0.0
 30
0.0
  3
BLK4
  0
ENDBLK
  8
0
  5
BA
  0
BLOCK
  8
0
  5
BC
  2
BLK5
 70
    64
 10
0.0
 20
0.0
 30
0.0
  3
BLK5
  0
ENDBLK
  8
0
  5
BD
  0
BLOCK
  8
0
  5
BF
  2
BLK6
 70
    64
 10
0.0
 20
0.0
 30
0.0
  3
BLK6
  0
ENDBLK
  8
0
  5
C0
  0
BLOCK
  8
0
  5
C2
  2
BLK7
 70
    64
 10
0.0
 20
0.0
 30
0.0
  3
BLK7
  0
ENDBLK
  8
0
  5
C3
  0
BLOCK
  8
0
  5
C5
  2
*X13
 70
    65
 10
297.984641
 20
297.500113
 30
0.0
  3
*X13
  0
LINE
  8
LC-003-005-----0
  6
CONTINUOUS
  5
C6
 10
303.984641
 20
299.884551
 30
0.0
 11
302.119078
 21
301.750113
 31
0.0
  0
LINE
  8
LC-003-005-----0
  6
DASHED
  5
C8
 10
303.137646
 20
297.903118
 30
0.0
 11
299.290651
 21
301.750113
 31
0.0
  0
LINE
  8
LC-003-005-----0
  6
DASHED
  5
C9
 10
301.876437
 20
297.750113
 30
0.0
 11
298.430539
 21
301.196011
 31
0.0
  0
LINE
  8
LC-003-005-----0
  6
CONTINUOUS
  5
CA
 10
299.04801
 20
297.750113
 30
0.0
 11
297.984641
 21
298.813483
 31
0.0
  0
ENDBLK
  8
0
  5
CB
  0
BLOCK
  8
0
  5
CD
  2
BLK8
 70
    64
 10
0.0
 20
0.0
 30
0.0
  3
BLK8
  0
ENDBLK
  8
0
  5
CE
  0
BLOCK
  8
0
  5
D0
  2
BLK9
 70
    64
 10
0.0
 20
0.0
 30
0.0
  3
BLK9
  0
ENDBLK
  8
0
  5
D1
  0
BLOCK
  8
0
  5
D3
  2
BLK10
 70
    64
 10
0.0
 20
0.0
 30
0.0
  3
BLK10
  0
ENDBLK
  8
0
  5
D4
  0
BLOCK
  8
0
  5
D6
  2
BLK11
 70
    64
 10
0.0
 20
0.0
 30
0.0
  3
BLK11
  0
ENDBLK
  8
0
  5
D7
  0
BLOCK
  8
0
  5
D9
  2
BLK12
 70
    64
 10
0.0
 20
0.0
 30
0.0
  3
BLK12
  0
ENDBLK
  8
0
  5
DA
  0
BLOCK
  8
0
  5
DC
  2
BLK13
 70
    64
 10
0.0
 20
0.0
 30
0.0
  3
BLK13
  0
ENDBLK
  8
0
  5
DD
  0
BLOCK
  8
0
  5
DF
  2
BLK14
 70
    64
 10
0.0
 20
0.0
 30
0.0
  3
BLK14
  0
ENDBLK
  8
0
  5
E0
  0
BLOCK
  8
0
  5
E2
  2
BLK15
 70
    64
 10
0.0
 20
0.0
 30
0.0
  3
BLK15
  0
ENDBLK
  8
0
  5
E3
  0
BLOCK
  8
0
  5
E5
  2
BLK16
 70
    64
 10
0.0
 20
0.0
 30
0.0
  3
BLK16
  0
ENDBLK
  8
0
  5
E6
  0
BLOCK
  8
0
  5
E8
  2
BLK17
 70
    64
 10
0.0
 20
0.0
 30
0.0
  3
BLK17
  0
ENDBLK
  8
0
  5
E9
  0
BLOCK
  8
0
  5
EB
  2
BLK18
 70
    64
 10
0.0
 20
0.0
 30
0.0
  3
BLK18
  0
ENDBLK
  8
0
  5
EC
  0
BLOCK
  8
0
  5
EE
  2
BLK19
 70
    64
 10
0.0
 20
0.0
 30
0.0
  3
BLK19
  0
ENDBLK
  8
0
  5
EF
  0
BLOCK
  8
0
  5
F1
  2
BLK20
 70
    64
 10
0.0
 20
0.0
 30
0.0
  3
BLK20
  0
ENDBLK
  8
0
  5
F2
  0
BLOCK
  8
0
  5
F4
  2
BLK21
 70
    64
 10
0.0
 20
0.0
 30
0.0
  3
BLK21
  0
ENDBLK
  8
0
  5
F5
  0
BLOCK
  8
0
  5
F7
  2
BLK22
 70
    64
 10
0.0
 20
0.0
 30
0.0
  3
BLK22
  0
ENDBLK
  8
0
  5
F8
  0
BLOCK
  8
0
  5
FA
  2
BLK23
 70
    64
 10
0.0
 20
0.0
 30
0.0
  3
BLK23
  0
ENDBLK
  8
0
  5
FB
  0
BLOCK
  8
0
  5
FD
  2
BLK24
 70
    64
 10
0.0
 20
0.0
 30
0.0
  3
BLK24
  0
ENDBLK
  8
0
  5
FE
  0
BLOCK
  8
0
  5
100
  2
BLK25
 70
    64
 10
0.0
 20
0.0
 30
0.0
  3
BLK25
  0
ENDBLK
  8
0
  5
101
  0
BLOCK
  8
0
  5
103
  2
BLK26
 70
    64
 10
0.0
 20
0.0
 30
0.0
  3
BLK26
  0
ENDBLK
  8
0
  5
104
  0
BLOCK
  8
0
  5
106
  2
BLK27
 70
    64
 10
0.0
 20
0.0
 30
0.0
  3
BLK27
  0
ENDBLK
  8
0
  5
107
  0
BLOCK
  8
0
  5
109
  2
BLK28
 70
    64
 10
0.0
 20
0.0
 30
0.0
  3
BLK28
  0
ENDBLK
  8
0
  5
10A
  0
BLOCK
  8
0
  5
10C
  2
BLK29
 70
    64
 10
0.0
 20
0.0
 30
0.0
  3
BLK29
  0
ENDBLK
  8
0
  5
10D
  0
BLOCK
  8
0
  5
10F
  2
BLK30
 70
    64
 10
0.0
 20
0.0
 30
0.0
  3
BLK30
  0
ENDBLK
  8
0
  5
110
  0
BLOCK
  8
0
  5
112
  2
BLK31
 70
    64
 10
0.0
 20
0.0
 30
0.0
  3
BLK31
  0
ENDBLK
  8
0
  5
113
  0
BLOCK
  8
0
  5
115
  2
BLK32
 70
    64
 10
0.0
 20
0.0
 30
0.0
  3
BLK32
  0
ENDBLK
  8
0
  5
116
  0
BLOCK
  8
0
  5
118
  2
BLK33
 70
    64
 10
0.0
 20
0.0
 30
0.0
  3
BLK33
  0
ENDBLK
  8
0
  5
119
  0
BLOCK
  8
0
  5
11B
  2
BLK34
 70
    64
 10
0.0
 20
0.0
 30
0.0
  3
BLK34
  0
ENDBLK
  8
0
  5
11C
  0
BLOCK
  8
0
  5
11E
  2
BLK35
 70
    64
 10
0.0
 20
0.0
 30
0.0
  3
BLK35
  0
ENDBLK
  8
0
  5
11F
  0
BLOCK
  8
0
  5
121
  2
BLK36
 70
    64
 10
0.0
 20
0.0
 30
0.0
  3
BLK36
  0
ENDBLK
  8
0
  5
122
  0
BLOCK
  8
0
  5
124
  2
BLK37
 70
    64
 10
0.0
 20
0.0
 30
0.0
  3
BLK37
  0
ENDBLK
  8
0
  5
125
  0
BLOCK
  8
0
  5
127
  2
BLK38
 70
    64
 10
0.0
 20
0.0
 30
0.0
  3
BLK38
  0
ENDBLK
  8
0
  5
128
  0
BLOCK
  8
0
  5
12A
  2
BLK39
 70
    64
 10
0.0
 20
0.0
 30
0.0
  3
BLK39
  0
ENDBLK
  8
0
  5
12B
  0
BLOCK
  8
0
  5
12D
  2
BLK40
 70
    64
 10
0.0
 20
0.0
 30
0.0
  3
BLK40
  0
ENDBLK
  8
0
  5
12E
  0
BLOCK
  8
0
  5
130
  2
BLK41
 70
    64
 10
0.0
 20
0.0
 30
0.0
  3
BLK41
  0
ENDBLK
  8
0
  5
131
  0
BLOCK
  8
0
  5
133
  2
*X48
 70
    65
 10
322.484908
 20
294.499432
 30
0.0
  3
*X48
  0
LINE
  8
LC-003-005-----0
  6
CONTINUOUS
  5
134
 10
435.920788
 20
294.499432
 30
0.0
 11
436.984901
 21
295.563545
 31
0.0
  0
LINE
  8
LC-003-005-----0
  6
CONTINUOUS
  5
135
 10
434.984901
 20
296.391972
 30
0.0
 11
436.984901
 21
298.391972
 31
0.0
  0
LINE
  8
LC-003-005-----0
  6
CONTINUOUS
  5
136
 10
434.984901
 20
299.220399
 30
0.0
 11
437.263934
 21
301.499432
 31
0.0
  0
LINE
  8
LC-003-005-----0
  6
CONTINUOUS
  5
137
 10
434.984901
 20
302.048827
 30
0.0
 11
436.984901
 21
304.048827
 31
0.0
  0
LINE
  8
LC-003-005-----0
  6
CONTINUOUS
  5
138
 10
420.512171
 20
341.316211
 30
0.0
 11
421.689356
 21
342.493397
 31
0.0
  0
LINE
  8
LC-003-005-----0
  6
CONTINUOUS
  5
139
 10
419.592341
 20
343.224809
 30
0.0
 11
421.071714
 21
344.704181
 31
0.0
  0
LINE
  8
LC-003-005-----0
  6
CONTINUOUS
  5
13A
 10
419.592341
 20
346.053236
 30
0.0
 11
420.454071
 21
346.914966
 31
0.0
  0
LINE
  8
LC-003-005-----0
  6
CONTINUOUS
  5
13B
 10
419.592341
 20
348.881663
 30
0.0
 11
419.836428
 21
349.12575
 31
0.0
  0
LINE
  8
LC-003-005-----0
  6
CONTINUOUS
  5
13C
 10
412.268985
 20
375.499432
 30
0.0
 11
412.484901
 21
375.715349
 31
0.0
  0
LINE
  8
LC-003-005-----0
  6
CONTINUOUS
  5
13D
 10
410.484901
 20
376.543776
 30
0.0
 11
412.484901
 21
378.543776
 31
0.0
  0
LINE
  8
LC-003-005-----0
  6
CONTINUOUS
  5
13E
 10
325.61213
 20
294.499432
 30
0.0
 11
325.984901
 21
294.872203
 31
0.0
  0
LINE
  8
LC-003-005-----0
  6
CONTINUOUS
  5
13F
 10
410.484901
 20
379.372203
 30
0.0
 11
410.61213
 21
379.499432
 31
0.0
  0
LINE
  8
LC-003-005-----0
  6
CONTINUOUS
  5
140
 10
323.984901
 20
295.70063
 30
0.0
 11
325.984901
 21
297.70063
 31
0.0
  0
LINE
  8
LC-003-005-----0
  6
CONTINUOUS
  5
141
 10
323.984901
 20
298.529057
 30
0.0
 11
325.984901
 21
300.529057
 31
0.0
  0
LINE
  8
LC-003-005-----0
  6
CONTINUOUS
  5
142
 10
322.805879
 20
300.178462
 30
0.0
 11
325.984901
 21
303.357484
 31
0.0
  0
LINE
  8
LC-003-005-----0
  6
CONTINUOUS
  5
143
 10
323.984901
 20
304.185912
 30
0.0
 11
324.298421
 21
304.499431
 31
0.0
  0
LINE
  8
LC-003-005-----0
  6
CONTINUOUS
  5
144
 10
383.984713
 20
375.499432
 30
0.0
 11
385.484901
 21
376.99962
 31
0.0
  0
LINE
  8
LC-003-005-----0
  6
CONTINUOUS
  5
145
 10
381.156286
 20
375.499432
 30
0.0
 11
385.156286
 21
379.499432
 31
0.0
  0
LINE
  8
LC-003-005-----0
  6
CONTINUOUS
  5
146
 10
378.327859
 20
375.499432
 30
0.0
 11
382.327859
 21
379.499432
 31
0.0
  0
LINE
  8
LC-003-005-----0
  6
CONTINUOUS
  5
147
 10
375.499432
 20
375.499432
 30
0.0
 11
379.499432
 21
379.499432
 31
0.0
  0
LINE
  8
LC-003-005-----0
  6
CONTINUOUS
  5
148
 10
339.131371
 20
341.959798
 30
0.0
 11
341.377462
 21
344.205889
 31
0.0
  0
LINE
  8
LC-003-005-----0
  6
CONTINUOUS
  5
149
 10
375.484901
 20
378.313329
 30
0.0
 11
376.671005
 21
379.499432
 31
0.0
  0
LINE
  8
LC-003-005-----0
  6
CONTINUOUS
  5
14A
 10
340.22792
 20
345.884774
 30
0.0
 11
341.377462
 21
347.034316
 31
0.0
  0
LINE
  8
LC-003-005-----0
  6
CONTINUOUS
  5
14B
 10
341.324469
 20
349.809751
 30
0.0
 11
341.377462
 21
349.862743
 31
0.0
  0
LINE
  8
LC-003-005-----0
  6
CONTINUOUS
  5
14C
 10
350.043588
 20
375.499432
 30
0.0
 11
350.484901
 21
375.940746
 31
0.0
  0
LINE
  8
LC-003-005-----0
  6
CONTINUOUS
  5
14D
 10
348.484901
 20
376.769173
 30
0.0
 11
350.484901
 21
378.769173
 31
0.0
  0
ENDBLK
  8
0
  5
14E
  0
BLOCK
  8
0
  5
150
  2
BLK42
 70
    64
 10
0.0
 20
0.0
 30
0.0
  3
BLK42
  0
ENDBLK
  8
0
  5
151
  0
BLOCK
  8
0
  5
153
  2
BLK43
 70
    64
 10
0.0
 20
0.0
 30
0.0
  3
BLK43
  0
ENDBLK
  8
0
  5
154
  0
BLOCK
  8
0
  5
156
  2
*X51
 70
    65
 10
456.985162
 20
297.500113
 30
0.0
  3
*X51
  0
LINE
  8
LC-003-005-----0
  6
CONTINUOUS
  5
157
 10
462.985162
 20
300.690161
 30
0.0
 11
461.925211
 21
301.750113
 31
0.0
  0
LINE
  8
LC-003-005-----0
  6
DASHED
  5
158
 10
462.540973
 20
298.305924
 30
0.0
 11
459.096783
 21
301.750113
 31
0.0
  0
LINE
  8
LC-003-005-----0
  6
DASHED
  5
159
 10
461.68257
 20
297.750113
 30
0.0
 11
457.833866
 21
301.598817
 31
0.0
  0
LINE
  8
LC-003-005-----0
  6
CONTINUOUS
  5
15A
 10
458.854143
 20
297.750113
 30
0.0
 11
456.985162
 21
299.619094
 31
0.0
  0
ENDBLK
  8
0
  5
15B
  0
BLOCK
  8
0
  5
15D
  2
BLK44
 70
    64
 10
0.0
 20
0.0
 30
0.0
  3
BLK44
  0
ENDBLK
  8
0
  5
15E
  0
ENDSEC
  0
SECTION
  2
ENTITIES
  0
VIEWPORT
  8
LC-000
  5
3FB
 67
     1
 68
     1
 10
420.0
 20
297.0
 30
0.0
 40
840.0
 41
594.0
 69
     1
1001
ACAD
1000
MVIEW
1002
{
1070
    16
1010
0.0
1020
0.0
1030
0.0
1010
0.0
1020
0.0
1030
1.0
1040
0.0
1040
594.0
1040
420.0
1040
297.0
1040
50.0
1040
0.0
1040
0.0
1070
     0
1070
   100
1070
     1
1070
     1
1070
     0
1070
     0
1070
     0
1070
     0
1040
0.0
1040
0.0
1040
0.0
1040
1.0
1040
1.0
1040
0.0
1040
0.0
1070
     0
1002
{
1002
}
1002
}
  0
VIEWPORT
  8
0
  5
3FC
 67
     1
 68
     1
 10
0.0
 20
0.0
 30
0.0
 40
0.0
 41
0.0
 69
     1
1001
ACAD
1000
MVIEW
1002
{
1070
    16
1010
0.0
1020
0.0
1030
0.0
1010
0.0
1020
0.0
1030
1.0
1040
0.0
1040
594.0
1040
0.0
1040
0.0
1040
50.0
1040
0.0
1040
0.0
1070
     0
1070
   100
1070
     0
1070
     1
1070
     0
1070
     0
1070
     0
1070
     0
1040
0.0
1040
0.0
1040
0.0
1040
0.5
1040
0.5
1040
0.5
1040
0.5
1070
     0
1002
{
1002
}
1002
}
  0
INSERT
  8
0
  5
160
  2
BLK1
 10
0.0
 20
0.0
 30
0.0
  0
DIMENSION
  8
0
  5
161
  2
*D1
 10
480.0
 20
187.498732
 30
0.0
 11
480.0
 21
187.498732
 31
0.0
 13
456.485423
 23
287.498732
 33
0.0
 14
414.984892
 24
87.498732
 34
0.0
 50
90.0
  3
LC-DIM-L-0090-02-02
  0
DIMENSION
  8
0
  5
162
  2
*D2
 10
380.484897
 20
40.0
 30
0.0
 11
380.484897
 21
40.0
 31
0.0
  1
DN70
 13
342.984901
 23
91.998732
 33
0.0
 14
417.984892
 24
91.998732
 34
0.0
  3
LC-DIM-L-0090-02-02
  0
INSERT
  8
0
  5
163
  2
*X3
 10
437.484895
 20
302.299457
 30
0.0
  0
DIMENSION
  8
0
  5
164
  2
*D4
 10
380.484901
 20
392.0
 30
0.0
 11
380.484901
 21
392.0
 31
0.0
  1
%%c<>
 13
265.484901
 23
303.975312
 33
0.0
 14
495.484902
 24
303.975312
 34
0.0
  3
LC-DIM-L-0090-02-02
  0
INSERT
  8
0
  5
165
  2
BLK2
 10
0.0
 20
0.0
 30
0.0
  0
INSERT
  8
0
  5
166
  2
*X6
 10
274.799161
 20
302.299457
 30
0.0
  0
DIMENSION
  8
0
  5
167
  2
*D7
 10
518.0
 20
195.558716
 30
0.0
 11
518.0
 21
195.558716
 31
0.0
  1
216
 13
486.110552
 23
303.618699
 33
0.0
 14
416.779121
 24
87.498732
 34
0.0
 50
90.0
  3
LC-DIM-L-0090-02-02
  0
INSERT
  8
0
  5
168
  2
BLK3
 10
0.0
 20
0.0
 30
0.0
  0
INSERT
  8
0
  5
169
  2
BLK4
 10
0.0
 20
0.0
 30
0.0
  0
INSERT
  8
0
  5
16A
  2
BLK5
 10
0.0
 20
0.0
 30
0.0
  0
INSERT
  8
0
  5
16B
  2
BLK6
 10
0.0
 20
0.0
 30
0.0
  0
INSERT
  8
0
  5
16C
  2
BLK7
 10
0.0
 20
0.0
 30
0.0
  0
INSERT
  8
0
  5
16D
  2
*X13
 10
297.984641
 20
297.500113
 30
0.0
  0
INSERT
  8
0
  5
16F
  2
BLK8
 10
0.0
 20
0.0
 30
0.0
  0
INSERT
  8
0
  5
170
  2
BLK9
 10
0.0
 20
0.0
 30
0.0
  0
INSERT
  8
0
  5
171
  2
BLK10
 10
0.0
 20
0.0
 30
0.0
  0
INSERT
  8
0
  5
172
  2
BLK11
 10
0.0
 20
0.0
 30
0.0
  0
INSERT
  8
0
  5
173
  2
BLK12
 10
0.0
 20
0.0
 30
0.0
  0
INSERT
  8
0
  5
174
  2
BLK13
 10
0.0
 20
0.0
 30
0.0
  0
INSERT
  8
0
  5
175
  2
BLK14
 10
0.0
 20
0.0
 30
0.0
  0
INSERT
  8
0
  5
176
  2
BLK15
 10
0.0
 20
0.0
 30
0.0
  0
INSERT
  8
0
  5
177
  2
BLK16
 10
0.0
 20
0.0
 30
0.0
  0
INSERT
  8
0
  5
178
  2
BLK17
 10
0.0
 20
0.0
 30
0.0
  0
INSERT
  8
0
  5
179
  2
BLK18
 10
0.0
 20
0.0
 30
0.0
  0
INSERT
  8
0
  5
17A
  2
BLK19
 10
0.0
 20
0.0
 30
0.0
  0
INSERT
  8
0
  5
17B
  2
BLK20
 10
0.0
 20
0.0
 30
0.0
  0
INSERT
  8
0
  5
17C
  2
BLK21
 10
0.0
 20
0.0
 30
0.0
  0
INSERT
  8
0
  5
17D
  2
BLK22
 10
0.0
 20
0.0
 30
0.0
  0
INSERT
  8
0
  5
17E
  2
BLK23
 10
0.0
 20
0.0
 30
0.0
  0
INSERT
  8
0
  5
17F
  2
BLK24
 10
0.0
 20
0.0
 30
0.0
  0
INSERT
  8
0
  5
180
  2
BLK25
 10
0.0
 20
0.0
 30
0.0
  0
INSERT
  8
0
  5
181
  2
BLK26
 10
0.0
 20
0.0
 30
0.0
  0
INSERT
  8
0
  5
182
  2
BLK27
 10
0.0
 20
0.0
 30
0.0
  0
INSERT
  8
0
  5
183
  2
BLK28
 10
0.0
 20
0.0
 30
0.0
  0
INSERT
  8
0
  5
184
  2
BLK29
 10
0.0
 20
0.0
 30
0.0
  0
INSERT
  8
0
  5
185
  2
BLK30
 10
0.0
 20
0.0
 30
0.0
  0
INSERT
  8
0
  5
186
  2
BLK31
 10
0.0
 20
0.0
 30
0.0
  0
INSERT
  8
0
  5
187
  2
BLK32
 10
0.0
 20
0.0
 30
0.0
  0
INSERT
  8
0
  5
188
  2
BLK33
 10
0.0
 20
0.0
 30
0.0
  0
INSERT
  8
0
  5
189
  2
BLK34
 10
0.0
 20
0.0
 30
0.0
  0
INSERT
  8
0
  5
18A
  2
BLK35
 10
0.0
 20
0.0
 30
0.0
  0
INSERT
  8
0
  5
18B
  2
BLK36
 10
0.0
 20
0.0
 30
0.0
  0
INSERT
  8
0
  5
18C
  2
BLK37
 10
0.0
 20
0.0
 30
0.0
  0
INSERT
  8
0
  5
18D
  2
BLK38
 10
0.0
 20
0.0
 30
0.0
  0
INSERT
  8
0
  5
18E
  2
BLK39
 10
0.0
 20
0.0
 30
0.0
  0
INSERT
  8
0
  5
18F
  2
BLK40
 10
0.0
 20
0.0
 30
0.0
  0
INSERT
  8
0
  5
190
  2
BLK41
 10
0.0
 20
0.0
 30
0.0
  0
INSERT
  8
0
  5
191
  2
*X48
 10
322.484908
 20
294.499432
 30
0.0
  0
INSERT
  8
0
  5
192
  2
BLK42
 10
0.0
 20
0.0
 30
0.0
  0
INSERT
  8
0
  5
193
  2
BLK43
 10
0.0
 20
0.0
 30
0.0
  0
INSERT
  8
0
  5
194
  2
*X51
 10
456.985162
 20
297.500113
 30
0.0
  0
INSERT
  8
0
  5
195
  2
BLK44
 10
0.0
 20
0.0
 30
0.0
  0
LINE
  8
LC-002-002-----0
  6
CONTINUOUS
  5
197
 10
306.484412
 20
301.000113
 30
0.0
 11
306.484412
 21
302.499423
 31
0.0
  0
LINE
  8
LC-002-002-----0
  6
CONTINUOUS
  5
198
 10
454.485391
 20
301.000113
 30
0.0
 11
454.485391
 21
302.499423
 31
0.0
  0
LINE
  8
LC-002-002-----0
  6
CONTINUOUS
  5
199
 10
453.485393
 20
304.799338
 30
0.0
 11
454.235387
 21
304.799334
 31
0.0
  0
LINE
  8
LC-002-002-----0
  6
CONTINUOUS
  5
19A
 10
320.984908
 20
302.499423
 30
0.0
 11
322.484891
 21
302.499432
 31
0.0
  0
LINE
  8
LC-002-002-----0
  6
DASHDOT
 62
     2
  5
19C
 10
450.485391
 20
308.820177
 30
0.0
 11
450.485391
 21
287.999423
 31
0.0
  0
LINE
  8
LC-003-005-----0
  6
CONTINUOUS
  5
19D
 10
344.885601
 20
87.498732
 30
0.0
 11
345.984901
 21
88.598033
 31
0.0
  0
ARC
  8
LC-002-002-----0
  6
CONTINUOUS
  5
19E
 10
310.484412
 20
296.499433
 30
0.0
 40
10.0
 50
244.158193
 51
295.842059
  0
ARC
  8
LC-007-002-RND-0
  6
CONTINUOUS
  5
1A0
 10
493.484902
 20
305.456455
 30
0.0
 40
2.0
 50
0.0
 51
91.898364
  0
LINE
  8
LC-002-002-----0
  6
CONTINUOUS
  5
1A1
 10
495.484902
 20
303.975312
 30
0.0
 11
495.484902
 21
305.456455
 31
0.0
  0
LINE
  8
LC-002-002-----0
  6
CONTINUOUS
  5
1A2
 10
439.984895
 20
302.499423
 30
0.0
 11
438.484912
 21
302.499432
 31
0.0
  0
LINE
  8
LC-002-002-----0
  6
CONTINUOUS
  5
1A3
 10
344.190673
 20
87.498732
 30
0.0
 11
342.984901
 21
91.998732
 31
0.0
  0
LINE
  8
LC-003-005-----0
  6
CONTINUOUS
  5
1A4
 10
343.739811
 20
89.18137
 30
0.0
 11
345.984901
 21
91.42646
 31
0.0
  0
LINE
  8
LC-002-002-----0
  6
CONTINUOUS
  5
1A5
 10
306.484412
 20
302.499423
 30
0.0
 11
307.485683
 21
302.499423
 31
0.0
  0
LINE
  8
LC-002-002-----0
  6
CONTINUOUS
  5
1A6
 10
265.484901
 20
303.975312
 30
0.0
 11
265.484901
 21
305.456455
 31
0.0
  0
LINE
  8
LC-002-002-----0
  6
CONTINUOUS
  5
1A7
 10
314.484412
 20
302.499423
 30
0.0
 11
314.484412
 21
301.000113
 31
0.0
  0
LINE
  8
LC-002-002-----0
  6
CONTINUOUS
  5
1A8
 10
314.484412
 20
302.499423
 30
0.0
 11
313.484429
 21
302.499423
 31
0.0
  0
LINE
  8
LC-002-002-----0
  6
CONTINUOUS
  5
1A9
 10
304.48438
 20
287.498732
 30
0.0
 11
306.12696
 21
287.498732
 31
0.0
  0
ARC
  8
LC-007-002-RND-0
  6
CONTINUOUS
  5
1AA
 10
455.464208
 20
304.799326
 30
0.0
 40
0.7
 50
45.0
 51
89.999642
  0
LINE
  8
LC-003-005-----0
  6
CONTINUOUS
  5
1AB
 10
343.142094
 20
91.41208
 30
0.0
 11
345.984901
 21
94.254887
 31
0.0
  0
LINE
  8
LC-002-002-----0
  6
CONTINUOUS
  5
1AC
 10
306.484412
 20
301.000113
 30
0.0
 11
305.773577
 21
301.000113
 31
0.0
  0
LINE
  8
LC-002-002-----0
  6
CONTINUOUS
  5
1AD
 10
305.484901
 20
301.500113
 30
0.0
 11
306.484412
 21
301.500113
 31
0.0
  0
LINE
  8
LC-002-002-----0
  6
CONTINUOUS
  5
1AE
 10
315.484901
 20
301.500113
 30
0.0
 11
314.484412
 21
301.500113
 31
0.0
  0
LINE
  8
LC-002-002-----0
  6
CONTINUOUS
  5
1AF
 10
315.484901
 20
301.500113
 30
0.0
 11
316.484901
 21
301.500113
 31
0.0
  0
LINE
  8
LC-002-002-----0
  6
CONTINUOUS
  5
1B0
 10
314.841864
 20
287.498732
 30
0.0
 11
328.484901
 21
287.498732
 31
0.0
  0
LINE
  8
LC-002-002-----0
  6
DASHDOT
 62
     2
  5
1B1
 10
310.484412
 20
308.967351
 30
0.0
 11
310.484412
 21
287.999423
 31
0.0
  0
LINE
  8
LC-002-002-----0
  6
CONTINUOUS
  5
1B2
 10
414.984901
 20
290.042229
 30
0.0
 11
345.984901
 21
290.041507
 31
0.0
  0
LINE
  8
LC-003-005-----0
  6
CONTINUOUS
  5
1B3
 10
342.984901
 20
94.083315
 30
0.0
 11
345.984901
 21
97.083315
 31
0.0
  0
LINE
  8
LC-002-002-----0
  6
CONTINUOUS
  5
1B4
 10
275.199972
 20
307.201838
 30
0.0
 11
267.551155
 21
307.455357
 31
0.0
  0
LINE
  8
LC-002-002-----0
  6
CONTINUOUS
  5
1B5
 10
345.984901
 20
290.041507
 30
0.0
 11
328.40639
 21
290.501817
 31
0.0
  0
LINE
  8
LC-002-002-----0
  6
CONTINUOUS
  5
1B6
 10
307.485689
 20
304.799338
 30
0.0
 11
306.734416
 21
304.799334
 31
0.0
  0
ARC
  8
LC-007-002-RND-0
  6
CONTINUOUS
  5
1B7
 10
444.485387
 20
304.799395
 30
0.0
 40
0.7
 50
89.999642
 51
143.129973
  0
ARC
  8
LC-007-002-RND-0
  6
CONTINUOUS
  5
1B8
 10
267.484901
 20
305.456455
 30
0.0
 40
2.0
 50
88.101636
 51
180.0
  0
LINE
  8
LC-002-002-----0
  6
CONTINUOUS
  5
1B9
 10
380.484901
 20
87.498732
 30
0.0
 11
414.984892
 21
87.498732
 31
0.0
  0
ARC
  8
LC-007-002-RND-0
  6
CONTINUOUS
  5
1BA
 10
443.385389
 20
304.499401
 30
0.0
 40
0.7
 50
269.999642
 51
323.129973
  0
LINE
  8
LC-002-002-----0
  6
CONTINUOUS
  5
1BB
 10
456.485391
 20
306.999373
 30
0.0
 11
444.486651
 21
306.999341
 31
0.0
  0
ARC
  8
LC-002-002-----0
  6
CONTINUOUS
  5
1BC
 10
450.485391
 20
296.499433
 30
0.0
 40
10.0
 50
244.157941
 51
295.841807
  0
LINE
  8
LC-002-002-----0
  6
CONTINUOUS
  5
1BD
 10
295.484901
 20
301.000113
 30
0.0
 11
275.199972
 21
307.201838
 31
0.0
  0
LINE
  8
LC-003-005-----0
  6
CONTINUOUS
  5
1BE
 10
415.596279
 20
87.498732
 30
0.0
 11
417.212071
 21
89.114524
 31
0.0
  0
LINE
  8
LC-008-004-----0
  6
CONTINUOUS
  5
1C0
 10
456.485391
 20
305.499373
 30
0.0
 11
450.485391
 21
305.499357
 31
0.0
  0
LINE
  8
LC-003-005-----0
  6
CONTINUOUS
  5
1C1
 10
414.984892
 20
89.715773
 30
0.0
 11
417.984892
 21
92.715773
 31
0.0
  0
LINE
  8
LC-002-002-----0
  6
CONTINUOUS
  5
1C2
 10
295.035753
 20
297.44874
 30
0.0
 11
274.859251
 21
303.618699
 31
0.0
  0
LINE
  8
LC-009-006-MLN-0
  6
DASHDOT
  5
1C5
 10
380.484901
 20
84.446
 30
0.0
 11
380.484901
 21
383.032
 31
0.0
  0
LINE
  8
LC-002-002-----0
  6
CONTINUOUS
  5
1C6
 10
440.485014
 20
290.500113
 30
0.0
 11
432.470808
 21
290.500113
 31
0.0
  0
LINE
  8
LC-008-004-----0
  6
CONTINUOUS
  5
1C7
 10
453.485391
 20
305.499365
 30
0.0
 11
453.485423
 21
293.499365
 31
0.0
  0
LINE
  8
LC-008-004-----0
  6
CONTINUOUS
  5
1C8
 10
453.485423
 20
293.499365
 30
0.0
 11
450.485437
 21
288.499357
 31
0.0
  0
LINE
  8
LC-008-004-----0
  6
CONTINUOUS
 62
     2
  5
1C9
 10
453.485395
 20
303.999365
 30
0.0
 11
452.485395
 21
303.999362
 31
0.0
  0
LINE
  8
LC-002-002-----0
  6
CONTINUOUS
  5
1CA
 10
274.859251
 20
303.618699
 30
0.0
 11
265.484901
 21
303.975312
 31
0.0
  0
LINE
  8
LC-002-002-----0
  6
CONTINUOUS
  5
1CB
 10
454.485391
 20
302.499423
 30
0.0
 11
453.485399
 21
302.499423
 31
0.0
  0
LINE
  8
LC-003-005-----0
  6
CONTINUOUS
  5
1CC
 10
342.984901
 20
96.911742
 30
0.0
 11
345.984901
 21
99.911742
 31
0.0
  0
ARC
  8
LC-007-002-RND-0
  6
CONTINUOUS
  5
1CD
 10
305.505595
 20
304.799326
 30
0.0
 40
0.7
 50
90.000358
 51
135.0
  0
LINE
  8
LC-002-002-----0
  6
CONTINUOUS
  5
1CE
 10
380.484901
 20
87.498732
 30
0.0
 11
345.984901
 21
87.498732
 31
0.0
  0
LINE
  8
LC-002-002-----0
  6
CONTINUOUS
  5
1CF
 10
486.110552
 20
303.618699
 30
0.0
 11
495.484902
 21
303.975312
 31
0.0
  0
LINE
  8
LC-002-002-----0
  6
CONTINUOUS
  5
1D0
 10
465.93405
 20
297.44874
 30
0.0
 11
486.110552
 21
303.618699
 31
0.0
  0
LINE
  8
LC-003-005-----0
  6
CONTINUOUS
  5
1D1
 10
342.984901
 20
99.740169
 30
0.0
 11
345.984901
 21
102.740169
 31
0.0
  0
LINE
  8
LC-003-005-----0
  6
CONTINUOUS
  5
1D2
 10
414.984892
 20
92.5442
 30
0.0
 11
417.984892
 21
95.5442
 31
0.0
  0
LINE
  8
LC-002-002-----0
  6
CONTINUOUS
  5
1D3
 10
465.484901
 20
301.000113
 30
0.0
 11
485.769831
 21
307.201838
 31
0.0
  0
LINE
  8
LC-002-002-----0
  6
CONTINUOUS
  5
1D4
 10
485.769831
 20
307.201838
 30
0.0
 11
493.540297
 21
307.455688
 31
0.0
  0
LINE
  8
LC-003-005-----0
  6
CONTINUOUS
  5
1D5
 10
414.984892
 20
95.372627
 30
0.0
 11
417.984892
 21
98.372627
 31
0.0
  0
LINE
  8
LC-002-002-----0
  6
CONTINUOUS
  5
1D6
 10
443.385389
 20
304.499401
 30
0.0
 11
443.925388
 21
305.219396
 31
0.0
  0
LINE
  8
LC-002-002-----0
  6
CONTINUOUS
  5
1D7
 10
414.984901
 20
290.042229
 30
0.0
 11
415.084901
 21
290.042229
 31
0.0
  0
LINE
  8
LC-002-002-----0
  6
CONTINUOUS
  5
1D8
 10
417.984901
 20
287.119715
 30
0.0
 11
417.984901
 21
287.119689
 31
0.0
  0
LINE
  8
LC-003-005-----0
  6
CONTINUOUS
  5
1D9
 10
414.984892
 20
98.201055
 30
0.0
 11
417.984892
 21
101.201054
 31
0.0
  0
LINE
  8
LC-003-005-----0
  6
CONTINUOUS
  5
1DA
 10
414.984893
 20
101.029482
 30
0.0
 11
417.984893
 21
104.029482
 31
0.0
  0
LINE
  8
LC-002-002-----0
  6
CONTINUOUS
  5
1DB
 10
342.984901
 20
287.119036
 30
0.0
 11
342.984901
 21
91.998732
 31
0.0
  0
LINE
  8
LC-002-002-----0
  6
CONTINUOUS
  5
1DC
 10
417.984911
 20
287.119758
 30
0.0
 11
417.984892
 21
91.998732
 31
0.0
  0
LINE
  8
LC-002-002-----0
  6
CONTINUOUS
  5
1DD
 10
345.984901
 20
290.041507
 30
0.0
 11
345.984901
 21
87.498732
 31
0.0
  0
LINE
  8
LC-002-002-----0
  6
CONTINUOUS
  5
1DE
 10
414.984911
 20
290.039597
 30
0.0
 11
414.984892
 21
87.498732
 31
0.0
  0
LINE
  8
LC-002-002-----0
  6
CONTINUOUS
  5
1DF
 10
416.779121
 20
87.498732
 30
0.0
 11
417.984892
 21
91.998732
 31
0.0
  0
LINE
  8
LC-003-005-----0
  6
CONTINUOUS
  5
1E0
 10
342.984901
 20
102.568596
 30
0.0
 11
345.984901
 21
105.568596
 31
0.0
  0
LINE
  8
LC-003-005-----0
  6
CONTINUOUS
  5
1E1
 10
414.984893
 20
103.857909
 30
0.0
 11
417.984893
 21
106.857909
 31
0.0
  0
LINE
  8
LC-003-005-----0
  6
CONTINUOUS
  5
1E2
 10
414.984893
 20
106.686336
 30
0.0
 11
417.984893
 21
109.686336
 31
0.0
  0
LINE
  8
LC-003-005-----0
  6
CONTINUOUS
  5
1E3
 10
414.984893
 20
109.514764
 30
0.0
 11
417.984893
 21
112.514764
 31
0.0
  0
LINE
  8
LC-002-002-----0
  6
CONTINUOUS
  5
1E4
 10
457.985162
 20
301.750113
 30
0.0
 11
456.985162
 21
300.750113
 31
0.0
  0
LINE
  8
LC-003-005-----0
  6
CONTINUOUS
  5
1E5
 10
342.984901
 20
105.397023
 30
0.0
 11
345.984901
 21
108.397023
 31
0.0
  0
LINE
  8
LC-002-002-----0
  6
CONTINUOUS
  5
1E6
 10
328.40639
 20
290.501817
 30
0.0
 11
432.470808
 21
290.501817
 31
0.0
  0
LINE
  8
LC-002-002-----0
  6
CONTINUOUS
  5
1E7
 10
446.485391
 20
302.499423
 30
0.0
 11
446.485391
 21
301.000113
 31
0.0
  0
LINE
  8
LC-002-002-----0
  6
CONTINUOUS
  5
1E8
 10
446.485391
 20
302.499423
 30
0.0
 11
447.486653
 21
302.499423
 31
0.0
  0
LINE
  8
LC-002-002-----0
  6
CONTINUOUS
  5
1E9
 10
456.485423
 20
287.498732
 30
0.0
 11
454.842843
 21
287.498732
 31
0.0
  0
LINE
  8
LC-002-002-----0
  6
CONTINUOUS
  5
1EA
 10
316.484901
 20
302.500113
 30
0.0
 11
316.484901
 21
301.000113
 31
0.0
  0
LINE
  8
LC-002-002-----0
  6
CONTINUOUS
  5
1EB
 10
304.484901
 20
301.000113
 30
0.0
 11
304.484901
 21
297.500113
 31
0.0
  0
LINE
  8
LC-002-002-----0
  6
CONTINUOUS
  5
1EC
 10
345.984901
 20
87.498732
 30
0.0
 11
344.190673
 21
87.498732
 31
0.0
  0
LINE
  8
LC-002-002-----0
  6
CONTINUOUS
  5
1ED
 10
316.484901
 20
301.000113
 30
0.0
 11
315.773577
 21
301.000113
 31
0.0
  0
LINE
  8
LC-002-002-----0
  6
CONTINUOUS
  5
1EE
 10
414.984892
 20
87.498732
 30
0.0
 11
416.779121
 21
87.498732
 31
0.0
  0
LINE
  8
LC-002-002-----0
  6
CONTINUOUS
  5
1EF
 10
304.48438
 20
297.500113
 30
0.0
 11
297.48438
 21
297.500113
 31
0.0
  0
LINE
  8
LC-002-002-----0
  6
CONTINUOUS
  5
1F0
 10
297.48438
 20
297.500113
 30
0.0
 11
297.48438
 21
301.000113
 31
0.0
  0
LINE
  8
LC-002-002-----0
  6
CONTINUOUS
  5
1F1
 10
304.48438
 20
295.000113
 30
0.0
 11
297.48438
 21
295.000113
 31
0.0
  0
LINE
  8
LC-002-002-----0
  6
CONTINUOUS
  5
1F2
 10
297.48438
 20
295.000113
 30
0.0
 11
295.035753
 21
297.44874
 31
0.0
  0
LINE
  8
LC-003-005-----0
  6
CONTINUOUS
  5
1F3
 10
342.984901
 20
108.22545
 30
0.0
 11
345.984901
 21
111.22545
 31
0.0
  0
LINE
  8
LC-003-005-----0
  6
CONTINUOUS
  5
1F4
 10
342.984901
 20
111.053877
 30
0.0
 11
345.984901
 21
114.053877
 31
0.0
  0
LINE
  8
LC-003-005-----0
  6
CONTINUOUS
  5
1F5
 10
342.984901
 20
113.882304
 30
0.0
 11
345.984901
 21
116.882304
 31
0.0
  0
LINE
  8
LC-003-005-----0
  6
CONTINUOUS
  5
1F6
 10
342.984901
 20
116.710731
 30
0.0
 11
345.984901
 21
119.710731
 31
0.0
  0
LINE
  8
LC-003-005-----0
  6
CONTINUOUS
  5
1F7
 10
342.984901
 20
119.539159
 30
0.0
 11
345.984901
 21
122.539159
 31
0.0
  0
LINE
  8
LC-003-005-----0
  6
CONTINUOUS
  5
1F8
 10
414.984893
 20
112.343191
 30
0.0
 11
417.984893
 21
115.343191
 31
0.0
  0
LINE
  8
LC-003-005-----0
  6
CONTINUOUS
  5
1F9
 10
342.984901
 20
122.367586
 30
0.0
 11
345.984901
 21
125.367586
 31
0.0
  0
LINE
  8
LC-003-005-----0
  6
CONTINUOUS
  5
1FA
 10
342.984901
 20
125.196013
 30
0.0
 11
345.984901
 21
128.196013
 31
0.0
  0
LINE
  8
LC-003-005-----0
  6
CONTINUOUS
  5
1FB
 10
342.984901
 20
128.02444
 30
0.0
 11
345.984901
 21
131.02444
 31
0.0
  0
LINE
  8
LC-002-002-----0
  6
CONTINUOUS
  5
1FC
 10
457.985162
 20
297.750113
 30
0.0
 11
456.985162
 21
298.750113
 31
0.0
  0
LINE
  8
LC-003-005-----0
  6
CONTINUOUS
  5
1FD
 10
414.984893
 20
115.171618
 30
0.0
 11
417.984893
 21
118.171618
 31
0.0
  0
LINE
  8
LC-002-002-----0
  6
CONTINUOUS
  5
1FE
 10
462.985162
 20
300.750113
 30
0.0
 11
461.985162
 21
301.750113
 31
0.0
  0
LINE
  8
LC-003-005-----0
  6
CONTINUOUS
  5
1FF
 10
342.984901
 20
130.852867
 30
0.0
 11
345.984901
 21
133.852867
 31
0.0
  0
LINE
  8
LC-002-002-----0
  6
CONTINUOUS
  5
200
 10
461.985162
 20
301.750113
 30
0.0
 11
461.6295
 21
301.750113
 31
0.0
  0
LINE
  8
LC-003-005-----0
  6
CONTINUOUS
  5
201
 10
342.984901
 20
133.681294
 30
0.0
 11
345.984901
 21
136.681294
 31
0.0
  0
LINE
  8
LC-003-005-----0
  6
CONTINUOUS
  5
202
 10
414.984893
 20
118.000045
 30
0.0
 11
417.984893
 21
121.000045
 31
0.0
  0
LINE
  8
LC-003-005-----0
  6
CONTINUOUS
  5
203
 10
342.984901
 20
136.509721
 30
0.0
 11
345.984901
 21
139.509721
 31
0.0
  0
LINE
  8
LC-003-005-----0
  6
CONTINUOUS
  5
204
 10
342.984901
 20
139.338148
 30
0.0
 11
345.984901
 21
142.338148
 31
0.0
  0
LINE
  8
LC-003-005-----0
  6
CONTINUOUS
  5
205
 10
342.984901
 20
142.166576
 30
0.0
 11
345.984901
 21
145.166576
 31
0.0
  0
ARC
  8
LC-007-002-RND-0
  6
CONTINUOUS
  5
206
 10
316.484416
 20
304.799395
 30
0.0
 40
0.7
 50
36.870027
 51
90.000358
  0
LINE
  8
LC-003-005-----0
  6
CONTINUOUS
  5
207
 10
414.984894
 20
120.828473
 30
0.0
 11
417.984894
 21
123.828473
 31
0.0
  0
LINE
  8
LC-002-002-----0
  6
CONTINUOUS
  5
208
 10
443.385385
 20
303.799401
 30
0.0
 11
438.484896
 21
303.799432
 31
0.0
  0
LINE
  8
LC-002-002-----0
  6
CONTINUOUS
  5
209
 10
446.735387
 20
304.79938
 30
0.0
 11
447.486652
 21
304.799376
 31
0.0
  0
LINE
  8
LC-002-002-----0
  6
CONTINUOUS
  5
20A
 10
463.408381
 20
302.299457
 30
0.0
 11
458.378269
 21
302.299469
 31
0.0
  0
LINE
  8
LC-002-002-----0
  6
CONTINUOUS
  5
20B
 10
463.408381
 20
302.299457
 30
0.0
 11
483.800084
 21
306.63394
 31
0.0
  0
LINE
  8
LC-003-005-----0
  6
CONTINUOUS
  5
20C
 10
342.984901
 20
144.995003
 30
0.0
 11
345.984901
 21
147.995003
 31
0.0
  0
LINE
  8
LC-002-002-----0
  6
CONTINUOUS
  5
20D
 10
454.235387
 20
305.499334
 30
0.0
 11
446.735387
 21
305.49938
 31
0.0
  0
ARC
  8
LC-007-002-RND-0
  6
CONTINUOUS
  5
20E
 10
317.584414
 20
304.499401
 30
0.0
 40
0.7
 50
216.870027
 51
270.000358
  0
LINE
  8
LC-003-005-----0
  6
CONTINUOUS
  5
20F
 10
342.984901
 20
147.82343
 30
0.0
 11
345.984901
 21
150.82343
 31
0.0
  0
LINE
  8
LC-003-005-----0
  6
CONTINUOUS
  5
210
 10
342.984901
 20
150.651857
 30
0.0
 11
345.984901
 21
153.651857
 31
0.0
  0
ARC
  8
LC-007-002-RND-0
  6
CONTINUOUS
  5
211
 10
458.378279
 20
303.299469
 30
0.0
 40
1.0
 50
225.0
 51
269.999425
  0
ARC
  8
LC-007-002-RND-0
  6
CONTINUOUS
  5
212
 10
465.495313
 20
301.713494
 30
0.0
 40
1.0
 50
101.228794
 51
108.020284
  0
LINE
  8
LC-008-004-----0
  6
CONTINUOUS
 62
     2
  5
213
 10
452.485395
 20
303.999362
 30
0.0
 11
452.485427
 21
291.999363
 31
0.0
  0
LINE
  8
LC-002-002-----0
  6
CONTINUOUS
  5
214
 10
455.464208
 20
304.799326
 30
0.0
 11
457.671172
 21
302.592362
 31
0.0
  0
LINE
  8
LC-003-005-----0
  6
CONTINUOUS
  5
215
 10
342.984901
 20
153.480284
 30
0.0
 11
345.984901
 21
156.480284
 31
0.0
  0
LINE
  8
LC-003-005-----0
  6
CONTINUOUS
  5
216
 10
342.984901
 20
156.308711
 30
0.0
 11
345.984901
 21
159.308711
 31
0.0
  0
LINE
  8
LC-003-005-----0
  6
CONTINUOUS
  5
217
 10
342.984901
 20
159.137138
 30
0.0
 11
345.984901
 21
162.137138
 31
0.0
  0
LINE
  8
LC-003-005-----0
  6
CONTINUOUS
  5
218
 10
342.984901
 20
161.965565
 30
0.0
 11
345.984901
 21
164.965565
 31
0.0
  0
LINE
  8
LC-003-005-----0
  6
CONTINUOUS
  5
219
 10
342.984901
 20
164.793993
 30
0.0
 11
345.984901
 21
167.793993
 31
0.0
  0
LINE
  8
LC-003-005-----0
  6
CONTINUOUS
  5
21A
 10
342.984901
 20
167.62242
 30
0.0
 11
345.984901
 21
170.62242
 31
0.0
  0
LINE
  8
LC-003-005-----0
  6
CONTINUOUS
  5
21B
 10
342.984901
 20
170.450847
 30
0.0
 11
345.984901
 21
173.450847
 31
0.0
  0
LINE
  8
LC-003-005-----0
  6
CONTINUOUS
  5
21C
 10
342.984901
 20
173.279274
 30
0.0
 11
345.984901
 21
176.279274
 31
0.0
  0
LINE
  8
LC-003-005-----0
  6
CONTINUOUS
  5
21D
 10
342.984901
 20
176.107701
 30
0.0
 11
345.984901
 21
179.107701
 31
0.0
  0
LINE
  8
LC-003-005-----0
  6
CONTINUOUS
  5
21E
 10
342.984901
 20
178.936128
 30
0.0
 11
345.984901
 21
181.936128
 31
0.0
  0
LINE
  8
LC-003-005-----0
  6
CONTINUOUS
  5
21F
 10
342.984901
 20
181.764555
 30
0.0
 11
345.984901
 21
184.764555
 31
0.0
  0
LINE
  8
LC-002-002-----0
  6
CONTINUOUS
  5
220
 10
456.985162
 20
298.750113
 30
0.0
 11
456.985162
 21
300.750113
 31
0.0
  0
LINE
  8
LC-002-002-----0
  6
CONTINUOUS
  5
221
 10
462.985162
 20
300.750113
 30
0.0
 11
462.985162
 21
298.750113
 31
0.0
  0
LINE
  8
LC-003-005-----0
  6
CONTINUOUS
  5
222
 10
342.984901
 20
184.592982
 30
0.0
 11
345.984901
 21
187.592982
 31
0.0
  0
LINE
  8
LC-002-002-----0
  6
CONTINUOUS
  5
223
 10
462.985162
 20
298.750113
 30
0.0
 11
461.985162
 21
297.750113
 31
0.0
  0
LINE
  8
LC-002-002-----0
  6
CONTINUOUS
  5
224
 10
458.485162
 20
302.000113
 30
0.0
 11
458.6295
 21
301.750113
 31
0.0
  0
LINE
  8
LC-002-002-----0
  6
CONTINUOUS
  5
225
 10
458.340825
 20
301.750113
 30
0.0
 11
458.485162
 21
302.000113
 31
0.0
  0
LINE
  8
LC-002-002-----0
  6
CONTINUOUS
  5
226
 10
459.840825
 20
301.750113
 30
0.0
 11
459.985162
 21
302.000113
 31
0.0
  0
LINE
  8
LC-002-002-----0
  6
CONTINUOUS
  5
227
 10
485.979612
 20
308.499901
 30
0.0
 11
485.199984
 21
308.4999
 31
0.0
  0
ARC
  8
LC-002-002-----0
  6
CONTINUOUS
  5
228
 10
438.484895
 20
303.499432
 30
0.0
 40
1.0
 50
89.998287
 51
270.000997
  0
ARC
  8
LC-002-002-----0
  6
CONTINUOUS
  5
229
 10
483.170642
 20
309.553319
 30
0.0
 40
3.0
 50
282.000248
 51
339.442977
  0
LINE
  8
LC-002-002-----0
  6
CONTINUOUS
  5
22A
 10
461.340825
 20
301.750113
 30
0.0
 11
461.485162
 21
302.000113
 31
0.0
  0
LINE
  8
LC-002-002-----0
  6
CONTINUOUS
  5
22B
 10
461.485162
 20
297.500113
 30
0.0
 11
461.6295
 21
297.750113
 31
0.0
  0
LINE
  8
LC-002-002-----0
  6
CONTINUOUS
  5
22C
 10
443.945388
 20
304.0794
 30
0.0
 11
444.485387
 21
304.799395
 31
0.0
  0
LINE
  8
LC-003-005-----0
  6
CONTINUOUS
  5
22D
 10
342.984901
 20
187.42141
 30
0.0
 11
345.984901
 21
190.42141
 31
0.0
  0
LINE
  8
LC-003-005-----0
  6
CONTINUOUS
  5
22E
 10
414.984894
 20
123.6569
 30
0.0
 11
417.984894
 21
126.6569
 31
0.0
  0
LINE
  8
LC-002-002-----0
  6
CONTINUOUS
  5
22F
 10
459.985162
 20
297.500113
 30
0.0
 11
460.1295
 21
297.750113
 31
0.0
  0
LINE
  8
LC-002-002-----0
  6
CONTINUOUS
  5
230
 10
458.485162
 20
297.500113
 30
0.0
 11
458.6295
 21
297.750113
 31
0.0
  0
LINE
  8
LC-002-002-----0
  6
CONTINUOUS
  5
231
 10
438.484893
 20
303.199432
 30
0.0
 11
439.984895
 21
303.199423
 31
0.0
  0
LINE
  8
LC-002-002-----0
  6
CONTINUOUS
  5
232
 10
439.984895
 20
303.199423
 30
0.0
 11
439.984895
 21
302.499423
 31
0.0
  0
ARC
  8
LC-002-002-----0
  6
CONTINUOUS
  5
233
 10
438.484895
 20
303.499432
 30
0.0
 40
0.3
 50
89.990988
 51
270.008296
  0
LINE
  8
LC-002-002-----0
  6
CONTINUOUS
  5
234
 10
459.985162
 20
302.000113
 30
0.0
 11
460.1295
 21
301.750113
 31
0.0
  0
LINE
  8
LC-003-005-----0
  6
CONTINUOUS
  5
235
 10
342.984901
 20
190.249837
 30
0.0
 11
345.984901
 21
193.249837
 31
0.0
  0
LINE
  8
LC-002-002-----0
  6
CONTINUOUS
  5
236
 10
461.485162
 20
302.000113
 30
0.0
 11
461.6295
 21
301.750113
 31
0.0
  0
LINE
  8
LC-002-002-----0
  6
CONTINUOUS
  5
237
 10
317.484789
 20
302.500113
 30
0.0
 11
320.484789
 21
302.500113
 31
0.0
  0
LINE
  8
LC-002-002-----0
  6
CONTINUOUS
  5
238
 10
317.584414
 20
304.499401
 30
0.0
 11
317.044415
 21
305.219396
 31
0.0
  0
LINE
  8
LC-003-005-----0
  6
CONTINUOUS
  5
239
 10
414.984894
 20
126.485327
 30
0.0
 11
417.984894
 21
129.485327
 31
0.0
  0
LINE
  8
LC-003-005-----0
  6
CONTINUOUS
  5
23A
 10
414.984894
 20
129.313754
 30
0.0
 11
417.984894
 21
132.313754
 31
0.0
  0
LINE
  8
LC-003-005-----0
  6
CONTINUOUS
  5
23B
 10
414.984894
 20
132.142182
 30
0.0
 11
417.984894
 21
135.142182
 31
0.0
  0
LINE
  8
LC-003-005-----0
  6
CONTINUOUS
  5
23C
 10
342.984901
 20
193.078264
 30
0.0
 11
345.984901
 21
196.078264
 31
0.0
  0
LINE
  8
LC-002-002-----0
  6
CONTINUOUS
  5
23D
 10
444.485387
 20
304.799395
 30
0.0
 11
446.735387
 21
304.79938
 31
0.0
  0
LINE
  8
LC-002-002-----0
  6
CONTINUOUS
  5
23E
 10
446.735387
 20
304.79938
 30
0.0
 11
446.735387
 21
305.49938
 31
0.0
  0
LINE
  8
LC-002-002-----0
  6
CONTINUOUS
  5
23F
 10
461.340825
 20
297.750113
 30
0.0
 11
461.485162
 21
297.500113
 31
0.0
  0
LINE
  8
LC-002-002-----0
  6
CONTINUOUS
  5
240
 10
459.840825
 20
297.750113
 30
0.0
 11
459.985162
 21
297.500113
 31
0.0
  0
LINE
  8
LC-008-004-----0
  6
CONTINUOUS
  5
241
 10
451.285382
 20
308.967351
 30
0.0
 11
451.285384
 21
307.998449
 31
0.0
  0
LINE
  8
LC-008-004-----0
  6
CONTINUOUS
  5
242
 10
453.485423
 20
293.499365
 30
0.0
 11
450.485423
 21
293.499357
 31
0.0
  0
LINE
  8
LC-008-004-----0
  6
CONTINUOUS
  5
243
 10
444.486652
 20
305.498444
 30
0.0
 11
450.486651
 21
305.498448
 31
0.0
  0
LINE
  8
LC-002-002-----0
  6
CONTINUOUS
  5
244
 10
458.340825
 20
297.750113
 30
0.0
 11
458.485162
 21
297.500113
 31
0.0
  0
LINE
  8
LC-002-002-----0
  6
CONTINUOUS
  5
245
 10
458.340825
 20
297.750113
 30
0.0
 11
457.985162
 21
297.750113
 31
0.0
  0
LINE
  8
LC-002-002-----0
  6
CONTINUOUS
  5
246
 10
446.735387
 20
305.49938
 30
0.0
 11
444.485391
 21
305.499395
 31
0.0
  0
LINE
  8
LC-008-004-----0
  6
CONTINUOUS
  5
247
 10
447.486651
 20
305.498446
 30
0.0
 11
447.486659
 21
293.498446
 31
0.0
  0
LINE
  8
LC-008-004-----0
  6
CONTINUOUS
  5
248
 10
447.486659
 20
293.498446
 30
0.0
 11
450.486663
 21
288.498448
 31
0.0
  0
LINE
  8
LC-002-002-----0
  6
CONTINUOUS
  5
249
 10
459.840825
 20
297.750113
 30
0.0
 11
458.6295
 21
297.750113
 31
0.0
  0
LINE
  8
LC-002-002-----0
  6
CONTINUOUS
  5
24A
 10
461.340825
 20
297.750113
 30
0.0
 11
460.1295
 21
297.750113
 31
0.0
  0
LINE
  8
LC-008-004-----0
  6
CONTINUOUS
 62
     2
  5
24B
 10
447.486652
 20
303.998446
 30
0.0
 11
452.485395
 21
303.998449
 31
0.0
  0
LINE
  8
LC-002-002-----0
  6
CONTINUOUS
  5
24C
 10
304.485691
 20
306.999373
 30
0.0
 11
316.484431
 21
306.999341
 31
0.0
  0
LINE
  8
LC-008-004-----0
  6
CONTINUOUS
 62
     2
  5
24D
 10
448.486652
 20
303.998447
 30
0.0
 11
448.48666
 21
291.998447
 31
0.0
  0
LINE
  8
LC-002-002-----0
  6
CONTINUOUS
  5
24E
 10
461.340825
 20
301.750113
 30
0.0
 11
460.1295
 21
301.750113
 31
0.0
  0
LINE
  8
LC-002-002-----0
  6
CONTINUOUS
  5
24F
 10
459.840825
 20
301.750113
 30
0.0
 11
458.6295
 21
301.750113
 31
0.0
  0
LINE
  8
LC-003-005-----0
  6
CONTINUOUS
  5
250
 10
414.984894
 20
134.970609
 30
0.0
 11
417.984894
 21
137.970609
 31
0.0
  0
LINE
  8
LC-008-004-----0
  6
CONTINUOUS
  5
251
 10
449.686649
 20
308.967347
 30
0.0
 11
449.68665
 21
307.998447
 31
0.0
  0
LINE
  8
LC-008-004-----0
  6
CONTINUOUS
  5
252
 10
447.486659
 20
293.498446
 30
0.0
 11
450.486659
 21
293.498448
 31
0.0
  0
LINE
  8
LC-002-002-----0
  6
CONTINUOUS
  5
253
 10
458.340825
 20
301.750113
 30
0.0
 11
457.985162
 21
301.750113
 31
0.0
  0
LINE
  8
LC-008-004-----0
  6
CONTINUOUS
  5
254
 10
456.485387
 20
306.999373
 30
0.0
 11
456.485391
 21
305.499373
 31
0.0
  0
LINE
  8
LC-002-002-----0
  6
CONTINUOUS
  5
255
 10
455.464208
 20
304.799326
 30
0.0
 11
454.235387
 21
304.799334
 31
0.0
  0
LINE
  8
LC-002-002-----0
  6
CONTINUOUS
  5
256
 10
454.235387
 20
304.799334
 30
0.0
 11
454.235387
 21
305.499334
 31
0.0
  0
ARC
  8
LC-002-002-----0
  6
CONTINUOUS
  5
257
 10
450.48604
 20
299.001246
 30
0.0
 40
9.99811
 50
53.126659
 51
85.414352
  0
LINE
  8
LC-002-002-----0
  6
CONTINUOUS
  5
258
 10
449.68665
 20
307.998447
 30
0.0
 11
451.285384
 21
307.998449
 31
0.0
  0
LINE
  8
LC-008-004-----0
  6
CONTINUOUS
  5
259
 10
444.486651
 20
306.999341
 30
0.0
 11
444.486652
 21
305.498444
 31
0.0
  0
ARC
  8
LC-002-002-----0
  6
CONTINUOUS
  5
25A
 10
450.48604
 20
299.001246
 30
0.0
 40
9.99811
 50
94.585934
 51
126.87365
  0
LINE
  8
LC-008-004-----0
  6
CONTINUOUS
  5
25B
 10
304.485691
 20
305.499373
 30
0.0
 11
310.485691
 21
305.499357
 31
0.0
  0
LINE
  8
LC-003-005-----0
  6
CONTINUOUS
  5
25C
 10
414.984894
 20
137.799036
 30
0.0
 11
417.984894
 21
140.799036
 31
0.0
  0
LINE
  8
LC-008-004-----0
  6
CONTINUOUS
  5
25D
 10
307.485691
 20
305.499365
 30
0.0
 11
307.485659
 21
293.499365
 31
0.0
  0
LINE
  8
LC-008-004-----0
  6
CONTINUOUS
  5
25E
 10
307.485659
 20
293.499365
 30
0.0
 11
310.485645
 21
288.499357
 31
0.0
  0
LINE
  8
LC-008-004-----0
  6
CONTINUOUS
 62
     2
  5
25F
 10
307.485687
 20
303.999365
 30
0.0
 11
308.485687
 21
303.999362
 31
0.0
  0
LINE
  8
LC-008-004-----0
  6
CONTINUOUS
 62
     2
  5
260
 10
308.485687
 20
303.999362
 30
0.0
 11
308.485655
 21
291.999363
 31
0.0
  0
LINE
  8
LC-008-004-----0
  6
CONTINUOUS
  5
261
 10
309.6857
 20
308.967351
 30
0.0
 11
309.685698
 21
307.998449
 31
0.0
  0
LINE
  8
LC-008-004-----0
  6
CONTINUOUS
  5
262
 10
307.485659
 20
293.499365
 30
0.0
 11
310.485659
 21
293.499357
 31
0.0
  0
LINE
  8
LC-008-004-----0
  6
CONTINUOUS
  5
263
 10
316.48443
 20
305.498444
 30
0.0
 11
310.484431
 21
305.498448
 31
0.0
  0
LINE
  8
LC-008-004-----0
  6
CONTINUOUS
  5
264
 10
313.48443
 20
305.498446
 30
0.0
 11
313.484423
 21
293.498446
 31
0.0
  0
LINE
  8
LC-003-005-----0
  6
CONTINUOUS
  5
265
 10
342.984901
 20
195.906691
 30
0.0
 11
345.984901
 21
198.906691
 31
0.0
  0
LINE
  8
LC-008-004-----0
  6
CONTINUOUS
  5
266
 10
313.484423
 20
293.498446
 30
0.0
 11
310.484419
 21
288.498448
 31
0.0
  0
LINE
  8
LC-008-004-----0
  6
CONTINUOUS
 62
     2
  5
267
 10
313.484429
 20
303.998446
 30
0.0
 11
308.485687
 21
303.998449
 31
0.0
  0
LINE
  8
LC-003-005-----0
  6
CONTINUOUS
  5
268
 10
342.984901
 20
198.735118
 30
0.0
 11
345.984901
 21
201.735118
 31
0.0
  0
LINE
  8
LC-008-004-----0
  6
CONTINUOUS
 62
     2
  5
269
 10
312.48443
 20
303.998447
 30
0.0
 11
312.484422
 21
291.998447
 31
0.0
  0
LINE
  8
LC-008-004-----0
  6
CONTINUOUS
  5
26A
 10
311.284433
 20
308.967347
 30
0.0
 11
311.284432
 21
307.998447
 31
0.0
  0
LINE
  8
LC-008-004-----0
  6
CONTINUOUS
  5
26B
 10
313.484423
 20
293.498446
 30
0.0
 11
310.484423
 21
293.498448
 31
0.0
  0
LINE
  8
LC-008-004-----0
  6
CONTINUOUS
  5
26C
 10
304.485695
 20
306.999373
 30
0.0
 11
304.485691
 21
305.499373
 31
0.0
  0
ARC
  8
LC-002-002-----0
  6
CONTINUOUS
  5
26D
 10
310.485042
 20
299.001246
 30
0.0
 40
9.99811
 50
94.585648
 51
126.873341
  0
LINE
  8
LC-002-002-----0
  6
CONTINUOUS
  5
26E
 10
311.284432
 20
307.998447
 30
0.0
 11
309.685698
 21
307.998449
 31
0.0
  0
LINE
  8
LC-008-004-----0
  6
CONTINUOUS
  5
26F
 10
316.484431
 20
306.999341
 30
0.0
 11
316.48443
 21
305.498444
 31
0.0
  0
ARC
  8
LC-002-002-----0
  6
CONTINUOUS
  5
270
 10
310.485042
 20
299.001246
 30
0.0
 40
9.99811
 50
53.12635
 51
85.414066
  0
LINE
  8
LC-003-005-----0
  6
CONTINUOUS
  5
271
 10
342.984901
 20
201.563545
 30
0.0
 11
345.984901
 21
204.563545
 31
0.0
  0
LINE
  8
LC-003-005-----0
  6
CONTINUOUS
  5
272
 10
342.984901
 20
204.391972
 30
0.0
 11
345.984901
 21
207.391972
 31
0.0
  0
LINE
  8
LC-003-005-----0
  6
CONTINUOUS
  5
273
 10
342.984901
 20
207.220399
 30
0.0
 11
345.984901
 21
210.220399
 31
0.0
  0
LINE
  8
LC-002-002-----0
  6
CONTINUOUS
  5
274
 10
315.773577
 20
301.000113
 30
0.0
 11
315.484901
 21
301.500113
 31
0.0
  0
LINE
  8
LC-002-002-----0
  6
CONTINUOUS
  5
275
 10
315.484901
 20
301.500113
 30
0.0
 11
315.196226
 21
301.000113
 31
0.0
  0
LINE
  8
LC-002-002-----0
  6
CONTINUOUS
  5
276
 10
315.196226
 20
301.000113
 30
0.0
 11
314.484412
 21
301.000113
 31
0.0
  0
LINE
  8
LC-002-002-----0
  6
CONTINUOUS
  5
277
 10
305.484901
 20
301.500113
 30
0.0
 11
305.196226
 21
301.000113
 31
0.0
  0
LINE
  8
LC-002-002-----0
  6
CONTINUOUS
  5
278
 10
305.773577
 20
301.000113
 30
0.0
 11
305.484901
 21
301.500113
 31
0.0
  0
LINE
  8
LC-002-002-----0
  6
CONTINUOUS
  5
279
 10
305.196226
 20
301.000113
 30
0.0
 11
304.484901
 21
301.000113
 31
0.0
  0
LINE
  8
LC-002-002-----0
  6
CONTINUOUS
  5
27A
 10
454.485391
 20
301.000113
 30
0.0
 11
455.196226
 21
301.000113
 31
0.0
  0
LINE
  8
LC-002-002-----0
  6
CONTINUOUS
  5
27B
 10
302.984641
 20
301.750113
 30
0.0
 11
303.984641
 21
300.750113
 31
0.0
  0
LINE
  8
LC-002-002-----0
  6
CONTINUOUS
  5
27C
 10
307.984412
 20
287.999423
 30
0.0
 11
312.984412
 21
287.999423
 31
0.0
  0
LINE
  8
LC-002-002-----0
  6
CONTINUOUS
  5
27D
 10
455.484901
 20
301.500113
 30
0.0
 11
454.485391
 21
301.500113
 31
0.0
  0
LINE
  8
LC-003-005-----0
  6
CONTINUOUS
  5
27E
 10
342.984901
 20
210.048827
 30
0.0
 11
345.984901
 21
213.048827
 31
0.0
  0
LINE
  8
LC-002-002-----0
  6
CONTINUOUS
  5
27F
 10
445.484901
 20
301.500113
 30
0.0
 11
446.485391
 21
301.500113
 31
0.0
  0
LINE
  8
LC-002-002-----0
  6
CONTINUOUS
  5
280
 10
445.484901
 20
301.500113
 30
0.0
 11
444.484901
 21
301.500113
 31
0.0
  0
LINE
  8
LC-003-005-----0
  6
CONTINUOUS
  5
281
 10
342.984901
 20
212.877254
 30
0.0
 11
345.984901
 21
215.877254
 31
0.0
  0
LINE
  8
LC-002-002-----0
  6
CONTINUOUS
  5
282
 10
417.984901
 20
287.119715
 30
0.0
 11
417.984901
 21
287.119715
 31
0.0
  0
LINE
  8
LC-003-005-----0
  6
CONTINUOUS
  5
283
 10
342.984901
 20
215.705681
 30
0.0
 11
345.984901
 21
218.705681
 31
0.0
  0
LINE
  8
LC-002-002-----0
  6
CONTINUOUS
  5
284
 10
414.984901
 20
290.042229
 30
0.0
 11
415.084901
 21
290.042229
 31
0.0
  0
LINE
  8
LC-002-002-----0
  6
CONTINUOUS
  5
285
 10
444.484901
 20
302.500113
 30
0.0
 11
444.484901
 21
301.000113
 31
0.0
  0
LINE
  8
LC-002-002-----0
  6
CONTINUOUS
  5
286
 10
456.484901
 20
301.000113
 30
0.0
 11
456.484901
 21
297.500113
 31
0.0
  0
LINE
  8
LC-002-002-----0
  6
CONTINUOUS
  5
287
 10
444.484901
 20
301.000113
 30
0.0
 11
445.196226
 21
301.000113
 31
0.0
  0
LINE
  8
LC-002-002-----0
  6
CONTINUOUS
  5
288
 10
456.485423
 20
297.500113
 30
0.0
 11
463.485423
 21
297.500113
 31
0.0
  0
LINE
  8
LC-002-002-----0
  6
CONTINUOUS
  5
289
 10
463.485423
 20
297.500113
 30
0.0
 11
463.485423
 21
301.000113
 31
0.0
  0
LINE
  8
LC-002-002-----0
  6
CONTINUOUS
  5
28A
 10
456.485423
 20
295.000113
 30
0.0
 11
463.485423
 21
295.000113
 31
0.0
  0
LINE
  8
LC-002-002-----0
  6
CONTINUOUS
  5
28B
 10
463.485423
 20
295.000113
 30
0.0
 11
465.93405
 21
297.44874
 31
0.0
  0
LINE
  8
LC-003-005-----0
  6
CONTINUOUS
  5
28C
 10
342.984901
 20
218.534108
 30
0.0
 11
345.984901
 21
221.534108
 31
0.0
  0
LINE
  8
LC-003-005-----0
  6
CONTINUOUS
  5
28D
 10
342.984901
 20
221.362535
 30
0.0
 11
345.984901
 21
224.362535
 31
0.0
  0
LINE
  8
LC-002-002-----0
  6
CONTINUOUS
  5
28E
 10
441.485014
 20
302.500113
 30
0.0
 11
440.485014
 21
302.500113
 31
0.0
  0
LINE
  8
LC-003-005-----0
  6
CONTINUOUS
  5
28F
 10
342.984901
 20
224.190962
 30
0.0
 11
345.984901
 21
227.190962
 31
0.0
  0
LINE
  8
LC-002-002-----0
  6
CONTINUOUS
  5
290
 10
302.984641
 20
297.750113
 30
0.0
 11
303.984641
 21
298.750113
 31
0.0
  0
LINE
  8
LC-002-002-----0
  6
CONTINUOUS
  5
291
 10
297.984641
 20
300.750113
 30
0.0
 11
298.984641
 21
301.750113
 31
0.0
  0
LINE
  8
LC-003-005-----0
  6
CONTINUOUS
  5
292
 10
342.984901
 20
227.019389
 30
0.0
 11
345.984901
 21
230.019389
 31
0.0
  0
LINE
  8
LC-002-002-----0
  6
CONTINUOUS
  5
293
 10
298.984641
 20
297.750113
 30
0.0
 11
299.340303
 21
297.750113
 31
0.0
  0
LINE
  8
LC-003-005-----0
  6
CONTINUOUS
  5
294
 10
342.984901
 20
229.847816
 30
0.0
 11
345.984901
 21
232.847816
 31
0.0
  0
LINE
  8
LC-003-005-----0
  6
CONTINUOUS
  5
295
 10
342.984901
 20
232.676244
 30
0.0
 11
345.984901
 21
235.676244
 31
0.0
  0
LINE
  8
LC-003-005-----0
  6
CONTINUOUS
  5
296
 10
342.984901
 20
235.504671
 30
0.0
 11
345.984901
 21
238.504671
 31
0.0
  0
LINE
  8
LC-003-005-----0
  6
CONTINUOUS
  5
297
 10
342.984901
 20
238.333098
 30
0.0
 11
345.984901
 21
241.333098
 31
0.0
  0
LINE
  8
LC-003-005-----0
  6
CONTINUOUS
  5
298
 10
342.984901
 20
241.161525
 30
0.0
 11
345.984901
 21
244.161525
 31
0.0
  0
LINE
  8
LC-003-005-----0
  6
CONTINUOUS
  5
299
 10
342.984901
 20
243.989952
 30
0.0
 11
345.984901
 21
246.989952
 31
0.0
  0
LINE
  8
LC-003-005-----0
  6
CONTINUOUS
  5
29A
 10
342.984901
 20
246.818379
 30
0.0
 11
345.984901
 21
249.818379
 31
0.0
  0
LINE
  8
LC-003-005-----0
  6
CONTINUOUS
  5
29B
 10
342.984901
 20
249.646806
 30
0.0
 11
345.984901
 21
252.646806
 31
0.0
  0
LINE
  8
LC-003-005-----0
  6
CONTINUOUS
  5
29C
 10
342.984901
 20
252.475233
 30
0.0
 11
345.984901
 21
255.475233
 31
0.0
  0
LINE
  8
LC-003-005-----0
  6
CONTINUOUS
  5
29D
 10
342.984901
 20
255.303661
 30
0.0
 11
345.984901
 21
258.303661
 31
0.0
  0
LINE
  8
LC-003-005-----0
  6
CONTINUOUS
  5
29E
 10
342.984901
 20
258.132088
 30
0.0
 11
345.984901
 21
261.132088
 31
0.0
  0
LINE
  8
LC-003-005-----0
  6
CONTINUOUS
  5
29F
 10
342.984901
 20
260.960515
 30
0.0
 11
345.984901
 21
263.960515
 31
0.0
  0
LINE
  8
LC-002-002-----0
  6
CONTINUOUS
  5
2A0
 10
312.984412
 20
292.665097
 30
0.0
 11
312.984412
 21
287.999423
 31
0.0
  0
LINE
  8
LC-002-002-----0
  6
CONTINUOUS
  5
2A1
 10
307.984412
 20
292.668105
 30
0.0
 11
307.984412
 21
287.999423
 31
0.0
  0
LINE
  8
LC-002-002-----0
  6
CONTINUOUS
  5
2A2
 10
304.48438
 20
295.000113
 30
0.0
 11
304.48438
 21
287.498732
 31
0.0
  0
LINE
  8
LC-002-002-----0
  6
CONTINUOUS
  5
2A3
 10
316.484901
 20
302.500113
 30
0.0
 11
317.484789
 21
302.500113
 31
0.0
  0
LINE
  8
LC-002-002-----0
  6
CONTINUOUS
  5
2A4
 10
297.48438
 20
301.000113
 30
0.0
 11
295.484901
 21
301.000113
 31
0.0
  0
LINE
  8
LC-002-002-----0
  6
CONTINUOUS
  5
2A5
 10
317.584418
 20
303.799401
 30
0.0
 11
322.484906
 21
303.799432
 31
0.0
  0
LINE
  8
LC-002-002-----0
  6
CONTINUOUS
  5
2A6
 10
445.196226
 20
301.000113
 30
0.0
 11
445.484901
 21
301.500113
 31
0.0
  0
LINE
  8
LC-002-002-----0
  6
CONTINUOUS
  5
2A7
 10
445.484901
 20
301.500113
 30
0.0
 11
445.773577
 21
301.000113
 31
0.0
  0
LINE
  8
LC-002-002-----0
  6
CONTINUOUS
  5
2A8
 10
445.773577
 20
301.000113
 30
0.0
 11
446.485391
 21
301.000113
 31
0.0
  0
LINE
  8
LC-002-002-----0
  6
CONTINUOUS
  5
2A9
 10
446.126472
 20
287.499442
 30
0.0
 11
432.484901
 21
287.499454
 31
0.0
  0
LINE
  8
LC-002-002-----0
  6
CONTINUOUS
  5
2AA
 10
314.234416
 20
304.79938
 30
0.0
 11
313.550692
 21
304.799376
 31
0.0
  0
LINE
  8
LC-002-002-----0
  6
CONTINUOUS
  5
2AB
 10
454.235387
 20
305.499334
 30
0.0
 11
455.464213
 21
305.499326
 31
0.0
  0
LINE
  8
LC-003-005-----0
  6
CONTINUOUS
  5
2AC
 10
342.984901
 20
263.788942
 30
0.0
 11
345.984901
 21
266.788942
 31
0.0
  0
LINE
  8
LC-002-002-----0
  6
CONTINUOUS
  5
2AD
 10
463.334807
 20
302.999458
 30
0.0
 11
483.646035
 21
307.316821
 31
0.0
  0
ARC
  8
LC-002-002-----0
  6
CONTINUOUS
  5
2AE
 10
483.170642
 20
309.553319
 30
0.0
 40
2.286465
 50
282.000248
 51
332.56643
  0
LINE
  8
LC-002-002-----0
  6
CONTINUOUS
  5
2AF
 10
297.561422
 20
302.299457
 30
0.0
 11
302.591534
 21
302.299469
 31
0.0
  0
LINE
  8
LC-002-002-----0
  6
CONTINUOUS
  5
2B0
 10
297.561422
 20
302.299457
 30
0.0
 11
277.169719
 21
306.63394
 31
0.0
  0
LINE
  8
LC-002-002-----0
  6
CONTINUOUS
  5
2B1
 10
306.734416
 20
305.499334
 30
0.0
 11
314.234416
 21
305.49938
 31
0.0
  0
ARC
  8
LC-007-002-RND-0
  6
CONTINUOUS
  5
2B2
 10
302.591524
 20
303.299469
 30
0.0
 40
1.0
 50
270.000575
 51
315.0
  0
ARC
  8
LC-007-002-RND-0
  6
CONTINUOUS
  5
2B3
 10
295.47449
 20
301.713494
 30
0.0
 40
1.0
 50
71.979716
 51
78.771206
  0
LINE
  8
LC-002-002-----0
  6
CONTINUOUS
  5
2B4
 10
305.505595
 20
304.799326
 30
0.0
 11
303.298631
 21
302.592362
 31
0.0
  0
LINE
  8
LC-002-002-----0
  6
CONTINUOUS
  5
2B5
 10
274.990191
 20
308.499901
 30
0.0
 11
275.769819
 21
308.4999
 31
0.0
  0
ARC
  8
LC-002-002-----0
  6
CONTINUOUS
  5
2B6
 10
322.484908
 20
303.499432
 30
0.0
 40
1.0
 50
269.999003
 51
90.001713
  0
ARC
  8
LC-002-002-----0
  6
CONTINUOUS
  5
2B7
 10
277.799161
 20
309.553319
 30
0.0
 40
3.0
 50
200.557023
 51
257.999752
  0
LINE
  8
LC-002-002-----0
  6
CONTINUOUS
  5
2B8
 10
320.484789
 20
302.500113
 30
0.0
 11
320.484789
 21
290.500113
 31
0.0
  0
LINE
  8
LC-002-002-----0
  6
CONTINUOUS
  5
2B9
 10
455.484901
 20
301.500113
 30
0.0
 11
455.773577
 21
301.000113
 31
0.0
  0
LINE
  8
LC-002-002-----0
  6
CONTINUOUS
  5
2BA
 10
455.196226
 20
301.000113
 30
0.0
 11
455.484901
 21
301.500113
 31
0.0
  0
LINE
  8
LC-002-002-----0
  6
CONTINUOUS
  5
2BB
 10
455.773577
 20
301.000113
 30
0.0
 11
456.484901
 21
301.000113
 31
0.0
  0
LINE
  8
LC-002-002-----0
  6
CONTINUOUS
  5
2BC
 10
452.985391
 20
287.999423
 30
0.0
 11
447.985391
 21
287.999423
 31
0.0
  0
LINE
  8
LC-002-002-----0
  6
CONTINUOUS
  5
2BD
 10
447.985391
 20
292.667228
 30
0.0
 11
447.985391
 21
287.999423
 31
0.0
  0
LINE
  8
LC-002-002-----0
  6
CONTINUOUS
  5
2BE
 10
452.985391
 20
292.665973
 30
0.0
 11
452.985391
 21
287.999423
 31
0.0
  0
LINE
  8
LC-002-002-----0
  6
CONTINUOUS
  5
2BF
 10
456.485423
 20
295.000113
 30
0.0
 11
456.485423
 21
287.498732
 31
0.0
  0
LINE
  8
LC-002-002-----0
  6
CONTINUOUS
  5
2C0
 10
444.484901
 20
302.500113
 30
0.0
 11
443.485014
 21
302.500113
 31
0.0
  0
LINE
  8
LC-002-002-----0
  6
CONTINUOUS
  5
2C1
 10
463.485423
 20
301.000113
 30
0.0
 11
465.484901
 21
301.000113
 31
0.0
  0
LINE
  8
LC-002-002-----0
  6
CONTINUOUS
  5
2C2
 10
440.485014
 20
302.500113
 30
0.0
 11
440.485014
 21
290.500113
 31
0.0
  0
LINE
  8
LC-002-002-----0
  6
CONTINUOUS
  5
2C3
 10
441.485014
 20
302.500113
 30
0.0
 11
443.485014
 21
302.500113
 31
0.0
  0
LINE
  8
LC-002-002-----0
  6
CONTINUOUS
  5
2C4
 10
455.959183
 20
305.294301
 30
0.0
 11
458.166147
 21
303.087337
 31
0.0
  0
ARC
  8
LC-002-002-----0
  6
CONTINUOUS
  5
2C5
 10
458.378279
 20
303.299469
 30
0.0
 40
0.3
 50
225.0
 51
269.999874
  0
LINE
  8
LC-002-002-----0
  6
CONTINUOUS
  5
2C6
 10
458.378279
 20
302.999469
 30
0.0
 11
463.334807
 21
302.999458
 31
0.0
  0
LINE
  8
LC-002-002-----0
  6
CONTINUOUS
  5
2C7
 10
317.024415
 20
304.0794
 30
0.0
 11
316.484416
 21
304.799395
 31
0.0
  0
LINE
  8
LC-002-002-----0
  6
CONTINUOUS
  5
2C8
 10
322.48491
 20
303.199432
 30
0.0
 11
320.984908
 21
303.199423
 31
0.0
  0
LINE
  8
LC-002-002-----0
  6
CONTINUOUS
  5
2C9
 10
320.984908
 20
303.199423
 30
0.0
 11
320.984908
 21
302.499423
 31
0.0
  0
ARC
  8
LC-002-002-----0
  6
CONTINUOUS
  5
2CA
 10
322.484908
 20
303.499432
 30
0.0
 40
0.3
 50
269.991704
 51
90.009012
  0
LINE
  8
LC-002-002-----0
  6
CONTINUOUS
  5
2CB
 10
316.484416
 20
304.799395
 30
0.0
 11
314.234416
 21
304.79938
 31
0.0
  0
LINE
  8
LC-003-005-----0
  6
CONTINUOUS
  5
2CC
 10
342.984901
 20
266.617369
 30
0.0
 11
345.984901
 21
269.617369
 31
0.0
  0
LINE
  8
LC-003-005-----0
  6
CONTINUOUS
  5
2CD
 10
342.984901
 20
269.445796
 30
0.0
 11
345.984901
 21
272.445796
 31
0.0
  0
LINE
  8
LC-002-002-----0
  6
CONTINUOUS
  5
2CE
 10
314.234416
 20
304.79938
 30
0.0
 11
314.234416
 21
305.49938
 31
0.0
  0
LINE
  8
LC-003-005-----0
  6
CONTINUOUS
  5
2CF
 10
342.984901
 20
272.274223
 30
0.0
 11
345.984901
 21
275.274223
 31
0.0
  0
LINE
  8
LC-002-002-----0
  6
CONTINUOUS
  5
2D0
 10
314.234416
 20
305.49938
 30
0.0
 11
316.484412
 21
305.499395
 31
0.0
  0
LINE
  8
LC-002-002-----0
  6
CONTINUOUS
  5
2D1
 10
438.484901
 20
304.499432
 30
0.0
 11
443.385389
 21
304.499401
 31
0.0
  0
LINE
  8
LC-002-002-----0
  6
CONTINUOUS
  5
2D2
 10
305.505595
 20
304.799326
 30
0.0
 11
306.734416
 21
304.799334
 31
0.0
  0
LINE
  8
LC-002-002-----0
  6
CONTINUOUS
  5
2D3
 10
306.734416
 20
304.799334
 30
0.0
 11
306.734416
 21
305.499334
 31
0.0
  0
LINE
  8
LC-002-002-----0
  6
CONTINUOUS
  5
2D4
 10
306.734416
 20
305.499334
 30
0.0
 11
305.50559
 21
305.499326
 31
0.0
  0
LINE
  8
LC-002-002-----0
  6
CONTINUOUS
  5
2D5
 10
297.634996
 20
302.999458
 30
0.0
 11
277.323768
 21
307.316821
 31
0.0
  0
LINE
  8
LC-002-002-----0
  6
CONTINUOUS
  5
2D6
 10
432.484901
 20
290.500113
 30
0.0
 11
415.084901
 21
290.042229
 31
0.0
  0
ARC
  8
LC-002-002-----0
  6
CONTINUOUS
  5
2D7
 10
277.799161
 20
309.553319
 30
0.0
 40
2.286465
 50
207.43357
 51
257.999752
  0
LINE
  8
LC-002-002-----0
  6
CONTINUOUS
  5
2D8
 10
432.484901
 20
287.499454
 30
0.0
 11
417.984911
 21
287.119758
 31
0.0
  0
LINE
  8
LC-002-002-----0
  6
CONTINUOUS
  5
2D9
 10
305.01062
 20
305.294301
 30
0.0
 11
302.803656
 21
303.087337
 31
0.0
  0
ARC
  8
LC-002-002-----0
  6
CONTINUOUS
  5
2DA
 10
302.591524
 20
303.299469
 30
0.0
 40
0.3
 50
270.000126
 51
315.0
  0
LINE
  8
LC-002-002-----0
  6
CONTINUOUS
  5
2DB
 10
328.40639
 20
290.501817
 30
0.0
 11
320.484875
 21
290.500113
 31
0.0
  0
LINE
  8
LC-002-002-----0
  6
CONTINUOUS
  5
2DC
 10
328.484901
 20
287.498732
 30
0.0
 11
342.984901
 21
287.119036
 31
0.0
  0
LINE
  8
LC-002-002-----0
  6
CONTINUOUS
  5
2DD
 10
302.591524
 20
302.999469
 30
0.0
 11
297.634996
 21
302.999458
 31
0.0
  0
LINE
  8
LC-002-002-----0
  6
CONTINUOUS
  5
2DE
 10
322.484902
 20
304.499432
 30
0.0
 11
317.584414
 21
304.499401
 31
0.0
  0
LINE
  8
LC-003-005-----0
  6
CONTINUOUS
  5
2DF
 10
342.984901
 20
275.10265
 30
0.0
 11
345.984901
 21
278.10265
 31
0.0
  0
LINE
  8
LC-003-005-----0
  6
CONTINUOUS
  5
2E0
 10
342.984901
 20
277.931078
 30
0.0
 11
345.984901
 21
280.931078
 31
0.0
  0
LINE
  8
LC-003-005-----0
  6
CONTINUOUS
  5
2E1
 10
342.984901
 20
280.759505
 30
0.0
 11
345.984901
 21
283.759505
 31
0.0
  0
LINE
  8
LC-002-002-----0
  6
CONTINUOUS
  5
2E2
 10
303.984641
 20
298.750113
 30
0.0
 11
303.984641
 21
300.750113
 31
0.0
  0
LINE
  8
LC-002-002-----0
  6
CONTINUOUS
  5
2E3
 10
298.984641
 20
301.750113
 30
0.0
 11
299.340303
 21
301.750113
 31
0.0
  0
LINE
  8
LC-002-002-----0
  6
CONTINUOUS
  5
2E4
 10
297.984641
 20
300.750113
 30
0.0
 11
297.984641
 21
298.750113
 31
0.0
  0
LINE
  8
LC-003-005-----0
  6
CONTINUOUS
  5
2E5
 10
342.984901
 20
283.587932
 30
0.0
 11
345.984901
 21
286.587932
 31
0.0
  0
LINE
  8
LC-002-002-----0
  6
CONTINUOUS
  5
2E6
 10
297.984641
 20
298.750113
 30
0.0
 11
298.984641
 21
297.750113
 31
0.0
  0
LINE
  8
LC-002-002-----0
  6
CONTINUOUS
  5
2E7
 10
302.484641
 20
302.000113
 30
0.0
 11
302.340303
 21
301.750113
 31
0.0
  0
LINE
  8
LC-002-002-----0
  6
CONTINUOUS
  5
2E8
 10
302.628978
 20
301.750113
 30
0.0
 11
302.484641
 21
302.000113
 31
0.0
  0
LINE
  8
LC-002-002-----0
  6
CONTINUOUS
  5
2E9
 10
301.128978
 20
301.750113
 30
0.0
 11
300.984641
 21
302.000113
 31
0.0
  0
LINE
  8
LC-002-002-----0
  6
CONTINUOUS
  5
2EA
 10
299.628978
 20
301.750113
 30
0.0
 11
299.484641
 21
302.000113
 31
0.0
  0
LINE
  8
LC-002-002-----0
  6
CONTINUOUS
  5
2EB
 10
299.484641
 20
297.500113
 30
0.0
 11
299.340303
 21
297.750113
 31
0.0
  0
LINE
  8
LC-002-002-----0
  6
CONTINUOUS
  5
2EC
 10
300.984641
 20
297.500113
 30
0.0
 11
300.840303
 21
297.750113
 31
0.0
  0
LINE
  8
LC-002-002-----0
  6
CONTINUOUS
  5
2ED
 10
302.484641
 20
297.500113
 30
0.0
 11
302.340303
 21
297.750113
 31
0.0
  0
LINE
  8
LC-002-002-----0
  6
CONTINUOUS
  5
2EE
 10
300.984641
 20
302.000113
 30
0.0
 11
300.840303
 21
301.750113
 31
0.0
  0
LINE
  8
LC-002-002-----0
  6
CONTINUOUS
  5
2EF
 10
299.484641
 20
302.000113
 30
0.0
 11
299.340303
 21
301.750113
 31
0.0
  0
LINE
  8
LC-002-002-----0
  6
CONTINUOUS
  5
2F0
 10
299.628978
 20
297.750113
 30
0.0
 11
299.484641
 21
297.500113
 31
0.0
  0
LINE
  8
LC-002-002-----0
  6
CONTINUOUS
  5
2F1
 10
301.128978
 20
297.750113
 30
0.0
 11
300.984641
 21
297.500113
 31
0.0
  0
LINE
  8
LC-002-002-----0
  6
CONTINUOUS
  5
2F2
 10
302.628978
 20
297.750113
 30
0.0
 11
302.484641
 21
297.500113
 31
0.0
  0
LINE
  8
LC-002-002-----0
  6
CONTINUOUS
  5
2F3
 10
302.628978
 20
297.750113
 30
0.0
 11
302.984641
 21
297.750113
 31
0.0
  0
LINE
  8
LC-002-002-----0
  6
CONTINUOUS
  5
2F4
 10
301.128978
 20
297.750113
 30
0.0
 11
302.340303
 21
297.750113
 31
0.0
  0
LINE
  8
LC-002-002-----0
  6
CONTINUOUS
  5
2F5
 10
299.628978
 20
297.750113
 30
0.0
 11
300.840303
 21
297.750113
 31
0.0
  0
LINE
  8
LC-002-002-----0
  6
CONTINUOUS
  5
2F6
 10
299.628978
 20
301.750113
 30
0.0
 11
300.840303
 21
301.750113
 31
0.0
  0
LINE
  8
LC-002-002-----0
  6
CONTINUOUS
  5
2F7
 10
301.128978
 20
301.750113
 30
0.0
 11
302.340303
 21
301.750113
 31
0.0
  0
LINE
  8
LC-002-002-----0
  6
CONTINUOUS
  5
2F8
 10
302.628978
 20
301.750113
 30
0.0
 11
302.984641
 21
301.750113
 31
0.0
  0
LINE
  8
LC-003-005-----0
  6
CONTINUOUS
  5
2F9
 10
342.984901
 20
286.416359
 30
0.0
 11
345.984901
 21
289.416359
 31
0.0
  0
LINE
  8
LC-002-002-----0
  6
CONTINUOUS
  5
2FA
 10
338.863067
 20
340.999432
 30
0.0
 11
422.106736
 21
340.999432
 31
0.0
  0
LINE
  8
LC-002-002-----0
  6
CONTINUOUS
  5
2FB
 10
325.984901
 20
304.499432
 30
0.0
 11
380.484901
 21
304.499432
 31
0.0
  0
LINE
  8
LC-002-002-----0
  6
CONTINUOUS
  5
2FC
 10
328.665798
 20
304.499432
 30
0.0
 11
348.501581
 21
375.499432
 31
0.0
  0
LINE
  8
LC-002-002-----0
  6
CONTINUOUS
  5
2FD
 10
419.592341
 20
349.999432
 30
0.0
 11
341.377462
 21
349.999432
 31
0.0
  0
LINE
  8
LC-003-005-----0
  6
CONTINUOUS
  5
2FE
 10
414.984894
 20
140.627463
 30
0.0
 11
417.984894
 21
143.627463
 31
0.0
  0
LINE
  8
LC-002-002-----0
  6
CONTINUOUS
  5
2FF
 10
386.729671
 20
349.999432
 30
0.0
 11
385.651145
 21
375.499432
 31
0.0
  0
ARC
  8
LC-002-002-----0
  6
CONTINUOUS
  5
300
 10
323.484908
 20
300.499432
 30
0.0
 40
1.0
 50
90.0
 51
180.0
  0
LINE
  8
LC-002-002-----0
  6
CONTINUOUS
  5
301
 10
348.484901
 20
379.499432
 30
0.0
 11
348.343149
 21
379.499432
 31
0.0
  0
LINE
  8
LC-002-002-----0
  6
CONTINUOUS
  5
302
 10
350.484901
 20
379.499432
 30
0.0
 11
380.484901
 21
379.499432
 31
0.0
  0
LINE
  8
LC-002-002-----0
  6
CONTINUOUS
  5
303
 10
385.127437
 20
340.999432
 30
0.0
 11
386.67121
 21
304.499432
 31
0.0
  0
LINE
  8
LC-002-002-----0
  6
CONTINUOUS
  5
304
 10
374.240132
 20
349.999432
 30
0.0
 11
375.318658
 21
375.499432
 31
0.0
  0
LINE
  8
LC-002-002-----0
  6
CONTINUOUS
  5
305
 10
375.842366
 20
340.999432
 30
0.0
 11
374.298593
 21
304.499432
 31
0.0
  0
LINE
  8
LC-002-002-----0
  6
CONTINUOUS
  5
306
 10
364.890785
 20
340.999432
 30
0.0
 11
360.364672
 21
304.499432
 31
0.0
  0
LINE
  8
LC-002-002-----0
  6
CONTINUOUS
  5
307
 10
350.484901
 20
375.499432
 30
0.0
 11
380.484901
 21
375.499432
 31
0.0
  0
ARC
  8
LC-007-002-RND-0
  6
CONTINUOUS
  5
308
 10
348.056338
 20
366.499432
 30
0.0
 40
13.0
 50
88.110819
 51
165.0
  0
LINE
  8
LC-002-002-----0
  6
CONTINUOUS
  5
309
 10
363.043026
 20
340.999432
 30
0.0
 11
358.516913
 21
304.499432
 31
0.0
  0
LINE
  8
LC-002-002-----0
  6
CONTINUOUS
  5
30A
 10
355.001918
 20
340.999432
 30
0.0
 11
347.801912
 21
304.499432
 31
0.0
  0
LINE
  8
LC-002-002-----0
  6
CONTINUOUS
  5
30B
 10
353.489227
 20
340.999432
 30
0.0
 11
346.215205
 21
304.499432
 31
0.0
  0
LINE
  8
LC-002-002-----0
  6
CONTINUOUS
  5
30C
 10
322.484908
 20
300.499432
 30
0.0
 11
323.984908
 21
298.999432
 31
0.0
  0
LINE
  8
LC-002-002-----0
  6
CONTINUOUS
  5
30D
 10
325.984901
 20
294.499432
 30
0.0
 11
434.984901
 21
294.499432
 31
0.0
  0
LINE
  8
LC-002-002-----0
  6
CONTINUOUS
  5
30E
 10
345.632151
 20
340.999432
 30
0.0
 11
336.24892
 21
304.499432
 31
0.0
  0
LINE
  8
LC-002-002-----0
  6
CONTINUOUS
  5
30F
 10
436.984901
 20
301.499432
 30
0.0
 11
436.984901
 21
304.499431
 31
0.0
  0
LINE
  8
LC-002-002-----0
  6
CONTINUOUS
  5
310
 10
323.984901
 20
304.499431
 30
0.0
 11
317.984901
 21
304.499448
 31
0.0
  0
LINE
  8
LC-002-002-----0
  6
CONTINUOUS
  5
311
 10
346.849674
 20
340.999432
 30
0.0
 11
337.466443
 21
304.499432
 31
0.0
  0
LINE
  8
LC-002-002-----0
  6
CONTINUOUS
  5
312
 10
340.989615
 20
340.999432
 30
0.0
 11
330.062612
 21
304.499432
 31
0.0
  0
LINE
  8
LC-002-002-----0
  6
CONTINUOUS
  5
313
 10
419.980188
 20
340.999432
 30
0.0
 11
430.907191
 21
304.499432
 31
0.0
  0
LINE
  8
LC-002-002-----0
  6
CONTINUOUS
  5
314
 10
385.484901
 20
379.499432
 30
0.0
 11
385.484901
 21
375.499432
 31
0.0
  0
LINE
  8
LC-002-002-----0
  6
CONTINUOUS
  5
315
 10
335.499302
 20
369.86408
 30
0.0
 11
317.984901
 21
304.499448
 31
0.0
  0
LINE
  8
LC-002-002-----0
  6
CONTINUOUS
  5
316
 10
412.484901
 20
379.499432
 30
0.0
 11
412.626654
 21
379.499432
 31
0.0
  0
LINE
  8
LC-002-002-----0
  6
CONTINUOUS
  5
317
 10
410.484901
 20
379.499432
 30
0.0
 11
410.484901
 21
375.499432
 31
0.0
  0
LINE
  8
LC-002-002-----0
  6
CONTINUOUS
  5
318
 10
412.484901
 20
379.499432
 30
0.0
 11
410.484901
 21
379.499432
 31
0.0
  0
LINE
  8
LC-002-002-----0
  6
CONTINUOUS
  5
319
 10
412.484901
 20
375.439728
 30
0.0
 11
412.484901
 21
379.499432
 31
0.0
  0
LINE
  8
LC-002-002-----0
  6
CONTINUOUS
  5
31A
 10
348.484901
 20
375.499432
 30
0.0
 11
348.484901
 21
379.499432
 31
0.0
  0
LINE
  8
LC-002-002-----0
  6
CONTINUOUS
  5
31B
 10
348.484901
 20
379.499432
 30
0.0
 11
350.484901
 21
379.499432
 31
0.0
  0
LINE
  8
LC-002-002-----0
  6
CONTINUOUS
  5
31C
 10
350.484901
 20
379.499432
 30
0.0
 11
350.484901
 21
375.499432
 31
0.0
  0
LINE
  8
LC-002-002-----0
  6
CONTINUOUS
  5
31D
 10
375.484901
 20
379.499432
 30
0.0
 11
375.484901
 21
375.499432
 31
0.0
  0
LINE
  8
LC-002-002-----0
  6
CONTINUOUS
  5
31E
 10
369.168892
 20
375.499432
 30
0.0
 11
366.006813
 21
349.999432
 31
0.0
  0
LINE
  8
LC-002-002-----0
  6
CONTINUOUS
  5
31F
 10
367.321133
 20
375.499432
 30
0.0
 11
364.159054
 21
349.999432
 31
0.0
  0
LINE
  8
LC-002-002-----0
  6
CONTINUOUS
  5
320
 10
372.315703
 20
304.499432
 30
0.0
 11
373.859476
 21
340.999432
 31
0.0
  0
LINE
  8
LC-002-002-----0
  6
CONTINUOUS
  5
321
 10
377.301548
 20
375.499432
 30
0.0
 11
376.223022
 21
349.999432
 31
0.0
  0
LINE
  8
LC-002-002-----0
  6
CONTINUOUS
  5
322
 10
361.807403
 20
375.499432
 30
0.0
 11
356.777262
 21
349.999432
 31
0.0
  0
LINE
  8
LC-002-002-----0
  6
CONTINUOUS
  5
323
 10
360.364672
 20
375.499432
 30
0.0
 11
355.282821
 21
349.999432
 31
0.0
  0
LINE
  8
LC-002-002-----0
  6
CONTINUOUS
  5
324
 10
355.718755
 20
375.499432
 30
0.0
 11
349.163347
 21
349.999432
 31
0.0
  0
LINE
  8
LC-002-002-----0
  6
CONTINUOUS
  5
325
 10
354.501232
 20
375.499432
 30
0.0
 11
347.945825
 21
349.999432
 31
0.0
  0
LINE
  8
LC-002-002-----0
  6
CONTINUOUS
  5
326
 10
351.317879
 20
375.499432
 30
0.0
 11
343.683945
 21
349.999432
 31
0.0
  0
LINE
  8
LC-002-002-----0
  6
CONTINUOUS
  5
327
 10
329.297245
 20
304.499432
 30
0.0
 11
340.224248
 21
340.999432
 31
0.0
  0
LINE
  8
LC-002-002-----0
  6
CONTINUOUS
  5
328
 10
415.337652
 20
340.999432
 30
0.0
 11
424.720883
 21
304.499432
 31
0.0
  0
LINE
  8
LC-002-002-----0
  6
CONTINUOUS
  5
329
 10
434.984901
 20
304.499432
 30
0.0
 11
380.484901
 21
304.499432
 31
0.0
  0
LINE
  8
LC-002-002-----0
  6
CONTINUOUS
  5
32A
 10
432.304005
 20
304.499432
 30
0.0
 11
422.106736
 21
340.999432
 31
0.0
  0
LINE
  8
LC-002-002-----0
  6
CONTINUOUS
  5
32B
 10
414.120129
 20
340.999432
 30
0.0
 11
423.50336
 21
304.499432
 31
0.0
  0
LINE
  8
LC-002-002-----0
  6
CONTINUOUS
  5
32C
 10
407.480576
 20
340.999432
 30
0.0
 11
414.754598
 21
304.499432
 31
0.0
  0
LINE
  8
LC-002-002-----0
  6
CONTINUOUS
  5
32D
 10
405.967885
 20
340.999432
 30
0.0
 11
413.167891
 21
304.499432
 31
0.0
  0
LINE
  8
LC-002-002-----0
  6
CONTINUOUS
  5
32E
 10
325.984901
 20
298.999432
 30
0.0
 11
325.984901
 21
294.499432
 31
0.0
  0
LINE
  8
LC-002-002-----0
  6
CONTINUOUS
  5
32F
 10
412.913465
 20
379.499432
 30
0.0
 11
380.484901
 21
379.499432
 31
0.0
  0
LINE
  8
LC-002-002-----0
  6
CONTINUOUS
  5
330
 10
397.926777
 20
340.999432
 30
0.0
 11
402.45289
 21
304.499432
 31
0.0
  0
LINE
  8
LC-002-002-----0
  6
CONTINUOUS
  5
331
 10
396.079018
 20
340.999432
 30
0.0
 11
400.605131
 21
304.499432
 31
0.0
  0
LINE
  8
LC-002-002-----0
  6
CONTINUOUS
  5
332
 10
434.984901
 20
298.999432
 30
0.0
 11
434.984901
 21
304.499432
 31
0.0
  0
LINE
  8
LC-002-002-----0
  6
CONTINUOUS
  5
333
 10
412.468222
 20
375.499432
 30
0.0
 11
380.484901
 21
375.499432
 31
0.0
  0
ARC
  8
LC-007-002-RND-0
  6
CONTINUOUS
  5
334
 10
412.913465
 20
366.499432
 30
0.0
 40
13.0
 50
15.0
 51
90.0
  0
LINE
  8
LC-002-002-----0
  6
CONTINUOUS
  5
335
 10
438.484895
 20
300.499432
 30
0.0
 11
436.984895
 21
298.999432
 31
0.0
  0
LINE
  8
LC-002-002-----0
  6
CONTINUOUS
  5
336
 10
437.484895
 20
301.499432
 30
0.0
 11
436.984901
 21
301.499432
 31
0.0
  0
LINE
  8
LC-002-002-----0
  6
CONTINUOUS
  5
337
 10
323.984901
 20
294.499432
 30
0.0
 11
325.984901
 21
294.499432
 31
0.0
  0
LINE
  8
LC-002-002-----0
  6
CONTINUOUS
  5
338
 10
436.984901
 20
304.499431
 30
0.0
 11
434.984901
 21
304.499432
 31
0.0
  0
LINE
  8
LC-002-002-----0
  6
CONTINUOUS
  5
339
 10
436.984901
 20
304.499431
 30
0.0
 11
442.984901
 21
304.499448
 31
0.0
  0
LINE
  8
LC-002-002-----0
  6
CONTINUOUS
  5
33A
 10
431.672558
 20
304.499432
 30
0.0
 11
420.745555
 21
340.999432
 31
0.0
  0
LINE
  8
LC-002-002-----0
  6
CONTINUOUS
  5
33B
 10
409.651924
 20
375.499432
 30
0.0
 11
417.285858
 21
349.999432
 31
0.0
  0
LINE
  8
LC-002-002-----0
  6
CONTINUOUS
  5
33C
 10
406.468571
 20
375.499432
 30
0.0
 11
413.023978
 21
349.999432
 31
0.0
  0
LINE
  8
LC-002-002-----0
  6
CONTINUOUS
  5
33D
 10
405.251048
 20
375.499432
 30
0.0
 11
411.806456
 21
349.999432
 31
0.0
  0
LINE
  8
LC-002-002-----0
  6
CONTINUOUS
  5
33E
 10
400.605131
 20
375.499432
 30
0.0
 11
405.686982
 21
349.999432
 31
0.0
  0
LINE
  8
LC-002-002-----0
  6
CONTINUOUS
  5
33F
 10
399.1624
 20
375.499432
 30
0.0
 11
404.192541
 21
349.999432
 31
0.0
  0
LINE
  8
LC-002-002-----0
  6
CONTINUOUS
  5
340
 10
383.668255
 20
375.499432
 30
0.0
 11
384.746781
 21
349.999432
 31
0.0
  0
LINE
  8
LC-002-002-----0
  6
CONTINUOUS
  5
341
 10
388.6541
 20
304.499432
 30
0.0
 11
387.110327
 21
340.999432
 31
0.0
  0
LINE
  8
LC-002-002-----0
  6
CONTINUOUS
  5
342
 10
393.64867
 20
375.499432
 30
0.0
 11
396.810749
 21
349.999432
 31
0.0
  0
LINE
  8
LC-002-002-----0
  6
CONTINUOUS
  5
343
 10
391.800911
 20
375.499432
 30
0.0
 11
394.96299
 21
349.999432
 31
0.0
  0
LINE
  8
LC-002-002-----0
  6
CONTINUOUS
  5
344
 10
419.592341
 20
349.999432
 30
0.0
 11
419.592341
 21
342.999432
 31
0.0
  0
LINE
  8
LC-002-002-----0
  6
CONTINUOUS
  5
345
 10
421.592341
 20
340.999432
 30
0.0
 11
422.106736
 21
340.999432
 31
0.0
  0
LINE
  8
LC-002-002-----0
  6
CONTINUOUS
  5
346
 10
425.470501
 20
369.86408
 30
0.0
 11
442.984901
 21
304.499448
 31
0.0
  0
LINE
  8
LC-002-002-----0
  6
CONTINUOUS
  5
347
 10
418.051225
 20
349.999432
 30
0.0
 11
410.417291
 21
375.499432
 31
0.0
  0
ARC
  8
LC-007-002-RND-0
  6
CONTINUOUS
  5
348
 10
421.592341
 20
342.999432
 30
0.0
 40
2.0
 50
180.0
 51
270.0
  0
LINE
  8
LC-002-002-----0
  6
CONTINUOUS
  5
349
 10
323.984901
 20
301.499432
 30
0.0
 11
323.984901
 21
304.499431
 31
0.0
  0
LINE
  8
LC-002-002-----0
  6
CONTINUOUS
  5
34A
 10
434.984901
 20
298.999432
 30
0.0
 11
434.984901
 21
294.499432
 31
0.0
  0
LINE
  8
LC-002-002-----0
  6
CONTINUOUS
  5
34B
 10
436.984901
 20
298.999432
 30
0.0
 11
436.984901
 21
294.499432
 31
0.0
  0
LINE
  8
LC-002-002-----0
  6
CONTINUOUS
  5
34C
 10
436.984901
 20
294.499432
 30
0.0
 11
434.984901
 21
294.499432
 31
0.0
  0
LINE
  8
LC-002-002-----0
  6
CONTINUOUS
  5
34D
 10
325.984901
 20
298.999432
 30
0.0
 11
325.984901
 21
304.499432
 31
0.0
  0
LINE
  8
LC-002-002-----0
  6
CONTINUOUS
  5
34E
 10
323.984901
 20
298.999432
 30
0.0
 11
323.984901
 21
294.499432
 31
0.0
  0
ARC
  8
LC-002-002-----0
  6
CONTINUOUS
  5
34F
 10
437.484895
 20
300.499432
 30
0.0
 40
1.0
 50
0.0
 51
90.0
  0
LINE
  8
LC-002-002-----0
  6
CONTINUOUS
  5
350
 10
323.484908
 20
301.499432
 30
0.0
 11
323.984901
 21
301.499432
 31
0.0
  0
LINE
  8
LC-002-002-----0
  6
CONTINUOUS
  5
351
 10
323.984901
 20
304.499431
 30
0.0
 11
325.984901
 21
304.499432
 31
0.0
  0
LINE
  8
LC-002-002-----0
  6
CONTINUOUS
  5
352
 10
350.484901
 20
375.499432
 30
0.0
 11
348.501581
 21
375.499432
 31
0.0
  0
LINE
  8
LC-002-002-----0
  6
CONTINUOUS
  5
353
 10
419.592341
 20
349.999432
 30
0.0
 11
412.484901
 21
375.439728
 31
0.0
  0
LINE
  8
LC-002-002-----0
  6
CONTINUOUS
  5
354
 10
419.592341
 20
349.999432
 30
0.0
 11
422.106736
 21
340.999432
 31
0.0
  0
LINE
  8
LC-002-002-----0
  6
CONTINUOUS
  5
355
 10
341.377462
 20
349.999432
 30
0.0
 11
341.377462
 21
342.999432
 31
0.0
  0
LINE
  8
LC-002-002-----0
  6
CONTINUOUS
  5
356
 10
339.377462
 20
340.999432
 30
0.0
 11
338.863067
 21
340.999432
 31
0.0
  0
ARC
  8
LC-007-002-RND-0
  6
CONTINUOUS
  5
357
 10
339.377462
 20
342.999432
 30
0.0
 40
2.0
 50
270.0
 51
0.0
  0
LINE
  8
LC-002-002-----0
  6
CONTINUOUS
  5
358
 10
341.377462
 20
349.999432
 30
0.0
 11
338.863067
 21
340.999432
 31
0.0
  0
LINE
  8
LC-002-002-----0
  6
CONTINUOUS
  5
359
 10
342.918578
 20
349.999432
 30
0.0
 11
350.552512
 21
375.499432
 31
0.0
  0
LINE
  8
LC-002-002-----0
  6
CONTINUOUS
  5
35A
 10
461.985162
 20
297.750113
 30
0.0
 11
461.6295
 21
297.750113
 31
0.0
  0
LINE
  8
LC-003-005-----0
  6
CONTINUOUS
  5
35B
 10
340.88745
 20
287.147334
 30
0.0
 11
340.887504
 21
287.147388
 31
0.0
  0
LINE
  8
LC-003-005-----0
  6
CONTINUOUS
  5
35C
 10
340.913396
 20
287.173281
 30
0.0
 11
343.837845
 21
290.09773
 31
0.0
  0
LINE
  8
LC-003-005-----0
  6
CONTINUOUS
  5
35D
 10
338.096675
 20
287.184987
 30
0.0
 11
338.0968
 21
287.185112
 31
0.0
  0
LINE
  8
LC-003-005-----0
  6
CONTINUOUS
  5
35E
 10
338.157144
 20
287.245456
 30
0.0
 11
341.081593
 21
290.169905
 31
0.0
  0
LINE
  8
LC-003-005-----0
  6
CONTINUOUS
  5
35F
 10
335.3059
 20
287.222639
 30
0.0
 11
335.306096
 21
287.222835
 31
0.0
  0
LINE
  8
LC-003-005-----0
  6
CONTINUOUS
  5
360
 10
335.400892
 20
287.317631
 30
0.0
 11
338.325341
 21
290.24208
 31
0.0
  0
LINE
  8
LC-003-005-----0
  6
CONTINUOUS
  5
361
 10
332.515125
 20
287.260291
 30
0.0
 11
332.515393
 21
287.260559
 31
0.0
  0
LINE
  8
LC-003-005-----0
  6
CONTINUOUS
  5
362
 10
332.64464
 20
287.389806
 30
0.0
 11
335.569089
 21
290.314255
 31
0.0
  0
LINE
  8
LC-003-005-----0
  6
CONTINUOUS
  5
363
 10
329.72435
 20
287.297943
 30
0.0
 11
329.724689
 21
287.298282
 31
0.0
  0
LINE
  8
LC-003-005-----0
  6
CONTINUOUS
  5
364
 10
329.888388
 20
287.461981
 30
0.0
 11
332.812837
 21
290.38643
 31
0.0
  0
LINE
  8
LC-003-005-----0
  6
CONTINUOUS
  5
365
 10
326.933575
 20
287.335595
 30
0.0
 11
326.933986
 21
287.336006
 31
0.0
  0
LINE
  8
LC-003-005-----0
  6
CONTINUOUS
  5
366
 10
327.096712
 20
287.498732
 30
0.0
 11
330.056584
 21
290.458605
 31
0.0
  0
LINE
  8
LC-003-005-----0
  6
CONTINUOUS
  5
367
 10
324.1428
 20
287.373247
 30
0.0
 11
324.143282
 21
287.37373
 31
0.0
  0
LINE
  8
LC-003-005-----0
  6
CONTINUOUS
  5
368
 10
324.268285
 20
287.498732
 30
0.0
 11
327.271125
 21
290.501572
 31
0.0
  0
LINE
  8
LC-003-005-----0
  6
CONTINUOUS
  5
369
 10
321.352025
 20
287.410899
 30
0.0
 11
321.352579
 21
287.411453
 31
0.0
  0
LINE
  8
LC-003-005-----0
  6
CONTINUOUS
  5
36A
 10
321.439858
 20
287.498732
 30
0.0
 11
324.44209
 21
290.500964
 31
0.0
  0
LINE
  8
LC-003-005-----0
  6
CONTINUOUS
  5
36B
 10
318.56125
 20
287.448552
 30
0.0
 11
318.561875
 21
287.449177
 31
0.0
  0
LINE
  8
LC-003-005-----0
  6
CONTINUOUS
  5
36C
 10
318.611431
 20
287.498732
 30
0.0
 11
321.613054
 21
290.500356
 31
0.0
  0
LINE
  8
LC-003-005-----0
  6
CONTINUOUS
  5
36D
 10
315.770475
 20
287.486204
 30
0.0
 11
315.771172
 21
287.4869
 31
0.0
  0
LINE
  8
LC-003-005-----0
  6
CONTINUOUS
  5
36E
 10
315.783004
 20
287.498732
 30
0.0
 11
320.484789
 21
292.200518
 31
0.0
  0
LINE
  8
LC-003-005-----0
  6
CONTINUOUS
  5
36F
 10
312.084048
 20
286.628204
 30
0.0
 11
320.484789
 21
295.028945
 31
0.0
  0
LINE
  8
LC-003-005-----0
  6
CONTINUOUS
  5
370
 10
309.208572
 20
286.581155
 30
0.0
 11
310.62684
 21
287.999423
 31
0.0
  0
LINE
  8
LC-003-005-----0
  6
CONTINUOUS
  5
371
 10
312.984412
 20
290.356995
 30
0.0
 11
320.484789
 21
297.857372
 31
0.0
  0
LINE
  8
LC-003-005-----0
  6
CONTINUOUS
  5
372
 10
306.945541
 20
287.146551
 30
0.0
 11
307.984412
 21
288.185422
 31
0.0
  0
LINE
  8
LC-003-005-----0
  6
CONTINUOUS
  5
373
 10
312.984412
 20
293.185422
 30
0.0
 11
320.484789
 21
300.685799
 31
0.0
  0
LINE
  8
LC-003-005-----0
  6
CONTINUOUS
  5
374
 10
304.48438
 20
287.513817
 30
0.0
 11
307.984412
 21
291.013849
 31
0.0
  0
LINE
  8
LC-003-005-----0
  6
CONTINUOUS
  5
375
 10
312.984412
 20
296.013849
 30
0.0
 11
319.470068
 21
302.499505
 31
0.0
  0
LINE
  8
LC-003-005-----0
  6
CONTINUOUS
  5
376
 10
319.470676
 20
302.500113
 30
0.0
 11
319.484789
 21
302.514227
 31
0.0
  0
LINE
  8
LC-003-005-----0
  6
CONTINUOUS
  5
377
 10
304.48438
 20
290.342244
 30
0.0
 11
307.984412
 21
293.842276
 31
0.0
  0
LINE
  8
LC-003-005-----0
  6
CONTINUOUS
  5
378
 10
312.984412
 20
298.842276
 30
0.0
 11
315.142249
 21
301.000113
 31
0.0
  0
LINE
  8
LC-003-005-----0
  6
CONTINUOUS
  5
379
 10
315.269961
 20
301.127826
 30
0.0
 11
315.542495
 21
301.400359
 31
0.0
  0
LINE
  8
LC-003-005-----0
  6
CONTINUOUS
  5
37A
 10
316.484901
 20
302.342766
 30
0.0
 11
316.642249
 21
302.500113
 31
0.0
  0
LINE
  8
LC-003-005-----0
  6
CONTINUOUS
  5
37B
 10
414.984895
 20
143.455891
 30
0.0
 11
417.984895
 21
146.455891
 31
0.0
  0
LINE
  8
LC-003-005-----0
  6
CONTINUOUS
  5
37C
 10
304.48438
 20
293.170671
 30
0.0
 11
307.984412
 21
296.670704
 31
0.0
  0
LINE
  8
LC-003-005-----0
  6
CONTINUOUS
  5
37D
 10
312.984412
 20
301.670704
 30
0.0
 11
313.813131
 21
302.499423
 31
0.0
  0
LINE
  8
LC-003-005-----0
  6
CONTINUOUS
  5
37E
 10
303.485394
 20
295.000113
 30
0.0
 11
307.984412
 21
299.499131
 31
0.0
  0
LINE
  8
LC-003-005-----0
  6
CONTINUOUS
  5
37F
 10
300.656967
 20
295.000113
 30
0.0
 11
303.156967
 21
297.500113
 31
0.0
  0
LINE
  8
LC-003-005-----0
  6
CONTINUOUS
  5
380
 10
304.484901
 20
298.828047
 30
0.0
 11
307.984412
 21
302.327558
 31
0.0
  0
LINE
  8
LC-003-005-----0
  6
CONTINUOUS
  5
381
 10
297.82854
 20
295.000113
 30
0.0
 11
300.32854
 21
297.500113
 31
0.0
  0
LINE
  8
LC-003-005-----0
  6
CONTINUOUS
  5
382
 10
296.242246
 20
296.242246
 30
0.0
 11
297.500113
 21
297.500113
 31
0.0
  0
LINE
  8
LC-003-005-----0
  6
CONTINUOUS
  5
383
 10
294.717603
 20
297.54603
 30
0.0
 11
297.48438
 21
300.312807
 31
0.0
  0
LINE
  8
LC-003-005-----0
  6
CONTINUOUS
  5
384
 10
292.551552
 20
298.208407
 30
0.0
 11
295.376424
 21
301.033278
 31
0.0
  0
LINE
  8
LC-003-005-----0
  6
CONTINUOUS
  5
385
 10
290.385502
 20
298.870783
 30
0.0
 11
293.21026
 21
301.695541
 31
0.0
  0
LINE
  8
LC-003-005-----0
  6
CONTINUOUS
  5
386
 10
288.219451
 20
299.53316
 30
0.0
 11
291.044095
 21
302.357804
 31
0.0
  0
LINE
  8
LC-003-005-----0
  6
CONTINUOUS
  5
387
 10
286.053401
 20
300.195536
 30
0.0
 11
288.877931
 21
303.020067
 31
0.0
  0
LINE
  8
LC-003-005-----0
  6
CONTINUOUS
  5
388
 10
283.88735
 20
300.857913
 30
0.0
 11
286.711767
 21
303.68233
 31
0.0
  0
LINE
  8
LC-003-005-----0
  6
CONTINUOUS
  5
389
 10
281.7213
 20
301.52029
 30
0.0
 11
284.545603
 21
304.344592
 31
0.0
  0
LINE
  8
LC-003-005-----0
  6
CONTINUOUS
  5
38A
 10
279.555249
 20
302.182666
 30
0.0
 11
282.379438
 21
305.006855
 31
0.0
  0
LINE
  8
LC-003-005-----0
  6
CONTINUOUS
  5
38B
 10
277.389199
 20
302.845043
 30
0.0
 11
280.213274
 21
305.669118
 31
0.0
  0
LINE
  8
LC-003-005-----0
  6
CONTINUOUS
  5
38C
 10
275.223148
 20
303.507419
 30
0.0
 11
278.04711
 21
306.331381
 31
0.0
  0
LINE
  8
LC-003-005-----0
  6
CONTINUOUS
  5
38D
 10
272.592241
 20
303.704939
 30
0.0
 11
275.880946
 21
306.993644
 31
0.0
  0
LINE
  8
LC-003-005-----0
  6
CONTINUOUS
  5
38E
 10
269.867467
 20
303.808593
 30
0.0
 11
273.322927
 21
307.264053
 31
0.0
  0
LINE
  8
LC-003-005-----0
  6
CONTINUOUS
  5
38F
 10
267.142694
 20
303.912247
 30
0.0
 11
270.58524
 21
307.354793
 31
0.0
  0
LINE
  8
LC-003-005-----0
  6
CONTINUOUS
  5
390
 10
265.484901
 20
305.082881
 30
0.0
 11
267.847553
 21
307.445533
 31
0.0
  0
LINE
  8
LC-003-005-----0
  6
CONTINUOUS
  5
391
 10
414.984895
 20
146.284318
 30
0.0
 11
417.984895
 21
149.284318
 31
0.0
  0
LINE
  8
LC-003-005-----0
  6
CONTINUOUS
  5
392
 10
414.984895
 20
149.112745
 30
0.0
 11
417.984895
 21
152.112745
 31
0.0
  0
LINE
  8
LC-003-005-----0
  6
CONTINUOUS
  5
393
 10
414.984895
 20
151.941172
 30
0.0
 11
417.984895
 21
154.941172
 31
0.0
  0
LINE
  8
LC-003-005-----0
  6
CONTINUOUS
  5
394
 10
414.984895
 20
154.7696
 30
0.0
 11
417.984895
 21
157.7696
 31
0.0
  0
LINE
  8
LC-003-005-----0
  6
CONTINUOUS
  5
395
 10
414.984895
 20
157.598027
 30
0.0
 11
417.984895
 21
160.598027
 31
0.0
  0
LINE
  8
LC-003-005-----0
  6
CONTINUOUS
  5
396
 10
414.984895
 20
160.426454
 30
0.0
 11
417.984895
 21
163.426454
 31
0.0
  0
LINE
  8
LC-003-005-----0
  6
CONTINUOUS
  5
397
 10
414.984896
 20
163.254881
 30
0.0
 11
417.984896
 21
166.254881
 31
0.0
  0
LINE
  8
LC-003-005-----0
  6
CONTINUOUS
  5
398
 10
414.984896
 20
166.083309
 30
0.0
 11
417.984896
 21
169.083309
 31
0.0
  0
LINE
  8
LC-003-005-----0
  6
CONTINUOUS
  5
399
 10
414.984896
 20
168.911736
 30
0.0
 11
417.984896
 21
171.911736
 31
0.0
  0
LINE
  8
LC-003-005-----0
  6
CONTINUOUS
  5
39A
 10
414.984896
 20
171.740163
 30
0.0
 11
417.984896
 21
174.740163
 31
0.0
  0
LINE
  8
LC-003-005-----0
  6
CONTINUOUS
  5
39B
 10
414.984896
 20
174.56859
 30
0.0
 11
417.984896
 21
177.568591
 31
0.0
  0
LINE
  8
LC-003-005-----0
  6
CONTINUOUS
  5
39C
 10
414.984896
 20
177.397018
 30
0.0
 11
417.984896
 21
180.397018
 31
0.0
  0
LINE
  8
LC-003-005-----0
  6
CONTINUOUS
  5
39D
 10
414.984896
 20
180.225445
 30
0.0
 11
417.984896
 21
183.225445
 31
0.0
  0
LINE
  8
LC-003-005-----0
  6
CONTINUOUS
  5
39E
 10
414.984896
 20
183.053872
 30
0.0
 11
417.984897
 21
186.053872
 31
0.0
  0
LINE
  8
LC-003-005-----0
  6
CONTINUOUS
  5
39F
 10
414.984897
 20
185.882299
 30
0.0
 11
417.984897
 21
188.8823
 31
0.0
  0
LINE
  8
LC-003-005-----0
  6
CONTINUOUS
  5
3A0
 10
414.984897
 20
188.710727
 30
0.0
 11
417.984897
 21
191.710727
 31
0.0
  0
LINE
  8
LC-003-005-----0
  6
CONTINUOUS
  5
3A1
 10
414.984897
 20
191.539154
 30
0.0
 11
417.984897
 21
194.539154
 31
0.0
  0
LINE
  8
LC-003-005-----0
  6
CONTINUOUS
  5
3A2
 10
414.984897
 20
194.367581
 30
0.0
 11
417.984897
 21
197.367581
 31
0.0
  0
LINE
  8
LC-003-005-----0
  6
CONTINUOUS
  5
3A3
 10
414.984897
 20
197.196009
 30
0.0
 11
417.984897
 21
200.196009
 31
0.0
  0
LINE
  8
LC-003-005-----0
  6
CONTINUOUS
  5
3A4
 10
414.984897
 20
200.024436
 30
0.0
 11
417.984897
 21
203.024436
 31
0.0
  0
LINE
  8
LC-003-005-----0
  6
CONTINUOUS
  5
3A5
 10
414.984897
 20
202.852863
 30
0.0
 11
417.984898
 21
205.852863
 31
0.0
  0
LINE
  8
LC-003-005-----0
  6
CONTINUOUS
  5
3A6
 10
414.984898
 20
205.68129
 30
0.0
 11
417.984898
 21
208.68129
 31
0.0
  0
LINE
  8
LC-003-005-----0
  6
CONTINUOUS
  5
3A7
 10
414.984898
 20
208.509718
 30
0.0
 11
417.984898
 21
211.509718
 31
0.0
  0
LINE
  8
LC-003-005-----0
  6
CONTINUOUS
  5
3A8
 10
414.984898
 20
211.338145
 30
0.0
 11
417.984898
 21
214.338145
 31
0.0
  0
LINE
  8
LC-003-005-----0
  6
CONTINUOUS
  5
3A9
 10
414.984898
 20
214.166572
 30
0.0
 11
417.984898
 21
217.166572
 31
0.0
  0
LINE
  8
LC-003-005-----0
  6
CONTINUOUS
  5
3AA
 10
414.984898
 20
216.994999
 30
0.0
 11
417.984898
 21
219.994999
 31
0.0
  0
LINE
  8
LC-003-005-----0
  6
CONTINUOUS
  5
3AB
 10
414.984898
 20
219.823427
 30
0.0
 11
417.984898
 21
222.823427
 31
0.0
  0
LINE
  8
LC-003-005-----0
  6
CONTINUOUS
  5
3AC
 10
414.984898
 20
222.651854
 30
0.0
 11
417.984898
 21
225.651854
 31
0.0
  0
LINE
  8
LC-003-005-----0
  6
CONTINUOUS
  5
3AD
 10
414.984898
 20
225.480281
 30
0.0
 11
417.984899
 21
228.480281
 31
0.0
  0
LINE
  8
LC-003-005-----0
  6
CONTINUOUS
  5
3AE
 10
493.400641
 20
303.896024
 30
0.0
 11
495.429316
 21
305.924699
 31
0.0
  0
LINE
  8
LC-003-005-----0
  6
CONTINUOUS
  5
3AF
 10
414.984899
 20
228.308708
 30
0.0
 11
417.984899
 21
231.308709
 31
0.0
  0
LINE
  8
LC-003-005-----0
  6
CONTINUOUS
  5
3B0
 10
490.460362
 20
303.784171
 30
0.0
 11
494.050889
 21
307.374698
 31
0.0
  0
LINE
  8
LC-003-005-----0
  6
CONTINUOUS
  5
3B1
 10
414.984899
 20
231.137136
 30
0.0
 11
417.984899
 21
234.137136
 31
0.0
  0
LINE
  8
LC-003-005-----0
  6
CONTINUOUS
  5
3B2
 10
487.520082
 20
303.672319
 30
0.0
 11
491.230598
 21
307.382835
 31
0.0
  0
LINE
  8
LC-003-005-----0
  6
CONTINUOUS
  5
3B3
 10
414.984899
 20
233.965563
 30
0.0
 11
417.984899
 21
236.965563
 31
0.0
  0
LINE
  8
LC-003-005-----0
  6
CONTINUOUS
  5
3B4
 10
483.989383
 20
302.970047
 30
0.0
 11
488.305209
 21
307.285873
 31
0.0
  0
LINE
  8
LC-003-005-----0
  6
CONTINUOUS
  5
3B5
 10
414.984899
 20
236.79399
 30
0.0
 11
417.984899
 21
239.79399
 31
0.0
  0
LINE
  8
LC-003-005-----0
  6
CONTINUOUS
  5
3B6
 10
479.915018
 20
301.724109
 30
0.0
 11
485.226693
 21
307.035785
 31
0.0
  0
LINE
  8
LC-003-005-----0
  6
CONTINUOUS
  5
3B7
 10
414.984899
 20
239.622417
 30
0.0
 11
417.984899
 21
242.622418
 31
0.0
  0
LINE
  8
LC-003-005-----0
  6
CONTINUOUS
  5
3B8
 10
475.840653
 20
300.478172
 30
0.0
 11
481.152731
 21
305.790249
 31
0.0
  0
LINE
  8
LC-003-005-----0
  6
CONTINUOUS
  5
3B9
 10
414.984899
 20
242.450845
 30
0.0
 11
417.984899
 21
245.450845
 31
0.0
  0
LINE
  8
LC-003-005-----0
  6
CONTINUOUS
  5
3BA
 10
471.766289
 20
299.232234
 30
0.0
 11
477.078769
 21
304.544714
 31
0.0
  0
LINE
  8
LC-003-005-----0
  6
CONTINUOUS
  5
3BB
 10
414.984899
 20
245.279272
 30
0.0
 11
417.9849
 21
248.279272
 31
0.0
  0
LINE
  8
LC-003-005-----0
  6
CONTINUOUS
  5
3BC
 10
467.691924
 20
297.986297
 30
0.0
 11
473.004806
 21
303.299179
 31
0.0
  0
LINE
  8
LC-003-005-----0
  6
CONTINUOUS
  5
3BD
 10
414.984899
 20
248.107699
 30
0.0
 11
417.9849
 21
251.107699
 31
0.0
  0
LINE
  8
LC-003-005-----0
  6
CONTINUOUS
  5
3BE
 10
454.023441
 20
287.146241
 30
0.0
 11
456.485423
 21
289.608223
 31
0.0
  0
LINE
  8
LC-003-005-----0
  6
CONTINUOUS
  5
3BF
 10
461.877313
 20
295.000113
 30
0.0
 11
468.930844
 21
302.053643
 31
0.0
  0
LINE
  8
LC-003-005-----0
  6
CONTINUOUS
  5
3C0
 10
414.9849
 20
250.936126
 30
0.0
 11
417.9849
 21
253.936127
 31
0.0
  0
LINE
  8
LC-003-005-----0
  6
CONTINUOUS
  5
3C1
 10
450.548405
 20
286.499631
 30
0.0
 11
452.048196
 21
287.999423
 31
0.0
  0
LINE
  8
LC-003-005-----0
  6
CONTINUOUS
  5
3C2
 10
452.985391
 20
288.936618
 30
0.0
 11
456.485423
 21
292.43665
 31
0.0
  0
LINE
  8
LC-003-005-----0
  6
CONTINUOUS
  5
3C3
 10
459.048886
 20
295.000113
 30
0.0
 11
461.548886
 21
297.500113
 31
0.0
  0
LINE
  8
LC-003-005-----0
  6
CONTINUOUS
  5
3C4
 10
463.485423
 20
299.43665
 30
0.0
 11
465.048886
 21
301.000113
 31
0.0
  0
LINE
  8
LC-003-005-----0
  6
CONTINUOUS
  5
3C5
 10
414.9849
 20
253.764554
 30
0.0
 11
417.9849
 21
256.764554
 31
0.0
  0
LINE
  8
LC-003-005-----0
  6
CONTINUOUS
  5
3C6
 10
448.026739
 20
286.806393
 30
0.0
 11
449.219769
 21
287.999423
 31
0.0
  0
LINE
  8
LC-003-005-----0
  6
CONTINUOUS
  5
3C7
 10
452.985391
 20
291.765045
 30
0.0
 11
458.720459
 21
297.500113
 31
0.0
  0
LINE
  8
LC-003-005-----0
  6
CONTINUOUS
  5
3C8
 10
414.9849
 20
256.592981
 30
0.0
 11
417.9849
 21
259.592981
 31
0.0
  0
LINE
  8
LC-003-005-----0
  6
CONTINUOUS
  5
3C9
 10
445.887406
 20
287.495487
 30
0.0
 11
445.888146
 21
287.496227
 31
0.0
  0
LINE
  8
LC-003-005-----0
  6
CONTINUOUS
  5
3CA
 10
445.891362
 20
287.499443
 30
0.0
 11
447.985391
 21
289.593472
 31
0.0
  0
LINE
  8
LC-003-005-----0
  6
CONTINUOUS
  5
3CB
 10
452.985391
 20
294.593472
 30
0.0
 11
456.484901
 21
298.092982
 31
0.0
  0
LINE
  8
LC-003-005-----0
  6
CONTINUOUS
  5
3CC
 10
414.9849
 20
259.421408
 30
0.0
 11
417.9849
 21
262.421408
 31
0.0
  0
LINE
  8
LC-003-005-----0
  6
CONTINUOUS
  5
3CD
 10
443.020296
 20
287.456804
 30
0.0
 11
443.021036
 21
287.457544
 31
0.0
  0
LINE
  8
LC-003-005-----0
  6
CONTINUOUS
  5
3CE
 10
443.062937
 20
287.499445
 30
0.0
 11
447.985391
 21
292.421899
 31
0.0
  0
LINE
  8
LC-003-005-----0
  6
CONTINUOUS
  5
3CF
 10
452.985391
 20
297.421899
 30
0.0
 11
456.484901
 21
300.92141
 31
0.0
  0
LINE
  8
LC-003-005-----0
  6
CONTINUOUS
  5
3D0
 10
414.9849
 20
262.249835
 30
0.0
 11
417.9849
 21
265.249836
 31
0.0
  0
LINE
  8
LC-003-005-----0
  6
CONTINUOUS
  5
3D1
 10
440.153185
 20
287.41812
 30
0.0
 11
440.153926
 21
287.418861
 31
0.0
  0
LINE
  8
LC-003-005-----0
  6
CONTINUOUS
  5
3D2
 10
440.234512
 20
287.499447
 30
0.0
 11
447.985391
 21
295.250326
 31
0.0
  0
LINE
  8
LC-003-005-----0
  6
CONTINUOUS
  5
3D3
 10
452.985391
 20
300.250326
 30
0.0
 11
454.485391
 21
301.750326
 31
0.0
  0
LINE
  8
LC-003-005-----0
  6
CONTINUOUS
  5
3D4
 10
414.9849
 20
265.078263
 30
0.0
 11
417.984901
 21
268.078263
 31
0.0
  0
LINE
  8
LC-003-005-----0
  6
CONTINUOUS
  5
3D5
 10
437.286075
 20
287.379437
 30
0.0
 11
437.286816
 21
287.380178
 31
0.0
  0
LINE
  8
LC-003-005-----0
  6
CONTINUOUS
  5
3D6
 10
437.406087
 20
287.49945
 30
0.0
 11
440.405314
 21
290.498676
 31
0.0
  0
LINE
  8
LC-003-005-----0
  6
CONTINUOUS
  5
3D7
 10
440.405321
 20
290.498684
 30
0.0
 11
440.406751
 21
290.500113
 31
0.0
  0
LINE
  8
LC-003-005-----0
  6
CONTINUOUS
  5
3D8
 10
440.485014
 20
290.578376
 30
0.0
 11
447.985391
 21
298.078753
 31
0.0
  0
LINE
  8
LC-003-005-----0
  6
CONTINUOUS
  5
3D9
 10
414.9849
 20
267.90669
 30
0.0
 11
417.984901
 21
270.90669
 31
0.0
  0
LINE
  8
LC-003-005-----0
  6
CONTINUOUS
  5
3DA
 10
434.418964
 20
287.340754
 30
0.0
 11
434.419706
 21
287.341495
 31
0.0
  0
LINE
  8
LC-003-005-----0
  6
CONTINUOUS
  5
3DB
 10
434.577663
 20
287.499452
 30
0.0
 11
437.524963
 21
290.446753
 31
0.0
  0
LINE
  8
LC-003-005-----0
  6
CONTINUOUS
  5
3DC
 10
437.525178
 20
290.446967
 30
0.0
 11
437.578324
 21
290.500113
 31
0.0
  0
LINE
  8
LC-003-005-----0
  6
CONTINUOUS
  5
3DD
 10
440.485014
 20
293.406803
 30
0.0
 11
447.985391
 21
300.90718
 31
0.0
  0
LINE
  8
LC-003-005-----0
  6
CONTINUOUS
  5
3DE
 10
414.984901
 20
270.735117
 30
0.0
 11
417.984901
 21
273.735117
 31
0.0
  0
LINE
  8
LC-003-005-----0
  6
CONTINUOUS
  5
3DF
 10
431.551854
 20
287.302071
 30
0.0
 11
431.552596
 21
287.302812
 31
0.0
  0
LINE
  8
LC-003-005-----0
  6
CONTINUOUS
  5
3E0
 10
431.729455
 20
287.479672
 30
0.0
 11
434.644612
 21
290.394829
 31
0.0
  0
LINE
  8
LC-003-005-----0
  6
CONTINUOUS
  5
3E1
 10
434.645034
 20
290.395251
 30
0.0
 11
434.749896
 21
290.500113
 31
0.0
  0
LINE
  8
LC-003-005-----0
  6
CONTINUOUS
  5
3E2
 10
440.485014
 20
296.23523
 30
0.0
 11
445.581896
 21
301.332113
 31
0.0
  0
LINE
  8
LC-003-005-----0
  6
CONTINUOUS
  5
3E3
 10
446.485391
 20
302.235608
 30
0.0
 11
446.749206
 21
302.499423
 31
0.0
  0
LINE
  8
LC-003-005-----0
  6
CONTINUOUS
  5
3E4
 10
414.984901
 20
273.563544
 30
0.0
 11
417.984901
 21
276.563545
 31
0.0
  0
LINE
  8
LC-003-005-----0
  6
CONTINUOUS
  5
3E5
 10
428.684744
 20
287.263387
 30
0.0
 11
428.685486
 21
287.26413
 31
0.0
  0
LINE
  8
LC-003-005-----0
  6
CONTINUOUS
  5
3E6
 10
428.824971
 20
287.403615
 30
0.0
 11
431.764261
 21
290.342905
 31
0.0
  0
LINE
  8
LC-003-005-----0
  6
CONTINUOUS
  5
3E7
 10
431.76489
 20
290.343534
 30
0.0
 11
431.90661
 21
290.485254
 31
0.0
  0
LINE
  8
LC-003-005-----0
  6
CONTINUOUS
  5
3E8
 10
440.485014
 20
299.063657
 30
0.0
 11
443.921469
 21
302.500113
 31
0.0
  0
LINE
  8
LC-003-005-----0
  6
CONTINUOUS
  5
3E9
 10
414.984901
 20
276.391972
 30
0.0
 11
417.984901
 21
279.391972
 31
0.0
  0
LINE
  8
LC-003-005-----0
  6
CONTINUOUS
  5
3EA
 10
425.817633
 20
287.224704
 30
0.0
 11
425.818376
 21
287.225447
 31
0.0
  0
LINE
  8
LC-003-005-----0
  6
CONTINUOUS
  5
3EB
 10
425.920488
 20
287.327558
 30
0.0
 11
428.883911
 21
290.290981
 31
0.0
  0
LINE
  8
LC-003-005-----0
  6
CONTINUOUS
  5
3EC
 10
428.884747
 20
290.291817
 30
0.0
 11
429.001677
 21
290.408748
 31
0.0
  0
LINE
  8
LC-003-005-----0
  6
CONTINUOUS
  5
3ED
 10
440.485014
 20
301.892085
 30
0.0
 11
441.093042
 21
302.500113
 31
0.0
  0
LINE
  8
LC-003-005-----0
  6
CONTINUOUS
  5
3EE
 10
414.984901
 20
279.220399
 30
0.0
 11
417.984901
 21
282.220399
 31
0.0
  0
LINE
  8
LC-003-005-----0
  6
CONTINUOUS
  5
3EF
 10
422.950523
 20
287.186021
 30
0.0
 11
422.951266
 21
287.186764
 31
0.0
  0
LINE
  8
LC-003-005-----0
  6
CONTINUOUS
  5
3F0
 10
423.016004
 20
287.251502
 30
0.0
 11
426.00356
 21
290.239058
 31
0.0
  0
LINE
  8
LC-003-005-----0
  6
CONTINUOUS
  5
3F1
 10
426.004603
 20
290.240101
 30
0.0
 11
426.096744
 21
290.332242
 31
0.0
  0
LINE
  8
LC-003-005-----0
  6
CONTINUOUS
  5
3F2
 10
414.984901
 20
282.048826
 30
0.0
 11
417.984901
 21
285.048827
 31
0.0
  0
LINE
  8
LC-003-005-----0
  6
CONTINUOUS
  5
3F3
 10
420.083413
 20
287.147338
 30
0.0
 11
420.084156
 21
287.148081
 31
0.0
  0
LINE
  8
LC-003-005-----0
  6
CONTINUOUS
  5
3F4
 10
420.11152
 20
287.175445
 30
0.0
 11
423.123209
 21
290.187134
 31
0.0
  0
LINE
  8
LC-003-005-----0
  6
CONTINUOUS
  5
3F5
 10
423.124459
 20
290.188384
 30
0.0
 11
423.191811
 21
290.255736
 31
0.0
  0
LINE
  8
LC-003-005-----0
  6
CONTINUOUS
  5
3F6
 10
414.984901
 20
284.877253
 30
0.0
 11
420.242858
 21
290.13521
 31
0.0
  0
LINE
  8
LC-003-005-----0
  6
CONTINUOUS
  5
3F7
 10
420.244316
 20
290.136668
 30
0.0
 11
420.286878
 21
290.179231
 31
0.0
  0
LINE
  8
LC-003-005-----0
  6
CONTINUOUS
  5
3F8
 10
414.984901
 20
287.705681
 30
0.0
 11
417.362507
 21
290.083287
 31
0.0
  0
LINE
  8
LC-003-005-----0
  6
CONTINUOUS
  5
3F9
 10
417.364172
 20
290.084951
 30
0.0
 11
417.381945
 21
290.102725
 31
0.0
  0
ENDSEC
  0
EOF
