  0
SECTION
  2
HEADER
  9
$ACADVER
  1
AC1015
  9
$ACADMAINTVER
 70
     6
  9
$DWGCODEPAGE
  3
ANSI_1252
  9
$INSBASE
 10
0.0
 20
0.0
 30
0.0
  9
$EXTMIN
 10
-264.860304
 20
-130.731597
 30
0.0
  9
$EXTMAX
 10
575.139696
 20
463.268403
 30
0.0
  9
$LIMMIN
 10
-264.860304
 20
-130.731597
  9
$LIMMAX
 10
575.139696
 20
463.268403
  9
$ORTHOMODE
 70
     0
  9
$REGENMODE
 70
     1
  9
$FILLMODE
 70
     1
  9
$QTEXTMODE
 70
     0
  9
$MIRRTEXT
 70
     1
  9
$LTSCALE
 40
2.0
  9
$ATTMODE
 70
     1
  9
$TEXTSIZE
 40
2.5
  9
$TRACEWID
 40
1.0
  9
$TEXTSTYLE
  7
Standard
  9
$CLAYER
  8
0
  9
$CELTYPE
  6
ByLayer
  9
$CECOLOR
 62
     7
  9
$CELTSCALE
 40
1.0
  9
$DISPSILH
 70
     0
  9
$DIMSCALE
 40
2.0
  9
$DIMASZ
 40
3.5
  9
$DIMEXO
 40
0.625
  9
$DIMDLI
 40
3.75
  9
$DIMRND
 40
0.0
  9
$DIMDLE
 40
0.0
  9
$DIMEXE
 40
1.25
  9
$DIMTP
 40
0.0
  9
$DIMTM
 40
0.0
  9
$DIMTXT
 40
3.5
  9
$DIMCEN
 40
2.5
  9
$DIMTSZ
 40
0.0
  9
$DIMTOL
 70
     0
  9
$DIMLIM
 70
     0
  9
$DIMTIH
 70
     0
  9
$DIMTOH
 70
     0
  9
$DIMSE1
 70
     0
  9
$DIMSE2
 70
     0
  9
$DIMTAD
 70
     1
  9
$DIMZIN
 70
     8
  9
$DIMBLK
  1

  9
$DIMASO
 70
     1
  9
$DIMSHO
 70
     1
  9
$DIMPOST
  1

  9
$DIMAPOST
  1

  9
$DIMALT
 70
     0
  9
$DIMALTD
 70
     3
  9
$DIMALTF
 40
0.03937
  9
$DIMLFAC
 40
1.0
  9
$DIMTOFL
 70
     1
  9
$DIMTVP
 40
0.0
  9
$DIMTIX
 70
     0
  9
$DIMSOXD
 70
     0
  9
$DIMSAH
 70
     0
  9
$DIMBLK1
  1

  9
$DIMBLK2
  1

  9
$DIMSTYLE
  2
ISO-25
  9
$DIMCLRD
 70
     0
  9
$DIMCLRE
 70
     0
  9
$DIMCLRT
 70
     0
  9
$DIMTFAC
 40
1.0
  9
$DIMGAP
 40
0.625
  9
$DIMJUST
 70
     0
  9
$DIMSD1
 70
     0
  9
$DIMSD2
 70
     0
  9
$DIMTOLJ
 70
     0
  9
$DIMTZIN
 70
     8
  9
$DIMALTZ
 70
     0
  9
$DIMALTTZ
 70
     0
  9
$DIMUPT
 70
     0
  9
$DIMDEC
 70
     2
  9
$DIMTDEC
 70
     2
  9
$DIMALTU
 70
     2
  9
$DIMALTTD
 70
     3
  9
$DIMTXSTY
  7
Standard
  9
$DIMAUNIT
 70
     0
  9
$DIMADEC
 70
     0
  9
$DIMALTRND
 40
0.0
  9
$DIMAZIN
 70
     0
  9
$DIMDSEP
 70
    44
  9
$DIMATFIT
 70
     3
  9
$DIMFRAC
 70
     0
  9
$DIMLDRBLK
  1

  9
$DIMLUNIT
 70
     2
  9
$DIMLWD
 70
    -2
  9
$DIMLWE
 70
    -2
  9
$DIMTMOVE
 70
     0
  9
$LUNITS
 70
     2
  9
$LUPREC
 70
     4
  9
$SKETCHINC
 40
1.0
  9
$FILLETRAD
 40
10.0
  9
$AUNITS
 70
     0
  9
$AUPREC
 70
     0
  9
$MENU
  1
.
  9
$ELEVATION
 40
0.0
  9
$PELEVATION
 40
0.0
  9
$THICKNESS
 40
0.0
  9
$LIMCHECK
 70
     0
  9
$CHAMFERA
 40
10.0
  9
$CHAMFERB
 40
10.0
  9
$CHAMFERC
 40
20.0
  9
$CHAMFERD
 40
0.0
  9
$SKPOLY
 70
     0
  9
$TDCREATE
 40
2456051.49828735
  9
$TDUCREATE
 40
2456051.414954016
  9
$TDUPDATE
 40
2456051.498287361
  9
$TDUUPDATE
 40
2456051.414954028
  9
$TDINDWG
 40
0.0000000116
  9
$TDUSRTIMER
 40
0.0000000116
  9
$USRTIMER
 70
     1
  9
$ANGBASE
 50
0.0
  9
$ANGDIR
 70
     0
  9
$PDMODE
 70
     0
  9
$PDSIZE
 40
0.0
  9
$PLINEWID
 40
0.0
  9
$SPLFRAME
 70
     0
  9
$SPLINETYPE
 70
     6
  9
$SPLINESEGS
 70
     8
  9
$HANDSEED
  5
782
  9
$SURFTAB1
 70
     6
  9
$SURFTAB2
 70
     6
  9
$SURFTYPE
 70
     6
  9
$SURFU
 70
     6
  9
$SURFV
 70
     6
  9
$UCSBASE
  2

  9
$UCSNAME
  2

  9
$UCSORG
 10
0.0
 20
0.0
 30
0.0
  9
$UCSXDIR
 10
1.0
 20
0.0
 30
0.0
  9
$UCSYDIR
 10
0.0
 20
1.0
 30
0.0
  9
$UCSORTHOREF
  2

  9
$UCSORTHOVIEW
 70
     0
  9
$UCSORGTOP
 10
0.0
 20
0.0
 30
0.0
  9
$UCSORGBOTTOM
 10
0.0
 20
0.0
 30
0.0
  9
$UCSORGLEFT
 10
0.0
 20
0.0
 30
0.0
  9
$UCSORGRIGHT
 10
0.0
 20
0.0
 30
0.0
  9
$UCSORGFRONT
 10
0.0
 20
0.0
 30
0.0
  9
$UCSORGBACK
 10
0.0
 20
0.0
 30
0.0
  9
$PUCSBASE
  2

  9
$PUCSNAME
  2

  9
$PUCSORG
 10
0.0
 20
0.0
 30
0.0
  9
$PUCSXDIR
 10
1.0
 20
0.0
 30
0.0
  9
$PUCSYDIR
 10
0.0
 20
1.0
 30
0.0
  9
$PUCSORTHOREF
  2

  9
$PUCSORTHOVIEW
 70
     0
  9
$PUCSORGTOP
 10
0.0
 20
0.0
 30
0.0
  9
$PUCSORGBOTTOM
 10
0.0
 20
0.0
 30
0.0
  9
$PUCSORGLEFT
 10
0.0
 20
0.0
 30
0.0
  9
$PUCSORGRIGHT
 10
0.0
 20
0.0
 30
0.0
  9
$PUCSORGFRONT
 10
0.0
 20
0.0
 30
0.0
  9
$PUCSORGBACK
 10
0.0
 20
0.0
 30
0.0
  9
$USERI1
 70
     0
  9
$USERI2
 70
     0
  9
$USERI3
 70
     0
  9
$USERI4
 70
     0
  9
$USERI5
 70
     0
  9
$USERR1
 40
0.0
  9
$USERR2
 40
0.0
  9
$USERR3
 40
0.0
  9
$USERR4
 40
0.0
  9
$USERR5
 40
0.0
  9
$WORLDVIEW
 70
     1
  9
$SHADEDGE
 70
     3
  9
$SHADEDIF
 70
    70
  9
$TILEMODE
 70
     1
  9
$MAXACTVP
 70
    64
  9
$PINSBASE
 10
0.0
 20
0.0
 30
0.0
  9
$PLIMCHECK
 70
     0
  9
$PEXTMIN
 10
-264.860304
 20
-130.731597
 30
0.0
  9
$PEXTMAX
 10
575.139696
 20
463.268403
 30
0.0
  9
$PLIMMIN
 10
-264.860304
 20
-130.731597
  9
$PLIMMAX
 10
575.139696
 20
463.268403
  9
$UNITMODE
 70
     0
  9
$VISRETAIN
 70
     1
  9
$PLINEGEN
 70
     0
  9
$PSLTSCALE
 70
     1
  9
$TREEDEPTH
 70
  3020
  9
$CMLSTYLE
  2
Standard
  9
$CMLJUST
 70
     0
  9
$CMLSCALE
 40
20.0
  9
$PROXYGRAPHICS
 70
     1
  9
$MEASUREMENT
 70
     1
  9
$CELWEIGHT
370
    -1
  9
$ENDCAPS
280
     0
  9
$JOINSTYLE
280
     0
  9
$LWDISPLAY
290
     0
  9
$INSUNITS
 70
     4
  9
$HYPERLINKBASE
  1

  9
$STYLESHEET
  1

  9
$XEDIT
290
     1
  9
$CEPSNTYPE
380
     0
  9
$PSTYLEMODE
290
     1
  9
$FINGERPRINTGUID
  2
{FAEB1C30-E019-11D5-929B-00C0DF256EC4}
  9
$VERSIONGUID
  2
{FAEB1C32-E019-11D5-929B-00C0DF256EC4}
  9
$EXTNAMES
290
     1
  9
$PSVPSCALE
 40
0.0
  9
$OLESTARTUP
290
     0
  0
ENDSEC
  0
SECTION
  2
CLASSES
  0
CLASS
  1
ACDBDICTIONARYWDFLT
  2
AcDbDictionaryWithDefault
  3
ObjectDBX Classes
 90
        0
280
     0
281
     0
  0
CLASS
  1
ACDBPLACEHOLDER
  2
AcDbPlaceHolder
  3
ObjectDBX Classes
 90
        0
280
     0
281
     0
  0
CLASS
  1
LAYOUT
  2
AcDbLayout
  3
ObjectDBX Classes
 90
        0
280
     0
281
     0
  0
ENDSEC
  0
SECTION
  2
TABLES
  0
TABLE
  2
VPORT
  5
8
330
0
100
AcDbSymbolTable
 70
     2
  0
VPORT
  5
29
330
8
100
AcDbSymbolTableRecord
100
AcDbViewportTableRecord
  2
*ACTIVE
 70
     0
 10
0.0
 20
0.0
 11
1.0
 21
1.0
 12
155.139696
 22
166.268403
 13
0.0
 23
0.0
 14
1.0
 24
1.0
 15
0.0
 25
0.0
 16
0.0
 26
0.0
 36
1.0
 17
0.0
 27
0.0
 37
0.0
 40
594.0
 41
1.414141
 42
50.0
 43
0.0
 44
0.0
 50
0.0
 51
0.0
 71
    16
 72
   100
 73
     1
 74
     0
 75
     0
 76
     0
 77
     0
 78
     0
281
     0
 65
     0
110
0.0
120
0.0
130
0.0
111
1.0
121
0.0
131
0.0
112
0.0
122
1.0
132
0.0
 79
     0
146
0.0
  0
ENDTAB
  0
TABLE
  2
LTYPE
  5
5
330
0
100
AcDbSymbolTable
 70
     3
  0
LTYPE
  5
14
330
5
100
AcDbSymbolTableRecord
100
AcDbLinetypeTableRecord
  2
ByBlock
 70
     0
  3

 72
    65
 73
     0
 40
0.0
  0
LTYPE
  5
15
330
5
100
AcDbSymbolTableRecord
100
AcDbLinetypeTableRecord
  2
ByLayer
 70
     0
  3

 72
    65
 73
     0
 40
0.0
  0
LTYPE
  5
16
330
5
100
AcDbSymbolTableRecord
100
AcDbLinetypeTableRecord
  2
Continuous
 70
     0
  3
Solid line
 72
    65
 73
     0
 40
0.0
  0
LTYPE
  5
2A
330
5
100
AcDbSymbolTableRecord
100
AcDbLinetypeTableRecord
  2
DASHED
 70
     0
  3
__ __ __ __ __
 72
    65
 73
     2
 40
6.25
 49
5.0
 74
     4
 75
     0
340
0
 46
1.0
 50
0.0
 44
0.0
 45
0.0
 49
-1.25
 74
     4
 75
     0
340
0
 46
1.0
 50
0.0
 44
0.0
 45
0.0
  0
LTYPE
  5
72E
330
5
100
AcDbSymbolTableRecord
100
AcDbLinetypeTableRecord
  2
DASHDOT
 70
     0
  3
__ . __ . __ . __ . __
 72
    65
 73
     4
 40
7.5
 49
5.0
 74
     4
 75
     0
340
0
 46
1.0
 50
0.0
 44
0.0
 45
0.0
 49
-1.25
 74
     4
 75
     0
340
0
 46
1.0
 50
0.0
 44
0.0
 45
0.0
 49
0.0
 74
     4
 75
     0
340
0
 46
1.0
 50
0.0
 44
0.0
 45
0.0
 49
-1.25
 74
     4
 75
     0
340
0
 46
1.0
 50
0.0
 44
0.0
 45
0.0
  0
ENDTAB
  0
TABLE
  2
LAYER
  5
2
330
0
100
AcDbSymbolTable
 70
     8
  0
LAYER
  5
10
330
2
100
AcDbSymbolTableRecord
100
AcDbLayerTableRecord
  2
0
 70
     0
 62
     7
  6
Continuous
370
    -3
390
F
  0
LAYER
  5
2B
330
2
100
AcDbSymbolTableRecord
100
AcDbLayerTableRecord
  2
LC-INFO-1-2-mm-A3-0
 70
     1
 62
     7
  6
ByBlock
370
    -3
390
F
  0
LAYER
  5
2C
330
2
100
AcDbSymbolTableRecord
100
AcDbLayerTableRecord
  2
LC-CUT-HIDDEN
 70
     0
 62
     7
  6
DASHED
370
    -3
390
F
  0
LAYER
  5
2D
330
2
100
AcDbSymbolTableRecord
100
AcDbLayerTableRecord
  2
LC-VIEWPORT
 70
     0
 62
     7
  6
ByBlock
370
    -3
390
F
  0
LAYER
  5
2E
330
2
100
AcDbSymbolTableRecord
100
AcDbLayerTableRecord
  2
LC-3D-HIDDEN
 70
     0
 62
     9
  6
DASHED
370
    -3
390
F
  0
LAYER
  5
33
330
2
100
AcDbSymbolTableRecord
100
AcDbLayerTableRecord
  2
LC-001-100-D00-0
 70
     0
 62
     1
  6
ByBlock
370
    -3
390
F
  0
LAYER
  5
732
330
2
100
AcDbSymbolTableRecord
100
AcDbLayerTableRecord
  2
LC-002-003-----0
 70
     0
 62
     2
  6
ByBlock
370
    -3
390
F
  0
LAYER
  5
734
330
2
100
AcDbSymbolTableRecord
100
AcDbLayerTableRecord
  2
Defpoints
 70
     0
 62
     7
  6
Continuous
290
     0
370
    -3
390
F
  0
ENDTAB
  0
TABLE
  2
STYLE
  5
3
330
0
100
AcDbSymbolTable
 70
     3
  0
STYLE
  5
11
330
3
100
AcDbSymbolTableRecord
100
AcDbTextStyleTableRecord
  2
Standard
 70
     0
 40
0.0
 41
1.0
 50
0.0
 71
     0
 42
2.5
  3
txt
  4

  0
STYLE
  5
2F
330
3
100
AcDbSymbolTableRecord
100
AcDbTextStyleTableRecord
  2
LCTX15-400-0-0-Arial
 70
     0
 40
0.0
 41
0.8
 50
0.0
 71
     0
 42
3.5
  3

  4

1001
ACAD
1000
Arial
1071
 16777218
  0
STYLE
  5
730
330
3
100
AcDbSymbolTableRecord
100
AcDbTextStyleTableRecord
  2
LCTX15-400-0-0pDIN-Schrift
 70
     0
 40
2.5
 41
0.8
 50
15.0
 71
     0
 42
3.5
  3
STANDARD
  4

  0
ENDTAB
  0
TABLE
  2
VIEW
  5
6
330
0
100
AcDbSymbolTable
 70
     0
  0
ENDTAB
  0
TABLE
  2
UCS
  5
7
330
0
100
AcDbSymbolTable
 70
     0
  0
ENDTAB
  0
TABLE
  2
APPID
  5
9
330
0
100
AcDbSymbolTable
 70
     1
  0
APPID
  5
12
330
9
100
AcDbSymbolTableRecord
100
AcDbRegAppTableRecord
  2
ACAD
 70
     0
  0
ENDTAB
  0
TABLE
  2
DIMSTYLE
  5
A
330
0
100
AcDbSymbolTable
 70
     2
100
AcDbDimStyleTable
  0
DIMSTYLE
105
27
330
A
100
AcDbSymbolTableRecord
100
AcDbDimStyleTableRecord
  2
ISO-25
 70
     0
 41
2.5
 42
0.625
 43
3.75
 44
1.25
 73
     0
 74
     0
 77
     1
 78
     8
140
2.5
141
2.5
143
0.03937
147
0.625
171
     3
172
     1
271
     2
272
     2
274
     3
278
    44
283
     0
284
     8
340
11
  0
DIMSTYLE
105
731
102
{ACAD_REACTORS
330
733
330
741
330
74E
330
75B
330
768
330
775
102
}
330
A
100
AcDbSymbolTableRecord
100
AcDbDimStyleTableRecord
  2
LC-DIM-L-0140-02-02
 70
     0
 40
2.0
 41
14.0
 42
0.0
 43
7.5
 44
1.8
 73
     0
 74
     0
 77
     1
 78
     8
 79
     2
140
14.0
141
0.0
146
0.71
147
1.5
176
     2
177
     2
178
     2
179
     2
271
     2
278
    44
289
     1
340
730
  0
ENDTAB
  0
TABLE
  2
BLOCK_RECORD
  5
1
330
0
100
AcDbSymbolTable
 70
    86
  0
BLOCK_RECORD
  5
1F
330
1
100
AcDbSymbolTableRecord
100
AcDbBlockTableRecord
  2
*Model_Space
340
22
  0
BLOCK_RECORD
  5
1B
330
1
100
AcDbSymbolTableRecord
100
AcDbBlockTableRecord
  2
*Paper_Space
340
1E
  0
BLOCK_RECORD
  5
23
330
1
100
AcDbSymbolTableRecord
100
AcDbBlockTableRecord
  2
*Paper_Space0
340
26
  0
BLOCK_RECORD
  5
30
330
1
100
AcDbSymbolTableRecord
100
AcDbBlockTableRecord
  2
POLY1
340
0
102
{BLKREFS
331
3C
102
}
  0
BLOCK_RECORD
  5
3E
330
1
100
AcDbSymbolTableRecord
100
AcDbBlockTableRecord
  2
POLY2
340
0
102
{BLKREFS
331
49
102
}
  0
BLOCK_RECORD
  5
4A
330
1
100
AcDbSymbolTableRecord
100
AcDbBlockTableRecord
  2
POLY3
340
0
102
{BLKREFS
331
55
102
}
  0
BLOCK_RECORD
  5
56
330
1
100
AcDbSymbolTableRecord
100
AcDbBlockTableRecord
  2
POLY4
340
0
102
{BLKREFS
331
61
102
}
  0
BLOCK_RECORD
  5
64
330
1
100
AcDbSymbolTableRecord
100
AcDbBlockTableRecord
  2
POLY5
340
0
102
{BLKREFS
331
6F
102
}
  0
BLOCK_RECORD
  5
70
330
1
100
AcDbSymbolTableRecord
100
AcDbBlockTableRecord
  2
POLY6
340
0
102
{BLKREFS
331
7B
102
}
  0
BLOCK_RECORD
  5
7C
330
1
100
AcDbSymbolTableRecord
100
AcDbBlockTableRecord
  2
POLY7
340
0
102
{BLKREFS
331
87
102
}
  0
BLOCK_RECORD
  5
89
330
1
100
AcDbSymbolTableRecord
100
AcDbBlockTableRecord
  2
POLY8
340
0
102
{BLKREFS
331
94
102
}
  0
BLOCK_RECORD
  5
96
330
1
100
AcDbSymbolTableRecord
100
AcDbBlockTableRecord
  2
POLY9
340
0
102
{BLKREFS
331
A1
102
}
  0
BLOCK_RECORD
  5
A4
330
1
100
AcDbSymbolTableRecord
100
AcDbBlockTableRecord
  2
POLY10
340
0
102
{BLKREFS
331
AF
102
}
  0
BLOCK_RECORD
  5
B0
330
1
100
AcDbSymbolTableRecord
100
AcDbBlockTableRecord
  2
POLY11
340
0
102
{BLKREFS
331
BB
102
}
  0
BLOCK_RECORD
  5
D3
330
1
100
AcDbSymbolTableRecord
100
AcDbBlockTableRecord
  2
KLON1
340
0
102
{BLKREFS
331
D9
102
}
  0
BLOCK_RECORD
  5
DA
330
1
100
AcDbSymbolTableRecord
100
AcDbBlockTableRecord
  2
POLY12
340
0
102
{BLKREFS
331
E5
102
}
  0
BLOCK_RECORD
  5
E7
330
1
100
AcDbSymbolTableRecord
100
AcDbBlockTableRecord
  2
KLON2
340
0
102
{BLKREFS
331
ED
102
}
  0
BLOCK_RECORD
  5
EE
330
1
100
AcDbSymbolTableRecord
100
AcDbBlockTableRecord
  2
KLON3
340
0
102
{BLKREFS
331
F4
102
}
  0
BLOCK_RECORD
  5
F5
330
1
100
AcDbSymbolTableRecord
100
AcDbBlockTableRecord
  2
KLON4
340
0
102
{BLKREFS
331
FB
102
}
  0
BLOCK_RECORD
  5
FC
330
1
100
AcDbSymbolTableRecord
100
AcDbBlockTableRecord
  2
KLON5
340
0
102
{BLKREFS
331
102
102
}
  0
BLOCK_RECORD
  5
103
330
1
100
AcDbSymbolTableRecord
100
AcDbBlockTableRecord
  2
KLON6
340
0
102
{BLKREFS
331
109
102
}
  0
BLOCK_RECORD
  5
10A
330
1
100
AcDbSymbolTableRecord
100
AcDbBlockTableRecord
  2
KLON7
340
0
102
{BLKREFS
331
110
102
}
  0
BLOCK_RECORD
  5
111
330
1
100
AcDbSymbolTableRecord
100
AcDbBlockTableRecord
  2
KLON8
340
0
102
{BLKREFS
331
117
102
}
  0
BLOCK_RECORD
  5
118
330
1
100
AcDbSymbolTableRecord
100
AcDbBlockTableRecord
  2
KLON9
340
0
102
{BLKREFS
331
11E
102
}
  0
BLOCK_RECORD
  5
11F
330
1
100
AcDbSymbolTableRecord
100
AcDbBlockTableRecord
  2
KLON10
340
0
102
{BLKREFS
331
125
102
}
  0
BLOCK_RECORD
  5
126
330
1
100
AcDbSymbolTableRecord
100
AcDbBlockTableRecord
  2
KLON11
340
0
102
{BLKREFS
331
12C
102
}
  0
BLOCK_RECORD
  5
12D
330
1
100
AcDbSymbolTableRecord
100
AcDbBlockTableRecord
  2
KLON12
340
0
102
{BLKREFS
331
133
102
}
  0
BLOCK_RECORD
  5
134
330
1
100
AcDbSymbolTableRecord
100
AcDbBlockTableRecord
  2
KLON13
340
0
102
{BLKREFS
331
13A
102
}
  0
BLOCK_RECORD
  5
13B
330
1
100
AcDbSymbolTableRecord
100
AcDbBlockTableRecord
  2
KLON14
340
0
102
{BLKREFS
331
141
102
}
  0
BLOCK_RECORD
  5
142
330
1
100
AcDbSymbolTableRecord
100
AcDbBlockTableRecord
  2
KLON15
340
0
102
{BLKREFS
331
148
102
}
  0
BLOCK_RECORD
  5
149
330
1
100
AcDbSymbolTableRecord
100
AcDbBlockTableRecord
  2
POLY13
340
0
102
{BLKREFS
331
154
102
}
  0
BLOCK_RECORD
  5
156
330
1
100
AcDbSymbolTableRecord
100
AcDbBlockTableRecord
  2
KLON16
340
0
102
{BLKREFS
331
15C
102
}
  0
BLOCK_RECORD
  5
15D
330
1
100
AcDbSymbolTableRecord
100
AcDbBlockTableRecord
  2
KLON17
340
0
102
{BLKREFS
331
163
102
}
  0
BLOCK_RECORD
  5
164
330
1
100
AcDbSymbolTableRecord
100
AcDbBlockTableRecord
  2
KLON18
340
0
102
{BLKREFS
331
16A
102
}
  0
BLOCK_RECORD
  5
16B
330
1
100
AcDbSymbolTableRecord
100
AcDbBlockTableRecord
  2
KLON19
340
0
102
{BLKREFS
331
171
102
}
  0
BLOCK_RECORD
  5
172
330
1
100
AcDbSymbolTableRecord
100
AcDbBlockTableRecord
  2
KLON20
340
0
102
{BLKREFS
331
178
102
}
  0
BLOCK_RECORD
  5
19A
330
1
100
AcDbSymbolTableRecord
100
AcDbBlockTableRecord
  2
POLY14
340
0
102
{BLKREFS
331
1A5
102
}
  0
BLOCK_RECORD
  5
1A6
330
1
100
AcDbSymbolTableRecord
100
AcDbBlockTableRecord
  2
POLY15
340
0
102
{BLKREFS
331
1B1
102
}
  0
BLOCK_RECORD
  5
1FA
330
1
100
AcDbSymbolTableRecord
100
AcDbBlockTableRecord
  2
POLY16
340
0
102
{BLKREFS
331
209
102
}
  0
BLOCK_RECORD
  5
305
330
1
100
AcDbSymbolTableRecord
100
AcDbBlockTableRecord
  2
KLON21
340
0
102
{BLKREFS
331
30A
102
}
  0
BLOCK_RECORD
  5
314
330
1
100
AcDbSymbolTableRecord
100
AcDbBlockTableRecord
  2
KLON22
340
0
102
{BLKREFS
331
319
102
}
  0
BLOCK_RECORD
  5
33D
330
1
100
AcDbSymbolTableRecord
100
AcDbBlockTableRecord
  2
POLY17
340
0
102
{BLKREFS
331
34A
102
}
  0
BLOCK_RECORD
  5
34B
330
1
100
AcDbSymbolTableRecord
100
AcDbBlockTableRecord
  2
POLY18
340
0
102
{BLKREFS
331
356
102
}
  0
BLOCK_RECORD
  5
357
330
1
100
AcDbSymbolTableRecord
100
AcDbBlockTableRecord
  2
POLY19
340
0
102
{BLKREFS
331
362
102
}
  0
BLOCK_RECORD
  5
363
330
1
100
AcDbSymbolTableRecord
100
AcDbBlockTableRecord
  2
POLY20
340
0
102
{BLKREFS
331
370
102
}
  0
BLOCK_RECORD
  5
372
330
1
100
AcDbSymbolTableRecord
100
AcDbBlockTableRecord
  2
POLY21
340
0
102
{BLKREFS
331
37F
102
}
  0
BLOCK_RECORD
  5
380
330
1
100
AcDbSymbolTableRecord
100
AcDbBlockTableRecord
  2
POLY22
340
0
102
{BLKREFS
331
38D
102
}
  0
BLOCK_RECORD
  5
38E
330
1
100
AcDbSymbolTableRecord
100
AcDbBlockTableRecord
  2
POLY23
340
0
102
{BLKREFS
331
39B
102
}
  0
BLOCK_RECORD
  5
39D
330
1
100
AcDbSymbolTableRecord
100
AcDbBlockTableRecord
  2
POLY24
340
0
102
{BLKREFS
331
3AA
102
}
  0
BLOCK_RECORD
  5
3AB
330
1
100
AcDbSymbolTableRecord
100
AcDbBlockTableRecord
  2
POLY25
340
0
102
{BLKREFS
331
3B8
102
}
  0
BLOCK_RECORD
  5
3BA
330
1
100
AcDbSymbolTableRecord
100
AcDbBlockTableRecord
  2
POLY26
340
0
102
{BLKREFS
331
3C7
102
}
  0
BLOCK_RECORD
  5
3C9
330
1
100
AcDbSymbolTableRecord
100
AcDbBlockTableRecord
  2
POLY27
340
0
102
{BLKREFS
331
3D6
102
}
  0
BLOCK_RECORD
  5
3D7
330
1
100
AcDbSymbolTableRecord
100
AcDbBlockTableRecord
  2
POLY28
340
0
102
{BLKREFS
331
3E4
102
}
  0
BLOCK_RECORD
  5
3E5
330
1
100
AcDbSymbolTableRecord
100
AcDbBlockTableRecord
  2
POLY29
340
0
102
{BLKREFS
331
3F2
102
}
  0
BLOCK_RECORD
  5
3F4
330
1
100
AcDbSymbolTableRecord
100
AcDbBlockTableRecord
  2
POLY30
340
0
102
{BLKREFS
331
401
102
}
  0
BLOCK_RECORD
  5
403
330
1
100
AcDbSymbolTableRecord
100
AcDbBlockTableRecord
  2
POLY31
340
0
102
{BLKREFS
331
410
102
}
  0
BLOCK_RECORD
  5
411
330
1
100
AcDbSymbolTableRecord
100
AcDbBlockTableRecord
  2
POLY32
340
0
102
{BLKREFS
331
41E
102
}
  0
BLOCK_RECORD
  5
41F
330
1
100
AcDbSymbolTableRecord
100
AcDbBlockTableRecord
  2
POLY33
340
0
102
{BLKREFS
331
42A
102
}
  0
BLOCK_RECORD
  5
42B
330
1
100
AcDbSymbolTableRecord
100
AcDbBlockTableRecord
  2
POLY34
340
0
102
{BLKREFS
331
436
102
}
  0
BLOCK_RECORD
  5
437
330
1
100
AcDbSymbolTableRecord
100
AcDbBlockTableRecord
  2
POLY35
340
0
102
{BLKREFS
331
444
102
}
  0
BLOCK_RECORD
  5
446
330
1
100
AcDbSymbolTableRecord
100
AcDbBlockTableRecord
  2
POLY36
340
0
102
{BLKREFS
331
453
102
}
  0
BLOCK_RECORD
  5
454
330
1
100
AcDbSymbolTableRecord
100
AcDbBlockTableRecord
  2
POLY37
340
0
102
{BLKREFS
331
461
102
}
  0
BLOCK_RECORD
  5
463
330
1
100
AcDbSymbolTableRecord
100
AcDbBlockTableRecord
  2
POLY38
340
0
102
{BLKREFS
331
470
102
}
  0
BLOCK_RECORD
  5
472
330
1
100
AcDbSymbolTableRecord
100
AcDbBlockTableRecord
  2
POLY39
340
0
102
{BLKREFS
331
47F
102
}
  0
BLOCK_RECORD
  5
480
330
1
100
AcDbSymbolTableRecord
100
AcDbBlockTableRecord
  2
POLY40
340
0
102
{BLKREFS
331
48D
102
}
  0
BLOCK_RECORD
  5
497
330
1
100
AcDbSymbolTableRecord
100
AcDbBlockTableRecord
  2
POLY41
340
0
102
{BLKREFS
331
4AA
102
}
  0
BLOCK_RECORD
  5
4AF
330
1
100
AcDbSymbolTableRecord
100
AcDbBlockTableRecord
  2
POLY42
340
0
102
{BLKREFS
331
4C6
102
}
  0
BLOCK_RECORD
  5
4CA
330
1
100
AcDbSymbolTableRecord
100
AcDbBlockTableRecord
  2
POLY43
340
0
102
{BLKREFS
331
4DD
102
}
  0
BLOCK_RECORD
  5
4F1
330
1
100
AcDbSymbolTableRecord
100
AcDbBlockTableRecord
  2
POLY44
340
0
102
{BLKREFS
331
4FC
102
}
  0
BLOCK_RECORD
  5
4FE
330
1
100
AcDbSymbolTableRecord
100
AcDbBlockTableRecord
  2
POLY45
340
0
102
{BLKREFS
331
509
102
}
  0
BLOCK_RECORD
  5
637
330
1
100
AcDbSymbolTableRecord
100
AcDbBlockTableRecord
  2
POLY46
340
0
102
{BLKREFS
331
642
102
}
  0
BLOCK_RECORD
  5
644
330
1
100
AcDbSymbolTableRecord
100
AcDbBlockTableRecord
  2
POLY47
340
0
102
{BLKREFS
331
64F
102
}
  0
BLOCK_RECORD
  5
653
330
1
100
AcDbSymbolTableRecord
100
AcDbBlockTableRecord
  2
KLON23
340
0
102
{BLKREFS
331
678
102
}
  0
BLOCK_RECORD
  5
679
330
1
100
AcDbSymbolTableRecord
100
AcDbBlockTableRecord
  2
KLON24
340
0
102
{BLKREFS
331
69D
102
}
  0
BLOCK_RECORD
  5
69E
330
1
100
AcDbSymbolTableRecord
100
AcDbBlockTableRecord
  2
KLON25
340
0
102
{BLKREFS
331
6C2
102
}
  0
BLOCK_RECORD
  5
6C3
330
1
100
AcDbSymbolTableRecord
100
AcDbBlockTableRecord
  2
KLON26
340
0
102
{BLKREFS
331
6E5
102
}
  0
BLOCK_RECORD
  5
6E6
330
1
100
AcDbSymbolTableRecord
100
AcDbBlockTableRecord
  2
KLON27
340
0
102
{BLKREFS
331
6ED
102
}
  0
BLOCK_RECORD
  5
6EE
330
1
100
AcDbSymbolTableRecord
100
AcDbBlockTableRecord
  2
KLON28
340
0
102
{BLKREFS
331
70E
102
}
  0
BLOCK_RECORD
  5
711
330
1
100
AcDbSymbolTableRecord
100
AcDbBlockTableRecord
  2
KLON29
340
0
102
{BLKREFS
331
717
102
}
  0
BLOCK_RECORD
  5
718
330
1
100
AcDbSymbolTableRecord
100
AcDbBlockTableRecord
  2
KLON30
340
0
102
{BLKREFS
331
720
102
}
  0
BLOCK_RECORD
  5
721
330
1
100
AcDbSymbolTableRecord
100
AcDbBlockTableRecord
  2
KLON31
340
0
102
{BLKREFS
331
726
102
}
  0
BLOCK_RECORD
  5
727
330
1
100
AcDbSymbolTableRecord
100
AcDbBlockTableRecord
  2
KLON32
340
0
102
{BLKREFS
331
72D
102
}
  0
BLOCK_RECORD
  5
735
330
1
100
AcDbSymbolTableRecord
100
AcDbBlockTableRecord
  2
*D80
340
0
  0
BLOCK_RECORD
  5
742
330
1
100
AcDbSymbolTableRecord
100
AcDbBlockTableRecord
  2
*D81
340
0
  0
BLOCK_RECORD
  5
74F
330
1
100
AcDbSymbolTableRecord
100
AcDbBlockTableRecord
  2
*D82
340
0
  0
BLOCK_RECORD
  5
75C
330
1
100
AcDbSymbolTableRecord
100
AcDbBlockTableRecord
  2
*D83
340
0
  0
BLOCK_RECORD
  5
769
330
1
100
AcDbSymbolTableRecord
100
AcDbBlockTableRecord
  2
*D84
340
0
  0
BLOCK_RECORD
  5
776
330
1
100
AcDbSymbolTableRecord
100
AcDbBlockTableRecord
  2
*D85
340
0
  0
ENDTAB
  0
ENDSEC
  0
SECTION
  2
BLOCKS
  0
BLOCK
  5
20
330
1F
100
AcDbEntity
  8
0
100
AcDbBlockBegin
  2
*Model_Space
 70
     0
 71
     0
 10
0.0
 20
0.0
 30
0.0
  3
*Model_Space
  1

  0
ENDBLK
  5
21
330
1F
100
AcDbEntity
  8
0
100
AcDbBlockEnd
  0
BLOCK
  5
1C
330
1B
100
AcDbEntity
 67
     1
  8
0
100
AcDbBlockBegin
  2
*Paper_Space
 70
     0
 71
     0
 10
0.0
 20
0.0
 30
0.0
  3
*Paper_Space
  1

  0
ENDBLK
  5
1D
330
1B
100
AcDbEntity
 67
     1
  8
0
100
AcDbBlockEnd
  0
BLOCK
  5
24
330
23
100
AcDbEntity
  8
0
100
AcDbBlockBegin
  2
*Paper_Space0
 70
     0
 71
     0
 10
0.0
 20
0.0
 30
0.0
  3
*Paper_Space0
  1

  0
ENDBLK
  5
25
330
23
100
AcDbEntity
  8
0
100
AcDbBlockEnd
  0
BLOCK
  5
31
330
30
100
AcDbEntity
  8
0
100
AcDbBlockBegin
  2
POLY1
 70
     0
 71
     0
 10
0.0
 20
0.0
 30
0.0
  3
POLY1
  1

  4
POLY1
  0
LINE
  5
34
330
30
100
AcDbEntity
  8
LC-001-100-D00-0
 62
     7
370
    50
100
AcDbLine
 10
176.028632
 20
270.520626
 30
0.0
 11
176.028632
 21
270.520626
 31
0.0
  0
LINE
  5
35
330
30
100
AcDbEntity
  8
LC-001-100-D00-0
 62
     7
370
    50
100
AcDbLine
 10
176.028632
 20
270.520626
 30
0.0
 11
175.814833
 21
270.637252
 31
0.0
  0
LINE
  5
36
330
30
100
AcDbEntity
  8
LC-001-100-D00-0
 62
     7
370
    50
100
AcDbLine
 10
175.814833
 20
270.637252
 30
0.0
 11
175.814833
 21
270.637252
 31
0.0
  0
LINE
  5
37
330
30
100
AcDbEntity
  8
LC-001-100-D00-0
 62
     7
370
    50
100
AcDbLine
 10
175.814833
 20
270.637252
 30
0.0
 11
175.451591
 21
270.835399
 31
0.0
  0
LINE
  5
38
330
30
100
AcDbEntity
  8
LC-001-100-D00-0
 62
     7
370
    50
100
AcDbLine
 10
175.451591
 20
270.835399
 30
0.0
 11
175.451591
 21
270.835399
 31
0.0
  0
LINE
  5
39
330
30
100
AcDbEntity
  8
LC-001-100-D00-0
 62
     7
370
    50
100
AcDbLine
 10
175.451591
 20
270.835399
 30
0.0
 11
175.09882
 21
271.035824
 31
0.0
  0
LINE
  5
3A
330
30
100
AcDbEntity
  8
LC-001-100-D00-0
 62
     7
370
    50
100
AcDbLine
 10
175.09882
 20
271.035824
 30
0.0
 11
175.09882
 21
271.035824
 31
0.0
  0
LINE
  5
3B
330
30
100
AcDbEntity
  8
LC-001-100-D00-0
 62
     7
370
    50
100
AcDbLine
 10
175.09882
 20
271.035824
 30
0.0
 11
174.953685
 21
271.118282
 31
0.0
  0
ENDBLK
  5
32
330
30
100
AcDbEntity
  8
0
100
AcDbBlockEnd
  0
BLOCK
  5
3F
330
3E
100
AcDbEntity
  8
0
100
AcDbBlockBegin
  2
POLY2
 70
     0
 71
     0
 10
0.0
 20
0.0
 30
0.0
  3
POLY2
  1

  4
POLY2
  0
LINE
  5
41
330
3E
100
AcDbEntity
  8
LC-001-100-D00-0
 62
     7
370
    50
100
AcDbLine
 10
170.466442
 20
265.39108
 30
0.0
 11
170.466442
 21
265.39108
 31
0.0
  0
LINE
  5
42
330
3E
100
AcDbEntity
  8
LC-001-100-D00-0
 62
     7
370
    50
100
AcDbLine
 10
170.466442
 20
265.39108
 30
0.0
 11
170.505167
 21
265.370506
 31
0.0
  0
LINE
  5
43
330
3E
100
AcDbEntity
  8
LC-001-100-D00-0
 62
     7
370
    50
100
AcDbLine
 10
170.505167
 20
265.370506
 30
0.0
 11
170.505167
 21
265.370506
 31
0.0
  0
LINE
  5
44
330
3E
100
AcDbEntity
  8
LC-001-100-D00-0
 62
     7
370
    50
100
AcDbLine
 10
170.505167
 20
265.370506
 30
0.0
 11
170.667802
 21
265.284097
 31
0.0
  0
LINE
  5
45
330
3E
100
AcDbEntity
  8
LC-001-100-D00-0
 62
     7
370
    50
100
AcDbLine
 10
170.667802
 20
265.284097
 30
0.0
 11
170.667802
 21
265.284097
 31
0.0
  0
LINE
  5
46
330
3E
100
AcDbEntity
  8
LC-001-100-D00-0
 62
     7
370
    50
100
AcDbLine
 10
170.667802
 20
265.284097
 30
0.0
 11
170.830061
 21
265.191433
 31
0.0
  0
LINE
  5
47
330
3E
100
AcDbEntity
  8
LC-001-100-D00-0
 62
     7
370
    50
100
AcDbLine
 10
170.830061
 20
265.191433
 30
0.0
 11
170.830061
 21
265.191433
 31
0.0
  0
LINE
  5
48
330
3E
100
AcDbEntity
  8
LC-001-100-D00-0
 62
     7
370
    50
100
AcDbLine
 10
170.830061
 20
265.191433
 30
0.0
 11
170.953684
 21
265.120833
 31
0.0
  0
ENDBLK
  5
40
330
3E
100
AcDbEntity
  8
0
100
AcDbBlockEnd
  0
BLOCK
  5
4B
330
4A
100
AcDbEntity
  8
0
100
AcDbBlockBegin
  2
POLY3
 70
     0
 71
     0
 10
0.0
 20
0.0
 30
0.0
  3
POLY3
  1

  4
POLY3
  0
LINE
  5
4D
330
4A
100
AcDbEntity
  8
LC-001-100-D00-0
 62
     7
370
    50
100
AcDbLine
 10
169.863258
 20
271.713464
 30
0.0
 11
169.863258
 21
271.713464
 31
0.0
  0
LINE
  5
4E
330
4A
100
AcDbEntity
  8
LC-001-100-D00-0
 62
     7
370
    50
100
AcDbLine
 10
169.863258
 20
271.713464
 30
0.0
 11
170.103158
 21
271.587333
 31
0.0
  0
LINE
  5
4F
330
4A
100
AcDbEntity
  8
LC-001-100-D00-0
 62
     7
370
    50
100
AcDbLine
 10
170.103158
 20
271.587333
 30
0.0
 11
170.103158
 21
271.587333
 31
0.0
  0
LINE
  5
50
330
4A
100
AcDbEntity
  8
LC-001-100-D00-0
 62
     7
370
    50
100
AcDbLine
 10
170.103158
 20
271.587333
 30
0.0
 11
170.467004
 21
271.396035
 31
0.0
  0
LINE
  5
51
330
4A
100
AcDbEntity
  8
LC-001-100-D00-0
 62
     7
370
    50
100
AcDbLine
 10
170.467004
 20
271.396035
 30
0.0
 11
170.467004
 21
271.396035
 31
0.0
  0
LINE
  5
52
330
4A
100
AcDbEntity
  8
LC-001-100-D00-0
 62
     7
370
    50
100
AcDbLine
 10
170.467004
 20
271.396035
 30
0.0
 11
170.83002
 21
271.19077
 31
0.0
  0
LINE
  5
53
330
4A
100
AcDbEntity
  8
LC-001-100-D00-0
 62
     7
370
    50
100
AcDbLine
 10
170.83002
 20
271.19077
 30
0.0
 11
170.83002
 21
271.19077
 31
0.0
  0
LINE
  5
54
330
4A
100
AcDbEntity
  8
LC-001-100-D00-0
 62
     7
370
    50
100
AcDbLine
 10
170.83002
 20
271.19077
 30
0.0
 11
170.953684
 21
271.120845
 31
0.0
  0
ENDBLK
  5
4C
330
4A
100
AcDbEntity
  8
0
100
AcDbBlockEnd
  0
BLOCK
  5
57
330
56
100
AcDbEntity
  8
0
100
AcDbBlockBegin
  2
POLY4
 70
     0
 71
     0
 10
0.0
 20
0.0
 30
0.0
  3
POLY4
  1

  4
POLY4
  0
LINE
  5
59
330
56
100
AcDbEntity
  8
LC-001-100-D00-0
 62
     7
370
    50
100
AcDbLine
 10
170.466442
 20
268.391071
 30
0.0
 11
170.466442
 21
268.391071
 31
0.0
  0
LINE
  5
5A
330
56
100
AcDbEntity
  8
LC-001-100-D00-0
 62
     7
370
    50
100
AcDbLine
 10
170.466442
 20
268.391071
 30
0.0
 11
170.505167
 21
268.370497
 31
0.0
  0
LINE
  5
5B
330
56
100
AcDbEntity
  8
LC-001-100-D00-0
 62
     7
370
    50
100
AcDbLine
 10
170.505167
 20
268.370497
 30
0.0
 11
170.505167
 21
268.370497
 31
0.0
  0
LINE
  5
5C
330
56
100
AcDbEntity
  8
LC-001-100-D00-0
 62
     7
370
    50
100
AcDbLine
 10
170.505167
 20
268.370497
 30
0.0
 11
170.6678
 21
268.284089
 31
0.0
  0
LINE
  5
5D
330
56
100
AcDbEntity
  8
LC-001-100-D00-0
 62
     7
370
    50
100
AcDbLine
 10
170.6678
 20
268.284089
 30
0.0
 11
170.6678
 21
268.284089
 31
0.0
  0
LINE
  5
5E
330
56
100
AcDbEntity
  8
LC-001-100-D00-0
 62
     7
370
    50
100
AcDbLine
 10
170.6678
 20
268.284089
 30
0.0
 11
170.83006
 21
268.191432
 31
0.0
  0
LINE
  5
5F
330
56
100
AcDbEntity
  8
LC-001-100-D00-0
 62
     7
370
    50
100
AcDbLine
 10
170.83006
 20
268.191432
 30
0.0
 11
170.83006
 21
268.191432
 31
0.0
  0
LINE
  5
60
330
56
100
AcDbEntity
  8
LC-001-100-D00-0
 62
     7
370
    50
100
AcDbLine
 10
170.83006
 20
268.191432
 30
0.0
 11
170.953684
 21
268.120839
 31
0.0
  0
ENDBLK
  5
58
330
56
100
AcDbEntity
  8
0
100
AcDbBlockEnd
  0
BLOCK
  5
65
330
64
100
AcDbEntity
  8
0
100
AcDbBlockBegin
  2
POLY5
 70
     0
 71
     0
 10
0.0
 20
0.0
 30
0.0
  3
POLY5
  1

  4
POLY5
  0
LINE
  5
67
330
64
100
AcDbEntity
  8
LC-001-100-D00-0
 62
     7
370
    50
100
AcDbLine
 10
176.028632
 20
273.520617
 30
0.0
 11
176.028632
 21
273.520617
 31
0.0
  0
LINE
  5
68
330
64
100
AcDbEntity
  8
LC-001-100-D00-0
 62
     7
370
    50
100
AcDbLine
 10
176.028632
 20
273.520617
 30
0.0
 11
175.814834
 21
273.637251
 31
0.0
  0
LINE
  5
69
330
64
100
AcDbEntity
  8
LC-001-100-D00-0
 62
     7
370
    50
100
AcDbLine
 10
175.814834
 20
273.637251
 30
0.0
 11
175.814834
 21
273.637251
 31
0.0
  0
LINE
  5
6A
330
64
100
AcDbEntity
  8
LC-001-100-D00-0
 62
     7
370
    50
100
AcDbLine
 10
175.814834
 20
273.637251
 30
0.0
 11
175.451599
 21
273.835409
 31
0.0
  0
LINE
  5
6B
330
64
100
AcDbEntity
  8
LC-001-100-D00-0
 62
     7
370
    50
100
AcDbLine
 10
175.451599
 20
273.835409
 30
0.0
 11
175.451599
 21
273.835409
 31
0.0
  0
LINE
  5
6C
330
64
100
AcDbEntity
  8
LC-001-100-D00-0
 62
     7
370
    50
100
AcDbLine
 10
175.451599
 20
273.835409
 30
0.0
 11
175.09882
 21
274.035822
 31
0.0
  0
LINE
  5
6D
330
64
100
AcDbEntity
  8
LC-001-100-D00-0
 62
     7
370
    50
100
AcDbLine
 10
175.09882
 20
274.035822
 30
0.0
 11
175.09882
 21
274.035822
 31
0.0
  0
LINE
  5
6E
330
64
100
AcDbEntity
  8
LC-001-100-D00-0
 62
     7
370
    50
100
AcDbLine
 10
175.09882
 20
274.035822
 30
0.0
 11
174.953685
 21
274.118273
 31
0.0
  0
ENDBLK
  5
66
330
64
100
AcDbEntity
  8
0
100
AcDbBlockEnd
  0
BLOCK
  5
71
330
70
100
AcDbEntity
  8
0
100
AcDbBlockBegin
  2
POLY6
 70
     0
 71
     0
 10
0.0
 20
0.0
 30
0.0
  3
POLY6
  1

  4
POLY6
  0
LINE
  5
73
330
70
100
AcDbEntity
  8
LC-001-100-D00-0
 62
     7
370
    50
100
AcDbLine
 10
169.863258
 20
274.71347
 30
0.0
 11
169.863258
 21
274.71347
 31
0.0
  0
LINE
  5
74
330
70
100
AcDbEntity
  8
LC-001-100-D00-0
 62
     7
370
    50
100
AcDbLine
 10
169.863258
 20
274.71347
 30
0.0
 11
170.103157
 21
274.587333
 31
0.0
  0
LINE
  5
75
330
70
100
AcDbEntity
  8
LC-001-100-D00-0
 62
     7
370
    50
100
AcDbLine
 10
170.103157
 20
274.587333
 30
0.0
 11
170.103157
 21
274.587333
 31
0.0
  0
LINE
  5
76
330
70
100
AcDbEntity
  8
LC-001-100-D00-0
 62
     7
370
    50
100
AcDbLine
 10
170.103157
 20
274.587333
 30
0.0
 11
170.467001
 21
274.396026
 31
0.0
  0
LINE
  5
77
330
70
100
AcDbEntity
  8
LC-001-100-D00-0
 62
     7
370
    50
100
AcDbLine
 10
170.467001
 20
274.396026
 30
0.0
 11
170.467001
 21
274.396026
 31
0.0
  0
LINE
  5
78
330
70
100
AcDbEntity
  8
LC-001-100-D00-0
 62
     7
370
    50
100
AcDbLine
 10
170.467001
 20
274.396026
 30
0.0
 11
170.83002
 21
274.190761
 31
0.0
  0
LINE
  5
79
330
70
100
AcDbEntity
  8
LC-001-100-D00-0
 62
     7
370
    50
100
AcDbLine
 10
170.83002
 20
274.190761
 30
0.0
 11
170.83002
 21
274.190761
 31
0.0
  0
LINE
  5
7A
330
70
100
AcDbEntity
  8
LC-001-100-D00-0
 62
     7
370
    50
100
AcDbLine
 10
170.83002
 20
274.190761
 30
0.0
 11
170.953684
 21
274.120836
 31
0.0
  0
ENDBLK
  5
72
330
70
100
AcDbEntity
  8
0
100
AcDbBlockEnd
  0
BLOCK
  5
7D
330
7C
100
AcDbEntity
  8
0
100
AcDbBlockBegin
  2
POLY7
 70
     0
 71
     0
 10
0.0
 20
0.0
 30
0.0
  3
POLY7
  1

  4
POLY7
  0
LINE
  5
7F
330
7C
100
AcDbEntity
  8
LC-001-100-D00-0
 62
     7
370
    50
100
AcDbLine
 10
170.466442
 20
262.391074
 30
0.0
 11
170.466442
 21
262.391074
 31
0.0
  0
LINE
  5
80
330
7C
100
AcDbEntity
  8
LC-001-100-D00-0
 62
     7
370
    50
100
AcDbLine
 10
170.466442
 20
262.391074
 30
0.0
 11
170.505167
 21
262.370499
 31
0.0
  0
LINE
  5
81
330
7C
100
AcDbEntity
  8
LC-001-100-D00-0
 62
     7
370
    50
100
AcDbLine
 10
170.505167
 20
262.370499
 30
0.0
 11
170.505167
 21
262.370499
 31
0.0
  0
LINE
  5
82
330
7C
100
AcDbEntity
  8
LC-001-100-D00-0
 62
     7
370
    50
100
AcDbLine
 10
170.505167
 20
262.370499
 30
0.0
 11
170.6678
 21
262.284091
 31
0.0
  0
LINE
  5
83
330
7C
100
AcDbEntity
  8
LC-001-100-D00-0
 62
     7
370
    50
100
AcDbLine
 10
170.6678
 20
262.284091
 30
0.0
 11
170.6678
 21
262.284091
 31
0.0
  0
LINE
  5
84
330
7C
100
AcDbEntity
  8
LC-001-100-D00-0
 62
     7
370
    50
100
AcDbLine
 10
170.6678
 20
262.284091
 30
0.0
 11
170.83006
 21
262.191435
 31
0.0
  0
LINE
  5
85
330
7C
100
AcDbEntity
  8
LC-001-100-D00-0
 62
     7
370
    50
100
AcDbLine
 10
170.83006
 20
262.191435
 30
0.0
 11
170.83006
 21
262.191435
 31
0.0
  0
LINE
  5
86
330
7C
100
AcDbEntity
  8
LC-001-100-D00-0
 62
     7
370
    50
100
AcDbLine
 10
170.83006
 20
262.191435
 30
0.0
 11
170.953684
 21
262.120841
 31
0.0
  0
ENDBLK
  5
7E
330
7C
100
AcDbEntity
  8
0
100
AcDbBlockEnd
  0
BLOCK
  5
8A
330
89
100
AcDbEntity
  8
0
100
AcDbBlockBegin
  2
POLY8
 70
     0
 71
     0
 10
0.0
 20
0.0
 30
0.0
  3
POLY8
  1

  4
POLY8
  0
LINE
  5
8C
330
89
100
AcDbEntity
  8
LC-001-100-D00-0
 62
     7
370
    50
100
AcDbLine
 10
36.077837
 20
270.495801
 30
0.0
 11
36.077837
 21
270.495801
 31
0.0
  0
LINE
  5
8D
330
89
100
AcDbEntity
  8
LC-001-100-D00-0
 62
     7
370
    50
100
AcDbLine
 10
36.077837
 20
270.495801
 30
0.0
 11
35.856934
 21
270.615872
 31
0.0
  0
LINE
  5
8E
330
89
100
AcDbEntity
  8
LC-001-100-D00-0
 62
     7
370
    50
100
AcDbLine
 10
35.856934
 20
270.615872
 30
0.0
 11
35.856934
 21
270.615872
 31
0.0
  0
LINE
  5
8F
330
89
100
AcDbEntity
  8
LC-001-100-D00-0
 62
     7
370
    50
100
AcDbLine
 10
35.856934
 20
270.615872
 30
0.0
 11
35.479155
 21
270.821213
 31
0.0
  0
LINE
  5
90
330
89
100
AcDbEntity
  8
LC-001-100-D00-0
 62
     7
370
    50
100
AcDbLine
 10
35.479155
 20
270.821213
 30
0.0
 11
35.479155
 21
270.821213
 31
0.0
  0
LINE
  5
91
330
89
100
AcDbEntity
  8
LC-001-100-D00-0
 62
     7
370
    50
100
AcDbLine
 10
35.479155
 20
270.821213
 30
0.0
 11
35.108382
 21
271.031233
 31
0.0
  0
LINE
  5
92
330
89
100
AcDbEntity
  8
LC-001-100-D00-0
 62
     7
370
    50
100
AcDbLine
 10
35.108382
 20
271.031233
 30
0.0
 11
35.108382
 21
271.031233
 31
0.0
  0
LINE
  5
93
330
89
100
AcDbEntity
  8
LC-001-100-D00-0
 62
     7
370
    50
100
AcDbLine
 10
35.108382
 20
271.031233
 30
0.0
 11
34.954416
 21
271.118446
 31
0.0
  0
ENDBLK
  5
8B
330
89
100
AcDbEntity
  8
0
100
AcDbBlockEnd
  0
BLOCK
  5
97
330
96
100
AcDbEntity
  8
0
100
AcDbBlockBegin
  2
POLY9
 70
     0
 71
     0
 10
0.0
 20
0.0
 30
0.0
  3
POLY9
  1

  4
POLY9
  0
LINE
  5
99
330
96
100
AcDbEntity
  8
LC-001-100-D00-0
 62
     7
370
    50
100
AcDbLine
 10
29.807518
 20
271.740703
 30
0.0
 11
29.807518
 21
271.740703
 31
0.0
  0
LINE
  5
9A
330
96
100
AcDbEntity
  8
LC-001-100-D00-0
 62
     7
370
    50
100
AcDbLine
 10
29.807518
 20
271.740703
 30
0.0
 11
30.024506
 21
271.623946
 31
0.0
  0
LINE
  5
9B
330
96
100
AcDbEntity
  8
LC-001-100-D00-0
 62
     7
370
    50
100
AcDbLine
 10
30.024506
 20
271.623946
 30
0.0
 11
30.024506
 21
271.623946
 31
0.0
  0
LINE
  5
9C
330
96
100
AcDbEntity
  8
LC-001-100-D00-0
 62
     7
370
    50
100
AcDbLine
 10
30.024506
 20
271.623946
 30
0.0
 11
30.409904
 21
271.416571
 31
0.0
  0
LINE
  5
9D
330
96
100
AcDbEntity
  8
LC-001-100-D00-0
 62
     7
370
    50
100
AcDbLine
 10
30.409904
 20
271.416571
 30
0.0
 11
30.409904
 21
271.416571
 31
0.0
  0
LINE
  5
9E
330
96
100
AcDbEntity
  8
LC-001-100-D00-0
 62
     7
370
    50
100
AcDbLine
 10
30.409904
 20
271.416571
 30
0.0
 11
30.788838
 21
271.205122
 31
0.0
  0
LINE
  5
9F
330
96
100
AcDbEntity
  8
LC-001-100-D00-0
 62
     7
370
    50
100
AcDbLine
 10
30.788838
 20
271.205122
 30
0.0
 11
30.788838
 21
271.205122
 31
0.0
  0
LINE
  5
A0
330
96
100
AcDbEntity
  8
LC-001-100-D00-0
 62
     7
370
    50
100
AcDbLine
 10
30.788838
 20
271.205122
 30
0.0
 11
30.954423
 21
271.112724
 31
0.0
  0
ENDBLK
  5
98
330
96
100
AcDbEntity
  8
0
100
AcDbBlockEnd
  0
BLOCK
  5
A5
330
A4
100
AcDbEntity
  8
0
100
AcDbBlockBegin
  2
POLY10
 70
     0
 71
     0
 10
0.0
 20
0.0
 30
0.0
  3
POLY10
  1

  4
POLY10
  0
LINE
  5
A7
330
A4
100
AcDbEntity
  8
LC-001-100-D00-0
 62
     7
370
    50
100
AcDbLine
 10
29.807518
 20
274.740709
 30
0.0
 11
29.807518
 21
274.740709
 31
0.0
  0
LINE
  5
A8
330
A4
100
AcDbEntity
  8
LC-001-100-D00-0
 62
     7
370
    50
100
AcDbLine
 10
29.807518
 20
274.740709
 30
0.0
 11
30.024506
 21
274.623952
 31
0.0
  0
LINE
  5
A9
330
A4
100
AcDbEntity
  8
LC-001-100-D00-0
 62
     7
370
    50
100
AcDbLine
 10
30.024506
 20
274.623952
 30
0.0
 11
30.024506
 21
274.623952
 31
0.0
  0
LINE
  5
AA
330
A4
100
AcDbEntity
  8
LC-001-100-D00-0
 62
     7
370
    50
100
AcDbLine
 10
30.024506
 20
274.623952
 30
0.0
 11
30.409904
 21
274.416577
 31
0.0
  0
LINE
  5
AB
330
A4
100
AcDbEntity
  8
LC-001-100-D00-0
 62
     7
370
    50
100
AcDbLine
 10
30.409904
 20
274.416577
 30
0.0
 11
30.409904
 21
274.416577
 31
0.0
  0
LINE
  5
AC
330
A4
100
AcDbEntity
  8
LC-001-100-D00-0
 62
     7
370
    50
100
AcDbLine
 10
30.409904
 20
274.416577
 30
0.0
 11
30.788838
 21
274.205128
 31
0.0
  0
LINE
  5
AD
330
A4
100
AcDbEntity
  8
LC-001-100-D00-0
 62
     7
370
    50
100
AcDbLine
 10
30.788838
 20
274.205128
 30
0.0
 11
30.788838
 21
274.205128
 31
0.0
  0
LINE
  5
AE
330
A4
100
AcDbEntity
  8
LC-001-100-D00-0
 62
     7
370
    50
100
AcDbLine
 10
30.788838
 20
274.205128
 30
0.0
 11
30.954423
 21
274.11273
 31
0.0
  0
ENDBLK
  5
A6
330
A4
100
AcDbEntity
  8
0
100
AcDbBlockEnd
  0
BLOCK
  5
B1
330
B0
100
AcDbEntity
  8
0
100
AcDbBlockBegin
  2
POLY11
 70
     0
 71
     0
 10
0.0
 20
0.0
 30
0.0
  3
POLY11
  1

  4
POLY11
  0
LINE
  5
B3
330
B0
100
AcDbEntity
  8
LC-001-100-D00-0
 62
     7
370
    50
100
AcDbLine
 10
36.078106
 20
273.495658
 30
0.0
 11
36.078106
 21
273.495658
 31
0.0
  0
LINE
  5
B4
330
B0
100
AcDbEntity
  8
LC-001-100-D00-0
 62
     7
370
    50
100
AcDbLine
 10
36.078106
 20
273.495658
 30
0.0
 11
35.857123
 21
273.615769
 31
0.0
  0
LINE
  5
B5
330
B0
100
AcDbEntity
  8
LC-001-100-D00-0
 62
     7
370
    50
100
AcDbLine
 10
35.857123
 20
273.615769
 30
0.0
 11
35.857123
 21
273.615769
 31
0.0
  0
LINE
  5
B6
330
B0
100
AcDbEntity
  8
LC-001-100-D00-0
 62
     7
370
    50
100
AcDbLine
 10
35.857123
 20
273.615769
 30
0.0
 11
35.479277
 21
273.821141
 31
0.0
  0
LINE
  5
B7
330
B0
100
AcDbEntity
  8
LC-001-100-D00-0
 62
     7
370
    50
100
AcDbLine
 10
35.479277
 20
273.821141
 30
0.0
 11
35.479277
 21
273.821141
 31
0.0
  0
LINE
  5
B8
330
B0
100
AcDbEntity
  8
LC-001-100-D00-0
 62
     7
370
    50
100
AcDbLine
 10
35.479277
 20
273.821141
 30
0.0
 11
35.10839
 21
274.031232
 31
0.0
  0
LINE
  5
B9
330
B0
100
AcDbEntity
  8
LC-001-100-D00-0
 62
     7
370
    50
100
AcDbLine
 10
35.10839
 20
274.031232
 30
0.0
 11
35.10839
 21
274.031232
 31
0.0
  0
LINE
  5
BA
330
B0
100
AcDbEntity
  8
LC-001-100-D00-0
 62
     7
370
    50
100
AcDbLine
 10
35.10839
 20
274.031232
 30
0.0
 11
34.954416
 21
274.118452
 31
0.0
  0
ENDBLK
  5
B2
330
B0
100
AcDbEntity
  8
0
100
AcDbBlockEnd
  0
BLOCK
  5
D4
330
D3
100
AcDbEntity
  8
0
100
AcDbBlockBegin
  2
KLON1
 70
     0
 71
     0
 10
0.0
 20
0.0
 30
0.0
  3
KLON1
  1

  4
KLON1
  0
LINE
  5
D6
330
D3
100
AcDbEntity
  8
LC-001-100-D00-0
 62
     7
370
    15
100
AcDbLine
 10
170.953684
 20
272.507994
 30
0.0
 11
170.602589
 21
272.325231
 31
0.0
  0
LINE
  5
D7
330
D3
100
AcDbEntity
  8
LC-001-100-D00-0
 62
     7
370
    15
100
AcDbLine
 10
170.602589
 20
272.325231
 30
0.0
 11
170.251495
 21
272.142453
 31
0.0
  0
LINE
  5
D8
330
D3
100
AcDbEntity
  8
LC-001-100-D00-0
 62
     7
370
    15
100
AcDbLine
 10
170.251495
 20
272.142453
 30
0.0
 11
169.703686
 21
271.85729
 31
0.0
  0
ENDBLK
  5
D5
330
D3
100
AcDbEntity
  8
0
100
AcDbBlockEnd
  0
BLOCK
  5
DB
330
DA
100
AcDbEntity
  8
0
100
AcDbBlockBegin
  2
POLY12
 70
     0
 71
     0
 10
0.0
 20
0.0
 30
0.0
  3
POLY12
  1

  4
POLY12
  0
LINE
  5
DD
330
DA
100
AcDbEntity
  8
LC-001-100-D00-0
 62
     7
370
    50
100
AcDbLine
 10
169.703686
 20
271.85729
 30
0.0
 11
169.703686
 21
271.85729
 31
0.0
  0
LINE
  5
DE
330
DA
100
AcDbEntity
  8
LC-001-100-D00-0
 62
     7
370
    50
100
AcDbLine
 10
169.703686
 20
271.85729
 30
0.0
 11
169.70369
 21
271.856555
 31
0.0
  0
LINE
  5
DF
330
DA
100
AcDbEntity
  8
LC-001-100-D00-0
 62
     7
370
    50
100
AcDbLine
 10
169.70369
 20
271.856555
 30
0.0
 11
169.70369
 21
271.856555
 31
0.0
  0
LINE
  5
E0
330
DA
100
AcDbEntity
  8
LC-001-100-D00-0
 62
     7
370
    50
100
AcDbLine
 10
169.70369
 20
271.856555
 30
0.0
 11
169.703988
 21
271.805477
 31
0.0
  0
LINE
  5
E1
330
DA
100
AcDbEntity
  8
LC-001-100-D00-0
 62
     7
370
    50
100
AcDbLine
 10
169.703988
 20
271.805477
 30
0.0
 11
169.703988
 21
271.805477
 31
0.0
  0
LINE
  5
E2
330
DA
100
AcDbEntity
  8
LC-001-100-D00-0
 62
     7
370
    50
100
AcDbLine
 10
169.703988
 20
271.805477
 30
0.0
 11
169.803875
 21
271.758176
 31
0.0
  0
LINE
  5
E3
330
DA
100
AcDbEntity
  8
LC-001-100-D00-0
 62
     7
370
    50
100
AcDbLine
 10
169.803875
 20
271.758176
 30
0.0
 11
169.803875
 21
271.758176
 31
0.0
  0
LINE
  5
E4
330
DA
100
AcDbEntity
  8
LC-001-100-D00-0
 62
     7
370
    50
100
AcDbLine
 10
169.803875
 20
271.758176
 30
0.0
 11
169.902324
 21
271.711557
 31
0.0
  0
ENDBLK
  5
DC
330
DA
100
AcDbEntity
  8
0
100
AcDbBlockEnd
  0
BLOCK
  5
E8
330
E7
100
AcDbEntity
  8
0
100
AcDbBlockBegin
  2
KLON2
 70
     0
 71
     0
 10
0.0
 20
0.0
 30
0.0
  3
KLON2
  1

  4
KLON2
  0
LINE
  5
EA
330
E7
100
AcDbEntity
  8
LC-001-100-D00-0
 62
     7
370
    15
100
AcDbLine
 10
176.203684
 20
270.357279
 30
0.0
 11
175.85259
 21
270.540057
 31
0.0
  0
LINE
  5
EB
330
E7
100
AcDbEntity
  8
LC-001-100-D00-0
 62
     7
370
    15
100
AcDbLine
 10
175.85259
 20
270.540057
 30
0.0
 11
175.501495
 21
270.72282
 31
0.0
  0
LINE
  5
EC
330
E7
100
AcDbEntity
  8
LC-001-100-D00-0
 62
     7
370
    15
100
AcDbLine
 10
175.501495
 20
270.72282
 30
0.0
 11
174.953685
 21
271.007998
 31
0.0
  0
ENDBLK
  5
E9
330
E7
100
AcDbEntity
  8
0
100
AcDbBlockEnd
  0
BLOCK
  5
EF
330
EE
100
AcDbEntity
  8
0
100
AcDbBlockBegin
  2
KLON3
 70
     0
 71
     0
 10
0.0
 20
0.0
 30
0.0
  3
KLON3
  1

  4
KLON3
  0
LINE
  5
F1
330
EE
100
AcDbEntity
  8
LC-001-100-D00-0
 62
     7
370
    15
100
AcDbLine
 10
170.953684
 20
269.507988
 30
0.0
 11
170.602589
 21
269.325225
 31
0.0
  0
LINE
  5
F2
330
EE
100
AcDbEntity
  8
LC-001-100-D00-0
 62
     7
370
    15
100
AcDbLine
 10
170.602589
 20
269.325225
 30
0.0
 11
170.251495
 21
269.142462
 31
0.0
  0
LINE
  5
F3
330
EE
100
AcDbEntity
  8
LC-001-100-D00-0
 62
     7
370
    15
100
AcDbLine
 10
170.251495
 20
269.142462
 30
0.0
 11
169.703686
 21
268.857284
 31
0.0
  0
ENDBLK
  5
F0
330
EE
100
AcDbEntity
  8
0
100
AcDbBlockEnd
  0
BLOCK
  5
F6
330
F5
100
AcDbEntity
  8
0
100
AcDbBlockBegin
  2
KLON4
 70
     0
 71
     0
 10
0.0
 20
0.0
 30
0.0
  3
KLON4
  1

  4
KLON4
  0
LINE
  5
F8
330
F5
100
AcDbEntity
  8
LC-001-100-D00-0
 62
     7
370
    15
100
AcDbLine
 10
176.203684
 20
267.357288
 30
0.0
 11
175.85259
 21
267.540051
 31
0.0
  0
LINE
  5
F9
330
F5
100
AcDbEntity
  8
LC-001-100-D00-0
 62
     7
370
    15
100
AcDbLine
 10
175.85259
 20
267.540051
 30
0.0
 11
175.501495
 21
267.722829
 31
0.0
  0
LINE
  5
FA
330
F5
100
AcDbEntity
  8
LC-001-100-D00-0
 62
     7
370
    15
100
AcDbLine
 10
175.501495
 20
267.722829
 30
0.0
 11
174.953685
 21
268.007992
 31
0.0
  0
ENDBLK
  5
F7
330
F5
100
AcDbEntity
  8
0
100
AcDbBlockEnd
  0
BLOCK
  5
FD
330
FC
100
AcDbEntity
  8
0
100
AcDbBlockBegin
  2
KLON5
 70
     0
 71
     0
 10
0.0
 20
0.0
 30
0.0
  3
KLON5
  1

  4
KLON5
  0
LINE
  5
FF
330
FC
100
AcDbEntity
  8
LC-001-100-D00-0
 62
     7
370
    15
100
AcDbLine
 10
169.703686
 20
265.857278
 30
0.0
 11
170.054779
 21
265.674515
 31
0.0
  0
LINE
  5
100
330
FC
100
AcDbEntity
  8
LC-001-100-D00-0
 62
     7
370
    15
100
AcDbLine
 10
170.054779
 20
265.674515
 30
0.0
 11
170.405875
 21
265.491752
 31
0.0
  0
LINE
  5
101
330
FC
100
AcDbEntity
  8
LC-001-100-D00-0
 62
     7
370
    15
100
AcDbLine
 10
170.405875
 20
265.491752
 30
0.0
 11
170.953684
 21
265.206574
 31
0.0
  0
ENDBLK
  5
FE
330
FC
100
AcDbEntity
  8
0
100
AcDbBlockEnd
  0
BLOCK
  5
104
330
103
100
AcDbEntity
  8
0
100
AcDbBlockBegin
  2
KLON6
 70
     0
 71
     0
 10
0.0
 20
0.0
 30
0.0
  3
KLON6
  1

  4
KLON6
  0
LINE
  5
106
330
103
100
AcDbEntity
  8
LC-001-100-D00-0
 62
     7
370
    15
100
AcDbLine
 10
174.953685
 20
263.706578
 30
0.0
 11
175.304781
 21
263.889341
 31
0.0
  0
LINE
  5
107
330
103
100
AcDbEntity
  8
LC-001-100-D00-0
 62
     7
370
    15
100
AcDbLine
 10
175.304781
 20
263.889341
 30
0.0
 11
175.655874
 21
264.072119
 31
0.0
  0
LINE
  5
108
330
103
100
AcDbEntity
  8
LC-001-100-D00-0
 62
     7
370
    15
100
AcDbLine
 10
175.655874
 20
264.072119
 30
0.0
 11
176.203684
 21
264.357282
 31
0.0
  0
ENDBLK
  5
105
330
103
100
AcDbEntity
  8
0
100
AcDbBlockEnd
  0
BLOCK
  5
10B
330
10A
100
AcDbEntity
  8
0
100
AcDbBlockBegin
  2
KLON7
 70
     0
 71
     0
 10
0.0
 20
0.0
 30
0.0
  3
KLON7
  1

  4
KLON7
  0
LINE
  5
10D
330
10A
100
AcDbEntity
  8
LC-001-100-D00-0
 62
     7
370
    15
100
AcDbLine
 10
169.703686
 20
271.85729
 30
0.0
 11
170.054779
 21
271.674512
 31
0.0
  0
LINE
  5
10E
330
10A
100
AcDbEntity
  8
LC-001-100-D00-0
 62
     7
370
    15
100
AcDbLine
 10
170.054779
 20
271.674512
 30
0.0
 11
170.405875
 21
271.49175
 31
0.0
  0
LINE
  5
10F
330
10A
100
AcDbEntity
  8
LC-001-100-D00-0
 62
     7
370
    15
100
AcDbLine
 10
170.405875
 20
271.49175
 30
0.0
 11
170.953684
 21
271.206571
 31
0.0
  0
ENDBLK
  5
10C
330
10A
100
AcDbEntity
  8
0
100
AcDbBlockEnd
  0
BLOCK
  5
112
330
111
100
AcDbEntity
  8
0
100
AcDbBlockBegin
  2
KLON8
 70
     0
 71
     0
 10
0.0
 20
0.0
 30
0.0
  3
KLON8
  1

  4
KLON8
  0
LINE
  5
114
330
111
100
AcDbEntity
  8
LC-001-100-D00-0
 62
     7
370
    15
100
AcDbLine
 10
174.953685
 20
269.706576
 30
0.0
 11
175.304781
 21
269.889338
 31
0.0
  0
LINE
  5
115
330
111
100
AcDbEntity
  8
LC-001-100-D00-0
 62
     7
370
    15
100
AcDbLine
 10
175.304781
 20
269.889338
 30
0.0
 11
175.655874
 21
270.072116
 31
0.0
  0
LINE
  5
116
330
111
100
AcDbEntity
  8
LC-001-100-D00-0
 62
     7
370
    15
100
AcDbLine
 10
175.655874
 20
270.072116
 30
0.0
 11
176.203684
 21
270.357279
 31
0.0
  0
ENDBLK
  5
113
330
111
100
AcDbEntity
  8
0
100
AcDbBlockEnd
  0
BLOCK
  5
119
330
118
100
AcDbEntity
  8
0
100
AcDbBlockBegin
  2
KLON9
 70
     0
 71
     0
 10
0.0
 20
0.0
 30
0.0
  3
KLON9
  1

  4
KLON9
  0
LINE
  5
11B
330
118
100
AcDbEntity
  8
LC-001-100-D00-0
 62
     7
370
    15
100
AcDbLine
 10
169.703686
 20
268.857284
 30
0.0
 11
170.054779
 21
268.674521
 31
0.0
  0
LINE
  5
11C
330
118
100
AcDbEntity
  8
LC-001-100-D00-0
 62
     7
370
    15
100
AcDbLine
 10
170.054779
 20
268.674521
 30
0.0
 11
170.405875
 21
268.491743
 31
0.0
  0
LINE
  5
11D
330
118
100
AcDbEntity
  8
LC-001-100-D00-0
 62
     7
370
    15
100
AcDbLine
 10
170.405875
 20
268.491743
 30
0.0
 11
170.953684
 21
268.20658
 31
0.0
  0
ENDBLK
  5
11A
330
118
100
AcDbEntity
  8
0
100
AcDbBlockEnd
  0
BLOCK
  5
120
330
11F
100
AcDbEntity
  8
0
100
AcDbBlockBegin
  2
KLON10
 70
     0
 71
     0
 10
0.0
 20
0.0
 30
0.0
  3
KLON10
  1

  4
KLON10
  0
LINE
  5
122
330
11F
100
AcDbEntity
  8
LC-001-100-D00-0
 62
     7
370
    15
100
AcDbLine
 10
174.953685
 20
266.706569
 30
0.0
 11
175.304781
 21
266.889347
 31
0.0
  0
LINE
  5
123
330
11F
100
AcDbEntity
  8
LC-001-100-D00-0
 62
     7
370
    15
100
AcDbLine
 10
175.304781
 20
266.889347
 30
0.0
 11
175.655874
 21
267.07211
 31
0.0
  0
LINE
  5
124
330
11F
100
AcDbEntity
  8
LC-001-100-D00-0
 62
     7
370
    15
100
AcDbLine
 10
175.655874
 20
267.07211
 30
0.0
 11
176.203684
 21
267.357288
 31
0.0
  0
ENDBLK
  5
121
330
11F
100
AcDbEntity
  8
0
100
AcDbBlockEnd
  0
BLOCK
  5
127
330
126
100
AcDbEntity
  8
0
100
AcDbBlockBegin
  2
KLON11
 70
     0
 71
     0
 10
0.0
 20
0.0
 30
0.0
  3
KLON11
  1

  4
KLON11
  0
LINE
  5
129
330
126
100
AcDbEntity
  8
LC-001-100-D00-0
 62
     7
370
    15
100
AcDbLine
 10
170.953684
 20
263.507991
 30
0.0
 11
170.602589
 21
263.325228
 31
0.0
  0
LINE
  5
12A
330
126
100
AcDbEntity
  8
LC-001-100-D00-0
 62
     7
370
    15
100
AcDbLine
 10
170.602589
 20
263.325228
 30
0.0
 11
170.251495
 21
263.14245
 31
0.0
  0
LINE
  5
12B
330
126
100
AcDbEntity
  8
LC-001-100-D00-0
 62
     7
370
    15
100
AcDbLine
 10
170.251495
 20
263.14245
 30
0.0
 11
169.703686
 21
262.857287
 31
0.0
  0
ENDBLK
  5
128
330
126
100
AcDbEntity
  8
0
100
AcDbBlockEnd
  0
BLOCK
  5
12E
330
12D
100
AcDbEntity
  8
0
100
AcDbBlockBegin
  2
KLON12
 70
     0
 71
     0
 10
0.0
 20
0.0
 30
0.0
  3
KLON12
  1

  4
KLON12
  0
LINE
  5
130
330
12D
100
AcDbEntity
  8
LC-001-100-D00-0
 62
     7
370
    15
100
AcDbLine
 10
176.203684
 20
261.357291
 30
0.0
 11
175.85259
 21
261.540054
 31
0.0
  0
LINE
  5
131
330
12D
100
AcDbEntity
  8
LC-001-100-D00-0
 62
     7
370
    15
100
AcDbLine
 10
175.85259
 20
261.540054
 30
0.0
 11
175.501495
 21
261.722817
 31
0.0
  0
LINE
  5
132
330
12D
100
AcDbEntity
  8
LC-001-100-D00-0
 62
     7
370
    15
100
AcDbLine
 10
175.501495
 20
261.722817
 30
0.0
 11
174.953685
 21
262.007995
 31
0.0
  0
ENDBLK
  5
12F
330
12D
100
AcDbEntity
  8
0
100
AcDbBlockEnd
  0
BLOCK
  5
135
330
134
100
AcDbEntity
  8
0
100
AcDbBlockBegin
  2
KLON13
 70
     0
 71
     0
 10
0.0
 20
0.0
 30
0.0
  3
KLON13
  1

  4
KLON13
  0
LINE
  5
137
330
134
100
AcDbEntity
  8
LC-001-100-D00-0
 62
     7
370
    15
100
AcDbLine
 10
170.953684
 20
266.507997
 30
0.0
 11
170.602589
 21
266.325219
 31
0.0
  0
LINE
  5
138
330
134
100
AcDbEntity
  8
LC-001-100-D00-0
 62
     7
370
    15
100
AcDbLine
 10
170.602589
 20
266.325219
 30
0.0
 11
170.251495
 21
266.142456
 31
0.0
  0
LINE
  5
139
330
134
100
AcDbEntity
  8
LC-001-100-D00-0
 62
     7
370
    15
100
AcDbLine
 10
170.251495
 20
266.142456
 30
0.0
 11
169.703686
 21
265.857278
 31
0.0
  0
ENDBLK
  5
136
330
134
100
AcDbEntity
  8
0
100
AcDbBlockEnd
  0
BLOCK
  5
13C
330
13B
100
AcDbEntity
  8
0
100
AcDbBlockBegin
  2
KLON14
 70
     0
 71
     0
 10
0.0
 20
0.0
 30
0.0
  3
KLON14
  1

  4
KLON14
  0
LINE
  5
13E
330
13B
100
AcDbEntity
  8
LC-001-100-D00-0
 62
     7
370
    15
100
AcDbLine
 10
176.203684
 20
264.357282
 30
0.0
 11
175.85259
 21
264.54006
 31
0.0
  0
LINE
  5
13F
330
13B
100
AcDbEntity
  8
LC-001-100-D00-0
 62
     7
370
    15
100
AcDbLine
 10
175.85259
 20
264.54006
 30
0.0
 11
175.501495
 21
264.722823
 31
0.0
  0
LINE
  5
140
330
13B
100
AcDbEntity
  8
LC-001-100-D00-0
 62
     7
370
    15
100
AcDbLine
 10
175.501495
 20
264.722823
 30
0.0
 11
174.953685
 21
265.008001
 31
0.0
  0
ENDBLK
  5
13D
330
13B
100
AcDbEntity
  8
0
100
AcDbBlockEnd
  0
BLOCK
  5
143
330
142
100
AcDbEntity
  8
0
100
AcDbBlockBegin
  2
KLON15
 70
     0
 71
     0
 10
0.0
 20
0.0
 30
0.0
  3
KLON15
  1

  4
KLON15
  0
LINE
  5
145
330
142
100
AcDbEntity
  8
LC-001-100-D00-0
 62
     7
370
    15
100
AcDbLine
 10
170.953684
 20
275.508
 30
0.0
 11
170.602589
 21
275.325222
 31
0.0
  0
LINE
  5
146
330
142
100
AcDbEntity
  8
LC-001-100-D00-0
 62
     7
370
    15
100
AcDbLine
 10
170.602589
 20
275.325222
 30
0.0
 11
170.251495
 21
275.14246
 31
0.0
  0
LINE
  5
147
330
142
100
AcDbEntity
  8
LC-001-100-D00-0
 62
     7
370
    15
100
AcDbLine
 10
170.251495
 20
275.14246
 30
0.0
 11
169.703686
 21
274.857281
 31
0.0
  0
ENDBLK
  5
144
330
142
100
AcDbEntity
  8
0
100
AcDbBlockEnd
  0
BLOCK
  5
14A
330
149
100
AcDbEntity
  8
0
100
AcDbBlockBegin
  2
POLY13
 70
     0
 71
     0
 10
0.0
 20
0.0
 30
0.0
  3
POLY13
  1

  4
POLY13
  0
LINE
  5
14C
330
149
100
AcDbEntity
  8
LC-001-100-D00-0
 62
     7
370
    50
100
AcDbLine
 10
169.703686
 20
274.857281
 30
0.0
 11
169.703686
 21
274.857281
 31
0.0
  0
LINE
  5
14D
330
149
100
AcDbEntity
  8
LC-001-100-D00-0
 62
     7
370
    50
100
AcDbLine
 10
169.703686
 20
274.857281
 30
0.0
 11
169.70369
 21
274.856546
 31
0.0
  0
LINE
  5
14E
330
149
100
AcDbEntity
  8
LC-001-100-D00-0
 62
     7
370
    50
100
AcDbLine
 10
169.70369
 20
274.856546
 30
0.0
 11
169.70369
 21
274.856546
 31
0.0
  0
LINE
  5
14F
330
149
100
AcDbEntity
  8
LC-001-100-D00-0
 62
     7
370
    50
100
AcDbLine
 10
169.70369
 20
274.856546
 30
0.0
 11
169.703988
 21
274.805468
 31
0.0
  0
LINE
  5
150
330
149
100
AcDbEntity
  8
LC-001-100-D00-0
 62
     7
370
    50
100
AcDbLine
 10
169.703988
 20
274.805468
 30
0.0
 11
169.703988
 21
274.805468
 31
0.0
  0
LINE
  5
151
330
149
100
AcDbEntity
  8
LC-001-100-D00-0
 62
     7
370
    50
100
AcDbLine
 10
169.703988
 20
274.805468
 30
0.0
 11
169.803875
 21
274.758175
 31
0.0
  0
LINE
  5
152
330
149
100
AcDbEntity
  8
LC-001-100-D00-0
 62
     7
370
    50
100
AcDbLine
 10
169.803875
 20
274.758175
 30
0.0
 11
169.803875
 21
274.758175
 31
0.0
  0
LINE
  5
153
330
149
100
AcDbEntity
  8
LC-001-100-D00-0
 62
     7
370
    50
100
AcDbLine
 10
169.803875
 20
274.758175
 30
0.0
 11
169.902324
 21
274.711563
 31
0.0
  0
ENDBLK
  5
14B
330
149
100
AcDbEntity
  8
0
100
AcDbBlockEnd
  0
BLOCK
  5
157
330
156
100
AcDbEntity
  8
0
100
AcDbBlockBegin
  2
KLON16
 70
     0
 71
     0
 10
0.0
 20
0.0
 30
0.0
  3
KLON16
  1

  4
KLON16
  0
LINE
  5
159
330
156
100
AcDbEntity
  8
LC-001-100-D00-0
 62
     7
370
    15
100
AcDbLine
 10
176.203684
 20
273.357286
 30
0.0
 11
175.85259
 21
273.540048
 31
0.0
  0
LINE
  5
15A
330
156
100
AcDbEntity
  8
LC-001-100-D00-0
 62
     7
370
    15
100
AcDbLine
 10
175.85259
 20
273.540048
 30
0.0
 11
175.501495
 21
273.722826
 31
0.0
  0
LINE
  5
15B
330
156
100
AcDbEntity
  8
LC-001-100-D00-0
 62
     7
370
    15
100
AcDbLine
 10
175.501495
 20
273.722826
 30
0.0
 11
174.953685
 21
274.007989
 31
0.0
  0
ENDBLK
  5
158
330
156
100
AcDbEntity
  8
0
100
AcDbBlockEnd
  0
BLOCK
  5
15E
330
15D
100
AcDbEntity
  8
0
100
AcDbBlockBegin
  2
KLON17
 70
     0
 71
     0
 10
0.0
 20
0.0
 30
0.0
  3
KLON17
  1

  4
KLON17
  0
LINE
  5
160
330
15D
100
AcDbEntity
  8
LC-001-100-D00-0
 62
     7
370
    15
100
AcDbLine
 10
169.703686
 20
274.857281
 30
0.0
 11
170.054779
 21
274.674518
 31
0.0
  0
LINE
  5
161
330
15D
100
AcDbEntity
  8
LC-001-100-D00-0
 62
     7
370
    15
100
AcDbLine
 10
170.054779
 20
274.674518
 30
0.0
 11
170.405875
 21
274.491741
 31
0.0
  0
LINE
  5
162
330
15D
100
AcDbEntity
  8
LC-001-100-D00-0
 62
     7
370
    15
100
AcDbLine
 10
170.405875
 20
274.491741
 30
0.0
 11
170.953684
 21
274.206577
 31
0.0
  0
ENDBLK
  5
15F
330
15D
100
AcDbEntity
  8
0
100
AcDbBlockEnd
  0
BLOCK
  5
165
330
164
100
AcDbEntity
  8
0
100
AcDbBlockBegin
  2
KLON18
 70
     0
 71
     0
 10
0.0
 20
0.0
 30
0.0
  3
KLON18
  1

  4
KLON18
  0
LINE
  5
167
330
164
100
AcDbEntity
  8
LC-001-100-D00-0
 62
     7
370
    15
100
AcDbLine
 10
174.953685
 20
272.706582
 30
0.0
 11
175.304781
 21
272.889344
 31
0.0
  0
LINE
  5
168
330
164
100
AcDbEntity
  8
LC-001-100-D00-0
 62
     7
370
    15
100
AcDbLine
 10
175.304781
 20
272.889344
 30
0.0
 11
175.655874
 21
273.072107
 31
0.0
  0
LINE
  5
169
330
164
100
AcDbEntity
  8
LC-001-100-D00-0
 62
     7
370
    15
100
AcDbLine
 10
175.655874
 20
273.072107
 30
0.0
 11
176.203684
 21
273.357286
 31
0.0
  0
ENDBLK
  5
166
330
164
100
AcDbEntity
  8
0
100
AcDbBlockEnd
  0
BLOCK
  5
16C
330
16B
100
AcDbEntity
  8
0
100
AcDbBlockBegin
  2
KLON19
 70
     0
 71
     0
 10
0.0
 20
0.0
 30
0.0
  3
KLON19
  1

  4
KLON19
  0
LINE
  5
16E
330
16B
100
AcDbEntity
  8
LC-001-100-D00-0
 62
     7
370
    15
100
AcDbLine
 10
169.703686
 20
262.857287
 30
0.0
 11
170.054779
 21
262.674524
 31
0.0
  0
LINE
  5
16F
330
16B
100
AcDbEntity
  8
LC-001-100-D00-0
 62
     7
370
    15
100
AcDbLine
 10
170.054779
 20
262.674524
 30
0.0
 11
170.405875
 21
262.491746
 31
0.0
  0
LINE
  5
170
330
16B
100
AcDbEntity
  8
LC-001-100-D00-0
 62
     7
370
    15
100
AcDbLine
 10
170.405875
 20
262.491746
 30
0.0
 11
170.953684
 21
262.206583
 31
0.0
  0
ENDBLK
  5
16D
330
16B
100
AcDbEntity
  8
0
100
AcDbBlockEnd
  0
BLOCK
  5
173
330
172
100
AcDbEntity
  8
0
100
AcDbBlockBegin
  2
KLON20
 70
     0
 71
     0
 10
0.0
 20
0.0
 30
0.0
  3
KLON20
  1

  4
KLON20
  0
LINE
  5
175
330
172
100
AcDbEntity
  8
LC-001-100-D00-0
 62
     7
370
    15
100
AcDbLine
 10
174.953685
 20
260.706572
 30
0.0
 11
175.304781
 21
260.88935
 31
0.0
  0
LINE
  5
176
330
172
100
AcDbEntity
  8
LC-001-100-D00-0
 62
     7
370
    15
100
AcDbLine
 10
175.304781
 20
260.88935
 30
0.0
 11
175.655874
 21
261.072113
 31
0.0
  0
LINE
  5
177
330
172
100
AcDbEntity
  8
LC-001-100-D00-0
 62
     7
370
    15
100
AcDbLine
 10
175.655874
 20
261.072113
 30
0.0
 11
176.203684
 21
261.357291
 31
0.0
  0
ENDBLK
  5
174
330
172
100
AcDbEntity
  8
0
100
AcDbBlockEnd
  0
BLOCK
  5
19B
330
19A
100
AcDbEntity
  8
0
100
AcDbBlockBegin
  2
POLY14
 70
     0
 71
     0
 10
0.0
 20
0.0
 30
0.0
  3
POLY14
  1

  4
POLY14
  0
LINE
  5
19D
330
19A
100
AcDbEntity
  8
LC-001-100-D00-0
 62
     7
370
    50
100
AcDbLine
 10
170.043032
 20
279.512404
 30
0.0
 11
170.043032
 21
279.512404
 31
0.0
  0
LINE
  5
19E
330
19A
100
AcDbEntity
  8
LC-001-100-D00-0
 62
     7
370
    50
100
AcDbLine
 10
170.043032
 20
279.512404
 30
0.0
 11
170.019865
 21
279.510414
 31
0.0
  0
LINE
  5
19F
330
19A
100
AcDbEntity
  8
LC-001-100-D00-0
 62
     7
370
    50
100
AcDbLine
 10
170.019865
 20
279.510414
 30
0.0
 11
170.019865
 21
279.510414
 31
0.0
  0
LINE
  5
1A0
330
19A
100
AcDbEntity
  8
LC-001-100-D00-0
 62
     7
370
    50
100
AcDbLine
 10
170.019865
 20
279.510414
 30
0.0
 11
169.988451
 21
279.507716
 31
0.0
  0
LINE
  5
1A1
330
19A
100
AcDbEntity
  8
LC-001-100-D00-0
 62
     7
370
    50
100
AcDbLine
 10
169.988451
 20
279.507716
 30
0.0
 11
169.988451
 21
279.507716
 31
0.0
  0
LINE
  5
1A2
330
19A
100
AcDbEntity
  8
LC-001-100-D00-0
 62
     7
370
    50
100
AcDbLine
 10
169.988451
 20
279.507716
 30
0.0
 11
169.960009
 21
279.494787
 31
0.0
  0
LINE
  5
1A3
330
19A
100
AcDbEntity
  8
LC-001-100-D00-0
 62
     7
370
    50
100
AcDbLine
 10
169.960009
 20
279.494787
 30
0.0
 11
169.960009
 21
279.494787
 31
0.0
  0
LINE
  5
1A4
330
19A
100
AcDbEntity
  8
LC-001-100-D00-0
 62
     7
370
    50
100
AcDbLine
 10
169.960009
 20
279.494787
 30
0.0
 11
169.952542
 21
279.491393
 31
0.0
  0
ENDBLK
  5
19C
330
19A
100
AcDbEntity
  8
0
100
AcDbBlockEnd
  0
BLOCK
  5
1A7
330
1A6
100
AcDbEntity
  8
0
100
AcDbBlockBegin
  2
POLY15
 70
     0
 71
     0
 10
0.0
 20
0.0
 30
0.0
  3
POLY15
  1

  4
POLY15
  0
LINE
  5
1A9
330
1A6
100
AcDbEntity
  8
LC-001-100-D00-0
 62
     7
370
    50
100
AcDbLine
 10
175.954827
 20
279.491393
 30
0.0
 11
175.954827
 21
279.491393
 31
0.0
  0
LINE
  5
1AA
330
1A6
100
AcDbEntity
  8
LC-001-100-D00-0
 62
     7
370
    50
100
AcDbLine
 10
175.954827
 20
279.491393
 30
0.0
 11
175.933152
 21
279.499809
 31
0.0
  0
LINE
  5
1AB
330
1A6
100
AcDbEntity
  8
LC-001-100-D00-0
 62
     7
370
    50
100
AcDbLine
 10
175.933152
 20
279.499809
 30
0.0
 11
175.933152
 21
279.499809
 31
0.0
  0
LINE
  5
1AC
330
1A6
100
AcDbEntity
  8
LC-001-100-D00-0
 62
     7
370
    50
100
AcDbLine
 10
175.933152
 20
279.499809
 30
0.0
 11
175.903763
 21
279.51122
 31
0.0
  0
LINE
  5
1AD
330
1A6
100
AcDbEntity
  8
LC-001-100-D00-0
 62
     7
370
    50
100
AcDbLine
 10
175.903763
 20
279.51122
 30
0.0
 11
175.903763
 21
279.51122
 31
0.0
  0
LINE
  5
1AE
330
1A6
100
AcDbEntity
  8
LC-001-100-D00-0
 62
     7
370
    50
100
AcDbLine
 10
175.903763
 20
279.51122
 30
0.0
 11
175.872535
 21
279.512158
 31
0.0
  0
LINE
  5
1AF
330
1A6
100
AcDbEntity
  8
LC-001-100-D00-0
 62
     7
370
    50
100
AcDbLine
 10
175.872535
 20
279.512158
 30
0.0
 11
175.872535
 21
279.512158
 31
0.0
  0
LINE
  5
1B0
330
1A6
100
AcDbEntity
  8
LC-001-100-D00-0
 62
     7
370
    50
100
AcDbLine
 10
175.872535
 20
279.512158
 30
0.0
 11
175.864338
 21
279.512404
 31
0.0
  0
ENDBLK
  5
1A8
330
1A6
100
AcDbEntity
  8
0
100
AcDbBlockEnd
  0
BLOCK
  5
1FB
330
1FA
100
AcDbEntity
  8
0
100
AcDbBlockBegin
  2
POLY16
 70
     0
 71
     0
 10
0.0
 20
0.0
 30
0.0
  3
POLY16
  1

  4
POLY16
  0
LINE
  5
1FD
330
1FA
100
AcDbEntity
  8
LC-001-100-D00-0
 62
     7
370
    50
100
AcDbLine
 10
35.117331
 20
274.512409
 30
0.0
 11
35.117331
 21
274.512409
 31
0.0
  0
LINE
  5
1FE
330
1FA
100
AcDbEntity
  8
LC-001-100-D00-0
 62
     7
370
    50
100
AcDbLine
 10
35.117331
 20
274.512409
 30
0.0
 11
35.117972
 21
274.509517
 31
0.0
  0
LINE
  5
1FF
330
1FA
100
AcDbEntity
  8
LC-001-100-D00-0
 62
     7
370
    50
100
AcDbLine
 10
35.117972
 20
274.509517
 30
0.0
 11
35.117972
 21
274.509517
 31
0.0
  0
LINE
  5
200
330
1FA
100
AcDbEntity
  8
LC-001-100-D00-0
 62
     7
370
    50
100
AcDbLine
 10
35.117972
 20
274.509517
 30
0.0
 11
35.13663
 21
274.42543
 31
0.0
  0
LINE
  5
201
330
1FA
100
AcDbEntity
  8
LC-001-100-D00-0
 62
     7
370
    50
100
AcDbLine
 10
35.13663
 20
274.42543
 30
0.0
 11
35.13663
 21
274.42543
 31
0.0
  0
LINE
  5
202
330
1FA
100
AcDbEntity
  8
LC-001-100-D00-0
 62
     7
370
    50
100
AcDbLine
 10
35.13663
 20
274.42543
 30
0.0
 11
35.1897
 21
274.233662
 31
0.0
  0
LINE
  5
203
330
1FA
100
AcDbEntity
  8
LC-001-100-D00-0
 62
     7
370
    50
100
AcDbLine
 10
35.1897
 20
274.233662
 30
0.0
 11
35.1897
 21
274.233662
 31
0.0
  0
LINE
  5
204
330
1FA
100
AcDbEntity
  8
LC-001-100-D00-0
 62
     7
370
    50
100
AcDbLine
 10
35.1897
 20
274.233662
 30
0.0
 11
35.264786
 21
274.020202
 31
0.0
  0
LINE
  5
205
330
1FA
100
AcDbEntity
  8
LC-001-100-D00-0
 62
     7
370
    50
100
AcDbLine
 10
35.264786
 20
274.020202
 30
0.0
 11
35.264786
 21
274.020202
 31
0.0
  0
LINE
  5
206
330
1FA
100
AcDbEntity
  8
LC-001-100-D00-0
 62
     7
370
    50
100
AcDbLine
 10
35.264786
 20
274.020202
 30
0.0
 11
35.32239
 21
273.92279
 31
0.0
  0
LINE
  5
207
330
1FA
100
AcDbEntity
  8
LC-001-100-D00-0
 62
     7
370
    50
100
AcDbLine
 10
35.32239
 20
273.92279
 30
0.0
 11
35.32239
 21
273.92279
 31
0.0
  0
LINE
  5
208
330
1FA
100
AcDbEntity
  8
LC-001-100-D00-0
 62
     7
370
    50
100
AcDbLine
 10
35.32239
 20
273.92279
 30
0.0
 11
35.332668
 21
273.90541
 31
0.0
  0
ENDBLK
  5
1FC
330
1FA
100
AcDbEntity
  8
0
100
AcDbBlockEnd
  0
BLOCK
  5
306
330
305
100
AcDbEntity
  8
0
100
AcDbBlockBegin
  2
KLON21
 70
     0
 71
     0
 10
0.0
 20
0.0
 30
0.0
  3
KLON21
  1

  4
KLON21
  0
LINE
  5
308
330
305
100
AcDbEntity
  8
LC-001-100-D00-0
 62
     7
370
    15
100
AcDbLine
 10
125.444065
 20
346.636517
 30
0.0
 11
125.097192
 21
347.440688
 31
0.0
  0
LINE
  5
309
330
305
100
AcDbEntity
  8
LC-001-100-D00-0
 62
     7
370
    15
100
AcDbLine
 10
125.097192
 20
347.440688
 30
0.0
 11
124.920281
 21
347.803979
 31
0.0
  0
ENDBLK
  5
307
330
305
100
AcDbEntity
  8
0
100
AcDbBlockEnd
  0
BLOCK
  5
315
330
314
100
AcDbEntity
  8
0
100
AcDbBlockBegin
  2
KLON22
 70
     0
 71
     0
 10
0.0
 20
0.0
 30
0.0
  3
KLON22
  1

  4
KLON22
  0
LINE
  5
317
330
314
100
AcDbEntity
  8
LC-001-100-D00-0
 62
     7
370
    15
100
AcDbLine
 10
80.987091
 20
347.803979
 30
0.0
 11
80.810177
 21
347.440688
 31
0.0
  0
LINE
  5
318
330
314
100
AcDbEntity
  8
LC-001-100-D00-0
 62
     7
370
    15
100
AcDbLine
 10
80.810177
 20
347.440688
 30
0.0
 11
80.463308
 21
346.636517
 31
0.0
  0
ENDBLK
  5
316
330
314
100
AcDbEntity
  8
0
100
AcDbBlockEnd
  0
BLOCK
  5
33E
330
33D
100
AcDbEntity
  8
0
100
AcDbBlockBegin
  2
POLY17
 70
     0
 71
     0
 10
0.0
 20
0.0
 30
0.0
  3
POLY17
  1

  4
POLY17
  0
LINE
  5
340
330
33D
100
AcDbEntity
  8
LC-001-100-D00-0
 62
     7
370
    50
100
AcDbLine
 10
30.980329
 20
272.587164
 30
0.0
 11
30.980329
 21
272.587164
 31
0.0
  0
LINE
  5
341
330
33D
100
AcDbEntity
  8
LC-001-100-D00-0
 62
     7
370
    50
100
AcDbLine
 10
30.980329
 20
272.587164
 30
0.0
 11
30.864743
 21
272.523534
 31
0.0
  0
LINE
  5
342
330
33D
100
AcDbEntity
  8
LC-001-100-D00-0
 62
     7
370
    50
100
AcDbLine
 10
30.864743
 20
272.523534
 30
0.0
 11
30.864743
 21
272.523534
 31
0.0
  0
LINE
  5
343
330
33D
100
AcDbEntity
  8
LC-001-100-D00-0
 62
     7
370
    50
100
AcDbLine
 10
30.864743
 20
272.523534
 30
0.0
 11
30.633573
 21
272.396277
 31
0.0
  0
LINE
  5
344
330
33D
100
AcDbEntity
  8
LC-001-100-D00-0
 62
     7
370
    50
100
AcDbLine
 10
30.633573
 20
272.396277
 30
0.0
 11
30.633573
 21
272.396277
 31
0.0
  0
LINE
  5
345
330
33D
100
AcDbEntity
  8
LC-001-100-D00-0
 62
     7
370
    50
100
AcDbLine
 10
30.633573
 20
272.396277
 30
0.0
 11
30.213523
 21
272.169148
 31
0.0
  0
LINE
  5
346
330
33D
100
AcDbEntity
  8
LC-001-100-D00-0
 62
     7
370
    50
100
AcDbLine
 10
30.213523
 20
272.169148
 30
0.0
 11
30.213523
 21
272.169148
 31
0.0
  0
LINE
  5
347
330
33D
100
AcDbEntity
  8
LC-001-100-D00-0
 62
     7
370
    50
100
AcDbLine
 10
30.213523
 20
272.169148
 30
0.0
 11
29.908728
 21
272.006283
 31
0.0
  0
LINE
  5
348
330
33D
100
AcDbEntity
  8
LC-001-100-D00-0
 62
     7
370
    50
100
AcDbLine
 10
29.908728
 20
272.006283
 30
0.0
 11
29.908728
 21
272.006283
 31
0.0
  0
LINE
  5
349
330
33D
100
AcDbEntity
  8
LC-001-100-D00-0
 62
     7
370
    50
100
AcDbLine
 10
29.908728
 20
272.006283
 30
0.0
 11
29.720302
 21
271.9056
 31
0.0
  0
ENDBLK
  5
33F
330
33D
100
AcDbEntity
  8
0
100
AcDbBlockEnd
  0
BLOCK
  5
34C
330
34B
100
AcDbEntity
  8
0
100
AcDbBlockBegin
  2
POLY18
 70
     0
 71
     0
 10
0.0
 20
0.0
 30
0.0
  3
POLY18
  1

  4
POLY18
  0
LINE
  5
34E
330
34B
100
AcDbEntity
  8
LC-001-100-D00-0
 62
     7
370
    50
100
AcDbLine
 10
29.720302
 20
271.9056
 30
0.0
 11
29.720302
 21
271.9056
 31
0.0
  0
LINE
  5
34F
330
34B
100
AcDbEntity
  8
LC-001-100-D00-0
 62
     7
370
    50
100
AcDbLine
 10
29.720302
 20
271.9056
 30
0.0
 11
29.711039
 21
271.888615
 31
0.0
  0
LINE
  5
350
330
34B
100
AcDbEntity
  8
LC-001-100-D00-0
 62
     7
370
    50
100
AcDbLine
 10
29.711039
 20
271.888615
 30
0.0
 11
29.711039
 21
271.888615
 31
0.0
  0
LINE
  5
351
330
34B
100
AcDbEntity
  8
LC-001-100-D00-0
 62
     7
370
    50
100
AcDbLine
 10
29.711039
 20
271.888615
 30
0.0
 11
29.679388
 21
271.830577
 31
0.0
  0
LINE
  5
352
330
34B
100
AcDbEntity
  8
LC-001-100-D00-0
 62
     7
370
    50
100
AcDbLine
 10
29.679388
 20
271.830577
 30
0.0
 11
29.679388
 21
271.830577
 31
0.0
  0
LINE
  5
353
330
34B
100
AcDbEntity
  8
LC-001-100-D00-0
 62
     7
370
    50
100
AcDbLine
 10
29.679388
 20
271.830577
 30
0.0
 11
29.787158
 21
271.777659
 31
0.0
  0
LINE
  5
354
330
34B
100
AcDbEntity
  8
LC-001-100-D00-0
 62
     7
370
    50
100
AcDbLine
 10
29.787158
 20
271.777659
 30
0.0
 11
29.787158
 21
271.777659
 31
0.0
  0
LINE
  5
355
330
34B
100
AcDbEntity
  8
LC-001-100-D00-0
 62
     7
370
    50
100
AcDbLine
 10
29.787158
 20
271.777659
 30
0.0
 11
29.86339
 21
271.740226
 31
0.0
  0
ENDBLK
  5
34D
330
34B
100
AcDbEntity
  8
0
100
AcDbBlockEnd
  0
BLOCK
  5
358
330
357
100
AcDbEntity
  8
0
100
AcDbBlockBegin
  2
POLY19
 70
     0
 71
     0
 10
0.0
 20
0.0
 30
0.0
  3
POLY19
  1

  4
POLY19
  0
LINE
  5
35A
330
357
100
AcDbEntity
  8
LC-001-100-D00-0
 62
     7
370
    50
100
AcDbLine
 10
36.023254
 20
270.498215
 30
0.0
 11
36.023254
 21
270.498215
 31
0.0
  0
LINE
  5
35B
330
357
100
AcDbEntity
  8
LC-001-100-D00-0
 62
     7
370
    50
100
AcDbLine
 10
36.023254
 20
270.498215
 30
0.0
 11
36.112414
 21
270.449688
 31
0.0
  0
LINE
  5
35C
330
357
100
AcDbEntity
  8
LC-001-100-D00-0
 62
     7
370
    50
100
AcDbLine
 10
36.112414
 20
270.449688
 30
0.0
 11
36.112414
 21
270.449688
 31
0.0
  0
LINE
  5
35D
330
357
100
AcDbEntity
  8
LC-001-100-D00-0
 62
     7
370
    50
100
AcDbLine
 10
36.112414
 20
270.449688
 30
0.0
 11
36.230848
 21
270.38523
 31
0.0
  0
LINE
  5
35E
330
357
100
AcDbEntity
  8
LC-001-100-D00-0
 62
     7
370
    50
100
AcDbLine
 10
36.230848
 20
270.38523
 30
0.0
 11
36.230848
 21
270.38523
 31
0.0
  0
LINE
  5
35F
330
357
100
AcDbEntity
  8
LC-001-100-D00-0
 62
     7
370
    50
100
AcDbLine
 10
36.230848
 20
270.38523
 30
0.0
 11
36.196923
 21
270.325099
 31
0.0
  0
LINE
  5
360
330
357
100
AcDbEntity
  8
LC-001-100-D00-0
 62
     7
370
    50
100
AcDbLine
 10
36.196923
 20
270.325099
 30
0.0
 11
36.196923
 21
270.325099
 31
0.0
  0
LINE
  5
361
330
357
100
AcDbEntity
  8
LC-001-100-D00-0
 62
     7
370
    50
100
AcDbLine
 10
36.196923
 20
270.325099
 30
0.0
 11
36.188538
 21
270.310237
 31
0.0
  0
ENDBLK
  5
359
330
357
100
AcDbEntity
  8
0
100
AcDbBlockEnd
  0
BLOCK
  5
364
330
363
100
AcDbEntity
  8
0
100
AcDbBlockBegin
  2
POLY20
 70
     0
 71
     0
 10
0.0
 20
0.0
 30
0.0
  3
POLY20
  1

  4
POLY20
  0
LINE
  5
366
330
363
100
AcDbEntity
  8
LC-001-100-D00-0
 62
     7
370
    50
100
AcDbLine
 10
36.188538
 20
270.310237
 30
0.0
 11
36.188538
 21
270.310237
 31
0.0
  0
LINE
  5
367
330
363
100
AcDbEntity
  8
LC-001-100-D00-0
 62
     7
370
    50
100
AcDbLine
 10
36.188538
 20
270.310237
 30
0.0
 11
36.070652
 21
270.369482
 31
0.0
  0
LINE
  5
368
330
363
100
AcDbEntity
  8
LC-001-100-D00-0
 62
     7
370
    50
100
AcDbLine
 10
36.070652
 20
270.369482
 30
0.0
 11
36.070652
 21
270.369482
 31
0.0
  0
LINE
  5
369
330
363
100
AcDbEntity
  8
LC-001-100-D00-0
 62
     7
370
    50
100
AcDbLine
 10
36.070652
 20
270.369482
 30
0.0
 11
35.834875
 21
270.487978
 31
0.0
  0
LINE
  5
36A
330
363
100
AcDbEntity
  8
LC-001-100-D00-0
 62
     7
370
    50
100
AcDbLine
 10
35.834875
 20
270.487978
 30
0.0
 11
35.834875
 21
270.487978
 31
0.0
  0
LINE
  5
36B
330
363
100
AcDbEntity
  8
LC-001-100-D00-0
 62
     7
370
    50
100
AcDbLine
 10
35.834875
 20
270.487978
 30
0.0
 11
35.415572
 21
270.696745
 31
0.0
  0
LINE
  5
36C
330
363
100
AcDbEntity
  8
LC-001-100-D00-0
 62
     7
370
    50
100
AcDbLine
 10
35.415572
 20
270.696745
 30
0.0
 11
35.415572
 21
270.696745
 31
0.0
  0
LINE
  5
36D
330
363
100
AcDbEntity
  8
LC-001-100-D00-0
 62
     7
370
    50
100
AcDbLine
 10
35.415572
 20
270.696745
 30
0.0
 11
35.112644
 21
270.843175
 31
0.0
  0
LINE
  5
36E
330
363
100
AcDbEntity
  8
LC-001-100-D00-0
 62
     7
370
    50
100
AcDbLine
 10
35.112644
 20
270.843175
 30
0.0
 11
35.112644
 21
270.843175
 31
0.0
  0
LINE
  5
36F
330
363
100
AcDbEntity
  8
LC-001-100-D00-0
 62
     7
370
    50
100
AcDbLine
 10
35.112644
 20
270.843175
 30
0.0
 11
34.928511
 21
270.932181
 31
0.0
  0
ENDBLK
  5
365
330
363
100
AcDbEntity
  8
0
100
AcDbBlockEnd
  0
BLOCK
  5
373
330
372
100
AcDbEntity
  8
0
100
AcDbBlockBegin
  2
POLY21
 70
     0
 71
     0
 10
0.0
 20
0.0
 30
0.0
  3
POLY21
  1

  4
POLY21
  0
LINE
  5
375
330
372
100
AcDbEntity
  8
LC-001-100-D00-0
 62
     7
370
    50
100
AcDbLine
 10
30.980329
 20
263.58716
 30
0.0
 11
30.980329
 21
263.58716
 31
0.0
  0
LINE
  5
376
330
372
100
AcDbEntity
  8
LC-001-100-D00-0
 62
     7
370
    50
100
AcDbLine
 10
30.980329
 20
263.58716
 30
0.0
 11
30.864743
 21
263.523531
 31
0.0
  0
LINE
  5
377
330
372
100
AcDbEntity
  8
LC-001-100-D00-0
 62
     7
370
    50
100
AcDbLine
 10
30.864743
 20
263.523531
 30
0.0
 11
30.864743
 21
263.523531
 31
0.0
  0
LINE
  5
378
330
372
100
AcDbEntity
  8
LC-001-100-D00-0
 62
     7
370
    50
100
AcDbLine
 10
30.864743
 20
263.523531
 30
0.0
 11
30.633573
 21
263.396274
 31
0.0
  0
LINE
  5
379
330
372
100
AcDbEntity
  8
LC-001-100-D00-0
 62
     7
370
    50
100
AcDbLine
 10
30.633573
 20
263.396274
 30
0.0
 11
30.633573
 21
263.396274
 31
0.0
  0
LINE
  5
37A
330
372
100
AcDbEntity
  8
LC-001-100-D00-0
 62
     7
370
    50
100
AcDbLine
 10
30.633573
 20
263.396274
 30
0.0
 11
30.213523
 21
263.169145
 31
0.0
  0
LINE
  5
37B
330
372
100
AcDbEntity
  8
LC-001-100-D00-0
 62
     7
370
    50
100
AcDbLine
 10
30.213523
 20
263.169145
 30
0.0
 11
30.213523
 21
263.169145
 31
0.0
  0
LINE
  5
37C
330
372
100
AcDbEntity
  8
LC-001-100-D00-0
 62
     7
370
    50
100
AcDbLine
 10
30.213523
 20
263.169145
 30
0.0
 11
29.908728
 21
263.00628
 31
0.0
  0
LINE
  5
37D
330
372
100
AcDbEntity
  8
LC-001-100-D00-0
 62
     7
370
    50
100
AcDbLine
 10
29.908728
 20
263.00628
 30
0.0
 11
29.908728
 21
263.00628
 31
0.0
  0
LINE
  5
37E
330
372
100
AcDbEntity
  8
LC-001-100-D00-0
 62
     7
370
    50
100
AcDbLine
 10
29.908728
 20
263.00628
 30
0.0
 11
29.720302
 21
262.905596
 31
0.0
  0
ENDBLK
  5
374
330
372
100
AcDbEntity
  8
0
100
AcDbBlockEnd
  0
BLOCK
  5
381
330
380
100
AcDbEntity
  8
0
100
AcDbBlockBegin
  2
POLY22
 70
     0
 71
     0
 10
0.0
 20
0.0
 30
0.0
  3
POLY22
  1

  4
POLY22
  0
LINE
  5
383
330
380
100
AcDbEntity
  8
LC-001-100-D00-0
 62
     7
370
    50
100
AcDbLine
 10
36.188538
 20
261.310233
 30
0.0
 11
36.188538
 21
261.310233
 31
0.0
  0
LINE
  5
384
330
380
100
AcDbEntity
  8
LC-001-100-D00-0
 62
     7
370
    50
100
AcDbLine
 10
36.188538
 20
261.310233
 30
0.0
 11
36.070653
 21
261.369486
 31
0.0
  0
LINE
  5
385
330
380
100
AcDbEntity
  8
LC-001-100-D00-0
 62
     7
370
    50
100
AcDbLine
 10
36.070653
 20
261.369486
 30
0.0
 11
36.070653
 21
261.369486
 31
0.0
  0
LINE
  5
386
330
380
100
AcDbEntity
  8
LC-001-100-D00-0
 62
     7
370
    50
100
AcDbLine
 10
36.070653
 20
261.369486
 30
0.0
 11
35.834882
 21
261.487994
 31
0.0
  0
LINE
  5
387
330
380
100
AcDbEntity
  8
LC-001-100-D00-0
 62
     7
370
    50
100
AcDbLine
 10
35.834882
 20
261.487994
 30
0.0
 11
35.834882
 21
261.487994
 31
0.0
  0
LINE
  5
388
330
380
100
AcDbEntity
  8
LC-001-100-D00-0
 62
     7
370
    50
100
AcDbLine
 10
35.834882
 20
261.487994
 30
0.0
 11
35.415566
 21
261.696735
 31
0.0
  0
LINE
  5
389
330
380
100
AcDbEntity
  8
LC-001-100-D00-0
 62
     7
370
    50
100
AcDbLine
 10
35.415566
 20
261.696735
 30
0.0
 11
35.415566
 21
261.696735
 31
0.0
  0
LINE
  5
38A
330
380
100
AcDbEntity
  8
LC-001-100-D00-0
 62
     7
370
    50
100
AcDbLine
 10
35.415566
 20
261.696735
 30
0.0
 11
35.112643
 21
261.843168
 31
0.0
  0
LINE
  5
38B
330
380
100
AcDbEntity
  8
LC-001-100-D00-0
 62
     7
370
    50
100
AcDbLine
 10
35.112643
 20
261.843168
 30
0.0
 11
35.112643
 21
261.843168
 31
0.0
  0
LINE
  5
38C
330
380
100
AcDbEntity
  8
LC-001-100-D00-0
 62
     7
370
    50
100
AcDbLine
 10
35.112643
 20
261.843168
 30
0.0
 11
34.928511
 21
261.932178
 31
0.0
  0
ENDBLK
  5
382
330
380
100
AcDbEntity
  8
0
100
AcDbBlockEnd
  0
BLOCK
  5
38F
330
38E
100
AcDbEntity
  8
0
100
AcDbBlockBegin
  2
POLY23
 70
     0
 71
     0
 10
0.0
 20
0.0
 30
0.0
  3
POLY23
  1

  4
POLY23
  0
LINE
  5
391
330
38E
100
AcDbEntity
  8
LC-001-100-D00-0
 62
     7
370
    50
100
AcDbLine
 10
29.720302
 20
265.905602
 30
0.0
 11
29.720302
 21
265.905602
 31
0.0
  0
LINE
  5
392
330
38E
100
AcDbEntity
  8
LC-001-100-D00-0
 62
     7
370
    50
100
AcDbLine
 10
29.720302
 20
265.905602
 30
0.0
 11
29.838229
 21
265.846434
 31
0.0
  0
LINE
  5
393
330
38E
100
AcDbEntity
  8
LC-001-100-D00-0
 62
     7
370
    50
100
AcDbLine
 10
29.838229
 20
265.846434
 30
0.0
 11
29.838229
 21
265.846434
 31
0.0
  0
LINE
  5
394
330
38E
100
AcDbEntity
  8
LC-001-100-D00-0
 62
     7
370
    50
100
AcDbLine
 10
29.838229
 20
265.846434
 30
0.0
 11
30.074086
 21
265.728097
 31
0.0
  0
LINE
  5
395
330
38E
100
AcDbEntity
  8
LC-001-100-D00-0
 62
     7
370
    50
100
AcDbLine
 10
30.074086
 20
265.728097
 30
0.0
 11
30.074086
 21
265.728097
 31
0.0
  0
LINE
  5
396
330
38E
100
AcDbEntity
  8
LC-001-100-D00-0
 62
     7
370
    50
100
AcDbLine
 10
30.074086
 20
265.728097
 30
0.0
 11
30.493322
 21
265.519881
 31
0.0
  0
LINE
  5
397
330
38E
100
AcDbEntity
  8
LC-001-100-D00-0
 62
     7
370
    50
100
AcDbLine
 10
30.493322
 20
265.519881
 30
0.0
 11
30.493322
 21
265.519881
 31
0.0
  0
LINE
  5
398
330
38E
100
AcDbEntity
  8
LC-001-100-D00-0
 62
     7
370
    50
100
AcDbLine
 10
30.493322
 20
265.519881
 30
0.0
 11
30.796283
 21
265.374227
 31
0.0
  0
LINE
  5
399
330
38E
100
AcDbEntity
  8
LC-001-100-D00-0
 62
     7
370
    50
100
AcDbLine
 10
30.796283
 20
265.374227
 30
0.0
 11
30.796283
 21
265.374227
 31
0.0
  0
LINE
  5
39A
330
38E
100
AcDbEntity
  8
LC-001-100-D00-0
 62
     7
370
    50
100
AcDbLine
 10
30.796283
 20
265.374227
 30
0.0
 11
30.980329
 21
265.285744
 31
0.0
  0
ENDBLK
  5
390
330
38E
100
AcDbEntity
  8
0
100
AcDbBlockEnd
  0
BLOCK
  5
39E
330
39D
100
AcDbEntity
  8
0
100
AcDbBlockBegin
  2
POLY24
 70
     0
 71
     0
 10
0.0
 20
0.0
 30
0.0
  3
POLY24
  1

  4
POLY24
  0
LINE
  5
3A0
330
39D
100
AcDbEntity
  8
LC-001-100-D00-0
 62
     7
370
    50
100
AcDbLine
 10
34.928511
 20
263.630761
 30
0.0
 11
34.928511
 21
263.630761
 31
0.0
  0
LINE
  5
3A1
330
39D
100
AcDbEntity
  8
LC-001-100-D00-0
 62
     7
370
    50
100
AcDbLine
 10
34.928511
 20
263.630761
 30
0.0
 11
35.044237
 21
263.694132
 31
0.0
  0
LINE
  5
3A2
330
39D
100
AcDbEntity
  8
LC-001-100-D00-0
 62
     7
370
    50
100
AcDbLine
 10
35.044237
 20
263.694132
 30
0.0
 11
35.044237
 21
263.694132
 31
0.0
  0
LINE
  5
3A3
330
39D
100
AcDbEntity
  8
LC-001-100-D00-0
 62
     7
370
    50
100
AcDbLine
 10
35.044237
 20
263.694132
 30
0.0
 11
35.27569
 21
263.820873
 31
0.0
  0
LINE
  5
3A4
330
39D
100
AcDbEntity
  8
LC-001-100-D00-0
 62
     7
370
    50
100
AcDbLine
 10
35.27569
 20
263.820873
 30
0.0
 11
35.27569
 21
263.820873
 31
0.0
  0
LINE
  5
3A5
330
39D
100
AcDbEntity
  8
LC-001-100-D00-0
 62
     7
370
    50
100
AcDbLine
 10
35.27569
 20
263.820873
 30
0.0
 11
35.695714
 21
264.047352
 31
0.0
  0
LINE
  5
3A6
330
39D
100
AcDbEntity
  8
LC-001-100-D00-0
 62
     7
370
    50
100
AcDbLine
 10
35.695714
 20
264.047352
 30
0.0
 11
35.695714
 21
264.047352
 31
0.0
  0
LINE
  5
3A7
330
39D
100
AcDbEntity
  8
LC-001-100-D00-0
 62
     7
370
    50
100
AcDbLine
 10
35.695714
 20
264.047352
 30
0.0
 11
36.000333
 21
264.209845
 31
0.0
  0
LINE
  5
3A8
330
39D
100
AcDbEntity
  8
LC-001-100-D00-0
 62
     7
370
    50
100
AcDbLine
 10
36.000333
 20
264.209845
 30
0.0
 11
36.000333
 21
264.209845
 31
0.0
  0
LINE
  5
3A9
330
39D
100
AcDbEntity
  8
LC-001-100-D00-0
 62
     7
370
    50
100
AcDbLine
 10
36.000333
 20
264.209845
 30
0.0
 11
36.188538
 21
264.310239
 31
0.0
  0
ENDBLK
  5
39F
330
39D
100
AcDbEntity
  8
0
100
AcDbBlockEnd
  0
BLOCK
  5
3AC
330
3AB
100
AcDbEntity
  8
0
100
AcDbBlockBegin
  2
POLY25
 70
     0
 71
     0
 10
0.0
 20
0.0
 30
0.0
  3
POLY25
  1

  4
POLY25
  0
LINE
  5
3AE
330
3AB
100
AcDbEntity
  8
LC-001-100-D00-0
 62
     7
370
    50
100
AcDbLine
 10
29.720302
 20
271.9056
 30
0.0
 11
29.720302
 21
271.9056
 31
0.0
  0
LINE
  5
3AF
330
3AB
100
AcDbEntity
  8
LC-001-100-D00-0
 62
     7
370
    50
100
AcDbLine
 10
29.720302
 20
271.9056
 30
0.0
 11
29.838229
 21
271.846432
 31
0.0
  0
LINE
  5
3B0
330
3AB
100
AcDbEntity
  8
LC-001-100-D00-0
 62
     7
370
    50
100
AcDbLine
 10
29.838229
 20
271.846432
 30
0.0
 11
29.838229
 21
271.846432
 31
0.0
  0
LINE
  5
3B1
330
3AB
100
AcDbEntity
  8
LC-001-100-D00-0
 62
     7
370
    50
100
AcDbLine
 10
29.838229
 20
271.846432
 30
0.0
 11
30.074086
 21
271.728095
 31
0.0
  0
LINE
  5
3B2
330
3AB
100
AcDbEntity
  8
LC-001-100-D00-0
 62
     7
370
    50
100
AcDbLine
 10
30.074086
 20
271.728095
 30
0.0
 11
30.074086
 21
271.728095
 31
0.0
  0
LINE
  5
3B3
330
3AB
100
AcDbEntity
  8
LC-001-100-D00-0
 62
     7
370
    50
100
AcDbLine
 10
30.074086
 20
271.728095
 30
0.0
 11
30.493322
 21
271.519878
 31
0.0
  0
LINE
  5
3B4
330
3AB
100
AcDbEntity
  8
LC-001-100-D00-0
 62
     7
370
    50
100
AcDbLine
 10
30.493322
 20
271.519878
 30
0.0
 11
30.493322
 21
271.519878
 31
0.0
  0
LINE
  5
3B5
330
3AB
100
AcDbEntity
  8
LC-001-100-D00-0
 62
     7
370
    50
100
AcDbLine
 10
30.493322
 20
271.519878
 30
0.0
 11
30.796283
 21
271.374224
 31
0.0
  0
LINE
  5
3B6
330
3AB
100
AcDbEntity
  8
LC-001-100-D00-0
 62
     7
370
    50
100
AcDbLine
 10
30.796283
 20
271.374224
 30
0.0
 11
30.796283
 21
271.374224
 31
0.0
  0
LINE
  5
3B7
330
3AB
100
AcDbEntity
  8
LC-001-100-D00-0
 62
     7
370
    50
100
AcDbLine
 10
30.796283
 20
271.374224
 30
0.0
 11
30.980329
 21
271.285741
 31
0.0
  0
ENDBLK
  5
3AD
330
3AB
100
AcDbEntity
  8
0
100
AcDbBlockEnd
  0
BLOCK
  5
3BB
330
3BA
100
AcDbEntity
  8
0
100
AcDbBlockBegin
  2
POLY26
 70
     0
 71
     0
 10
0.0
 20
0.0
 30
0.0
  3
POLY26
  1

  4
POLY26
  0
LINE
  5
3BD
330
3BA
100
AcDbEntity
  8
LC-001-100-D00-0
 62
     7
370
    50
100
AcDbLine
 10
34.928511
 20
269.630758
 30
0.0
 11
34.928511
 21
269.630758
 31
0.0
  0
LINE
  5
3BE
330
3BA
100
AcDbEntity
  8
LC-001-100-D00-0
 62
     7
370
    50
100
AcDbLine
 10
34.928511
 20
269.630758
 30
0.0
 11
35.044236
 21
269.694136
 31
0.0
  0
LINE
  5
3BF
330
3BA
100
AcDbEntity
  8
LC-001-100-D00-0
 62
     7
370
    50
100
AcDbLine
 10
35.044236
 20
269.694136
 30
0.0
 11
35.044236
 21
269.694136
 31
0.0
  0
LINE
  5
3C0
330
3BA
100
AcDbEntity
  8
LC-001-100-D00-0
 62
     7
370
    50
100
AcDbLine
 10
35.044236
 20
269.694136
 30
0.0
 11
35.275683
 21
269.820889
 31
0.0
  0
LINE
  5
3C1
330
3BA
100
AcDbEntity
  8
LC-001-100-D00-0
 62
     7
370
    50
100
AcDbLine
 10
35.275683
 20
269.820889
 30
0.0
 11
35.275683
 21
269.820889
 31
0.0
  0
LINE
  5
3C2
330
3BA
100
AcDbEntity
  8
LC-001-100-D00-0
 62
     7
370
    50
100
AcDbLine
 10
35.275683
 20
269.820889
 30
0.0
 11
35.69572
 21
270.047343
 31
0.0
  0
LINE
  5
3C3
330
3BA
100
AcDbEntity
  8
LC-001-100-D00-0
 62
     7
370
    50
100
AcDbLine
 10
35.69572
 20
270.047343
 30
0.0
 11
35.69572
 21
270.047343
 31
0.0
  0
LINE
  5
3C4
330
3BA
100
AcDbEntity
  8
LC-001-100-D00-0
 62
     7
370
    50
100
AcDbLine
 10
35.69572
 20
270.047343
 30
0.0
 11
36.000334
 21
270.209839
 31
0.0
  0
LINE
  5
3C5
330
3BA
100
AcDbEntity
  8
LC-001-100-D00-0
 62
     7
370
    50
100
AcDbLine
 10
36.000334
 20
270.209839
 30
0.0
 11
36.000334
 21
270.209839
 31
0.0
  0
LINE
  5
3C6
330
3BA
100
AcDbEntity
  8
LC-001-100-D00-0
 62
     7
370
    50
100
AcDbLine
 10
36.000334
 20
270.209839
 30
0.0
 11
36.188538
 21
270.310237
 31
0.0
  0
ENDBLK
  5
3BC
330
3BA
100
AcDbEntity
  8
0
100
AcDbBlockEnd
  0
BLOCK
  5
3CA
330
3C9
100
AcDbEntity
  8
0
100
AcDbBlockBegin
  2
POLY27
 70
     0
 71
     0
 10
0.0
 20
0.0
 30
0.0
  3
POLY27
  1

  4
POLY27
  0
LINE
  5
3CC
330
3C9
100
AcDbEntity
  8
LC-001-100-D00-0
 62
     7
370
    50
100
AcDbLine
 10
30.980329
 20
269.587158
 30
0.0
 11
30.980329
 21
269.587158
 31
0.0
  0
LINE
  5
3CD
330
3C9
100
AcDbEntity
  8
LC-001-100-D00-0
 62
     7
370
    50
100
AcDbLine
 10
30.980329
 20
269.587158
 30
0.0
 11
30.864742
 21
269.523536
 31
0.0
  0
LINE
  5
3CE
330
3C9
100
AcDbEntity
  8
LC-001-100-D00-0
 62
     7
370
    50
100
AcDbLine
 10
30.864742
 20
269.523536
 30
0.0
 11
30.864742
 21
269.523536
 31
0.0
  0
LINE
  5
3CF
330
3C9
100
AcDbEntity
  8
LC-001-100-D00-0
 62
     7
370
    50
100
AcDbLine
 10
30.864742
 20
269.523536
 30
0.0
 11
30.633565
 21
269.39629
 31
0.0
  0
LINE
  5
3D0
330
3C9
100
AcDbEntity
  8
LC-001-100-D00-0
 62
     7
370
    50
100
AcDbLine
 10
30.633565
 20
269.39629
 30
0.0
 11
30.633565
 21
269.39629
 31
0.0
  0
LINE
  5
3D1
330
3C9
100
AcDbEntity
  8
LC-001-100-D00-0
 62
     7
370
    50
100
AcDbLine
 10
30.633565
 20
269.39629
 30
0.0
 11
30.213532
 21
269.169134
 31
0.0
  0
LINE
  5
3D2
330
3C9
100
AcDbEntity
  8
LC-001-100-D00-0
 62
     7
370
    50
100
AcDbLine
 10
30.213532
 20
269.169134
 30
0.0
 11
30.213532
 21
269.169134
 31
0.0
  0
LINE
  5
3D3
330
3C9
100
AcDbEntity
  8
LC-001-100-D00-0
 62
     7
370
    50
100
AcDbLine
 10
30.213532
 20
269.169134
 30
0.0
 11
29.90873
 21
269.006283
 31
0.0
  0
LINE
  5
3D4
330
3C9
100
AcDbEntity
  8
LC-001-100-D00-0
 62
     7
370
    50
100
AcDbLine
 10
29.90873
 20
269.006283
 30
0.0
 11
29.90873
 21
269.006283
 31
0.0
  0
LINE
  5
3D5
330
3C9
100
AcDbEntity
  8
LC-001-100-D00-0
 62
     7
370
    50
100
AcDbLine
 10
29.90873
 20
269.006283
 30
0.0
 11
29.720302
 21
268.905608
 31
0.0
  0
ENDBLK
  5
3CB
330
3C9
100
AcDbEntity
  8
0
100
AcDbBlockEnd
  0
BLOCK
  5
3D8
330
3D7
100
AcDbEntity
  8
0
100
AcDbBlockBegin
  2
POLY28
 70
     0
 71
     0
 10
0.0
 20
0.0
 30
0.0
  3
POLY28
  1

  4
POLY28
  0
LINE
  5
3DA
330
3D7
100
AcDbEntity
  8
LC-001-100-D00-0
 62
     7
370
    50
100
AcDbLine
 10
36.188538
 20
267.31023
 30
0.0
 11
36.188538
 21
267.31023
 31
0.0
  0
LINE
  5
3DB
330
3D7
100
AcDbEntity
  8
LC-001-100-D00-0
 62
     7
370
    50
100
AcDbLine
 10
36.188538
 20
267.31023
 30
0.0
 11
36.070654
 21
267.369484
 31
0.0
  0
LINE
  5
3DC
330
3D7
100
AcDbEntity
  8
LC-001-100-D00-0
 62
     7
370
    50
100
AcDbLine
 10
36.070654
 20
267.369484
 30
0.0
 11
36.070654
 21
267.369484
 31
0.0
  0
LINE
  5
3DD
330
3D7
100
AcDbEntity
  8
LC-001-100-D00-0
 62
     7
370
    50
100
AcDbLine
 10
36.070654
 20
267.369484
 30
0.0
 11
35.834882
 21
267.487992
 31
0.0
  0
LINE
  5
3DE
330
3D7
100
AcDbEntity
  8
LC-001-100-D00-0
 62
     7
370
    50
100
AcDbLine
 10
35.834882
 20
267.487992
 30
0.0
 11
35.834882
 21
267.487992
 31
0.0
  0
LINE
  5
3DF
330
3D7
100
AcDbEntity
  8
LC-001-100-D00-0
 62
     7
370
    50
100
AcDbLine
 10
35.834882
 20
267.487992
 30
0.0
 11
35.415563
 21
267.696731
 31
0.0
  0
LINE
  5
3E0
330
3D7
100
AcDbEntity
  8
LC-001-100-D00-0
 62
     7
370
    50
100
AcDbLine
 10
35.415563
 20
267.696731
 30
0.0
 11
35.415563
 21
267.696731
 31
0.0
  0
LINE
  5
3E1
330
3D7
100
AcDbEntity
  8
LC-001-100-D00-0
 62
     7
370
    50
100
AcDbLine
 10
35.415563
 20
267.696731
 30
0.0
 11
35.112642
 21
267.843174
 31
0.0
  0
LINE
  5
3E2
330
3D7
100
AcDbEntity
  8
LC-001-100-D00-0
 62
     7
370
    50
100
AcDbLine
 10
35.112642
 20
267.843174
 30
0.0
 11
35.112642
 21
267.843174
 31
0.0
  0
LINE
  5
3E3
330
3D7
100
AcDbEntity
  8
LC-001-100-D00-0
 62
     7
370
    50
100
AcDbLine
 10
35.112642
 20
267.843174
 30
0.0
 11
34.928511
 21
267.93219
 31
0.0
  0
ENDBLK
  5
3D9
330
3D7
100
AcDbEntity
  8
0
100
AcDbBlockEnd
  0
BLOCK
  5
3E6
330
3E5
100
AcDbEntity
  8
0
100
AcDbBlockBegin
  2
POLY29
 70
     0
 71
     0
 10
0.0
 20
0.0
 30
0.0
  3
POLY29
  1

  4
POLY29
  0
LINE
  5
3E8
330
3E5
100
AcDbEntity
  8
LC-001-100-D00-0
 62
     7
370
    50
100
AcDbLine
 10
29.720302
 20
268.905608
 30
0.0
 11
29.720302
 21
268.905608
 31
0.0
  0
LINE
  5
3E9
330
3E5
100
AcDbEntity
  8
LC-001-100-D00-0
 62
     7
370
    50
100
AcDbLine
 10
29.720302
 20
268.905608
 30
0.0
 11
29.838228
 21
268.846433
 31
0.0
  0
LINE
  5
3EA
330
3E5
100
AcDbEntity
  8
LC-001-100-D00-0
 62
     7
370
    50
100
AcDbLine
 10
29.838228
 20
268.846433
 30
0.0
 11
29.838228
 21
268.846433
 31
0.0
  0
LINE
  5
3EB
330
3E5
100
AcDbEntity
  8
LC-001-100-D00-0
 62
     7
370
    50
100
AcDbLine
 10
29.838228
 20
268.846433
 30
0.0
 11
30.074079
 21
268.728083
 31
0.0
  0
LINE
  5
3EC
330
3E5
100
AcDbEntity
  8
LC-001-100-D00-0
 62
     7
370
    50
100
AcDbLine
 10
30.074079
 20
268.728083
 30
0.0
 11
30.074079
 21
268.728083
 31
0.0
  0
LINE
  5
3ED
330
3E5
100
AcDbEntity
  8
LC-001-100-D00-0
 62
     7
370
    50
100
AcDbLine
 10
30.074079
 20
268.728083
 30
0.0
 11
30.493331
 21
268.519894
 31
0.0
  0
LINE
  5
3EE
330
3E5
100
AcDbEntity
  8
LC-001-100-D00-0
 62
     7
370
    50
100
AcDbLine
 10
30.493331
 20
268.519894
 30
0.0
 11
30.493331
 21
268.519894
 31
0.0
  0
LINE
  5
3EF
330
3E5
100
AcDbEntity
  8
LC-001-100-D00-0
 62
     7
370
    50
100
AcDbLine
 10
30.493331
 20
268.519894
 30
0.0
 11
30.796285
 21
268.374227
 31
0.0
  0
LINE
  5
3F0
330
3E5
100
AcDbEntity
  8
LC-001-100-D00-0
 62
     7
370
    50
100
AcDbLine
 10
30.796285
 20
268.374227
 30
0.0
 11
30.796285
 21
268.374227
 31
0.0
  0
LINE
  5
3F1
330
3E5
100
AcDbEntity
  8
LC-001-100-D00-0
 62
     7
370
    50
100
AcDbLine
 10
30.796285
 20
268.374227
 30
0.0
 11
30.980329
 21
268.285735
 31
0.0
  0
ENDBLK
  5
3E7
330
3E5
100
AcDbEntity
  8
0
100
AcDbBlockEnd
  0
BLOCK
  5
3F5
330
3F4
100
AcDbEntity
  8
0
100
AcDbBlockBegin
  2
POLY30
 70
     0
 71
     0
 10
0.0
 20
0.0
 30
0.0
  3
POLY30
  1

  4
POLY30
  0
LINE
  5
3F7
330
3F4
100
AcDbEntity
  8
LC-001-100-D00-0
 62
     7
370
    50
100
AcDbLine
 10
34.928511
 20
266.630767
 30
0.0
 11
34.928511
 21
266.630767
 31
0.0
  0
LINE
  5
3F8
330
3F4
100
AcDbEntity
  8
LC-001-100-D00-0
 62
     7
370
    50
100
AcDbLine
 10
34.928511
 20
266.630767
 30
0.0
 11
35.044237
 21
266.694138
 31
0.0
  0
LINE
  5
3F9
330
3F4
100
AcDbEntity
  8
LC-001-100-D00-0
 62
     7
370
    50
100
AcDbLine
 10
35.044237
 20
266.694138
 30
0.0
 11
35.044237
 21
266.694138
 31
0.0
  0
LINE
  5
3FA
330
3F4
100
AcDbEntity
  8
LC-001-100-D00-0
 62
     7
370
    50
100
AcDbLine
 10
35.044237
 20
266.694138
 30
0.0
 11
35.275691
 21
266.820879
 31
0.0
  0
LINE
  5
3FB
330
3F4
100
AcDbEntity
  8
LC-001-100-D00-0
 62
     7
370
    50
100
AcDbLine
 10
35.275691
 20
266.820879
 30
0.0
 11
35.275691
 21
266.820879
 31
0.0
  0
LINE
  5
3FC
330
3F4
100
AcDbEntity
  8
LC-001-100-D00-0
 62
     7
370
    50
100
AcDbLine
 10
35.275691
 20
266.820879
 30
0.0
 11
35.69571
 21
267.047359
 31
0.0
  0
LINE
  5
3FD
330
3F4
100
AcDbEntity
  8
LC-001-100-D00-0
 62
     7
370
    50
100
AcDbLine
 10
35.69571
 20
267.047359
 30
0.0
 11
35.69571
 21
267.047359
 31
0.0
  0
LINE
  5
3FE
330
3F4
100
AcDbEntity
  8
LC-001-100-D00-0
 62
     7
370
    50
100
AcDbLine
 10
35.69571
 20
267.047359
 30
0.0
 11
36.000332
 21
267.209843
 31
0.0
  0
LINE
  5
3FF
330
3F4
100
AcDbEntity
  8
LC-001-100-D00-0
 62
     7
370
    50
100
AcDbLine
 10
36.000332
 20
267.209843
 30
0.0
 11
36.000332
 21
267.209843
 31
0.0
  0
LINE
  5
400
330
3F4
100
AcDbEntity
  8
LC-001-100-D00-0
 62
     7
370
    50
100
AcDbLine
 10
36.000332
 20
267.209843
 30
0.0
 11
36.188538
 21
267.31023
 31
0.0
  0
ENDBLK
  5
3F6
330
3F4
100
AcDbEntity
  8
0
100
AcDbBlockEnd
  0
BLOCK
  5
404
330
403
100
AcDbEntity
  8
0
100
AcDbBlockBegin
  2
POLY31
 70
     0
 71
     0
 10
0.0
 20
0.0
 30
0.0
  3
POLY31
  1

  4
POLY31
  0
LINE
  5
406
330
403
100
AcDbEntity
  8
LC-001-100-D00-0
 62
     7
370
    50
100
AcDbLine
 10
30.980329
 20
266.587152
 30
0.0
 11
30.980329
 21
266.587152
 31
0.0
  0
LINE
  5
407
330
403
100
AcDbEntity
  8
LC-001-100-D00-0
 62
     7
370
    50
100
AcDbLine
 10
30.980329
 20
266.587152
 30
0.0
 11
30.864742
 21
266.523528
 31
0.0
  0
LINE
  5
408
330
403
100
AcDbEntity
  8
LC-001-100-D00-0
 62
     7
370
    50
100
AcDbLine
 10
30.864742
 20
266.523528
 30
0.0
 11
30.864742
 21
266.523528
 31
0.0
  0
LINE
  5
409
330
403
100
AcDbEntity
  8
LC-001-100-D00-0
 62
     7
370
    50
100
AcDbLine
 10
30.864742
 20
266.523528
 30
0.0
 11
30.633569
 21
266.396281
 31
0.0
  0
LINE
  5
40A
330
403
100
AcDbEntity
  8
LC-001-100-D00-0
 62
     7
370
    50
100
AcDbLine
 10
30.633569
 20
266.396281
 30
0.0
 11
30.633569
 21
266.396281
 31
0.0
  0
LINE
  5
40B
330
403
100
AcDbEntity
  8
LC-001-100-D00-0
 62
     7
370
    50
100
AcDbLine
 10
30.633569
 20
266.396281
 30
0.0
 11
30.213524
 21
266.169149
 31
0.0
  0
LINE
  5
40C
330
403
100
AcDbEntity
  8
LC-001-100-D00-0
 62
     7
370
    50
100
AcDbLine
 10
30.213524
 20
266.169149
 30
0.0
 11
30.213524
 21
266.169149
 31
0.0
  0
LINE
  5
40D
330
403
100
AcDbEntity
  8
LC-001-100-D00-0
 62
     7
370
    50
100
AcDbLine
 10
30.213524
 20
266.169149
 30
0.0
 11
29.908728
 21
266.006286
 31
0.0
  0
LINE
  5
40E
330
403
100
AcDbEntity
  8
LC-001-100-D00-0
 62
     7
370
    50
100
AcDbLine
 10
29.908728
 20
266.006286
 30
0.0
 11
29.908728
 21
266.006286
 31
0.0
  0
LINE
  5
40F
330
403
100
AcDbEntity
  8
LC-001-100-D00-0
 62
     7
370
    50
100
AcDbLine
 10
29.908728
 20
266.006286
 30
0.0
 11
29.720302
 21
265.905602
 31
0.0
  0
ENDBLK
  5
405
330
403
100
AcDbEntity
  8
0
100
AcDbBlockEnd
  0
BLOCK
  5
412
330
411
100
AcDbEntity
  8
0
100
AcDbBlockBegin
  2
POLY32
 70
     0
 71
     0
 10
0.0
 20
0.0
 30
0.0
  3
POLY32
  1

  4
POLY32
  0
LINE
  5
414
330
411
100
AcDbEntity
  8
LC-001-100-D00-0
 62
     7
370
    50
100
AcDbLine
 10
36.188538
 20
264.310239
 30
0.0
 11
36.188538
 21
264.310239
 31
0.0
  0
LINE
  5
415
330
411
100
AcDbEntity
  8
LC-001-100-D00-0
 62
     7
370
    50
100
AcDbLine
 10
36.188538
 20
264.310239
 30
0.0
 11
36.070653
 21
264.369487
 31
0.0
  0
LINE
  5
416
330
411
100
AcDbEntity
  8
LC-001-100-D00-0
 62
     7
370
    50
100
AcDbLine
 10
36.070653
 20
264.369487
 30
0.0
 11
36.070653
 21
264.369487
 31
0.0
  0
LINE
  5
417
330
411
100
AcDbEntity
  8
LC-001-100-D00-0
 62
     7
370
    50
100
AcDbLine
 10
36.070653
 20
264.369487
 30
0.0
 11
35.834879
 21
264.487983
 31
0.0
  0
LINE
  5
418
330
411
100
AcDbEntity
  8
LC-001-100-D00-0
 62
     7
370
    50
100
AcDbLine
 10
35.834879
 20
264.487983
 30
0.0
 11
35.834879
 21
264.487983
 31
0.0
  0
LINE
  5
419
330
411
100
AcDbEntity
  8
LC-001-100-D00-0
 62
     7
370
    50
100
AcDbLine
 10
35.834879
 20
264.487983
 30
0.0
 11
35.415564
 21
264.696726
 31
0.0
  0
LINE
  5
41A
330
411
100
AcDbEntity
  8
LC-001-100-D00-0
 62
     7
370
    50
100
AcDbLine
 10
35.415564
 20
264.696726
 30
0.0
 11
35.415564
 21
264.696726
 31
0.0
  0
LINE
  5
41B
330
411
100
AcDbEntity
  8
LC-001-100-D00-0
 62
     7
370
    50
100
AcDbLine
 10
35.415564
 20
264.696726
 30
0.0
 11
35.112642
 21
264.843169
 31
0.0
  0
LINE
  5
41C
330
411
100
AcDbEntity
  8
LC-001-100-D00-0
 62
     7
370
    50
100
AcDbLine
 10
35.112642
 20
264.843169
 30
0.0
 11
35.112642
 21
264.843169
 31
0.0
  0
LINE
  5
41D
330
411
100
AcDbEntity
  8
LC-001-100-D00-0
 62
     7
370
    50
100
AcDbLine
 10
35.112642
 20
264.843169
 30
0.0
 11
34.928511
 21
264.932184
 31
0.0
  0
ENDBLK
  5
413
330
411
100
AcDbEntity
  8
0
100
AcDbBlockEnd
  0
BLOCK
  5
420
330
41F
100
AcDbEntity
  8
0
100
AcDbBlockBegin
  2
POLY33
 70
     0
 71
     0
 10
0.0
 20
0.0
 30
0.0
  3
POLY33
  1

  4
POLY33
  0
LINE
  5
422
330
41F
100
AcDbEntity
  8
LC-001-100-D00-0
 62
     7
370
    50
100
AcDbLine
 10
29.720302
 20
274.905606
 30
0.0
 11
29.720302
 21
274.905606
 31
0.0
  0
LINE
  5
423
330
41F
100
AcDbEntity
  8
LC-001-100-D00-0
 62
     7
370
    50
100
AcDbLine
 10
29.720302
 20
274.905606
 30
0.0
 11
29.711039
 21
274.888615
 31
0.0
  0
LINE
  5
424
330
41F
100
AcDbEntity
  8
LC-001-100-D00-0
 62
     7
370
    50
100
AcDbLine
 10
29.711039
 20
274.888615
 30
0.0
 11
29.711039
 21
274.888615
 31
0.0
  0
LINE
  5
425
330
41F
100
AcDbEntity
  8
LC-001-100-D00-0
 62
     7
370
    50
100
AcDbLine
 10
29.711039
 20
274.888615
 30
0.0
 11
29.679388
 21
274.830557
 31
0.0
  0
LINE
  5
426
330
41F
100
AcDbEntity
  8
LC-001-100-D00-0
 62
     7
370
    50
100
AcDbLine
 10
29.679388
 20
274.830557
 30
0.0
 11
29.679388
 21
274.830557
 31
0.0
  0
LINE
  5
427
330
41F
100
AcDbEntity
  8
LC-001-100-D00-0
 62
     7
370
    50
100
AcDbLine
 10
29.679388
 20
274.830557
 30
0.0
 11
29.787158
 21
274.777654
 31
0.0
  0
LINE
  5
428
330
41F
100
AcDbEntity
  8
LC-001-100-D00-0
 62
     7
370
    50
100
AcDbLine
 10
29.787158
 20
274.777654
 30
0.0
 11
29.787158
 21
274.777654
 31
0.0
  0
LINE
  5
429
330
41F
100
AcDbEntity
  8
LC-001-100-D00-0
 62
     7
370
    50
100
AcDbLine
 10
29.787158
 20
274.777654
 30
0.0
 11
29.86339
 21
274.740233
 31
0.0
  0
ENDBLK
  5
421
330
41F
100
AcDbEntity
  8
0
100
AcDbBlockEnd
  0
BLOCK
  5
42C
330
42B
100
AcDbEntity
  8
0
100
AcDbBlockBegin
  2
POLY34
 70
     0
 71
     0
 10
0.0
 20
0.0
 30
0.0
  3
POLY34
  1

  4
POLY34
  0
LINE
  5
42E
330
42B
100
AcDbEntity
  8
LC-001-100-D00-0
 62
     7
370
    50
100
AcDbLine
 10
36.023426
 20
273.498087
 30
0.0
 11
36.023426
 21
273.498087
 31
0.0
  0
LINE
  5
42F
330
42B
100
AcDbEntity
  8
LC-001-100-D00-0
 62
     7
370
    50
100
AcDbLine
 10
36.023426
 20
273.498087
 30
0.0
 11
36.112495
 21
273.449599
 31
0.0
  0
LINE
  5
430
330
42B
100
AcDbEntity
  8
LC-001-100-D00-0
 62
     7
370
    50
100
AcDbLine
 10
36.112495
 20
273.449599
 30
0.0
 11
36.112495
 21
273.449599
 31
0.0
  0
LINE
  5
431
330
42B
100
AcDbEntity
  8
LC-001-100-D00-0
 62
     7
370
    50
100
AcDbLine
 10
36.112495
 20
273.449599
 30
0.0
 11
36.230835
 21
273.385177
 31
0.0
  0
LINE
  5
432
330
42B
100
AcDbEntity
  8
LC-001-100-D00-0
 62
     7
370
    50
100
AcDbLine
 10
36.230835
 20
273.385177
 30
0.0
 11
36.230835
 21
273.385177
 31
0.0
  0
LINE
  5
433
330
42B
100
AcDbEntity
  8
LC-001-100-D00-0
 62
     7
370
    50
100
AcDbLine
 10
36.230835
 20
273.385177
 30
0.0
 11
36.196925
 21
273.32509
 31
0.0
  0
LINE
  5
434
330
42B
100
AcDbEntity
  8
LC-001-100-D00-0
 62
     7
370
    50
100
AcDbLine
 10
36.196925
 20
273.32509
 30
0.0
 11
36.196925
 21
273.32509
 31
0.0
  0
LINE
  5
435
330
42B
100
AcDbEntity
  8
LC-001-100-D00-0
 62
     7
370
    50
100
AcDbLine
 10
36.196925
 20
273.32509
 30
0.0
 11
36.188538
 21
273.310228
 31
0.0
  0
ENDBLK
  5
42D
330
42B
100
AcDbEntity
  8
0
100
AcDbBlockEnd
  0
BLOCK
  5
438
330
437
100
AcDbEntity
  8
0
100
AcDbBlockBegin
  2
POLY35
 70
     0
 71
     0
 10
0.0
 20
0.0
 30
0.0
  3
POLY35
  1

  4
POLY35
  0
LINE
  5
43A
330
437
100
AcDbEntity
  8
LC-001-100-D00-0
 62
     7
370
    50
100
AcDbLine
 10
29.720302
 20
274.905606
 30
0.0
 11
29.720302
 21
274.905606
 31
0.0
  0
LINE
  5
43B
330
437
100
AcDbEntity
  8
LC-001-100-D00-0
 62
     7
370
    50
100
AcDbLine
 10
29.720302
 20
274.905606
 30
0.0
 11
29.838229
 21
274.846438
 31
0.0
  0
LINE
  5
43C
330
437
100
AcDbEntity
  8
LC-001-100-D00-0
 62
     7
370
    50
100
AcDbLine
 10
29.838229
 20
274.846438
 30
0.0
 11
29.838229
 21
274.846438
 31
0.0
  0
LINE
  5
43D
330
437
100
AcDbEntity
  8
LC-001-100-D00-0
 62
     7
370
    50
100
AcDbLine
 10
29.838229
 20
274.846438
 30
0.0
 11
30.074086
 21
274.728101
 31
0.0
  0
LINE
  5
43E
330
437
100
AcDbEntity
  8
LC-001-100-D00-0
 62
     7
370
    50
100
AcDbLine
 10
30.074086
 20
274.728101
 30
0.0
 11
30.074086
 21
274.728101
 31
0.0
  0
LINE
  5
43F
330
437
100
AcDbEntity
  8
LC-001-100-D00-0
 62
     7
370
    50
100
AcDbLine
 10
30.074086
 20
274.728101
 30
0.0
 11
30.493322
 21
274.519884
 31
0.0
  0
LINE
  5
440
330
437
100
AcDbEntity
  8
LC-001-100-D00-0
 62
     7
370
    50
100
AcDbLine
 10
30.493322
 20
274.519884
 30
0.0
 11
30.493322
 21
274.519884
 31
0.0
  0
LINE
  5
441
330
437
100
AcDbEntity
  8
LC-001-100-D00-0
 62
     7
370
    50
100
AcDbLine
 10
30.493322
 20
274.519884
 30
0.0
 11
30.796283
 21
274.37423
 31
0.0
  0
LINE
  5
442
330
437
100
AcDbEntity
  8
LC-001-100-D00-0
 62
     7
370
    50
100
AcDbLine
 10
30.796283
 20
274.37423
 30
0.0
 11
30.796283
 21
274.37423
 31
0.0
  0
LINE
  5
443
330
437
100
AcDbEntity
  8
LC-001-100-D00-0
 62
     7
370
    50
100
AcDbLine
 10
30.796283
 20
274.37423
 30
0.0
 11
30.980329
 21
274.285747
 31
0.0
  0
ENDBLK
  5
439
330
437
100
AcDbEntity
  8
0
100
AcDbBlockEnd
  0
BLOCK
  5
447
330
446
100
AcDbEntity
  8
0
100
AcDbBlockBegin
  2
POLY36
 70
     0
 71
     0
 10
0.0
 20
0.0
 30
0.0
  3
POLY36
  1

  4
POLY36
  0
LINE
  5
449
330
446
100
AcDbEntity
  8
LC-001-100-D00-0
 62
     7
370
    50
100
AcDbLine
 10
34.928511
 20
272.630765
 30
0.0
 11
34.928511
 21
272.630765
 31
0.0
  0
LINE
  5
44A
330
446
100
AcDbEntity
  8
LC-001-100-D00-0
 62
     7
370
    50
100
AcDbLine
 10
34.928511
 20
272.630765
 30
0.0
 11
35.044237
 21
272.694135
 31
0.0
  0
LINE
  5
44B
330
446
100
AcDbEntity
  8
LC-001-100-D00-0
 62
     7
370
    50
100
AcDbLine
 10
35.044237
 20
272.694135
 30
0.0
 11
35.044237
 21
272.694135
 31
0.0
  0
LINE
  5
44C
330
446
100
AcDbEntity
  8
LC-001-100-D00-0
 62
     7
370
    50
100
AcDbLine
 10
35.044237
 20
272.694135
 30
0.0
 11
35.275691
 21
272.820876
 31
0.0
  0
LINE
  5
44D
330
446
100
AcDbEntity
  8
LC-001-100-D00-0
 62
     7
370
    50
100
AcDbLine
 10
35.275691
 20
272.820876
 30
0.0
 11
35.275691
 21
272.820876
 31
0.0
  0
LINE
  5
44E
330
446
100
AcDbEntity
  8
LC-001-100-D00-0
 62
     7
370
    50
100
AcDbLine
 10
35.275691
 20
272.820876
 30
0.0
 11
35.69571
 21
273.047357
 31
0.0
  0
LINE
  5
44F
330
446
100
AcDbEntity
  8
LC-001-100-D00-0
 62
     7
370
    50
100
AcDbLine
 10
35.69571
 20
273.047357
 30
0.0
 11
35.69571
 21
273.047357
 31
0.0
  0
LINE
  5
450
330
446
100
AcDbEntity
  8
LC-001-100-D00-0
 62
     7
370
    50
100
AcDbLine
 10
35.69571
 20
273.047357
 30
0.0
 11
36.000332
 21
273.20984
 31
0.0
  0
LINE
  5
451
330
446
100
AcDbEntity
  8
LC-001-100-D00-0
 62
     7
370
    50
100
AcDbLine
 10
36.000332
 20
273.20984
 30
0.0
 11
36.000332
 21
273.20984
 31
0.0
  0
LINE
  5
452
330
446
100
AcDbEntity
  8
LC-001-100-D00-0
 62
     7
370
    50
100
AcDbLine
 10
36.000332
 20
273.20984
 30
0.0
 11
36.188538
 21
273.310228
 31
0.0
  0
ENDBLK
  5
448
330
446
100
AcDbEntity
  8
0
100
AcDbBlockEnd
  0
BLOCK
  5
455
330
454
100
AcDbEntity
  8
0
100
AcDbBlockBegin
  2
POLY37
 70
     0
 71
     0
 10
0.0
 20
0.0
 30
0.0
  3
POLY37
  1

  4
POLY37
  0
LINE
  5
457
330
454
100
AcDbEntity
  8
LC-001-100-D00-0
 62
     7
370
    50
100
AcDbLine
 10
29.720302
 20
262.905596
 30
0.0
 11
29.720302
 21
262.905596
 31
0.0
  0
LINE
  5
458
330
454
100
AcDbEntity
  8
LC-001-100-D00-0
 62
     7
370
    50
100
AcDbLine
 10
29.720302
 20
262.905596
 30
0.0
 11
29.838228
 21
262.846427
 31
0.0
  0
LINE
  5
459
330
454
100
AcDbEntity
  8
LC-001-100-D00-0
 62
     7
370
    50
100
AcDbLine
 10
29.838228
 20
262.846427
 30
0.0
 11
29.838228
 21
262.846427
 31
0.0
  0
LINE
  5
45A
330
454
100
AcDbEntity
  8
LC-001-100-D00-0
 62
     7
370
    50
100
AcDbLine
 10
29.838228
 20
262.846427
 30
0.0
 11
30.074082
 21
262.728088
 31
0.0
  0
LINE
  5
45B
330
454
100
AcDbEntity
  8
LC-001-100-D00-0
 62
     7
370
    50
100
AcDbLine
 10
30.074082
 20
262.728088
 30
0.0
 11
30.074082
 21
262.728088
 31
0.0
  0
LINE
  5
45C
330
454
100
AcDbEntity
  8
LC-001-100-D00-0
 62
     7
370
    50
100
AcDbLine
 10
30.074082
 20
262.728088
 30
0.0
 11
30.493331
 21
262.519896
 31
0.0
  0
LINE
  5
45D
330
454
100
AcDbEntity
  8
LC-001-100-D00-0
 62
     7
370
    50
100
AcDbLine
 10
30.493331
 20
262.519896
 30
0.0
 11
30.493331
 21
262.519896
 31
0.0
  0
LINE
  5
45E
330
454
100
AcDbEntity
  8
LC-001-100-D00-0
 62
     7
370
    50
100
AcDbLine
 10
30.493331
 20
262.519896
 30
0.0
 11
30.796285
 21
262.37423
 31
0.0
  0
LINE
  5
45F
330
454
100
AcDbEntity
  8
LC-001-100-D00-0
 62
     7
370
    50
100
AcDbLine
 10
30.796285
 20
262.37423
 30
0.0
 11
30.796285
 21
262.37423
 31
0.0
  0
LINE
  5
460
330
454
100
AcDbEntity
  8
LC-001-100-D00-0
 62
     7
370
    50
100
AcDbLine
 10
30.796285
 20
262.37423
 30
0.0
 11
30.980329
 21
262.285738
 31
0.0
  0
ENDBLK
  5
456
330
454
100
AcDbEntity
  8
0
100
AcDbBlockEnd
  0
BLOCK
  5
464
330
463
100
AcDbEntity
  8
0
100
AcDbBlockBegin
  2
POLY38
 70
     0
 71
     0
 10
0.0
 20
0.0
 30
0.0
  3
POLY38
  1

  4
POLY38
  0
LINE
  5
466
330
463
100
AcDbEntity
  8
LC-001-100-D00-0
 62
     7
370
    50
100
AcDbLine
 10
34.928511
 20
260.63077
 30
0.0
 11
34.928511
 21
260.63077
 31
0.0
  0
LINE
  5
467
330
463
100
AcDbEntity
  8
LC-001-100-D00-0
 62
     7
370
    50
100
AcDbLine
 10
34.928511
 20
260.63077
 30
0.0
 11
35.044237
 21
260.694142
 31
0.0
  0
LINE
  5
468
330
463
100
AcDbEntity
  8
LC-001-100-D00-0
 62
     7
370
    50
100
AcDbLine
 10
35.044237
 20
260.694142
 30
0.0
 11
35.044237
 21
260.694142
 31
0.0
  0
LINE
  5
469
330
463
100
AcDbEntity
  8
LC-001-100-D00-0
 62
     7
370
    50
100
AcDbLine
 10
35.044237
 20
260.694142
 30
0.0
 11
35.275686
 21
260.820884
 31
0.0
  0
LINE
  5
46A
330
463
100
AcDbEntity
  8
LC-001-100-D00-0
 62
     7
370
    50
100
AcDbLine
 10
35.275686
 20
260.820884
 30
0.0
 11
35.275686
 21
260.820884
 31
0.0
  0
LINE
  5
46B
330
463
100
AcDbEntity
  8
LC-001-100-D00-0
 62
     7
370
    50
100
AcDbLine
 10
35.275686
 20
260.820884
 30
0.0
 11
35.695719
 21
261.047341
 31
0.0
  0
LINE
  5
46C
330
463
100
AcDbEntity
  8
LC-001-100-D00-0
 62
     7
370
    50
100
AcDbLine
 10
35.695719
 20
261.047341
 30
0.0
 11
35.695719
 21
261.047341
 31
0.0
  0
LINE
  5
46D
330
463
100
AcDbEntity
  8
LC-001-100-D00-0
 62
     7
370
    50
100
AcDbLine
 10
35.695719
 20
261.047341
 30
0.0
 11
36.000334
 21
261.209837
 31
0.0
  0
LINE
  5
46E
330
463
100
AcDbEntity
  8
LC-001-100-D00-0
 62
     7
370
    50
100
AcDbLine
 10
36.000334
 20
261.209837
 30
0.0
 11
36.000334
 21
261.209837
 31
0.0
  0
LINE
  5
46F
330
463
100
AcDbEntity
  8
LC-001-100-D00-0
 62
     7
370
    50
100
AcDbLine
 10
36.000334
 20
261.209837
 30
0.0
 11
36.188538
 21
261.310233
 31
0.0
  0
ENDBLK
  5
465
330
463
100
AcDbEntity
  8
0
100
AcDbBlockEnd
  0
BLOCK
  5
473
330
472
100
AcDbEntity
  8
0
100
AcDbBlockBegin
  2
POLY39
 70
     0
 71
     0
 10
0.0
 20
0.0
 30
0.0
  3
POLY39
  1

  4
POLY39
  0
LINE
  5
475
330
472
100
AcDbEntity
  8
LC-001-100-D00-0
 62
     7
370
    50
100
AcDbLine
 10
30.844818
 20
275.512411
 30
0.0
 11
30.844818
 21
275.512411
 31
0.0
  0
LINE
  5
476
330
472
100
AcDbEntity
  8
LC-001-100-D00-0
 62
     7
370
    50
100
AcDbLine
 10
30.844818
 20
275.512411
 30
0.0
 11
30.774349
 21
275.473798
 31
0.0
  0
LINE
  5
477
330
472
100
AcDbEntity
  8
LC-001-100-D00-0
 62
     7
370
    50
100
AcDbLine
 10
30.774349
 20
275.473798
 30
0.0
 11
30.774349
 21
275.473798
 31
0.0
  0
LINE
  5
478
330
472
100
AcDbEntity
  8
LC-001-100-D00-0
 62
     7
370
    50
100
AcDbLine
 10
30.774349
 20
275.473798
 30
0.0
 11
30.588172
 21
275.371785
 31
0.0
  0
LINE
  5
479
330
472
100
AcDbEntity
  8
LC-001-100-D00-0
 62
     7
370
    50
100
AcDbLine
 10
30.588172
 20
275.371785
 30
0.0
 11
30.588172
 21
275.371785
 31
0.0
  0
LINE
  5
47A
330
472
100
AcDbEntity
  8
LC-001-100-D00-0
 62
     7
370
    50
100
AcDbLine
 10
30.588172
 20
275.371785
 30
0.0
 11
30.213534
 21
275.169134
 31
0.0
  0
LINE
  5
47B
330
472
100
AcDbEntity
  8
LC-001-100-D00-0
 62
     7
370
    50
100
AcDbLine
 10
30.213534
 20
275.169134
 30
0.0
 11
30.213534
 21
275.169134
 31
0.0
  0
LINE
  5
47C
330
472
100
AcDbEntity
  8
LC-001-100-D00-0
 62
     7
370
    50
100
AcDbLine
 10
30.213534
 20
275.169134
 30
0.0
 11
29.908732
 21
275.006282
 31
0.0
  0
LINE
  5
47D
330
472
100
AcDbEntity
  8
LC-001-100-D00-0
 62
     7
370
    50
100
AcDbLine
 10
29.908732
 20
275.006282
 30
0.0
 11
29.908732
 21
275.006282
 31
0.0
  0
LINE
  5
47E
330
472
100
AcDbEntity
  8
LC-001-100-D00-0
 62
     7
370
    50
100
AcDbLine
 10
29.908732
 20
275.006282
 30
0.0
 11
29.720302
 21
274.905606
 31
0.0
  0
ENDBLK
  5
474
330
472
100
AcDbEntity
  8
0
100
AcDbBlockEnd
  0
BLOCK
  5
481
330
480
100
AcDbEntity
  8
0
100
AcDbBlockBegin
  2
POLY40
 70
     0
 71
     0
 10
0.0
 20
0.0
 30
0.0
  3
POLY40
  1

  4
POLY40
  0
LINE
  5
483
330
480
100
AcDbEntity
  8
LC-001-100-D00-0
 62
     7
370
    50
100
AcDbLine
 10
36.188538
 20
273.310228
 30
0.0
 11
36.188538
 21
273.310228
 31
0.0
  0
LINE
  5
484
330
480
100
AcDbEntity
  8
LC-001-100-D00-0
 62
     7
370
    50
100
AcDbLine
 10
36.188538
 20
273.310228
 30
0.0
 11
36.070654
 21
273.369481
 31
0.0
  0
LINE
  5
485
330
480
100
AcDbEntity
  8
LC-001-100-D00-0
 62
     7
370
    50
100
AcDbLine
 10
36.070654
 20
273.369481
 30
0.0
 11
36.070654
 21
273.369481
 31
0.0
  0
LINE
  5
486
330
480
100
AcDbEntity
  8
LC-001-100-D00-0
 62
     7
370
    50
100
AcDbLine
 10
36.070654
 20
273.369481
 30
0.0
 11
35.834882
 21
273.487989
 31
0.0
  0
LINE
  5
487
330
480
100
AcDbEntity
  8
LC-001-100-D00-0
 62
     7
370
    50
100
AcDbLine
 10
35.834882
 20
273.487989
 30
0.0
 11
35.834882
 21
273.487989
 31
0.0
  0
LINE
  5
488
330
480
100
AcDbEntity
  8
LC-001-100-D00-0
 62
     7
370
    50
100
AcDbLine
 10
35.834882
 20
273.487989
 30
0.0
 11
35.415563
 21
273.696729
 31
0.0
  0
LINE
  5
489
330
480
100
AcDbEntity
  8
LC-001-100-D00-0
 62
     7
370
    50
100
AcDbLine
 10
35.415563
 20
273.696729
 30
0.0
 11
35.415563
 21
273.696729
 31
0.0
  0
LINE
  5
48A
330
480
100
AcDbEntity
  8
LC-001-100-D00-0
 62
     7
370
    50
100
AcDbLine
 10
35.415563
 20
273.696729
 30
0.0
 11
35.112642
 21
273.843171
 31
0.0
  0
LINE
  5
48B
330
480
100
AcDbEntity
  8
LC-001-100-D00-0
 62
     7
370
    50
100
AcDbLine
 10
35.112642
 20
273.843171
 30
0.0
 11
35.112642
 21
273.843171
 31
0.0
  0
LINE
  5
48C
330
480
100
AcDbEntity
  8
LC-001-100-D00-0
 62
     7
370
    50
100
AcDbLine
 10
35.112642
 20
273.843171
 30
0.0
 11
34.928511
 21
273.932187
 31
0.0
  0
ENDBLK
  5
482
330
480
100
AcDbEntity
  8
0
100
AcDbBlockEnd
  0
BLOCK
  5
498
330
497
100
AcDbEntity
  8
0
100
AcDbBlockBegin
  2
POLY41
 70
     0
 71
     0
 10
0.0
 20
0.0
 30
0.0
  3
POLY41
  1

  4
POLY41
  0
LINE
  5
49A
330
497
100
AcDbEntity
  8
LC-001-100-D00-0
 62
     7
370
    50
100
AcDbLine
 10
37.994216
 20
278.512402
 30
0.0
 11
37.994216
 21
278.512402
 31
0.0
  0
LINE
  5
49B
330
497
100
AcDbEntity
  8
LC-001-100-D00-0
 62
     7
370
    50
100
AcDbLine
 10
37.994216
 20
278.512402
 30
0.0
 11
37.995776
 21
278.512388
 31
0.0
  0
LINE
  5
49C
330
497
100
AcDbEntity
  8
LC-001-100-D00-0
 62
     7
370
    50
100
AcDbLine
 10
37.995776
 20
278.512388
 30
0.0
 11
37.995776
 21
278.512388
 31
0.0
  0
LINE
  5
49D
330
497
100
AcDbEntity
  8
LC-001-100-D00-0
 62
     7
370
    50
100
AcDbLine
 10
37.995776
 20
278.512388
 30
0.0
 11
38.019803
 21
278.51218
 31
0.0
  0
LINE
  5
49E
330
497
100
AcDbEntity
  8
LC-001-100-D00-0
 62
     7
370
    50
100
AcDbLine
 10
38.019803
 20
278.51218
 30
0.0
 11
38.019803
 21
278.51218
 31
0.0
  0
LINE
  5
49F
330
497
100
AcDbEntity
  8
LC-001-100-D00-0
 62
     7
370
    50
100
AcDbLine
 10
38.019803
 20
278.51218
 30
0.0
 11
38.066454
 21
278.503058
 31
0.0
  0
LINE
  5
4A0
330
497
100
AcDbEntity
  8
LC-001-100-D00-0
 62
     7
370
    50
100
AcDbLine
 10
38.066454
 20
278.503058
 30
0.0
 11
38.066454
 21
278.503058
 31
0.0
  0
LINE
  5
4A1
330
497
100
AcDbEntity
  8
LC-001-100-D00-0
 62
     7
370
    50
100
AcDbLine
 10
38.066454
 20
278.503058
 30
0.0
 11
38.125742
 21
278.468405
 31
0.0
  0
LINE
  5
4A2
330
497
100
AcDbEntity
  8
LC-001-100-D00-0
 62
     7
370
    50
100
AcDbLine
 10
38.125742
 20
278.468405
 30
0.0
 11
38.125742
 21
278.468405
 31
0.0
  0
LINE
  5
4A3
330
497
100
AcDbEntity
  8
LC-001-100-D00-0
 62
     7
370
    50
100
AcDbLine
 10
38.125742
 20
278.468405
 30
0.0
 11
38.169854
 21
278.416095
 31
0.0
  0
LINE
  5
4A4
330
497
100
AcDbEntity
  8
LC-001-100-D00-0
 62
     7
370
    50
100
AcDbLine
 10
38.169854
 20
278.416095
 30
0.0
 11
38.169854
 21
278.416095
 31
0.0
  0
LINE
  5
4A5
330
497
100
AcDbEntity
  8
LC-001-100-D00-0
 62
     7
370
    50
100
AcDbLine
 10
38.169854
 20
278.416095
 30
0.0
 11
38.191753
 21
278.360926
 31
0.0
  0
LINE
  5
4A6
330
497
100
AcDbEntity
  8
LC-001-100-D00-0
 62
     7
370
    50
100
AcDbLine
 10
38.191753
 20
278.360926
 30
0.0
 11
38.191753
 21
278.360926
 31
0.0
  0
LINE
  5
4A7
330
497
100
AcDbEntity
  8
LC-001-100-D00-0
 62
     7
370
    50
100
AcDbLine
 10
38.191753
 20
278.360926
 30
0.0
 11
38.193839
 21
278.325454
 31
0.0
  0
LINE
  5
4A8
330
497
100
AcDbEntity
  8
LC-001-100-D00-0
 62
     7
370
    50
100
AcDbLine
 10
38.193839
 20
278.325454
 30
0.0
 11
38.193839
 21
278.325454
 31
0.0
  0
LINE
  5
4A9
330
497
100
AcDbEntity
  8
LC-001-100-D00-0
 62
     7
370
    50
100
AcDbLine
 10
38.193839
 20
278.325454
 30
0.0
 11
38.194607
 21
278.312398
 31
0.0
  0
ENDBLK
  5
499
330
497
100
AcDbEntity
  8
0
100
AcDbBlockEnd
  0
BLOCK
  5
4B0
330
4AF
100
AcDbEntity
  8
0
100
AcDbBlockBegin
  2
POLY42
 70
     0
 71
     0
 10
0.0
 20
0.0
 30
0.0
  3
POLY42
  1

  4
POLY42
  0
LINE
  5
4B2
330
4AF
100
AcDbEntity
  8
LC-001-100-D00-0
 62
     7
370
    50
100
AcDbLine
 10
34.928511
 20
259.912817
 30
0.0
 11
34.928511
 21
259.912817
 31
0.0
  0
LINE
  5
4B3
330
4AF
100
AcDbEntity
  8
LC-001-100-D00-0
 62
     7
370
    50
100
AcDbLine
 10
34.928511
 20
259.912817
 30
0.0
 11
34.836844
 21
259.849757
 31
0.0
  0
LINE
  5
4B4
330
4AF
100
AcDbEntity
  8
LC-001-100-D00-0
 62
     7
370
    50
100
AcDbLine
 10
34.836844
 20
259.849757
 30
0.0
 11
34.836844
 21
259.849757
 31
0.0
  0
LINE
  5
4B5
330
4AF
100
AcDbEntity
  8
LC-001-100-D00-0
 62
     7
370
    50
100
AcDbLine
 10
34.836844
 20
259.849757
 30
0.0
 11
34.324299
 21
259.497158
 31
0.0
  0
LINE
  5
4B6
330
4AF
100
AcDbEntity
  8
LC-001-100-D00-0
 62
     7
370
    50
100
AcDbLine
 10
34.324299
 20
259.497158
 30
0.0
 11
34.324299
 21
259.497158
 31
0.0
  0
LINE
  5
4B7
330
4AF
100
AcDbEntity
  8
LC-001-100-D00-0
 62
     7
370
    50
100
AcDbLine
 10
34.324299
 20
259.497158
 30
0.0
 11
33.731809
 21
259.071701
 31
0.0
  0
LINE
  5
4B8
330
4AF
100
AcDbEntity
  8
LC-001-100-D00-0
 62
     7
370
    50
100
AcDbLine
 10
33.731809
 20
259.071701
 30
0.0
 11
33.731809
 21
259.071701
 31
0.0
  0
LINE
  5
4B9
330
4AF
100
AcDbEntity
  8
LC-001-100-D00-0
 62
     7
370
    50
100
AcDbLine
 10
33.731809
 20
259.071701
 30
0.0
 11
33.116959
 21
258.740947
 31
0.0
  0
LINE
  5
4BA
330
4AF
100
AcDbEntity
  8
LC-001-100-D00-0
 62
     7
370
    50
100
AcDbLine
 10
33.116959
 20
258.740947
 30
0.0
 11
33.116959
 21
258.740947
 31
0.0
  0
LINE
  5
4BB
330
4AF
100
AcDbEntity
  8
LC-001-100-D00-0
 62
     7
370
    50
100
AcDbLine
 10
33.116959
 20
258.740947
 30
0.0
 11
32.765453
 21
258.73067
 31
0.0
  0
LINE
  5
4BC
330
4AF
100
AcDbEntity
  8
LC-001-100-D00-0
 62
     7
370
    50
100
AcDbLine
 10
32.765453
 20
258.73067
 30
0.0
 11
32.765453
 21
258.73067
 31
0.0
  0
LINE
  5
4BD
330
4AF
100
AcDbEntity
  8
LC-001-100-D00-0
 62
     7
370
    50
100
AcDbLine
 10
32.765453
 20
258.73067
 30
0.0
 11
32.414099
 21
258.952348
 31
0.0
  0
LINE
  5
4BE
330
4AF
100
AcDbEntity
  8
LC-001-100-D00-0
 62
     7
370
    50
100
AcDbLine
 10
32.414099
 20
258.952348
 30
0.0
 11
32.414099
 21
258.952348
 31
0.0
  0
LINE
  5
4BF
330
4AF
100
AcDbEntity
  8
LC-001-100-D00-0
 62
     7
370
    50
100
AcDbLine
 10
32.414099
 20
258.952348
 30
0.0
 11
31.898357
 21
259.279043
 31
0.0
  0
LINE
  5
4C0
330
4AF
100
AcDbEntity
  8
LC-001-100-D00-0
 62
     7
370
    50
100
AcDbLine
 10
31.898357
 20
259.279043
 30
0.0
 11
31.898357
 21
259.279043
 31
0.0
  0
LINE
  5
4C1
330
4AF
100
AcDbEntity
  8
LC-001-100-D00-0
 62
     7
370
    50
100
AcDbLine
 10
31.898357
 20
259.279043
 30
0.0
 11
31.42169
 21
259.608613
 31
0.0
  0
LINE
  5
4C2
330
4AF
100
AcDbEntity
  8
LC-001-100-D00-0
 62
     7
370
    50
100
AcDbLine
 10
31.42169
 20
259.608613
 30
0.0
 11
31.42169
 21
259.608613
 31
0.0
  0
LINE
  5
4C3
330
4AF
100
AcDbEntity
  8
LC-001-100-D00-0
 62
     7
370
    50
100
AcDbLine
 10
31.42169
 20
259.608613
 30
0.0
 11
31.085424
 21
259.840381
 31
0.0
  0
LINE
  5
4C4
330
4AF
100
AcDbEntity
  8
LC-001-100-D00-0
 62
     7
370
    50
100
AcDbLine
 10
31.085424
 20
259.840381
 30
0.0
 11
31.085424
 21
259.840381
 31
0.0
  0
LINE
  5
4C5
330
4AF
100
AcDbEntity
  8
LC-001-100-D00-0
 62
     7
370
    50
100
AcDbLine
 10
31.085424
 20
259.840381
 30
0.0
 11
30.980329
 21
259.912817
 31
0.0
  0
ENDBLK
  5
4B1
330
4AF
100
AcDbEntity
  8
0
100
AcDbBlockEnd
  0
BLOCK
  5
4CB
330
4CA
100
AcDbEntity
  8
0
100
AcDbBlockBegin
  2
POLY43
 70
     0
 71
     0
 10
0.0
 20
0.0
 30
0.0
  3
POLY43
  1

  4
POLY43
  0
LINE
  5
4CD
330
4CA
100
AcDbEntity
  8
LC-001-100-D00-0
 62
     7
370
    50
100
AcDbLine
 10
27.714233
 20
278.312398
 30
0.0
 11
27.714233
 21
278.312398
 31
0.0
  0
LINE
  5
4CE
330
4CA
100
AcDbEntity
  8
LC-001-100-D00-0
 62
     7
370
    50
100
AcDbLine
 10
27.714233
 20
278.312398
 30
0.0
 11
27.714763
 21
278.32331
 31
0.0
  0
LINE
  5
4CF
330
4CA
100
AcDbEntity
  8
LC-001-100-D00-0
 62
     7
370
    50
100
AcDbLine
 10
27.714763
 20
278.32331
 30
0.0
 11
27.714763
 21
278.32331
 31
0.0
  0
LINE
  5
4D0
330
4CA
100
AcDbEntity
  8
LC-001-100-D00-0
 62
     7
370
    50
100
AcDbLine
 10
27.714763
 20
278.32331
 30
0.0
 11
27.715971
 21
278.348168
 31
0.0
  0
LINE
  5
4D1
330
4CA
100
AcDbEntity
  8
LC-001-100-D00-0
 62
     7
370
    50
100
AcDbLine
 10
27.715971
 20
278.348168
 30
0.0
 11
27.715971
 21
278.348168
 31
0.0
  0
LINE
  5
4D2
330
4CA
100
AcDbEntity
  8
LC-001-100-D00-0
 62
     7
370
    50
100
AcDbLine
 10
27.715971
 20
278.348168
 30
0.0
 11
27.729041
 21
278.393996
 31
0.0
  0
LINE
  5
4D3
330
4CA
100
AcDbEntity
  8
LC-001-100-D00-0
 62
     7
370
    50
100
AcDbLine
 10
27.729041
 20
278.393996
 30
0.0
 11
27.729041
 21
278.393996
 31
0.0
  0
LINE
  5
4D4
330
4CA
100
AcDbEntity
  8
LC-001-100-D00-0
 62
     7
370
    50
100
AcDbLine
 10
27.729041
 20
278.393996
 30
0.0
 11
27.759743
 21
278.445369
 31
0.0
  0
LINE
  5
4D5
330
4CA
100
AcDbEntity
  8
LC-001-100-D00-0
 62
     7
370
    50
100
AcDbLine
 10
27.759743
 20
278.445369
 30
0.0
 11
27.759743
 21
278.445369
 31
0.0
  0
LINE
  5
4D6
330
4CA
100
AcDbEntity
  8
LC-001-100-D00-0
 62
     7
370
    50
100
AcDbLine
 10
27.759743
 20
278.445369
 30
0.0
 11
27.812536
 21
278.488738
 31
0.0
  0
LINE
  5
4D7
330
4CA
100
AcDbEntity
  8
LC-001-100-D00-0
 62
     7
370
    50
100
AcDbLine
 10
27.812536
 20
278.488738
 30
0.0
 11
27.812536
 21
278.488738
 31
0.0
  0
LINE
  5
4D8
330
4CA
100
AcDbEntity
  8
LC-001-100-D00-0
 62
     7
370
    50
100
AcDbLine
 10
27.812536
 20
278.488738
 30
0.0
 11
27.867307
 21
278.509772
 31
0.0
  0
LINE
  5
4D9
330
4CA
100
AcDbEntity
  8
LC-001-100-D00-0
 62
     7
370
    50
100
AcDbLine
 10
27.867307
 20
278.509772
 30
0.0
 11
27.867307
 21
278.509772
 31
0.0
  0
LINE
  5
4DA
330
4CA
100
AcDbEntity
  8
LC-001-100-D00-0
 62
     7
370
    50
100
AcDbLine
 10
27.867307
 20
278.509772
 30
0.0
 11
27.902183
 21
278.51171
 31
0.0
  0
LINE
  5
4DB
330
4CA
100
AcDbEntity
  8
LC-001-100-D00-0
 62
     7
370
    50
100
AcDbLine
 10
27.902183
 20
278.51171
 30
0.0
 11
27.902183
 21
278.51171
 31
0.0
  0
LINE
  5
4DC
330
4CA
100
AcDbEntity
  8
LC-001-100-D00-0
 62
     7
370
    50
100
AcDbLine
 10
27.902183
 20
278.51171
 30
0.0
 11
27.914624
 21
278.512402
 31
0.0
  0
ENDBLK
  5
4CC
330
4CA
100
AcDbEntity
  8
0
100
AcDbBlockEnd
  0
BLOCK
  5
4F2
330
4F1
100
AcDbEntity
  8
0
100
AcDbBlockBegin
  2
POLY44
 70
     0
 71
     0
 10
0.0
 20
0.0
 30
0.0
  3
POLY44
  1

  4
POLY44
  0
LINE
  5
4F4
330
4F1
100
AcDbEntity
  8
LC-001-100-D00-0
 62
     7
370
    50
100
AcDbLine
 10
35.955558
 20
279.491393
 30
0.0
 11
35.955558
 21
279.491393
 31
0.0
  0
LINE
  5
4F5
330
4F1
100
AcDbEntity
  8
LC-001-100-D00-0
 62
     7
370
    50
100
AcDbLine
 10
35.955558
 20
279.491393
 30
0.0
 11
35.933885
 21
279.499809
 31
0.0
  0
LINE
  5
4F6
330
4F1
100
AcDbEntity
  8
LC-001-100-D00-0
 62
     7
370
    50
100
AcDbLine
 10
35.933885
 20
279.499809
 30
0.0
 11
35.933885
 21
279.499809
 31
0.0
  0
LINE
  5
4F7
330
4F1
100
AcDbEntity
  8
LC-001-100-D00-0
 62
     7
370
    50
100
AcDbLine
 10
35.933885
 20
279.499809
 30
0.0
 11
35.904496
 21
279.51122
 31
0.0
  0
LINE
  5
4F8
330
4F1
100
AcDbEntity
  8
LC-001-100-D00-0
 62
     7
370
    50
100
AcDbLine
 10
35.904496
 20
279.51122
 30
0.0
 11
35.904496
 21
279.51122
 31
0.0
  0
LINE
  5
4F9
330
4F1
100
AcDbEntity
  8
LC-001-100-D00-0
 62
     7
370
    50
100
AcDbLine
 10
35.904496
 20
279.51122
 30
0.0
 11
35.873269
 21
279.512158
 31
0.0
  0
LINE
  5
4FA
330
4F1
100
AcDbEntity
  8
LC-001-100-D00-0
 62
     7
370
    50
100
AcDbLine
 10
35.873269
 20
279.512158
 30
0.0
 11
35.873269
 21
279.512158
 31
0.0
  0
LINE
  5
4FB
330
4F1
100
AcDbEntity
  8
LC-001-100-D00-0
 62
     7
370
    50
100
AcDbLine
 10
35.873269
 20
279.512158
 30
0.0
 11
35.865071
 21
279.512404
 31
0.0
  0
ENDBLK
  5
4F3
330
4F1
100
AcDbEntity
  8
0
100
AcDbBlockEnd
  0
BLOCK
  5
4FF
330
4FE
100
AcDbEntity
  8
0
100
AcDbBlockBegin
  2
POLY45
 70
     0
 71
     0
 10
0.0
 20
0.0
 30
0.0
  3
POLY45
  1

  4
POLY45
  0
LINE
  5
501
330
4FE
100
AcDbEntity
  8
LC-001-100-D00-0
 62
     7
370
    50
100
AcDbLine
 10
30.043769
 20
279.512404
 30
0.0
 11
30.043769
 21
279.512404
 31
0.0
  0
LINE
  5
502
330
4FE
100
AcDbEntity
  8
LC-001-100-D00-0
 62
     7
370
    50
100
AcDbLine
 10
30.043769
 20
279.512404
 30
0.0
 11
30.0206
 21
279.510415
 31
0.0
  0
LINE
  5
503
330
4FE
100
AcDbEntity
  8
LC-001-100-D00-0
 62
     7
370
    50
100
AcDbLine
 10
30.0206
 20
279.510415
 30
0.0
 11
30.0206
 21
279.510415
 31
0.0
  0
LINE
  5
504
330
4FE
100
AcDbEntity
  8
LC-001-100-D00-0
 62
     7
370
    50
100
AcDbLine
 10
30.0206
 20
279.510415
 30
0.0
 11
29.989186
 21
279.507719
 31
0.0
  0
LINE
  5
505
330
4FE
100
AcDbEntity
  8
LC-001-100-D00-0
 62
     7
370
    50
100
AcDbLine
 10
29.989186
 20
279.507719
 30
0.0
 11
29.989186
 21
279.507719
 31
0.0
  0
LINE
  5
506
330
4FE
100
AcDbEntity
  8
LC-001-100-D00-0
 62
     7
370
    50
100
AcDbLine
 10
29.989186
 20
279.507719
 30
0.0
 11
29.960746
 21
279.494787
 31
0.0
  0
LINE
  5
507
330
4FE
100
AcDbEntity
  8
LC-001-100-D00-0
 62
     7
370
    50
100
AcDbLine
 10
29.960746
 20
279.494787
 30
0.0
 11
29.960746
 21
279.494787
 31
0.0
  0
LINE
  5
508
330
4FE
100
AcDbEntity
  8
LC-001-100-D00-0
 62
     7
370
    50
100
AcDbLine
 10
29.960746
 20
279.494787
 30
0.0
 11
29.953281
 21
279.491393
 31
0.0
  0
ENDBLK
  5
500
330
4FE
100
AcDbEntity
  8
0
100
AcDbBlockEnd
  0
BLOCK
  5
638
330
637
100
AcDbEntity
  8
0
100
AcDbBlockBegin
  2
POLY46
 70
     0
 71
     0
 10
0.0
 20
0.0
 30
0.0
  3
POLY46
  1

  4
POLY46
  0
LINE
  5
63A
330
637
100
AcDbEntity
  8
LC-001-100-D00-0
 62
     7
370
    50
100
AcDbLine
 10
137.163652
 20
279.491393
 30
0.0
 11
137.163652
 21
279.491393
 31
0.0
  0
LINE
  5
63B
330
637
100
AcDbEntity
  8
LC-001-100-D00-0
 62
     7
370
    50
100
AcDbLine
 10
137.163652
 20
279.491393
 30
0.0
 11
137.174489
 21
279.499809
 31
0.0
  0
LINE
  5
63C
330
637
100
AcDbEntity
  8
LC-001-100-D00-0
 62
     7
370
    50
100
AcDbLine
 10
137.174489
 20
279.499809
 30
0.0
 11
137.174489
 21
279.499809
 31
0.0
  0
LINE
  5
63D
330
637
100
AcDbEntity
  8
LC-001-100-D00-0
 62
     7
370
    50
100
AcDbLine
 10
137.174489
 20
279.499809
 30
0.0
 11
137.189182
 21
279.51122
 31
0.0
  0
LINE
  5
63E
330
637
100
AcDbEntity
  8
LC-001-100-D00-0
 62
     7
370
    50
100
AcDbLine
 10
137.189182
 20
279.51122
 30
0.0
 11
137.189182
 21
279.51122
 31
0.0
  0
LINE
  5
63F
330
637
100
AcDbEntity
  8
LC-001-100-D00-0
 62
     7
370
    50
100
AcDbLine
 10
137.189182
 20
279.51122
 30
0.0
 11
137.204797
 21
279.512158
 31
0.0
  0
LINE
  5
640
330
637
100
AcDbEntity
  8
LC-001-100-D00-0
 62
     7
370
    50
100
AcDbLine
 10
137.204797
 20
279.512158
 30
0.0
 11
137.204797
 21
279.512158
 31
0.0
  0
LINE
  5
641
330
637
100
AcDbEntity
  8
LC-001-100-D00-0
 62
     7
370
    50
100
AcDbLine
 10
137.204797
 20
279.512158
 30
0.0
 11
137.208896
 21
279.512404
 31
0.0
  0
ENDBLK
  5
639
330
637
100
AcDbEntity
  8
0
100
AcDbBlockEnd
  0
BLOCK
  5
645
330
644
100
AcDbEntity
  8
0
100
AcDbBlockBegin
  2
POLY47
 70
     0
 71
     0
 10
0.0
 20
0.0
 30
0.0
  3
POLY47
  1

  4
POLY47
  0
LINE
  5
647
330
644
100
AcDbEntity
  8
LC-001-100-D00-0
 62
     7
370
    50
100
AcDbLine
 10
136.34287
 20
279.512404
 30
0.0
 11
136.34287
 21
279.512404
 31
0.0
  0
LINE
  5
648
330
644
100
AcDbEntity
  8
LC-001-100-D00-0
 62
     7
370
    50
100
AcDbLine
 10
136.34287
 20
279.512404
 30
0.0
 11
136.331286
 21
279.510414
 31
0.0
  0
LINE
  5
649
330
644
100
AcDbEntity
  8
LC-001-100-D00-0
 62
     7
370
    50
100
AcDbLine
 10
136.331286
 20
279.510414
 30
0.0
 11
136.331286
 21
279.510414
 31
0.0
  0
LINE
  5
64A
330
644
100
AcDbEntity
  8
LC-001-100-D00-0
 62
     7
370
    50
100
AcDbLine
 10
136.331286
 20
279.510414
 30
0.0
 11
136.315579
 21
279.507716
 31
0.0
  0
LINE
  5
64B
330
644
100
AcDbEntity
  8
LC-001-100-D00-0
 62
     7
370
    50
100
AcDbLine
 10
136.315579
 20
279.507716
 30
0.0
 11
136.315579
 21
279.507716
 31
0.0
  0
LINE
  5
64C
330
644
100
AcDbEntity
  8
LC-001-100-D00-0
 62
     7
370
    50
100
AcDbLine
 10
136.315579
 20
279.507716
 30
0.0
 11
136.301359
 21
279.494787
 31
0.0
  0
LINE
  5
64D
330
644
100
AcDbEntity
  8
LC-001-100-D00-0
 62
     7
370
    50
100
AcDbLine
 10
136.301359
 20
279.494787
 30
0.0
 11
136.301359
 21
279.494787
 31
0.0
  0
LINE
  5
64E
330
644
100
AcDbEntity
  8
LC-001-100-D00-0
 62
     7
370
    50
100
AcDbLine
 10
136.301359
 20
279.494787
 30
0.0
 11
136.297626
 21
279.491393
 31
0.0
  0
ENDBLK
  5
646
330
644
100
AcDbEntity
  8
0
100
AcDbBlockEnd
  0
BLOCK
  5
654
330
653
100
AcDbEntity
  8
0
100
AcDbBlockBegin
  2
KLON23
 70
     0
 71
     0
 10
0.0
 20
0.0
 30
0.0
  3
KLON23
  1

  4
KLON23
  0
LINE
  5
656
330
653
100
AcDbEntity
  8
LC-001-100-D00-0
 62
     7
370
    25
100
AcDbLine
 10
59.085704
 20
53.512403
 30
0.0
 11
60.953685
 21
55.380384
 31
0.0
  0
LINE
  5
657
330
653
100
AcDbEntity
  8
LC-001-100-D00-0
 62
     7
370
    25
100
AcDbLine
 10
57.953685
 20
61.36064
 30
0.0
 11
60.953685
 21
64.36064
 31
0.0
  0
LINE
  5
658
330
653
100
AcDbEntity
  8
LC-001-100-D00-0
 62
     7
370
    25
100
AcDbLine
 10
57.953685
 20
70.340896
 30
0.0
 11
60.953685
 21
73.340896
 31
0.0
  0
LINE
  5
659
330
653
100
AcDbEntity
  8
LC-001-100-D00-0
 62
     7
370
    25
100
AcDbLine
 10
57.953685
 20
79.321152
 30
0.0
 11
60.953685
 21
82.321152
 31
0.0
  0
LINE
  5
65A
330
653
100
AcDbEntity
  8
LC-001-100-D00-0
 62
     7
370
    25
100
AcDbLine
 10
57.953685
 20
88.301408
 30
0.0
 11
60.953685
 21
91.301408
 31
0.0
  0
LINE
  5
65B
330
653
100
AcDbEntity
  8
LC-001-100-D00-0
 62
     7
370
    25
100
AcDbLine
 10
57.953685
 20
97.281665
 30
0.0
 11
60.953685
 21
100.281665
 31
0.0
  0
LINE
  5
65C
330
653
100
AcDbEntity
  8
LC-001-100-D00-0
 62
     7
370
    25
100
AcDbLine
 10
57.953685
 20
106.261921
 30
0.0
 11
60.953685
 21
109.261921
 31
0.0
  0
LINE
  5
65D
330
653
100
AcDbEntity
  8
LC-001-100-D00-0
 62
     7
370
    25
100
AcDbLine
 10
57.953685
 20
115.242177
 30
0.0
 11
60.953685
 21
118.242177
 31
0.0
  0
LINE
  5
65E
330
653
100
AcDbEntity
  8
LC-001-100-D00-0
 62
     7
370
    25
100
AcDbLine
 10
57.953685
 20
124.222433
 30
0.0
 11
60.953685
 21
127.222433
 31
0.0
  0
LINE
  5
65F
330
653
100
AcDbEntity
  8
LC-001-100-D00-0
 62
     7
370
    25
100
AcDbLine
 10
57.953685
 20
133.202689
 30
0.0
 11
60.953685
 21
136.202689
 31
0.0
  0
LINE
  5
660
330
653
100
AcDbEntity
  8
LC-001-100-D00-0
 62
     7
370
    25
100
AcDbLine
 10
57.953685
 20
142.182945
 30
0.0
 11
60.953685
 21
145.182945
 31
0.0
  0
LINE
  5
661
330
653
100
AcDbEntity
  8
LC-001-100-D00-0
 62
     7
370
    25
100
AcDbLine
 10
57.953685
 20
151.163201
 30
0.0
 11
60.953685
 21
154.163201
 31
0.0
  0
LINE
  5
662
330
653
100
AcDbEntity
  8
LC-001-100-D00-0
 62
     7
370
    25
100
AcDbLine
 10
57.953685
 20
160.143457
 30
0.0
 11
60.953685
 21
163.143457
 31
0.0
  0
LINE
  5
663
330
653
100
AcDbEntity
  8
LC-001-100-D00-0
 62
     7
370
    25
100
AcDbLine
 10
57.953685
 20
169.123713
 30
0.0
 11
60.953685
 21
172.123713
 31
0.0
  0
LINE
  5
664
330
653
100
AcDbEntity
  8
LC-001-100-D00-0
 62
     7
370
    25
100
AcDbLine
 10
57.953685
 20
178.10397
 30
0.0
 11
60.953685
 21
181.10397
 31
0.0
  0
LINE
  5
665
330
653
100
AcDbEntity
  8
LC-001-100-D00-0
 62
     7
370
    25
100
AcDbLine
 10
57.953685
 20
187.084226
 30
0.0
 11
60.953685
 21
190.084226
 31
0.0
  0
LINE
  5
666
330
653
100
AcDbEntity
  8
LC-001-100-D00-0
 62
     7
370
    25
100
AcDbLine
 10
57.953685
 20
196.064482
 30
0.0
 11
60.953685
 21
199.064482
 31
0.0
  0
LINE
  5
667
330
653
100
AcDbEntity
  8
LC-001-100-D00-0
 62
     7
370
    25
100
AcDbLine
 10
57.953685
 20
205.044738
 30
0.0
 11
60.953685
 21
208.044738
 31
0.0
  0
LINE
  5
668
330
653
100
AcDbEntity
  8
LC-001-100-D00-0
 62
     7
370
    25
100
AcDbLine
 10
57.953685
 20
214.024994
 30
0.0
 11
60.953685
 21
217.024994
 31
0.0
  0
LINE
  5
669
330
653
100
AcDbEntity
  8
LC-001-100-D00-0
 62
     7
370
    25
100
AcDbLine
 10
57.953685
 20
223.00525
 30
0.0
 11
60.953685
 21
226.00525
 31
0.0
  0
LINE
  5
66A
330
653
100
AcDbEntity
  8
LC-001-100-D00-0
 62
     7
370
    25
100
AcDbLine
 10
57.953685
 20
231.985506
 30
0.0
 11
60.953685
 21
234.985506
 31
0.0
  0
LINE
  5
66B
330
653
100
AcDbEntity
  8
LC-001-100-D00-0
 62
     7
370
    25
100
AcDbLine
 10
57.953685
 20
240.965762
 30
0.0
 11
60.953685
 21
243.965762
 31
0.0
  0
LINE
  5
66C
330
653
100
AcDbEntity
  8
LC-001-100-D00-0
 62
     7
370
    25
100
AcDbLine
 10
57.953685
 20
249.946019
 30
0.0
 11
60.953685
 21
252.946019
 31
0.0
  0
LINE
  5
66D
330
653
100
AcDbEntity
  8
LC-001-100-D00-0
 62
     7
370
    25
100
AcDbLine
 10
53.539813
 20
254.512403
 30
0.0
 11
56.539813
 21
257.512403
 31
0.0
  0
LINE
  5
66E
330
653
100
AcDbEntity
  8
LC-001-100-D00-0
 62
     7
370
    25
100
AcDbLine
 10
44.559557
 20
254.512403
 30
0.0
 11
47.559557
 21
257.512403
 31
0.0
  0
LINE
  5
66F
330
653
100
AcDbEntity
  8
LC-001-100-D00-0
 62
     7
370
    25
100
AcDbLine
 10
33.754652
 20
252.687754
 30
0.0
 11
43.203685
 21
262.136787
 31
0.0
  0
LINE
  5
670
330
653
100
AcDbEntity
  8
LC-001-100-D00-0
 62
     7
370
    25
100
AcDbLine
 10
26.599045
 20
254.512403
 30
0.0
 11
30.703685
 21
258.617043
 31
0.0
  0
LINE
  5
671
330
653
100
AcDbEntity
  8
LC-001-100-D00-0
 62
     7
370
    25
100
AcDbLine
 10
35.703685
 20
263.617043
 30
0.0
 11
42.953685
 21
270.867043
 31
0.0
  0
LINE
  5
672
330
653
100
AcDbEntity
  8
LC-001-100-D00-0
 62
     7
370
    25
100
AcDbLine
 10
25.703685
 20
262.597299
 30
0.0
 11
30.703685
 21
267.597299
 31
0.0
  0
LINE
  5
673
330
653
100
AcDbEntity
  8
LC-001-100-D00-0
 62
     7
370
    25
100
AcDbLine
 10
17.696109
 20
263.569979
 30
0.0
 11
20.703685
 21
266.577555
 31
0.0
  0
LINE
  5
674
330
653
100
AcDbEntity
  8
LC-001-100-D00-0
 62
     7
370
    25
100
AcDbLine
 10
12.052606
 20
266.906732
 30
0.0
 11
14.608366
 21
269.462493
 31
0.0
  0
LINE
  5
675
330
653
100
AcDbEntity
  8
LC-001-100-D00-0
 62
     7
370
    25
100
AcDbLine
 10
4.970101
 20
268.804484
 30
0.0
 11
7.334241
 21
271.168624
 31
0.0
  0
LINE
  5
676
330
653
100
AcDbEntity
  8
LC-001-100-D00-0
 62
     7
370
    25
100
AcDbLine
 10
-2.112404
 20
270.702235
 30
0.0
 11
0.060115
 21
272.874754
 31
0.0
  0
LINE
  5
677
330
653
100
AcDbEntity
  8
LC-001-100-D00-0
 62
     7
370
    25
100
AcDbLine
 10
-10.982492
 20
270.812403
 30
0.0
 11
-7.99658
 21
273.798315
 31
0.0
  0
ENDBLK
  5
655
330
653
100
AcDbEntity
  8
0
100
AcDbBlockEnd
  0
BLOCK
  5
67A
330
679
100
AcDbEntity
  8
0
100
AcDbBlockBegin
  2
KLON24
 70
     0
 71
     0
 10
0.0
 20
0.0
 30
0.0
  3
KLON24
  1

  4
KLON24
  0
LINE
  5
67C
330
679
100
AcDbEntity
  8
LC-001-100-D00-0
 62
     7
370
    25
100
AcDbLine
 10
144.953685
 20
58.558079
 30
0.0
 11
147.953685
 21
61.558079
 31
0.0
  0
LINE
  5
67D
330
679
100
AcDbEntity
  8
LC-001-100-D00-0
 62
     7
370
    25
100
AcDbLine
 10
144.953685
 20
67.538335
 30
0.0
 11
147.953685
 21
70.538335
 31
0.0
  0
LINE
  5
67E
330
679
100
AcDbEntity
  8
LC-001-100-D00-0
 62
     7
370
    25
100
AcDbLine
 10
144.953685
 20
76.518591
 30
0.0
 11
147.953685
 21
79.518591
 31
0.0
  0
LINE
  5
67F
330
679
100
AcDbEntity
  8
LC-001-100-D00-0
 62
     7
370
    25
100
AcDbLine
 10
144.953685
 20
85.498847
 30
0.0
 11
147.953685
 21
88.498847
 31
0.0
  0
LINE
  5
680
330
679
100
AcDbEntity
  8
LC-001-100-D00-0
 62
     7
370
    25
100
AcDbLine
 10
144.953685
 20
94.479103
 30
0.0
 11
147.953685
 21
97.479103
 31
0.0
  0
LINE
  5
681
330
679
100
AcDbEntity
  8
LC-001-100-D00-0
 62
     7
370
    25
100
AcDbLine
 10
144.953685
 20
103.459359
 30
0.0
 11
147.953685
 21
106.459359
 31
0.0
  0
LINE
  5
682
330
679
100
AcDbEntity
  8
LC-001-100-D00-0
 62
     7
370
    25
100
AcDbLine
 10
144.953685
 20
112.439616
 30
0.0
 11
147.953685
 21
115.439616
 31
0.0
  0
LINE
  5
683
330
679
100
AcDbEntity
  8
LC-001-100-D00-0
 62
     7
370
    25
100
AcDbLine
 10
144.953685
 20
121.419872
 30
0.0
 11
147.953685
 21
124.419872
 31
0.0
  0
LINE
  5
684
330
679
100
AcDbEntity
  8
LC-001-100-D00-0
 62
     7
370
    25
100
AcDbLine
 10
144.953685
 20
130.400128
 30
0.0
 11
147.953685
 21
133.400128
 31
0.0
  0
LINE
  5
685
330
679
100
AcDbEntity
  8
LC-001-100-D00-0
 62
     7
370
    25
100
AcDbLine
 10
144.953685
 20
139.380384
 30
0.0
 11
147.953685
 21
142.380384
 31
0.0
  0
LINE
  5
686
330
679
100
AcDbEntity
  8
LC-001-100-D00-0
 62
     7
370
    25
100
AcDbLine
 10
144.953685
 20
148.36064
 30
0.0
 11
147.953685
 21
151.36064
 31
0.0
  0
LINE
  5
687
330
679
100
AcDbEntity
  8
LC-001-100-D00-0
 62
     7
370
    25
100
AcDbLine
 10
144.953685
 20
157.340896
 30
0.0
 11
147.953685
 21
160.340896
 31
0.0
  0
LINE
  5
688
330
679
100
AcDbEntity
  8
LC-001-100-D00-0
 62
     7
370
    25
100
AcDbLine
 10
144.953685
 20
166.321152
 30
0.0
 11
147.953685
 21
169.321152
 31
0.0
  0
LINE
  5
689
330
679
100
AcDbEntity
  8
LC-001-100-D00-0
 62
     7
370
    25
100
AcDbLine
 10
144.953685
 20
175.301408
 30
0.0
 11
147.953685
 21
178.301408
 31
0.0
  0
LINE
  5
68A
330
679
100
AcDbEntity
  8
LC-001-100-D00-0
 62
     7
370
    25
100
AcDbLine
 10
144.953685
 20
184.281665
 30
0.0
 11
147.953685
 21
187.281665
 31
0.0
  0
LINE
  5
68B
330
679
100
AcDbEntity
  8
LC-001-100-D00-0
 62
     7
370
    25
100
AcDbLine
 10
144.953685
 20
193.261921
 30
0.0
 11
147.953685
 21
196.261921
 31
0.0
  0
LINE
  5
68C
330
679
100
AcDbEntity
  8
LC-001-100-D00-0
 62
     7
370
    25
100
AcDbLine
 10
144.953685
 20
202.242177
 30
0.0
 11
147.953685
 21
205.242177
 31
0.0
  0
LINE
  5
68D
330
679
100
AcDbEntity
  8
LC-001-100-D00-0
 62
     7
370
    25
100
AcDbLine
 10
213.523911
 20
270.812403
 30
0.0
 11
216.242701
 21
273.531193
 31
0.0
  0
LINE
  5
68E
330
679
100
AcDbEntity
  8
LC-001-100-D00-0
 62
     7
370
    25
100
AcDbLine
 10
144.953685
 20
211.222433
 30
0.0
 11
147.953685
 21
214.222433
 31
0.0
  0
LINE
  5
68F
330
679
100
AcDbEntity
  8
LC-001-100-D00-0
 62
     7
370
    25
100
AcDbLine
 10
203.120815
 20
269.389563
 30
0.0
 11
206.838501
 21
273.107249
 31
0.0
  0
LINE
  5
690
330
679
100
AcDbEntity
  8
LC-001-100-D00-0
 62
     7
370
    25
100
AcDbLine
 10
144.953685
 20
220.202689
 30
0.0
 11
147.953685
 21
223.202689
 31
0.0
  0
LINE
  5
691
330
679
100
AcDbEntity
  8
LC-001-100-D00-0
 62
     7
370
    25
100
AcDbLine
 10
179.263399
 20
254.512403
 30
0.0
 11
180.203685
 21
255.452689
 31
0.0
  0
LINE
  5
692
330
679
100
AcDbEntity
  8
LC-001-100-D00-0
 62
     7
370
    25
100
AcDbLine
 10
190.853557
 20
266.102562
 30
0.0
 11
195.106538
 21
270.355542
 31
0.0
  0
LINE
  5
693
330
679
100
AcDbEntity
  8
LC-001-100-D00-0
 62
     7
370
    25
100
AcDbLine
 10
144.953685
 20
229.182945
 30
0.0
 11
147.953685
 21
232.182945
 31
0.0
  0
LINE
  5
694
330
679
100
AcDbEntity
  8
LC-001-100-D00-0
 62
     7
370
    25
100
AcDbLine
 10
169.414832
 20
253.644092
 30
0.0
 11
171.283143
 21
255.512403
 31
0.0
  0
LINE
  5
695
330
679
100
AcDbEntity
  8
LC-001-100-D00-0
 62
     7
370
    25
100
AcDbLine
 10
175.203685
 20
259.432945
 30
0.0
 11
181.183143
 21
265.412403
 31
0.0
  0
LINE
  5
696
330
679
100
AcDbEntity
  8
LC-001-100-D00-0
 62
     7
370
    25
100
AcDbLine
 10
144.953685
 20
238.163201
 30
0.0
 11
147.953685
 21
241.163201
 31
0.0
  0
LINE
  5
697
330
679
100
AcDbEntity
  8
LC-001-100-D00-0
 62
     7
370
    25
100
AcDbLine
 10
161.302887
 20
254.512403
 30
0.0
 11
170.203685
 21
263.413201
 31
0.0
  0
LINE
  5
698
330
679
100
AcDbEntity
  8
LC-001-100-D00-0
 62
     7
370
    25
100
AcDbLine
 10
175.203685
 20
268.413201
 30
0.0
 11
175.702887
 21
268.912403
 31
0.0
  0
LINE
  5
699
330
679
100
AcDbEntity
  8
LC-001-100-D00-0
 62
     7
370
    25
100
AcDbLine
 10
144.953685
 20
247.143457
 30
0.0
 11
147.953685
 21
250.143457
 31
0.0
  0
LINE
  5
69A
330
679
100
AcDbEntity
  8
LC-001-100-D00-0
 62
     7
370
    25
100
AcDbLine
 10
152.322631
 20
254.512403
 30
0.0
 11
155.322631
 21
257.512403
 31
0.0
  0
LINE
  5
69B
330
679
100
AcDbEntity
  8
LC-001-100-D00-0
 62
     7
370
    25
100
AcDbLine
 10
162.703685
 20
264.893457
 30
0.0
 11
166.722631
 21
268.912403
 31
0.0
  0
LINE
  5
69C
330
679
100
AcDbEntity
  8
LC-001-100-D00-0
 62
     7
370
    25
100
AcDbLine
 10
144.953685
 20
256.123713
 30
0.0
 11
146.342375
 21
257.512403
 31
0.0
  0
ENDBLK
  5
67B
330
679
100
AcDbEntity
  8
0
100
AcDbBlockEnd
  0
BLOCK
  5
69F
330
69E
100
AcDbEntity
  8
0
100
AcDbBlockBegin
  2
KLON25
 70
     0
 71
     0
 10
0.0
 20
0.0
 30
0.0
  3
KLON25
  1

  4
KLON25
  0
LINE
  5
6A1
330
69E
100
AcDbEntity
  8
LC-001-100-D00-0
 62
     7
370
    25
100
AcDbLine
 10
53.69907
 20
66.086281
 30
0.0
 11
55.455358
 21
67.842569
 31
0.0
  0
LINE
  5
6A2
330
69E
100
AcDbEntity
  8
LC-001-100-D00-0
 62
     7
370
    25
100
AcDbLine
 10
56.953694
 20
69.340905
 30
0.0
 11
57.953694
 21
70.340905
 31
0.0
  0
LINE
  5
6A3
330
69E
100
AcDbEntity
  8
LC-001-100-D00-0
 62
     7
370
    25
100
AcDbLine
 10
56.483882
 20
77.851349
 30
0.0
 11
57.953694
 21
79.321161
 31
0.0
  0
LINE
  5
6A4
330
69E
100
AcDbEntity
  8
LC-001-100-D00-0
 62
     7
370
    25
100
AcDbLine
 10
49.041702
 20
79.389426
 30
0.0
 11
49.825011
 21
80.172734
 31
0.0
  0
LINE
  5
6A5
330
69E
100
AcDbEntity
  8
LC-001-100-D00-0
 62
     7
370
    25
100
AcDbLine
 10
56.953694
 20
87.301417
 30
0.0
 11
57.953694
 21
88.301417
 31
0.0
  0
LINE
  5
6A6
330
69E
100
AcDbEntity
  8
LC-001-100-D00-0
 62
     7
370
    25
100
AcDbLine
 10
51.760461
 20
91.088441
 30
0.0
 11
53.17492
 21
92.5029
 31
0.0
  0
LINE
  5
6A7
330
69E
100
AcDbEntity
  8
LC-001-100-D00-0
 62
     7
370
    25
100
AcDbLine
 10
56.953694
 20
96.281674
 30
0.0
 11
57.953694
 21
97.281674
 31
0.0
  0
LINE
  5
6A8
330
69E
100
AcDbEntity
  8
LC-001-100-D00-0
 62
     7
370
    25
100
AcDbLine
 10
54.608232
 20
102.916468
 30
0.0
 11
56.530814
 21
104.83905
 31
0.0
  0
LINE
  5
6A9
330
69E
100
AcDbEntity
  8
LC-001-100-D00-0
 62
     7
370
    25
100
AcDbLine
 10
56.94771
 20
105.255946
 30
0.0
 11
57.953694
 21
106.26193
 31
0.0
  0
LINE
  5
6AA
330
69E
100
AcDbEntity
  8
LC-001-100-D00-0
 62
     7
370
    25
100
AcDbLine
 10
56.928505
 20
114.216997
 30
0.0
 11
57.953694
 21
115.242186
 31
0.0
  0
LINE
  5
6AB
330
69E
100
AcDbEntity
  8
LC-001-100-D00-0
 62
     7
370
    25
100
AcDbLine
 10
49.821853
 20
116.090601
 30
0.0
 11
50.894483
 21
117.163231
 31
0.0
  0
LINE
  5
6AC
330
69E
100
AcDbEntity
  8
LC-001-100-D00-0
 62
     7
370
    25
100
AcDbLine
 10
56.953694
 20
123.222442
 30
0.0
 11
57.953694
 21
124.222442
 31
0.0
  0
LINE
  5
6AD
330
69E
100
AcDbEntity
  8
LC-001-100-D00-0
 62
     7
370
    25
100
AcDbLine
 10
52.669624
 20
127.918628
 30
0.0
 11
54.244393
 21
129.493397
 31
0.0
  0
LINE
  5
6AE
330
69E
100
AcDbEntity
  8
LC-001-100-D00-0
 62
     7
370
    25
100
AcDbLine
 10
56.953694
 20
132.202698
 30
0.0
 11
57.953694
 21
133.202698
 31
0.0
  0
LINE
  5
6AF
330
69E
100
AcDbEntity
  8
LC-001-100-D00-0
 62
     7
370
    25
100
AcDbLine
 10
55.517395
 20
139.746655
 30
0.0
 11
57.953694
 21
142.182954
 31
0.0
  0
LINE
  5
6B0
330
69E
100
AcDbEntity
  8
LC-001-100-D00-0
 62
     7
370
    25
100
AcDbLine
 10
56.953694
 20
150.16321
 30
0.0
 11
57.953694
 21
151.16321
 31
0.0
  0
LINE
  5
6B1
330
69E
100
AcDbEntity
  8
LC-001-100-D00-0
 62
     7
370
    25
100
AcDbLine
 10
50.731016
 20
152.920789
 30
0.0
 11
51.963956
 21
154.153728
 31
0.0
  0
LINE
  5
6B2
330
69E
100
AcDbEntity
  8
LC-001-100-D00-0
 62
     7
370
    25
100
AcDbLine
 10
56.953694
 20
159.143466
 30
0.0
 11
57.953694
 21
160.143466
 31
0.0
  0
LINE
  5
6B3
330
69E
100
AcDbEntity
  8
LC-001-100-D00-0
 62
     7
370
    25
100
AcDbLine
 10
53.578787
 20
164.748815
 30
0.0
 11
55.313865
 21
166.483894
 31
0.0
  0
LINE
  5
6B4
330
69E
100
AcDbEntity
  8
LC-001-100-D00-0
 62
     7
370
    25
100
AcDbLine
 10
56.953694
 20
168.123722
 30
0.0
 11
57.953694
 21
169.123722
 31
0.0
  0
LINE
  5
6B5
330
69E
100
AcDbEntity
  8
LC-001-100-D00-0
 62
     7
370
    25
100
AcDbLine
 10
56.392897
 20
176.543182
 30
0.0
 11
57.953694
 21
178.103979
 31
0.0
  0
LINE
  5
6B6
330
69E
100
AcDbEntity
  8
LC-001-100-D00-0
 62
     7
370
    25
100
AcDbLine
 10
48.991878
 20
178.122419
 30
0.0
 11
49.683519
 21
178.81406
 31
0.0
  0
LINE
  5
6B7
330
69E
100
AcDbEntity
  8
LC-001-100-D00-0
 62
     7
370
    25
100
AcDbLine
 10
56.953694
 20
186.084235
 30
0.0
 11
57.953694
 21
187.084235
 31
0.0
  0
LINE
  5
6B8
330
69E
100
AcDbEntity
  8
LC-001-100-D00-0
 62
     7
370
    25
100
AcDbLine
 10
51.640179
 20
189.750976
 30
0.0
 11
53.033428
 21
191.144225
 31
0.0
  0
LINE
  5
6B9
330
69E
100
AcDbEntity
  8
LC-001-100-D00-0
 62
     7
370
    25
100
AcDbLine
 10
56.953694
 20
195.064491
 30
0.0
 11
57.953694
 21
196.064491
 31
0.0
  0
LINE
  5
6BA
330
69E
100
AcDbEntity
  8
LC-001-100-D00-0
 62
     7
370
    25
100
AcDbLine
 10
54.48795
 20
201.579003
 30
0.0
 11
56.383338
 21
203.474391
 31
0.0
  0
LINE
  5
6BB
330
69E
100
AcDbEntity
  8
LC-001-100-D00-0
 62
     7
370
    25
100
AcDbLine
 10
56.953694
 20
204.044747
 30
0.0
 11
57.953694
 21
205.044747
 31
0.0
  0
LINE
  5
6BC
330
69E
100
AcDbEntity
  8
LC-001-100-D00-0
 62
     7
370
    25
100
AcDbLine
 10
56.896715
 20
212.968024
 30
0.0
 11
57.953694
 21
214.025003
 31
0.0
  0
LINE
  5
6BD
330
69E
100
AcDbEntity
  8
LC-001-100-D00-0
 62
     7
370
    25
100
AcDbLine
 10
49.701571
 20
214.753136
 30
0.0
 11
50.752992
 21
215.804557
 31
0.0
  0
LINE
  5
6BE
330
69E
100
AcDbEntity
  8
LC-001-100-D00-0
 62
     7
370
    25
100
AcDbLine
 10
56.953694
 20
222.005259
 30
0.0
 11
57.953694
 21
223.005259
 31
0.0
  0
LINE
  5
6BF
330
69E
100
AcDbEntity
  8
LC-001-100-D00-0
 62
     7
370
    25
100
AcDbLine
 10
52.549341
 20
226.581163
 30
0.0
 11
54.102901
 21
228.134722
 31
0.0
  0
LINE
  5
6C0
330
69E
100
AcDbEntity
  8
LC-001-100-D00-0
 62
     7
370
    25
100
AcDbLine
 10
56.953694
 20
230.985515
 30
0.0
 11
57.953694
 21
231.985515
 31
0.0
  0
LINE
  5
6C1
330
69E
100
AcDbEntity
  8
LC-001-100-D00-0
 62
     7
370
    25
100
AcDbLine
 10
55.397112
 20
238.40919
 30
0.0
 11
57.45281
 21
240.464888
 31
0.0
  0
ENDBLK
  5
6A0
330
69E
100
AcDbEntity
  8
0
100
AcDbBlockEnd
  0
BLOCK
  5
6C4
330
6C3
100
AcDbEntity
  8
0
100
AcDbBlockBegin
  2
KLON26
 70
     0
 71
     0
 10
0.0
 20
0.0
 30
0.0
  3
KLON26
  1

  4
KLON26
  0
LINE
  5
6C6
330
6C3
100
AcDbEntity
  8
LC-001-100-D00-0
 62
     7
370
    50
100
AcDbLine
 10
152.540455
 20
66.144849
 30
0.0
 11
154.238175
 21
67.842569
 31
0.0
  0
LINE
  5
6C7
330
6C3
100
AcDbEntity
  8
LC-001-100-D00-0
 62
     7
370
    50
100
AcDbLine
 10
147.953676
 20
70.538326
 30
0.0
 11
148.953676
 21
71.538326
 31
0.0
  0
LINE
  5
6C8
330
6C3
100
AcDbEntity
  8
LC-001-100-D00-0
 62
     7
370
    50
100
AcDbLine
 10
156.614734
 20
79.199384
 30
0.0
 11
156.927027
 21
79.511677
 31
0.0
  0
LINE
  5
6C9
330
6C3
100
AcDbEntity
  8
LC-001-100-D00-0
 62
     7
370
    50
100
AcDbLine
 10
147.953676
 20
79.518582
 30
0.0
 11
148.972373
 21
80.53728
 31
0.0
  0
LINE
  5
6CA
330
6C3
100
AcDbEntity
  8
LC-001-100-D00-0
 62
     7
370
    50
100
AcDbLine
 10
147.953676
 20
88.498838
 30
0.0
 11
148.970356
 21
89.515518
 31
0.0
  0
LINE
  5
6CB
330
6C3
100
AcDbEntity
  8
LC-001-100-D00-0
 62
     7
370
    50
100
AcDbLine
 10
149.771792
 20
90.316955
 30
0.0
 11
151.957738
 21
92.5029
 31
0.0
  0
LINE
  5
6CC
330
6C3
100
AcDbEntity
  8
LC-001-100-D00-0
 62
     7
370
    50
100
AcDbLine
 10
147.953676
 20
97.479094
 30
0.0
 11
148.953676
 21
98.479094
 31
0.0
  0
LINE
  5
6CD
330
6C3
100
AcDbEntity
  8
LC-001-100-D00-0
 62
     7
370
    50
100
AcDbLine
 10
153.838874
 20
103.364293
 30
0.0
 11
155.307648
 21
104.833066
 31
0.0
  0
LINE
  5
6CE
330
6C3
100
AcDbEntity
  8
LC-001-100-D00-0
 62
     7
370
    50
100
AcDbLine
 10
147.953676
 20
106.45935
 30
0.0
 11
148.953676
 21
107.45935
 31
0.0
  0
LINE
  5
6CF
330
6C3
100
AcDbEntity
  8
LC-001-100-D00-0
 62
     7
370
    50
100
AcDbLine
 10
147.953676
 20
115.439607
 30
0.0
 11
149.6773
 21
117.163231
 31
0.0
  0
LINE
  5
6D0
330
6C3
100
AcDbEntity
  8
LC-001-100-D00-0
 62
     7
370
    50
100
AcDbLine
 10
147.953676
 20
124.419863
 30
0.0
 11
148.953676
 21
125.419863
 31
0.0
  0
LINE
  5
6D1
330
6C3
100
AcDbEntity
  8
LC-001-100-D00-0
 62
     7
370
    50
100
AcDbLine
 10
151.070254
 20
127.536441
 30
0.0
 11
153.02721
 21
129.493397
 31
0.0
  0
LINE
  5
6D2
330
6C3
100
AcDbEntity
  8
LC-001-100-D00-0
 62
     7
370
    50
100
AcDbLine
 10
147.953676
 20
133.400119
 30
0.0
 11
148.953676
 21
134.400119
 31
0.0
  0
LINE
  5
6D3
330
6C3
100
AcDbEntity
  8
LC-001-100-D00-0
 62
     7
370
    50
100
AcDbLine
 10
155.137293
 20
140.583736
 30
0.0
 11
156.37712
 21
141.823563
 31
0.0
  0
LINE
  5
6D4
330
6C3
100
AcDbEntity
  8
LC-001-100-D00-0
 62
     7
370
    50
100
AcDbLine
 10
147.953676
 20
142.380375
 30
0.0
 11
148.953676
 21
143.380375
 31
0.0
  0
LINE
  5
6D5
330
6C3
100
AcDbEntity
  8
LC-001-100-D00-0
 62
     7
370
    50
100
AcDbLine
 10
147.953676
 20
151.360631
 30
0.0
 11
150.746773
 21
154.153728
 31
0.0
  0
LINE
  5
6D6
330
6C3
100
AcDbEntity
  8
LC-001-100-D00-0
 62
     7
370
    50
100
AcDbLine
 10
147.953676
 20
160.340887
 30
0.0
 11
148.953676
 21
161.340887
 31
0.0
  0
LINE
  5
6D7
330
6C3
100
AcDbEntity
  8
LC-001-100-D00-0
 62
     7
370
    50
100
AcDbLine
 10
152.368673
 20
164.755884
 30
0.0
 11
154.096683
 21
166.483894
 31
0.0
  0
LINE
  5
6D8
330
6C3
100
AcDbEntity
  8
LC-001-100-D00-0
 62
     7
370
    50
100
AcDbLine
 10
147.953676
 20
169.321143
 30
0.0
 11
148.953676
 21
170.321143
 31
0.0
  0
LINE
  5
6D9
330
6C3
100
AcDbEntity
  8
LC-001-100-D00-0
 62
     7
370
    50
100
AcDbLine
 10
156.435712
 20
177.803179
 30
0.0
 11
156.792352
 21
178.15982
 31
0.0
  0
LINE
  5
6DA
330
6C3
100
AcDbEntity
  8
LC-001-100-D00-0
 62
     7
370
    50
100
AcDbLine
 10
147.953676
 20
178.301399
 30
0.0
 11
148.953832
 21
179.301556
 31
0.0
  0
LINE
  5
6DB
330
6C3
100
AcDbEntity
  8
LC-001-100-D00-0
 62
     7
370
    50
100
AcDbLine
 10
147.953676
 20
187.281656
 30
0.0
 11
149.02989
 21
188.35787
 31
0.0
  0
LINE
  5
6DC
330
6C3
100
AcDbEntity
  8
LC-001-100-D00-0
 62
     7
370
    50
100
AcDbLine
 10
149.570766
 20
188.898746
 30
0.0
 11
151.816245
 21
191.144225
 31
0.0
  0
LINE
  5
6DD
330
6C3
100
AcDbEntity
  8
LC-001-100-D00-0
 62
     7
370
    50
100
AcDbLine
 10
147.953676
 20
196.261912
 30
0.0
 11
148.953676
 21
197.261912
 31
0.0
  0
LINE
  5
6DE
330
6C3
100
AcDbEntity
  8
LC-001-100-D00-0
 62
     7
370
    50
100
AcDbLine
 10
153.667092
 20
201.975328
 30
0.0
 11
155.166155
 21
203.474391
 31
0.0
  0
LINE
  5
6DF
330
6C3
100
AcDbEntity
  8
LC-001-100-D00-0
 62
     7
370
    50
100
AcDbLine
 10
147.953676
 20
205.242168
 30
0.0
 11
148.953676
 21
206.242168
 31
0.0
  0
LINE
  5
6E0
330
6C3
100
AcDbEntity
  8
LC-001-100-D00-0
 62
     7
370
    50
100
AcDbLine
 10
147.953676
 20
214.222424
 30
0.0
 11
149.535809
 21
215.804557
 31
0.0
  0
LINE
  5
6E1
330
6C3
100
AcDbEntity
  8
LC-001-100-D00-0
 62
     7
370
    50
100
AcDbLine
 10
147.953676
 20
223.20268
 30
0.0
 11
148.953676
 21
224.20268
 31
0.0
  0
LINE
  5
6E2
330
6C3
100
AcDbEntity
  8
LC-001-100-D00-0
 62
     7
370
    50
100
AcDbLine
 10
150.898473
 20
226.147477
 30
0.0
 11
152.885718
 21
228.134722
 31
0.0
  0
LINE
  5
6E3
330
6C3
100
AcDbEntity
  8
LC-001-100-D00-0
 62
     7
370
    50
100
AcDbLine
 10
147.953676
 20
232.182936
 30
0.0
 11
148.953676
 21
233.182936
 31
0.0
  0
LINE
  5
6E4
330
6C3
100
AcDbEntity
  8
LC-001-100-D00-0
 62
     7
370
    50
100
AcDbLine
 10
154.965511
 20
239.194771
 30
0.0
 11
156.235628
 21
240.464888
 31
0.0
  0
ENDBLK
  5
6C5
330
6C3
100
AcDbEntity
  8
0
100
AcDbBlockEnd
  0
BLOCK
  5
6E7
330
6E6
100
AcDbEntity
  8
0
100
AcDbBlockBegin
  2
KLON27
 70
     0
 71
     0
 10
0.0
 20
0.0
 30
0.0
  3
KLON27
  1

  4
KLON27
  0
LINE
  5
6E9
330
6E6
100
AcDbEntity
  8
LC-001-100-D00-0
 62
     7
370
    25
100
AcDbLine
 10
31.585398
 20
259.498757
 30
0.0
 11
31.949493
 21
259.862851
 31
0.0
  0
LINE
  5
6EA
330
6E6
100
AcDbEntity
  8
LC-001-100-D00-0
 62
     7
370
    25
100
AcDbLine
 10
31.99946
 20
259.912819
 30
0.0
 11
34.928511
 21
262.841869
 31
0.0
  0
LINE
  5
6EB
330
6E6
100
AcDbEntity
  8
LC-001-100-D00-0
 62
     7
370
    25
100
AcDbLine
 10
30.980329
 20
267.873944
 30
0.0
 11
34.928511
 21
271.822125
 31
0.0
  0
LINE
  5
6EC
330
6E6
100
AcDbEntity
  8
LC-001-100-D00-0
 62
     7
370
    25
100
AcDbLine
 10
29.638533
 20
275.512403
 30
0.0
 11
31.638533
 21
277.512403
 31
0.0
  0
ENDBLK
  5
6E8
330
6E6
100
AcDbEntity
  8
0
100
AcDbBlockEnd
  0
BLOCK
  5
6EF
330
6EE
100
AcDbEntity
  8
0
100
AcDbBlockBegin
  2
KLON28
 70
     0
 71
     0
 10
0.0
 20
0.0
 30
0.0
  3
KLON28
  1

  4
KLON28
  0
LINE
  5
6F1
330
6EE
100
AcDbEntity
  8
LC-001-100-D00-0
 62
     7
370
    25
100
AcDbLine
 10
157.453685
 20
268.623713
 30
0.0
 11
159.453685
 21
270.623713
 31
0.0
  0
LINE
  5
6F2
330
6EE
100
AcDbEntity
  8
LC-001-100-D00-0
 62
     7
370
    25
100
AcDbLine
 10
165.442374
 20
276.612403
 30
0.0
 11
165.600752
 21
276.77078
 31
0.0
  0
LINE
  5
6F3
330
6EE
100
AcDbEntity
  8
LC-001-100-D00-0
 62
     7
370
    25
100
AcDbLine
 10
156.462118
 20
276.612403
 30
0.0
 11
163.703
 21
283.853285
 31
0.0
  0
LINE
  5
6F4
330
6EE
100
AcDbEntity
  8
LC-001-100-D00-0
 62
     7
370
    25
100
AcDbLine
 10
153.232035
 20
282.362576
 30
0.0
 11
161.805249
 21
290.93579
 31
0.0
  0
LINE
  5
6F5
330
6EE
100
AcDbEntity
  8
LC-001-100-D00-0
 62
     7
370
    25
100
AcDbLine
 10
151.334283
 20
289.44508
 30
0.0
 11
159.907497
 21
298.018294
 31
0.0
  0
LINE
  5
6F6
330
6EE
100
AcDbEntity
  8
LC-001-100-D00-0
 62
     7
370
    25
100
AcDbLine
 10
149.436532
 20
296.527585
 30
0.0
 11
158.009746
 21
305.100799
 31
0.0
  0
LINE
  5
6F7
330
6EE
100
AcDbEntity
  8
LC-001-100-D00-0
 62
     7
370
    25
100
AcDbLine
 10
147.53878
 20
303.61009
 30
0.0
 11
156.111994
 21
312.183304
 31
0.0
  0
LINE
  5
6F8
330
6EE
100
AcDbEntity
  8
LC-001-100-D00-0
 62
     7
370
    25
100
AcDbLine
 10
145.641029
 20
310.692595
 30
0.0
 11
154.214243
 21
319.265809
 31
0.0
  0
LINE
  5
6F9
330
6EE
100
AcDbEntity
  8
LC-001-100-D00-0
 62
     7
370
    25
100
AcDbLine
 10
142.753685
 20
316.785506
 30
0.0
 11
152.316492
 21
326.348313
 31
0.0
  0
LINE
  5
6FA
330
6EE
100
AcDbEntity
  8
LC-001-100-D00-0
 62
     7
370
    25
100
AcDbLine
 10
141.845526
 20
324.857604
 30
0.0
 11
150.41874
 21
333.430818
 31
0.0
  0
LINE
  5
6FB
330
6EE
100
AcDbEntity
  8
LC-001-100-D00-0
 62
     7
370
    25
100
AcDbLine
 10
139.947775
 20
331.940109
 30
0.0
 11
148.520989
 21
340.513323
 31
0.0
  0
LINE
  5
6FC
330
6EE
100
AcDbEntity
  8
LC-001-100-D00-0
 62
     7
370
    25
100
AcDbLine
 10
138.050023
 20
339.022613
 30
0.0
 11
145.722559
 21
346.695149
 31
0.0
  0
LINE
  5
6FD
330
6EE
100
AcDbEntity
  8
LC-001-100-D00-0
 62
     7
370
    25
100
AcDbLine
 10
136.152272
 20
346.105118
 30
0.0
 11
140.597093
 21
350.549939
 31
0.0
  0
LINE
  5
6FE
330
6EE
100
AcDbEntity
  8
LC-001-100-D00-0
 62
     7
370
    25
100
AcDbLine
 10
47.679301
 20
266.612403
 30
0.0
 11
48.453685
 21
267.386787
 31
0.0
  0
LINE
  5
6FF
330
6EE
100
AcDbEntity
  8
LC-001-100-D00-0
 62
     7
370
    25
100
AcDbLine
 10
128.870879
 20
347.803981
 30
0.0
 11
132.620879
 21
351.553981
 31
0.0
  0
LINE
  5
700
330
6EE
100
AcDbEntity
  8
LC-001-100-D00-0
 62
     7
370
    25
100
AcDbLine
 10
46.453685
 20
274.367043
 30
0.0
 11
48.453685
 21
276.367043
 31
0.0
  0
LINE
  5
701
330
6EE
100
AcDbEntity
  8
LC-001-100-D00-0
 62
     7
370
    25
100
AcDbLine
 10
48.699045
 20
276.612403
 30
0.0
 11
52.026049
 21
279.939407
 31
0.0
  0
LINE
  5
702
330
6EE
100
AcDbEntity
  8
LC-001-100-D00-0
 62
     7
370
    25
100
AcDbLine
 10
119.890623
 20
347.803981
 30
0.0
 11
123.640623
 21
351.553981
 31
0.0
  0
LINE
  5
703
330
6EE
100
AcDbEntity
  8
LC-001-100-D00-0
 62
     7
370
    25
100
AcDbLine
 10
40.463808
 20
277.357423
 30
0.0
 11
55.31305
 21
292.206665
 31
0.0
  0
LINE
  5
704
330
6EE
100
AcDbEntity
  8
LC-001-100-D00-0
 62
     7
370
    25
100
AcDbLine
 10
110.910367
 20
347.803981
 30
0.0
 11
114.660367
 21
351.553981
 31
0.0
  0
LINE
  5
705
330
6EE
100
AcDbEntity
  8
LC-001-100-D00-0
 62
     7
370
    25
100
AcDbLine
 10
43.75081
 20
289.624681
 30
0.0
 11
58.600052
 21
304.473923
 31
0.0
  0
LINE
  5
706
330
6EE
100
AcDbEntity
  8
LC-001-100-D00-0
 62
     7
370
    25
100
AcDbLine
 10
101.930111
 20
347.803981
 30
0.0
 11
105.680111
 21
351.553981
 31
0.0
  0
LINE
  5
707
330
6EE
100
AcDbEntity
  8
LC-001-100-D00-0
 62
     7
370
    25
100
AcDbLine
 10
47.037812
 20
301.891939
 30
0.0
 11
63.153685
 21
318.007811
 31
0.0
  0
LINE
  5
708
330
6EE
100
AcDbEntity
  8
LC-001-100-D00-0
 62
     7
370
    25
100
AcDbLine
 10
92.949855
 20
347.803981
 30
0.0
 11
96.699855
 21
351.553981
 31
0.0
  0
LINE
  5
709
330
6EE
100
AcDbEntity
  8
LC-001-100-D00-0
 62
     7
370
    25
100
AcDbLine
 10
50.324814
 20
314.159197
 30
0.0
 11
65.174056
 21
329.008439
 31
0.0
  0
LINE
  5
70A
330
6EE
100
AcDbEntity
  8
LC-001-100-D00-0
 62
     7
370
    25
100
AcDbLine
 10
83.969599
 20
347.803981
 30
0.0
 11
87.719599
 21
351.553981
 31
0.0
  0
LINE
  5
70B
330
6EE
100
AcDbEntity
  8
LC-001-100-D00-0
 62
     7
370
    25
100
AcDbLine
 10
53.611816
 20
326.426455
 30
0.0
 11
68.461058
 21
341.275697
 31
0.0
  0
LINE
  5
70C
330
6EE
100
AcDbEntity
  8
LC-001-100-D00-0
 62
     7
370
    25
100
AcDbLine
 10
74.989342
 20
347.803981
 30
0.0
 11
78.839342
 21
351.653981
 31
0.0
  0
LINE
  5
70D
330
6EE
100
AcDbEntity
  8
LC-001-100-D00-0
 62
     7
370
    25
100
AcDbLine
 10
56.898817
 20
338.693713
 30
0.0
 11
69.746428
 21
351.541323
 31
0.0
  0
ENDBLK
  5
6F0
330
6EE
100
AcDbEntity
  8
0
100
AcDbBlockEnd
  0
BLOCK
  5
712
330
711
100
AcDbEntity
  8
0
100
AcDbBlockBegin
  2
KLON29
 70
     0
 71
     0
 10
0.0
 20
0.0
 30
0.0
  3
KLON29
  1

  4
KLON29
  0
LINE
  5
714
330
711
100
AcDbEntity
  8
LC-001-100-D00-0
 62
     7
370
    25
100
AcDbLine
 10
199.419295
 20
274.668299
 30
0.0
 11
200.717601
 21
275.966606
 31
0.0
  0
LINE
  5
715
330
711
100
AcDbEntity
  8
LC-001-100-D00-0
 62
     7
370
    25
100
AcDbLine
 10
188.014976
 20
272.244236
 30
0.0
 11
189.313282
 21
273.542543
 31
0.0
  0
LINE
  5
716
330
711
100
AcDbEntity
  8
LC-001-100-D00-0
 62
     7
370
    25
100
AcDbLine
 10
179.803286
 20
273.012802
 30
0.0
 11
180.510393
 21
273.719909
 31
0.0
  0
ENDBLK
  5
713
330
711
100
AcDbEntity
  8
0
100
AcDbBlockEnd
  0
BLOCK
  5
719
330
718
100
AcDbEntity
  8
0
100
AcDbBlockBegin
  2
KLON30
 70
     0
 71
     0
 10
0.0
 20
0.0
 30
0.0
  3
KLON30
  1

  4
KLON30
  0
LINE
  5
71B
330
718
100
AcDbEntity
  8
LC-001-100-D00-0
 62
     7
370
    25
100
AcDbLine
 10
28.638533
 20
274.512403
 30
0.0
 11
29.203685
 21
275.077555
 31
0.0
  0
LINE
  5
71C
330
718
100
AcDbEntity
  8
LC-001-100-D00-0
 62
     7
370
    25
100
AcDbLine
 10
17.478158
 20
272.332285
 30
0.0
 11
18.321288
 21
273.175415
 31
0.0
  0
LINE
  5
71D
330
718
100
AcDbEntity
  8
LC-001-100-D00-0
 62
     7
370
    25
100
AcDbLine
 10
10.072107
 20
273.906489
 30
0.0
 11
10.915237
 21
274.74962
 31
0.0
  0
LINE
  5
71E
330
718
100
AcDbEntity
  8
LC-001-100-D00-0
 62
     7
370
    25
100
AcDbLine
 10
2.666055
 20
275.480694
 30
0.0
 11
3.509186
 21
276.323825
 31
0.0
  0
LINE
  5
71F
330
718
100
AcDbEntity
  8
LC-001-100-D00-0
 62
     7
370
    25
100
AcDbLine
 10
-2.79602
 20
278.998876
 30
0.0
 11
-2.782492
 21
279.012403
 31
0.0
  0
ENDBLK
  5
71A
330
718
100
AcDbEntity
  8
0
100
AcDbBlockEnd
  0
BLOCK
  5
722
330
721
100
AcDbEntity
  8
0
100
AcDbBlockBegin
  2
KLON31
 70
     0
 71
     0
 10
0.0
 20
0.0
 30
0.0
  3
KLON31
  1

  4
KLON31
  0
LINE
  5
724
330
721
100
AcDbEntity
  8
LC-001-100-D00-0
 62
     7
370
    25
100
AcDbLine
 10
45.599045
 20
273.512403
 30
0.0
 11
45.953685
 21
273.867043
 31
0.0
  0
LINE
  5
725
330
721
100
AcDbEntity
  8
LC-001-100-D00-0
 62
     7
370
    25
100
AcDbLine
 10
37.618789
 20
274.512403
 30
0.0
 11
38.618789
 21
275.512403
 31
0.0
  0
ENDBLK
  5
723
330
721
100
AcDbEntity
  8
0
100
AcDbBlockEnd
  0
BLOCK
  5
728
330
727
100
AcDbEntity
  8
0
100
AcDbBlockBegin
  2
KLON32
 70
     0
 71
     0
 10
0.0
 20
0.0
 30
0.0
  3
KLON32
  1

  4
KLON32
  0
LINE
  5
72A
330
727
100
AcDbEntity
  8
LC-001-100-D00-0
 62
     7
370
    25
100
AcDbLine
 10
170.953685
 20
264.163201
 30
0.0
 11
174.953685
 21
268.163201
 31
0.0
  0
LINE
  5
72B
330
727
100
AcDbEntity
  8
LC-001-100-D00-0
 62
     7
370
    25
100
AcDbLine
 10
170.953685
 20
273.143457
 30
0.0
 11
175.822631
 21
278.012403
 31
0.0
  0
LINE
  5
72C
330
727
100
AcDbEntity
  8
LC-001-100-D00-0
 62
     7
370
    25
100
AcDbLine
 10
176.703685
 20
278.893457
 30
0.0
 11
176.817691
 21
279.007464
 31
0.0
  0
ENDBLK
  5
729
330
727
100
AcDbEntity
  8
0
100
AcDbBlockEnd
  0
BLOCK
  5
73F
330
735
100
AcDbEntity
  8
0
100
AcDbBlockBegin
  2
*D80
 70
     1
 71
     0
 10
0.0
 20
0.0
 30
0.0
  3
*D80
  1

  0
LINE
  5
736
330
735
100
AcDbEntity
  8
LC-002-003-----0
 62
     2
370
    -2
100
AcDbLine
 10
-12.046314
 20
270.812403
 30
0.0
 11
-12.046314
 21
375.392403
 31
0.0
  0
LINE
  5
737
330
735
100
AcDbEntity
  8
LC-002-003-----0
 62
     2
370
    -2
100
AcDbLine
 10
217.953686
 20
270.812403
 30
0.0
 11
217.953686
 21
375.392403
 31
0.0
  0
LINE
  5
738
330
735
100
AcDbEntity
  8
LC-002-003-----0
 62
     2
370
    -2
100
AcDbLine
 10
15.953686
 20
371.792403
 30
0.0
 11
189.953686
 21
371.792403
 31
0.0
  0
SOLID
  5
739
330
735
100
AcDbEntity
  8
LC-002-003-----0
 62
     2
100
AcDbTrace
 10
15.953686
 20
376.45907
 30
0.0
 11
15.953686
 21
367.125737
 31
0.0
 12
-12.046314
 22
371.792403
 32
0.0
 13
-12.046314
 23
371.792403
 33
0.0
  0
SOLID
  5
73A
330
735
100
AcDbEntity
  8
LC-002-003-----0
 62
     2
100
AcDbTrace
 10
189.953686
 20
367.125737
 30
0.0
 11
189.953686
 21
376.45907
 31
0.0
 12
217.953686
 22
371.792403
 32
0.0
 13
217.953686
 23
371.792403
 33
0.0
  0
MTEXT
  5
73B
330
735
100
AcDbEntity
  8
LC-002-003-----0
 62
     2
100
AcDbMText
 10
102.308873
 20
402.592403
 30
0.0
 40
28.0
 41
0.0
 71
     5
 72
     1
  1
%%c\A1;230
  7
LCTX15-400-0-0pDIN-Schrift
 73
     1
 44
1.0
  0
POINT
  5
73C
330
735
100
AcDbEntity
  8
Defpoints
 62
     0
100
AcDbPoint
 10
-12.046314
 20
270.812403
 30
0.0
  0
POINT
  5
73D
330
735
100
AcDbEntity
  8
Defpoints
 62
     0
100
AcDbPoint
 10
217.953686
 20
270.812403
 30
0.0
  0
POINT
  5
73E
330
735
100
AcDbEntity
  8
Defpoints
 62
     0
100
AcDbPoint
 10
217.953686
 20
371.792403
 30
0.0
  0
ENDBLK
  5
740
330
735
100
AcDbEntity
  8
0
100
AcDbBlockEnd
  0
BLOCK
  5
74C
330
742
100
AcDbEntity
  8
0
100
AcDbBlockBegin
  2
*D81
 70
     1
 71
     0
 10
0.0
 20
0.0
 30
0.0
  3
*D81
  1

  0
LINE
  5
743
330
742
100
AcDbEntity
  8
LC-002-003-----0
 62
     2
370
    -2
100
AcDbLine
 10
156.453676
 20
240.464888
 30
0.0
 11
205.192352
 21
240.464888
 31
0.0
  0
LINE
  5
744
330
742
100
AcDbEntity
  8
LC-002-003-----0
 62
     2
370
    -2
100
AcDbLine
 10
147.015862
 20
53.5124
 30
0.0
 11
205.192352
 21
53.5124
 31
0.0
  0
LINE
  5
745
330
742
100
AcDbEntity
  8
LC-002-003-----0
 62
     2
370
    -2
100
AcDbLine
 10
201.592352
 20
212.464888
 30
0.0
 11
201.592352
 21
81.5124
 31
0.0
  0
SOLID
  5
746
330
742
100
AcDbEntity
  8
LC-002-003-----0
 62
     2
100
AcDbTrace
 10
206.259019
 20
212.464888
 30
0.0
 11
196.925685
 21
212.464888
 31
0.0
 12
201.592352
 22
240.464888
 32
0.0
 13
201.592352
 23
240.464888
 33
0.0
  0
SOLID
  5
747
330
742
100
AcDbEntity
  8
LC-002-003-----0
 62
     2
100
AcDbTrace
 10
196.925685
 20
81.5124
 30
0.0
 11
206.259019
 21
81.5124
 31
0.0
 12
201.592352
 22
53.5124
 32
0.0
 13
201.592352
 23
53.5124
 33
0.0
  0
MTEXT
  5
748
330
742
100
AcDbEntity
  8
LC-002-003-----0
 62
     2
100
AcDbMText
 10
170.792352
 20
148.027586
 30
0.0
 40
28.0
 41
0.0
 71
     5
 72
     1
  1
\A1;187
  7
LCTX15-400-0-0pDIN-Schrift
 11
6.123031769111886E-17
 21
1.0
 31
0.0
 73
     1
 44
1.0
  0
POINT
  5
749
330
742
100
AcDbEntity
  8
Defpoints
 62
     0
100
AcDbPoint
 10
156.453676
 20
240.464888
 30
0.0
  0
POINT
  5
74A
330
742
100
AcDbEntity
  8
Defpoints
 62
     0
100
AcDbPoint
 10
147.015862
 20
53.5124
 30
0.0
  0
POINT
  5
74B
330
742
100
AcDbEntity
  8
Defpoints
 62
     0
100
AcDbPoint
 10
201.592352
 20
53.5124
 30
0.0
  0
ENDBLK
  5
74D
330
742
100
AcDbEntity
  8
0
100
AcDbBlockEnd
  0
BLOCK
  5
759
330
74F
100
AcDbEntity
  8
0
100
AcDbBlockBegin
  2
*D82
 70
     1
 71
     0
 10
0.0
 20
0.0
 30
0.0
  3
*D82
  1

  0
LINE
  5
750
330
74F
100
AcDbEntity
  8
LC-002-003-----0
 62
     2
370
    -2
100
AcDbLine
 10
168.370384
 20
254.512398
 30
0.0
 11
259.391851
 21
254.512398
 31
0.0
  0
LINE
  5
751
330
74F
100
AcDbEntity
  8
LC-002-003-----0
 62
     2
370
    -2
100
AcDbLine
 10
144.953685
 20
53.5124
 30
0.0
 11
259.391851
 21
53.5124
 31
0.0
  0
LINE
  5
752
330
74F
100
AcDbEntity
  8
LC-002-003-----0
 62
     2
370
    -2
100
AcDbLine
 10
255.791851
 20
226.512398
 30
0.0
 11
255.791851
 21
81.5124
 31
0.0
  0
SOLID
  5
753
330
74F
100
AcDbEntity
  8
LC-002-003-----0
 62
     2
100
AcDbTrace
 10
260.458518
 20
226.512398
 30
0.0
 11
251.125184
 21
226.512398
 31
0.0
 12
255.791851
 22
254.512398
 32
0.0
 13
255.791851
 23
254.512398
 33
0.0
  0
SOLID
  5
754
330
74F
100
AcDbEntity
  8
LC-002-003-----0
 62
     2
100
AcDbTrace
 10
251.125184
 20
81.5124
 30
0.0
 11
260.458518
 21
81.5124
 31
0.0
 12
255.791851
 22
53.5124
 32
0.0
 13
255.791851
 23
53.5124
 33
0.0
  0
MTEXT
  5
755
330
74F
100
AcDbEntity
  8
LC-002-003-----0
 62
     2
100
AcDbMText
 10
224.991851
 20
156.993802
 30
0.0
 40
28.0
 41
0.0
 71
     5
 72
     1
  1
\A1;200
  7
LCTX15-400-0-0pDIN-Schrift
 11
6.123031769111886E-17
 21
1.0
 31
0.0
 73
     1
 44
1.0
  0
POINT
  5
756
330
74F
100
AcDbEntity
  8
Defpoints
 62
     0
100
AcDbPoint
 10
168.370384
 20
254.512398
 30
0.0
  0
POINT
  5
757
330
74F
100
AcDbEntity
  8
Defpoints
 62
     0
100
AcDbPoint
 10
144.953685
 20
53.5124
 30
0.0
  0
POINT
  5
758
330
74F
100
AcDbEntity
  8
Defpoints
 62
     0
100
AcDbPoint
 10
255.791851
 20
53.5124
 30
0.0
  0
ENDBLK
  5
75A
330
74F
100
AcDbEntity
  8
0
100
AcDbBlockEnd
  0
BLOCK
  5
766
330
75C
100
AcDbEntity
  8
0
100
AcDbBlockBegin
  2
*D83
 70
     1
 71
     0
 10
0.0
 20
0.0
 30
0.0
  3
*D83
  1

  0
LINE
  5
75D
330
75C
100
AcDbEntity
  8
LC-002-003-----0
 62
     2
370
    -2
100
AcDbLine
 10
144.953685
 20
53.5124
 30
0.0
 11
304.246609
 21
53.5124
 31
0.0
  0
LINE
  5
75E
330
75C
100
AcDbEntity
  8
LC-002-003-----0
 62
     2
370
    -2
100
AcDbLine
 10
217.953686
 20
270.812403
 30
0.0
 11
304.246609
 21
270.812403
 31
0.0
  0
LINE
  5
75F
330
75C
100
AcDbEntity
  8
LC-002-003-----0
 62
     2
370
    -2
100
AcDbLine
 10
300.646609
 20
81.5124
 30
0.0
 11
300.646609
 21
242.812403
 31
0.0
  0
SOLID
  5
760
330
75C
100
AcDbEntity
  8
LC-002-003-----0
 62
     2
100
AcDbTrace
 10
295.979942
 20
81.5124
 30
0.0
 11
305.313275
 21
81.5124
 31
0.0
 12
300.646609
 22
53.5124
 32
0.0
 13
300.646609
 23
53.5124
 33
0.0
  0
SOLID
  5
761
330
75C
100
AcDbEntity
  8
LC-002-003-----0
 62
     2
100
AcDbTrace
 10
305.313275
 20
242.812403
 30
0.0
 11
295.979942
 21
242.812403
 31
0.0
 12
300.646609
 22
270.812403
 32
0.0
 13
300.646609
 23
270.812403
 33
0.0
  0
MTEXT
  5
762
330
75C
100
AcDbEntity
  8
LC-002-003-----0
 62
     2
100
AcDbMText
 10
269.846609
 20
154.924676
 30
0.0
 40
28.0
 41
0.0
 71
     5
 72
     1
  1
\A1;217
  7
LCTX15-400-0-0pDIN-Schrift
 11
6.123031769111886E-17
 21
1.0
 31
0.0
 73
     1
 44
1.0
  0
POINT
  5
763
330
75C
100
AcDbEntity
  8
Defpoints
 62
     0
100
AcDbPoint
 10
144.953685
 20
53.5124
 30
0.0
  0
POINT
  5
764
330
75C
100
AcDbEntity
  8
Defpoints
 62
     0
100
AcDbPoint
 10
217.953686
 20
270.812403
 30
0.0
  0
POINT
  5
765
330
75C
100
AcDbEntity
  8
Defpoints
 62
     0
100
AcDbPoint
 10
300.646609
 20
270.812403
 30
0.0
  0
ENDBLK
  5
767
330
75C
100
AcDbEntity
  8
0
100
AcDbBlockEnd
  0
BLOCK
  5
773
330
769
100
AcDbEntity
  8
0
100
AcDbBlockBegin
  2
*D84
 70
     1
 71
     0
 10
0.0
 20
0.0
 30
0.0
  3
*D84
  1

  0
LINE
  5
76A
330
769
100
AcDbEntity
  8
LC-002-003-----0
 62
     2
370
    -2
100
AcDbLine
 10
57.953688
 20
57.0124
 30
0.0
 11
57.953688
 21
-3.057597
 31
0.0
  0
LINE
  5
76B
330
769
100
AcDbEntity
  8
LC-002-003-----0
 62
     2
370
    -2
100
AcDbLine
 10
147.953685
 20
57.0124
 30
0.0
 11
147.953685
 21
-3.057597
 31
0.0
  0
LINE
  5
76C
330
769
100
AcDbEntity
  8
LC-002-003-----0
 62
     2
370
    -2
100
AcDbLine
 10
85.953688
 20
0.542403
 30
0.0
 11
119.953685
 21
0.542403
 31
0.0
  0
SOLID
  5
76D
330
769
100
AcDbEntity
  8
LC-002-003-----0
 62
     2
100
AcDbTrace
 10
85.953688
 20
5.20907
 30
0.0
 11
85.953688
 21
-4.124263
 31
0.0
 12
57.953688
 22
0.542403
 32
0.0
 13
57.953688
 23
0.542403
 33
0.0
  0
SOLID
  5
76E
330
769
100
AcDbEntity
  8
LC-002-003-----0
 62
     2
100
AcDbTrace
 10
119.953685
 20
-4.124263
 30
0.0
 11
119.953685
 21
5.20907
 31
0.0
 12
147.953685
 22
0.542403
 32
0.0
 13
147.953685
 23
0.542403
 33
0.0
  0
MTEXT
  5
76F
330
769
100
AcDbEntity
  8
LC-002-003-----0
 62
     2
100
AcDbMText
 10
102.960622
 20
31.342403
 30
0.0
 40
28.0
 41
0.0
 71
     5
 72
     1
  1
%%c\A1;90
  7
LCTX15-400-0-0pDIN-Schrift
 73
     1
 44
1.0
  0
POINT
  5
770
330
769
100
AcDbEntity
  8
Defpoints
 62
     0
100
AcDbPoint
 10
57.953688
 20
57.0124
 30
0.0
  0
POINT
  5
771
330
769
100
AcDbEntity
  8
Defpoints
 62
     0
100
AcDbPoint
 10
147.953685
 20
57.0124
 30
0.0
  0
POINT
  5
772
330
769
100
AcDbEntity
  8
Defpoints
 62
     0
100
AcDbPoint
 10
147.953685
 20
0.542403
 30
0.0
  0
ENDBLK
  5
774
330
769
100
AcDbEntity
  8
0
100
AcDbBlockEnd
  0
BLOCK
  5
780
330
776
100
AcDbEntity
  8
0
100
AcDbBlockBegin
  2
*D85
 70
     1
 71
     0
 10
0.0
 20
0.0
 30
0.0
  3
*D85
  1

  0
LINE
  5
777
330
776
100
AcDbEntity
  8
LC-002-003-----0
 62
     2
370
    -2
100
AcDbLine
 10
48.955596
 20
67.386147
 30
0.0
 11
48.955596
 21
-58.893597
 31
0.0
  0
LINE
  5
778
330
776
100
AcDbEntity
  8
LC-002-003-----0
 62
     2
370
    -2
100
AcDbLine
 10
156.951774
 20
67.386147
 30
0.0
 11
156.951774
 21
-58.893597
 31
0.0
  0
LINE
  5
779
330
776
100
AcDbEntity
  8
LC-002-003-----0
 62
     2
370
    -2
100
AcDbLine
 10
76.955596
 20
-55.293597
 30
0.0
 11
128.951774
 21
-55.293597
 31
0.0
  0
SOLID
  5
77A
330
776
100
AcDbEntity
  8
LC-002-003-----0
 62
     2
100
AcDbTrace
 10
76.955596
 20
-50.62693
 30
0.0
 11
76.955596
 21
-59.960263
 31
0.0
 12
48.955596
 22
-55.293597
 32
0.0
 13
48.955596
 23
-55.293597
 33
0.0
  0
SOLID
  5
77B
330
776
100
AcDbEntity
  8
LC-002-003-----0
 62
     2
100
AcDbTrace
 10
128.951774
 20
-59.960263
 30
0.0
 11
128.951774
 21
-50.62693
 31
0.0
 12
156.951774
 22
-55.293597
 32
0.0
 13
156.951774
 23
-55.293597
 33
0.0
  0
MTEXT
  5
77C
330
776
100
AcDbEntity
  8
LC-002-003-----0
 62
     2
100
AcDbMText
 10
97.636227
 20
-24.493597
 30
0.0
 40
28.0
 41
0.0
 71
     5
 72
     1
  1
%%c\A1;108
  7
LCTX15-400-0-0pDIN-Schrift
 73
     1
 44
1.0
  0
POINT
  5
77D
330
776
100
AcDbEntity
  8
Defpoints
 62
     0
100
AcDbPoint
 10
48.955596
 20
67.386147
 30
0.0
  0
POINT
  5
77E
330
776
100
AcDbEntity
  8
Defpoints
 62
     0
100
AcDbPoint
 10
156.951774
 20
67.386147
 30
0.0
  0
POINT
  5
77F
330
776
100
AcDbEntity
  8
Defpoints
 62
     0
100
AcDbPoint
 10
156.951774
 20
-55.293597
 30
0.0
  0
ENDBLK
  5
781
330
776
100
AcDbEntity
  8
0
100
AcDbBlockEnd
  0
ENDSEC
  0
SECTION
  2
ENTITIES
  0
INSERT
  5
3C
330
1F
100
AcDbEntity
  8
LC-001-100-D00-0
 62
     7
370
    50
100
AcDbBlockReference
  2
POLY1
 10
0.0
 20
0.0
 30
0.0
  0
LINE
  5
3D
330
1F
100
AcDbEntity
  8
LC-001-100-D00-0
 62
     7
370
    50
100
AcDbLine
 10
175.03721
 20
268.071099
 30
0.0
 11
174.953685
 21
268.118276
 31
0.0
  0
INSERT
  5
49
330
1F
100
AcDbEntity
  8
LC-001-100-D00-0
 62
     7
370
    50
100
AcDbBlockReference
  2
POLY2
 10
0.0
 20
0.0
 30
0.0
  0
INSERT
  5
55
330
1F
100
AcDbEntity
  8
LC-001-100-D00-0
 62
     7
370
    50
100
AcDbBlockReference
  2
POLY3
 10
0.0
 20
0.0
 30
0.0
  0
INSERT
  5
61
330
1F
100
AcDbEntity
  8
LC-001-100-D00-0
 62
     7
370
    50
100
AcDbBlockReference
  2
POLY4
 10
0.0
 20
0.0
 30
0.0
  0
LINE
  5
62
330
1F
100
AcDbEntity
  8
LC-001-100-D00-0
 62
     7
370
    50
100
AcDbLine
 10
175.03721
 20
262.071086
 30
0.0
 11
174.953685
 21
262.118278
 31
0.0
  0
LINE
  5
63
330
1F
100
AcDbEntity
  8
LC-001-100-D00-0
 62
     7
370
    50
100
AcDbLine
 10
175.03721
 20
265.071093
 30
0.0
 11
174.953685
 21
265.118285
 31
0.0
  0
INSERT
  5
6F
330
1F
100
AcDbEntity
  8
LC-001-100-D00-0
 62
     7
370
    50
100
AcDbBlockReference
  2
POLY5
 10
0.0
 20
0.0
 30
0.0
  0
INSERT
  5
7B
330
1F
100
AcDbEntity
  8
LC-001-100-D00-0
 62
     7
370
    50
100
AcDbBlockReference
  2
POLY6
 10
0.0
 20
0.0
 30
0.0
  0
INSERT
  5
87
330
1F
100
AcDbEntity
  8
LC-001-100-D00-0
 62
     7
370
    50
100
AcDbBlockReference
  2
POLY7
 10
0.0
 20
0.0
 30
0.0
  0
LINE
  5
88
330
1F
100
AcDbEntity
  8
LC-001-100-D00-0
 62
     7
370
    50
100
AcDbLine
 10
75.799438
 20
351.653977
 30
0.0
 11
75.799438
 21
351.553975
 31
0.0
  0
INSERT
  5
94
330
1F
100
AcDbEntity
  8
LC-001-100-D00-0
 62
     7
370
    50
100
AcDbBlockReference
  2
POLY8
 10
0.0
 20
0.0
 30
0.0
  0
LINE
  5
95
330
1F
100
AcDbEntity
  8
LC-001-100-D00-0
 62
     7
370
    50
100
AcDbLine
 10
35.382773
 20
261.877178
 30
0.0
 11
34.954416
 21
262.118457
 31
0.0
  0
INSERT
  5
A1
330
1F
100
AcDbEntity
  8
LC-001-100-D00-0
 62
     7
370
    50
100
AcDbBlockReference
  2
POLY9
 10
0.0
 20
0.0
 30
0.0
  0
LINE
  5
A2
330
1F
100
AcDbEntity
  8
LC-001-100-D00-0
 62
     7
370
    50
100
AcDbLine
 10
35.382773
 20
267.877175
 30
0.0
 11
34.954416
 21
268.118455
 31
0.0
  0
LINE
  5
A3
330
1F
100
AcDbEntity
  8
LC-001-100-D00-0
 62
     7
370
    50
100
AcDbLine
 10
35.382773
 20
264.877184
 30
0.0
 11
34.954416
 21
265.118448
 31
0.0
  0
INSERT
  5
AF
330
1F
100
AcDbEntity
  8
LC-001-100-D00-0
 62
     7
370
    50
100
AcDbBlockReference
  2
POLY10
 10
0.0
 20
0.0
 30
0.0
  0
INSERT
  5
BB
330
1F
100
AcDbEntity
  8
LC-001-100-D00-0
 62
     7
370
    50
100
AcDbBlockReference
  2
POLY11
 10
0.0
 20
0.0
 30
0.0
  0
LINE
  5
BC
330
1F
100
AcDbEntity
  8
LC-001-100-D00-0
 62
     7
370
    50
100
AcDbLine
 10
30.954423
 20
271.285741
 30
0.0
 11
30.954423
 21
269.572942
 31
0.0
  0
LINE
  5
BD
330
1F
100
AcDbEntity
  8
LC-001-100-D00-0
 62
     7
370
    50
100
AcDbLine
 10
34.954416
 20
267.93219
 30
0.0
 11
34.954416
 21
269.644915
 31
0.0
  0
LINE
  5
BE
330
1F
100
AcDbEntity
  8
LC-001-100-D00-0
 62
     7
370
    50
100
AcDbLine
 10
30.954423
 20
274.285747
 30
0.0
 11
30.954423
 21
272.572933
 31
0.0
  0
LINE
  5
BF
330
1F
100
AcDbEntity
  8
LC-001-100-D00-0
 62
     7
370
    50
100
AcDbLine
 10
34.954416
 20
270.932181
 30
0.0
 11
34.954416
 21
272.644921
 31
0.0
  0
LINE
  5
C0
330
1F
100
AcDbEntity
  8
LC-001-100-D00-0
 62
     7
370
    50
100
AcDbLine
 10
30.954423
 20
265.285744
 30
0.0
 11
30.954423
 21
263.572945
 31
0.0
  0
LINE
  5
C1
330
1F
100
AcDbEntity
  8
LC-001-100-D00-0
 62
     7
370
    50
100
AcDbLine
 10
34.954416
 20
261.932178
 30
0.0
 11
34.954416
 21
263.644917
 31
0.0
  0
LINE
  5
C2
330
1F
100
AcDbEntity
  8
LC-001-100-D00-0
 62
     7
370
    50
100
AcDbLine
 10
30.954423
 20
268.285735
 30
0.0
 11
30.954423
 21
266.572936
 31
0.0
  0
LINE
  5
C3
330
1F
100
AcDbEntity
  8
LC-001-100-D00-0
 62
     7
370
    50
100
AcDbLine
 10
34.954416
 20
264.932184
 30
0.0
 11
34.954416
 21
266.644923
 31
0.0
  0
LINE
  5
C4
330
1F
100
AcDbEntity
  8
LC-001-100-D00-0
 62
     7
370
    50
100
AcDbLine
 10
30.954423
 20
262.285738
 30
0.0
 11
30.954423
 21
259.912817
 31
0.0
  0
LINE
  5
C5
330
1F
100
AcDbEntity
  8
LC-001-100-D00-0
 62
     7
370
    50
100
AcDbLine
 10
34.954416
 20
259.912817
 30
0.0
 11
34.954416
 21
260.644911
 31
0.0
  0
LINE
  5
C6
330
1F
100
AcDbEntity
  8
LC-001-100-D00-0
 62
     7
370
    50
100
AcDbLine
 10
34.954416
 20
273.932187
 30
0.0
 11
34.954416
 21
275.512411
 31
0.0
  0
LINE
  5
C7
330
1F
100
AcDbEntity
  8
LC-001-100-D00-0
 62
     7
370
    50
100
AcDbLine
 10
27.70442
 20
278.312398
 30
0.0
 11
27.70442
 21
275.512411
 31
0.0
  0
LINE
  5
C8
330
1F
100
AcDbEntity
  8
LC-001-100-D00-0
 62
     7
370
    50
100
AcDbLine
 10
38.204419
 20
275.512411
 30
0.0
 11
38.204419
 21
278.312398
 31
0.0
  0
ARC
  5
C9
330
1F
100
AcDbEntity
  8
LC-001-100-D00-0
 62
     7
370
    50
100
AcDbCircle
 10
32.95442
 20
273.387403
 30
0.0
 40
6.820236432851899
100
AcDbArc
 50
123.355647
 51
131.284711
  0
ARC
  5
CA
330
1F
100
AcDbEntity
  8
LC-001-100-D00-0
 62
     7
370
    50
100
AcDbCircle
 10
32.95442
 20
273.387403
 30
0.0
 40
6.820236432851991
100
AcDbArc
 50
48.715289
 51
56.644353
  0
LINE
  5
CB
330
1F
100
AcDbEntity
  8
LC-001-100-D00-0
 62
     7
370
    50
100
AcDbLine
 10
30.954423
 20
259.912817
 30
0.0
 11
32.95442
 21
258.512406
 31
0.0
  0
LINE
  5
CC
330
1F
100
AcDbEntity
  8
LC-001-100-D00-0
 62
     7
370
    50
100
AcDbLine
 10
32.95442
 20
258.512406
 30
0.0
 11
34.954416
 21
259.912817
 31
0.0
  0
ARC
  5
CD
330
1F
100
AcDbEntity
  8
LC-001-100-D00-0
 62
     7
370
    50
100
AcDbCircle
 10
27.90442
 20
278.312403
 30
0.0
 40
0.1999999999999886
100
AcDbArc
 50
90.0
 51
180.0
  0
ARC
  5
CE
330
1F
100
AcDbEntity
  8
LC-001-100-D00-0
 62
     7
370
    50
100
AcDbCircle
 10
38.00442
 20
278.312403
 30
0.0
 40
0.2000000000000171
100
AcDbArc
 50
0.0
 51
90.0
  0
LINE
  5
CF
330
1F
100
AcDbEntity
  8
LC-001-100-D00-0
 62
     7
370
    50
100
AcDbLine
 10
214.953701
 20
273.822232
 30
0.0
 11
195.438853
 21
273.822232
 31
0.0
  0
LINE
  5
D0
330
1F
100
AcDbEntity
  8
LC-001-100-D00-0
 62
     7
370
    50
100
AcDbLine
 10
10.468523
 20
273.822232
 30
0.0
 11
-9.046336
 21
273.822232
 31
0.0
  0
LINE
  5
D1
330
1F
100
AcDbEntity
  8
LC-001-100-D00-0
 62
     7
370
    50
100
AcDbLine
 10
135.188703
 20
279.491393
 30
0.0
 11
135.007792
 21
279.397829
 31
0.0
  0
ARC
  5
D2
330
1F
100
AcDbEntity
  8
LC-001-100-D00-0
 62
     7
370
    50
100
AcDbCircle
 10
135.277923
 20
279.312403
 30
0.0
 40
0.1999999999999886
100
AcDbArc
 50
90.0
 51
116.493736
  0
INSERT
  5
D9
330
1F
100
AcDbEntity
  8
LC-001-100-D00-0
 62
     7
370
    50
100
AcDbBlockReference
  2
KLON1
 10
0.0
 20
0.0
 30
0.0
  0
INSERT
  5
E5
330
1F
100
AcDbEntity
  8
LC-001-100-D00-0
 62
     7
370
    50
100
AcDbBlockReference
  2
POLY12
 10
0.0
 20
0.0
 30
0.0
  0
LINE
  5
E6
330
1F
100
AcDbEntity
  8
LC-001-100-D00-0
 62
     7
370
    50
100
AcDbLine
 10
175.992106
 20
270.521669
 30
0.0
 11
176.203684
 21
270.357279
 31
0.0
  0
INSERT
  5
ED
330
1F
100
AcDbEntity
  8
LC-001-100-D00-0
 62
     7
370
    50
100
AcDbBlockReference
  2
KLON2
 10
0.0
 20
0.0
 30
0.0
  0
INSERT
  5
F4
330
1F
100
AcDbEntity
  8
LC-001-100-D00-0
 62
     7
370
    50
100
AcDbBlockReference
  2
KLON3
 10
0.0
 20
0.0
 30
0.0
  0
INSERT
  5
FB
330
1F
100
AcDbEntity
  8
LC-001-100-D00-0
 62
     7
370
    50
100
AcDbBlockReference
  2
KLON4
 10
0.0
 20
0.0
 30
0.0
  0
INSERT
  5
102
330
1F
100
AcDbEntity
  8
LC-001-100-D00-0
 62
     7
370
    50
100
AcDbBlockReference
  2
KLON5
 10
0.0
 20
0.0
 30
0.0
  0
INSERT
  5
109
330
1F
100
AcDbEntity
  8
LC-001-100-D00-0
 62
     7
370
    50
100
AcDbBlockReference
  2
KLON6
 10
0.0
 20
0.0
 30
0.0
  0
INSERT
  5
110
330
1F
100
AcDbEntity
  8
LC-001-100-D00-0
 62
     7
370
    50
100
AcDbBlockReference
  2
KLON7
 10
0.0
 20
0.0
 30
0.0
  0
INSERT
  5
117
330
1F
100
AcDbEntity
  8
LC-001-100-D00-0
 62
     7
370
    50
100
AcDbBlockReference
  2
KLON8
 10
0.0
 20
0.0
 30
0.0
  0
INSERT
  5
11E
330
1F
100
AcDbEntity
  8
LC-001-100-D00-0
 62
     7
370
    50
100
AcDbBlockReference
  2
KLON9
 10
0.0
 20
0.0
 30
0.0
  0
INSERT
  5
125
330
1F
100
AcDbEntity
  8
LC-001-100-D00-0
 62
     7
370
    50
100
AcDbBlockReference
  2
KLON10
 10
0.0
 20
0.0
 30
0.0
  0
INSERT
  5
12C
330
1F
100
AcDbEntity
  8
LC-001-100-D00-0
 62
     7
370
    50
100
AcDbBlockReference
  2
KLON11
 10
0.0
 20
0.0
 30
0.0
  0
INSERT
  5
133
330
1F
100
AcDbEntity
  8
LC-001-100-D00-0
 62
     7
370
    50
100
AcDbBlockReference
  2
KLON12
 10
0.0
 20
0.0
 30
0.0
  0
INSERT
  5
13A
330
1F
100
AcDbEntity
  8
LC-001-100-D00-0
 62
     7
370
    50
100
AcDbBlockReference
  2
KLON13
 10
0.0
 20
0.0
 30
0.0
  0
INSERT
  5
141
330
1F
100
AcDbEntity
  8
LC-001-100-D00-0
 62
     7
370
    50
100
AcDbBlockReference
  2
KLON14
 10
0.0
 20
0.0
 30
0.0
  0
INSERT
  5
148
330
1F
100
AcDbEntity
  8
LC-001-100-D00-0
 62
     7
370
    50
100
AcDbBlockReference
  2
KLON15
 10
0.0
 20
0.0
 30
0.0
  0
INSERT
  5
154
330
1F
100
AcDbEntity
  8
LC-001-100-D00-0
 62
     7
370
    50
100
AcDbBlockReference
  2
POLY13
 10
0.0
 20
0.0
 30
0.0
  0
LINE
  5
155
330
1F
100
AcDbEntity
  8
LC-001-100-D00-0
 62
     7
370
    50
100
AcDbLine
 10
175.992106
 20
273.52166
 30
0.0
 11
176.203684
 21
273.357286
 31
0.0
  0
INSERT
  5
15C
330
1F
100
AcDbEntity
  8
LC-001-100-D00-0
 62
     7
370
    50
100
AcDbBlockReference
  2
KLON16
 10
0.0
 20
0.0
 30
0.0
  0
INSERT
  5
163
330
1F
100
AcDbEntity
  8
LC-001-100-D00-0
 62
     7
370
    50
100
AcDbBlockReference
  2
KLON17
 10
0.0
 20
0.0
 30
0.0
  0
INSERT
  5
16A
330
1F
100
AcDbEntity
  8
LC-001-100-D00-0
 62
     7
370
    50
100
AcDbBlockReference
  2
KLON18
 10
0.0
 20
0.0
 30
0.0
  0
INSERT
  5
171
330
1F
100
AcDbEntity
  8
LC-001-100-D00-0
 62
     7
370
    50
100
AcDbBlockReference
  2
KLON19
 10
0.0
 20
0.0
 30
0.0
  0
INSERT
  5
178
330
1F
100
AcDbEntity
  8
LC-001-100-D00-0
 62
     7
370
    50
100
AcDbBlockReference
  2
KLON20
 10
0.0
 20
0.0
 30
0.0
  0
LINE
  5
179
330
1F
100
AcDbEntity
  8
LC-001-100-D00-0
 62
     7
370
    50
100
AcDbLine
 10
170.953684
 20
266.507997
 30
0.0
 11
170.953684
 21
268.20658
 31
0.0
  0
LINE
  5
17A
330
1F
100
AcDbEntity
  8
LC-001-100-D00-0
 62
     7
370
    50
100
AcDbLine
 10
174.953685
 20
266.706569
 30
0.0
 11
174.953685
 21
265.008001
 31
0.0
  0
LINE
  5
17B
330
1F
100
AcDbEntity
  8
LC-001-100-D00-0
 62
     7
370
    50
100
AcDbLine
 10
177.453684
 20
278.512402
 30
0.0
 11
178.003684
 21
278.512402
 31
0.0
  0
ARC
  5
17C
330
1F
100
AcDbEntity
  8
LC-001-100-D00-0
 62
     7
370
    50
100
AcDbCircle
 10
178.003685
 20
278.312403
 30
0.0
 40
0.2000000000000455
100
AcDbArc
 50
0.0
 51
90.0
  0
LINE
  5
17D
330
1F
100
AcDbEntity
  8
LC-001-100-D00-0
 62
     7
370
    50
100
AcDbLine
 10
178.203684
 20
278.312398
 30
0.0
 11
178.203684
 21
275.512411
 31
0.0
  0
LINE
  5
17E
330
1F
100
AcDbEntity
  8
LC-001-100-D00-0
 62
     7
370
    50
100
AcDbLine
 10
178.203684
 20
275.512411
 30
0.0
 11
174.953685
 21
275.512411
 31
0.0
  0
LINE
  5
17F
330
1F
100
AcDbEntity
  8
LC-001-100-D00-0
 62
     7
370
    50
100
AcDbLine
 10
174.953685
 20
275.512411
 30
0.0
 11
174.953685
 21
274.007989
 31
0.0
  0
LINE
  5
180
330
1F
100
AcDbEntity
  8
LC-001-100-D00-0
 62
     7
370
    50
100
AcDbLine
 10
174.953685
 20
272.706582
 30
0.0
 11
174.953685
 21
271.007998
 31
0.0
  0
LINE
  5
181
330
1F
100
AcDbEntity
  8
LC-001-100-D00-0
 62
     7
370
    50
100
AcDbLine
 10
174.953685
 20
269.706576
 30
0.0
 11
174.953685
 21
268.007992
 31
0.0
  0
LINE
  5
182
330
1F
100
AcDbEntity
  8
LC-001-100-D00-0
 62
     7
370
    50
100
AcDbLine
 10
174.953685
 20
263.706578
 30
0.0
 11
174.953685
 21
262.007995
 31
0.0
  0
LINE
  5
183
330
1F
100
AcDbEntity
  8
LC-001-100-D00-0
 62
     7
370
    50
100
AcDbLine
 10
174.953685
 20
260.706572
 30
0.0
 11
174.953685
 21
259.912817
 31
0.0
  0
LINE
  5
184
330
1F
100
AcDbEntity
  8
LC-001-100-D00-0
 62
     7
370
    50
100
AcDbLine
 10
174.953685
 20
259.912817
 30
0.0
 11
172.953685
 21
258.512406
 31
0.0
  0
LINE
  5
185
330
1F
100
AcDbEntity
  8
LC-001-100-D00-0
 62
     7
370
    50
100
AcDbLine
 10
172.953685
 20
258.512406
 30
0.0
 11
170.953684
 21
259.912817
 31
0.0
  0
LINE
  5
186
330
1F
100
AcDbEntity
  8
LC-001-100-D00-0
 62
     7
370
    50
100
AcDbLine
 10
170.953684
 20
259.912817
 30
0.0
 11
170.953684
 21
262.206583
 31
0.0
  0
LINE
  5
187
330
1F
100
AcDbEntity
  8
LC-001-100-D00-0
 62
     7
370
    50
100
AcDbLine
 10
170.953684
 20
263.507991
 30
0.0
 11
170.953684
 21
265.206574
 31
0.0
  0
LINE
  5
188
330
1F
100
AcDbEntity
  8
LC-001-100-D00-0
 62
     7
370
    50
100
AcDbLine
 10
170.953684
 20
269.507988
 30
0.0
 11
170.953684
 21
271.206571
 31
0.0
  0
LINE
  5
189
330
1F
100
AcDbEntity
  8
LC-001-100-D00-0
 62
     7
370
    50
100
AcDbLine
 10
170.953684
 20
272.507994
 30
0.0
 11
170.953684
 21
274.206577
 31
0.0
  0
LINE
  5
18A
330
1F
100
AcDbEntity
  8
LC-001-100-D00-0
 62
     7
370
    50
100
AcDbLine
 10
170.953684
 20
275.508
 30
0.0
 11
170.953684
 21
275.512411
 31
0.0
  0
LINE
  5
18B
330
1F
100
AcDbEntity
  8
LC-001-100-D00-0
 62
     7
370
    50
100
AcDbLine
 10
170.953684
 20
275.512411
 30
0.0
 11
167.703685
 21
275.512411
 31
0.0
  0
LINE
  5
18C
330
1F
100
AcDbEntity
  8
LC-001-100-D00-0
 62
     7
370
    50
100
AcDbLine
 10
167.703685
 20
275.512411
 30
0.0
 11
167.703685
 21
278.312398
 31
0.0
  0
ARC
  5
18D
330
1F
100
AcDbEntity
  8
LC-001-100-D00-0
 62
     7
370
    50
100
AcDbCircle
 10
167.903685
 20
278.312403
 30
0.0
 40
0.1999999999999886
100
AcDbArc
 50
90.0
 51
180.0
  0
LINE
  5
18E
330
1F
100
AcDbEntity
  8
LC-001-100-D00-0
 62
     7
370
    50
100
AcDbLine
 10
167.903685
 20
278.512402
 30
0.0
 11
168.453685
 21
278.512402
 31
0.0
  0
ARC
  5
18F
330
1F
100
AcDbEntity
  8
LC-001-100-D00-0
 62
     7
370
    50
100
AcDbCircle
 10
172.953685
 20
273.387403
 30
0.0
 40
6.820236432851962
100
AcDbArc
 50
123.355647
 51
131.284711
  0
LINE
  5
190
330
1F
100
AcDbEntity
  8
LC-001-100-D00-0
 62
     7
370
    50
100
AcDbLine
 10
169.203685
 20
278.012408
 30
0.0
 11
169.203685
 21
279.084174
 31
0.0
  0
LINE
  5
191
330
1F
100
AcDbEntity
  8
LC-001-100-D00-0
 62
     7
370
    50
100
AcDbLine
 10
169.203685
 20
278.012408
 30
0.0
 11
171.180253
 21
278.012408
 31
0.0
  0
LINE
  5
192
330
1F
100
AcDbEntity
  8
LC-001-100-D00-0
 62
     7
370
    50
100
AcDbLine
 10
171.180253
 20
278.012408
 30
0.0
 11
171.180253
 21
277.5124
 31
0.0
  0
LINE
  5
193
330
1F
100
AcDbEntity
  8
LC-001-100-D00-0
 62
     7
370
    50
100
AcDbLine
 10
171.180253
 20
277.5124
 30
0.0
 11
174.727117
 21
277.5124
 31
0.0
  0
LINE
  5
194
330
1F
100
AcDbEntity
  8
LC-001-100-D00-0
 62
     7
370
    50
100
AcDbLine
 10
174.727117
 20
278.012408
 30
0.0
 11
174.727117
 21
277.5124
 31
0.0
  0
LINE
  5
195
330
1F
100
AcDbEntity
  8
LC-001-100-D00-0
 62
     7
370
    50
100
AcDbLine
 10
174.727117
 20
278.012408
 30
0.0
 11
176.703685
 21
278.012408
 31
0.0
  0
LINE
  5
196
330
1F
100
AcDbEntity
  8
LC-001-100-D00-0
 62
     7
370
    50
100
AcDbLine
 10
176.703685
 20
279.084174
 30
0.0
 11
176.703685
 21
278.012408
 31
0.0
  0
ARC
  5
197
330
1F
100
AcDbEntity
  8
LC-001-100-D00-0
 62
     7
370
    50
100
AcDbCircle
 10
172.953685
 20
273.387403
 30
0.0
 40
6.820236432852052
100
AcDbArc
 50
48.715289
 51
56.644353
  0
ARC
  5
198
330
1F
100
AcDbEntity
  8
LC-001-100-D00-0
 62
     7
370
    50
100
AcDbCircle
 10
172.953685
 20
273.387403
 30
0.0
 40
6.801883930206413
100
AcDbArc
 50
56.54253
 51
63.818118
  0
ARC
  5
199
330
1F
100
AcDbEntity
  8
LC-001-100-D00-0
 62
     7
370
    50
100
AcDbCircle
 10
172.953685
 20
273.387403
 30
0.0
 40
6.801883930206511
100
AcDbArc
 50
116.181882
 51
123.45747
  0
INSERT
  5
1A5
330
1F
100
AcDbEntity
  8
LC-001-100-D00-0
 62
     7
370
    50
100
AcDbBlockReference
  2
POLY14
 10
0.0
 20
0.0
 30
0.0
  0
INSERT
  5
1B1
330
1F
100
AcDbEntity
  8
LC-001-100-D00-0
 62
     7
370
    50
100
AcDbBlockReference
  2
POLY15
 10
0.0
 20
0.0
 30
0.0
  0
LINE
  5
1B2
330
1F
100
AcDbEntity
  8
LC-001-100-D00-0
 62
     7
370
    50
100
AcDbLine
 10
171.180253
 20
279.512404
 30
0.0
 11
170.043032
 21
279.512404
 31
0.0
  0
LINE
  5
1B3
330
1F
100
AcDbEntity
  8
LC-001-100-D00-0
 62
     7
370
    50
100
AcDbLine
 10
171.180253
 20
279.512404
 30
0.0
 11
171.180253
 21
278.012408
 31
0.0
  0
LINE
  5
1B4
330
1F
100
AcDbEntity
  8
LC-001-100-D00-0
 62
     7
370
    50
100
AcDbLine
 10
175.864338
 20
279.512404
 30
0.0
 11
174.727117
 21
279.512404
 31
0.0
  0
LINE
  5
1B5
330
1F
100
AcDbEntity
  8
LC-001-100-D00-0
 62
     7
370
    50
100
AcDbLine
 10
174.727117
 20
279.512404
 30
0.0
 11
174.727117
 21
278.012408
 31
0.0
  0
LINE
  5
1B6
330
1F
100
AcDbEntity
  8
LC-001-100-D00-0
 62
     7
370
    50
100
AcDbLine
 10
172.284136
 20
279.512404
 30
0.0
 11
173.623233
 21
279.512404
 31
0.0
  0
LINE
  5
1B7
330
1F
100
AcDbEntity
  8
LC-001-100-D00-0
 62
     7
370
    50
100
AcDbLine
 10
173.926347
 20
279.512404
 30
0.0
 11
173.623233
 21
279.512404
 31
0.0
  0
LINE
  5
1B8
330
1F
100
AcDbEntity
  8
LC-001-100-D00-0
 62
     7
370
    50
100
AcDbLine
 10
171.981023
 20
279.512404
 30
0.0
 11
172.284136
 21
279.512404
 31
0.0
  0
LINE
  5
1B9
330
1F
100
AcDbEntity
  8
LC-001-100-D00-0
 62
     7
370
    50
100
AcDbLine
 10
173.926347
 20
279.512404
 30
0.0
 11
174.727117
 21
279.512404
 31
0.0
  0
LINE
  5
1BA
330
1F
100
AcDbEntity
  8
LC-001-100-D00-0
 62
     7
370
    50
100
AcDbLine
 10
171.981023
 20
279.512404
 30
0.0
 11
171.180253
 21
279.512404
 31
0.0
  0
ARC
  5
1BB
330
1F
100
AcDbEntity
  8
LC-001-100-D00-0
 62
     7
370
    50
100
AcDbCircle
 10
205.704259
 20
279.071234
 30
0.0
 40
3.000002521012204
100
AcDbArc
 50
282.0
 51
358.876354
  0
ARC
  5
1BC
330
1F
100
AcDbEntity
  8
LC-001-100-D00-0
 62
     7
370
    50
100
AcDbCircle
 10
0.20311
 20
279.071234
 30
0.0
 40
3.000002521012208
100
AcDbArc
 50
181.123646
 51
258.0
  0
ARC
  5
1BD
330
1F
100
AcDbEntity
  8
LC-001-100-D00-0
 62
     7
370
    50
100
AcDbCircle
 10
205.704259
 20
279.071234
 30
0.0
 40
2.000000000000025
100
AcDbArc
 50
282.0
 51
358.314394
  0
ARC
  5
1BE
330
1F
100
AcDbEntity
  8
LC-001-100-D00-0
 62
     7
370
    50
100
AcDbCircle
 10
0.20311
 20
279.071234
 30
0.0
 40
1.999999999999972
100
AcDbArc
 50
181.685606
 51
258.0
  0
LINE
  5
1BF
330
1F
100
AcDbEntity
  8
LC-001-100-D00-0
 62
     7
370
    50
100
AcDbLine
 10
-1.796027
 20
279.01241
 30
0.0
 11
29.097604
 21
279.01241
 31
0.0
  0
LINE
  5
1C0
330
1F
100
AcDbEntity
  8
LC-001-100-D00-0
 62
     7
370
    50
100
AcDbLine
 10
36.811235
 20
279.01241
 30
0.0
 11
40.907259
 21
279.01241
 31
0.0
  0
LINE
  5
1C1
330
1F
100
AcDbEntity
  8
LC-001-100-D00-0
 62
     7
370
    50
100
AcDbLine
 10
78.448201
 20
279.01241
 30
0.0
 11
85.687484
 21
279.01241
 31
0.0
  0
LINE
  5
1C2
330
1F
100
AcDbEntity
  8
LC-001-100-D00-0
 62
     7
370
    50
100
AcDbLine
 10
90.915761
 20
279.01241
 30
0.0
 11
101.703684
 21
279.01241
 31
0.0
  0
LINE
  5
1C3
330
1F
100
AcDbEntity
  8
LC-001-100-D00-0
 62
     7
370
    50
100
AcDbLine
 10
104.203685
 20
279.01241
 30
0.0
 11
114.991608
 21
279.01241
 31
0.0
  0
LINE
  5
1C4
330
1F
100
AcDbEntity
  8
LC-001-100-D00-0
 62
     7
370
    50
100
AcDbLine
 10
120.219889
 20
279.01241
 30
0.0
 11
127.459166
 21
279.01241
 31
0.0
  0
LINE
  5
1C5
330
1F
100
AcDbEntity
  8
LC-001-100-D00-0
 62
     7
370
    50
100
AcDbLine
 10
165.000111
 20
279.01241
 30
0.0
 11
169.096873
 21
279.01241
 31
0.0
  0
LINE
  5
1C6
330
1F
100
AcDbEntity
  8
LC-001-100-D00-0
 62
     7
370
    50
100
AcDbLine
 10
176.703685
 20
279.01241
 30
0.0
 11
207.703392
 21
279.01241
 31
0.0
  0
LINE
  5
1C7
330
1F
100
AcDbEntity
  8
LC-001-100-D00-0
 62
     7
370
    50
100
AcDbLine
 10
-0.42062
 20
276.136784
 30
0.0
 11
18.765206
 21
272.058709
 31
0.0
  0
LINE
  5
1C8
330
1F
100
AcDbEntity
  8
LC-001-100-D00-0
 62
     7
370
    50
100
AcDbLine
 10
187.142159
 20
272.058709
 30
0.0
 11
206.327996
 21
276.136784
 31
0.0
  0
LINE
  5
1C9
330
1F
100
AcDbEntity
  8
LC-001-100-D00-0
 62
     7
370
    50
100
AcDbLine
 10
19.211988
 20
272.986098
 30
0.0
 11
-0.212719
 21
277.114941
 31
0.0
  0
LINE
  5
1CA
330
1F
100
AcDbEntity
  8
LC-001-100-D00-0
 62
     7
370
    50
100
AcDbLine
 10
206.120084
 20
277.114941
 30
0.0
 11
186.695381
 21
272.986098
 31
0.0
  0
ARC
  5
1CB
330
1F
100
AcDbEntity
  8
LC-001-100-D00-0
 62
     7
370
    50
100
AcDbCircle
 10
181.944368
 20
296.512401
 30
0.0
 40
24.99999742266698
100
AcDbArc
 50
270.0
 51
282.0
  0
ARC
  5
1CC
330
1F
100
AcDbEntity
  8
LC-001-100-D00-0
 62
     7
370
    50
100
AcDbCircle
 10
23.963001
 20
296.512401
 30
0.0
 40
24.99999742266697
100
AcDbArc
 50
258.0
 51
270.0
  0
ARC
  5
1CD
330
1F
100
AcDbEntity
  8
LC-001-100-D00-0
 62
     7
370
    50
100
AcDbCircle
 10
181.682278
 20
296.456685
 30
0.0
 40
24.00000000000007
100
AcDbArc
 50
270.689178
 51
282.056685
  0
ARC
  5
1CE
330
1F
100
AcDbEntity
  8
LC-001-100-D00-0
 62
     7
370
    50
100
AcDbCircle
 10
24.225091
 20
296.456685
 30
0.0
 40
24.00000000000004
100
AcDbArc
 50
257.943315
 51
269.310822
  0
ARC
  5
1CF
330
1F
100
AcDbEntity
  8
LC-001-100-D00-0
 62
     7
370
    50
100
AcDbCircle
 10
181.979036
 20
272.958356
 30
0.0
 40
0.4999999999999734
100
AcDbArc
 50
224.610048
 51
269.073757
  0
ARC
  5
1D0
330
1F
100
AcDbEntity
  8
LC-001-100-D00-0
 62
     7
370
    50
100
AcDbCircle
 10
23.928333
 20
272.958356
 30
0.0
 40
0.499999999999997
100
AcDbArc
 50
270.926243
 51
315.389952
  0
ARC
  5
1D1
330
1F
100
AcDbEntity
  8
LC-001-100-D00-0
 62
     7
370
    50
100
AcDbCircle
 10
181.925005
 20
273.012403
 30
0.0
 40
1.500000000000026
100
AcDbArc
 50
224.99991
 51
270.0
  0
ARC
  5
1D2
330
1F
100
AcDbEntity
  8
LC-001-100-D00-0
 62
     7
370
    50
100
AcDbCircle
 10
23.982364
 20
273.012403
 30
0.0
 40
1.5
100
AcDbArc
 50
270.0
 51
315.00009
  0
LINE
  5
1D3
330
1F
100
AcDbEntity
  8
LC-001-100-D00-0
 62
     7
370
    50
100
AcDbLine
 10
174.953685
 20
271.512403
 30
0.0
 11
181.925005
 21
271.512403
 31
0.0
  0
LINE
  5
1D4
330
1F
100
AcDbEntity
  8
LC-001-100-D00-0
 62
     7
370
    50
100
AcDbLine
 10
181.623085
 20
272.607221
 30
0.0
 11
179.010791
 21
275.219513
 31
0.0
  0
LINE
  5
1D5
330
1F
100
AcDbEntity
  8
LC-001-100-D00-0
 62
     7
370
    50
100
AcDbLine
 10
26.896576
 20
275.219513
 30
0.0
 11
24.284283
 21
272.607221
 31
0.0
  0
LINE
  5
1D6
330
1F
100
AcDbEntity
  8
LC-001-100-D00-0
 62
     7
370
    50
100
AcDbLine
 10
178.303684
 20
274.512409
 30
0.0
 11
180.864342
 21
271.951748
 31
0.0
  0
LINE
  5
1D7
330
1F
100
AcDbEntity
  8
LC-001-100-D00-0
 62
     7
370
    50
100
AcDbLine
 10
25.043021
 20
271.951748
 30
0.0
 11
27.603681
 21
274.512409
 31
0.0
  0
ARC
  5
1D8
330
1F
100
AcDbEntity
  8
LC-001-100-D00-0
 62
     7
370
    50
100
AcDbCircle
 10
178.303685
 20
274.512403
 30
0.0
 40
1.000000000000088
100
AcDbArc
 50
45.0
 51
90.0
  0
LINE
  5
1D9
330
1F
100
AcDbEntity
  8
LC-001-100-D00-0
 62
     7
370
    50
100
AcDbLine
 10
176.703685
 20
274.512409
 30
0.0
 11
178.303684
 21
274.512409
 31
0.0
  0
LINE
  5
1DA
330
1F
100
AcDbEntity
  8
LC-001-100-D00-0
 62
     7
370
    50
100
AcDbLine
 10
176.703685
 20
275.512411
 30
0.0
 11
176.703685
 21
274.512409
 31
0.0
  0
LINE
  5
1DB
330
1F
100
AcDbEntity
  8
LC-001-100-D00-0
 62
     7
370
    50
100
AcDbLine
 10
176.703685
 20
275.512411
 30
0.0
 11
178.303684
 21
275.512411
 31
0.0
  0
LINE
  5
1DC
330
1F
100
AcDbEntity
  8
LC-001-100-D00-0
 62
     7
370
    50
100
AcDbLine
 10
181.925005
 20
271.512403
 30
0.0
 11
181.944367
 21
271.512403
 31
0.0
  0
LINE
  5
1DD
330
1F
100
AcDbEntity
  8
LC-001-100-D00-0
 62
     7
370
    50
100
AcDbLine
 10
208.703684
 20
279.01241
 30
0.0
 11
207.703392
 21
279.01241
 31
0.0
  0
ARC
  5
1DE
330
1F
100
AcDbEntity
  8
LC-001-100-D00-0
 62
     7
370
    50
100
AcDbCircle
 10
27.603685
 20
274.512403
 30
0.0
 40
1.000000000000057
100
AcDbArc
 50
90.0
 51
135.0
  0
LINE
  5
1DF
330
1F
100
AcDbEntity
  8
LC-001-100-D00-0
 62
     7
370
    50
100
AcDbLine
 10
27.603681
 20
275.512411
 30
0.0
 11
29.203686
 21
275.512411
 31
0.0
  0
LINE
  5
1E0
330
1F
100
AcDbEntity
  8
LC-001-100-D00-0
 62
     7
370
    50
100
AcDbLine
 10
29.203686
 20
274.512409
 30
0.0
 11
29.203686
 21
275.512411
 31
0.0
  0
LINE
  5
1E1
330
1F
100
AcDbEntity
  8
LC-001-100-D00-0
 62
     7
370
    50
100
AcDbLine
 10
27.603681
 20
274.512409
 30
0.0
 11
29.203686
 21
274.512409
 31
0.0
  0
ARC
  5
1E2
330
1F
100
AcDbEntity
  8
LC-001-100-D00-0
 62
     7
370
    50
100
AcDbCircle
 10
26.479421
 20
273.812403
 30
0.0
 40
0.6999999999999886
100
AcDbArc
 50
90.0
 51
92.106989
  0
LINE
  5
1E3
330
1F
100
AcDbEntity
  8
LC-001-100-D00-0
 62
     7
370
    50
100
AcDbLine
 10
26.453684
 20
274.512409
 30
0.0
 11
26.479418
 21
274.512409
 31
0.0
  0
LINE
  5
1E4
330
1F
100
AcDbEntity
  8
LC-001-100-D00-0
 62
     7
370
    50
100
AcDbLine
 10
26.453684
 20
274.512409
 30
0.0
 11
26.453684
 21
274.511932
 31
0.0
  0
LINE
  5
1E5
330
1F
100
AcDbEntity
  8
LC-001-100-D00-0
 62
     7
370
    50
100
AcDbLine
 10
23.963
 20
271.512403
 30
0.0
 11
23.982371
 21
271.512403
 31
0.0
  0
LINE
  5
1E6
330
1F
100
AcDbEntity
  8
LC-001-100-D00-0
 62
     7
370
    50
100
AcDbLine
 10
-1.796027
 20
279.01241
 30
0.0
 11
-2.796312
 21
279.01241
 31
0.0
  0
ARC
  5
1E7
330
1F
100
AcDbEntity
  8
LC-001-100-D00-0
 62
     7
370
    50
100
AcDbCircle
 10
39.968596
 20
274.812403
 30
0.0
 40
0.3000000000000075
100
AcDbArc
 50
193.342364
 51
270.0
  0
LINE
  5
1E8
330
1F
100
AcDbEntity
  8
LC-001-100-D00-0
 62
     7
370
    50
100
AcDbLine
 10
45.953686
 20
274.512409
 30
0.0
 11
39.968598
 21
274.512409
 31
0.0
  0
LINE
  5
1E9
330
1F
100
AcDbEntity
  8
LC-001-100-D00-0
 62
     7
370
    50
100
AcDbLine
 10
45.953686
 20
273.512407
 30
0.0
 11
45.953686
 21
274.512409
 31
0.0
  0
LINE
  5
1EA
330
1F
100
AcDbEntity
  8
LC-001-100-D00-0
 62
     7
370
    50
100
AcDbLine
 10
39.703685
 20
273.512407
 30
0.0
 11
45.953686
 21
273.512407
 31
0.0
  0
ARC
  5
1EB
330
1F
100
AcDbEntity
  8
LC-001-100-D00-0
 62
     7
370
    50
100
AcDbCircle
 10
39.703685
 20
274.512403
 30
0.0
 40
1.0
100
AcDbArc
 50
180.0
 51
270.0
  0
LINE
  5
1EC
330
1F
100
AcDbEntity
  8
LC-001-100-D00-0
 62
     7
370
    50
100
AcDbLine
 10
36.703686
 20
275.512411
 30
0.0
 11
36.703686
 21
274.512409
 31
0.0
  0
ARC
  5
1ED
330
1F
100
AcDbEntity
  8
LC-001-100-D00-0
 62
     7
370
    50
100
AcDbCircle
 10
38.703685
 20
274.512403
 30
0.0
 40
1.00000000000003
100
AcDbArc
 50
13.342364
 51
90.0
  0
LINE
  5
1EE
330
1F
100
AcDbEntity
  8
LC-001-100-D00-0
 62
     7
370
    50
100
AcDbLine
 10
36.703686
 20
275.512411
 30
0.0
 11
38.703683
 21
275.512411
 31
0.0
  0
LINE
  5
1EF
330
1F
100
AcDbEntity
  8
LC-001-100-D00-0
 62
     7
370
    50
100
AcDbLine
 10
36.703686
 20
274.512409
 30
0.0
 11
38.703683
 21
274.512409
 31
0.0
  0
LINE
  5
1F0
330
1F
100
AcDbEntity
  8
LC-001-100-D00-0
 62
     7
370
    50
100
AcDbLine
 10
36.703686
 20
274.512409
 30
0.0
 11
34.954416
 21
274.512409
 31
0.0
  0
LINE
  5
1F1
330
1F
100
AcDbEntity
  8
LC-001-100-D00-0
 62
     7
370
    50
100
AcDbLine
 10
30.221197
 20
274.512409
 30
0.0
 11
29.203686
 21
274.512409
 31
0.0
  0
LINE
  5
1F2
330
1F
100
AcDbEntity
  8
LC-001-100-D00-0
 62
     7
370
    50
100
AcDbLine
 10
169.203685
 20
274.512409
 30
0.0
 11
169.203685
 21
275.512411
 31
0.0
  0
LINE
  5
1F3
330
1F
100
AcDbEntity
  8
LC-001-100-D00-0
 62
     7
370
    50
100
AcDbLine
 10
176.703685
 20
274.512409
 30
0.0
 11
174.953685
 21
274.512409
 31
0.0
  0
LINE
  5
1F4
330
1F
100
AcDbEntity
  8
LC-001-100-D00-0
 62
     7
370
    50
100
AcDbLine
 10
170.230209
 20
274.512409
 30
0.0
 11
169.203685
 21
274.512409
 31
0.0
  0
ARC
  5
1F5
330
1F
100
AcDbEntity
  8
LC-001-100-D00-0
 62
     7
370
    50
100
AcDbCircle
 10
166.203685
 20
274.512403
 30
0.0
 40
1.0
100
AcDbArc
 50
270.0
 51
0.0
  0
LINE
  5
1F6
330
1F
100
AcDbEntity
  8
LC-001-100-D00-0
 62
     7
370
    50
100
AcDbLine
 10
166.203685
 20
274.512409
 30
0.0
 11
166.203685
 21
273.512407
 31
0.0
  0
ARC
  5
1F7
330
1F
100
AcDbEntity
  8
LC-001-100-D00-0
 62
     7
370
    50
100
AcDbCircle
 10
167.203685
 20
274.512403
 30
0.0
 40
1.0
100
AcDbArc
 50
90.0
 51
180.0
  0
LINE
  5
1F8
330
1F
100
AcDbEntity
  8
LC-001-100-D00-0
 62
     7
370
    50
100
AcDbLine
 10
167.203684
 20
274.512409
 30
0.0
 11
169.203685
 21
274.512409
 31
0.0
  0
LINE
  5
1F9
330
1F
100
AcDbEntity
  8
LC-001-100-D00-0
 62
     7
370
    50
100
AcDbLine
 10
167.203684
 20
275.512411
 30
0.0
 11
169.203685
 21
275.512411
 31
0.0
  0
INSERT
  5
209
330
1F
100
AcDbEntity
  8
LC-001-100-D00-0
 62
     7
370
    50
100
AcDbBlockReference
  2
POLY16
 10
0.0
 20
0.0
 30
0.0
  0
LINE
  5
20A
330
1F
100
AcDbEntity
  8
LC-001-100-D00-0
 62
     7
370
    50
100
AcDbLine
 10
45.953686
 20
273.512407
 30
0.0
 11
46.453687
 21
273.512407
 31
0.0
  0
LINE
  5
20B
330
1F
100
AcDbEntity
  8
LC-001-100-D00-0
 62
     7
370
    50
100
AcDbLine
 10
45.953686
 20
274.512409
 30
0.0
 11
46.447593
 21
274.512409
 31
0.0
  0
LINE
  5
20C
330
1F
100
AcDbEntity
  8
LC-001-100-D00-0
 62
     7
370
    50
100
AcDbLine
 10
183.453685
 20
269.662409
 30
0.0
 11
183.598022
 21
269.412397
 31
0.0
  0
LINE
  5
20D
330
1F
100
AcDbEntity
  8
LC-001-100-D00-0
 62
     7
370
    50
100
AcDbLine
 10
22.453691
 20
269.662409
 30
0.0
 11
23.953686
 21
269.662409
 31
0.0
  0
LINE
  5
20E
330
1F
100
AcDbEntity
  8
LC-001-100-D00-0
 62
     7
370
    50
100
AcDbLine
 10
181.953684
 20
269.662409
 30
0.0
 11
183.453685
 21
269.662409
 31
0.0
  0
LINE
  5
20F
330
1F
100
AcDbEntity
  8
LC-001-100-D00-0
 62
     7
370
    50
100
AcDbLine
 10
22.309343
 20
269.412397
 30
0.0
 11
22.453691
 21
269.662409
 31
0.0
  0
LINE
  5
210
330
1F
100
AcDbEntity
  8
LC-001-100-D00-0
 62
     7
370
    50
100
AcDbLine
 10
184.953685
 20
268.41241
 30
0.0
 11
184.953685
 21
266.412406
 31
0.0
  0
LINE
  5
211
330
1F
100
AcDbEntity
  8
LC-001-100-D00-0
 62
     7
370
    50
100
AcDbLine
 10
20.95368
 20
266.412406
 30
0.0
 11
20.95368
 21
268.41241
 31
0.0
  0
LINE
  5
212
330
1F
100
AcDbEntity
  8
LC-001-100-D00-0
 62
     7
370
    50
100
AcDbLine
 10
21.953682
 20
265.412404
 30
0.0
 11
20.95368
 21
266.412406
 31
0.0
  0
LINE
  5
213
330
1F
100
AcDbEntity
  8
LC-001-100-D00-0
 62
     7
370
    50
100
AcDbLine
 10
184.953685
 20
266.412406
 30
0.0
 11
183.953686
 21
265.412404
 31
0.0
  0
LINE
  5
214
330
1F
100
AcDbEntity
  8
LC-001-100-D00-0
 62
     7
370
    50
100
AcDbLine
 10
183.309345
 20
265.412404
 30
0.0
 11
183.453685
 21
265.162407
 31
0.0
  0
LINE
  5
215
330
1F
100
AcDbEntity
  8
LC-001-100-D00-0
 62
     7
370
    50
100
AcDbLine
 10
22.453691
 20
265.162407
 30
0.0
 11
22.598023
 21
265.412404
 31
0.0
  0
LINE
  5
216
330
1F
100
AcDbEntity
  8
LC-001-100-D00-0
 62
     7
370
    50
100
AcDbLine
 10
181.809346
 20
265.412404
 30
0.0
 11
181.953684
 21
265.162407
 31
0.0
  0
LINE
  5
217
330
1F
100
AcDbEntity
  8
LC-001-100-D00-0
 62
     7
370
    50
100
AcDbLine
 10
23.953686
 20
265.162407
 30
0.0
 11
24.098019
 21
265.412404
 31
0.0
  0
LINE
  5
218
330
1F
100
AcDbEntity
  8
LC-001-100-D00-0
 62
     7
370
    50
100
AcDbLine
 10
184.953685
 20
268.41241
 30
0.0
 11
183.953686
 21
269.412397
 31
0.0
  0
LINE
  5
219
330
1F
100
AcDbEntity
  8
LC-001-100-D00-0
 62
     7
370
    50
100
AcDbLine
 10
21.953682
 20
269.412397
 30
0.0
 11
20.95368
 21
268.41241
 31
0.0
  0
LINE
  5
21A
330
1F
100
AcDbEntity
  8
LC-001-100-D00-0
 62
     7
370
    50
100
AcDbLine
 10
22.309343
 20
265.412404
 30
0.0
 11
22.453691
 21
265.162407
 31
0.0
  0
LINE
  5
21B
330
1F
100
AcDbEntity
  8
LC-001-100-D00-0
 62
     7
370
    50
100
AcDbLine
 10
183.453685
 20
265.162407
 30
0.0
 11
183.598022
 21
265.412404
 31
0.0
  0
LINE
  5
21C
330
1F
100
AcDbEntity
  8
LC-001-100-D00-0
 62
     7
370
    50
100
AcDbLine
 10
23.953686
 20
269.662409
 30
0.0
 11
24.098019
 21
269.412397
 31
0.0
  0
LINE
  5
21D
330
1F
100
AcDbEntity
  8
LC-001-100-D00-0
 62
     7
370
    50
100
AcDbLine
 10
23.953686
 20
269.662409
 30
0.0
 11
25.453682
 21
269.662409
 31
0.0
  0
LINE
  5
21E
330
1F
100
AcDbEntity
  8
LC-001-100-D00-0
 62
     7
370
    50
100
AcDbLine
 10
180.453685
 20
269.662409
 30
0.0
 11
181.953684
 21
269.662409
 31
0.0
  0
LINE
  5
21F
330
1F
100
AcDbEntity
  8
LC-001-100-D00-0
 62
     7
370
    50
100
AcDbLine
 10
181.809346
 20
269.412397
 30
0.0
 11
181.953684
 21
269.662409
 31
0.0
  0
LINE
  5
220
330
1F
100
AcDbEntity
  8
LC-001-100-D00-0
 62
     7
370
    50
100
AcDbLine
 10
181.953684
 20
269.662409
 30
0.0
 11
182.098023
 21
269.412397
 31
0.0
  0
LINE
  5
221
330
1F
100
AcDbEntity
  8
LC-001-100-D00-0
 62
     7
370
    50
100
AcDbLine
 10
23.809354
 20
269.412397
 30
0.0
 11
23.953686
 21
269.662409
 31
0.0
  0
LINE
  5
222
330
1F
100
AcDbEntity
  8
LC-001-100-D00-0
 62
     7
370
    50
100
AcDbLine
 10
183.309345
 20
269.412397
 30
0.0
 11
183.453685
 21
269.662409
 31
0.0
  0
LINE
  5
223
330
1F
100
AcDbEntity
  8
LC-001-100-D00-0
 62
     7
370
    50
100
AcDbLine
 10
181.953684
 20
265.162407
 30
0.0
 11
182.098023
 21
265.412404
 31
0.0
  0
LINE
  5
224
330
1F
100
AcDbEntity
  8
LC-001-100-D00-0
 62
     7
370
    50
100
AcDbLine
 10
180.598021
 20
265.412404
 30
0.0
 11
181.809346
 21
265.412404
 31
0.0
  0
LINE
  5
225
330
1F
100
AcDbEntity
  8
LC-001-100-D00-0
 62
     7
370
    50
100
AcDbLine
 10
180.453685
 20
265.162407
 30
0.0
 11
180.598021
 21
265.412404
 31
0.0
  0
LINE
  5
226
330
1F
100
AcDbEntity
  8
LC-001-100-D00-0
 62
     7
370
    50
100
AcDbLine
 10
180.309347
 20
265.412404
 30
0.0
 11
180.453685
 21
265.162407
 31
0.0
  0
LINE
  5
227
330
1F
100
AcDbEntity
  8
LC-001-100-D00-0
 62
     7
370
    50
100
AcDbLine
 10
180.309347
 20
265.412404
 30
0.0
 11
179.953684
 21
265.412404
 31
0.0
  0
LINE
  5
228
330
1F
100
AcDbEntity
  8
LC-001-100-D00-0
 62
     7
370
    50
100
AcDbLine
 10
179.953684
 20
265.412404
 30
0.0
 11
178.953684
 21
266.412406
 31
0.0
  0
LINE
  5
229
330
1F
100
AcDbEntity
  8
LC-001-100-D00-0
 62
     7
370
    50
100
AcDbLine
 10
178.953684
 20
266.412406
 30
0.0
 11
178.953684
 21
268.41241
 31
0.0
  0
LINE
  5
22A
330
1F
100
AcDbEntity
  8
LC-001-100-D00-0
 62
     7
370
    50
100
AcDbLine
 10
179.953684
 20
269.412397
 30
0.0
 11
178.953684
 21
268.41241
 31
0.0
  0
LINE
  5
22B
330
1F
100
AcDbEntity
  8
LC-001-100-D00-0
 62
     7
370
    50
100
AcDbLine
 10
180.309347
 20
269.412397
 30
0.0
 11
179.953684
 21
269.412397
 31
0.0
  0
LINE
  5
22C
330
1F
100
AcDbEntity
  8
LC-001-100-D00-0
 62
     7
370
    50
100
AcDbLine
 10
180.309347
 20
269.412397
 30
0.0
 11
180.453685
 21
269.662409
 31
0.0
  0
LINE
  5
22D
330
1F
100
AcDbEntity
  8
LC-001-100-D00-0
 62
     7
370
    50
100
AcDbLine
 10
180.453685
 20
269.662409
 30
0.0
 11
180.598021
 21
269.412397
 31
0.0
  0
LINE
  5
22E
330
1F
100
AcDbEntity
  8
LC-001-100-D00-0
 62
     7
370
    50
100
AcDbLine
 10
180.598021
 20
269.412397
 30
0.0
 11
181.809346
 21
269.412397
 31
0.0
  0
LINE
  5
22F
330
1F
100
AcDbEntity
  8
LC-001-100-D00-0
 62
     7
370
    50
100
AcDbLine
 10
182.098023
 20
269.412397
 30
0.0
 11
183.309345
 21
269.412397
 31
0.0
  0
LINE
  5
230
330
1F
100
AcDbEntity
  8
LC-001-100-D00-0
 62
     7
370
    50
100
AcDbLine
 10
182.098023
 20
265.412404
 30
0.0
 11
183.309345
 21
265.412404
 31
0.0
  0
LINE
  5
231
330
1F
100
AcDbEntity
  8
LC-001-100-D00-0
 62
     7
370
    50
100
AcDbLine
 10
183.598022
 20
265.412404
 30
0.0
 11
183.953686
 21
265.412404
 31
0.0
  0
LINE
  5
232
330
1F
100
AcDbEntity
  8
LC-001-100-D00-0
 62
     7
370
    50
100
AcDbLine
 10
183.598022
 20
269.412397
 30
0.0
 11
183.953686
 21
269.412397
 31
0.0
  0
LINE
  5
233
330
1F
100
AcDbEntity
  8
LC-001-100-D00-0
 62
     7
370
    50
100
AcDbLine
 10
24.098019
 20
269.412397
 30
0.0
 11
25.309349
 21
269.412397
 31
0.0
  0
LINE
  5
234
330
1F
100
AcDbEntity
  8
LC-001-100-D00-0
 62
     7
370
    50
100
AcDbLine
 10
25.309349
 20
269.412397
 30
0.0
 11
25.453682
 21
269.662409
 31
0.0
  0
LINE
  5
235
330
1F
100
AcDbEntity
  8
LC-001-100-D00-0
 62
     7
370
    50
100
AcDbLine
 10
25.453682
 20
269.662409
 30
0.0
 11
25.598029
 21
269.412397
 31
0.0
  0
LINE
  5
236
330
1F
100
AcDbEntity
  8
LC-001-100-D00-0
 62
     7
370
    50
100
AcDbLine
 10
25.95369
 20
269.412397
 30
0.0
 11
25.598029
 21
269.412397
 31
0.0
  0
LINE
  5
237
330
1F
100
AcDbEntity
  8
LC-001-100-D00-0
 62
     7
370
    50
100
AcDbLine
 10
26.953685
 20
268.41241
 30
0.0
 11
25.95369
 21
269.412397
 31
0.0
  0
LINE
  5
238
330
1F
100
AcDbEntity
  8
LC-001-100-D00-0
 62
     7
370
    50
100
AcDbLine
 10
26.953685
 20
268.41241
 30
0.0
 11
26.953685
 21
266.412406
 31
0.0
  0
LINE
  5
239
330
1F
100
AcDbEntity
  8
LC-001-100-D00-0
 62
     7
370
    50
100
AcDbLine
 10
26.953685
 20
266.412406
 30
0.0
 11
25.95369
 21
265.412404
 31
0.0
  0
LINE
  5
23A
330
1F
100
AcDbEntity
  8
LC-001-100-D00-0
 62
     7
370
    50
100
AcDbLine
 10
25.95369
 20
265.412404
 30
0.0
 11
25.598029
 21
265.412404
 31
0.0
  0
LINE
  5
23B
330
1F
100
AcDbEntity
  8
LC-001-100-D00-0
 62
     7
370
    50
100
AcDbLine
 10
25.453682
 20
265.162407
 30
0.0
 11
25.598029
 21
265.412404
 31
0.0
  0
LINE
  5
23C
330
1F
100
AcDbEntity
  8
LC-001-100-D00-0
 62
     7
370
    50
100
AcDbLine
 10
25.309349
 20
265.412404
 30
0.0
 11
25.453682
 21
265.162407
 31
0.0
  0
LINE
  5
23D
330
1F
100
AcDbEntity
  8
LC-001-100-D00-0
 62
     7
370
    50
100
AcDbLine
 10
24.098019
 20
265.412404
 30
0.0
 11
25.309349
 21
265.412404
 31
0.0
  0
LINE
  5
23E
330
1F
100
AcDbEntity
  8
LC-001-100-D00-0
 62
     7
370
    50
100
AcDbLine
 10
23.809354
 20
265.412404
 30
0.0
 11
23.953686
 21
265.162407
 31
0.0
  0
LINE
  5
23F
330
1F
100
AcDbEntity
  8
LC-001-100-D00-0
 62
     7
370
    50
100
AcDbLine
 10
22.453691
 20
269.662409
 30
0.0
 11
22.598023
 21
269.412397
 31
0.0
  0
LINE
  5
240
330
1F
100
AcDbEntity
  8
LC-001-100-D00-0
 62
     7
370
    50
100
AcDbLine
 10
22.598023
 20
269.412397
 30
0.0
 11
23.809354
 21
269.412397
 31
0.0
  0
LINE
  5
241
330
1F
100
AcDbEntity
  8
LC-001-100-D00-0
 62
     7
370
    50
100
AcDbLine
 10
22.598023
 20
265.412404
 30
0.0
 11
23.809354
 21
265.412404
 31
0.0
  0
LINE
  5
242
330
1F
100
AcDbEntity
  8
LC-001-100-D00-0
 62
     7
370
    50
100
AcDbLine
 10
21.953682
 20
265.412404
 30
0.0
 11
22.309343
 21
265.412404
 31
0.0
  0
LINE
  5
243
330
1F
100
AcDbEntity
  8
LC-001-100-D00-0
 62
     7
370
    50
100
AcDbLine
 10
21.953682
 20
269.412397
 30
0.0
 11
22.309343
 21
269.412397
 31
0.0
  0
LINE
  5
244
330
1F
100
AcDbEntity
  8
LC-001-100-D00-0
 62
     7
370
    50
100
AcDbLine
 10
25.453682
 20
269.662409
 30
0.0
 11
30.954423
 21
269.662409
 31
0.0
  0
LINE
  5
245
330
1F
100
AcDbEntity
  8
LC-001-100-D00-0
 62
     7
370
    50
100
AcDbLine
 10
174.953685
 20
269.662409
 30
0.0
 11
180.453685
 21
269.662409
 31
0.0
  0
LINE
  5
246
330
1F
100
AcDbEntity
  8
LC-001-100-D00-0
 62
     7
370
    50
100
AcDbLine
 10
25.95369
 20
269.412397
 30
0.0
 11
28.945896
 21
269.412397
 31
0.0
  0
LINE
  5
247
330
1F
100
AcDbEntity
  8
LC-001-100-D00-0
 62
     7
370
    50
100
AcDbLine
 10
177.042681
 20
269.412397
 30
0.0
 11
179.953684
 21
269.412397
 31
0.0
  0
ARC
  5
248
330
1F
100
AcDbEntity
  8
LC-001-100-D00-0
 62
     7
370
    50
100
AcDbCircle
 10
70.319967
 20
338.553981
 30
0.0
 40
13.0
100
AcDbArc
 50
90.0
 51
165.0
  0
LINE
  5
249
330
1F
100
AcDbEntity
  8
LC-001-100-D00-0
 62
     7
370
    50
100
AcDbLine
 10
76.02762
 20
351.553975
 30
0.0
 11
70.319968
 21
351.553975
 31
0.0
  0
LINE
  5
24A
330
1F
100
AcDbEntity
  8
LC-001-100-D00-0
 62
     7
370
    50
100
AcDbLine
 10
76.02762
 20
351.653977
 30
0.0
 11
76.02762
 21
351.553975
 31
0.0
  0
LINE
  5
24B
330
1F
100
AcDbEntity
  8
LC-001-100-D00-0
 62
     7
370
    50
100
AcDbLine
 10
76.02762
 20
351.653977
 30
0.0
 11
76.317842
 21
351.653977
 31
0.0
  0
LINE
  5
24C
330
1F
100
AcDbEntity
  8
LC-001-100-D00-0
 62
     7
370
    50
100
AcDbLine
 10
76.317842
 20
351.653977
 30
0.0
 11
76.317842
 21
351.553975
 31
0.0
  0
LINE
  5
24D
330
1F
100
AcDbEntity
  8
LC-001-100-D00-0
 62
     7
370
    50
100
AcDbLine
 10
76.462957
 20
351.553975
 30
0.0
 11
76.317842
 21
351.553975
 31
0.0
  0
LINE
  5
24E
330
1F
100
AcDbEntity
  8
LC-001-100-D00-0
 62
     7
370
    50
100
AcDbLine
 10
76.462957
 20
351.553975
 30
0.0
 11
76.462957
 21
351.653977
 31
0.0
  0
LINE
  5
24F
330
1F
100
AcDbEntity
  8
LC-001-100-D00-0
 62
     7
370
    50
100
AcDbLine
 10
76.462957
 20
351.653977
 30
0.0
 11
76.628665
 21
351.653977
 31
0.0
  0
LINE
  5
250
330
1F
100
AcDbEntity
  8
LC-001-100-D00-0
 62
     7
370
    50
100
AcDbLine
 10
76.628665
 20
351.653977
 30
0.0
 11
76.628665
 21
351.553975
 31
0.0
  0
LINE
  5
251
330
1F
100
AcDbEntity
  8
LC-001-100-D00-0
 62
     7
370
    50
100
AcDbLine
 10
76.753187
 20
351.553975
 30
0.0
 11
76.628665
 21
351.553975
 31
0.0
  0
LINE
  5
252
330
1F
100
AcDbEntity
  8
LC-001-100-D00-0
 62
     7
370
    50
100
AcDbLine
 10
76.753187
 20
351.553975
 30
0.0
 11
76.753187
 21
351.653977
 31
0.0
  0
LINE
  5
253
330
1F
100
AcDbEntity
  8
LC-001-100-D00-0
 62
     7
370
    50
100
AcDbLine
 10
76.753187
 20
351.653977
 30
0.0
 11
77.914099
 21
351.653977
 31
0.0
  0
LINE
  5
254
330
1F
100
AcDbEntity
  8
LC-001-100-D00-0
 62
     7
370
    50
100
AcDbLine
 10
77.914099
 20
351.653977
 30
0.0
 11
77.914099
 21
351.553975
 31
0.0
  0
LINE
  5
255
330
1F
100
AcDbEntity
  8
LC-001-100-D00-0
 62
     7
370
    50
100
AcDbLine
 10
78.05373
 20
351.553975
 30
0.0
 11
77.914099
 21
351.553975
 31
0.0
  0
LINE
  5
256
330
1F
100
AcDbEntity
  8
LC-001-100-D00-0
 62
     7
370
    50
100
AcDbLine
 10
78.05373
 20
351.553975
 30
0.0
 11
78.05373
 21
351.653977
 31
0.0
  0
LINE
  5
257
330
1F
100
AcDbEntity
  8
LC-001-100-D00-0
 62
     7
370
    50
100
AcDbLine
 10
78.05373
 20
351.653977
 30
0.0
 11
78.204329
 21
351.653977
 31
0.0
  0
LINE
  5
258
330
1F
100
AcDbEntity
  8
LC-001-100-D00-0
 62
     7
370
    50
100
AcDbLine
 10
78.204329
 20
351.653977
 30
0.0
 11
78.204329
 21
351.553975
 31
0.0
  0
LINE
  5
259
330
1F
100
AcDbEntity
  8
LC-001-100-D00-0
 62
     7
370
    50
100
AcDbLine
 10
78.349444
 20
351.553975
 30
0.0
 11
78.204329
 21
351.553975
 31
0.0
  0
LINE
  5
25A
330
1F
100
AcDbEntity
  8
LC-001-100-D00-0
 62
     7
370
    50
100
AcDbLine
 10
78.349444
 20
351.553975
 30
0.0
 11
78.349444
 21
351.653977
 31
0.0
  0
LINE
  5
25B
330
1F
100
AcDbEntity
  8
LC-001-100-D00-0
 62
     7
370
    50
100
AcDbLine
 10
78.349444
 20
351.653977
 30
0.0
 11
78.494559
 21
351.653977
 31
0.0
  0
LINE
  5
25C
330
1F
100
AcDbEntity
  8
LC-001-100-D00-0
 62
     7
370
    50
100
AcDbLine
 10
78.494559
 20
351.653977
 30
0.0
 11
78.494559
 21
351.553975
 31
0.0
  0
LINE
  5
25D
330
1F
100
AcDbEntity
  8
LC-001-100-D00-0
 62
     7
370
    50
100
AcDbLine
 10
78.639666
 20
351.553975
 30
0.0
 11
78.494559
 21
351.553975
 31
0.0
  0
LINE
  5
25E
330
1F
100
AcDbEntity
  8
LC-001-100-D00-0
 62
     7
370
    50
100
AcDbLine
 10
78.639666
 20
351.553975
 30
0.0
 11
78.639666
 21
351.653977
 31
0.0
  0
LINE
  5
25F
330
1F
100
AcDbEntity
  8
LC-001-100-D00-0
 62
     7
370
    50
100
AcDbLine
 10
78.639666
 20
351.653977
 30
0.0
 11
78.929896
 21
351.653977
 31
0.0
  0
LINE
  5
260
330
1F
100
AcDbEntity
  8
LC-001-100-D00-0
 62
     7
370
    50
100
AcDbLine
 10
78.929896
 20
351.553975
 30
0.0
 11
78.929896
 21
351.653977
 31
0.0
  0
LINE
  5
261
330
1F
100
AcDbEntity
  8
LC-001-100-D00-0
 62
     7
370
    50
100
AcDbLine
 10
79.608041
 20
351.553975
 30
0.0
 11
78.929896
 21
351.553975
 31
0.0
  0
LINE
  5
262
330
1F
100
AcDbEntity
  8
LC-001-100-D00-0
 62
     7
370
    50
100
AcDbLine
 10
79.608041
 20
351.653977
 30
0.0
 11
79.608041
 21
351.553975
 31
0.0
  0
LINE
  5
263
330
1F
100
AcDbEntity
  8
LC-001-100-D00-0
 62
     7
370
    50
100
AcDbLine
 10
79.608041
 20
351.653977
 30
0.0
 11
80.268885
 21
351.653977
 31
0.0
  0
LINE
  5
264
330
1F
100
AcDbEntity
  8
LC-001-100-D00-0
 62
     7
370
    50
100
AcDbLine
 10
80.268885
 20
351.653977
 30
0.0
 11
80.268885
 21
351.553975
 31
0.0
  0
LINE
  5
265
330
1F
100
AcDbEntity
  8
LC-001-100-D00-0
 62
     7
370
    50
100
AcDbLine
 10
80.730985
 20
351.553975
 30
0.0
 11
80.268885
 21
351.553975
 31
0.0
  0
LINE
  5
266
330
1F
100
AcDbEntity
  8
LC-001-100-D00-0
 62
     7
370
    50
100
AcDbLine
 10
80.730985
 20
351.553975
 30
0.0
 11
80.730985
 21
351.653977
 31
0.0
  0
LINE
  5
267
330
1F
100
AcDbEntity
  8
LC-001-100-D00-0
 62
     7
370
    50
100
AcDbLine
 10
80.730985
 20
351.653977
 30
0.0
 11
81.322263
 21
351.653977
 31
0.0
  0
LINE
  5
268
330
1F
100
AcDbEntity
  8
LC-001-100-D00-0
 62
     7
370
    50
100
AcDbLine
 10
81.322263
 20
351.553975
 30
0.0
 11
81.322263
 21
351.653977
 31
0.0
  0
LINE
  5
269
330
1F
100
AcDbEntity
  8
LC-001-100-D00-0
 62
     7
370
    50
100
AcDbLine
 10
81.62536
 20
351.553975
 30
0.0
 11
81.322263
 21
351.553975
 31
0.0
  0
LINE
  5
26A
330
1F
100
AcDbEntity
  8
LC-001-100-D00-0
 62
     7
370
    50
100
AcDbLine
 10
81.62536
 20
351.653977
 30
0.0
 11
81.62536
 21
351.553975
 31
0.0
  0
LINE
  5
26B
330
1F
100
AcDbEntity
  8
LC-001-100-D00-0
 62
     7
370
    50
100
AcDbLine
 10
81.62536
 20
351.653977
 30
0.0
 11
83.503547
 21
351.653977
 31
0.0
  0
LINE
  5
26C
330
1F
100
AcDbEntity
  8
LC-001-100-D00-0
 62
     7
370
    50
100
AcDbLine
 10
83.503547
 20
351.553975
 30
0.0
 11
83.503547
 21
351.653977
 31
0.0
  0
LINE
  5
26D
330
1F
100
AcDbEntity
  8
LC-001-100-D00-0
 62
     7
370
    50
100
AcDbLine
 10
83.851355
 20
351.553975
 30
0.0
 11
83.503547
 21
351.553975
 31
0.0
  0
LINE
  5
26E
330
1F
100
AcDbEntity
  8
LC-001-100-D00-0
 62
     7
370
    50
100
AcDbLine
 10
83.851355
 20
351.653977
 30
0.0
 11
83.851355
 21
351.553975
 31
0.0
  0
LINE
  5
26F
330
1F
100
AcDbEntity
  8
LC-001-100-D00-0
 62
     7
370
    50
100
AcDbLine
 10
84.47742
 20
351.653977
 30
0.0
 11
83.851355
 21
351.653977
 31
0.0
  0
LINE
  5
270
330
1F
100
AcDbEntity
  8
LC-001-100-D00-0
 62
     7
370
    50
100
AcDbLine
 10
84.47742
 20
351.553975
 30
0.0
 11
84.47742
 21
351.653977
 31
0.0
  0
LINE
  5
271
330
1F
100
AcDbEntity
  8
LC-001-100-D00-0
 62
     7
370
    50
100
AcDbLine
 10
85.346947
 20
351.553975
 30
0.0
 11
84.47742
 21
351.553975
 31
0.0
  0
LINE
  5
272
330
1F
100
AcDbEntity
  8
LC-001-100-D00-0
 62
     7
370
    50
100
AcDbLine
 10
85.346947
 20
351.653977
 30
0.0
 11
85.346947
 21
351.553975
 31
0.0
  0
LINE
  5
273
330
1F
100
AcDbEntity
  8
LC-001-100-D00-0
 62
     7
370
    50
100
AcDbLine
 10
85.973012
 20
351.653977
 30
0.0
 11
85.346947
 21
351.653977
 31
0.0
  0
LINE
  5
274
330
1F
100
AcDbEntity
  8
LC-001-100-D00-0
 62
     7
370
    50
100
AcDbLine
 10
85.973012
 20
351.553975
 30
0.0
 11
85.973012
 21
351.653977
 31
0.0
  0
LINE
  5
275
330
1F
100
AcDbEntity
  8
LC-001-100-D00-0
 62
     7
370
    50
100
AcDbLine
 10
86.842547
 20
351.553975
 30
0.0
 11
85.973012
 21
351.553975
 31
0.0
  0
LINE
  5
276
330
1F
100
AcDbEntity
  8
LC-001-100-D00-0
 62
     7
370
    50
100
AcDbLine
 10
86.842547
 20
351.653977
 30
0.0
 11
86.842547
 21
351.553975
 31
0.0
  0
LINE
  5
277
330
1F
100
AcDbEntity
  8
LC-001-100-D00-0
 62
     7
370
    50
100
AcDbLine
 10
86.842547
 20
351.653977
 30
0.0
 11
87.468604
 21
351.653977
 31
0.0
  0
LINE
  5
278
330
1F
100
AcDbEntity
  8
LC-001-100-D00-0
 62
     7
370
    50
100
AcDbLine
 10
87.468604
 20
351.553975
 30
0.0
 11
87.468604
 21
351.653977
 31
0.0
  0
LINE
  5
279
330
1F
100
AcDbEntity
  8
LC-001-100-D00-0
 62
     7
370
    50
100
AcDbLine
 10
87.920765
 20
351.553975
 30
0.0
 11
87.468604
 21
351.553975
 31
0.0
  0
LINE
  5
27A
330
1F
100
AcDbEntity
  8
LC-001-100-D00-0
 62
     7
370
    50
100
AcDbLine
 10
87.920765
 20
351.653977
 30
0.0
 11
87.920765
 21
351.553975
 31
0.0
  0
LINE
  5
27B
330
1F
100
AcDbEntity
  8
LC-001-100-D00-0
 62
     7
370
    50
100
AcDbLine
 10
87.920765
 20
351.653977
 30
0.0
 11
88.581609
 21
351.653977
 31
0.0
  0
LINE
  5
27C
330
1F
100
AcDbEntity
  8
LC-001-100-D00-0
 62
     7
370
    50
100
AcDbLine
 10
88.581609
 20
351.553975
 30
0.0
 11
88.581609
 21
351.653977
 31
0.0
  0
LINE
  5
27D
330
1F
100
AcDbEntity
  8
LC-001-100-D00-0
 62
     7
370
    50
100
AcDbLine
 10
89.033763
 20
351.553975
 30
0.0
 11
88.581609
 21
351.553975
 31
0.0
  0
LINE
  5
27E
330
1F
100
AcDbEntity
  8
LC-001-100-D00-0
 62
     7
370
    50
100
AcDbLine
 10
89.033763
 20
351.653977
 30
0.0
 11
89.033763
 21
351.553975
 31
0.0
  0
LINE
  5
27F
330
1F
100
AcDbEntity
  8
LC-001-100-D00-0
 62
     7
370
    50
100
AcDbLine
 10
89.033763
 20
351.653977
 30
0.0
 11
89.659828
 21
351.653977
 31
0.0
  0
LINE
  5
280
330
1F
100
AcDbEntity
  8
LC-001-100-D00-0
 62
     7
370
    50
100
AcDbLine
 10
89.659828
 20
351.553975
 30
0.0
 11
89.659828
 21
351.653977
 31
0.0
  0
LINE
  5
281
330
1F
100
AcDbEntity
  8
LC-001-100-D00-0
 62
     7
370
    50
100
AcDbLine
 10
89.938077
 20
351.553975
 30
0.0
 11
89.659828
 21
351.553975
 31
0.0
  0
LINE
  5
282
330
1F
100
AcDbEntity
  8
LC-001-100-D00-0
 62
     7
370
    50
100
AcDbLine
 10
89.938077
 20
351.653977
 30
0.0
 11
89.938077
 21
351.553975
 31
0.0
  0
LINE
  5
283
330
1F
100
AcDbEntity
  8
LC-001-100-D00-0
 62
     7
370
    50
100
AcDbLine
 10
91.468452
 20
351.653977
 30
0.0
 11
89.938077
 21
351.653977
 31
0.0
  0
LINE
  5
284
330
1F
100
AcDbEntity
  8
LC-001-100-D00-0
 62
     7
370
    50
100
AcDbLine
 10
91.468452
 20
351.553975
 30
0.0
 11
91.468452
 21
351.653977
 31
0.0
  0
LINE
  5
285
330
1F
100
AcDbEntity
  8
LC-001-100-D00-0
 62
     7
370
    50
100
AcDbLine
 10
91.851047
 20
351.553975
 30
0.0
 11
91.468452
 21
351.553975
 31
0.0
  0
LINE
  5
286
330
1F
100
AcDbEntity
  8
LC-001-100-D00-0
 62
     7
370
    50
100
AcDbLine
 10
91.851047
 20
351.653977
 30
0.0
 11
91.851047
 21
351.553975
 31
0.0
  0
LINE
  5
287
330
1F
100
AcDbEntity
  8
LC-001-100-D00-0
 62
     7
370
    50
100
AcDbLine
 10
91.851047
 20
351.653977
 30
0.0
 11
93.71266
 21
351.653977
 31
0.0
  0
LINE
  5
288
330
1F
100
AcDbEntity
  8
LC-001-100-D00-0
 62
     7
370
    50
100
AcDbLine
 10
93.71266
 20
351.553975
 30
0.0
 11
93.71266
 21
351.653977
 31
0.0
  0
LINE
  5
289
330
1F
100
AcDbEntity
  8
LC-001-100-D00-0
 62
     7
370
    50
100
AcDbLine
 10
135.587402
 20
351.553975
 30
0.0
 11
93.71266
 21
351.553975
 31
0.0
  0
ARC
  5
28A
330
1F
100
AcDbEntity
  8
LC-001-100-D00-0
 62
     7
370
    50
100
AcDbCircle
 10
135.587402
 20
338.553981
 30
0.0
 40
12.99999999999999
100
AcDbArc
 50
15.0
 51
90.0
  0
LINE
  5
28B
330
1F
100
AcDbEntity
  8
LC-001-100-D00-0
 62
     7
370
    50
100
AcDbLine
 10
165.643189
 20
276.6124
 30
0.0
 11
148.144438
 21
341.918631
 31
0.0
  0
LINE
  5
28C
330
1F
100
AcDbEntity
  8
LC-001-100-D00-0
 62
     7
370
    50
100
AcDbLine
 10
159.453684
 20
276.6124
 30
0.0
 11
165.643189
 21
276.6124
 31
0.0
  0
LINE
  5
28D
330
1F
100
AcDbEntity
  8
LC-001-100-D00-0
 62
     7
370
    50
100
AcDbLine
 10
159.453684
 20
266.612409
 30
0.0
 11
159.453684
 21
276.6124
 31
0.0
  0
LINE
  5
28E
330
1F
100
AcDbEntity
  8
LC-001-100-D00-0
 62
     7
370
    50
100
AcDbLine
 10
157.453684
 20
266.612409
 30
0.0
 11
159.453684
 21
266.612409
 31
0.0
  0
LINE
  5
28F
330
1F
100
AcDbEntity
  8
LC-001-100-D00-0
 62
     7
370
    50
100
AcDbLine
 10
157.453684
 20
276.6124
 30
0.0
 11
157.453684
 21
266.612409
 31
0.0
  0
LINE
  5
290
330
1F
100
AcDbEntity
  8
LC-001-100-D00-0
 62
     7
370
    50
100
AcDbLine
 10
154.772789
 20
276.6124
 30
0.0
 11
157.453684
 21
276.6124
 31
0.0
  0
LINE
  5
291
330
1F
100
AcDbEntity
  8
LC-001-100-D00-0
 62
     7
370
    50
100
AcDbLine
 10
144.992643
 20
313.112406
 30
0.0
 11
154.772789
 21
276.6124
 31
0.0
  0
LINE
  5
292
330
1F
100
AcDbEntity
  8
LC-001-100-D00-0
 62
     7
370
    50
100
AcDbLine
 10
143.753684
 20
313.112406
 30
0.0
 11
144.992643
 21
313.112406
 31
0.0
  0
ARC
  5
293
330
1F
100
AcDbEntity
  8
LC-001-100-D00-0
 62
     7
370
    50
100
AcDbCircle
 10
143.753685
 20
314.112403
 30
0.0
 40
1.0
100
AcDbArc
 50
180.0
 51
270.0
  0
LINE
  5
294
330
1F
100
AcDbEntity
  8
LC-001-100-D00-0
 62
     7
370
    50
100
AcDbLine
 10
142.753685
 20
321.468307
 30
0.0
 11
142.753685
 21
314.112408
 31
0.0
  0
LINE
  5
295
330
1F
100
AcDbEntity
  8
LC-001-100-D00-0
 62
     7
370
    50
100
AcDbLine
 10
135.697063
 20
347.803979
 30
0.0
 11
142.753685
 21
321.468307
 31
0.0
  0
LINE
  5
296
330
1F
100
AcDbEntity
  8
LC-001-100-D00-0
 62
     7
370
    50
100
AcDbLine
 10
70.210303
 20
347.803979
 30
0.0
 11
135.697063
 21
347.803979
 31
0.0
  0
LINE
  5
297
330
1F
100
AcDbEntity
  8
LC-001-100-D00-0
 62
     7
370
    50
100
AcDbLine
 10
63.153687
 20
321.468307
 30
0.0
 11
70.210303
 21
347.803979
 31
0.0
  0
LINE
  5
298
330
1F
100
AcDbEntity
  8
LC-001-100-D00-0
 62
     7
370
    50
100
AcDbLine
 10
63.153687
 20
314.112408
 30
0.0
 11
63.153687
 21
321.468307
 31
0.0
  0
ARC
  5
299
330
1F
100
AcDbEntity
  8
LC-001-100-D00-0
 62
     7
370
    50
100
AcDbCircle
 10
62.153685
 20
314.112403
 30
0.0
 40
1.0
100
AcDbArc
 50
270.0
 51
0.0
  0
LINE
  5
29A
330
1F
100
AcDbEntity
  8
LC-001-100-D00-0
 62
     7
370
    50
100
AcDbLine
 10
60.914728
 20
313.112406
 30
0.0
 11
62.153685
 21
313.112406
 31
0.0
  0
LINE
  5
29B
330
1F
100
AcDbEntity
  8
LC-001-100-D00-0
 62
     7
370
    50
100
AcDbLine
 10
51.134582
 20
276.6124
 30
0.0
 11
60.914728
 21
313.112406
 31
0.0
  0
LINE
  5
29C
330
1F
100
AcDbEntity
  8
LC-001-100-D00-0
 62
     7
370
    50
100
AcDbLine
 10
48.453684
 20
276.6124
 30
0.0
 11
51.134582
 21
276.6124
 31
0.0
  0
LINE
  5
29D
330
1F
100
AcDbEntity
  8
LC-001-100-D00-0
 62
     7
370
    50
100
AcDbLine
 10
48.453684
 20
266.612409
 30
0.0
 11
48.453684
 21
276.6124
 31
0.0
  0
LINE
  5
29E
330
1F
100
AcDbEntity
  8
LC-001-100-D00-0
 62
     7
370
    50
100
AcDbLine
 10
46.453687
 20
266.612409
 30
0.0
 11
48.453684
 21
266.612409
 31
0.0
  0
LINE
  5
29F
330
1F
100
AcDbEntity
  8
LC-001-100-D00-0
 62
     7
370
    50
100
AcDbLine
 10
46.453687
 20
276.6124
 30
0.0
 11
46.453687
 21
266.612409
 31
0.0
  0
LINE
  5
2A0
330
1F
100
AcDbEntity
  8
LC-001-100-D00-0
 62
     7
370
    50
100
AcDbLine
 10
40.264184
 20
276.6124
 30
0.0
 11
46.453687
 21
276.6124
 31
0.0
  0
LINE
  5
2A1
330
1F
100
AcDbEntity
  8
LC-001-100-D00-0
 62
     7
370
    50
100
AcDbLine
 10
57.762931
 20
341.918631
 30
0.0
 11
40.264184
 21
276.6124
 31
0.0
  0
LINE
  5
2A2
330
1F
100
AcDbEntity
  8
LC-001-100-D00-0
 62
     7
370
    50
100
AcDbLine
 10
75.806136
 20
351.653977
 30
0.0
 11
76.02762
 21
351.653977
 31
0.0
  0
LINE
  5
2A3
330
1F
100
AcDbEntity
  8
LC-001-100-D00-0
 62
     7
370
    50
100
AcDbLine
 10
76.753187
 20
351.653977
 30
0.0
 11
76.749208
 21
351.653977
 31
0.0
  0
LINE
  5
2A4
330
1F
100
AcDbEntity
  8
LC-001-100-D00-0
 62
     7
370
    50
100
AcDbLine
 10
78.05373
 20
351.653977
 30
0.0
 11
78.047256
 21
351.653977
 31
0.0
  0
LINE
  5
2A5
330
1F
100
AcDbEntity
  8
LC-001-100-D00-0
 62
     7
370
    50
100
AcDbLine
 10
78.639666
 20
351.653977
 30
0.0
 11
78.494559
 21
351.653977
 31
0.0
  0
LINE
  5
2A6
330
1F
100
AcDbEntity
  8
LC-001-100-D00-0
 62
     7
370
    50
100
AcDbLine
 10
76.462957
 20
351.653977
 30
0.0
 11
76.386112
 21
351.653977
 31
0.0
  0
LINE
  5
2A7
330
1F
100
AcDbEntity
  8
LC-001-100-D00-0
 62
     7
370
    50
100
AcDbLine
 10
76.749208
 20
351.653977
 30
0.0
 11
76.628665
 21
351.653977
 31
0.0
  0
LINE
  5
2A8
330
1F
100
AcDbEntity
  8
LC-001-100-D00-0
 62
     7
370
    50
100
AcDbLine
 10
55.142718
 20
276.6124
 30
0.0
 11
53.223799
 21
276.6124
 31
0.0
  0
LINE
  5
2A9
330
1F
100
AcDbEntity
  8
LC-001-100-D00-0
 62
     7
370
    50
100
AcDbLine
 10
63.542622
 20
276.6124
 30
0.0
 11
58.702024
 21
276.6124
 31
0.0
  0
LINE
  5
2AA
330
1F
100
AcDbEntity
  8
LC-001-100-D00-0
 62
     7
370
    50
100
AcDbLine
 10
74.628319
 20
276.6124
 30
0.0
 11
67.195925
 21
276.6124
 31
0.0
  0
LINE
  5
2AB
330
1F
100
AcDbEntity
  8
LC-001-100-D00-0
 62
     7
370
    50
100
AcDbLine
 10
87.644349
 20
276.6124
 30
0.0
 11
78.126664
 21
276.6124
 31
0.0
  0
LINE
  5
2AC
330
1F
100
AcDbEntity
  8
LC-001-100-D00-0
 62
     7
370
    50
100
AcDbLine
 10
101.703684
 20
276.6124
 30
0.0
 11
90.749322
 21
276.6124
 31
0.0
  0
LINE
  5
2AD
330
1F
100
AcDbEntity
  8
LC-001-100-D00-0
 62
     7
370
    50
100
AcDbLine
 10
115.15805
 20
276.6124
 30
0.0
 11
104.203685
 21
276.6124
 31
0.0
  0
LINE
  5
2AE
330
1F
100
AcDbEntity
  8
LC-001-100-D00-0
 62
     7
370
    50
100
AcDbLine
 10
127.780705
 20
276.6124
 30
0.0
 11
118.26302
 21
276.6124
 31
0.0
  0
LINE
  5
2AF
330
1F
100
AcDbEntity
  8
LC-001-100-D00-0
 62
     7
370
    50
100
AcDbLine
 10
138.711441
 20
276.6124
 30
0.0
 11
131.279048
 21
276.6124
 31
0.0
  0
LINE
  5
2B0
330
1F
100
AcDbEntity
  8
LC-001-100-D00-0
 62
     7
370
    50
100
AcDbLine
 10
147.205345
 20
276.6124
 30
0.0
 11
142.36475
 21
276.6124
 31
0.0
  0
LINE
  5
2B1
330
1F
100
AcDbEntity
  8
LC-001-100-D00-0
 62
     7
370
    50
100
AcDbLine
 10
152.683572
 20
276.6124
 30
0.0
 11
150.764653
 21
276.6124
 31
0.0
  0
LINE
  5
2B2
330
1F
100
AcDbEntity
  8
LC-001-100-D00-0
 62
     7
370
    50
100
AcDbLine
 10
157.453684
 20
266.612409
 30
0.0
 11
48.453684
 21
266.612409
 31
0.0
  0
LINE
  5
2B3
330
1F
100
AcDbEntity
  8
LC-001-100-D00-0
 62
     7
370
    50
100
AcDbLine
 10
64.205277
 20
322.255923
 30
0.0
 11
63.364724
 21
322.255923
 31
0.0
  0
LINE
  5
2B4
330
1F
100
AcDbEntity
  8
LC-001-100-D00-0
 62
     7
370
    50
100
AcDbLine
 10
64.205277
 20
321.541591
 30
0.0
 11
64.205277
 21
322.255923
 31
0.0
  0
ELLIPSE
  5
2B5
330
1F
100
AcDbEntity
  8
LC-001-100-D00-0
 62
     7
370
    50
100
AcDbEllipse
 10
102.953685
 20
470.003932
 30
0.0
 11
-38.6123599239941
 21
-148.514430962008
 31
0.0
210
0.0
220
0.0
230
1.0
 40
0.064978
 41
3.127072504765438
 42
3.189896906356532
  0
LINE
  5
2B6
330
1F
100
AcDbEntity
  8
LC-001-100-D00-0
 62
     7
370
    50
100
AcDbLine
 10
67.877876
 20
322.255923
 30
0.0
 11
65.037208
 21
322.255923
 31
0.0
  0
LINE
  5
2B7
330
1F
100
AcDbEntity
  8
LC-001-100-D00-0
 62
     7
370
    50
100
AcDbLine
 10
67.877876
 20
321.541591
 30
0.0
 11
67.877876
 21
322.255923
 31
0.0
  0
ELLIPSE
  5
2B8
330
1F
100
AcDbEntity
  8
LC-001-100-D00-0
 62
     7
370
    50
100
AcDbEllipse
 10
102.953685
 20
470.003932
 30
0.0
 11
-35.0487517326745
 21
-148.4688948661247
 31
0.0
210
0.0
220
0.0
230
1.0
 40
0.127017
 41
3.140156036093115
 42
3.2029804376841
  0
LINE
  5
2B9
330
1F
100
AcDbEntity
  8
LC-001-100-D00-0
 62
     7
370
    50
100
AcDbLine
 10
73.940831
 20
322.255923
 30
0.0
 11
69.293643
 21
322.255923
 31
0.0
  0
LINE
  5
2BA
330
1F
100
AcDbEntity
  8
LC-001-100-D00-0
 62
     7
370
    50
100
AcDbLine
 10
73.940831
 20
321.541591
 30
0.0
 11
73.940831
 21
322.255923
 31
0.0
  0
ELLIPSE
  5
2BB
330
1F
100
AcDbEntity
  8
LC-001-100-D00-0
 62
     7
370
    50
100
AcDbEllipse
 10
102.953685
 20
470.003932
 30
0.0
 11
-29.13311655020784
 21
-148.4402514731537
 31
0.0
210
0.0
220
0.0
230
1.0
 40
0.182676
 41
3.14601734502076
 42
3.208841746611634
  0
LINE
  5
2BC
330
1F
100
AcDbEntity
  8
LC-001-100-D00-0
 62
     7
370
    50
100
AcDbLine
 10
81.980969
 20
322.255923
 30
0.0
 11
75.843948
 21
322.255923
 31
0.0
  0
LINE
  5
2BD
330
1F
100
AcDbEntity
  8
LC-001-100-D00-0
 62
     7
370
    50
100
AcDbLine
 10
81.980969
 20
321.541591
 30
0.0
 11
81.980969
 21
322.255923
 31
0.0
  0
ELLIPSE
  5
2BE
330
1F
100
AcDbEntity
  8
LC-001-100-D00-0
 62
     7
370
    50
100
AcDbEllipse
 10
102.953685
 20
470.003932
 30
0.0
 11
-20.99942077801107
 21
-148.4586158042328
 31
0.0
210
0.0
220
0.0
230
1.0
 40
0.227735
 41
3.142382366769034
 42
3.20520676835991
  0
LINE
  5
2BF
330
1F
100
AcDbEntity
  8
LC-001-100-D00-0
 62
     7
370
    50
100
AcDbLine
 10
91.450362
 20
322.255923
 30
0.0
 11
84.146033
 21
322.255923
 31
0.0
  0
LINE
  5
2C0
330
1F
100
AcDbEntity
  8
LC-001-100-D00-0
 62
     7
370
    50
100
AcDbLine
 10
91.450362
 20
321.541591
 30
0.0
 11
91.450362
 21
322.255923
 31
0.0
  0
ELLIPSE
  5
2C1
330
1F
100
AcDbEntity
  8
LC-001-100-D00-0
 62
     7
370
    50
100
AcDbEllipse
 10
102.953685
 20
470.003932
 30
0.0
 11
-11.03449487866741
 21
-148.5084444693137
 31
0.0
210
0.0
220
0.0
230
1.0
 40
0.257492
 41
3.12931034117923
 42
3.192134742770158
  0
LINE
  5
2C2
330
1F
100
AcDbEntity
  8
LC-001-100-D00-0
 62
     7
370
    50
100
AcDbLine
 10
101.703684
 20
322.255923
 30
0.0
 11
93.865177
 21
322.255923
 31
0.0
  0
ELLIPSE
  5
2C3
330
1F
100
AcDbEntity
  8
LC-001-100-D00-0
 62
     7
370
    50
100
AcDbEllipse
 10
102.953685
 20
470.003932
 30
0.0
 11
0.0
 21
-148.5356221412427
 31
0.0
210
0.0
220
0.0
230
1.0
 40
0.267949
 41
3.11018045279435
 42
3.173004854385282
  0
LINE
  5
2C4
330
1F
100
AcDbEntity
  8
LC-001-100-D00-0
 62
     7
370
    50
100
AcDbLine
 10
112.042195
 20
322.255923
 30
0.0
 11
104.203685
 21
322.255923
 31
0.0
  0
ELLIPSE
  5
2C5
330
1F
100
AcDbEntity
  8
LC-001-100-D00-0
 62
     7
370
    50
100
AcDbEllipse
 10
102.953685
 20
470.003932
 30
0.0
 11
11.03449487866859
 21
-148.5084444693182
 31
0.0
210
0.0
220
0.0
230
1.0
 40
0.257492
 41
3.091050564409446
 42
3.153874966000375
  0
LINE
  5
2C6
330
1F
100
AcDbEntity
  8
LC-001-100-D00-0
 62
     7
370
    50
100
AcDbLine
 10
114.457006
 20
321.541591
 30
0.0
 11
114.457006
 21
322.255923
 31
0.0
  0
LINE
  5
2C7
330
1F
100
AcDbEntity
  8
LC-001-100-D00-0
 62
     7
370
    50
100
AcDbLine
 10
121.761336
 20
322.255923
 30
0.0
 11
114.457006
 21
322.255923
 31
0.0
  0
ELLIPSE
  5
2C8
330
1F
100
AcDbEntity
  8
LC-001-100-D00-0
 62
     7
370
    50
100
AcDbEllipse
 10
102.953685
 20
470.003932
 30
0.0
 11
20.9994207780103
 21
-148.4586158042219
 31
0.0
210
0.0
220
0.0
230
1.0
 40
0.227735
 41
3.077978538819719
 42
3.140802940410596
  0
LINE
  5
2C9
330
1F
100
AcDbEntity
  8
LC-001-100-D00-0
 62
     7
370
    50
100
AcDbLine
 10
123.9264
 20
321.541591
 30
0.0
 11
123.9264
 21
322.255923
 31
0.0
  0
LINE
  5
2CA
330
1F
100
AcDbEntity
  8
LC-001-100-D00-0
 62
     7
370
    50
100
AcDbLine
 10
130.063423
 20
322.255923
 30
0.0
 11
123.9264
 21
322.255923
 31
0.0
  0
ELLIPSE
  5
2CB
330
1F
100
AcDbEntity
  8
LC-001-100-D00-0
 62
     7
370
    50
100
AcDbEllipse
 10
102.953685
 20
470.003932
 30
0.0
 11
29.13311655021027
 21
-148.4402514731633
 31
0.0
210
0.0
220
0.0
230
1.0
 40
0.182676
 41
3.074343560567999
 42
3.137167962158879
  0
LINE
  5
2CC
330
1F
100
AcDbEntity
  8
LC-001-100-D00-0
 62
     7
370
    50
100
AcDbLine
 10
131.966534
 20
321.541591
 30
0.0
 11
131.966534
 21
322.255923
 31
0.0
  0
LINE
  5
2CD
330
1F
100
AcDbEntity
  8
LC-001-100-D00-0
 62
     7
370
    50
100
AcDbLine
 10
136.613728
 20
322.255923
 30
0.0
 11
131.966534
 21
322.255923
 31
0.0
  0
ELLIPSE
  5
2CE
330
1F
100
AcDbEntity
  8
LC-001-100-D00-0
 62
     7
370
    50
100
AcDbEllipse
 10
102.953685
 20
470.003932
 30
0.0
 11
35.04875173265413
 21
-148.4688948660374
 31
0.0
210
0.0
220
0.0
230
1.0
 40
0.127017
 41
3.080204869495636
 42
3.143029271086619
  0
LINE
  5
2CF
330
1F
100
AcDbEntity
  8
LC-001-100-D00-0
 62
     7
370
    50
100
AcDbLine
 10
138.029492
 20
321.541591
 30
0.0
 11
138.029492
 21
322.255923
 31
0.0
  0
LINE
  5
2D0
330
1F
100
AcDbEntity
  8
LC-001-100-D00-0
 62
     7
370
    50
100
AcDbLine
 10
140.870158
 20
322.255923
 30
0.0
 11
138.029492
 21
322.255923
 31
0.0
  0
ELLIPSE
  5
2D1
330
1F
100
AcDbEntity
  8
LC-001-100-D00-0
 62
     7
370
    50
100
AcDbEllipse
 10
102.953685
 20
470.003932
 30
0.0
 11
38.61235992403825
 21
-148.5144309621771
 31
0.0
210
0.0
220
0.0
230
1.0
 40
0.064978
 41
3.093288400823727
 42
3.156112802414813
  0
LINE
  5
2D2
330
1F
100
AcDbEntity
  8
LC-001-100-D00-0
 62
     7
370
    50
100
AcDbLine
 10
141.702091
 20
321.541591
 30
0.0
 11
141.702091
 21
322.255923
 31
0.0
  0
LINE
  5
2D3
330
1F
100
AcDbEntity
  8
LC-001-100-D00-0
 62
     7
370
    50
100
AcDbLine
 10
142.542643
 20
322.255923
 30
0.0
 11
141.702091
 21
322.255923
 31
0.0
  0
LINE
  5
2D4
330
1F
100
AcDbEntity
  8
LC-001-100-D00-0
 62
     7
370
    50
100
AcDbLine
 10
143.753684
 20
313.112406
 30
0.0
 11
62.153685
 21
313.112406
 31
0.0
  0
LINE
  5
2D5
330
1F
100
AcDbEntity
  8
LC-001-100-D00-0
 62
     7
370
    50
100
AcDbLine
 10
93.729234
 20
351.653977
 30
0.0
 11
93.729234
 21
351.553975
 31
0.0
  0
LINE
  5
2D6
330
1F
100
AcDbEntity
  8
LC-001-100-D00-0
 62
     7
370
    50
100
AcDbLine
 10
93.71266
 20
351.653977
 30
0.0
 11
93.729234
 21
351.653977
 31
0.0
  0
LINE
  5
2D7
330
1F
100
AcDbEntity
  8
LC-001-100-D00-0
 62
     7
370
    50
100
AcDbLine
 10
78.349444
 20
351.653977
 30
0.0
 11
78.224535
 21
351.653977
 31
0.0
  0
LINE
  5
2D8
330
1F
100
AcDbEntity
  8
LC-001-100-D00-0
 62
     7
370
    50
100
AcDbLine
 10
78.224535
 20
351.653977
 30
0.0
 11
78.204329
 21
351.653977
 31
0.0
  0
LINE
  5
2D9
330
1F
100
AcDbEntity
  8
LC-001-100-D00-0
 62
     7
370
    50
100
AcDbLine
 10
78.047256
 20
351.653977
 30
0.0
 11
77.932904
 21
351.653977
 31
0.0
  0
LINE
  5
2DA
330
1F
100
AcDbEntity
  8
LC-001-100-D00-0
 62
     7
370
    50
100
AcDbLine
 10
76.386112
 20
351.653977
 30
0.0
 11
76.317842
 21
351.653977
 31
0.0
  0
LINE
  5
2DB
330
1F
100
AcDbEntity
  8
LC-001-100-D00-0
 62
     7
370
    50
100
AcDbLine
 10
77.932904
 20
351.653977
 30
0.0
 11
77.914889
 21
351.653977
 31
0.0
  0
LINE
  5
2DC
330
1F
100
AcDbEntity
  8
LC-001-100-D00-0
 62
     7
370
    50
100
AcDbLine
 10
80.730985
 20
351.653977
 30
0.0
 11
80.626639
 21
351.653977
 31
0.0
  0
LINE
  5
2DD
330
1F
100
AcDbEntity
  8
LC-001-100-D00-0
 62
     7
370
    50
100
AcDbLine
 10
75.799438
 20
351.653977
 30
0.0
 11
75.806136
 21
351.653977
 31
0.0
  0
LINE
  5
2DE
330
1F
100
AcDbEntity
  8
LC-001-100-D00-0
 62
     7
370
    50
100
AcDbLine
 10
87.468604
 20
351.653977
 30
0.0
 11
87.53817
 21
351.653977
 31
0.0
  0
LINE
  5
2DF
330
1F
100
AcDbEntity
  8
LC-001-100-D00-0
 62
     7
370
    50
100
AcDbLine
 10
87.851199
 20
351.653977
 30
0.0
 11
87.920765
 21
351.653977
 31
0.0
  0
LINE
  5
2E0
330
1F
100
AcDbEntity
  8
LC-001-100-D00-0
 62
     7
370
    50
100
AcDbLine
 10
88.581609
 20
351.653977
 30
0.0
 11
88.651172
 21
351.653977
 31
0.0
  0
LINE
  5
2E1
330
1F
100
AcDbEntity
  8
LC-001-100-D00-0
 62
     7
370
    50
100
AcDbLine
 10
88.9642
 20
351.653977
 30
0.0
 11
89.033763
 21
351.653977
 31
0.0
  0
LINE
  5
2E2
330
1F
100
AcDbEntity
  8
LC-001-100-D00-0
 62
     7
370
    50
100
AcDbLine
 10
80.626639
 20
351.653977
 30
0.0
 11
80.268885
 21
351.653977
 31
0.0
  0
LINE
  5
2E3
330
1F
100
AcDbEntity
  8
LC-001-100-D00-0
 62
     7
370
    50
100
AcDbLine
 10
87.53817
 20
351.653977
 30
0.0
 11
87.851199
 21
351.653977
 31
0.0
  0
LINE
  5
2E4
330
1F
100
AcDbEntity
  8
LC-001-100-D00-0
 62
     7
370
    50
100
AcDbLine
 10
88.651172
 20
351.653977
 30
0.0
 11
88.9642
 21
351.653977
 31
0.0
  0
LINE
  5
2E5
330
1F
100
AcDbEntity
  8
LC-001-100-D00-0
 62
     7
370
    50
100
AcDbLine
 10
153.330619
 20
276.6124
 30
0.0
 11
154.772789
 21
276.6124
 31
0.0
  0
LINE
  5
2E6
330
1F
100
AcDbEntity
  8
LC-001-100-D00-0
 62
     7
370
    50
100
AcDbLine
 10
143.883724
 20
313.112406
 30
0.0
 11
153.330619
 21
276.6124
 31
0.0
  0
LINE
  5
2E7
330
1F
100
AcDbEntity
  8
LC-001-100-D00-0
 62
     7
370
    50
100
AcDbLine
 10
134.904883
 20
347.803979
 30
0.0
 11
141.702091
 21
321.541591
 31
0.0
  0
LINE
  5
2E8
330
1F
100
AcDbEntity
  8
LC-001-100-D00-0
 62
     7
370
    50
100
AcDbLine
 10
62.023642
 20
313.112406
 30
0.0
 11
52.576753
 21
276.6124
 31
0.0
  0
LINE
  5
2E9
330
1F
100
AcDbEntity
  8
LC-001-100-D00-0
 62
     7
370
    50
100
AcDbLine
 10
52.576753
 20
276.6124
 30
0.0
 11
51.134582
 21
276.6124
 31
0.0
  0
LINE
  5
2EA
330
1F
100
AcDbEntity
  8
LC-001-100-D00-0
 62
     7
370
    50
100
AcDbLine
 10
71.002486
 20
347.803979
 30
0.0
 11
64.205277
 21
321.541591
 31
0.0
  0
LINE
  5
2EB
330
1F
100
AcDbEntity
  8
LC-001-100-D00-0
 62
     7
370
    50
100
AcDbLine
 10
134.257835
 20
347.803979
 30
0.0
 11
141.055044
 21
321.541591
 31
0.0
  0
LINE
  5
2EC
330
1F
100
AcDbEntity
  8
LC-001-100-D00-0
 62
     7
370
    50
100
AcDbLine
 10
71.649532
 20
347.803979
 30
0.0
 11
64.852322
 21
321.541591
 31
0.0
  0
LINE
  5
2ED
330
1F
100
AcDbEntity
  8
LC-001-100-D00-0
 62
     7
370
    50
100
AcDbLine
 10
153.330619
 20
276.6124
 30
0.0
 11
152.683572
 21
276.6124
 31
0.0
  0
LINE
  5
2EE
330
1F
100
AcDbEntity
  8
LC-001-100-D00-0
 62
     7
370
    50
100
AcDbLine
 10
143.236676
 20
313.112406
 30
0.0
 11
152.683572
 21
276.6124
 31
0.0
  0
LINE
  5
2EF
330
1F
100
AcDbEntity
  8
LC-001-100-D00-0
 62
     7
370
    50
100
AcDbLine
 10
53.223799
 20
276.6124
 30
0.0
 11
52.576753
 21
276.6124
 31
0.0
  0
LINE
  5
2F0
330
1F
100
AcDbEntity
  8
LC-001-100-D00-0
 62
     7
370
    50
100
AcDbLine
 10
62.670695
 20
313.112406
 30
0.0
 11
53.223799
 21
276.6124
 31
0.0
  0
LINE
  5
2F1
330
1F
100
AcDbEntity
  8
LC-001-100-D00-0
 62
     7
370
    50
100
AcDbLine
 10
148.455345
 20
276.6124
 30
0.0
 11
150.764653
 21
276.6124
 31
0.0
  0
LINE
  5
2F2
330
1F
100
AcDbEntity
  8
LC-001-100-D00-0
 62
     7
370
    50
100
AcDbLine
 10
139.98549
 20
313.112406
 30
0.0
 11
148.455345
 21
276.6124
 31
0.0
  0
LINE
  5
2F3
330
1F
100
AcDbEntity
  8
LC-001-100-D00-0
 62
     7
370
    50
100
AcDbLine
 10
131.935282
 20
347.803979
 30
0.0
 11
138.029492
 21
321.541591
 31
0.0
  0
LINE
  5
2F4
330
1F
100
AcDbEntity
  8
LC-001-100-D00-0
 62
     7
370
    50
100
AcDbLine
 10
65.921876
 20
313.112406
 30
0.0
 11
57.452026
 21
276.6124
 31
0.0
  0
LINE
  5
2F5
330
1F
100
AcDbEntity
  8
LC-001-100-D00-0
 62
     7
370
    50
100
AcDbLine
 10
57.452026
 20
276.6124
 30
0.0
 11
55.142718
 21
276.6124
 31
0.0
  0
LINE
  5
2F6
330
1F
100
AcDbEntity
  8
LC-001-100-D00-0
 62
     7
370
    50
100
AcDbLine
 10
73.972086
 20
347.803979
 30
0.0
 11
67.877876
 21
321.541591
 31
0.0
  0
LINE
  5
2F7
330
1F
100
AcDbEntity
  8
LC-001-100-D00-0
 62
     7
370
    50
100
AcDbLine
 10
130.685282
 20
347.803979
 30
0.0
 11
136.779492
 21
321.541591
 31
0.0
  0
LINE
  5
2F8
330
1F
100
AcDbEntity
  8
LC-001-100-D00-0
 62
     7
370
    50
100
AcDbLine
 10
75.222085
 20
347.803979
 30
0.0
 11
69.127875
 21
321.541591
 31
0.0
  0
LINE
  5
2F9
330
1F
100
AcDbEntity
  8
LC-001-100-D00-0
 62
     7
370
    50
100
AcDbLine
 10
148.455345
 20
276.6124
 30
0.0
 11
147.205345
 21
276.6124
 31
0.0
  0
LINE
  5
2FA
330
1F
100
AcDbEntity
  8
LC-001-100-D00-0
 62
     7
370
    50
100
AcDbLine
 10
138.735491
 20
313.112406
 30
0.0
 11
147.205345
 21
276.6124
 31
0.0
  0
LINE
  5
2FB
330
1F
100
AcDbEntity
  8
LC-001-100-D00-0
 62
     7
370
    50
100
AcDbLine
 10
58.702024
 20
276.6124
 30
0.0
 11
57.452026
 21
276.6124
 31
0.0
  0
LINE
  5
2FC
330
1F
100
AcDbEntity
  8
LC-001-100-D00-0
 62
     7
370
    50
100
AcDbLine
 10
67.171882
 20
313.112406
 30
0.0
 11
58.702024
 21
276.6124
 31
0.0
  0
LINE
  5
2FD
330
1F
100
AcDbEntity
  8
LC-001-100-D00-0
 62
     7
370
    50
100
AcDbLine
 10
140.479208
 20
276.6124
 30
0.0
 11
142.36475
 21
276.6124
 31
0.0
  0
LINE
  5
2FE
330
1F
100
AcDbEntity
  8
LC-001-100-D00-0
 62
     7
370
    50
100
AcDbLine
 10
133.563601
 20
313.112406
 30
0.0
 11
140.479208
 21
276.6124
 31
0.0
  0
LINE
  5
2FF
330
1F
100
AcDbEntity
  8
LC-001-100-D00-0
 62
     7
370
    50
100
AcDbLine
 10
126.990632
 20
347.803979
 30
0.0
 11
131.966534
 21
321.541591
 31
0.0
  0
LINE
  5
300
330
1F
100
AcDbEntity
  8
LC-001-100-D00-0
 62
     7
370
    50
100
AcDbLine
 10
72.343769
 20
313.112406
 30
0.0
 11
65.428163
 21
276.6124
 31
0.0
  0
LINE
  5
301
330
1F
100
AcDbEntity
  8
LC-001-100-D00-0
 62
     7
370
    50
100
AcDbLine
 10
65.428163
 20
276.6124
 30
0.0
 11
63.542622
 21
276.6124
 31
0.0
  0
LINE
  5
302
330
1F
100
AcDbEntity
  8
LC-001-100-D00-0
 62
     7
370
    50
100
AcDbLine
 10
78.916739
 20
347.803979
 30
0.0
 11
73.940831
 21
321.541591
 31
0.0
  0
LINE
  5
303
330
1F
100
AcDbEntity
  8
LC-001-100-D00-0
 62
     7
370
    50
100
AcDbLine
 10
125.222866
 20
347.803979
 30
0.0
 11
130.198768
 21
321.541591
 31
0.0
  0
LINE
  5
304
330
1F
100
AcDbEntity
  8
LC-001-100-D00-0
 62
     7
370
    50
100
AcDbLine
 10
80.684501
 20
347.803979
 30
0.0
 11
75.708601
 21
321.541591
 31
0.0
  0
INSERT
  5
30A
330
1F
100
AcDbEntity
  8
LC-001-100-D00-0
 62
     7
370
    50
100
AcDbBlockReference
  2
KLON21
 10
0.0
 20
0.0
 30
0.0
  0
LINE
  5
30B
330
1F
100
AcDbEntity
  8
LC-001-100-D00-0
 62
     7
370
    50
100
AcDbLine
 10
135.380969
 20
276.6124
 30
0.0
 11
130.490896
 21
313.112406
 31
0.0
  0
LINE
  5
30C
330
1F
100
AcDbEntity
  8
LC-001-100-D00-0
 62
     7
370
    50
100
AcDbLine
 10
129.265896
 20
322.255923
 30
0.0
 11
127.340496
 21
336.627303
 31
0.0
  0
LINE
  5
30D
330
1F
100
AcDbEntity
  8
LC-001-100-D00-0
 62
     7
370
    50
100
AcDbLine
 10
129.945769
 20
276.6124
 30
0.0
 11
131.279048
 21
276.6124
 31
0.0
  0
LINE
  5
30E
330
1F
100
AcDbEntity
  8
LC-001-100-D00-0
 62
     7
370
    50
100
AcDbLine
 10
125.055696
 20
313.112406
 30
0.0
 11
129.945769
 21
276.6124
 31
0.0
  0
LINE
  5
30F
330
1F
100
AcDbEntity
  8
LC-001-100-D00-0
 62
     7
370
    50
100
AcDbLine
 10
120.407906
 20
347.803979
 30
0.0
 11
123.9264
 21
321.541591
 31
0.0
  0
LINE
  5
310
330
1F
100
AcDbEntity
  8
LC-001-100-D00-0
 62
     7
370
    50
100
AcDbLine
 10
80.851677
 20
313.112406
 30
0.0
 11
75.9616
 21
276.6124
 31
0.0
  0
LINE
  5
311
330
1F
100
AcDbEntity
  8
LC-001-100-D00-0
 62
     7
370
    50
100
AcDbLine
 10
75.9616
 20
276.6124
 30
0.0
 11
74.628319
 21
276.6124
 31
0.0
  0
LINE
  5
312
330
1F
100
AcDbEntity
  8
LC-001-100-D00-0
 62
     7
370
    50
100
AcDbLine
 10
70.526401
 20
276.6124
 30
0.0
 11
75.416471
 21
313.112406
 31
0.0
  0
LINE
  5
313
330
1F
100
AcDbEntity
  8
LC-001-100-D00-0
 62
     7
370
    50
100
AcDbLine
 10
76.641473
 20
322.255923
 30
0.0
 11
78.566874
 21
336.627303
 31
0.0
  0
INSERT
  5
319
330
1F
100
AcDbEntity
  8
LC-001-100-D00-0
 62
     7
370
    50
100
AcDbBlockReference
  2
KLON22
 10
0.0
 20
0.0
 30
0.0
  0
LINE
  5
31A
330
1F
100
AcDbEntity
  8
LC-001-100-D00-0
 62
     7
370
    50
100
AcDbLine
 10
85.499461
 20
347.803979
 30
0.0
 11
81.980969
 21
321.541591
 31
0.0
  0
LINE
  5
31B
330
1F
100
AcDbEntity
  8
LC-001-100-D00-0
 62
     7
370
    50
100
AcDbLine
 10
118.24284
 20
347.803979
 30
0.0
 11
121.761336
 21
321.541591
 31
0.0
  0
LINE
  5
31C
330
1F
100
AcDbEntity
  8
LC-001-100-D00-0
 62
     7
370
    50
100
AcDbLine
 10
87.664525
 20
347.803979
 30
0.0
 11
84.146033
 21
321.541591
 31
0.0
  0
LINE
  5
31D
330
1F
100
AcDbEntity
  8
LC-001-100-D00-0
 62
     7
370
    50
100
AcDbLine
 10
140.479208
 20
276.6124
 30
0.0
 11
138.711441
 21
276.6124
 31
0.0
  0
LINE
  5
31E
330
1F
100
AcDbEntity
  8
LC-001-100-D00-0
 62
     7
370
    50
100
AcDbLine
 10
131.795834
 20
313.112406
 30
0.0
 11
138.711441
 21
276.6124
 31
0.0
  0
LINE
  5
31F
330
1F
100
AcDbEntity
  8
LC-001-100-D00-0
 62
     7
370
    50
100
AcDbLine
 10
67.195925
 20
276.6124
 30
0.0
 11
65.428163
 21
276.6124
 31
0.0
  0
LINE
  5
320
330
1F
100
AcDbEntity
  8
LC-001-100-D00-0
 62
     7
370
    50
100
AcDbLine
 10
74.111539
 20
313.112406
 30
0.0
 11
67.195925
 21
276.6124
 31
0.0
  0
ARC
  5
321
330
1F
100
AcDbEntity
  8
LC-001-100-D00-0
 62
     7
370
    50
100
AcDbCircle
 10
84.236405
 20
340.16851
 30
0.0
 40
31.66931056448023
100
AcDbArc
 50
3.167915
 51
13.951469
  0
LINE
  5
322
330
1F
100
AcDbEntity
  8
LC-001-100-D00-0
 62
     7
370
    50
100
AcDbLine
 10
120.386329
 20
276.6124
 30
0.0
 11
117.855041
 21
313.112406
 31
0.0
  0
LINE
  5
323
330
1F
100
AcDbEntity
  8
LC-001-100-D00-0
 62
     7
370
    50
100
AcDbLine
 10
117.220933
 20
322.255923
 30
0.0
 11
115.857321
 21
341.918631
 31
0.0
  0
LINE
  5
324
330
1F
100
AcDbEntity
  8
LC-001-100-D00-0
 62
     7
370
    50
100
AcDbLine
 10
117.572862
 20
276.6124
 30
0.0
 11
118.26302
 21
276.6124
 31
0.0
  0
LINE
  5
325
330
1F
100
AcDbEntity
  8
LC-001-100-D00-0
 62
     7
370
    50
100
AcDbLine
 10
115.041575
 20
313.112406
 30
0.0
 11
117.572862
 21
276.6124
 31
0.0
  0
LINE
  5
326
330
1F
100
AcDbEntity
  8
LC-001-100-D00-0
 62
     7
370
    50
100
AcDbLine
 10
112.635701
 20
347.803979
 30
0.0
 11
114.457006
 21
321.541591
 31
0.0
  0
LINE
  5
327
330
1F
100
AcDbEntity
  8
LC-001-100-D00-0
 62
     7
370
    50
100
AcDbLine
 10
90.865794
 20
313.112406
 30
0.0
 11
88.334503
 21
276.6124
 31
0.0
  0
LINE
  5
328
330
1F
100
AcDbEntity
  8
LC-001-100-D00-0
 62
     7
370
    50
100
AcDbLine
 10
88.334503
 20
276.6124
 30
0.0
 11
87.644349
 21
276.6124
 31
0.0
  0
LINE
  5
329
330
1F
100
AcDbEntity
  8
LC-001-100-D00-0
 62
     7
370
    50
100
AcDbLine
 10
85.521038
 20
276.6124
 30
0.0
 11
88.052328
 21
313.112406
 31
0.0
  0
LINE
  5
32A
330
1F
100
AcDbEntity
  8
LC-001-100-D00-0
 62
     7
370
    50
100
AcDbLine
 10
88.686435
 20
322.255923
 30
0.0
 11
90.050048
 21
341.918631
 31
0.0
  0
ARC
  5
32B
330
1F
100
AcDbEntity
  8
LC-001-100-D00-0
 62
     7
370
    50
100
AcDbCircle
 10
121.670964
 20
340.16851
 30
0.0
 40
31.66931056448017
100
AcDbArc
 50
166.048531
 51
176.832085
  0
LINE
  5
32C
330
1F
100
AcDbEntity
  8
LC-001-100-D00-0
 62
     7
370
    50
100
AcDbLine
 10
93.271668
 20
347.803979
 30
0.0
 11
91.450362
 21
321.541591
 31
0.0
  0
LINE
  5
32D
330
1F
100
AcDbEntity
  8
LC-001-100-D00-0
 62
     7
370
    50
100
AcDbLine
 10
110.220886
 20
347.803979
 30
0.0
 11
112.042195
 21
321.541591
 31
0.0
  0
LINE
  5
32E
330
1F
100
AcDbEntity
  8
LC-001-100-D00-0
 62
     7
370
    50
100
AcDbLine
 10
95.686483
 20
347.803979
 30
0.0
 11
93.865177
 21
321.541591
 31
0.0
  0
LINE
  5
32F
330
1F
100
AcDbEntity
  8
LC-001-100-D00-0
 62
     7
370
    50
100
AcDbLine
 10
101.703684
 20
347.803979
 30
0.0
 11
101.703684
 21
321.541591
 31
0.0
  0
LINE
  5
330
330
1F
100
AcDbEntity
  8
LC-001-100-D00-0
 62
     7
370
    50
100
AcDbLine
 10
104.203685
 20
347.803979
 30
0.0
 11
104.203685
 21
321.541591
 31
0.0
  0
LINE
  5
331
330
1F
100
AcDbEntity
  8
LC-001-100-D00-0
 62
     7
370
    50
100
AcDbLine
 10
129.945769
 20
276.6124
 30
0.0
 11
127.780705
 21
276.6124
 31
0.0
  0
LINE
  5
332
330
1F
100
AcDbEntity
  8
LC-001-100-D00-0
 62
     7
370
    50
100
AcDbLine
 10
122.890632
 20
313.112406
 30
0.0
 11
127.780705
 21
276.6124
 31
0.0
  0
LINE
  5
333
330
1F
100
AcDbEntity
  8
LC-001-100-D00-0
 62
     7
370
    50
100
AcDbLine
 10
78.126664
 20
276.6124
 30
0.0
 11
75.9616
 21
276.6124
 31
0.0
  0
LINE
  5
334
330
1F
100
AcDbEntity
  8
LC-001-100-D00-0
 62
     7
370
    50
100
AcDbLine
 10
83.016734
 20
313.112406
 30
0.0
 11
78.126664
 21
276.6124
 31
0.0
  0
LINE
  5
335
330
1F
100
AcDbEntity
  8
LC-001-100-D00-0
 62
     7
370
    50
100
AcDbLine
 10
117.572862
 20
276.6124
 30
0.0
 11
115.15805
 21
276.6124
 31
0.0
  0
LINE
  5
336
330
1F
100
AcDbEntity
  8
LC-001-100-D00-0
 62
     7
370
    50
100
AcDbLine
 10
112.62676
 20
313.112406
 30
0.0
 11
115.15805
 21
276.6124
 31
0.0
  0
LINE
  5
337
330
1F
100
AcDbEntity
  8
LC-001-100-D00-0
 62
     7
370
    50
100
AcDbLine
 10
90.749322
 20
276.6124
 30
0.0
 11
88.334503
 21
276.6124
 31
0.0
  0
LINE
  5
338
330
1F
100
AcDbEntity
  8
LC-001-100-D00-0
 62
     7
370
    50
100
AcDbLine
 10
93.280609
 20
313.112406
 30
0.0
 11
90.749322
 21
276.6124
 31
0.0
  0
LINE
  5
339
330
1F
100
AcDbEntity
  8
LC-001-100-D00-0
 62
     7
370
    50
100
AcDbLine
 10
104.203685
 20
276.6124
 30
0.0
 11
101.703684
 21
276.6124
 31
0.0
  0
LINE
  5
33A
330
1F
100
AcDbEntity
  8
LC-001-100-D00-0
 62
     7
370
    50
100
AcDbLine
 10
101.703684
 20
313.112406
 30
0.0
 11
101.703684
 21
276.6124
 31
0.0
  0
LINE
  5
33B
330
1F
100
AcDbEntity
  8
LC-001-100-D00-0
 62
     7
370
    50
100
AcDbLine
 10
104.203685
 20
313.112406
 30
0.0
 11
104.203685
 21
276.6124
 31
0.0
  0
LINE
  5
33C
330
1F
100
AcDbEntity
  8
LC-001-100-D00-0
 62
     7
370
    50
100
AcDbLine
 10
34.928511
 20
270.932181
 30
0.0
 11
34.954074
 21
271.004869
 31
0.0
  0
INSERT
  5
34A
330
1F
100
AcDbEntity
  8
LC-001-100-D00-0
 62
     7
370
    50
100
AcDbBlockReference
  2
POLY17
 10
0.0
 20
0.0
 30
0.0
  0
INSERT
  5
356
330
1F
100
AcDbEntity
  8
LC-001-100-D00-0
 62
     7
370
    50
100
AcDbBlockReference
  2
POLY18
 10
0.0
 20
0.0
 30
0.0
  0
INSERT
  5
362
330
1F
100
AcDbEntity
  8
LC-001-100-D00-0
 62
     7
370
    50
100
AcDbBlockReference
  2
POLY19
 10
0.0
 20
0.0
 30
0.0
  0
INSERT
  5
370
330
1F
100
AcDbEntity
  8
LC-001-100-D00-0
 62
     7
370
    50
100
AcDbBlockReference
  2
POLY20
 10
0.0
 20
0.0
 30
0.0
  0
LINE
  5
371
330
1F
100
AcDbEntity
  8
LC-001-100-D00-0
 62
     7
370
    50
100
AcDbLine
 10
34.928511
 20
261.932178
 30
0.0
 11
34.954074
 21
262.004881
 31
0.0
  0
INSERT
  5
37F
330
1F
100
AcDbEntity
  8
LC-001-100-D00-0
 62
     7
370
    50
100
AcDbBlockReference
  2
POLY21
 10
0.0
 20
0.0
 30
0.0
  0
INSERT
  5
38D
330
1F
100
AcDbEntity
  8
LC-001-100-D00-0
 62
     7
370
    50
100
AcDbBlockReference
  2
POLY22
 10
0.0
 20
0.0
 30
0.0
  0
INSERT
  5
39B
330
1F
100
AcDbEntity
  8
LC-001-100-D00-0
 62
     7
370
    50
100
AcDbBlockReference
  2
POLY23
 10
0.0
 20
0.0
 30
0.0
  0
LINE
  5
39C
330
1F
100
AcDbEntity
  8
LC-001-100-D00-0
 62
     7
370
    50
100
AcDbLine
 10
30.980329
 20
265.285744
 30
0.0
 11
30.955153
 21
265.206604
 31
0.0
  0
INSERT
  5
3AA
330
1F
100
AcDbEntity
  8
LC-001-100-D00-0
 62
     7
370
    50
100
AcDbBlockReference
  2
POLY24
 10
0.0
 20
0.0
 30
0.0
  0
INSERT
  5
3B8
330
1F
100
AcDbEntity
  8
LC-001-100-D00-0
 62
     7
370
    50
100
AcDbBlockReference
  2
POLY25
 10
0.0
 20
0.0
 30
0.0
  0
LINE
  5
3B9
330
1F
100
AcDbEntity
  8
LC-001-100-D00-0
 62
     7
370
    50
100
AcDbLine
 10
30.980329
 20
271.285741
 30
0.0
 11
30.955153
 21
271.206616
 31
0.0
  0
INSERT
  5
3C7
330
1F
100
AcDbEntity
  8
LC-001-100-D00-0
 62
     7
370
    50
100
AcDbBlockReference
  2
POLY26
 10
0.0
 20
0.0
 30
0.0
  0
LINE
  5
3C8
330
1F
100
AcDbEntity
  8
LC-001-100-D00-0
 62
     7
370
    50
100
AcDbLine
 10
34.928511
 20
267.93219
 30
0.0
 11
34.954074
 21
268.004878
 31
0.0
  0
INSERT
  5
3D6
330
1F
100
AcDbEntity
  8
LC-001-100-D00-0
 62
     7
370
    50
100
AcDbBlockReference
  2
POLY27
 10
0.0
 20
0.0
 30
0.0
  0
INSERT
  5
3E4
330
1F
100
AcDbEntity
  8
LC-001-100-D00-0
 62
     7
370
    50
100
AcDbBlockReference
  2
POLY28
 10
0.0
 20
0.0
 30
0.0
  0
INSERT
  5
3F2
330
1F
100
AcDbEntity
  8
LC-001-100-D00-0
 62
     7
370
    50
100
AcDbBlockReference
  2
POLY29
 10
0.0
 20
0.0
 30
0.0
  0
LINE
  5
3F3
330
1F
100
AcDbEntity
  8
LC-001-100-D00-0
 62
     7
370
    50
100
AcDbLine
 10
30.980329
 20
268.285735
 30
0.0
 11
30.955153
 21
268.20661
 31
0.0
  0
INSERT
  5
401
330
1F
100
AcDbEntity
  8
LC-001-100-D00-0
 62
     7
370
    50
100
AcDbBlockReference
  2
POLY30
 10
0.0
 20
0.0
 30
0.0
  0
LINE
  5
402
330
1F
100
AcDbEntity
  8
LC-001-100-D00-0
 62
     7
370
    50
100
AcDbLine
 10
34.928511
 20
264.932184
 30
0.0
 11
34.954074
 21
265.004872
 31
0.0
  0
INSERT
  5
410
330
1F
100
AcDbEntity
  8
LC-001-100-D00-0
 62
     7
370
    50
100
AcDbBlockReference
  2
POLY31
 10
0.0
 20
0.0
 30
0.0
  0
INSERT
  5
41E
330
1F
100
AcDbEntity
  8
LC-001-100-D00-0
 62
     7
370
    50
100
AcDbBlockReference
  2
POLY32
 10
0.0
 20
0.0
 30
0.0
  0
INSERT
  5
42A
330
1F
100
AcDbEntity
  8
LC-001-100-D00-0
 62
     7
370
    50
100
AcDbBlockReference
  2
POLY33
 10
0.0
 20
0.0
 30
0.0
  0
INSERT
  5
436
330
1F
100
AcDbEntity
  8
LC-001-100-D00-0
 62
     7
370
    50
100
AcDbBlockReference
  2
POLY34
 10
0.0
 20
0.0
 30
0.0
  0
INSERT
  5
444
330
1F
100
AcDbEntity
  8
LC-001-100-D00-0
 62
     7
370
    50
100
AcDbBlockReference
  2
POLY35
 10
0.0
 20
0.0
 30
0.0
  0
LINE
  5
445
330
1F
100
AcDbEntity
  8
LC-001-100-D00-0
 62
     7
370
    50
100
AcDbLine
 10
30.980329
 20
274.285747
 30
0.0
 11
30.955153
 21
274.206607
 31
0.0
  0
INSERT
  5
453
330
1F
100
AcDbEntity
  8
LC-001-100-D00-0
 62
     7
370
    50
100
AcDbBlockReference
  2
POLY36
 10
0.0
 20
0.0
 30
0.0
  0
INSERT
  5
461
330
1F
100
AcDbEntity
  8
LC-001-100-D00-0
 62
     7
370
    50
100
AcDbBlockReference
  2
POLY37
 10
0.0
 20
0.0
 30
0.0
  0
LINE
  5
462
330
1F
100
AcDbEntity
  8
LC-001-100-D00-0
 62
     7
370
    50
100
AcDbLine
 10
30.980329
 20
262.285738
 30
0.0
 11
30.955153
 21
262.206613
 31
0.0
  0
INSERT
  5
470
330
1F
100
AcDbEntity
  8
LC-001-100-D00-0
 62
     7
370
    50
100
AcDbBlockReference
  2
POLY38
 10
0.0
 20
0.0
 30
0.0
  0
LINE
  5
471
330
1F
100
AcDbEntity
  8
LC-001-100-D00-0
 62
     7
370
    50
100
AcDbLine
 10
34.928511
 20
273.932187
 30
0.0
 11
34.954074
 21
274.004875
 31
0.0
  0
INSERT
  5
47F
330
1F
100
AcDbEntity
  8
LC-001-100-D00-0
 62
     7
370
    50
100
AcDbBlockReference
  2
POLY39
 10
0.0
 20
0.0
 30
0.0
  0
INSERT
  5
48D
330
1F
100
AcDbEntity
  8
LC-001-100-D00-0
 62
     7
370
    50
100
AcDbBlockReference
  2
POLY40
 10
0.0
 20
0.0
 30
0.0
  0
LINE
  5
48E
330
1F
100
AcDbEntity
  8
LC-001-100-D00-0
 62
     7
370
    50
100
AcDbLine
 10
30.980329
 20
269.587158
 30
0.0
 11
30.980329
 21
271.285741
 31
0.0
  0
LINE
  5
48F
330
1F
100
AcDbEntity
  8
LC-001-100-D00-0
 62
     7
370
    50
100
AcDbLine
 10
34.928511
 20
269.630758
 30
0.0
 11
34.928511
 21
267.93219
 31
0.0
  0
LINE
  5
490
330
1F
100
AcDbEntity
  8
LC-001-100-D00-0
 62
     7
370
    50
100
AcDbLine
 10
30.980329
 20
272.587164
 30
0.0
 11
30.980329
 21
274.285747
 31
0.0
  0
LINE
  5
491
330
1F
100
AcDbEntity
  8
LC-001-100-D00-0
 62
     7
370
    50
100
AcDbLine
 10
34.928511
 20
272.630765
 30
0.0
 11
34.928511
 21
270.932181
 31
0.0
  0
LINE
  5
492
330
1F
100
AcDbEntity
  8
LC-001-100-D00-0
 62
     7
370
    50
100
AcDbLine
 10
30.980329
 20
263.58716
 30
0.0
 11
30.980329
 21
265.285744
 31
0.0
  0
LINE
  5
493
330
1F
100
AcDbEntity
  8
LC-001-100-D00-0
 62
     7
370
    50
100
AcDbLine
 10
34.928511
 20
263.630761
 30
0.0
 11
34.928511
 21
261.932178
 31
0.0
  0
LINE
  5
494
330
1F
100
AcDbEntity
  8
LC-001-100-D00-0
 62
     7
370
    50
100
AcDbLine
 10
30.980329
 20
266.587152
 30
0.0
 11
30.980329
 21
268.285735
 31
0.0
  0
LINE
  5
495
330
1F
100
AcDbEntity
  8
LC-001-100-D00-0
 62
     7
370
    50
100
AcDbLine
 10
34.928511
 20
266.630767
 30
0.0
 11
34.928511
 21
264.932184
 31
0.0
  0
LINE
  5
496
330
1F
100
AcDbEntity
  8
LC-001-100-D00-0
 62
     7
370
    50
100
AcDbLine
 10
37.442963
 20
278.512402
 30
0.0
 11
37.994216
 21
278.512402
 31
0.0
  0
INSERT
  5
4AA
330
1F
100
AcDbEntity
  8
LC-001-100-D00-0
 62
     7
370
    50
100
AcDbBlockReference
  2
POLY41
 10
0.0
 20
0.0
 30
0.0
  0
LINE
  5
4AB
330
1F
100
AcDbEntity
  8
LC-001-100-D00-0
 62
     7
370
    50
100
AcDbLine
 10
38.194607
 20
278.312398
 30
0.0
 11
38.194607
 21
275.512411
 31
0.0
  0
LINE
  5
4AC
330
1F
100
AcDbEntity
  8
LC-001-100-D00-0
 62
     7
370
    50
100
AcDbLine
 10
38.194607
 20
275.512411
 30
0.0
 11
34.928511
 21
275.512411
 31
0.0
  0
LINE
  5
4AD
330
1F
100
AcDbEntity
  8
LC-001-100-D00-0
 62
     7
370
    50
100
AcDbLine
 10
34.928511
 20
275.512411
 30
0.0
 11
34.928511
 21
273.932187
 31
0.0
  0
LINE
  5
4AE
330
1F
100
AcDbEntity
  8
LC-001-100-D00-0
 62
     7
370
    50
100
AcDbLine
 10
34.928511
 20
260.63077
 30
0.0
 11
34.928511
 21
259.912817
 31
0.0
  0
INSERT
  5
4C6
330
1F
100
AcDbEntity
  8
LC-001-100-D00-0
 62
     7
370
    50
100
AcDbBlockReference
  2
POLY42
 10
0.0
 20
0.0
 30
0.0
  0
LINE
  5
4C7
330
1F
100
AcDbEntity
  8
LC-001-100-D00-0
 62
     7
370
    50
100
AcDbLine
 10
30.980329
 20
259.912817
 30
0.0
 11
30.980329
 21
262.285738
 31
0.0
  0
LINE
  5
4C8
330
1F
100
AcDbEntity
  8
LC-001-100-D00-0
 62
     7
370
    50
100
AcDbLine
 10
30.844818
 20
275.512411
 30
0.0
 11
27.714233
 21
275.512411
 31
0.0
  0
LINE
  5
4C9
330
1F
100
AcDbEntity
  8
LC-001-100-D00-0
 62
     7
370
    50
100
AcDbLine
 10
27.714233
 20
275.512411
 30
0.0
 11
27.714233
 21
278.312398
 31
0.0
  0
INSERT
  5
4DD
330
1F
100
AcDbEntity
  8
LC-001-100-D00-0
 62
     7
370
    50
100
AcDbBlockReference
  2
POLY43
 10
0.0
 20
0.0
 30
0.0
  0
LINE
  5
4DE
330
1F
100
AcDbEntity
  8
LC-001-100-D00-0
 62
     7
370
    50
100
AcDbLine
 10
27.914624
 20
278.512402
 30
0.0
 11
28.465877
 21
278.512402
 31
0.0
  0
ARC
  5
4DF
330
1F
100
AcDbEntity
  8
LC-001-100-D00-0
 62
     7
370
    50
100
AcDbCircle
 10
32.95442
 20
273.387403
 30
0.0
 40
6.812683685608934
100
AcDbArc
 50
123.39747
 51
131.212317
  0
LINE
  5
4E0
330
1F
100
AcDbEntity
  8
LC-001-100-D00-0
 62
     7
370
    50
100
AcDbLine
 10
29.204423
 20
278.012408
 30
0.0
 11
29.204423
 21
279.075129
 31
0.0
  0
LINE
  5
4E1
330
1F
100
AcDbEntity
  8
LC-001-100-D00-0
 62
     7
370
    50
100
AcDbLine
 10
29.204423
 20
278.012408
 30
0.0
 11
31.180988
 21
278.012408
 31
0.0
  0
LINE
  5
4E2
330
1F
100
AcDbEntity
  8
LC-001-100-D00-0
 62
     7
370
    50
100
AcDbLine
 10
31.180988
 20
278.012408
 30
0.0
 11
31.180988
 21
277.5124
 31
0.0
  0
LINE
  5
4E3
330
1F
100
AcDbEntity
  8
LC-001-100-D00-0
 62
     7
370
    50
100
AcDbLine
 10
31.180988
 20
277.5124
 30
0.0
 11
34.727852
 21
277.5124
 31
0.0
  0
LINE
  5
4E4
330
1F
100
AcDbEntity
  8
LC-001-100-D00-0
 62
     7
370
    50
100
AcDbLine
 10
34.727852
 20
278.012408
 30
0.0
 11
34.727852
 21
277.5124
 31
0.0
  0
LINE
  5
4E5
330
1F
100
AcDbEntity
  8
LC-001-100-D00-0
 62
     7
370
    50
100
AcDbLine
 10
34.727852
 20
278.012408
 30
0.0
 11
36.704424
 21
278.012408
 31
0.0
  0
LINE
  5
4E6
330
1F
100
AcDbEntity
  8
LC-001-100-D00-0
 62
     7
370
    50
100
AcDbLine
 10
36.704424
 20
279.075129
 30
0.0
 11
36.704424
 21
278.012408
 31
0.0
  0
ARC
  5
4E7
330
1F
100
AcDbEntity
  8
LC-001-100-D00-0
 62
     7
370
    50
100
AcDbCircle
 10
32.95442
 20
273.387403
 30
0.0
 40
6.812683685609012
100
AcDbArc
 50
48.787683
 51
56.60253
  0
LINE
  5
4E8
330
1F
100
AcDbEntity
  8
LC-001-100-D00-0
 62
     7
370
    50
100
AcDbLine
 10
34.928511
 20
259.912817
 30
0.0
 11
34.954416
 21
259.912817
 31
0.0
  0
LINE
  5
4E9
330
1F
100
AcDbEntity
  8
LC-001-100-D00-0
 62
     7
370
    50
100
AcDbLine
 10
30.954423
 20
259.912817
 30
0.0
 11
30.980329
 21
259.912817
 31
0.0
  0
LINE
  5
4EA
330
1F
100
AcDbEntity
  8
LC-001-100-D00-0
 62
     7
370
    50
100
AcDbLine
 10
36.704424
 20
279.075129
 30
0.0
 11
36.704424
 21
279.084174
 31
0.0
  0
ARC
  5
4EB
330
1F
100
AcDbEntity
  8
LC-001-100-D00-0
 62
     7
370
    50
100
AcDbCircle
 10
32.95442
 20
273.387403
 30
0.0
 40
6.801883930206429
100
AcDbArc
 50
56.54253
 51
63.818118
  0
ARC
  5
4EC
330
1F
100
AcDbEntity
  8
LC-001-100-D00-0
 62
     7
370
    50
100
AcDbCircle
 10
32.95442
 20
273.387403
 30
0.0
 40
6.801883930206511
100
AcDbArc
 50
116.181882
 51
123.45747
  0
LINE
  5
4ED
330
1F
100
AcDbEntity
  8
LC-001-100-D00-0
 62
     7
370
    50
100
AcDbLine
 10
29.204423
 20
279.084174
 30
0.0
 11
29.204423
 21
279.075129
 31
0.0
  0
LINE
  5
4EE
330
1F
100
AcDbEntity
  8
LC-001-100-D00-0
 62
     7
370
    50
100
AcDbLine
 10
37.994216
 20
278.512402
 30
0.0
 11
38.004423
 21
278.512402
 31
0.0
  0
LINE
  5
4EF
330
1F
100
AcDbEntity
  8
LC-001-100-D00-0
 62
     7
370
    50
100
AcDbLine
 10
27.904424
 20
278.512402
 30
0.0
 11
27.914624
 21
278.512402
 31
0.0
  0
LINE
  5
4F0
330
1F
100
AcDbEntity
  8
LC-001-100-D00-0
 62
     7
370
    50
100
AcDbLine
 10
35.865071
 20
279.512404
 30
0.0
 11
34.727852
 21
279.512404
 31
0.0
  0
INSERT
  5
4FC
330
1F
100
AcDbEntity
  8
LC-001-100-D00-0
 62
     7
370
    50
100
AcDbBlockReference
  2
POLY44
 10
0.0
 20
0.0
 30
0.0
  0
LINE
  5
4FD
330
1F
100
AcDbEntity
  8
LC-001-100-D00-0
 62
     7
370
    50
100
AcDbLine
 10
34.727852
 20
279.512404
 30
0.0
 11
34.727852
 21
278.012408
 31
0.0
  0
INSERT
  5
509
330
1F
100
AcDbEntity
  8
LC-001-100-D00-0
 62
     7
370
    50
100
AcDbBlockReference
  2
POLY45
 10
0.0
 20
0.0
 30
0.0
  0
LINE
  5
50A
330
1F
100
AcDbEntity
  8
LC-001-100-D00-0
 62
     7
370
    50
100
AcDbLine
 10
31.180988
 20
279.512404
 30
0.0
 11
30.043769
 21
279.512404
 31
0.0
  0
LINE
  5
50B
330
1F
100
AcDbEntity
  8
LC-001-100-D00-0
 62
     7
370
    50
100
AcDbLine
 10
31.180988
 20
279.512404
 30
0.0
 11
31.180988
 21
278.012408
 31
0.0
  0
LINE
  5
50C
330
1F
100
AcDbEntity
  8
LC-001-100-D00-0
 62
     7
370
    50
100
AcDbLine
 10
32.284873
 20
279.512404
 30
0.0
 11
33.623966
 21
279.512404
 31
0.0
  0
LINE
  5
50D
330
1F
100
AcDbEntity
  8
LC-001-100-D00-0
 62
     7
370
    50
100
AcDbLine
 10
33.927086
 20
279.512404
 30
0.0
 11
33.623966
 21
279.512404
 31
0.0
  0
LINE
  5
50E
330
1F
100
AcDbEntity
  8
LC-001-100-D00-0
 62
     7
370
    50
100
AcDbLine
 10
31.981761
 20
279.512404
 30
0.0
 11
32.284873
 21
279.512404
 31
0.0
  0
LINE
  5
50F
330
1F
100
AcDbEntity
  8
LC-001-100-D00-0
 62
     7
370
    50
100
AcDbLine
 10
33.927086
 20
279.512404
 30
0.0
 11
34.727852
 21
279.512404
 31
0.0
  0
LINE
  5
510
330
1F
100
AcDbEntity
  8
LC-001-100-D00-0
 62
     7
370
    50
100
AcDbLine
 10
31.981761
 20
279.512404
 30
0.0
 11
31.180988
 21
279.512404
 31
0.0
  0
ARC
  5
511
330
1F
100
AcDbEntity
  8
LC-001-100-D00-0
 62
     7
370
    50
100
AcDbCircle
 10
156.453676
 20
79.672734
 30
0.0
 40
0.500000000000575
100
AcDbArc
 50
279.999919
 51
90.000035
  0
ARC
  5
512
330
1F
100
AcDbEntity
  8
LC-001-100-D00-0
 62
     7
370
    50
100
AcDbCircle
 10
49.453693
 20
79.672734
 30
0.0
 40
0.5000000000005767
100
AcDbArc
 50
89.999965
 51
260.000081
  0
ARC
  5
513
330
1F
100
AcDbEntity
  8
LC-001-100-D00-0
 62
     7
370
    50
100
AcDbCircle
 10
156.453676
 20
178.31406
 30
0.0
 40
0.5000000000012467
100
AcDbArc
 50
279.999919
 51
312.637034
  0
ARC
  5
514
330
1F
100
AcDbEntity
  8
LC-001-100-D00-0
 62
     7
370
    50
100
AcDbCircle
 10
156.453676
 20
178.31406
 30
0.0
 40
0.5000000000012338
100
AcDbArc
 50
47.362966
 51
90.000035
  0
ARC
  5
515
330
1F
100
AcDbEntity
  8
LC-001-100-D00-0
 62
     7
370
    50
100
AcDbCircle
 10
49.453693
 20
178.31406
 30
0.0
 40
0.5000000000012304
100
AcDbArc
 50
89.999965
 51
260.000081
  0
ARC
  5
516
330
1F
100
AcDbEntity
  8
LC-001-100-D00-0
 62
     7
370
    50
100
AcDbCircle
 10
156.453676
 20
104.333066
 30
0.0
 40
0.500000000000575
100
AcDbArc
 50
279.999919
 51
90.000035
  0
ARC
  5
517
330
1F
100
AcDbEntity
  8
LC-001-100-D00-0
 62
     7
370
    50
100
AcDbCircle
 10
49.453693
 20
104.333066
 30
0.0
 40
0.5000000000005482
100
AcDbArc
 50
89.999965
 51
260.000081
  0
ARC
  5
518
330
1F
100
AcDbEntity
  8
LC-001-100-D00-0
 62
     7
370
    50
100
AcDbCircle
 10
156.453676
 20
215.304557
 30
0.0
 40
0.5000000000012747
100
AcDbArc
 50
279.999919
 51
90.000035
  0
ARC
  5
519
330
1F
100
AcDbEntity
  8
LC-001-100-D00-0
 62
     7
370
    50
100
AcDbCircle
 10
49.453693
 20
215.304557
 30
0.0
 40
0.5000000000012872
100
AcDbArc
 50
89.999965
 51
260.000081
  0
ARC
  5
51A
330
1F
100
AcDbEntity
  8
LC-001-100-D00-0
 62
     7
370
    50
100
AcDbCircle
 10
156.453676
 20
202.974391
 30
0.0
 40
0.5000000000012187
100
AcDbArc
 50
279.999919
 51
90.000035
  0
ARC
  5
51B
330
1F
100
AcDbEntity
  8
LC-001-100-D00-0
 62
     7
370
    50
100
AcDbCircle
 10
49.453693
 20
202.974391
 30
0.0
 40
0.5000000000012304
100
AcDbArc
 50
89.999965
 51
260.000081
  0
ARC
  5
51C
330
1F
100
AcDbEntity
  8
LC-001-100-D00-0
 62
     7
370
    50
100
AcDbCircle
 10
156.453676
 20
239.964888
 30
0.0
 40
0.5000000000012187
100
AcDbArc
 50
279.999919
 51
90.000035
  0
ARC
  5
51D
330
1F
100
AcDbEntity
  8
LC-001-100-D00-0
 62
     7
370
    50
100
AcDbCircle
 10
49.453693
 20
239.964888
 30
0.0
 40
0.5000000000012304
100
AcDbArc
 50
89.999965
 51
260.000081
  0
ARC
  5
51E
330
1F
100
AcDbEntity
  8
LC-001-100-D00-0
 62
     7
370
    50
100
AcDbCircle
 10
156.453676
 20
128.993397
 30
0.0
 40
0.5000000000005552
100
AcDbArc
 50
279.999919
 51
312.637034
  0
ARC
  5
51F
330
1F
100
AcDbEntity
  8
LC-001-100-D00-0
 62
     7
370
    50
100
AcDbCircle
 10
156.453676
 20
128.993397
 30
0.0
 40
0.5000000000005618
100
AcDbArc
 50
47.362966
 51
90.000035
  0
ARC
  5
520
330
1F
100
AcDbEntity
  8
LC-001-100-D00-0
 62
     7
370
    50
100
AcDbCircle
 10
49.453693
 20
128.993397
 30
0.0
 40
0.5000000000005482
100
AcDbArc
 50
89.999965
 51
260.000081
  0
ARC
  5
521
330
1F
100
AcDbEntity
  8
LC-001-100-D00-0
 62
     7
370
    50
100
AcDbCircle
 10
156.453676
 20
227.634722
 30
0.0
 40
0.5000000000012187
100
AcDbArc
 50
279.999919
 51
90.000035
  0
ARC
  5
522
330
1F
100
AcDbEntity
  8
LC-001-100-D00-0
 62
     7
370
    50
100
AcDbCircle
 10
49.453693
 20
227.634722
 30
0.0
 40
0.5000000000012304
100
AcDbArc
 50
89.999965
 51
260.000081
  0
ARC
  5
523
330
1F
100
AcDbEntity
  8
LC-001-100-D00-0
 62
     7
370
    50
100
AcDbCircle
 10
156.453676
 20
190.644225
 30
0.0
 40
0.5000000000012467
100
AcDbArc
 50
279.999919
 51
312.637034
  0
ARC
  5
524
330
1F
100
AcDbEntity
  8
LC-001-100-D00-0
 62
     7
370
    50
100
AcDbCircle
 10
156.453676
 20
190.644225
 30
0.0
 40
0.5000000000012531
100
AcDbArc
 50
47.362966
 51
90.000035
  0
ARC
  5
525
330
1F
100
AcDbEntity
  8
LC-001-100-D00-0
 62
     7
370
    50
100
AcDbCircle
 10
49.453693
 20
190.644225
 30
0.0
 40
0.5000000000012588
100
AcDbArc
 50
89.999965
 51
260.000081
  0
ARC
  5
526
330
1F
100
AcDbEntity
  8
LC-001-100-D00-0
 62
     7
370
    50
100
AcDbCircle
 10
156.453676
 20
153.653728
 30
0.0
 40
0.5000000000006392
100
AcDbArc
 50
279.999919
 51
312.637034
  0
ARC
  5
527
330
1F
100
AcDbEntity
  8
LC-001-100-D00-0
 62
     7
370
    50
100
AcDbCircle
 10
156.453676
 20
153.653728
 30
0.0
 40
0.5000000000006467
100
AcDbArc
 50
47.362966
 51
90.000035
  0
ARC
  5
528
330
1F
100
AcDbEntity
  8
LC-001-100-D00-0
 62
     7
370
    50
100
AcDbCircle
 10
49.453693
 20
153.653728
 30
0.0
 40
0.5000000000006335
100
AcDbArc
 50
89.999965
 51
260.000081
  0
ARC
  5
529
330
1F
100
AcDbEntity
  8
LC-001-100-D00-0
 62
     7
370
    50
100
AcDbCircle
 10
156.453676
 20
141.323563
 30
0.0
 40
0.5000000000006392
100
AcDbArc
 50
279.999919
 51
312.637034
  0
ARC
  5
52A
330
1F
100
AcDbEntity
  8
LC-001-100-D00-0
 62
     7
370
    50
100
AcDbCircle
 10
156.453676
 20
141.323563
 30
0.0
 40
0.5000000000006384
100
AcDbArc
 50
47.362966
 51
90.000035
  0
ARC
  5
52B
330
1F
100
AcDbEntity
  8
LC-001-100-D00-0
 62
     7
370
    50
100
AcDbCircle
 10
49.453693
 20
141.323563
 30
0.0
 40
0.5000000000006335
100
AcDbArc
 50
89.999965
 51
260.000081
  0
ARC
  5
52C
330
1F
100
AcDbEntity
  8
LC-001-100-D00-0
 62
     7
370
    50
100
AcDbCircle
 10
156.453676
 20
165.983894
 30
0.0
 40
0.5000000000006112
100
AcDbArc
 50
279.999919
 51
312.637034
  0
ARC
  5
52D
330
1F
100
AcDbEntity
  8
LC-001-100-D00-0
 62
     7
370
    50
100
AcDbCircle
 10
156.453676
 20
165.983894
 30
0.0
 40
0.5000000000006082
100
AcDbArc
 50
47.362966
 51
90.000035
  0
ARC
  5
52E
330
1F
100
AcDbEntity
  8
LC-001-100-D00-0
 62
     7
370
    50
100
AcDbCircle
 10
49.453693
 20
165.983894
 30
0.0
 40
0.5000000000006051
100
AcDbArc
 50
89.999965
 51
260.000081
  0
ARC
  5
52F
330
1F
100
AcDbEntity
  8
LC-001-100-D00-0
 62
     7
370
    50
100
AcDbCircle
 10
156.453676
 20
116.663231
 30
0.0
 40
0.5000000000007032
100
AcDbArc
 50
279.999919
 51
6.280322
  0
ARC
  5
530
330
1F
100
AcDbEntity
  8
LC-001-100-D00-0
 62
     7
370
    50
100
AcDbCircle
 10
156.453676
 20
116.663231
 30
0.0
 40
0.5000000000007134
100
AcDbArc
 50
47.362966
 51
90.000035
  0
ARC
  5
531
330
1F
100
AcDbEntity
  8
LC-001-100-D00-0
 62
     7
370
    50
100
AcDbCircle
 10
49.453693
 20
116.663231
 30
0.0
 40
0.5000000000006903
100
AcDbArc
 50
89.999965
 51
260.000081
  0
ARC
  5
532
330
1F
100
AcDbEntity
  8
LC-001-100-D00-0
 62
     7
370
    50
100
AcDbCircle
 10
156.453676
 20
67.342569
 30
0.0
 40
0.5000000000014185
100
AcDbArc
 50
279.999919
 51
90.00007
  0
ARC
  5
533
330
1F
100
AcDbEntity
  8
LC-001-100-D00-0
 62
     7
370
    50
100
AcDbCircle
 10
49.453693
 20
67.342569
 30
0.0
 40
0.5000000000014113
100
AcDbArc
 50
89.99993
 51
260.000081
  0
ARC
  5
534
330
1F
100
AcDbEntity
  8
LC-001-100-D00-0
 62
     7
370
    50
100
AcDbCircle
 10
156.453676
 20
92.0029
 30
0.0
 40
0.5000000000007032
100
AcDbArc
 50
279.999919
 51
90.000035
  0
ARC
  5
535
330
1F
100
AcDbEntity
  8
LC-001-100-D00-0
 62
     7
370
    50
100
AcDbCircle
 10
49.453693
 20
92.0029
 30
0.0
 40
0.5000000000006903
100
AcDbArc
 50
89.999965
 51
260.000081
  0
LINE
  5
536
330
1F
100
AcDbEntity
  8
LC-001-100-D00-0
 62
     7
370
    50
100
AcDbLine
 10
49.366872
 20
202.481984
 30
0.0
 11
56.127342
 21
201.289935
 31
0.0
  0
LINE
  5
537
330
1F
100
AcDbEntity
  8
LC-001-100-D00-0
 62
     7
370
    50
100
AcDbLine
 10
149.780027
 20
201.289935
 30
0.0
 11
156.540499
 21
202.481984
 31
0.0
  0
LINE
  5
538
330
1F
100
AcDbEntity
  8
LC-001-100-D00-0
 62
     7
370
    50
100
AcDbLine
 10
49.366872
 20
66.850165
 30
0.0
 11
56.127342
 21
65.658113
 31
0.0
  0
LINE
  5
539
330
1F
100
AcDbEntity
  8
LC-001-100-D00-0
 62
     7
370
    50
100
AcDbLine
 10
149.780028
 20
65.658113
 30
0.0
 11
156.540499
 21
66.850165
 31
0.0
  0
LINE
  5
53A
330
1F
100
AcDbEntity
  8
LC-001-100-D00-0
 62
     7
370
    50
100
AcDbLine
 10
49.366872
 20
177.821657
 30
0.0
 11
56.127342
 21
176.629601
 31
0.0
  0
LINE
  5
53B
330
1F
100
AcDbEntity
  8
LC-001-100-D00-0
 62
     7
370
    50
100
AcDbLine
 10
149.780028
 20
176.629601
 30
0.0
 11
156.540499
 21
177.821657
 31
0.0
  0
LINE
  5
53C
330
1F
100
AcDbEntity
  8
LC-001-100-D00-0
 62
     7
370
    50
100
AcDbLine
 10
49.366872
 20
227.142318
 30
0.0
 11
56.127342
 21
225.950262
 31
0.0
  0
LINE
  5
53D
330
1F
100
AcDbEntity
  8
LC-001-100-D00-0
 62
     7
370
    50
100
AcDbLine
 10
149.780027
 20
225.950262
 30
0.0
 11
156.540499
 21
227.142318
 31
0.0
  0
LINE
  5
53E
330
1F
100
AcDbEntity
  8
LC-001-100-D00-0
 62
     7
370
    50
100
AcDbLine
 10
49.366872
 20
214.812151
 30
0.0
 11
56.127342
 21
213.620102
 31
0.0
  0
LINE
  5
53F
330
1F
100
AcDbEntity
  8
LC-001-100-D00-0
 62
     7
370
    50
100
AcDbLine
 10
149.780027
 20
213.620102
 30
0.0
 11
156.540499
 21
214.812151
 31
0.0
  0
LINE
  5
540
330
1F
100
AcDbEntity
  8
LC-001-100-D00-0
 62
     7
370
    50
100
AcDbLine
 10
49.366872
 20
190.15182
 30
0.0
 11
56.127342
 21
188.959768
 31
0.0
  0
LINE
  5
541
330
1F
100
AcDbEntity
  8
LC-001-100-D00-0
 62
     7
370
    50
100
AcDbLine
 10
149.780027
 20
188.959768
 30
0.0
 11
156.540499
 21
190.15182
 31
0.0
  0
LINE
  5
542
330
1F
100
AcDbEntity
  8
LC-001-100-D00-0
 62
     7
370
    50
100
AcDbLine
 10
49.366872
 20
103.840663
 30
0.0
 11
56.127342
 21
102.648609
 31
0.0
  0
LINE
  5
543
330
1F
100
AcDbEntity
  8
LC-001-100-D00-0
 62
     7
370
    50
100
AcDbLine
 10
149.780028
 20
102.648609
 30
0.0
 11
156.540499
 21
103.840663
 31
0.0
  0
LINE
  5
544
330
1F
100
AcDbEntity
  8
LC-001-100-D00-0
 62
     7
370
    50
100
AcDbLine
 10
49.366872
 20
140.831159
 30
0.0
 11
56.127342
 21
139.639105
 31
0.0
  0
LINE
  5
545
330
1F
100
AcDbEntity
  8
LC-001-100-D00-0
 62
     7
370
    50
100
AcDbLine
 10
149.780028
 20
139.639105
 30
0.0
 11
156.540499
 21
140.831159
 31
0.0
  0
LINE
  5
546
330
1F
100
AcDbEntity
  8
LC-001-100-D00-0
 62
     7
370
    50
100
AcDbLine
 10
49.366872
 20
79.180329
 30
0.0
 11
56.127342
 21
77.988277
 31
0.0
  0
LINE
  5
547
330
1F
100
AcDbEntity
  8
LC-001-100-D00-0
 62
     7
370
    50
100
AcDbLine
 10
149.780028
 20
77.988277
 30
0.0
 11
156.540499
 21
79.180329
 31
0.0
  0
LINE
  5
548
330
1F
100
AcDbEntity
  8
LC-001-100-D00-0
 62
     7
370
    50
100
AcDbLine
 10
49.366872
 20
91.510496
 30
0.0
 11
56.127342
 21
90.318444
 31
0.0
  0
LINE
  5
549
330
1F
100
AcDbEntity
  8
LC-001-100-D00-0
 62
     7
370
    50
100
AcDbLine
 10
149.780028
 20
90.318444
 30
0.0
 11
156.540499
 21
91.510496
 31
0.0
  0
LINE
  5
54A
330
1F
100
AcDbEntity
  8
LC-001-100-D00-0
 62
     7
370
    50
100
AcDbLine
 10
49.366872
 20
116.170828
 30
0.0
 11
56.127342
 21
114.978774
 31
0.0
  0
LINE
  5
54B
330
1F
100
AcDbEntity
  8
LC-001-100-D00-0
 62
     7
370
    50
100
AcDbLine
 10
149.780028
 20
114.978774
 30
0.0
 11
156.540499
 21
116.170828
 31
0.0
  0
LINE
  5
54C
330
1F
100
AcDbEntity
  8
LC-001-100-D00-0
 62
     7
370
    50
100
AcDbLine
 10
49.366872
 20
153.161325
 30
0.0
 11
56.127342
 21
151.969271
 31
0.0
  0
LINE
  5
54D
330
1F
100
AcDbEntity
  8
LC-001-100-D00-0
 62
     7
370
    50
100
AcDbLine
 10
149.780028
 20
151.969271
 30
0.0
 11
156.540499
 21
153.161325
 31
0.0
  0
LINE
  5
54E
330
1F
100
AcDbEntity
  8
LC-001-100-D00-0
 62
     7
370
    50
100
AcDbLine
 10
49.366872
 20
128.500993
 30
0.0
 11
56.127342
 21
127.308939
 31
0.0
  0
LINE
  5
54F
330
1F
100
AcDbEntity
  8
LC-001-100-D00-0
 62
     7
370
    50
100
AcDbLine
 10
149.780028
 20
127.308939
 30
0.0
 11
156.540499
 21
128.500993
 31
0.0
  0
LINE
  5
550
330
1F
100
AcDbEntity
  8
LC-001-100-D00-0
 62
     7
370
    50
100
AcDbLine
 10
49.366872
 20
239.472485
 30
0.0
 11
56.127342
 21
238.280429
 31
0.0
  0
LINE
  5
551
330
1F
100
AcDbEntity
  8
LC-001-100-D00-0
 62
     7
370
    50
100
AcDbLine
 10
149.780027
 20
238.280429
 30
0.0
 11
156.540499
 21
239.472485
 31
0.0
  0
LINE
  5
552
330
1F
100
AcDbEntity
  8
LC-001-100-D00-0
 62
     7
370
    50
100
AcDbLine
 10
49.366872
 20
165.49149
 30
0.0
 11
56.127342
 21
164.299438
 31
0.0
  0
LINE
  5
553
330
1F
100
AcDbEntity
  8
LC-001-100-D00-0
 62
     7
370
    50
100
AcDbLine
 10
149.780028
 20
164.299438
 30
0.0
 11
156.540499
 21
165.49149
 31
0.0
  0
ARC
  5
554
330
1F
100
AcDbEntity
  8
LC-001-100-D00-0
 62
     7
370
    50
100
AcDbCircle
 10
149.953676
 20
150.984464
 30
0.0
 40
1.000000000000031
100
AcDbArc
 50
99.99999
 51
180.000012
  0
ARC
  5
555
330
1F
100
AcDbEntity
  8
LC-001-100-D00-0
 62
     7
370
    50
100
AcDbCircle
 10
55.953694
 20
150.984464
 30
0.0
 40
1.000000000000023
100
AcDbArc
 50
359.999988
 51
80.00001
  0
ARC
  5
556
330
1F
100
AcDbEntity
  8
LC-001-100-D00-0
 62
     7
370
    50
100
AcDbCircle
 10
149.953676
 20
175.644795
 30
0.0
 40
1.000000000000031
100
AcDbArc
 50
99.99999
 51
180.000012
  0
ARC
  5
557
330
1F
100
AcDbEntity
  8
LC-001-100-D00-0
 62
     7
370
    50
100
AcDbCircle
 10
55.953694
 20
175.644795
 30
0.0
 40
1.000000000000023
100
AcDbArc
 50
359.999988
 51
80.00001
  0
ARC
  5
558
330
1F
100
AcDbEntity
  8
LC-001-100-D00-0
 62
     7
370
    50
100
AcDbCircle
 10
149.953676
 20
101.663801
 30
0.0
 40
1.000000000000031
100
AcDbArc
 50
99.99999
 51
180.000012
  0
ARC
  5
559
330
1F
100
AcDbEntity
  8
LC-001-100-D00-0
 62
     7
370
    50
100
AcDbCircle
 10
55.953694
 20
101.663801
 30
0.0
 40
1.000000000000023
100
AcDbArc
 50
359.999988
 51
80.00001
  0
ARC
  5
55A
330
1F
100
AcDbEntity
  8
LC-001-100-D00-0
 62
     7
370
    50
100
AcDbCircle
 10
149.953676
 20
77.00347
 30
0.0
 40
1.000000000000031
100
AcDbArc
 50
99.99999
 51
180.000012
  0
ARC
  5
55B
330
1F
100
AcDbEntity
  8
LC-001-100-D00-0
 62
     7
370
    50
100
AcDbCircle
 10
55.953694
 20
77.00347
 30
0.0
 40
1.000000000000023
100
AcDbArc
 50
359.999988
 51
80.00001
  0
ARC
  5
55C
330
1F
100
AcDbEntity
  8
LC-001-100-D00-0
 62
     7
370
    50
100
AcDbCircle
 10
149.953676
 20
138.654298
 30
0.0
 40
1.000000000000031
100
AcDbArc
 50
99.99999
 51
180.000012
  0
ARC
  5
55D
330
1F
100
AcDbEntity
  8
LC-001-100-D00-0
 62
     7
370
    50
100
AcDbCircle
 10
55.953694
 20
138.654298
 30
0.0
 40
1.000000000000023
100
AcDbArc
 50
359.999988
 51
80.00001
  0
ARC
  5
55E
330
1F
100
AcDbEntity
  8
LC-001-100-D00-0
 62
     7
370
    50
100
AcDbCircle
 10
149.953676
 20
113.993967
 30
0.0
 40
1.000000000000031
100
AcDbArc
 50
99.99999
 51
180.000012
  0
ARC
  5
55F
330
1F
100
AcDbEntity
  8
LC-001-100-D00-0
 62
     7
370
    50
100
AcDbCircle
 10
55.953694
 20
113.993967
 30
0.0
 40
1.000000000000023
100
AcDbArc
 50
359.999988
 51
80.00001
  0
ARC
  5
560
330
1F
100
AcDbEntity
  8
LC-001-100-D00-0
 62
     7
370
    50
100
AcDbCircle
 10
149.953676
 20
64.673304
 30
0.0
 40
1.000000000000017
100
AcDbArc
 50
99.99999
 51
180.000012
  0
ARC
  5
561
330
1F
100
AcDbEntity
  8
LC-001-100-D00-0
 62
     7
370
    50
100
AcDbCircle
 10
55.953694
 20
64.673304
 30
0.0
 40
1.000000000000023
100
AcDbArc
 50
359.999988
 51
80.00001
  0
ARC
  5
562
330
1F
100
AcDbEntity
  8
LC-001-100-D00-0
 62
     7
370
    50
100
AcDbCircle
 10
149.953676
 20
163.314629
 30
0.0
 40
1.000000000000031
100
AcDbArc
 50
99.99999
 51
179.999955
  0
ARC
  5
563
330
1F
100
AcDbEntity
  8
LC-001-100-D00-0
 62
     7
370
    50
100
AcDbCircle
 10
55.953694
 20
163.314629
 30
0.0
 40
1.000000000000023
100
AcDbArc
 50
0.000045
 51
80.00001
  0
ARC
  5
564
330
1F
100
AcDbEntity
  8
LC-001-100-D00-0
 62
     7
370
    50
100
AcDbCircle
 10
149.953676
 20
126.324132
 30
0.0
 40
1.000000000000031
100
AcDbArc
 50
99.99999
 51
179.999955
  0
ARC
  5
565
330
1F
100
AcDbEntity
  8
LC-001-100-D00-0
 62
     7
370
    50
100
AcDbCircle
 10
55.953694
 20
126.324132
 30
0.0
 40
1.000000000000023
100
AcDbArc
 50
0.000045
 51
80.00001
  0
ARC
  5
566
330
1F
100
AcDbEntity
  8
LC-001-100-D00-0
 62
     7
370
    50
100
AcDbCircle
 10
149.953676
 20
89.333635
 30
0.0
 40
1.000000000000031
100
AcDbArc
 50
99.99999
 51
179.999955
  0
ARC
  5
567
330
1F
100
AcDbEntity
  8
LC-001-100-D00-0
 62
     7
370
    50
100
AcDbCircle
 10
55.953694
 20
89.333635
 30
0.0
 40
0.9999999999999665
100
AcDbArc
 50
0.000045
 51
80.00001
  0
ARC
  5
568
330
1F
100
AcDbEntity
  8
LC-001-100-D00-0
 62
     7
370
    50
100
AcDbCircle
 10
149.953676
 20
212.635291
 30
0.0
 40
1.000000000000059
100
AcDbArc
 50
100.0
 51
180.0
  0
ARC
  5
569
330
1F
100
AcDbEntity
  8
LC-001-100-D00-0
 62
     7
370
    50
100
AcDbCircle
 10
55.953694
 20
212.635291
 30
0.0
 40
1.000000000000057
100
AcDbArc
 50
0.0
 51
80.0
  0
ARC
  5
56A
330
1F
100
AcDbEntity
  8
LC-001-100-D00-0
 62
     7
370
    50
100
AcDbCircle
 10
149.953676
 20
224.965457
 30
0.0
 40
0.9999999999999931
100
AcDbArc
 50
100.0
 51
180.0
  0
ARC
  5
56B
330
1F
100
AcDbEntity
  8
LC-001-100-D00-0
 62
     7
370
    50
100
AcDbCircle
 10
55.953694
 20
224.965457
 30
0.0
 40
1.0
100
AcDbArc
 50
0.0
 51
80.0
  0
ARC
  5
56C
330
1F
100
AcDbEntity
  8
LC-001-100-D00-0
 62
     7
370
    50
100
AcDbCircle
 10
149.953676
 20
187.97496
 30
0.0
 40
0.9999999999999931
100
AcDbArc
 50
100.0
 51
180.0
  0
ARC
  5
56D
330
1F
100
AcDbEntity
  8
LC-001-100-D00-0
 62
     7
370
    50
100
AcDbCircle
 10
55.953694
 20
187.97496
 30
0.0
 40
0.9999999999999432
100
AcDbArc
 50
0.0
 51
80.0
  0
ARC
  5
56E
330
1F
100
AcDbEntity
  8
LC-001-100-D00-0
 62
     7
370
    50
100
AcDbCircle
 10
149.953676
 20
200.305126
 30
0.0
 40
0.9999999999999931
100
AcDbArc
 50
100.0
 51
180.0
  0
ARC
  5
56F
330
1F
100
AcDbEntity
  8
LC-001-100-D00-0
 62
     7
370
    50
100
AcDbCircle
 10
55.953694
 20
200.305126
 30
0.0
 40
1.0
100
AcDbArc
 50
0.0
 51
80.0
  0
ARC
  5
570
330
1F
100
AcDbEntity
  8
LC-001-100-D00-0
 62
     7
370
    50
100
AcDbCircle
 10
149.953676
 20
237.295623
 30
0.0
 40
0.9999999999999931
100
AcDbArc
 50
100.0
 51
180.0
  0
ARC
  5
571
330
1F
100
AcDbEntity
  8
LC-001-100-D00-0
 62
     7
370
    50
100
AcDbCircle
 10
55.953694
 20
237.295623
 30
0.0
 40
1.0
100
AcDbArc
 50
0.0
 51
80.0
  0
ARC
  5
572
330
1F
100
AcDbEntity
  8
LC-001-100-D00-0
 62
     7
370
    50
100
AcDbCircle
 10
149.453676
 20
93.0029
 30
0.0
 40
0.5
100
AcDbArc
 50
180.0
 51
270.0
  0
ARC
  5
573
330
1F
100
AcDbEntity
  8
LC-001-100-D00-0
 62
     7
370
    50
100
AcDbCircle
 10
56.453694
 20
93.0029
 30
0.0
 40
0.5
100
AcDbArc
 50
270.0
 51
0.0
  0
ARC
  5
574
330
1F
100
AcDbEntity
  8
LC-001-100-D00-0
 62
     7
370
    50
100
AcDbCircle
 10
149.453676
 20
179.31406
 30
0.0
 40
0.5
100
AcDbArc
 50
180.0
 51
270.0
  0
ARC
  5
575
330
1F
100
AcDbEntity
  8
LC-001-100-D00-0
 62
     7
370
    50
100
AcDbCircle
 10
56.453694
 20
179.31406
 30
0.0
 40
0.5
100
AcDbArc
 50
270.0
 51
0.0
  0
ARC
  5
576
330
1F
100
AcDbEntity
  8
LC-001-100-D00-0
 62
     7
370
    50
100
AcDbCircle
 10
149.453676
 20
129.993397
 30
0.0
 40
0.5
100
AcDbArc
 50
180.0
 51
270.0
  0
ARC
  5
577
330
1F
100
AcDbEntity
  8
LC-001-100-D00-0
 62
     7
370
    50
100
AcDbCircle
 10
56.453694
 20
129.993397
 30
0.0
 40
0.5
100
AcDbArc
 50
270.0
 51
0.0
  0
ARC
  5
578
330
1F
100
AcDbEntity
  8
LC-001-100-D00-0
 62
     7
370
    50
100
AcDbCircle
 10
149.453676
 20
80.672734
 30
0.0
 40
0.5
100
AcDbArc
 50
180.0
 51
270.0
  0
ARC
  5
579
330
1F
100
AcDbEntity
  8
LC-001-100-D00-0
 62
     7
370
    50
100
AcDbCircle
 10
56.453694
 20
80.672734
 30
0.0
 40
0.5
100
AcDbArc
 50
270.0
 51
0.0
  0
ARC
  5
57A
330
1F
100
AcDbEntity
  8
LC-001-100-D00-0
 62
     7
370
    50
100
AcDbCircle
 10
149.453676
 20
68.342569
 30
0.0
 40
0.5
100
AcDbArc
 50
180.0
 51
270.0
  0
ARC
  5
57B
330
1F
100
AcDbEntity
  8
LC-001-100-D00-0
 62
     7
370
    50
100
AcDbCircle
 10
56.453694
 20
68.342569
 30
0.0
 40
0.5
100
AcDbArc
 50
270.0
 51
0.0
  0
ARC
  5
57C
330
1F
100
AcDbEntity
  8
LC-001-100-D00-0
 62
     7
370
    50
100
AcDbCircle
 10
149.453676
 20
117.663231
 30
0.0
 40
0.5
100
AcDbArc
 50
180.0
 51
270.0
  0
ARC
  5
57D
330
1F
100
AcDbEntity
  8
LC-001-100-D00-0
 62
     7
370
    50
100
AcDbCircle
 10
56.453694
 20
117.663231
 30
0.0
 40
0.5
100
AcDbArc
 50
270.0
 51
0.0
  0
ARC
  5
57E
330
1F
100
AcDbEntity
  8
LC-001-100-D00-0
 62
     7
370
    50
100
AcDbCircle
 10
149.453676
 20
154.653728
 30
0.0
 40
0.5
100
AcDbArc
 50
180.0
 51
270.0
  0
ARC
  5
57F
330
1F
100
AcDbEntity
  8
LC-001-100-D00-0
 62
     7
370
    50
100
AcDbCircle
 10
56.453694
 20
154.653728
 30
0.0
 40
0.5
100
AcDbArc
 50
270.0
 51
0.0
  0
ARC
  5
580
330
1F
100
AcDbEntity
  8
LC-001-100-D00-0
 62
     7
370
    50
100
AcDbCircle
 10
149.453676
 20
166.983894
 30
0.0
 40
0.5
100
AcDbArc
 50
180.0
 51
270.0
  0
ARC
  5
581
330
1F
100
AcDbEntity
  8
LC-001-100-D00-0
 62
     7
370
    50
100
AcDbCircle
 10
56.453694
 20
166.983894
 30
0.0
 40
0.5
100
AcDbArc
 50
270.0
 51
0.0
  0
ARC
  5
582
330
1F
100
AcDbEntity
  8
LC-001-100-D00-0
 62
     7
370
    50
100
AcDbCircle
 10
149.453676
 20
105.333066
 30
0.0
 40
0.5
100
AcDbArc
 50
180.0
 51
270.0
  0
ARC
  5
583
330
1F
100
AcDbEntity
  8
LC-001-100-D00-0
 62
     7
370
    50
100
AcDbCircle
 10
56.453694
 20
105.333066
 30
0.0
 40
0.5
100
AcDbArc
 50
270.0
 51
0.0
  0
ARC
  5
584
330
1F
100
AcDbEntity
  8
LC-001-100-D00-0
 62
     7
370
    50
100
AcDbCircle
 10
149.453676
 20
142.323563
 30
0.0
 40
0.5
100
AcDbArc
 50
180.0
 51
270.0
  0
ARC
  5
585
330
1F
100
AcDbEntity
  8
LC-001-100-D00-0
 62
     7
370
    50
100
AcDbCircle
 10
56.453694
 20
142.323563
 30
0.0
 40
0.5
100
AcDbArc
 50
270.0
 51
0.0
  0
ARC
  5
586
330
1F
100
AcDbEntity
  8
LC-001-100-D00-0
 62
     7
370
    50
100
AcDbCircle
 10
149.453676
 20
191.644225
 30
0.0
 40
0.5000000000000568
100
AcDbArc
 50
180.0
 51
270.0
  0
ARC
  5
587
330
1F
100
AcDbEntity
  8
LC-001-100-D00-0
 62
     7
370
    50
100
AcDbCircle
 10
56.453694
 20
191.644225
 30
0.0
 40
0.5000000000000568
100
AcDbArc
 50
270.0
 51
0.0
  0
ARC
  5
588
330
1F
100
AcDbEntity
  8
LC-001-100-D00-0
 62
     7
370
    50
100
AcDbCircle
 10
149.453676
 20
216.304557
 30
0.0
 40
0.5
100
AcDbArc
 50
180.0
 51
270.0
  0
ARC
  5
589
330
1F
100
AcDbEntity
  8
LC-001-100-D00-0
 62
     7
370
    50
100
AcDbCircle
 10
56.453694
 20
216.304557
 30
0.0
 40
0.5
100
AcDbArc
 50
270.0
 51
0.0
  0
ARC
  5
58A
330
1F
100
AcDbEntity
  8
LC-001-100-D00-0
 62
     7
370
    50
100
AcDbCircle
 10
149.453676
 20
228.634722
 30
0.0
 40
0.5
100
AcDbArc
 50
180.0
 51
270.0
  0
ARC
  5
58B
330
1F
100
AcDbEntity
  8
LC-001-100-D00-0
 62
     7
370
    50
100
AcDbCircle
 10
56.453694
 20
228.634722
 30
0.0
 40
0.5000000000000568
100
AcDbArc
 50
270.0
 51
0.0
  0
ARC
  5
58C
330
1F
100
AcDbEntity
  8
LC-001-100-D00-0
 62
     7
370
    50
100
AcDbCircle
 10
149.453676
 20
203.974391
 30
0.0
 40
0.5000000000000568
100
AcDbArc
 50
180.0
 51
270.0
  0
ARC
  5
58D
330
1F
100
AcDbEntity
  8
LC-001-100-D00-0
 62
     7
370
    50
100
AcDbCircle
 10
56.453694
 20
203.974391
 30
0.0
 40
0.5000000000000568
100
AcDbArc
 50
270.0
 51
0.0
  0
LINE
  5
58E
330
1F
100
AcDbEntity
  8
LC-001-100-D00-0
 62
     7
370
    50
100
AcDbLine
 10
148.953676
 20
154.653728
 30
0.0
 11
148.953676
 21
163.314628
 31
0.0
  0
LINE
  5
58F
330
1F
100
AcDbEntity
  8
LC-001-100-D00-0
 62
     7
370
    50
100
AcDbLine
 10
56.953694
 20
163.314628
 30
0.0
 11
56.953694
 21
154.653728
 31
0.0
  0
LINE
  5
590
330
1F
100
AcDbEntity
  8
LC-001-100-D00-0
 62
     7
370
    50
100
AcDbLine
 10
148.953676
 20
80.672736
 30
0.0
 11
148.953676
 21
89.333637
 31
0.0
  0
LINE
  5
591
330
1F
100
AcDbEntity
  8
LC-001-100-D00-0
 62
     7
370
    50
100
AcDbLine
 10
56.953694
 20
89.333637
 30
0.0
 11
56.953694
 21
80.672736
 31
0.0
  0
LINE
  5
592
330
1F
100
AcDbEntity
  8
LC-001-100-D00-0
 62
     7
370
    50
100
AcDbLine
 10
148.953676
 20
117.663231
 30
0.0
 11
148.953676
 21
126.324132
 31
0.0
  0
LINE
  5
593
330
1F
100
AcDbEntity
  8
LC-001-100-D00-0
 62
     7
370
    50
100
AcDbLine
 10
56.953694
 20
126.324132
 30
0.0
 11
56.953694
 21
117.663231
 31
0.0
  0
LINE
  5
594
330
1F
100
AcDbEntity
  8
LC-001-100-D00-0
 62
     7
370
    50
100
AcDbLine
 10
148.953676
 20
68.342569
 30
0.0
 11
148.953676
 21
77.00347
 31
0.0
  0
LINE
  5
595
330
1F
100
AcDbEntity
  8
LC-001-100-D00-0
 62
     7
370
    50
100
AcDbLine
 10
56.953694
 20
77.00347
 30
0.0
 11
56.953694
 21
68.342569
 31
0.0
  0
LINE
  5
596
330
1F
100
AcDbEntity
  8
LC-001-100-D00-0
 62
     7
370
    50
100
AcDbLine
 10
148.953676
 20
93.002899
 30
0.0
 11
148.953676
 21
101.6638
 31
0.0
  0
LINE
  5
597
330
1F
100
AcDbEntity
  8
LC-001-100-D00-0
 62
     7
370
    50
100
AcDbLine
 10
56.953694
 20
101.6638
 30
0.0
 11
56.953694
 21
93.002899
 31
0.0
  0
LINE
  5
598
330
1F
100
AcDbEntity
  8
LC-001-100-D00-0
 62
     7
370
    50
100
AcDbLine
 10
148.953676
 20
166.983894
 30
0.0
 11
148.953676
 21
175.644795
 31
0.0
  0
LINE
  5
599
330
1F
100
AcDbEntity
  8
LC-001-100-D00-0
 62
     7
370
    50
100
AcDbLine
 10
56.953694
 20
175.644795
 30
0.0
 11
56.953694
 21
166.983894
 31
0.0
  0
LINE
  5
59A
330
1F
100
AcDbEntity
  8
LC-001-100-D00-0
 62
     7
370
    50
100
AcDbLine
 10
148.953676
 20
142.323563
 30
0.0
 11
148.953676
 21
150.984463
 31
0.0
  0
LINE
  5
59B
330
1F
100
AcDbEntity
  8
LC-001-100-D00-0
 62
     7
370
    50
100
AcDbLine
 10
56.953694
 20
150.984463
 30
0.0
 11
56.953694
 21
142.323563
 31
0.0
  0
LINE
  5
59C
330
1F
100
AcDbEntity
  8
LC-001-100-D00-0
 62
     7
370
    50
100
AcDbLine
 10
148.953676
 20
179.31406
 30
0.0
 11
148.953676
 21
187.974962
 31
0.0
  0
LINE
  5
59D
330
1F
100
AcDbEntity
  8
LC-001-100-D00-0
 62
     7
370
    50
100
AcDbLine
 10
56.953694
 20
187.974962
 30
0.0
 11
56.953694
 21
179.31406
 31
0.0
  0
LINE
  5
59E
330
1F
100
AcDbEntity
  8
LC-001-100-D00-0
 62
     7
370
    50
100
AcDbLine
 10
148.953676
 20
105.333066
 30
0.0
 11
148.953676
 21
113.993966
 31
0.0
  0
LINE
  5
59F
330
1F
100
AcDbEntity
  8
LC-001-100-D00-0
 62
     7
370
    50
100
AcDbLine
 10
56.953694
 20
113.993966
 30
0.0
 11
56.953694
 21
105.333066
 31
0.0
  0
LINE
  5
5A0
330
1F
100
AcDbEntity
  8
LC-001-100-D00-0
 62
     7
370
    50
100
AcDbLine
 10
148.953676
 20
129.993397
 30
0.0
 11
148.953676
 21
138.654298
 31
0.0
  0
LINE
  5
5A1
330
1F
100
AcDbEntity
  8
LC-001-100-D00-0
 62
     7
370
    50
100
AcDbLine
 10
56.953694
 20
138.654298
 30
0.0
 11
56.953694
 21
129.993397
 31
0.0
  0
LINE
  5
5A2
330
1F
100
AcDbEntity
  8
LC-001-100-D00-0
 62
     7
370
    50
100
AcDbLine
 10
148.953676
 20
64.012407
 30
0.0
 11
148.953676
 21
64.673303
 31
0.0
  0
LINE
  5
5A3
330
1F
100
AcDbEntity
  8
LC-001-100-D00-0
 62
     7
370
    50
100
AcDbLine
 10
56.953694
 20
64.673303
 30
0.0
 11
56.953694
 21
64.012407
 31
0.0
  0
LINE
  5
5A4
330
1F
100
AcDbEntity
  8
LC-001-100-D00-0
 62
     7
370
    50
100
AcDbLine
 10
56.953694
 20
64.012407
 30
0.0
 11
57.453695
 21
63.512406
 31
0.0
  0
LINE
  5
5A5
330
1F
100
AcDbEntity
  8
LC-001-100-D00-0
 62
     7
370
    50
100
AcDbLine
 10
148.453676
 20
63.512406
 30
0.0
 11
148.953676
 21
64.012407
 31
0.0
  0
LINE
  5
5A6
330
1F
100
AcDbEntity
  8
LC-001-100-D00-0
 62
     7
370
    50
100
AcDbLine
 10
148.953676
 20
191.644227
 30
0.0
 11
148.953676
 21
200.305125
 31
0.0
  0
LINE
  5
5A7
330
1F
100
AcDbEntity
  8
LC-001-100-D00-0
 62
     7
370
    50
100
AcDbLine
 10
56.953694
 20
200.305125
 30
0.0
 11
56.953694
 21
191.644227
 31
0.0
  0
LINE
  5
5A8
330
1F
100
AcDbEntity
  8
LC-001-100-D00-0
 62
     7
370
    50
100
AcDbLine
 10
148.953676
 20
216.304554
 30
0.0
 11
148.953676
 21
224.965459
 31
0.0
  0
LINE
  5
5A9
330
1F
100
AcDbEntity
  8
LC-001-100-D00-0
 62
     7
370
    50
100
AcDbLine
 10
56.953694
 20
224.965459
 30
0.0
 11
56.953694
 21
216.304554
 31
0.0
  0
LINE
  5
5AA
330
1F
100
AcDbEntity
  8
LC-001-100-D00-0
 62
     7
370
    50
100
AcDbLine
 10
148.953676
 20
228.634721
 30
0.0
 11
148.953676
 21
237.295626
 31
0.0
  0
LINE
  5
5AB
330
1F
100
AcDbEntity
  8
LC-001-100-D00-0
 62
     7
370
    50
100
AcDbLine
 10
56.953694
 20
237.295626
 30
0.0
 11
56.953694
 21
228.634721
 31
0.0
  0
LINE
  5
5AC
330
1F
100
AcDbEntity
  8
LC-001-100-D00-0
 62
     7
370
    50
100
AcDbLine
 10
148.953676
 20
203.974394
 30
0.0
 11
148.953676
 21
212.635292
 31
0.0
  0
LINE
  5
5AD
330
1F
100
AcDbEntity
  8
LC-001-100-D00-0
 62
     7
370
    50
100
AcDbLine
 10
56.953694
 20
212.635292
 30
0.0
 11
56.953694
 21
203.974394
 31
0.0
  0
LINE
  5
5AE
330
1F
100
AcDbEntity
  8
LC-001-100-D00-0
 62
     7
370
    50
100
AcDbLine
 10
147.953676
 20
240.464887
 30
0.0
 11
147.953676
 21
63.512406
 31
0.0
  0
LINE
  5
5AF
330
1F
100
AcDbEntity
  8
LC-001-100-D00-0
 62
     7
370
    50
100
AcDbLine
 10
57.953696
 20
63.512406
 30
0.0
 11
57.953696
 21
240.464887
 31
0.0
  0
LINE
  5
5B0
330
1F
100
AcDbEntity
  8
LC-001-100-D00-0
 62
     7
370
    50
100
AcDbLine
 10
57.453695
 20
63.512406
 30
0.0
 11
57.953696
 21
63.512406
 31
0.0
  0
LINE
  5
5B1
330
1F
100
AcDbEntity
  8
LC-001-100-D00-0
 62
     7
370
    50
100
AcDbLine
 10
56.453693
 20
67.842568
 30
0.0
 11
49.453693
 21
67.842568
 31
0.0
  0
LINE
  5
5B2
330
1F
100
AcDbEntity
  8
LC-001-100-D00-0
 62
     7
370
    50
100
AcDbLine
 10
56.453693
 20
92.502902
 30
0.0
 11
49.453693
 21
92.502902
 31
0.0
  0
LINE
  5
5B3
330
1F
100
AcDbEntity
  8
LC-001-100-D00-0
 62
     7
370
    50
100
AcDbLine
 10
56.453693
 20
117.163231
 30
0.0
 11
49.453693
 21
117.163231
 31
0.0
  0
LINE
  5
5B4
330
1F
100
AcDbEntity
  8
LC-001-100-D00-0
 62
     7
370
    50
100
AcDbLine
 10
56.453693
 20
228.13472
 30
0.0
 11
49.453693
 21
228.13472
 31
0.0
  0
LINE
  5
5B5
330
1F
100
AcDbEntity
  8
LC-001-100-D00-0
 62
     7
370
    50
100
AcDbLine
 10
56.453693
 20
191.144226
 30
0.0
 11
49.453693
 21
191.144226
 31
0.0
  0
LINE
  5
5B6
330
1F
100
AcDbEntity
  8
LC-001-100-D00-0
 62
     7
370
    50
100
AcDbLine
 10
56.453693
 20
166.483892
 30
0.0
 11
49.453693
 21
166.483892
 31
0.0
  0
LINE
  5
5B7
330
1F
100
AcDbEntity
  8
LC-001-100-D00-0
 62
     7
370
    50
100
AcDbLine
 10
57.953696
 20
240.464887
 30
0.0
 11
49.453693
 21
240.464887
 31
0.0
  0
LINE
  5
5B8
330
1F
100
AcDbEntity
  8
LC-001-100-D00-0
 62
     7
370
    50
100
AcDbLine
 10
56.453693
 20
203.474393
 30
0.0
 11
49.453693
 21
203.474393
 31
0.0
  0
LINE
  5
5B9
330
1F
100
AcDbEntity
  8
LC-001-100-D00-0
 62
     7
370
    50
100
AcDbLine
 10
56.453693
 20
154.153729
 30
0.0
 11
49.453693
 21
154.153729
 31
0.0
  0
LINE
  5
5BA
330
1F
100
AcDbEntity
  8
LC-001-100-D00-0
 62
     7
370
    50
100
AcDbLine
 10
56.453693
 20
141.823563
 30
0.0
 11
49.453693
 21
141.823563
 31
0.0
  0
LINE
  5
5BB
330
1F
100
AcDbEntity
  8
LC-001-100-D00-0
 62
     7
370
    50
100
AcDbLine
 10
56.453693
 20
178.814059
 30
0.0
 11
49.453693
 21
178.814059
 31
0.0
  0
LINE
  5
5BC
330
1F
100
AcDbEntity
  8
LC-001-100-D00-0
 62
     7
370
    50
100
AcDbLine
 10
56.453693
 20
215.80456
 30
0.0
 11
49.453693
 21
215.80456
 31
0.0
  0
LINE
  5
5BD
330
1F
100
AcDbEntity
  8
LC-001-100-D00-0
 62
     7
370
    50
100
AcDbLine
 10
56.453693
 20
129.493397
 30
0.0
 11
49.453693
 21
129.493397
 31
0.0
  0
LINE
  5
5BE
330
1F
100
AcDbEntity
  8
LC-001-100-D00-0
 62
     7
370
    50
100
AcDbLine
 10
56.453693
 20
104.833067
 30
0.0
 11
49.453693
 21
104.833067
 31
0.0
  0
LINE
  5
5BF
330
1F
100
AcDbEntity
  8
LC-001-100-D00-0
 62
     7
370
    50
100
AcDbLine
 10
56.453693
 20
80.172735
 30
0.0
 11
49.453693
 21
80.172735
 31
0.0
  0
LINE
  5
5C0
330
1F
100
AcDbEntity
  8
LC-001-100-D00-0
 62
     7
370
    50
100
AcDbLine
 10
147.953676
 20
63.512406
 30
0.0
 11
148.453676
 21
63.512406
 31
0.0
  0
LINE
  5
5C1
330
1F
100
AcDbEntity
  8
LC-001-100-D00-0
 62
     7
370
    50
100
AcDbLine
 10
156.453675
 20
67.842568
 30
0.0
 11
149.453676
 21
67.842568
 31
0.0
  0
LINE
  5
5C2
330
1F
100
AcDbEntity
  8
LC-001-100-D00-0
 62
     7
370
    50
100
AcDbLine
 10
156.453676
 20
92.502902
 30
0.0
 11
149.453676
 21
92.502902
 31
0.0
  0
LINE
  5
5C3
330
1F
100
AcDbEntity
  8
LC-001-100-D00-0
 62
     7
370
    50
100
AcDbLine
 10
156.453676
 20
117.163231
 30
0.0
 11
149.453676
 21
117.163231
 31
0.0
  0
LINE
  5
5C4
330
1F
100
AcDbEntity
  8
LC-001-100-D00-0
 62
     7
370
    25
100
AcDbLine
 10
156.453676
 20
228.13472
 30
0.0
 11
149.453676
 21
228.13472
 31
0.0
  0
LINE
  5
5C5
330
1F
100
AcDbEntity
  8
LC-001-100-D00-0
 62
     7
370
    50
100
AcDbLine
 10
156.453676
 20
191.144226
 30
0.0
 11
149.453676
 21
191.144226
 31
0.0
  0
LINE
  5
5C6
330
1F
100
AcDbEntity
  8
LC-001-100-D00-0
 62
     7
370
    50
100
AcDbLine
 10
156.453676
 20
166.483892
 30
0.0
 11
149.453676
 21
166.483892
 31
0.0
  0
LINE
  5
5C7
330
1F
100
AcDbEntity
  8
LC-001-100-D00-0
 62
     7
370
    50
100
AcDbLine
 10
156.453676
 20
240.464887
 30
0.0
 11
147.953676
 21
240.464887
 31
0.0
  0
LINE
  5
5C8
330
1F
100
AcDbEntity
  8
LC-001-100-D00-0
 62
     7
370
    50
100
AcDbLine
 10
156.453676
 20
203.474393
 30
0.0
 11
149.453676
 21
203.474393
 31
0.0
  0
LINE
  5
5C9
330
1F
100
AcDbEntity
  8
LC-001-100-D00-0
 62
     7
370
    50
100
AcDbLine
 10
156.453676
 20
154.153729
 30
0.0
 11
149.453676
 21
154.153729
 31
0.0
  0
LINE
  5
5CA
330
1F
100
AcDbEntity
  8
LC-001-100-D00-0
 62
     7
370
    50
100
AcDbLine
 10
156.453676
 20
141.823563
 30
0.0
 11
149.453676
 21
141.823563
 31
0.0
  0
LINE
  5
5CB
330
1F
100
AcDbEntity
  8
LC-001-100-D00-0
 62
     7
370
    50
100
AcDbLine
 10
156.453676
 20
178.814059
 30
0.0
 11
149.453676
 21
178.814059
 31
0.0
  0
LINE
  5
5CC
330
1F
100
AcDbEntity
  8
LC-001-100-D00-0
 62
     7
370
    50
100
AcDbLine
 10
156.453676
 20
215.80456
 30
0.0
 11
149.453676
 21
215.80456
 31
0.0
  0
LINE
  5
5CD
330
1F
100
AcDbEntity
  8
LC-001-100-D00-0
 62
     7
370
    50
100
AcDbLine
 10
156.453676
 20
129.493397
 30
0.0
 11
149.453676
 21
129.493397
 31
0.0
  0
LINE
  5
5CE
330
1F
100
AcDbEntity
  8
LC-001-100-D00-0
 62
     7
370
    50
100
AcDbLine
 10
156.453676
 20
104.833067
 30
0.0
 11
149.453676
 21
104.833067
 31
0.0
  0
LINE
  5
5CF
330
1F
100
AcDbEntity
  8
LC-001-100-D00-0
 62
     7
370
    50
100
AcDbLine
 10
156.453676
 20
80.172735
 30
0.0
 11
149.453676
 21
80.172735
 31
0.0
  0
LINE
  5
5D0
330
1F
100
AcDbEntity
  8
LC-001-100-D00-0
 62
     7
370
    50
100
AcDbLine
 10
43.028477
 20
273.512407
 30
0.0
 11
43.028477
 21
270.512401
 31
0.0
  0
LINE
  5
5D1
330
1F
100
AcDbEntity
  8
LC-001-100-D00-0
 62
     7
370
    50
100
AcDbLine
 10
42.953688
 20
270.512401
 30
0.0
 11
42.953688
 21
273.512407
 31
0.0
  0
LINE
  5
5D2
330
1F
100
AcDbEntity
  8
LC-001-100-D00-0
 62
     7
370
    50
100
AcDbLine
 10
40.203686
 20
273.512407
 30
0.0
 11
40.203686
 21
270.512401
 31
0.0
  0
LINE
  5
5D3
330
1F
100
AcDbEntity
  8
LC-001-100-D00-0
 62
     7
370
    50
100
AcDbLine
 10
170.203685
 20
255.5124
 30
0.0
 11
170.203685
 21
268.912403
 31
0.0
  0
LINE
  5
5D4
330
1F
100
AcDbEntity
  8
LC-001-100-D00-0
 62
     7
370
    50
100
AcDbLine
 10
175.203686
 20
268.912403
 30
0.0
 11
174.953685
 21
268.912403
 31
0.0
  0
LINE
  5
5D5
330
1F
100
AcDbEntity
  8
LC-001-100-D00-0
 62
     7
370
    50
100
AcDbLine
 10
170.545223
 20
268.912403
 30
0.0
 11
170.203685
 21
268.912403
 31
0.0
  0
LINE
  5
5D6
330
1F
100
AcDbEntity
  8
LC-001-100-D00-0
 62
     7
370
    50
100
AcDbLine
 10
175.203686
 20
268.912403
 30
0.0
 11
175.203686
 21
255.5124
 31
0.0
  0
LINE
  5
5D7
330
1F
100
AcDbEntity
  8
LC-001-100-D00-0
 62
     7
370
    50
100
AcDbLine
 10
25.703679
 20
262.812404
 30
0.0
 11
25.703679
 21
254.512398
 31
0.0
  0
LINE
  5
5D8
330
1F
100
AcDbEntity
  8
LC-001-100-D00-0
 62
     7
370
    50
100
AcDbLine
 10
30.703681
 20
255.5124
 30
0.0
 11
30.703681
 21
268.912403
 31
0.0
  0
LINE
  5
5D9
330
1F
100
AcDbEntity
  8
LC-001-100-D00-0
 62
     7
370
    50
100
AcDbLine
 10
35.703684
 20
268.912403
 30
0.0
 11
34.954416
 21
268.912403
 31
0.0
  0
LINE
  5
5DA
330
1F
100
AcDbEntity
  8
LC-001-100-D00-0
 62
     7
370
    50
100
AcDbLine
 10
35.703684
 20
268.912403
 30
0.0
 11
35.703684
 21
255.5124
 31
0.0
  0
ARC
  5
5DB
330
1F
100
AcDbEntity
  8
LC-001-100-D00-0
 62
     7
370
    50
100
AcDbCircle
 10
33.203685
 20
258.662403
 30
0.0
 40
6.000000000000038
100
AcDbArc
 50
223.762185
 51
316.237815
  0
LINE
  5
5DC
330
1F
100
AcDbEntity
  8
LC-001-100-D00-0
 62
     7
370
    50
100
AcDbLine
 10
166.703685
 20
268.912403
 30
0.0
 11
166.703685
 21
270.512401
 31
0.0
  0
LINE
  5
5DD
330
1F
100
AcDbEntity
  8
LC-001-100-D00-0
 62
     7
370
    50
100
AcDbLine
 10
39.203684
 20
270.512401
 30
0.0
 11
39.203684
 21
268.912403
 31
0.0
  0
LINE
  5
5DE
330
1F
100
AcDbEntity
  8
LC-001-100-D00-0
 62
     7
370
    50
100
AcDbLine
 10
57.953688
 20
57.0124
 30
0.0
 11
58.891508
 21
53.5124
 31
0.0
  0
LINE
  5
5DF
330
1F
100
AcDbEntity
  8
LC-001-100-D00-0
 62
     7
370
    50
100
AcDbLine
 10
147.015862
 20
53.5124
 30
0.0
 11
147.953685
 21
57.0124
 31
0.0
  0
LINE
  5
5E0
330
1F
100
AcDbEntity
  8
LC-001-100-D00-0
 62
     7
370
    50
100
AcDbLine
 10
180.203684
 20
254.512398
 30
0.0
 11
180.203684
 21
262.812404
 31
0.0
  0
ARC
  5
5E1
330
1F
100
AcDbEntity
  8
LC-001-100-D00-0
 62
     7
370
    50
100
AcDbCircle
 10
172.703685
 20
258.662403
 30
0.0
 40
6.000000000000038
100
AcDbArc
 50
223.762185
 51
316.237815
  0
LINE
  5
5E2
330
1F
100
AcDbEntity
  8
LC-001-100-D00-0
 62
     7
370
    50
100
AcDbLine
 10
15.20368
 20
266.062407
 30
0.0
 11
18.453683
 21
262.812404
 31
0.0
  0
LINE
  5
5E3
330
1F
100
AcDbEntity
  8
LC-001-100-D00-0
 62
     7
370
    50
100
AcDbLine
 10
187.453686
 20
262.812404
 30
0.0
 11
190.703685
 21
266.062407
 31
0.0
  0
LINE
  5
5E4
330
1F
100
AcDbEntity
  8
LC-001-100-D00-0
 62
     7
370
    50
100
AcDbLine
 10
60.953687
 20
257.512404
 30
0.0
 11
144.953685
 21
257.512404
 31
0.0
  0
LINE
  5
5E5
330
1F
100
AcDbEntity
  8
LC-001-100-D00-0
 62
     7
370
    50
100
AcDbLine
 10
144.953685
 20
257.512404
 30
0.0
 11
144.953685
 21
53.5124
 31
0.0
  0
LINE
  5
5E6
330
1F
100
AcDbEntity
  8
LC-001-100-D00-0
 62
     7
370
    50
100
AcDbLine
 10
60.953687
 20
53.5124
 30
0.0
 11
60.953687
 21
257.512404
 31
0.0
  0
LINE
  5
5E7
330
1F
100
AcDbEntity
  8
LC-001-100-D00-0
 62
     7
370
    50
100
AcDbLine
 10
60.953687
 20
53.5124
 30
0.0
 11
144.953685
 21
53.5124
 31
0.0
  0
LINE
  5
5E8
330
1F
100
AcDbEntity
  8
LC-001-100-D00-0
 62
     7
370
    50
100
AcDbLine
 10
162.703684
 20
270.512401
 30
0.0
 11
162.703684
 21
257.512404
 31
0.0
  0
LINE
  5
5E9
330
1F
100
AcDbEntity
  8
LC-001-100-D00-0
 62
     7
370
    50
100
AcDbLine
 10
43.203684
 20
257.512404
 30
0.0
 11
43.203684
 21
270.512401
 31
0.0
  0
LINE
  5
5EA
330
1F
100
AcDbEntity
  8
LC-001-100-D00-0
 62
     7
370
    50
100
AcDbLine
 10
43.203684
 20
270.512401
 30
0.0
 11
46.453687
 21
270.512401
 31
0.0
  0
LINE
  5
5EB
330
1F
100
AcDbEntity
  8
LC-001-100-D00-0
 62
     7
370
    50
100
AcDbLine
 10
159.453684
 20
270.512401
 30
0.0
 11
162.703684
 21
270.512401
 31
0.0
  0
LINE
  5
5EC
330
1F
100
AcDbEntity
  8
LC-001-100-D00-0
 62
     7
370
    50
100
AcDbLine
 10
20.703683
 20
268.912403
 30
0.0
 11
21.453689
 21
268.912403
 31
0.0
  0
LINE
  5
5ED
330
1F
100
AcDbEntity
  8
LC-001-100-D00-0
 62
     7
370
    50
100
AcDbLine
 10
184.453684
 20
268.912403
 30
0.0
 11
185.203685
 21
268.912403
 31
0.0
  0
LINE
  5
5EE
330
1F
100
AcDbEntity
  8
LC-001-100-D00-0
 62
     7
370
    50
100
AcDbLine
 10
185.203685
 20
268.912403
 30
0.0
 11
185.203685
 21
265.412404
 31
0.0
  0
LINE
  5
5EF
330
1F
100
AcDbEntity
  8
LC-001-100-D00-0
 62
     7
370
    50
100
AcDbLine
 10
20.703683
 20
265.412404
 30
0.0
 11
20.703683
 21
268.912403
 31
0.0
  0
LINE
  5
5F0
330
1F
100
AcDbEntity
  8
LC-001-100-D00-0
 62
     7
370
    50
100
AcDbLine
 10
16.953687
 20
268.912403
 30
0.0
 11
-3.546317
 21
273.720635
 31
0.0
  0
LINE
  5
5F1
330
1F
100
AcDbEntity
  8
LC-001-100-D00-0
 62
     7
370
    50
100
AcDbLine
 10
209.453686
 20
273.720635
 30
0.0
 11
188.953685
 21
268.912403
 31
0.0
  0
LINE
  5
5F2
330
1F
100
AcDbEntity
  8
LC-001-100-D00-0
 62
     7
370
    50
100
AcDbLine
 10
-3.546317
 20
273.720635
 30
0.0
 11
-8.803715
 21
273.812397
 31
0.0
  0
LINE
  5
5F3
330
1F
100
AcDbEntity
  8
LC-001-100-D00-0
 62
     7
370
    50
100
AcDbLine
 10
-8.803715
 20
273.812397
 30
0.0
 11
10.514746
 21
273.812397
 31
0.0
  0
LINE
  5
5F4
330
1F
100
AcDbEntity
  8
LC-001-100-D00-0
 62
     7
370
    50
100
AcDbLine
 10
195.392622
 20
273.812397
 30
0.0
 11
214.71108
 21
273.812397
 31
0.0
  0
LINE
  5
5F5
330
1F
100
AcDbEntity
  8
LC-001-100-D00-0
 62
     7
370
    50
100
AcDbLine
 10
214.71108
 20
273.812397
 30
0.0
 11
209.453686
 21
273.720635
 31
0.0
  0
ARC
  5
5F6
330
1F
100
AcDbEntity
  8
LC-001-100-D00-0
 62
     7
370
    50
100
AcDbCircle
 10
214.953701
 20
270.82223
 30
0.0
 40
2.999999999940252
100
AcDbArc
 50
359.812325
 51
94.638715
  0
ARC
  5
5F7
330
1F
100
AcDbEntity
  8
LC-001-100-D00-0
 62
     7
370
    50
100
AcDbCircle
 10
-9.046331
 20
270.82223
 30
0.0
 40
2.999999999940289
100
AcDbArc
 50
85.361285
 51
180.187675
  0
LINE
  5
5F8
330
1F
100
AcDbEntity
  8
LC-001-100-D00-0
 62
     7
370
    50
100
AcDbLine
 10
-2.523561
 20
270.812406
 30
0.0
 11
15.20368
 21
266.062407
 31
0.0
  0
LINE
  5
5F9
330
1F
100
AcDbEntity
  8
LC-001-100-D00-0
 62
     7
370
    50
100
AcDbLine
 10
190.703685
 20
266.062407
 30
0.0
 11
208.430926
 21
270.812406
 31
0.0
  0
LINE
  5
5FA
330
1F
100
AcDbEntity
  8
LC-001-100-D00-0
 62
     7
370
    50
100
AcDbLine
 10
179.203684
 20
265.412404
 30
0.0
 11
179.203684
 21
268.912403
 31
0.0
  0
LINE
  5
5FB
330
1F
100
AcDbEntity
  8
LC-001-100-D00-0
 62
     7
370
    50
100
AcDbLine
 10
26.703688
 20
268.912403
 30
0.0
 11
26.703688
 21
265.412404
 31
0.0
  0
LINE
  5
5FC
330
1F
100
AcDbEntity
  8
LC-001-100-D00-0
 62
     7
370
    50
100
AcDbLine
 10
147.953685
 20
57.0124
 30
0.0
 11
147.953685
 21
254.512398
 31
0.0
  0
LINE
  5
5FD
330
1F
100
AcDbEntity
  8
LC-001-100-D00-0
 62
     7
370
    50
100
AcDbLine
 10
57.953688
 20
254.512398
 30
0.0
 11
57.953688
 21
57.0124
 31
0.0
  0
LINE
  5
5FE
330
1F
100
AcDbEntity
  8
LC-001-100-D00-0
 62
     7
370
    50
100
AcDbLine
 10
37.536989
 20
254.512398
 30
0.0
 11
57.953688
 21
254.512398
 31
0.0
  0
LINE
  5
5FF
330
1F
100
AcDbEntity
  8
LC-001-100-D00-0
 62
     7
370
    50
100
AcDbLine
 10
25.703679
 20
254.512398
 30
0.0
 11
28.870384
 21
254.512398
 31
0.0
  0
LINE
  5
600
330
1F
100
AcDbEntity
  8
LC-001-100-D00-0
 62
     7
370
    50
100
AcDbLine
 10
26.703688
 20
265.412404
 30
0.0
 11
20.703683
 21
265.412404
 31
0.0
  0
LINE
  5
601
330
1F
100
AcDbEntity
  8
LC-001-100-D00-0
 62
     7
370
    50
100
AcDbLine
 10
-12.046312
 20
270.812406
 30
0.0
 11
-2.523561
 21
270.812406
 31
0.0
  0
LINE
  5
602
330
1F
100
AcDbEntity
  8
LC-001-100-D00-0
 62
     7
370
    50
100
AcDbLine
 10
20.703683
 20
268.912403
 30
0.0
 11
16.953687
 21
268.912403
 31
0.0
  0
LINE
  5
603
330
1F
100
AcDbEntity
  8
LC-001-100-D00-0
 62
     7
370
    50
100
AcDbLine
 10
60.953687
 20
257.512404
 30
0.0
 11
43.203684
 21
257.512404
 31
0.0
  0
LINE
  5
604
330
1F
100
AcDbEntity
  8
LC-001-100-D00-0
 62
     7
370
    50
100
AcDbLine
 10
18.453683
 20
262.812404
 30
0.0
 11
25.703679
 21
262.812404
 31
0.0
  0
LINE
  5
605
330
1F
100
AcDbEntity
  8
LC-001-100-D00-0
 62
     7
370
    50
100
AcDbLine
 10
43.203684
 20
270.512401
 30
0.0
 11
42.953688
 21
270.512401
 31
0.0
  0
LINE
  5
606
330
1F
100
AcDbEntity
  8
LC-001-100-D00-0
 62
     7
370
    50
100
AcDbLine
 10
40.203686
 20
270.512401
 30
0.0
 11
39.203684
 21
270.512401
 31
0.0
  0
LINE
  5
607
330
1F
100
AcDbEntity
  8
LC-001-100-D00-0
 62
     7
370
    50
100
AcDbLine
 10
40.203686
 20
274.512409
 30
0.0
 11
42.953688
 21
274.512409
 31
0.0
  0
LINE
  5
608
330
1F
100
AcDbEntity
  8
LC-001-100-D00-0
 62
     7
370
    50
100
AcDbLine
 10
39.203684
 20
268.912403
 30
0.0
 11
35.703684
 21
268.912403
 31
0.0
  0
LINE
  5
609
330
1F
100
AcDbEntity
  8
LC-001-100-D00-0
 62
     7
370
    50
100
AcDbLine
 10
30.703681
 20
268.912403
 30
0.0
 11
26.703688
 21
268.912403
 31
0.0
  0
LINE
  5
60A
330
1F
100
AcDbEntity
  8
LC-001-100-D00-0
 62
     7
370
    50
100
AcDbLine
 10
30.703681
 20
255.5124
 30
0.0
 11
35.703684
 21
255.5124
 31
0.0
  0
LINE
  5
60B
330
1F
100
AcDbEntity
  8
LC-001-100-D00-0
 62
     7
370
    50
100
AcDbLine
 10
58.891508
 20
53.5124
 30
0.0
 11
60.953687
 21
53.5124
 31
0.0
  0
LINE
  5
60C
330
1F
100
AcDbEntity
  8
LC-001-100-D00-0
 62
     7
370
    50
100
AcDbLine
 10
147.953685
 20
254.512398
 30
0.0
 11
168.370384
 21
254.512398
 31
0.0
  0
LINE
  5
60D
330
1F
100
AcDbEntity
  8
LC-001-100-D00-0
 62
     7
370
    50
100
AcDbLine
 10
177.036987
 20
254.512398
 30
0.0
 11
180.203684
 21
254.512398
 31
0.0
  0
LINE
  5
60E
330
1F
100
AcDbEntity
  8
LC-001-100-D00-0
 62
     7
370
    50
100
AcDbLine
 10
185.203685
 20
265.412404
 30
0.0
 11
179.203684
 21
265.412404
 31
0.0
  0
LINE
  5
60F
330
1F
100
AcDbEntity
  8
LC-001-100-D00-0
 62
     7
370
    50
100
AcDbLine
 10
208.430926
 20
270.812406
 30
0.0
 11
217.953685
 21
270.812406
 31
0.0
  0
LINE
  5
610
330
1F
100
AcDbEntity
  8
LC-001-100-D00-0
 62
     7
370
    50
100
AcDbLine
 10
188.953685
 20
268.912403
 30
0.0
 11
185.203685
 21
268.912403
 31
0.0
  0
LINE
  5
611
330
1F
100
AcDbEntity
  8
LC-001-100-D00-0
 62
     7
370
    50
100
AcDbLine
 10
162.703684
 20
257.512404
 30
0.0
 11
144.953685
 21
257.512404
 31
0.0
  0
LINE
  5
612
330
1F
100
AcDbEntity
  8
LC-001-100-D00-0
 62
     7
370
    50
100
AcDbLine
 10
180.203684
 20
262.812404
 30
0.0
 11
187.453686
 21
262.812404
 31
0.0
  0
LINE
  5
613
330
1F
100
AcDbEntity
  8
LC-001-100-D00-0
 62
     7
370
    50
100
AcDbLine
 10
166.703685
 20
270.512401
 30
0.0
 11
162.703684
 21
270.512401
 31
0.0
  0
LINE
  5
614
330
1F
100
AcDbEntity
  8
LC-001-100-D00-0
 62
     7
370
    50
100
AcDbLine
 10
170.203685
 20
268.912403
 30
0.0
 11
166.703685
 21
268.912403
 31
0.0
  0
LINE
  5
615
330
1F
100
AcDbEntity
  8
LC-001-100-D00-0
 62
     7
370
    50
100
AcDbLine
 10
179.203684
 20
268.912403
 30
0.0
 11
175.203686
 21
268.912403
 31
0.0
  0
LINE
  5
616
330
1F
100
AcDbEntity
  8
LC-001-100-D00-0
 62
     7
370
    50
100
AcDbLine
 10
170.203685
 20
255.5124
 30
0.0
 11
175.203686
 21
255.5124
 31
0.0
  0
LINE
  5
617
330
1F
100
AcDbEntity
  8
LC-001-100-D00-0
 62
     7
370
    50
100
AcDbLine
 10
144.953685
 20
53.5124
 30
0.0
 11
147.015862
 21
53.5124
 31
0.0
  0
LINE
  5
618
330
1F
100
AcDbEntity
  8
LC-001-100-D00-0
 62
     7
370
    50
100
AcDbLine
 10
168.403954
 20
269.432022
 30
0.0
 11
168.122877
 21
268.912403
 31
0.0
  0
LINE
  5
619
330
1F
100
AcDbEntity
  8
LC-001-100-D00-0
 62
     7
370
    50
100
AcDbLine
 10
168.686318
 20
268.912403
 30
0.0
 11
168.403954
 21
269.432022
 31
0.0
  0
LINE
  5
61A
330
1F
100
AcDbEntity
  8
LC-001-100-D00-0
 62
     7
370
    50
100
AcDbLine
 10
166.703685
 20
269.432022
 30
0.0
 11
168.403954
 21
269.432022
 31
0.0
  0
LINE
  5
61B
330
1F
100
AcDbEntity
  8
LC-001-100-D00-0
 62
     7
370
    50
100
AcDbLine
 10
37.78449
 20
268.912403
 30
0.0
 11
37.503417
 21
269.432022
 31
0.0
  0
LINE
  5
61C
330
1F
100
AcDbEntity
  8
LC-001-100-D00-0
 62
     7
370
    50
100
AcDbLine
 10
37.503417
 20
269.432022
 30
0.0
 11
39.203684
 21
269.432022
 31
0.0
  0
LINE
  5
61D
330
1F
100
AcDbEntity
  8
LC-001-100-D00-0
 62
     7
370
    50
100
AcDbLine
 10
37.503417
 20
269.432022
 30
0.0
 11
37.221047
 21
268.912403
 31
0.0
  0
LINE
  5
61E
330
1F
100
AcDbEntity
  8
LC-001-100-D00-0
 62
     7
370
    50
100
AcDbLine
 10
29.321047
 20
268.912403
 30
0.0
 11
29.003414
 21
269.432022
 31
0.0
  0
LINE
  5
61F
330
1F
100
AcDbEntity
  8
LC-001-100-D00-0
 62
     7
370
    50
100
AcDbLine
 10
29.003414
 20
269.432022
 30
0.0
 11
28.684492
 21
268.912403
 31
0.0
  0
LINE
  5
620
330
1F
100
AcDbEntity
  8
LC-001-100-D00-0
 62
     7
370
    50
100
AcDbLine
 10
177.222879
 20
268.912403
 30
0.0
 11
176.903953
 21
269.432022
 31
0.0
  0
LINE
  5
621
330
1F
100
AcDbEntity
  8
LC-001-100-D00-0
 62
     7
370
    50
100
AcDbLine
 10
176.903953
 20
269.432022
 30
0.0
 11
176.58632
 21
268.912403
 31
0.0
  0
LINE
  5
622
330
1F
100
AcDbEntity
  8
LC-001-100-D00-0
 62
     7
370
    50
100
AcDbLine
 10
175.121087
 20
269.432022
 30
0.0
 11
176.903953
 21
269.432022
 31
0.0
  0
LINE
  5
623
330
1F
100
AcDbEntity
  8
LC-001-100-D00-0
 62
     7
370
    50
100
AcDbLine
 10
29.003414
 20
269.432022
 30
0.0
 11
30.645798
 21
269.432022
 31
0.0
  0
LINE
  5
624
330
1F
100
AcDbEntity
  8
LC-001-100-D00-0
 62
     7
370
    50
100
AcDbLine
 10
35.886283
 20
269.432022
 30
0.0
 11
35.596604
 21
268.912403
 31
0.0
  0
LINE
  5
625
330
1F
100
AcDbEntity
  8
LC-001-100-D00-0
 62
     7
370
    50
100
AcDbLine
 10
36.174673
 20
268.912403
 30
0.0
 11
35.886283
 21
269.432022
 31
0.0
  0
LINE
  5
626
330
1F
100
AcDbEntity
  8
LC-001-100-D00-0
 62
     7
370
    50
100
AcDbLine
 10
35.886283
 20
269.432022
 30
0.0
 11
37.433619
 21
269.432022
 31
0.0
  0
LINE
  5
627
330
1F
100
AcDbEntity
  8
LC-001-100-D00-0
 62
     7
370
    50
100
AcDbLine
 10
168.548395
 20
269.432022
 30
0.0
 11
170.021086
 21
269.432022
 31
0.0
  0
LINE
  5
628
330
1F
100
AcDbEntity
  8
LC-001-100-D00-0
 62
     7
370
    50
100
AcDbLine
 10
170.021086
 20
269.432022
 30
0.0
 11
169.732698
 21
268.912403
 31
0.0
  0
LINE
  5
629
330
1F
100
AcDbEntity
  8
LC-001-100-D00-0
 62
     7
370
    50
100
AcDbLine
 10
170.198028
 20
269.114627
 30
0.0
 11
170.021086
 21
269.432022
 31
0.0
  0
LINE
  5
62A
330
1F
100
AcDbEntity
  8
LC-001-100-D00-0
 62
     7
370
    50
100
AcDbLine
 10
175.121087
 20
269.432022
 30
0.0
 11
174.953685
 21
269.151716
 31
0.0
  0
LINE
  5
62B
330
1F
100
AcDbEntity
  8
LC-001-100-D00-0
 62
     7
370
    50
100
AcDbLine
 10
175.4327
 20
268.912403
 30
0.0
 11
175.121087
 21
269.432022
 31
0.0
  0
LINE
  5
62C
330
1F
100
AcDbEntity
  8
LC-001-100-D00-0
 62
     7
370
    50
100
AcDbLine
 10
174.953685
 20
269.432022
 30
0.0
 11
175.121087
 21
269.432022
 31
0.0
  0
LINE
  5
62D
330
1F
100
AcDbEntity
  8
LC-001-100-D00-0
 62
     7
370
    50
100
AcDbLine
 10
34.954416
 20
269.432022
 30
0.0
 11
35.886283
 21
269.432022
 31
0.0
  0
LINE
  5
62E
330
1F
100
AcDbEntity
  8
LC-001-100-D00-0
 62
     7
370
    50
100
AcDbLine
 10
170.021086
 20
269.432022
 30
0.0
 11
170.949804
 21
269.432022
 31
0.0
  0
LINE
  5
62F
330
1F
100
AcDbEntity
  8
LC-001-100-D00-0
 62
     7
370
    50
100
AcDbLine
 10
67.555922
 20
278.512402
 30
0.0
 11
70.78095
 21
278.512402
 31
0.0
  0
LINE
  5
630
330
1F
100
AcDbEntity
  8
LC-001-100-D00-0
 62
     7
370
    50
100
AcDbLine
 10
67.74539
 20
279.512404
 30
0.0
 11
70.864337
 21
279.512404
 31
0.0
  0
LINE
  5
631
330
1F
100
AcDbEntity
  8
LC-001-100-D00-0
 62
     7
370
    50
100
AcDbLine
 10
70.864337
 20
279.512404
 30
0.0
 11
70.913802
 21
279.504
 31
0.0
  0
LINE
  5
632
330
1F
100
AcDbEntity
  8
LC-001-100-D00-0
 62
     7
370
    50
100
AcDbLine
 10
135.126416
 20
278.512402
 30
0.0
 11
138.351451
 21
278.512402
 31
0.0
  0
ARC
  5
633
330
1F
100
AcDbEntity
  8
LC-001-100-D00-0
 62
     7
370
    50
100
AcDbCircle
 10
139.047804
 20
276.714319
 30
0.0
 40
3.908403910747951
100
AcDbArc
 50
134.721191
 51
143.078427
  0
ARC
  5
634
330
1F
100
AcDbEntity
  8
LC-001-100-D00-0
 62
     7
370
    50
100
AcDbCircle
 10
136.35621
 20
274.810679
 30
0.0
 40
4.27349517228656
100
AcDbArc
 50
84.184519
 51
95.815481
  0
ARC
  5
635
330
1F
100
AcDbEntity
  8
LC-001-100-D00-0
 62
     7
370
    50
100
AcDbCircle
 10
139.913871
 20
276.714276
 30
0.0
 40
3.908462712256021
100
AcDbArc
 50
134.721179
 51
143.078297
  0
LINE
  5
636
330
1F
100
AcDbEntity
  8
LC-001-100-D00-0
 62
     7
370
    50
100
AcDbLine
 10
137.208896
 20
279.512404
 30
0.0
 11
138.161981
 21
279.512404
 31
0.0
  0
INSERT
  5
642
330
1F
100
AcDbEntity
  8
LC-001-100-D00-0
 62
     7
370
    50
100
AcDbBlockReference
  2
POLY46
 10
0.0
 20
0.0
 30
0.0
  0
LINE
  5
643
330
1F
100
AcDbEntity
  8
LC-001-100-D00-0
 62
     7
370
    50
100
AcDbLine
 10
136.911481
 20
279.216407
 30
0.0
 11
136.911481
 21
279.512404
 31
0.0
  0
INSERT
  5
64F
330
1F
100
AcDbEntity
  8
LC-001-100-D00-0
 62
     7
370
    50
100
AcDbBlockReference
  2
POLY47
 10
0.0
 20
0.0
 30
0.0
  0
LINE
  5
650
330
1F
100
AcDbEntity
  8
LC-001-100-D00-0
 62
     7
370
    50
100
AcDbLine
 10
136.911481
 20
279.512404
 30
0.0
 11
136.34287
 21
279.512404
 31
0.0
  0
LINE
  5
651
330
1F
100
AcDbEntity
  8
LC-001-100-D00-0
 62
     7
370
    50
100
AcDbLine
 10
135.277922
 20
279.512404
 30
0.0
 11
136.34287
 21
279.512404
 31
0.0
  0
LINE
  5
652
330
1F
100
AcDbEntity
  8
LC-001-100-D00-0
 62
     7
370
    50
100
AcDbLine
 10
137.208896
 20
279.512404
 30
0.0
 11
136.911481
 21
279.512404
 31
0.0
  0
INSERT
  5
678
330
1F
100
AcDbEntity
  8
LC-001-100-D00-0
 62
     7
370
    25
100
AcDbBlockReference
  2
KLON23
 10
0.0
 20
0.0
 30
0.0
  0
INSERT
  5
69D
330
1F
100
AcDbEntity
  8
LC-001-100-D00-0
 62
     7
370
    25
100
AcDbBlockReference
  2
KLON24
 10
0.0
 20
0.0
 30
0.0
  0
INSERT
  5
6C2
330
1F
100
AcDbEntity
  8
LC-001-100-D00-0
 62
     7
370
    25
100
AcDbBlockReference
  2
KLON25
 10
0.0
 20
0.0
 30
0.0
  0
INSERT
  5
6E5
330
1F
100
AcDbEntity
  8
LC-001-100-D00-0
 62
     7
370
    50
100
AcDbBlockReference
  2
KLON26
 10
0.0
 20
0.0
 30
0.0
  0
INSERT
  5
6ED
330
1F
100
AcDbEntity
  8
LC-001-100-D00-0
 62
     7
370
    25
100
AcDbBlockReference
  2
KLON27
 10
0.0
 20
0.0
 30
0.0
  0
INSERT
  5
70E
330
1F
100
AcDbEntity
  8
LC-001-100-D00-0
 62
     7
370
    25
100
AcDbBlockReference
  2
KLON28
 10
0.0
 20
0.0
 30
0.0
  0
LINE
  5
70F
330
1F
100
AcDbEntity
  8
LC-001-100-D00-0
 62
     7
370
    50
100
AcDbLine
 10
181.183143
 20
265.412403
 30
0.0
 11
184.568414
 21
268.797674
 31
0.0
  0
LINE
  5
710
330
1F
100
AcDbEntity
  8
LC-001-100-D00-0
 62
     7
370
    25
100
AcDbLine
 10
20.953685
 20
266.827555
 30
0.0
 11
23.538533
 21
269.412403
 31
0.0
  0
INSERT
  5
717
330
1F
100
AcDbEntity
  8
LC-001-100-D00-0
 62
     7
370
    25
100
AcDbBlockReference
  2
KLON29
 10
0.0
 20
0.0
 30
0.0
  0
INSERT
  5
720
330
1F
100
AcDbEntity
  8
LC-001-100-D00-0
 62
     7
370
    25
100
AcDbBlockReference
  2
KLON30
 10
0.0
 20
0.0
 30
0.0
  0
INSERT
  5
726
330
1F
100
AcDbEntity
  8
LC-001-100-D00-0
 62
     7
370
    25
100
AcDbBlockReference
  2
KLON31
 10
0.0
 20
0.0
 30
0.0
  0
INSERT
  5
72D
330
1F
100
AcDbEntity
  8
LC-001-100-D00-0
 62
     7
370
    25
100
AcDbBlockReference
  2
KLON32
 10
0.0
 20
0.0
 30
0.0
  0
LINE
  5
72F
330
1F
100
AcDbEntity
  8
LC-001-100-D00-0
  6
DASHDOT
 62
     7
370
    25
100
AcDbLine
 10
102.953685
 20
351.553975
 30
0.0
 11
102.953685
 21
53.5124
 31
0.0
  0
DIMENSION
  5
733
330
1F
100
AcDbEntity
  8
LC-002-003-----0
 62
     7
370
    25
100
AcDbDimension
  2
*D80
 10
217.953686
 20
371.792403
 30
0.0
 11
102.308873
 21
402.592403
 31
0.0
 70
   160
  1
%%c<>
 71
     5
 42
230.0
  3
LC-DIM-L-0140-02-02
100
AcDbAlignedDimension
 13
-12.046314
 23
270.812403
 33
0.0
 14
217.953686
 24
270.812403
 34
0.0
100
AcDbRotatedDimension
  0
DIMENSION
  5
741
330
1F
100
AcDbEntity
  8
LC-002-003-----0
 62
     7
370
    25
100
AcDbDimension
  2
*D81
 10
201.592352
 20
53.5124
 30
0.0
 11
170.792352
 21
148.027586
 31
0.0
 70
   160
  1
187
 71
     5
 42
186.952488
 53
90.0
  3
LC-DIM-L-0140-02-02
100
AcDbAlignedDimension
 13
156.453676
 23
240.464888
 33
0.0
 14
147.015862
 24
53.5124
 34
0.0
 50
90.0
100
AcDbRotatedDimension
  0
DIMENSION
  5
74E
330
1F
100
AcDbEntity
  8
LC-002-003-----0
 62
     7
370
    25
100
AcDbDimension
  2
*D82
 10
255.791851
 20
53.5124
 30
0.0
 11
224.991851
 21
156.993802
 31
0.0
 70
   160
  1
200
 71
     5
 42
200.999998
 53
90.0
  3
LC-DIM-L-0140-02-02
100
AcDbAlignedDimension
 13
168.370384
 23
254.512398
 33
0.0
 14
144.953685
 24
53.5124
 34
0.0
 50
90.0
100
AcDbRotatedDimension
  0
DIMENSION
  5
75B
330
1F
100
AcDbEntity
  8
LC-002-003-----0
 62
     7
370
    25
100
AcDbDimension
  2
*D83
 10
300.646609
 20
270.812403
 30
0.0
 11
269.846609
 21
154.924676
 31
0.0
 70
   160
  1
217
 71
     5
 42
217.300003
 53
90.0
  3
LC-DIM-L-0140-02-02
100
AcDbAlignedDimension
 13
144.953685
 23
53.5124
 33
0.0
 14
217.953686
 24
270.812403
 34
0.0
 50
90.0
100
AcDbRotatedDimension
  0
DIMENSION
  5
768
330
1F
100
AcDbEntity
  8
LC-002-003-----0
 62
     7
370
    25
100
AcDbDimension
  2
*D84
 10
147.953685
 20
0.542403
 30
0.0
 11
102.960622
 21
31.342403
 31
0.0
 70
   160
  1
%%c<>
 71
     5
 42
89.999996
  3
LC-DIM-L-0140-02-02
100
AcDbAlignedDimension
 13
57.953688
 23
57.0124
 33
0.0
 14
147.953685
 24
57.0124
 34
0.0
100
AcDbRotatedDimension
  0
DIMENSION
  5
775
330
1F
100
AcDbEntity
  8
LC-002-003-----0
 62
     7
370
    25
100
AcDbDimension
  2
*D85
 10
156.951774
 20
-55.293597
 30
0.0
 11
97.636227
 21
-24.493597
 31
0.0
 70
   160
  1
%%c<>
 71
     5
 42
107.996178
  3
LC-DIM-L-0140-02-02
100
AcDbAlignedDimension
 13
48.955596
 23
67.386147
 33
0.0
 14
156.951774
 24
67.386147
 34
0.0
100
AcDbRotatedDimension
  0
ENDSEC
  0
SECTION
  2
OBJECTS
  0
DICTIONARY
  5
C
330
0
100
AcDbDictionary
281
     1
  3
ACAD_GROUP
350
D
  3
ACAD_LAYOUT
350
1A
  3
ACAD_MLINESTYLE
350
17
  3
ACAD_PLOTSETTINGS
350
19
  3
ACAD_PLOTSTYLENAME
350
E
  0
DICTIONARY
  5
D
102
{ACAD_REACTORS
330
C
102
}
330
C
100
AcDbDictionary
281
     1
  0
DICTIONARY
  5
1A
102
{ACAD_REACTORS
330
C
102
}
330
C
100
AcDbDictionary
281
     1
  3
Layout1
350
1E
  3
Layout2
350
26
  3
Model
350
22
  0
DICTIONARY
  5
17
102
{ACAD_REACTORS
330
C
102
}
330
C
100
AcDbDictionary
281
     1
  3
Standard
350
18
  0
DICTIONARY
  5
19
102
{ACAD_REACTORS
330
C
102
}
330
C
100
AcDbDictionary
281
     1
  0
ACDBDICTIONARYWDFLT
  5
E
102
{ACAD_REACTORS
330
C
102
}
330
C
100
AcDbDictionary
281
     1
  3
Normal
350
F
100
AcDbDictionaryWithDefault
340
F
  0
LAYOUT
  5
1E
102
{ACAD_REACTORS
330
1A
102
}
330
1A
100
AcDbPlotSettings
  1

  2

  4

  6

 40
0.0
 41
0.0
 42
0.0
 43
0.0
 44
0.0
 45
0.0
 46
0.0
 47
0.0
 48
0.0
 49
0.0
140
0.0
141
0.0
142
1.0
143
1.0
 70
   688
 72
     0
 73
     0
 74
     5
  7

 75
    16
147
1.0
148
0.0
149
0.0
100
AcDbLayout
  1
Layout1
 70
     1
 71
     1
 10
-264.860304
 20
-130.731597
 11
575.139696
 21
463.268403
 12
0.0
 22
0.0
 32
0.0
 14
-264.860304
 24
-130.731597
 34
0.0
 15
575.139696
 25
463.268403
 35
0.0
146
0.0
 13
0.0
 23
0.0
 33
0.0
 16
1.0
 26
0.0
 36
0.0
 17
0.0
 27
1.0
 37
0.0
 76
     0
330
1B
  0
LAYOUT
  5
26
102
{ACAD_REACTORS
330
1A
102
}
330
1A
100
AcDbPlotSettings
  1

  2

  4

  6

 40
0.0
 41
0.0
 42
0.0
 43
0.0
 44
0.0
 45
0.0
 46
0.0
 47
0.0
 48
0.0
 49
0.0
140
0.0
141
0.0
142
1.0
143
1.0
 70
   688
 72
     0
 73
     0
 74
     5
  7

 75
    16
147
1.0
148
0.0
149
0.0
100
AcDbLayout
  1
Layout2
 70
     1
 71
     2
 10
0.0
 20
0.0
 11
0.0
 21
0.0
 12
0.0
 22
0.0
 32
0.0
 14
0.0
 24
0.0
 34
0.0
 15
0.0
 25
0.0
 35
0.0
146
0.0
 13
0.0
 23
0.0
 33
0.0
 16
1.0
 26
0.0
 36
0.0
 17
0.0
 27
1.0
 37
0.0
 76
     0
330
23
  0
LAYOUT
  5
22
102
{ACAD_REACTORS
330
1A
102
}
330
1A
100
AcDbPlotSettings
  1

  2

  4

  6

 40
0.0
 41
0.0
 42
0.0
 43
0.0
 44
0.0
 45
0.0
 46
0.0
 47
0.0
 48
0.0
 49
0.0
140
0.0
141
0.0
142
1.0
143
1.0
 70
  1776
 72
     0
 73
     0
 74
     0
  7

 75
     0
147
1.0
148
0.0
149
0.0
100
AcDbLayout
  1
Model
 70
     1
 71
     0
 10
-264.860304
 20
-130.731597
 11
575.139696
 21
463.268403
 12
0.0
 22
0.0
 32
0.0
 14
-264.860304
 24
-130.731597
 34
0.0
 15
575.139696
 25
463.268403
 35
0.0
146
0.0
 13
0.0
 23
0.0
 33
0.0
 16
1.0
 26
0.0
 36
0.0
 17
0.0
 27
1.0
 37
0.0
 76
     0
330
1F
  0
MLINESTYLE
  5
18
102
{ACAD_REACTORS
330
17
102
}
330
17
100
AcDbMlineStyle
  2
Standard
 70
     0
  3

 62
   256
 51
90.0
 52
90.0
 71
     2
 49
0.5
 62
   256
  6
BYLAYER
 49
-0.5
 62
   256
  6
BYLAYER
  0
ACDBPLACEHOLDER
  5
F
102
{ACAD_REACTORS
330
E
102
}
330
E
  0
ENDSEC
  0
EOF
