  0
SECTION
  2
HEADER
  9
$ACADVER
  1
AC1009
  9
$INSBASE
 10
0.0
 20
0.0
 30
0.0
  9
$EXTMIN
 10
0.0
 20
0.0
 30
0.0
  9
$EXTMAX
 10
840.0
 20
594.0
 30
0.0
  9
$LIMMIN
 10
0.0
 20
0.0
  9
$LIMMAX
 10
840.0
 20
594.0
  9
$ORTHOMODE
 70
     0
  9
$REGENMODE
 70
     1
  9
$FILLMODE
 70
     1
  9
$QTEXTMODE
 70
     0
  9
$MIRRTEXT
 70
     1
  9
$DRAGMODE
 70
     2
  9
$LTSCALE
 40
2.0
  9
$OSMODE
 70
     0
  9
$ATTMODE
 70
     1
  9
$TEXTSIZE
 40
0.2
  9
$TRACEWID
 40
0.05
  9
$TEXTSTYLE
  7
STANDARD
  9
$CLAYER
  8
0
  9
$CELTYPE
  6
BYLAYER
  9
$CECOLOR
 62
     7
  9
$DIMSCALE
 40
2.0
  9
$DIMASZ
 40
3.5
  9
$DIMEXO
 40
0.0625
  9
$DIMDLI
 40
0.38
  9
$DIMRND
 40
0.0
  9
$DIMDLE
 40
0.0
  9
$DIMEXE
 40
0.18
  9
$DIMTP
 40
0.0
  9
$DIMTM
 40
0.0
  9
$DIMTXT
 40
3.5
  9
$DIMCEN
 40
0.09
  9
$DIMTSZ
 40
0.0
  9
$DIMTOL
 70
     0
  9
$DIMLIM
 70
     0
  9
$DIMTIH
 70
     1
  9
$DIMTOH
 70
     1
  9
$DIMSE1
 70
     0
  9
$DIMSE2
 70
     0
  9
$DIMTAD
 70
     1
  9
$DIMZIN
 70
     0
  9
$DIMBLK
  1

  9
$DIMASO
 70
     1
  9
$DIMSHO
 70
     1
  9
$DIMPOST
  1

  9
$DIMAPOST
  1

  9
$DIMALT
 70
     0
  9
$DIMALTD
 70
     2
  9
$DIMALTF
 40
25.4
  9
$DIMLFAC
 40
1.0
  9
$DIMTOFL
 70
     0
  9
$DIMTVP
 40
0.0
  9
$DIMTIX
 70
     0
  9
$DIMSOXD
 70
     0
  9
$DIMSAH
 70
     0
  9
$DIMBLK1
  1

  9
$DIMBLK2
  1

  9
$DIMSTYLE
  2
STANDARD
  9
$DIMCLRD
 70
     0
  9
$DIMCLRE
 70
     0
  9
$DIMCLRT
 70
     0
  9
$DIMTFAC
 40
1.0
  9
$DIMGAP
 40
0.09
  9
$LUNITS
 70
     2
  9
$LUPREC
 70
     2
  9
$AXISMODE
 70
     0
  9
$AXISUNIT
 10
0.0
 20
0.0
  9
$SKETCHINC
 40
0.1
  9
$FILLETRAD
 40
0.0
  9
$AUNITS
 70
     0
  9
$AUPREC
 70
     0
  9
$MENU
  1
acad
  9
$ELEVATION
 40
0.0
  9
$PELEVATION
 40
0.0
  9
$THICKNESS
 40
0.0
  9
$LIMCHECK
 70
     0
  9
$BLIPMODE
 70
     1
  9
$CHAMFERA
 40
0.0
  9
$CHAMFERB
 40
0.0
  9
$SKPOLY
 70
     0
  9
$TDCREATE
 40
0.000000000
  9
$TDUPDATE
 40
0.000000000
  9
$TDINDWG
 40
0.0000000000
  9
$TDUSRTIMER
 40
0.0000000000
  9
$USRTIMER
 70
     1
  9
$ANGBASE
 50
0.0
  9
$ANGDIR
 70
     0
  9
$PDMODE
 70
     0
  9
$PDSIZE
 40
0.0
  9
$PLINEWID
 40
0.0
  9
$COORDS
 70
     0
  9
$SPLFRAME
 70
     0
  9
$SPLINETYPE
 70
     6
  9
$SPLINESEGS
 70
     8
  9
$ATTDIA
 70
     0
  9
$ATTREQ
 70
     1
  9
$HANDLING
 70
     1
  9
$HANDSEED
  5
22A
  9
$SURFTAB1
 70
     6
  9
$SURFTAB2
 70
     6
  9
$SURFTYPE
 70
     6
  9
$SURFU
 70
     6
  9
$SURFV
 70
     6
  9
$UCSNAME
  2

  9
$UCSORG
 10
0.0
 20
0.0
 30
0.0
  9
$UCSXDIR
 10
1.0
 20
0.0
 30
0.0
  9
$UCSYDIR
 10
0.0
 20
1.0
 30
0.0
  9
$PUCSNAME
  2

  9
$PUCSORG
 10
0.0
 20
0.0
 30
0.0
  9
$PUCSXDIR
 10
1.0
 20
0.0
 30
0.0
  9
$PUCSYDIR
 10
0.0
 20
1.0
 30
0.0
  9
$USERI1
 70
     0
  9
$USERI2
 70
     0
  9
$USERI3
 70
     0
  9
$USERI4
 70
     0
  9
$USERI5
 70
     0
  9
$USERR1
 40
0.0
  9
$USERR2
 40
0.0
  9
$USERR3
 40
0.0
  9
$USERR4
 40
0.0
  9
$USERR5
 40
0.0
  9
$WORLDVIEW
 70
     1
  9
$SHADEDGE
 70
     3
  9
$SHADEDIF
 70
    70
  9
$TILEMODE
 70
     1
  9
$MAXACTVP
 70
    16
  9
$PINSBASE
 10
0.0
 20
0.0
 30
0.0
  9
$PLIMCHECK
 70
     0
  9
$PEXTMIN
 10
1.000000E+20
 20
1.000000E+20
 30
1.000000E+20
  9
$PEXTMAX
 10
-1.000000E+20
 20
-1.000000E+20
 30
-1.000000E+20
  9
$PLIMMIN
 10
0.0
 20
0.0
  9
$PLIMMAX
 10
840.0
 20
594.0
  9
$UNITMODE
 70
     0
  9
$VISRETAIN
 70
     0
  9
$PLINEGEN
 70
     1
  9
$PSLTSCALE
 70
     0
  9
$TREEDEPTH
 70
  3020
  9
$DWGCODEPAGE
  3
dos850
  0
ENDSEC
  0
SECTION
  2
TABLES
  0
TABLE
  2
VPORT
 70
     1
  0
VPORT
  2
*ACTIVE
 70
     0
 10
0.0
 20
0.0
 11
1.0
 21
1.0
 12
420.0
 22
297.0
 13
0.0
 23
0.0
 14
1.0
 24
1.0
 15
0.0
 25
0.0
 16
0.0
 26
0.0
 36
1.0
 17
0.0
 27
0.0
 37
0.0
 40
594.0
 41
1.604229
 42
50.0
 43
0.0
 44
0.0
 50
0.0
 51
0.0
 71
     0
 72
   100
 73
     1
 74
     1
 75
     0
 76
     0
 77
     0
 78
     0
  0
ENDTAB
  0
TABLE
  2
LTYPE
 70
     3
  0
LTYPE
  2
CONTINUOUS
 70
    64
  3
Solid line
 72
    65
 73
     0
 40
0.0
  0
LTYPE
  2
DASHDOT
 70
    64
  3
__ . __ . __ . __ . __
 72
    65
 73
     4
 40
7.5
 49
5.0
 49
-1.25
 49
0.0
 49
-1.25
  0
LTYPE
  2
CENTER
 70
    64
  3
__ . __ . __ . __ . __
 72
    65
 73
     4
 40
7.5
 49
5.0
 49
-1.25
 49
0.0
 49
-1.25
  0
ENDTAB
  0
TABLE
  2
LAYER
 70
    11
  0
LAYER
  2
0
 70
     0
 62
     7
  6
CONTINUOUS
  0
LAYER
  2
LC-INFO-1-2-MM-A3-0
 70
     1
 62
    -1
  6
CONTINUOUS
  0
LAYER
  2
LC-005-003-MTH-0
 70
     0
 62
     2
  6
CONTINUOUS
  0
LAYER
  2
LC-006-003-MTG-0
 70
     0
 62
     2
  6
CONTINUOUS
  0
LAYER
  2
LC-004-003-----0
 70
     0
 62
     2
  6
CONTINUOUS
  0
LAYER
  2
LC-001-000-----0
 70
     0
 62
     7
  6
CONTINUOUS
  0
LAYER
  2
LC-002-002-----0
 70
     0
 62
     1
  6
CONTINUOUS
  0
LAYER
  2
LC-003-002-RND-0
 70
     0
 62
     1
  6
CONTINUOUS
  0
LAYER
  2
LC-007-005-----0
 70
     0
 62
     2
  6
CONTINUOUS
  0
LAYER
  2
LC-008-006-MLN-0
 70
     0
 62
     2
  6
CENTER
  0
LAYER
  2
LC-000
 70
     0
 62
     7
  6
CONTINUOUS
  0
ENDTAB
  0
TABLE
  2
STYLE
 70
     4
  0
STYLE
  2
STANDARD
 70
     0
 40
0.0
 41
1.0
 50
0.0
 71
     0
 42
0.0
  3
txt
  4

  0
STYLE
  2
LC-STANDARD
 70
    64
 40
0.0
 41
1.0
 50
0.0
 71
     0
 42
3.5
  3
MONOTXT
  4

  0
STYLE
  2
LC-TXTSTYLE-150-400-0-0-D2
 70
    64
 40
0.0
 41
1.0
 50
15.0
 71
     0
 42
3.5
  3
MONOTXT
  4

  0
STYLE
  2
LC-TXTSTYLE-150-400-0-0-D3
 70
    64
 40
0.0
 41
1.0
 50
15.0
 71
     0
 42
3.5
  3
LC-STANDARD
  4

  0
ENDTAB
  0
TABLE
  2
VIEW
 70
     0
  0
ENDTAB
  0
TABLE
  2
UCS
 70
     0
  0
ENDTAB
  0
TABLE
  2
APPID
 70
     1
  0
APPID
  2
ACAD
 70
     0
  0
ENDTAB
  0
TABLE
  2
DIMSTYLE
 70
     3
  0
DIMSTYLE
  2
STANDARD
 70
     0
  3

  4

  5

  6

  7

 40
1.0
 41
0.18
 42
0.0625
 43
0.38
 44
0.18
 45
0.0
 46
0.0
 47
0.0
 48
0.0
 71
     0
 72
     0
 73
     1
 74
     1
 75
     0
 76
     0
 77
     0
 78
     0
140
0.18
141
0.09
142
0.0
143
25.4
144
1.0
145
0.0
146
1.0
147
0.09
170
     0
171
     2
172
     0
173
     0
174
     0
175
     0
176
     0
177
     0
178
     0
  0
DIMSTYLE
  2
LC-STANDARD
 70
     0
  3

  4

  5

  6

  7

 40
1.0
 41
3.5
 42
0.0
 43
7.5
 44
1.8
 45
0.0
 46
0.0
 47
0.0
 48
0.0
 71
     0
 72
     0
 73
     0
 74
     0
 75
     0
 76
     0
 77
     1
 78
     8
140
3.5
141
0.0
142
0.0
143
25.4
144
1.0
145
0.0
146
0.71
147
1.5
170
     0
171
     2
172
     1
173
     0
174
     0
175
     0
176
     0
177
     0
178
     3
  0
DIMSTYLE
  2
LC-DIM-L-0090-02-02
 70
     0
  3

  4

  5

  6

  7

 40
2.0
 41
3.5
 42
0.0
 43
7.5
 44
1.8
 45
0.0
 46
0.0
 47
0.0
 48
0.0
 71
     0
 72
     0
 73
     0
 74
     0
 75
     0
 76
     0
 77
     1
 78
     8
140
9.0
141
0.0
142
0.0
143
25.4
144
1.0
145
0.0
146
0.71
147
1.5
170
     0
171
     2
172
     0
173
     0
174
     0
175
     0
176
     2
177
     2
178
     6
  0
ENDTAB
  0
ENDSEC
  0
SECTION
  2
BLOCKS
  0
BLOCK
  8
0
  5
23
  2
*D0
 70
    65
 10
0.0
 20
0.0
 30
0.0
  3
*D0
  0
LINE
  8
LC-005-003-MTH-0
  6
CONTINUOUS
  5
25
 10
414.984892
 20
276.984732
 30
0.0
 11
490.8
 21
276.984732
 31
0.0
  0
LINE
  8
LC-005-003-MTH-0
  6
CONTINUOUS
  5
26
 10
456.485423
 20
476.984732
 30
0.0
 11
490.8
 21
476.984732
 31
0.0
  0
LINE
  8
LC-006-003-MTG-0
  6
CONTINUOUS
  5
28
 10
480.0
 20
276.984732
 30
0.0
 11
480.0
 21
476.984732
 31
0.0
  0
LINE
  8
LC-004-003-----0
  6
CONTINUOUS
  5
2A
 10
477.650529
 20
294.83074
 30
0.0
 11
480.0
 21
276.984732
 31
0.0
  0
LINE
  8
LC-004-003-----0
  6
CONTINUOUS
  5
2B
 10
480.0
 20
276.984732
 30
0.0
 11
482.349471
 21
294.83074
 31
0.0
  0
LINE
  8
LC-004-003-----0
  6
CONTINUOUS
  5
2C
 10
482.349471
 20
294.83074
 30
0.0
 11
477.650529
 21
294.83074
 31
0.0
  0
LINE
  8
LC-004-003-----0
  6
CONTINUOUS
  5
2D
 10
478.261391
 20
294.870778
 30
0.0
 11
480.0
 21
281.664732
 31
0.0
  0
LINE
  8
LC-004-003-----0
  6
CONTINUOUS
  5
2E
 10
480.0
 20
281.664732
 30
0.0
 11
481.738609
 21
294.870778
 31
0.0
  0
LINE
  8
LC-004-003-----0
  6
CONTINUOUS
  5
2F
 10
478.872254
 20
294.910816
 30
0.0
 11
480.0
 21
286.344732
 31
0.0
  0
LINE
  8
LC-004-003-----0
  6
CONTINUOUS
  5
30
 10
480.0
 20
286.344732
 30
0.0
 11
481.127746
 21
294.910816
 31
0.0
  0
LINE
  8
LC-004-003-----0
  6
CONTINUOUS
  5
31
 10
479.483116
 20
294.950854
 30
0.0
 11
480.0
 21
291.024732
 31
0.0
  0
LINE
  8
LC-004-003-----0
  6
CONTINUOUS
  5
32
 10
480.0
 20
291.024732
 30
0.0
 11
480.516884
 21
294.950854
 31
0.0
  0
LINE
  8
LC-004-003-----0
  6
CONTINUOUS
  5
33
 10
482.349471
 20
459.138725
 30
0.0
 11
480.0
 21
476.984732
 31
0.0
  0
LINE
  8
LC-004-003-----0
  6
CONTINUOUS
  5
34
 10
480.0
 20
476.984732
 30
0.0
 11
477.650529
 21
459.138725
 31
0.0
  0
LINE
  8
LC-004-003-----0
  6
CONTINUOUS
  5
35
 10
477.650529
 20
459.138725
 30
0.0
 11
482.349471
 21
459.138725
 31
0.0
  0
LINE
  8
LC-004-003-----0
  6
CONTINUOUS
  5
36
 10
481.738609
 20
459.098687
 30
0.0
 11
480.0
 21
472.304732
 31
0.0
  0
LINE
  8
LC-004-003-----0
  6
CONTINUOUS
  5
37
 10
480.0
 20
472.304732
 30
0.0
 11
478.261391
 21
459.098687
 31
0.0
  0
LINE
  8
LC-004-003-----0
  6
CONTINUOUS
  5
38
 10
481.127746
 20
459.058649
 30
0.0
 11
480.0
 21
467.624732
 31
0.0
  0
LINE
  8
LC-004-003-----0
  6
CONTINUOUS
  5
39
 10
480.0
 20
467.624732
 30
0.0
 11
478.872254
 21
459.058649
 31
0.0
  0
LINE
  8
LC-004-003-----0
  6
CONTINUOUS
  5
3A
 10
480.516884
 20
459.018611
 30
0.0
 11
480.0
 21
462.944732
 31
0.0
  0
LINE
  8
LC-004-003-----0
  6
CONTINUOUS
  5
3B
 10
480.0
 20
462.944732
 30
0.0
 11
479.483116
 21
459.018611
 31
0.0
  0
TEXT
  8
LC-004-003-----0
  6
CONTINUOUS
 62
     6
  5
3D
 10
469.568001
 20
360.64612
 30
0.0
 40
18.0
  1
200
 50
90.0
 41
0.9
 51
15.0
  7
LC-TXTSTYLE-150-400-0-0-D0
 72
     1
 11
469.568001
 21
379.779978
 31
0.0
  0
ENDBLK
  8
0
  5
3E
  0
BLOCK
  8
0
  5
40
  2
BLK1
 70
    64
 10
0.0
 20
0.0
 30
0.0
  3
BLK1
  0
ENDBLK
  8
0
  5
41
  0
BLOCK
  8
0
  5
43
  2
*D2
 70
    65
 10
0.0
 20
0.0
 30
0.0
  3
*D2
  0
LINE
  8
LC-005-003-MTH-0
  6
CONTINUOUS
  5
44
 10
342.984901
 20
281.484732
 30
0.0
 11
342.984901
 21
229.2
 31
0.0
  0
LINE
  8
LC-005-003-MTH-0
  6
CONTINUOUS
  5
45
 10
417.984892
 20
281.484732
 30
0.0
 11
417.984892
 21
229.2
 31
0.0
  0
LINE
  8
LC-006-003-MTG-0
  6
CONTINUOUS
  5
46
 10
342.984901
 20
240.0
 30
0.0
 11
417.984892
 21
240.0
 31
0.0
  0
LINE
  8
LC-004-003-----0
  6
CONTINUOUS
  5
47
 10
360.830909
 20
242.349471
 30
0.0
 11
342.984901
 21
240.0
 31
0.0
  0
LINE
  8
LC-004-003-----0
  6
CONTINUOUS
  5
48
 10
342.984901
 20
240.0
 30
0.0
 11
360.830909
 21
237.650529
 31
0.0
  0
LINE
  8
LC-004-003-----0
  6
CONTINUOUS
  5
49
 10
360.830909
 20
237.650529
 30
0.0
 11
360.830909
 21
242.349471
 31
0.0
  0
LINE
  8
LC-004-003-----0
  6
CONTINUOUS
  5
4A
 10
360.870947
 20
241.738609
 30
0.0
 11
347.664901
 21
240.0
 31
0.0
  0
LINE
  8
LC-004-003-----0
  6
CONTINUOUS
  5
4B
 10
347.664901
 20
240.0
 30
0.0
 11
360.870947
 21
238.261391
 31
0.0
  0
LINE
  8
LC-004-003-----0
  6
CONTINUOUS
  5
4C
 10
360.910985
 20
241.127746
 30
0.0
 11
352.344901
 21
240.0
 31
0.0
  0
LINE
  8
LC-004-003-----0
  6
CONTINUOUS
  5
4D
 10
352.344901
 20
240.0
 30
0.0
 11
360.910985
 21
238.872254
 31
0.0
  0
LINE
  8
LC-004-003-----0
  6
CONTINUOUS
  5
4E
 10
360.951023
 20
240.516884
 30
0.0
 11
357.024901
 21
240.0
 31
0.0
  0
LINE
  8
LC-004-003-----0
  6
CONTINUOUS
  5
4F
 10
357.024901
 20
240.0
 30
0.0
 11
360.951023
 21
239.483116
 31
0.0
  0
LINE
  8
LC-004-003-----0
  6
CONTINUOUS
  5
50
 10
400.138884
 20
237.650529
 30
0.0
 11
417.984892
 21
240.0
 31
0.0
  0
LINE
  8
LC-004-003-----0
  6
CONTINUOUS
  5
51
 10
417.984892
 20
240.0
 30
0.0
 11
400.138884
 21
242.349471
 31
0.0
  0
LINE
  8
LC-004-003-----0
  6
CONTINUOUS
  5
52
 10
400.138884
 20
242.349471
 30
0.0
 11
400.138884
 21
237.650529
 31
0.0
  0
LINE
  8
LC-004-003-----0
  6
CONTINUOUS
  5
53
 10
400.098846
 20
238.261391
 30
0.0
 11
413.304892
 21
240.0
 31
0.0
  0
LINE
  8
LC-004-003-----0
  6
CONTINUOUS
  5
54
 10
413.304892
 20
240.0
 30
0.0
 11
400.098846
 21
241.738609
 31
0.0
  0
LINE
  8
LC-004-003-----0
  6
CONTINUOUS
  5
55
 10
400.058808
 20
238.872254
 30
0.0
 11
408.624892
 21
240.0
 31
0.0
  0
LINE
  8
LC-004-003-----0
  6
CONTINUOUS
  5
56
 10
408.624892
 20
240.0
 30
0.0
 11
400.058808
 21
241.127746
 31
0.0
  0
LINE
  8
LC-004-003-----0
  6
CONTINUOUS
  5
57
 10
400.01877
 20
239.483116
 30
0.0
 11
403.944892
 21
240.0
 31
0.0
  0
LINE
  8
LC-004-003-----0
  6
CONTINUOUS
  5
58
 10
403.944892
 20
240.0
 30
0.0
 11
400.01877
 21
240.516884
 31
0.0
  0
TEXT
  8
LC-004-003-----0
  6
CONTINUOUS
 62
     6
  5
59
 10
356.875418
 20
250.431999
 30
0.0
 40
18.0
  1
DN70
 51
15.0
  7
LC-TXTSTYLE-150-400-0-0-D0
 72
     1
 11
383.280142
 21
250.431999
 31
0.0
  0
ENDBLK
  8
0
  5
5A
  0
BLOCK
  8
0
  5
5C
  2
*D3
 70
    65
 10
0.0
 20
0.0
 30
0.0
  3
*D3
  0
LINE
  8
LC-005-003-MTH-0
  6
CONTINUOUS
  5
5D
 10
414.984892
 20
276.984732
 30
0.0
 11
542.8
 21
276.984732
 31
0.0
  0
LINE
  8
LC-005-003-MTH-0
  6
CONTINUOUS
  5
5E
 10
487.500729
 20
493.157583
 30
0.0
 11
542.8
 21
493.157583
 31
0.0
  0
LINE
  8
LC-006-003-MTG-0
  6
CONTINUOUS
  5
5F
 10
532.0
 20
276.984732
 30
0.0
 11
532.0
 21
493.157583
 31
0.0
  0
LINE
  8
LC-004-003-----0
  6
CONTINUOUS
  5
60
 10
529.650529
 20
294.83074
 30
0.0
 11
532.0
 21
276.984732
 31
0.0
  0
LINE
  8
LC-004-003-----0
  6
CONTINUOUS
  5
61
 10
532.0
 20
276.984732
 30
0.0
 11
534.349471
 21
294.83074
 31
0.0
  0
LINE
  8
LC-004-003-----0
  6
CONTINUOUS
  5
62
 10
534.349471
 20
294.83074
 30
0.0
 11
529.650529
 21
294.83074
 31
0.0
  0
LINE
  8
LC-004-003-----0
  6
CONTINUOUS
  5
63
 10
530.261391
 20
294.870778
 30
0.0
 11
532.0
 21
281.664732
 31
0.0
  0
LINE
  8
LC-004-003-----0
  6
CONTINUOUS
  5
64
 10
532.0
 20
281.664732
 30
0.0
 11
533.738609
 21
294.870778
 31
0.0
  0
LINE
  8
LC-004-003-----0
  6
CONTINUOUS
  5
65
 10
530.872254
 20
294.910816
 30
0.0
 11
532.0
 21
286.344732
 31
0.0
  0
LINE
  8
LC-004-003-----0
  6
CONTINUOUS
  5
66
 10
532.0
 20
286.344732
 30
0.0
 11
533.127746
 21
294.910816
 31
0.0
  0
LINE
  8
LC-004-003-----0
  6
CONTINUOUS
  5
67
 10
531.483116
 20
294.950854
 30
0.0
 11
532.0
 21
291.024732
 31
0.0
  0
LINE
  8
LC-004-003-----0
  6
CONTINUOUS
  5
68
 10
532.0
 20
291.024732
 30
0.0
 11
532.516884
 21
294.950854
 31
0.0
  0
LINE
  8
LC-004-003-----0
  6
CONTINUOUS
  5
69
 10
534.349471
 20
475.311575
 30
0.0
 11
532.0
 21
493.157583
 31
0.0
  0
LINE
  8
LC-004-003-----0
  6
CONTINUOUS
  5
6A
 10
532.0
 20
493.157583
 30
0.0
 11
529.650529
 21
475.311575
 31
0.0
  0
LINE
  8
LC-004-003-----0
  6
CONTINUOUS
  5
6B
 10
529.650529
 20
475.311575
 30
0.0
 11
534.349471
 21
475.311575
 31
0.0
  0
LINE
  8
LC-004-003-----0
  6
CONTINUOUS
  5
6C
 10
533.738609
 20
475.271537
 30
0.0
 11
532.0
 21
488.477583
 31
0.0
  0
LINE
  8
LC-004-003-----0
  6
CONTINUOUS
  5
6D
 10
532.0
 20
488.477583
 30
0.0
 11
530.261391
 21
475.271537
 31
0.0
  0
LINE
  8
LC-004-003-----0
  6
CONTINUOUS
  5
6E
 10
533.127746
 20
475.231499
 30
0.0
 11
532.0
 21
483.797583
 31
0.0
  0
LINE
  8
LC-004-003-----0
  6
CONTINUOUS
  5
6F
 10
532.0
 20
483.797583
 30
0.0
 11
530.872254
 21
475.231499
 31
0.0
  0
LINE
  8
LC-004-003-----0
  6
CONTINUOUS
  5
70
 10
532.516884
 20
475.191461
 30
0.0
 11
532.0
 21
479.117583
 31
0.0
  0
LINE
  8
LC-004-003-----0
  6
CONTINUOUS
  5
71
 10
532.0
 20
479.117583
 30
0.0
 11
531.483116
 21
475.191461
 31
0.0
  0
TEXT
  8
LC-004-003-----0
  6
CONTINUOUS
 62
     6
  5
72
 10
521.568001
 20
368.732545
 30
0.0
 40
18.0
  1
216
 50
90.0
 51
15.0
  7
LC-TXTSTYLE-150-400-0-0-D0
 72
     1
 11
521.568001
 21
387.866403
 31
0.0
  0
ENDBLK
  8
0
  5
73
  0
BLOCK
  8
0
  5
75
  2
*D4
 70
    65
 10
0.0
 20
0.0
 30
0.0
  3
*D4
  0
LINE
  8
LC-005-003-MTH-0
  6
CONTINUOUS
  5
76
 10
265.484901
 20
494.942455
 30
0.0
 11
265.484901
 21
528.8
 31
0.0
  0
LINE
  8
LC-005-003-MTH-0
  6
CONTINUOUS
  5
77
 10
495.484902
 20
494.942455
 30
0.0
 11
495.484902
 21
528.8
 31
0.0
  0
LINE
  8
LC-006-003-MTG-0
  6
CONTINUOUS
  5
78
 10
265.484901
 20
518.0
 30
0.0
 11
495.484902
 21
518.0
 31
0.0
  0
LINE
  8
LC-004-003-----0
  6
CONTINUOUS
  5
79
 10
283.330909
 20
520.349471
 30
0.0
 11
265.484901
 21
518.0
 31
0.0
  0
LINE
  8
LC-004-003-----0
  6
CONTINUOUS
  5
7A
 10
265.484901
 20
518.0
 30
0.0
 11
283.330909
 21
515.650529
 31
0.0
  0
LINE
  8
LC-004-003-----0
  6
CONTINUOUS
  5
7B
 10
283.330909
 20
515.650529
 30
0.0
 11
283.330909
 21
520.349471
 31
0.0
  0
LINE
  8
LC-004-003-----0
  6
CONTINUOUS
  5
7C
 10
283.370947
 20
519.738609
 30
0.0
 11
270.164901
 21
518.0
 31
0.0
  0
LINE
  8
LC-004-003-----0
  6
CONTINUOUS
  5
7D
 10
270.164901
 20
518.0
 30
0.0
 11
283.370947
 21
516.261391
 31
0.0
  0
LINE
  8
LC-004-003-----0
  6
CONTINUOUS
  5
7E
 10
283.410985
 20
519.127746
 30
0.0
 11
274.844901
 21
518.0
 31
0.0
  0
LINE
  8
LC-004-003-----0
  6
CONTINUOUS
  5
7F
 10
274.844901
 20
518.0
 30
0.0
 11
283.410985
 21
516.872254
 31
0.0
  0
LINE
  8
LC-004-003-----0
  6
CONTINUOUS
  5
80
 10
283.451023
 20
518.516884
 30
0.0
 11
279.524901
 21
518.0
 31
0.0
  0
LINE
  8
LC-004-003-----0
  6
CONTINUOUS
  5
81
 10
279.524901
 20
518.0
 30
0.0
 11
283.451023
 21
517.483116
 31
0.0
  0
LINE
  8
LC-004-003-----0
  6
CONTINUOUS
  5
82
 10
477.638894
 20
515.650529
 30
0.0
 11
495.484902
 21
518.0
 31
0.0
  0
LINE
  8
LC-004-003-----0
  6
CONTINUOUS
  5
83
 10
495.484902
 20
518.0
 30
0.0
 11
477.638894
 21
520.349471
 31
0.0
  0
LINE
  8
LC-004-003-----0
  6
CONTINUOUS
  5
84
 10
477.638894
 20
520.349471
 30
0.0
 11
477.638894
 21
515.650529
 31
0.0
  0
LINE
  8
LC-004-003-----0
  6
CONTINUOUS
  5
85
 10
477.598856
 20
516.261391
 30
0.0
 11
490.804902
 21
518.0
 31
0.0
  0
LINE
  8
LC-004-003-----0
  6
CONTINUOUS
  5
86
 10
490.804902
 20
518.0
 30
0.0
 11
477.598856
 21
519.738609
 31
0.0
  0
LINE
  8
LC-004-003-----0
  6
CONTINUOUS
  5
87
 10
477.558818
 20
516.872254
 30
0.0
 11
486.124902
 21
518.0
 31
0.0
  0
LINE
  8
LC-004-003-----0
  6
CONTINUOUS
  5
88
 10
486.124902
 20
518.0
 30
0.0
 11
477.558818
 21
519.127746
 31
0.0
  0
LINE
  8
LC-004-003-----0
  6
CONTINUOUS
  5
89
 10
477.51878
 20
517.483116
 30
0.0
 11
481.444902
 21
518.0
 31
0.0
  0
LINE
  8
LC-004-003-----0
  6
CONTINUOUS
  5
8A
 10
481.444902
 20
518.0
 30
0.0
 11
477.51878
 21
518.516884
 31
0.0
  0
TEXT
  8
LC-004-003-----0
  6
CONTINUOUS
 62
     6
  5
8B
 10
358.788809
 20
528.431999
 30
0.0
 40
18.0
  1
Ø230
 51
15.0
  7
LC-TXTSTYLE-150-400-0-0-D0
 72
     1
 11
383.280147
 21
528.431999
 31
0.0
  0
ENDBLK
  8
0
  5
8C
  0
BLOCK
  8
0
  5
8E
  2
BLK2
 70
    64
 10
0.0
 20
0.0
 30
0.0
  3
BLK2
  0
ENDBLK
  8
0
  5
8F
  0
BLOCK
  8
0
  5
91
  2
BLK3
 70
    64
 10
0.0
 20
0.0
 30
0.0
  3
BLK3
  0
ENDBLK
  8
0
  5
92
  0
BLOCK
  8
0
  5
94
  2
BLK4
 70
    64
 10
0.0
 20
0.0
 30
0.0
  3
BLK4
  0
ENDBLK
  8
0
  5
95
  0
BLOCK
  8
0
  5
97
  2
BLK5
 70
    64
 10
0.0
 20
0.0
 30
0.0
  3
BLK5
  0
ENDBLK
  8
0
  5
98
  0
BLOCK
  8
0
  5
9A
  2
BLK6
 70
    64
 10
0.0
 20
0.0
 30
0.0
  3
BLK6
  0
ENDBLK
  8
0
  5
9B
  0
BLOCK
  8
0
  5
9D
  2
BLK7
 70
    64
 10
0.0
 20
0.0
 30
0.0
  3
BLK7
  0
ENDBLK
  8
0
  5
9E
  0
ENDSEC
  0
SECTION
  2
ENTITIES
  0
VIEWPORT
  8
LC-000
  5
21E
 67
     1
 68
     1
 10
420.0
 20
297.0
 30
0.0
 40
840.0
 41
594.0
 69
     1
1001
ACAD
1000
MVIEW
1002
{
1070
    16
1010
0.0
1020
0.0
1030
0.0
1010
0.0
1020
0.0
1030
1.0
1040
0.0
1040
594.0
1040
420.0
1040
297.0
1040
50.0
1040
0.0
1040
0.0
1070
     0
1070
   100
1070
     1
1070
     1
1070
     0
1070
     0
1070
     0
1070
     0
1040
0.0
1040
0.0
1040
0.0
1040
1.0
1040
1.0
1040
0.0
1040
0.0
1070
     0
1002
{
1002
}
1002
}
  0
VIEWPORT
  8
0
  5
21F
 67
     1
 68
     1
 10
0.0
 20
0.0
 30
0.0
 40
0.0
 41
0.0
 69
     1
1001
ACAD
1000
MVIEW
1002
{
1070
    16
1010
0.0
1020
0.0
1030
0.0
1010
0.0
1020
0.0
1030
1.0
1040
0.0
1040
594.0
1040
0.0
1040
0.0
1040
50.0
1040
0.0
1040
0.0
1070
     0
1070
   100
1070
     0
1070
     1
1070
     0
1070
     0
1070
     0
1070
     0
1040
0.0
1040
0.0
1040
0.0
1040
0.5
1040
0.5
1040
0.5
1040
0.5
1070
     0
1002
{
1002
}
1002
}
  0
DIMENSION
  8
0
  5
9F
  2
*D0
 10
480.0
 20
376.984732
 30
0.0
 11
480.0
 21
376.984732
 31
0.0
 13
456.485423
 23
476.984732
 33
0.0
 14
414.984892
 24
276.984732
 34
0.0
 50
90.0
  3
LC-DIM-L-0090-02-02
  0
INSERT
  8
0
  5
A1
  2
BLK1
 10
0.0
 20
0.0
 30
0.0
  0
DIMENSION
  8
0
  5
A2
  2
*D2
 10
380.484897
 20
240.0
 30
0.0
 11
380.484897
 21
240.0
 31
0.0
  1
DN70
 13
342.984901
 23
281.484732
 33
0.0
 14
417.984892
 24
281.484732
 34
0.0
  3
LC-DIM-L-0090-02-02
  0
DIMENSION
  8
0
  5
A3
  2
*D3
 10
532.0
 20
385.071158
 30
0.0
 11
532.0
 21
385.071158
 31
0.0
  1
216
 13
487.500729
 23
493.157583
 33
0.0
 14
414.984892
 24
276.984732
 34
0.0
 50
90.0
  3
LC-DIM-L-0090-02-02
  0
DIMENSION
  8
0
  5
A4
  2
*D4
 10
380.484901
 20
518.0
 30
0.0
 11
380.484901
 21
518.0
 31
0.0
  1
%%c<>
 13
265.484901
 23
494.942455
 33
0.0
 14
495.484902
 24
494.942455
 34
0.0
  3
LC-DIM-L-0090-02-02
  0
INSERT
  8
0
  5
A5
  2
BLK2
 10
0.0
 20
0.0
 30
0.0
  0
INSERT
  8
0
  5
A6
  2
BLK3
 10
0.0
 20
0.0
 30
0.0
  0
INSERT
  8
0
  5
A7
  2
BLK4
 10
0.0
 20
0.0
 30
0.0
  0
INSERT
  8
0
  5
A8
  2
BLK5
 10
0.0
 20
0.0
 30
0.0
  0
INSERT
  8
0
  5
A9
  2
BLK6
 10
0.0
 20
0.0
 30
0.0
  0
INSERT
  8
0
  5
AA
  2
BLK7
 10
0.0
 20
0.0
 30
0.0
  0
LINE
  8
LC-002-002-----0
  6
CONTINUOUS
  5
AC
 10
306.484412
 20
490.486113
 30
0.0
 11
306.484412
 21
491.985423
 31
0.0
  0
LINE
  8
LC-002-002-----0
  6
CONTINUOUS
  5
AD
 10
454.485391
 20
490.486113
 30
0.0
 11
454.485391
 21
491.985423
 31
0.0
  0
LINE
  8
LC-002-002-----0
  6
CONTINUOUS
  5
AE
 10
319.484789
 20
491.985509
 30
0.0
 11
319.484789
 21
494.985509
 31
0.0
  0
ARC
  8
LC-003-002-RND-0
  6
CONTINUOUS
  5
B0
 10
493.484902
 20
494.942455
 30
0.0
 40
2.0
 50
360.0
 51
91.898364
  0
LINE
  8
LC-002-002-----0
  6
CONTINUOUS
  5
B1
 10
275.199972
 20
496.687838
 30
0.0
 11
485.769831
 21
496.687838
 31
0.0
  0
ARC
  8
LC-003-002-RND-0
  6
CONTINUOUS
  5
B2
 10
267.484901
 20
494.942455
 30
0.0
 40
2.0
 50
88.101636
 51
180.0
  0
LINE
  8
LC-002-002-----0
  6
CONTINUOUS
  5
B3
 10
265.484901
 20
493.461312
 30
0.0
 11
265.484901
 21
494.942455
 31
0.0
  0
ARC
  8
LC-002-002-----0
  6
CONTINUOUS
  5
B4
 10
310.484412
 20
485.985433
 30
0.0
 40
10.0
 50
244.158193
 51
295.842059
  0
LINE
  8
LC-007-005-----0
  6
CONTINUOUS
  5
B6
 10
344.866983
 20
276.984732
 30
0.0
 11
345.984901
 21
278.10265
 31
0.0
  0
LINE
  8
LC-007-005-----0
  6
CONTINUOUS
  5
B7
 10
343.735877
 20
278.682053
 30
0.0
 11
345.984901
 21
280.931078
 31
0.0
  0
LINE
  8
LC-007-005-----0
  6
CONTINUOUS
  5
B8
 10
343.13816
 20
280.912763
 30
0.0
 11
345.984901
 21
283.759505
 31
0.0
  0
LINE
  8
LC-002-002-----0
  6
CONTINUOUS
  5
B9
 10
344.190673
 20
276.984732
 30
0.0
 11
342.984901
 21
281.484732
 31
0.0
  0
LINE
  8
LC-007-005-----0
  6
CONTINUOUS
  5
BA
 10
342.984901
 20
283.587932
 30
0.0
 11
345.984901
 21
286.587932
 31
0.0
  0
LINE
  8
LC-002-002-----0
  6
CONTINUOUS
  5
BB
 10
306.484412
 20
491.985423
 30
0.0
 11
307.984412
 21
491.985423
 31
0.0
  0
LINE
  8
LC-002-002-----0
  6
CONTINUOUS
  5
BC
 10
307.984412
 20
491.985423
 30
0.0
 11
312.984412
 21
491.985423
 31
0.0
  0
LINE
  8
LC-002-002-----0
  6
CONTINUOUS
  5
BD
 10
314.484412
 20
491.985423
 30
0.0
 11
314.484412
 21
490.486113
 31
0.0
  0
LINE
  8
LC-002-002-----0
  6
CONTINUOUS
  5
BE
 10
314.484412
 20
491.985423
 30
0.0
 11
312.984412
 21
491.985423
 31
0.0
  0
LINE
  8
LC-002-002-----0
  6
CONTINUOUS
  5
BF
 10
304.48438
 20
476.984732
 30
0.0
 11
306.12696
 21
476.984732
 31
0.0
  0
LINE
  8
LC-007-005-----0
  6
CONTINUOUS
  5
C0
 10
342.984901
 20
286.416359
 30
0.0
 11
345.984901
 21
289.416359
 31
0.0
  0
LINE
  8
LC-002-002-----0
  6
CONTINUOUS
  5
C1
 10
319.484789
 20
494.985509
 30
0.0
 11
317.484789
 21
494.985509
 31
0.0
  0
LINE
  8
LC-002-002-----0
  6
CONTINUOUS
  5
C2
 10
306.484412
 20
490.486113
 30
0.0
 11
305.773577
 21
490.486113
 31
0.0
  0
LINE
  8
LC-002-002-----0
  6
CONTINUOUS
  5
C3
 10
305.484901
 20
490.986113
 30
0.0
 11
306.484412
 21
490.986113
 31
0.0
  0
LINE
  8
LC-002-002-----0
  6
CONTINUOUS
  5
C4
 10
315.484901
 20
490.986113
 30
0.0
 11
314.484412
 21
490.986113
 31
0.0
  0
LINE
  8
LC-002-002-----0
  6
CONTINUOUS
  5
C5
 10
315.484901
 20
490.986113
 30
0.0
 11
316.484901
 21
490.986113
 31
0.0
  0
LINE
  8
LC-002-002-----0
  6
CONTINUOUS
  5
C6
 10
314.841864
 20
476.984732
 30
0.0
 11
328.484901
 21
476.984732
 31
0.0
  0
LINE
  8
LC-007-005-----0
  6
CONTINUOUS
  5
C7
 10
342.984901
 20
289.244786
 30
0.0
 11
345.984901
 21
292.244786
 31
0.0
  0
LINE
  8
LC-002-002-----0
  6
CONTINUOUS
  5
C8
 10
414.984901
 20
479.528229
 30
0.0
 11
345.984901
 21
479.527507
 31
0.0
  0
LINE
  8
LC-007-005-----0
  6
CONTINUOUS
  5
C9
 10
342.984901
 20
292.073213
 30
0.0
 11
345.984901
 21
295.073213
 31
0.0
  0
LINE
  8
LC-002-002-----0
  6
CONTINUOUS
  5
CA
 10
275.199972
 20
496.687838
 30
0.0
 11
267.551155
 21
496.941357
 31
0.0
  0
LINE
  8
LC-002-002-----0
  6
CONTINUOUS
  5
CB
 10
345.984901
 20
479.527507
 30
0.0
 11
328.40639
 21
479.987817
 31
0.0
  0
LINE
  8
LC-007-005-----0
  6
CONTINUOUS
  5
CC
 10
342.984901
 20
294.90164
 30
0.0
 11
345.984901
 21
297.90164
 31
0.0
  0
LINE
  8
LC-007-005-----0
  6
CONTINUOUS
  5
CD
 10
342.984901
 20
297.730067
 30
0.0
 11
345.984901
 21
300.730067
 31
0.0
  0
LINE
  8
LC-002-002-----0
  6
CONTINUOUS
  5
CE
 10
495.484902
 20
493.461312
 30
0.0
 11
495.484902
 21
494.942455
 31
0.0
  0
LINE
  8
LC-007-005-----0
  6
CONTINUOUS
  5
CF
 10
342.984901
 20
300.558495
 30
0.0
 11
345.984901
 21
303.558495
 31
0.0
  0
LINE
  8
LC-002-002-----0
  6
CONTINUOUS
  5
D0
 10
380.484901
 20
276.984732
 30
0.0
 11
414.984892
 21
276.984732
 31
0.0
  0
LINE
  8
LC-007-005-----0
  6
CONTINUOUS
  5
D1
 10
342.984901
 20
303.386922
 30
0.0
 11
345.984901
 21
306.386922
 31
0.0
  0
LINE
  8
LC-007-005-----0
  6
CONTINUOUS
  5
D2
 10
342.984901
 20
306.215349
 30
0.0
 11
345.984901
 21
309.215349
 31
0.0
  0
ARC
  8
LC-002-002-----0
  6
CONTINUOUS
  5
D3
 10
450.485391
 20
485.985433
 30
0.0
 40
10.0
 50
244.157941
 51
295.841807
  0
LINE
  8
LC-008-006-MLN-0
  6
DASHDOT
  5
D7
 10
380.484901
 20
507.9492
 30
0.0
 11
380.484901
 21
266.984732
 31
0.0
  0
LINE
  8
LC-002-002-----0
  6
CONTINUOUS
  5
D8
 10
295.484901
 20
490.486113
 30
0.0
 11
275.199972
 21
496.687838
 31
0.0
  0
LINE
  8
LC-007-005-----0
  6
CONTINUOUS
  5
D9
 10
342.984901
 20
309.043776
 30
0.0
 11
345.984901
 21
312.043776
 31
0.0
  0
LINE
  8
LC-007-005-----0
  6
CONTINUOUS
  5
DA
 10
342.984901
 20
311.872203
 30
0.0
 11
345.984901
 21
314.872203
 31
0.0
  0
LINE
  8
LC-002-002-----0
  6
CONTINUOUS
  5
DB
 10
295.035753
 20
486.93474
 30
0.0
 11
274.859251
 21
493.104699
 31
0.0
  0
LINE
  8
LC-007-005-----0
  6
CONTINUOUS
  5
DC
 10
342.984901
 20
314.70063
 30
0.0
 11
345.984901
 21
317.70063
 31
0.0
  0
LINE
  8
LC-002-002-----0
  6
CONTINUOUS
  5
DD
 10
440.485014
 20
479.986113
 30
0.0
 11
432.470808
 21
479.986113
 31
0.0
  0
LINE
  8
LC-007-005-----0
  6
CONTINUOUS
  5
DE
 10
342.984901
 20
317.529057
 30
0.0
 11
345.984901
 21
320.529057
 31
0.0
  0
LINE
  8
LC-007-005-----0
  6
CONTINUOUS
  5
DF
 10
342.984901
 20
320.357484
 30
0.0
 11
345.984901
 21
323.357484
 31
0.0
  0
LINE
  8
LC-007-005-----0
  6
CONTINUOUS
  5
E0
 10
342.984901
 20
323.185912
 30
0.0
 11
345.984901
 21
326.185912
 31
0.0
  0
LINE
  8
LC-002-002-----0
  6
CONTINUOUS
  5
E1
 10
274.859251
 20
493.104699
 30
0.0
 11
265.484901
 21
493.461312
 31
0.0
  0
LINE
  8
LC-007-005-----0
  6
CONTINUOUS
  5
E2
 10
342.984901
 20
326.014339
 30
0.0
 11
345.984901
 21
329.014339
 31
0.0
  0
LINE
  8
LC-002-002-----0
  6
CONTINUOUS
  5
E3
 10
454.485391
 20
491.985423
 30
0.0
 11
452.985391
 21
491.985423
 31
0.0
  0
LINE
  8
LC-007-005-----0
  6
CONTINUOUS
  5
E4
 10
342.984901
 20
328.842766
 30
0.0
 11
345.984901
 21
331.842766
 31
0.0
  0
LINE
  8
LC-007-005-----0
  6
CONTINUOUS
  5
E5
 10
342.984901
 20
331.671193
 30
0.0
 11
345.984901
 21
334.671193
 31
0.0
  0
LINE
  8
LC-002-002-----0
  6
CONTINUOUS
  5
E6
 10
380.484901
 20
276.984732
 30
0.0
 11
345.984901
 21
276.984732
 31
0.0
  0
LINE
  8
LC-002-002-----0
  6
CONTINUOUS
  5
E7
 10
486.110552
 20
493.104699
 30
0.0
 11
495.484902
 21
493.461312
 31
0.0
  0
LINE
  8
LC-002-002-----0
  6
CONTINUOUS
  5
E8
 10
465.93405
 20
486.93474
 30
0.0
 11
486.110552
 21
493.104699
 31
0.0
  0
LINE
  8
LC-007-005-----0
  6
CONTINUOUS
  5
E9
 10
342.984901
 20
334.49962
 30
0.0
 11
345.984901
 21
337.49962
 31
0.0
  0
LINE
  8
LC-007-005-----0
  6
CONTINUOUS
  5
EA
 10
342.984901
 20
337.328047
 30
0.0
 11
345.984901
 21
340.328047
 31
0.0
  0
LINE
  8
LC-002-002-----0
  6
CONTINUOUS
  5
EB
 10
465.484901
 20
490.486113
 30
0.0
 11
485.769831
 21
496.687838
 31
0.0
  0
LINE
  8
LC-002-002-----0
  6
CONTINUOUS
  5
EC
 10
485.769831
 20
496.687838
 30
0.0
 11
493.418767
 21
496.937717
 31
0.0
  0
LINE
  8
LC-002-002-----0
  6
CONTINUOUS
  5
ED
 10
452.985391
 20
491.985423
 30
0.0
 11
447.985391
 21
491.985423
 31
0.0
  0
LINE
  8
LC-007-005-----0
  6
CONTINUOUS
  5
EE
 10
342.984901
 20
340.156474
 30
0.0
 11
345.984901
 21
343.156474
 31
0.0
  0
LINE
  8
LC-002-002-----0
  6
CONTINUOUS
  5
EF
 10
414.984901
 20
479.528229
 30
0.0
 11
415.084901
 21
479.528229
 31
0.0
  0
LINE
  8
LC-002-002-----0
  6
CONTINUOUS
  5
F0
 10
417.984901
 20
476.605715
 30
0.0
 11
417.984901
 21
476.605689
 31
0.0
  0
LINE
  8
LC-007-005-----0
  6
CONTINUOUS
  5
F1
 10
342.984901
 20
342.984901
 30
0.0
 11
345.984901
 21
345.984901
 31
0.0
  0
LINE
  8
LC-002-002-----0
  6
CONTINUOUS
  5
F2
 10
342.984901
 20
476.605036
 30
0.0
 11
342.984901
 21
281.484732
 31
0.0
  0
LINE
  8
LC-002-002-----0
  6
CONTINUOUS
  5
F3
 10
417.984911
 20
476.605758
 30
0.0
 11
417.984892
 21
281.484732
 31
0.0
  0
LINE
  8
LC-002-002-----0
  6
CONTINUOUS
  5
F4
 10
345.984901
 20
479.527507
 30
0.0
 11
345.984901
 21
276.984732
 31
0.0
  0
LINE
  8
LC-002-002-----0
  6
CONTINUOUS
  5
F5
 10
414.984911
 20
479.525597
 30
0.0
 11
414.984892
 21
276.984732
 31
0.0
  0
LINE
  8
LC-002-002-----0
  6
CONTINUOUS
  5
F6
 10
416.779121
 20
276.984732
 30
0.0
 11
417.984892
 21
281.484732
 31
0.0
  0
LINE
  8
LC-007-005-----0
  6
CONTINUOUS
  5
F7
 10
342.984901
 20
345.813329
 30
0.0
 11
345.984901
 21
348.813329
 31
0.0
  0
LINE
  8
LC-007-005-----0
  6
CONTINUOUS
  5
F8
 10
415.577661
 20
276.984732
 30
0.0
 11
417.218885
 21
278.625956
 31
0.0
  0
LINE
  8
LC-007-005-----0
  6
CONTINUOUS
  5
F9
 10
414.984892
 20
279.22039
 30
0.0
 11
417.984892
 21
282.22039
 31
0.0
  0
LINE
  8
LC-002-002-----0
  6
CONTINUOUS
  5
FA
 10
320.484789
 20
491.985423
 30
0.0
 11
440.485014
 21
491.985423
 31
0.0
  0
LINE
  8
LC-007-005-----0
  6
CONTINUOUS
  5
FB
 10
342.984901
 20
348.641756
 30
0.0
 11
345.984901
 21
351.641756
 31
0.0
  0
LINE
  8
LC-007-005-----0
  6
CONTINUOUS
  5
FC
 10
342.984901
 20
351.470183
 30
0.0
 11
345.984901
 21
354.470183
 31
0.0
  0
LINE
  8
LC-007-005-----0
  6
CONTINUOUS
  5
FD
 10
342.984901
 20
354.29861
 30
0.0
 11
345.984901
 21
357.29861
 31
0.0
  0
LINE
  8
LC-002-002-----0
  6
CONTINUOUS
  5
FE
 10
328.40639
 20
479.987817
 30
0.0
 11
432.470808
 21
479.987817
 31
0.0
  0
LINE
  8
LC-002-002-----0
  6
CONTINUOUS
  5
FF
 10
446.485391
 20
491.985423
 30
0.0
 11
446.485391
 21
490.486113
 31
0.0
  0
LINE
  8
LC-002-002-----0
  6
CONTINUOUS
  5
100
 10
446.485391
 20
491.985423
 30
0.0
 11
447.985391
 21
491.985423
 31
0.0
  0
LINE
  8
LC-002-002-----0
  6
CONTINUOUS
  5
101
 10
456.485423
 20
476.984732
 30
0.0
 11
454.842843
 21
476.984732
 31
0.0
  0
LINE
  8
LC-002-002-----0
  6
CONTINUOUS
  5
102
 10
297.48438
 20
490.486113
 30
0.0
 11
304.484901
 21
490.486113
 31
0.0
  0
LINE
  8
LC-002-002-----0
  6
CONTINUOUS
  5
103
 10
316.484901
 20
491.986113
 30
0.0
 11
316.484901
 21
490.486113
 31
0.0
  0
LINE
  8
LC-002-002-----0
  6
CONTINUOUS
  5
104
 10
304.484901
 20
490.486113
 30
0.0
 11
304.484901
 21
486.986113
 31
0.0
  0
LINE
  8
LC-002-002-----0
  6
CONTINUOUS
  5
105
 10
345.984901
 20
276.984732
 30
0.0
 11
344.190673
 21
276.984732
 31
0.0
  0
LINE
  8
LC-002-002-----0
  6
CONTINUOUS
  5
106
 10
316.484901
 20
490.486113
 30
0.0
 11
315.773577
 21
490.486113
 31
0.0
  0
LINE
  8
LC-002-002-----0
  6
CONTINUOUS
  5
107
 10
414.984892
 20
276.984732
 30
0.0
 11
416.779121
 21
276.984732
 31
0.0
  0
LINE
  8
LC-002-002-----0
  6
CONTINUOUS
  5
108
 10
304.48438
 20
486.986113
 30
0.0
 11
297.48438
 21
486.986113
 31
0.0
  0
LINE
  8
LC-002-002-----0
  6
CONTINUOUS
  5
109
 10
297.48438
 20
486.986113
 30
0.0
 11
297.48438
 21
490.486113
 31
0.0
  0
LINE
  8
LC-002-002-----0
  6
CONTINUOUS
  5
10A
 10
304.48438
 20
484.486113
 30
0.0
 11
297.48438
 21
484.486113
 31
0.0
  0
LINE
  8
LC-002-002-----0
  6
CONTINUOUS
  5
10B
 10
297.48438
 20
484.486113
 30
0.0
 11
295.035753
 21
486.93474
 31
0.0
  0
LINE
  8
LC-007-005-----0
  6
CONTINUOUS
  5
10C
 10
342.984901
 20
357.127037
 30
0.0
 11
345.984901
 21
360.127037
 31
0.0
  0
LINE
  8
LC-007-005-----0
  6
CONTINUOUS
  5
10D
 10
342.984901
 20
359.955464
 30
0.0
 11
345.984901
 21
362.955464
 31
0.0
  0
LINE
  8
LC-007-005-----0
  6
CONTINUOUS
  5
10E
 10
342.984901
 20
362.783891
 30
0.0
 11
345.984901
 21
365.783891
 31
0.0
  0
LINE
  8
LC-007-005-----0
  6
CONTINUOUS
  5
10F
 10
342.984901
 20
365.612318
 30
0.0
 11
345.984901
 21
368.612318
 31
0.0
  0
LINE
  8
LC-007-005-----0
  6
CONTINUOUS
  5
110
 10
342.984901
 20
368.440746
 30
0.0
 11
345.984901
 21
371.440746
 31
0.0
  0
LINE
  8
LC-007-005-----0
  6
CONTINUOUS
  5
111
 10
342.984901
 20
371.269173
 30
0.0
 11
345.984901
 21
374.269173
 31
0.0
  0
LINE
  8
LC-007-005-----0
  6
CONTINUOUS
  5
112
 10
342.984901
 20
374.0976
 30
0.0
 11
345.984901
 21
377.0976
 31
0.0
  0
LINE
  8
LC-007-005-----0
  6
CONTINUOUS
  5
113
 10
342.984901
 20
376.926027
 30
0.0
 11
345.984901
 21
379.926027
 31
0.0
  0
LINE
  8
LC-007-005-----0
  6
CONTINUOUS
  5
114
 10
342.984901
 20
379.754454
 30
0.0
 11
345.984901
 21
382.754454
 31
0.0
  0
LINE
  8
LC-007-005-----0
  6
CONTINUOUS
  5
115
 10
342.984901
 20
382.582881
 30
0.0
 11
345.984901
 21
385.582881
 31
0.0
  0
LINE
  8
LC-007-005-----0
  6
CONTINUOUS
  5
116
 10
342.984901
 20
385.411308
 30
0.0
 11
345.984901
 21
388.411308
 31
0.0
  0
LINE
  8
LC-007-005-----0
  6
CONTINUOUS
  5
117
 10
342.984901
 20
388.239735
 30
0.0
 11
345.984901
 21
391.239735
 31
0.0
  0
LINE
  8
LC-007-005-----0
  6
CONTINUOUS
  5
118
 10
342.984901
 20
391.068163
 30
0.0
 11
345.984901
 21
394.068163
 31
0.0
  0
LINE
  8
LC-007-005-----0
  6
CONTINUOUS
  5
119
 10
342.984901
 20
393.89659
 30
0.0
 11
345.984901
 21
396.89659
 31
0.0
  0
LINE
  8
LC-007-005-----0
  6
CONTINUOUS
  5
11A
 10
342.984901
 20
396.725017
 30
0.0
 11
345.984901
 21
399.725017
 31
0.0
  0
LINE
  8
LC-007-005-----0
  6
CONTINUOUS
  5
11B
 10
342.984901
 20
399.553444
 30
0.0
 11
345.984901
 21
402.553444
 31
0.0
  0
LINE
  8
LC-007-005-----0
  6
CONTINUOUS
  5
11C
 10
342.984901
 20
402.381871
 30
0.0
 11
345.984901
 21
405.381871
 31
0.0
  0
LINE
  8
LC-007-005-----0
  6
CONTINUOUS
  5
11D
 10
342.984901
 20
405.210298
 30
0.0
 11
345.984901
 21
408.210298
 31
0.0
  0
LINE
  8
LC-007-005-----0
  6
CONTINUOUS
  5
11E
 10
342.984901
 20
408.038725
 30
0.0
 11
345.984901
 21
411.038725
 31
0.0
  0
LINE
  8
LC-007-005-----0
  6
CONTINUOUS
  5
11F
 10
342.984901
 20
410.867152
 30
0.0
 11
345.984901
 21
413.867152
 31
0.0
  0
LINE
  8
LC-007-005-----0
  6
CONTINUOUS
  5
120
 10
342.984901
 20
413.69558
 30
0.0
 11
345.984901
 21
416.69558
 31
0.0
  0
LINE
  8
LC-007-005-----0
  6
CONTINUOUS
  5
121
 10
342.984901
 20
416.524007
 30
0.0
 11
345.984901
 21
419.524007
 31
0.0
  0
LINE
  8
LC-007-005-----0
  6
CONTINUOUS
  5
122
 10
342.984901
 20
419.352434
 30
0.0
 11
345.984901
 21
422.352434
 31
0.0
  0
LINE
  8
LC-007-005-----0
  6
CONTINUOUS
  5
123
 10
342.984901
 20
422.180861
 30
0.0
 11
345.984901
 21
425.180861
 31
0.0
  0
LINE
  8
LC-007-005-----0
  6
CONTINUOUS
  5
124
 10
342.984901
 20
425.009288
 30
0.0
 11
345.984901
 21
428.009288
 31
0.0
  0
LINE
  8
LC-007-005-----0
  6
CONTINUOUS
  5
125
 10
342.984901
 20
427.837715
 30
0.0
 11
345.984901
 21
430.837715
 31
0.0
  0
LINE
  8
LC-007-005-----0
  6
CONTINUOUS
  5
126
 10
342.984901
 20
430.666142
 30
0.0
 11
345.984901
 21
433.666142
 31
0.0
  0
LINE
  8
LC-007-005-----0
  6
CONTINUOUS
  5
127
 10
342.984901
 20
433.494569
 30
0.0
 11
345.984901
 21
436.494569
 31
0.0
  0
LINE
  8
LC-007-005-----0
  6
CONTINUOUS
  5
128
 10
342.984901
 20
436.322997
 30
0.0
 11
345.984901
 21
439.322997
 31
0.0
  0
LINE
  8
LC-007-005-----0
  6
CONTINUOUS
  5
129
 10
342.984901
 20
439.151424
 30
0.0
 11
345.984901
 21
442.151424
 31
0.0
  0
LINE
  8
LC-007-005-----0
  6
CONTINUOUS
  5
12A
 10
342.984901
 20
441.979851
 30
0.0
 11
345.984901
 21
444.979851
 31
0.0
  0
LINE
  8
LC-007-005-----0
  6
CONTINUOUS
  5
12B
 10
342.984901
 20
444.808278
 30
0.0
 11
345.984901
 21
447.808278
 31
0.0
  0
LINE
  8
LC-007-005-----0
  6
CONTINUOUS
  5
12C
 10
342.984901
 20
447.636705
 30
0.0
 11
345.984901
 21
450.636705
 31
0.0
  0
LINE
  8
LC-007-005-----0
  6
CONTINUOUS
  5
12D
 10
342.984901
 20
450.465132
 30
0.0
 11
345.984901
 21
453.465132
 31
0.0
  0
LINE
  8
LC-007-005-----0
  6
CONTINUOUS
  5
12E
 10
342.984901
 20
453.293559
 30
0.0
 11
345.984901
 21
456.293559
 31
0.0
  0
LINE
  8
LC-007-005-----0
  6
CONTINUOUS
  5
12F
 10
342.984901
 20
456.121986
 30
0.0
 11
345.984901
 21
459.121986
 31
0.0
  0
LINE
  8
LC-007-005-----0
  6
CONTINUOUS
  5
130
 10
342.984901
 20
458.950414
 30
0.0
 11
345.984901
 21
461.950414
 31
0.0
  0
LINE
  8
LC-007-005-----0
  6
CONTINUOUS
  5
131
 10
342.984901
 20
461.778841
 30
0.0
 11
345.984901
 21
464.778841
 31
0.0
  0
LINE
  8
LC-007-005-----0
  6
CONTINUOUS
  5
132
 10
342.984901
 20
464.607268
 30
0.0
 11
345.984901
 21
467.607268
 31
0.0
  0
LINE
  8
LC-007-005-----0
  6
CONTINUOUS
  5
133
 10
342.984901
 20
467.435695
 30
0.0
 11
345.984901
 21
470.435695
 31
0.0
  0
LINE
  8
LC-007-005-----0
  6
CONTINUOUS
  5
134
 10
342.984901
 20
470.264122
 30
0.0
 11
345.984901
 21
473.264122
 31
0.0
  0
LINE
  8
LC-007-005-----0
  6
CONTINUOUS
  5
135
 10
342.984901
 20
473.092549
 30
0.0
 11
345.984901
 21
476.092549
 31
0.0
  0
LINE
  8
LC-007-005-----0
  6
CONTINUOUS
  5
136
 10
342.984901
 20
475.920976
 30
0.0
 11
345.984901
 21
478.920976
 31
0.0
  0
LINE
  8
LC-007-005-----0
  6
CONTINUOUS
  5
137
 10
340.86908
 20
476.633582
 30
0.0
 11
340.869134
 21
476.633636
 31
0.0
  0
LINE
  8
LC-007-005-----0
  6
CONTINUOUS
  5
138
 10
340.895254
 20
476.659756
 30
0.0
 11
343.819703
 21
479.584205
 31
0.0
  0
LINE
  8
LC-007-005-----0
  6
CONTINUOUS
  5
139
 10
338.078305
 20
476.671234
 30
0.0
 11
338.078431
 21
476.67136
 31
0.0
  0
LINE
  8
LC-007-005-----0
  6
CONTINUOUS
  5
13A
 10
338.139002
 20
476.731931
 30
0.0
 11
341.063451
 21
479.65638
 31
0.0
  0
LINE
  8
LC-007-005-----0
  6
CONTINUOUS
  5
13B
 10
335.28753
 20
476.708887
 30
0.0
 11
335.287727
 21
476.709084
 31
0.0
  0
LINE
  8
LC-007-005-----0
  6
CONTINUOUS
  5
13C
 10
335.38275
 20
476.804106
 30
0.0
 11
338.307199
 21
479.728555
 31
0.0
  0
LINE
  8
LC-007-005-----0
  6
CONTINUOUS
  5
13D
 10
332.496755
 20
476.746539
 30
0.0
 11
332.497024
 21
476.746807
 31
0.0
  0
LINE
  8
LC-007-005-----0
  6
CONTINUOUS
  5
13E
 10
332.626497
 20
476.876281
 30
0.0
 11
335.550946
 21
479.80073
 31
0.0
  0
LINE
  8
LC-007-005-----0
  6
CONTINUOUS
  5
13F
 10
329.70598
 20
476.784191
 30
0.0
 11
329.70632
 21
476.784531
 31
0.0
  0
LINE
  8
LC-007-005-----0
  6
CONTINUOUS
  5
140
 10
329.870245
 20
476.948456
 30
0.0
 11
332.794694
 21
479.872905
 31
0.0
  0
LINE
  8
LC-007-005-----0
  6
CONTINUOUS
  5
141
 10
326.915205
 20
476.821843
 30
0.0
 11
326.915617
 21
476.822254
 31
0.0
  0
LINE
  8
LC-007-005-----0
  6
CONTINUOUS
  5
142
 10
327.078095
 20
476.984732
 30
0.0
 11
330.038442
 21
479.94508
 31
0.0
  0
LINE
  8
LC-007-005-----0
  6
CONTINUOUS
  5
143
 10
324.12443
 20
476.859495
 30
0.0
 11
324.124913
 21
476.859978
 31
0.0
  0
LINE
  8
LC-007-005-----0
  6
CONTINUOUS
  5
144
 10
324.249668
 20
476.984732
 30
0.0
 11
327.252504
 21
479.987568
 31
0.0
  0
LINE
  8
LC-007-005-----0
  6
CONTINUOUS
  5
145
 10
321.333655
 20
476.897147
 30
0.0
 11
321.33421
 21
476.897701
 31
0.0
  0
LINE
  8
LC-007-005-----0
  6
CONTINUOUS
  5
146
 10
321.42124
 20
476.984732
 30
0.0
 11
324.423468
 21
479.98696
 31
0.0
  0
LINE
  8
LC-007-005-----0
  6
CONTINUOUS
  5
147
 10
318.54288
 20
476.934799
 30
0.0
 11
318.543506
 21
476.935425
 31
0.0
  0
LINE
  8
LC-007-005-----0
  6
CONTINUOUS
  5
148
 10
318.592813
 20
476.984732
 30
0.0
 11
321.594433
 21
479.986352
 31
0.0
  0
LINE
  8
LC-007-005-----0
  6
CONTINUOUS
  5
149
 10
315.752106
 20
476.972452
 30
0.0
 11
315.752802
 21
476.973149
 31
0.0
  0
LINE
  8
LC-007-005-----0
  6
CONTINUOUS
  5
14A
 10
315.764386
 20
476.984732
 30
0.0
 11
320.484789
 21
481.705135
 31
0.0
  0
LINE
  8
LC-007-005-----0
  6
CONTINUOUS
  5
14B
 10
312.061861
 20
476.110634
 30
0.0
 11
320.484789
 21
484.533563
 31
0.0
  0
LINE
  8
LC-007-005-----0
  6
CONTINUOUS
  5
14C
 10
309.192089
 20
476.069289
 30
0.0
 11
310.608222
 21
477.485423
 31
0.0
  0
LINE
  8
LC-007-005-----0
  6
CONTINUOUS
  5
14D
 10
312.984412
 20
479.861612
 30
0.0
 11
320.484789
 21
487.36199
 31
0.0
  0
LINE
  8
LC-007-005-----0
  6
CONTINUOUS
  5
14E
 10
306.932043
 20
476.63767
 30
0.0
 11
307.984412
 21
477.69004
 31
0.0
  0
LINE
  8
LC-007-005-----0
  6
CONTINUOUS
  5
14F
 10
312.984412
 20
482.69004
 30
0.0
 11
320.484789
 21
490.190417
 31
0.0
  0
LINE
  8
LC-007-005-----0
  6
CONTINUOUS
  5
150
 10
304.48438
 20
477.018434
 30
0.0
 11
307.984412
 21
480.518467
 31
0.0
  0
LINE
  8
LC-007-005-----0
  6
CONTINUOUS
  5
151
 10
312.984412
 20
485.518467
 30
0.0
 11
319.451446
 21
491.985501
 31
0.0
  0
LINE
  8
LC-007-005-----0
  6
CONTINUOUS
  5
152
 10
319.452058
 20
491.986113
 30
0.0
 11
319.484789
 21
492.018844
 31
0.0
  0
LINE
  8
LC-007-005-----0
  6
CONTINUOUS
  5
153
 10
304.48438
 20
479.846861
 30
0.0
 11
307.984412
 21
483.346894
 31
0.0
  0
LINE
  8
LC-007-005-----0
  6
CONTINUOUS
  5
154
 10
312.984412
 20
488.346894
 30
0.0
 11
315.123631
 21
490.486113
 31
0.0
  0
LINE
  8
LC-007-005-----0
  6
CONTINUOUS
  5
155
 10
315.295393
 20
490.657875
 30
0.0
 11
315.53568
 21
490.898162
 31
0.0
  0
LINE
  8
LC-007-005-----0
  6
CONTINUOUS
  5
156
 10
316.484901
 20
491.847383
 30
0.0
 11
316.623631
 21
491.986113
 31
0.0
  0
LINE
  8
LC-002-002-----0
  6
CONTINUOUS
  5
157
 10
317.484789
 20
491.985048
 30
0.0
 11
317.484789
 21
494.985509
 31
0.0
  0
LINE
  8
LC-007-005-----0
  6
CONTINUOUS
  5
158
 10
317.484789
 20
492.847271
 30
0.0
 11
319.484789
 21
494.847271
 31
0.0
  0
LINE
  8
LC-002-002-----0
  6
CONTINUOUS
  5
159
 10
319.484789
 20
491.986113
 30
0.0
 11
320.484789
 21
491.986113
 31
0.0
  0
LINE
  8
LC-007-005-----0
  6
CONTINUOUS
  5
15A
 10
304.48438
 20
482.675289
 30
0.0
 11
307.984412
 21
486.175321
 31
0.0
  0
LINE
  8
LC-007-005-----0
  6
CONTINUOUS
  5
15B
 10
312.984412
 20
491.175321
 30
0.0
 11
313.794514
 21
491.985423
 31
0.0
  0
LINE
  8
LC-002-002-----0
  6
CONTINUOUS
  5
15C
 10
408.535425
 20
491.985423
 30
0.0
 11
408.535425
 21
494.985423
 31
0.0
  0
LINE
  8
LC-002-002-----0
  6
CONTINUOUS
  5
15D
 10
408.535425
 20
494.985423
 30
0.0
 11
413.484915
 21
494.985423
 31
0.0
  0
LINE
  8
LC-007-005-----0
  6
CONTINUOUS
  5
15E
 10
303.466777
 20
484.486113
 30
0.0
 11
307.984412
 21
489.003748
 31
0.0
  0
LINE
  8
LC-007-005-----0
  6
CONTINUOUS
  5
15F
 10
300.63835
 20
484.486113
 30
0.0
 11
303.13835
 21
486.986113
 31
0.0
  0
LINE
  8
LC-007-005-----0
  6
CONTINUOUS
  5
160
 10
304.484901
 20
488.332665
 30
0.0
 11
307.984412
 21
491.832175
 31
0.0
  0
LINE
  8
LC-007-005-----0
  6
CONTINUOUS
  5
161
 10
297.809923
 20
484.486113
 30
0.0
 11
300.309923
 21
486.986113
 31
0.0
  0
LINE
  8
LC-007-005-----0
  6
CONTINUOUS
  5
162
 10
296.232938
 20
485.737555
 30
0.0
 11
297.48438
 21
486.988997
 31
0.0
  0
LINE
  8
LC-007-005-----0
  6
CONTINUOUS
  5
163
 10
294.703346
 20
487.03639
 30
0.0
 11
297.48438
 21
489.817424
 31
0.0
  0
LINE
  8
LC-007-005-----0
  6
CONTINUOUS
  5
164
 10
292.537295
 20
487.698767
 30
0.0
 11
295.362166
 21
490.523637
 31
0.0
  0
LINE
  8
LC-007-005-----0
  6
CONTINUOUS
  5
165
 10
290.371244
 20
488.361143
 30
0.0
 11
293.196001
 21
491.1859
 31
0.0
  0
LINE
  8
LC-007-005-----0
  6
CONTINUOUS
  5
166
 10
288.205194
 20
489.02352
 30
0.0
 11
291.029837
 21
491.848163
 31
0.0
  0
LINE
  8
LC-007-005-----0
  6
CONTINUOUS
  5
167
 10
286.039143
 20
489.685896
 30
0.0
 11
288.863673
 21
492.510426
 31
0.0
  0
LINE
  8
LC-007-005-----0
  6
CONTINUOUS
  5
168
 10
283.873093
 20
490.348273
 30
0.0
 11
286.697509
 21
493.172689
 31
0.0
  0
LINE
  8
LC-007-005-----0
  6
CONTINUOUS
  5
169
 10
281.707042
 20
491.010649
 30
0.0
 11
284.531344
 21
493.834952
 31
0.0
  0
LINE
  8
LC-007-005-----0
  6
CONTINUOUS
  5
16A
 10
279.540992
 20
491.673026
 30
0.0
 11
282.36518
 21
494.497214
 31
0.0
  0
LINE
  8
LC-007-005-----0
  6
CONTINUOUS
  5
16B
 10
277.374941
 20
492.335403
 30
0.0
 11
280.199016
 21
495.159477
 31
0.0
  0
LINE
  8
LC-007-005-----0
  6
CONTINUOUS
  5
16C
 10
275.208891
 20
492.997779
 30
0.0
 11
278.032852
 21
495.82174
 31
0.0
  0
LINE
  8
LC-007-005-----0
  6
CONTINUOUS
  5
16D
 10
272.574305
 20
493.191621
 30
0.0
 11
275.866687
 21
496.484003
 31
0.0
  0
LINE
  8
LC-007-005-----0
  6
CONTINUOUS
  5
16E
 10
269.849532
 20
493.295275
 30
0.0
 11
273.304907
 21
496.75065
 31
0.0
  0
LINE
  8
LC-007-005-----0
  6
CONTINUOUS
  5
16F
 10
267.124759
 20
493.398929
 30
0.0
 11
270.56722
 21
496.84139
 31
0.0
  0
LINE
  8
LC-007-005-----0
  6
CONTINUOUS
  5
170
 10
265.484901
 20
494.587499
 30
0.0
 11
267.829533
 21
496.93213
 31
0.0
  0
LINE
  8
LC-007-005-----0
  6
CONTINUOUS
  5
171
 10
414.984892
 20
282.048817
 30
0.0
 11
417.984892
 21
285.048817
 31
0.0
  0
LINE
  8
LC-007-005-----0
  6
CONTINUOUS
  5
172
 10
414.984892
 20
284.877245
 30
0.0
 11
417.984892
 21
287.877245
 31
0.0
  0
LINE
  8
LC-007-005-----0
  6
CONTINUOUS
  5
173
 10
414.984892
 20
287.705672
 30
0.0
 11
417.984892
 21
290.705672
 31
0.0
  0
LINE
  8
LC-007-005-----0
  6
CONTINUOUS
  5
174
 10
414.984893
 20
290.534099
 30
0.0
 11
417.984893
 21
293.534099
 31
0.0
  0
LINE
  8
LC-007-005-----0
  6
CONTINUOUS
  5
175
 10
414.984893
 20
293.362526
 30
0.0
 11
417.984893
 21
296.362526
 31
0.0
  0
LINE
  8
LC-007-005-----0
  6
CONTINUOUS
  5
176
 10
414.984893
 20
296.190954
 30
0.0
 11
417.984893
 21
299.190954
 31
0.0
  0
LINE
  8
LC-007-005-----0
  6
CONTINUOUS
  5
177
 10
414.984893
 20
299.019381
 30
0.0
 11
417.984893
 21
302.019381
 31
0.0
  0
LINE
  8
LC-007-005-----0
  6
CONTINUOUS
  5
178
 10
414.984893
 20
301.847808
 30
0.0
 11
417.984893
 21
304.847808
 31
0.0
  0
LINE
  8
LC-007-005-----0
  6
CONTINUOUS
  5
179
 10
414.984893
 20
304.676235
 30
0.0
 11
417.984893
 21
307.676235
 31
0.0
  0
LINE
  8
LC-007-005-----0
  6
CONTINUOUS
  5
17A
 10
414.984893
 20
307.504663
 30
0.0
 11
417.984893
 21
310.504663
 31
0.0
  0
LINE
  8
LC-007-005-----0
  6
CONTINUOUS
  5
17B
 10
414.984894
 20
310.33309
 30
0.0
 11
417.984894
 21
313.33309
 31
0.0
  0
LINE
  8
LC-007-005-----0
  6
CONTINUOUS
  5
17C
 10
414.984894
 20
313.161517
 30
0.0
 11
417.984894
 21
316.161517
 31
0.0
  0
LINE
  8
LC-007-005-----0
  6
CONTINUOUS
  5
17D
 10
414.984894
 20
315.989944
 30
0.0
 11
417.984894
 21
318.989944
 31
0.0
  0
LINE
  8
LC-007-005-----0
  6
CONTINUOUS
  5
17E
 10
414.984894
 20
318.818372
 30
0.0
 11
417.984894
 21
321.818372
 31
0.0
  0
LINE
  8
LC-007-005-----0
  6
CONTINUOUS
  5
17F
 10
414.984894
 20
321.646799
 30
0.0
 11
417.984894
 21
324.646799
 31
0.0
  0
LINE
  8
LC-007-005-----0
  6
CONTINUOUS
  5
180
 10
414.984894
 20
324.475226
 30
0.0
 11
417.984894
 21
327.475226
 31
0.0
  0
LINE
  8
LC-007-005-----0
  6
CONTINUOUS
  5
181
 10
414.984894
 20
327.303653
 30
0.0
 11
417.984894
 21
330.303653
 31
0.0
  0
LINE
  8
LC-007-005-----0
  6
CONTINUOUS
  5
182
 10
414.984894
 20
330.132081
 30
0.0
 11
417.984894
 21
333.132081
 31
0.0
  0
LINE
  8
LC-002-002-----0
  6
CONTINUOUS
  5
183
 10
413.484915
 20
494.985423
 30
0.0
 11
413.484915
 21
491.985423
 31
0.0
  0
LINE
  8
LC-007-005-----0
  6
CONTINUOUS
  5
184
 10
414.984895
 20
332.960508
 30
0.0
 11
417.984895
 21
335.960508
 31
0.0
  0
LINE
  8
LC-007-005-----0
  6
CONTINUOUS
  5
185
 10
414.984895
 20
335.788935
 30
0.0
 11
417.984895
 21
338.788935
 31
0.0
  0
LINE
  8
LC-007-005-----0
  6
CONTINUOUS
  5
186
 10
414.984895
 20
338.617362
 30
0.0
 11
417.984895
 21
341.617363
 31
0.0
  0
LINE
  8
LC-007-005-----0
  6
CONTINUOUS
  5
187
 10
414.984895
 20
341.44579
 30
0.0
 11
417.984895
 21
344.44579
 31
0.0
  0
LINE
  8
LC-007-005-----0
  6
CONTINUOUS
  5
188
 10
414.984895
 20
344.274217
 30
0.0
 11
417.984895
 21
347.274217
 31
0.0
  0
LINE
  8
LC-007-005-----0
  6
CONTINUOUS
  5
189
 10
414.984895
 20
347.102644
 30
0.0
 11
417.984895
 21
350.102644
 31
0.0
  0
LINE
  8
LC-007-005-----0
  6
CONTINUOUS
  5
18A
 10
414.984895
 20
349.931072
 30
0.0
 11
417.984895
 21
352.931072
 31
0.0
  0
LINE
  8
LC-007-005-----0
  6
CONTINUOUS
  5
18B
 10
414.984896
 20
352.759499
 30
0.0
 11
417.984896
 21
355.759499
 31
0.0
  0
LINE
  8
LC-007-005-----0
  6
CONTINUOUS
  5
18C
 10
414.984896
 20
355.587926
 30
0.0
 11
417.984896
 21
358.587926
 31
0.0
  0
LINE
  8
LC-007-005-----0
  6
CONTINUOUS
  5
18D
 10
414.984896
 20
358.416353
 30
0.0
 11
417.984896
 21
361.416353
 31
0.0
  0
LINE
  8
LC-007-005-----0
  6
CONTINUOUS
  5
18E
 10
414.984896
 20
361.244781
 30
0.0
 11
417.984896
 21
364.244781
 31
0.0
  0
LINE
  8
LC-007-005-----0
  6
CONTINUOUS
  5
18F
 10
414.984896
 20
364.073208
 30
0.0
 11
417.984896
 21
367.073208
 31
0.0
  0
LINE
  8
LC-007-005-----0
  6
CONTINUOUS
  5
190
 10
414.984896
 20
366.901635
 30
0.0
 11
417.984896
 21
369.901635
 31
0.0
  0
LINE
  8
LC-007-005-----0
  6
CONTINUOUS
  5
191
 10
414.984896
 20
369.730062
 30
0.0
 11
417.984896
 21
372.730062
 31
0.0
  0
LINE
  8
LC-007-005-----0
  6
CONTINUOUS
  5
192
 10
414.984896
 20
372.55849
 30
0.0
 11
417.984897
 21
375.55849
 31
0.0
  0
LINE
  8
LC-007-005-----0
  6
CONTINUOUS
  5
193
 10
414.984897
 20
375.386917
 30
0.0
 11
417.984897
 21
378.386917
 31
0.0
  0
LINE
  8
LC-007-005-----0
  6
CONTINUOUS
  5
194
 10
414.984897
 20
378.215344
 30
0.0
 11
417.984897
 21
381.215344
 31
0.0
  0
LINE
  8
LC-007-005-----0
  6
CONTINUOUS
  5
195
 10
414.984897
 20
381.043771
 30
0.0
 11
417.984897
 21
384.043771
 31
0.0
  0
LINE
  8
LC-007-005-----0
  6
CONTINUOUS
  5
196
 10
414.984897
 20
383.872199
 30
0.0
 11
417.984897
 21
386.872199
 31
0.0
  0
LINE
  8
LC-007-005-----0
  6
CONTINUOUS
  5
197
 10
414.984897
 20
386.700626
 30
0.0
 11
417.984897
 21
389.700626
 31
0.0
  0
LINE
  8
LC-007-005-----0
  6
CONTINUOUS
  5
198
 10
414.984897
 20
389.529053
 30
0.0
 11
417.984897
 21
392.529053
 31
0.0
  0
LINE
  8
LC-007-005-----0
  6
CONTINUOUS
  5
199
 10
414.984897
 20
392.35748
 30
0.0
 11
417.984898
 21
395.357481
 31
0.0
  0
LINE
  8
LC-002-002-----0
  6
CONTINUOUS
  5
19A
 10
315.773577
 20
490.486113
 30
0.0
 11
315.484901
 21
490.986113
 31
0.0
  0
LINE
  8
LC-002-002-----0
  6
CONTINUOUS
  5
19B
 10
315.484901
 20
490.986113
 30
0.0
 11
315.196226
 21
490.486113
 31
0.0
  0
LINE
  8
LC-007-005-----0
  6
CONTINUOUS
  5
19C
 10
414.984898
 20
395.185908
 30
0.0
 11
417.984898
 21
398.185908
 31
0.0
  0
LINE
  8
LC-002-002-----0
  6
CONTINUOUS
  5
19D
 10
315.196226
 20
490.486113
 30
0.0
 11
314.484412
 21
490.486113
 31
0.0
  0
LINE
  8
LC-002-002-----0
  6
CONTINUOUS
  5
19E
 10
305.484901
 20
490.986113
 30
0.0
 11
305.196226
 21
490.486113
 31
0.0
  0
LINE
  8
LC-002-002-----0
  6
CONTINUOUS
  5
19F
 10
305.773577
 20
490.486113
 30
0.0
 11
305.484901
 21
490.986113
 31
0.0
  0
LINE
  8
LC-002-002-----0
  6
CONTINUOUS
  5
1A0
 10
305.196226
 20
490.486113
 30
0.0
 11
304.484901
 21
490.486113
 31
0.0
  0
LINE
  8
LC-002-002-----0
  6
CONTINUOUS
  5
1A1
 10
454.485391
 20
490.486113
 30
0.0
 11
455.196226
 21
490.486113
 31
0.0
  0
LINE
  8
LC-002-002-----0
  6
CONTINUOUS
  5
1A2
 10
307.984412
 20
477.485423
 30
0.0
 11
312.984412
 21
477.485423
 31
0.0
  0
LINE
  8
LC-007-005-----0
  6
CONTINUOUS
  5
1A3
 10
414.984898
 20
398.014335
 30
0.0
 11
417.984898
 21
401.014335
 31
0.0
  0
LINE
  8
LC-002-002-----0
  6
CONTINUOUS
  5
1A4
 10
455.484901
 20
490.986113
 30
0.0
 11
454.485391
 21
490.986113
 31
0.0
  0
LINE
  8
LC-002-002-----0
  6
CONTINUOUS
  5
1A5
 10
445.484901
 20
490.986113
 30
0.0
 11
446.485391
 21
490.986113
 31
0.0
  0
LINE
  8
LC-002-002-----0
  6
CONTINUOUS
  5
1A6
 10
445.484901
 20
490.986113
 30
0.0
 11
444.484901
 21
490.986113
 31
0.0
  0
LINE
  8
LC-007-005-----0
  6
CONTINUOUS
  5
1A7
 10
414.984898
 20
400.842762
 30
0.0
 11
417.984898
 21
403.842762
 31
0.0
  0
LINE
  8
LC-002-002-----0
  6
CONTINUOUS
  5
1A8
 10
463.485423
 20
490.486113
 30
0.0
 11
456.484901
 21
490.486113
 31
0.0
  0
LINE
  8
LC-002-002-----0
  6
CONTINUOUS
  5
1A9
 10
417.984901
 20
476.605715
 30
0.0
 11
417.984901
 21
476.605715
 31
0.0
  0
LINE
  8
LC-002-002-----0
  6
CONTINUOUS
  5
1AA
 10
414.984901
 20
479.528229
 30
0.0
 11
415.084901
 21
479.528229
 31
0.0
  0
LINE
  8
LC-002-002-----0
  6
CONTINUOUS
  5
1AB
 10
444.484901
 20
491.986113
 30
0.0
 11
444.484901
 21
490.486113
 31
0.0
  0
LINE
  8
LC-002-002-----0
  6
CONTINUOUS
  5
1AC
 10
456.484901
 20
490.486113
 30
0.0
 11
456.484901
 21
486.986113
 31
0.0
  0
LINE
  8
LC-002-002-----0
  6
CONTINUOUS
  5
1AD
 10
444.484901
 20
490.486113
 30
0.0
 11
445.196226
 21
490.486113
 31
0.0
  0
LINE
  8
LC-002-002-----0
  6
CONTINUOUS
  5
1AE
 10
456.485423
 20
486.986113
 30
0.0
 11
463.485423
 21
486.986113
 31
0.0
  0
LINE
  8
LC-002-002-----0
  6
CONTINUOUS
  5
1AF
 10
463.485423
 20
486.986113
 30
0.0
 11
463.485423
 21
490.486113
 31
0.0
  0
LINE
  8
LC-002-002-----0
  6
CONTINUOUS
  5
1B0
 10
456.485423
 20
484.486113
 30
0.0
 11
463.485423
 21
484.486113
 31
0.0
  0
LINE
  8
LC-002-002-----0
  6
CONTINUOUS
  5
1B1
 10
463.485423
 20
484.486113
 30
0.0
 11
465.93405
 21
486.93474
 31
0.0
  0
LINE
  8
LC-007-005-----0
  6
CONTINUOUS
  5
1B2
 10
414.984898
 20
403.671189
 30
0.0
 11
417.984898
 21
406.67119
 31
0.0
  0
LINE
  8
LC-002-002-----0
  6
CONTINUOUS
  5
1B3
 10
441.485014
 20
491.986113
 30
0.0
 11
440.485014
 21
491.986113
 31
0.0
  0
LINE
  8
LC-007-005-----0
  6
CONTINUOUS
  5
1B4
 10
414.984898
 20
406.499617
 30
0.0
 11
417.984898
 21
409.499617
 31
0.0
  0
LINE
  8
LC-007-005-----0
  6
CONTINUOUS
  5
1B5
 10
414.984898
 20
409.328044
 30
0.0
 11
417.984898
 21
412.328044
 31
0.0
  0
LINE
  8
LC-007-005-----0
  6
CONTINUOUS
  5
1B6
 10
414.984898
 20
412.156471
 30
0.0
 11
417.984898
 21
415.156471
 31
0.0
  0
LINE
  8
LC-007-005-----0
  6
CONTINUOUS
  5
1B7
 10
414.984898
 20
414.984898
 30
0.0
 11
417.984899
 21
417.984899
 31
0.0
  0
LINE
  8
LC-007-005-----0
  6
CONTINUOUS
  5
1B8
 10
493.381287
 20
493.381287
 30
0.0
 11
495.425654
 21
495.425654
 31
0.0
  0
LINE
  8
LC-007-005-----0
  6
CONTINUOUS
  5
1B9
 10
414.984899
 20
417.813326
 30
0.0
 11
417.984899
 21
420.813326
 31
0.0
  0
LINE
  8
LC-007-005-----0
  6
CONTINUOUS
  5
1BA
 10
490.441008
 20
493.269435
 30
0.0
 11
494.136731
 21
496.965158
 31
0.0
  0
LINE
  8
LC-007-005-----0
  6
CONTINUOUS
  5
1BB
 10
414.984899
 20
420.641753
 30
0.0
 11
417.984899
 21
423.641753
 31
0.0
  0
LINE
  8
LC-007-005-----0
  6
CONTINUOUS
  5
1BC
 10
487.500729
 20
493.157583
 30
0.0
 11
491.211342
 21
496.868196
 31
0.0
  0
LINE
  8
LC-007-005-----0
  6
CONTINUOUS
  5
1BD
 10
414.984899
 20
423.47018
 30
0.0
 11
417.984899
 21
426.47018
 31
0.0
  0
LINE
  8
LC-007-005-----0
  6
CONTINUOUS
  5
1BE
 10
483.962564
 20
492.447846
 30
0.0
 11
488.285954
 21
496.771235
 31
0.0
  0
LINE
  8
LC-007-005-----0
  6
CONTINUOUS
  5
1BF
 10
414.984899
 20
426.298607
 30
0.0
 11
417.984899
 21
429.298608
 31
0.0
  0
LINE
  8
LC-007-005-----0
  6
CONTINUOUS
  5
1C0
 10
479.8882
 20
491.201908
 30
0.0
 11
485.199878
 21
496.513586
 31
0.0
  0
LINE
  8
LC-007-005-----0
  6
CONTINUOUS
  5
1C1
 10
414.984899
 20
429.127035
 30
0.0
 11
417.984899
 21
432.127035
 31
0.0
  0
LINE
  8
LC-007-005-----0
  6
CONTINUOUS
  5
1C2
 10
475.813835
 20
489.955971
 30
0.0
 11
481.125915
 21
495.268051
 31
0.0
  0
LINE
  8
LC-007-005-----0
  6
CONTINUOUS
  5
1C3
 10
414.984899
 20
431.955462
 30
0.0
 11
417.984899
 21
434.955462
 31
0.0
  0
LINE
  8
LC-002-002-----0
  6
CONTINUOUS
  5
1C4
 10
312.984412
 20
491.985423
 30
0.0
 11
312.984412
 21
477.485423
 31
0.0
  0
LINE
  8
LC-002-002-----0
  6
CONTINUOUS
  5
1C5
 10
307.984412
 20
491.985423
 30
0.0
 11
307.984412
 21
477.485423
 31
0.0
  0
LINE
  8
LC-002-002-----0
  6
CONTINUOUS
  5
1C6
 10
304.48438
 20
484.486113
 30
0.0
 11
304.48438
 21
476.984732
 31
0.0
  0
LINE
  8
LC-002-002-----0
  6
CONTINUOUS
  5
1C7
 10
316.484901
 20
491.986113
 30
0.0
 11
317.484789
 21
491.986113
 31
0.0
  0
LINE
  8
LC-002-002-----0
  6
CONTINUOUS
  5
1C8
 10
297.48438
 20
490.486113
 30
0.0
 11
295.484901
 21
490.486113
 31
0.0
  0
LINE
  8
LC-007-005-----0
  6
CONTINUOUS
  5
1C9
 10
471.73947
 20
488.710033
 30
0.0
 11
477.051953
 21
494.022516
 31
0.0
  0
LINE
  8
LC-002-002-----0
  6
CONTINUOUS
  5
1CA
 10
445.196226
 20
490.486113
 30
0.0
 11
445.484901
 21
490.986113
 31
0.0
  0
LINE
  8
LC-002-002-----0
  6
CONTINUOUS
  5
1CB
 10
445.484901
 20
490.986113
 30
0.0
 11
445.773577
 21
490.486113
 31
0.0
  0
LINE
  8
LC-002-002-----0
  6
CONTINUOUS
  5
1CC
 10
445.773577
 20
490.486113
 30
0.0
 11
446.485391
 21
490.486113
 31
0.0
  0
LINE
  8
LC-002-002-----0
  6
CONTINUOUS
  5
1CD
 10
446.126472
 20
476.985442
 30
0.0
 11
432.484901
 21
476.985454
 31
0.0
  0
LINE
  8
LC-007-005-----0
  6
CONTINUOUS
  5
1CE
 10
414.984899
 20
434.783889
 30
0.0
 11
417.9849
 21
437.783889
 31
0.0
  0
LINE
  8
LC-007-005-----0
  6
CONTINUOUS
  5
1CF
 10
467.665106
 20
487.464096
 30
0.0
 11
472.97799
 21
492.77698
 31
0.0
  0
LINE
  8
LC-007-005-----0
  6
CONTINUOUS
  5
1D0
 10
414.984899
 20
437.612316
 30
0.0
 11
417.9849
 21
440.612317
 31
0.0
  0
LINE
  8
LC-007-005-----0
  6
CONTINUOUS
  5
1D1
 10
453.993584
 20
476.621001
 30
0.0
 11
456.485423
 21
479.11284
 31
0.0
  0
LINE
  8
LC-007-005-----0
  6
CONTINUOUS
  5
1D2
 10
461.858696
 20
484.486113
 30
0.0
 11
468.904028
 21
491.531445
 31
0.0
  0
LINE
  8
LC-007-005-----0
  6
CONTINUOUS
  5
1D3
 10
414.9849
 20
440.440744
 30
0.0
 11
417.9849
 21
443.440744
 31
0.0
  0
LINE
  8
LC-007-005-----0
  6
CONTINUOUS
  5
1D4
 10
450.529687
 20
475.985531
 30
0.0
 11
452.029579
 21
477.485423
 31
0.0
  0
LINE
  8
LC-007-005-----0
  6
CONTINUOUS
  5
1D5
 10
452.985391
 20
478.441235
 30
0.0
 11
456.485423
 21
481.941267
 31
0.0
  0
LINE
  8
LC-007-005-----0
  6
CONTINUOUS
  5
1D6
 10
459.030269
 20
484.486113
 30
0.0
 11
461.530269
 21
486.986113
 31
0.0
  0
LINE
  8
LC-007-005-----0
  6
CONTINUOUS
  5
1D7
 10
463.485423
 20
488.941267
 30
0.0
 11
465.030269
 21
490.486113
 31
0.0
  0
LINE
  8
LC-007-005-----0
  6
CONTINUOUS
  5
1D8
 10
414.9849
 20
443.269171
 30
0.0
 11
417.9849
 21
446.269171
 31
0.0
  0
LINE
  8
LC-007-005-----0
  6
CONTINUOUS
  5
1D9
 10
448.011898
 20
476.296169
 30
0.0
 11
449.201151
 21
477.485423
 31
0.0
  0
LINE
  8
LC-007-005-----0
  6
CONTINUOUS
  5
1DA
 10
452.985391
 20
481.269662
 30
0.0
 11
458.701842
 21
486.986113
 31
0.0
  0
LINE
  8
LC-007-005-----0
  6
CONTINUOUS
  5
1DB
 10
414.9849
 20
446.097598
 30
0.0
 11
417.9849
 21
449.097599
 31
0.0
  0
LINE
  8
LC-007-005-----0
  6
CONTINUOUS
  5
1DC
 10
445.868534
 20
476.981232
 30
0.0
 11
445.869274
 21
476.981972
 31
0.0
  0
LINE
  8
LC-007-005-----0
  6
CONTINUOUS
  5
1DD
 10
445.872744
 20
476.985443
 30
0.0
 11
447.985391
 21
479.098089
 31
0.0
  0
LINE
  8
LC-007-005-----0
  6
CONTINUOUS
  5
1DE
 10
452.985391
 20
484.098089
 30
0.0
 11
456.484901
 21
487.5976
 31
0.0
  0
LINE
  8
LC-007-005-----0
  6
CONTINUOUS
  5
1DF
 10
414.9849
 20
448.926026
 30
0.0
 11
417.9849
 21
451.926026
 31
0.0
  0
LINE
  8
LC-007-005-----0
  6
CONTINUOUS
  5
1E0
 10
443.001424
 20
476.942549
 30
0.0
 11
443.002164
 21
476.943289
 31
0.0
  0
LINE
  8
LC-007-005-----0
  6
CONTINUOUS
  5
1E1
 10
443.044319
 20
476.985445
 30
0.0
 11
447.985391
 21
481.926516
 31
0.0
  0
LINE
  8
LC-007-005-----0
  6
CONTINUOUS
  5
1E2
 10
452.985391
 20
486.926516
 30
0.0
 11
456.484901
 21
490.426027
 31
0.0
  0
LINE
  8
LC-007-005-----0
  6
CONTINUOUS
  5
1E3
 10
414.9849
 20
451.754453
 30
0.0
 11
417.9849
 21
454.754453
 31
0.0
  0
LINE
  8
LC-002-002-----0
  6
CONTINUOUS
  5
1E4
 10
320.484789
 20
491.986113
 30
0.0
 11
320.484789
 21
479.986113
 31
0.0
  0
LINE
  8
LC-002-002-----0
  6
CONTINUOUS
  5
1E5
 10
455.484901
 20
490.986113
 30
0.0
 11
455.773577
 21
490.486113
 31
0.0
  0
LINE
  8
LC-002-002-----0
  6
CONTINUOUS
  5
1E6
 10
455.196226
 20
490.486113
 30
0.0
 11
455.484901
 21
490.986113
 31
0.0
  0
LINE
  8
LC-002-002-----0
  6
CONTINUOUS
  5
1E7
 10
455.773577
 20
490.486113
 30
0.0
 11
456.484901
 21
490.486113
 31
0.0
  0
LINE
  8
LC-002-002-----0
  6
CONTINUOUS
  5
1E8
 10
452.985391
 20
477.485423
 30
0.0
 11
447.985391
 21
477.485423
 31
0.0
  0
LINE
  8
LC-002-002-----0
  6
CONTINUOUS
  5
1E9
 10
447.985391
 20
491.985423
 30
0.0
 11
447.985391
 21
477.485423
 31
0.0
  0
LINE
  8
LC-002-002-----0
  6
CONTINUOUS
  5
1EA
 10
452.985391
 20
491.985423
 30
0.0
 11
452.985391
 21
477.485423
 31
0.0
  0
LINE
  8
LC-002-002-----0
  6
CONTINUOUS
  5
1EB
 10
456.485423
 20
484.486113
 30
0.0
 11
456.485423
 21
476.984732
 31
0.0
  0
LINE
  8
LC-002-002-----0
  6
CONTINUOUS
  5
1EC
 10
444.484901
 20
491.986113
 30
0.0
 11
443.485014
 21
491.986113
 31
0.0
  0
LINE
  8
LC-002-002-----0
  6
CONTINUOUS
  5
1ED
 10
463.485423
 20
490.486113
 30
0.0
 11
465.484901
 21
490.486113
 31
0.0
  0
LINE
  8
LC-002-002-----0
  6
CONTINUOUS
  5
1EE
 10
440.485014
 20
491.986113
 30
0.0
 11
440.485014
 21
479.986113
 31
0.0
  0
LINE
  8
LC-002-002-----0
  6
CONTINUOUS
  5
1EF
 10
441.485014
 20
491.986113
 30
0.0
 11
443.485014
 21
491.986113
 31
0.0
  0
LINE
  8
LC-007-005-----0
  6
CONTINUOUS
  5
1F0
 10
440.134313
 20
476.903866
 30
0.0
 11
440.135054
 21
476.904607
 31
0.0
  0
LINE
  8
LC-007-005-----0
  6
CONTINUOUS
  5
1F1
 10
440.215895
 20
476.985447
 30
0.0
 11
447.985391
 21
484.754944
 31
0.0
  0
LINE
  8
LC-007-005-----0
  6
CONTINUOUS
  5
1F2
 10
452.985391
 20
489.754944
 30
0.0
 11
454.485391
 21
491.254944
 31
0.0
  0
LINE
  8
LC-007-005-----0
  6
CONTINUOUS
  5
1F3
 10
414.9849
 20
454.58288
 30
0.0
 11
417.984901
 21
457.58288
 31
0.0
  0
LINE
  8
LC-007-005-----0
  6
CONTINUOUS
  5
1F4
 10
437.267203
 20
476.865183
 30
0.0
 11
437.267944
 21
476.865924
 31
0.0
  0
LINE
  8
LC-007-005-----0
  6
CONTINUOUS
  5
1F5
 10
437.38747
 20
476.98545
 30
0.0
 11
440.386355
 21
479.984335
 31
0.0
  0
LINE
  8
LC-007-005-----0
  6
CONTINUOUS
  5
1F6
 10
440.386364
 20
479.984343
 30
0.0
 11
440.388133
 21
479.986113
 31
0.0
  0
LINE
  8
LC-007-005-----0
  6
CONTINUOUS
  5
1F7
 10
440.485014
 20
480.082993
 30
0.0
 11
447.985391
 21
487.583371
 31
0.0
  0
LINE
  8
LC-007-005-----0
  6
CONTINUOUS
  5
1F8
 10
414.9849
 20
457.411307
 30
0.0
 11
417.984901
 21
460.411308
 31
0.0
  0
LINE
  8
LC-007-005-----0
  6
CONTINUOUS
  5
1F9
 10
434.400092
 20
476.826499
 30
0.0
 11
434.400834
 21
476.827241
 31
0.0
  0
LINE
  8
LC-007-005-----0
  6
CONTINUOUS
  5
1FA
 10
434.559045
 20
476.985452
 30
0.0
 11
437.506004
 21
479.932411
 31
0.0
  0
LINE
  8
LC-007-005-----0
  6
CONTINUOUS
  5
1FB
 10
437.50622
 20
479.932627
 30
0.0
 11
437.559706
 21
479.986113
 31
0.0
  0
LINE
  8
LC-007-005-----0
  6
CONTINUOUS
  5
1FC
 10
440.485014
 20
482.91142
 30
0.0
 11
447.985391
 21
490.411798
 31
0.0
  0
LINE
  8
LC-007-005-----0
  6
CONTINUOUS
  5
1FD
 10
414.984901
 20
460.239735
 30
0.0
 11
417.984901
 21
463.239735
 31
0.0
  0
LINE
  8
LC-007-005-----0
  6
CONTINUOUS
  5
1FE
 10
431.532982
 20
476.787816
 30
0.0
 11
431.533724
 21
476.788558
 31
0.0
  0
LINE
  8
LC-007-005-----0
  6
CONTINUOUS
  5
1FF
 10
431.710337
 20
476.965171
 30
0.0
 11
434.625653
 21
479.880487
 31
0.0
  0
LINE
  8
LC-007-005-----0
  6
CONTINUOUS
  5
200
 10
434.626076
 20
479.88091
 30
0.0
 11
434.731279
 21
479.986113
 31
0.0
  0
LINE
  8
LC-007-005-----0
  6
CONTINUOUS
  5
201
 10
440.485014
 20
485.739848
 30
0.0
 11
445.575082
 21
490.829916
 31
0.0
  0
LINE
  8
LC-002-002-----0
  6
CONTINUOUS
  5
202
 10
432.484901
 20
479.986113
 30
0.0
 11
415.084901
 21
479.528229
 31
0.0
  0
LINE
  8
LC-007-005-----0
  6
CONTINUOUS
  5
203
 10
446.485391
 20
491.740225
 30
0.0
 11
446.730589
 21
491.985423
 31
0.0
  0
LINE
  8
LC-002-002-----0
  6
CONTINUOUS
  5
204
 10
432.484901
 20
476.985454
 30
0.0
 11
417.984911
 21
476.605758
 31
0.0
  0
LINE
  8
LC-007-005-----0
  6
CONTINUOUS
  5
205
 10
414.984901
 20
463.068162
 30
0.0
 11
417.984901
 21
466.068162
 31
0.0
  0
LINE
  8
LC-007-005-----0
  6
CONTINUOUS
  5
206
 10
428.665872
 20
476.749133
 30
0.0
 11
428.666614
 21
476.749875
 31
0.0
  0
LINE
  8
LC-002-002-----0
  6
CONTINUOUS
  5
207
 10
328.40639
 20
479.987817
 30
0.0
 11
320.484875
 21
479.986113
 31
0.0
  0
LINE
  8
LC-002-002-----0
  6
CONTINUOUS
  5
208
 10
328.484901
 20
476.984732
 30
0.0
 11
342.984901
 21
476.605036
 31
0.0
  0
LINE
  8
LC-007-005-----0
  6
CONTINUOUS
  5
209
 10
428.805853
 20
476.889114
 30
0.0
 11
431.745302
 21
479.828563
 31
0.0
  0
LINE
  8
LC-007-005-----0
  6
CONTINUOUS
  5
20A
 10
431.745932
 20
479.829194
 30
0.0
 11
431.887489
 21
479.97075
 31
0.0
  0
LINE
  8
LC-007-005-----0
  6
CONTINUOUS
  5
20B
 10
440.485014
 20
488.568275
 30
0.0
 11
443.902852
 21
491.986113
 31
0.0
  0
LINE
  8
LC-007-005-----0
  6
CONTINUOUS
  5
20C
 10
414.984901
 20
465.896589
 30
0.0
 11
417.984901
 21
468.896589
 31
0.0
  0
LINE
  8
LC-007-005-----0
  6
CONTINUOUS
  5
20D
 10
425.798761
 20
476.71045
 30
0.0
 11
425.799504
 21
476.711192
 31
0.0
  0
LINE
  8
LC-007-005-----0
  6
CONTINUOUS
  5
20E
 10
425.90137
 20
476.813058
 30
0.0
 11
428.864951
 21
479.77664
 31
0.0
  0
LINE
  8
LC-007-005-----0
  6
CONTINUOUS
  5
20F
 10
428.865789
 20
479.777477
 30
0.0
 11
428.982556
 21
479.894245
 31
0.0
  0
LINE
  8
LC-007-005-----0
  6
CONTINUOUS
  5
210
 10
440.485014
 20
491.396702
 30
0.0
 11
441.074425
 21
491.986113
 31
0.0
  0
LINE
  8
LC-007-005-----0
  6
CONTINUOUS
  5
211
 10
414.984901
 20
468.725016
 30
0.0
 11
417.984901
 21
471.725017
 31
0.0
  0
LINE
  8
LC-007-005-----0
  6
CONTINUOUS
  5
212
 10
422.931651
 20
476.671766
 30
0.0
 11
422.932394
 21
476.672509
 31
0.0
  0
LINE
  8
LC-007-005-----0
  6
CONTINUOUS
  5
213
 10
422.996886
 20
476.737001
 30
0.0
 11
425.984601
 21
479.724716
 31
0.0
  0
LINE
  8
LC-007-005-----0
  6
CONTINUOUS
  5
214
 10
425.985645
 20
479.72576
 30
0.0
 11
426.077623
 21
479.817739
 31
0.0
  0
LINE
  8
LC-007-005-----0
  6
CONTINUOUS
  5
215
 10
414.984901
 20
471.553444
 30
0.0
 11
417.984901
 21
474.553444
 31
0.0
  0
LINE
  8
LC-007-005-----0
  6
CONTINUOUS
  5
216
 10
420.064541
 20
476.633083
 30
0.0
 11
420.065284
 21
476.633826
 31
0.0
  0
LINE
  8
LC-007-005-----0
  6
CONTINUOUS
  5
217
 10
420.092402
 20
476.660945
 30
0.0
 11
423.10425
 21
479.672792
 31
0.0
  0
LINE
  8
LC-007-005-----0
  6
CONTINUOUS
  5
218
 10
423.105501
 20
479.674044
 30
0.0
 11
423.17269
 21
479.741233
 31
0.0
  0
LINE
  8
LC-007-005-----0
  6
CONTINUOUS
  5
219
 10
414.984901
 20
474.381871
 30
0.0
 11
420.223899
 21
479.620869
 31
0.0
  0
LINE
  8
LC-007-005-----0
  6
CONTINUOUS
  5
21A
 10
420.225358
 20
479.622327
 30
0.0
 11
420.267757
 21
479.664727
 31
0.0
  0
LINE
  8
LC-007-005-----0
  6
CONTINUOUS
  5
21B
 10
414.984901
 20
477.210298
 30
0.0
 11
417.343548
 21
479.568945
 31
0.0
  0
LINE
  8
LC-007-005-----0
  6
CONTINUOUS
  5
21C
 10
417.345214
 20
479.570611
 30
0.0
 11
417.362824
 21
479.588221
 31
0.0
  0
ENDSEC
  0
EOF
