  0
SECTION
  2
HEADER
  9
$ACADVER
  1
AC1015
  9
$ACADMAINTVER
 70
     6
  9
$DWGCODEPAGE
  3
DOS850
  9
$INSBASE
 10
0.0
 20
0.0
 30
0.0
  9
$EXTMIN
 10
-120.995097
 20
-200.697
 30
0.0
  9
$EXTMAX
 10
719.004903
 20
393.303
 30
0.0
  9
$LIMMIN
 10
-120.995097
 20
-200.697
  9
$LIMMAX
 10
719.004903
 20
393.303
  9
$ORTHOMODE
 70
     0
  9
$REGENMODE
 70
     1
  9
$FILLMODE
 70
     1
  9
$QTEXTMODE
 70
     0
  9
$MIRRTEXT
 70
     1
  9
$LTSCALE
 40
2.0
  9
$ATTMODE
 70
     1
  9
$TEXTSIZE
 40
2.5
  9
$TRACEWID
 40
1.0
  9
$TEXTSTYLE
  7
Standard
  9
$CLAYER
  8
0
  9
$CELTYPE
  6
ByLayer
  9
$CECOLOR
 62
     7
  9
$CELTSCALE
 40
1.0
  9
$DISPSILH
 70
     0
  9
$DIMSCALE
 40
2.0
  9
$DIMASZ
 40
3.5
  9
$DIMEXO
 40
0.625
  9
$DIMDLI
 40
3.75
  9
$DIMRND
 40
0.0
  9
$DIMDLE
 40
0.0
  9
$DIMEXE
 40
1.25
  9
$DIMTP
 40
0.0
  9
$DIMTM
 40
0.0
  9
$DIMTXT
 40
3.5
  9
$DIMCEN
 40
2.5
  9
$DIMTSZ
 40
0.0
  9
$DIMTOL
 70
     0
  9
$DIMLIM
 70
     0
  9
$DIMTIH
 70
     0
  9
$DIMTOH
 70
     0
  9
$DIMSE1
 70
     0
  9
$DIMSE2
 70
     0
  9
$DIMTAD
 70
     1
  9
$DIMZIN
 70
     8
  9
$DIMBLK
  1

  9
$DIMASO
 70
     1
  9
$DIMSHO
 70
     1
  9
$DIMPOST
  1

  9
$DIMAPOST
  1

  9
$DIMALT
 70
     0
  9
$DIMALTD
 70
     3
  9
$DIMALTF
 40
0.03937
  9
$DIMLFAC
 40
1.0
  9
$DIMTOFL
 70
     1
  9
$DIMTVP
 40
0.0
  9
$DIMTIX
 70
     0
  9
$DIMSOXD
 70
     0
  9
$DIMSAH
 70
     0
  9
$DIMBLK1
  1

  9
$DIMBLK2
  1

  9
$DIMSTYLE
  2
ISO-25
  9
$DIMCLRD
 70
     0
  9
$DIMCLRE
 70
     0
  9
$DIMCLRT
 70
     0
  9
$DIMTFAC
 40
1.0
  9
$DIMGAP
 40
0.625
  9
$DIMJUST
 70
     0
  9
$DIMSD1
 70
     0
  9
$DIMSD2
 70
     0
  9
$DIMTOLJ
 70
     0
  9
$DIMTZIN
 70
     8
  9
$DIMALTZ
 70
     0
  9
$DIMALTTZ
 70
     0
  9
$DIMUPT
 70
     0
  9
$DIMDEC
 70
     2
  9
$DIMTDEC
 70
     2
  9
$DIMALTU
 70
     2
  9
$DIMALTTD
 70
     3
  9
$DIMTXSTY
  7
Standard
  9
$DIMAUNIT
 70
     0
  9
$DIMADEC
 70
     0
  9
$DIMALTRND
 40
0.0
  9
$DIMAZIN
 70
     0
  9
$DIMDSEP
 70
    44
  9
$DIMATFIT
 70
     3
  9
$DIMFRAC
 70
     0
  9
$DIMLDRBLK
  1

  9
$DIMLUNIT
 70
     2
  9
$DIMLWD
 70
    -2
  9
$DIMLWE
 70
    -2
  9
$DIMTMOVE
 70
     0
  9
$LUNITS
 70
     2
  9
$LUPREC
 70
     4
  9
$SKETCHINC
 40
1.0
  9
$FILLETRAD
 40
10.0
  9
$AUNITS
 70
     0
  9
$AUPREC
 70
     0
  9
$MENU
  1
.
  9
$ELEVATION
 40
0.0
  9
$PELEVATION
 40
0.0
  9
$THICKNESS
 40
0.0
  9
$LIMCHECK
 70
     0
  9
$CHAMFERA
 40
10.0
  9
$CHAMFERB
 40
10.0
  9
$CHAMFERC
 40
20.0
  9
$CHAMFERD
 40
0.0
  9
$SKPOLY
 70
     0
  9
$TDCREATE
 40
2455141.417678877
  9
$TDUCREATE
 40
2455141.376012211
  9
$TDUPDATE
 40
2455141.417678889
  9
$TDUUPDATE
 40
2455141.376012222
  9
$TDINDWG
 40
0.0000000116
  9
$TDUSRTIMER
 40
0.0000000116
  9
$USRTIMER
 70
     1
  9
$ANGBASE
 50
0.0
  9
$ANGDIR
 70
     0
  9
$PDMODE
 70
     0
  9
$PDSIZE
 40
0.0
  9
$PLINEWID
 40
0.0
  9
$SPLFRAME
 70
     0
  9
$SPLINETYPE
 70
     6
  9
$SPLINESEGS
 70
     8
  9
$HANDSEED
  5
1B5
  9
$SURFTAB1
 70
     6
  9
$SURFTAB2
 70
     6
  9
$SURFTYPE
 70
     6
  9
$SURFU
 70
     6
  9
$SURFV
 70
     6
  9
$UCSBASE
  2

  9
$UCSNAME
  2

  9
$UCSORG
 10
0.0
 20
0.0
 30
0.0
  9
$UCSXDIR
 10
1.0
 20
0.0
 30
0.0
  9
$UCSYDIR
 10
0.0
 20
1.0
 30
0.0
  9
$UCSORTHOREF
  2

  9
$UCSORTHOVIEW
 70
     0
  9
$UCSORGTOP
 10
0.0
 20
0.0
 30
0.0
  9
$UCSORGBOTTOM
 10
0.0
 20
0.0
 30
0.0
  9
$UCSORGLEFT
 10
0.0
 20
0.0
 30
0.0
  9
$UCSORGRIGHT
 10
0.0
 20
0.0
 30
0.0
  9
$UCSORGFRONT
 10
0.0
 20
0.0
 30
0.0
  9
$UCSORGBACK
 10
0.0
 20
0.0
 30
0.0
  9
$PUCSBASE
  2

  9
$PUCSNAME
  2

  9
$PUCSORG
 10
0.0
 20
0.0
 30
0.0
  9
$PUCSXDIR
 10
1.0
 20
0.0
 30
0.0
  9
$PUCSYDIR
 10
0.0
 20
1.0
 30
0.0
  9
$PUCSORTHOREF
  2

  9
$PUCSORTHOVIEW
 70
     0
  9
$PUCSORGTOP
 10
0.0
 20
0.0
 30
0.0
  9
$PUCSORGBOTTOM
 10
0.0
 20
0.0
 30
0.0
  9
$PUCSORGLEFT
 10
0.0
 20
0.0
 30
0.0
  9
$PUCSORGRIGHT
 10
0.0
 20
0.0
 30
0.0
  9
$PUCSORGFRONT
 10
0.0
 20
0.0
 30
0.0
  9
$PUCSORGBACK
 10
0.0
 20
0.0
 30
0.0
  9
$USERI1
 70
     0
  9
$USERI2
 70
     0
  9
$USERI3
 70
     0
  9
$USERI4
 70
     0
  9
$USERI5
 70
     0
  9
$USERR1
 40
0.0
  9
$USERR2
 40
0.0
  9
$USERR3
 40
0.0
  9
$USERR4
 40
0.0
  9
$USERR5
 40
0.0
  9
$WORLDVIEW
 70
     1
  9
$SHADEDGE
 70
     3
  9
$SHADEDIF
 70
    70
  9
$TILEMODE
 70
     1
  9
$MAXACTVP
 70
    64
  9
$PINSBASE
 10
0.0
 20
0.0
 30
0.0
  9
$PLIMCHECK
 70
     0
  9
$PEXTMIN
 10
-120.995097
 20
-200.697
 30
0.0
  9
$PEXTMAX
 10
719.004903
 20
393.303
 30
0.0
  9
$PLIMMIN
 10
-120.995097
 20
-200.697
  9
$PLIMMAX
 10
719.004903
 20
393.303
  9
$UNITMODE
 70
     0
  9
$VISRETAIN
 70
     1
  9
$PLINEGEN
 70
     0
  9
$PSLTSCALE
 70
     1
  9
$TREEDEPTH
 70
  3020
  9
$CMLSTYLE
  2
Standard
  9
$CMLJUST
 70
     0
  9
$CMLSCALE
 40
20.0
  9
$PROXYGRAPHICS
 70
     1
  9
$MEASUREMENT
 70
     1
  9
$CELWEIGHT
370
    -1
  9
$ENDCAPS
280
     0
  9
$JOINSTYLE
280
     0
  9
$LWDISPLAY
290
     0
  9
$INSUNITS
 70
     4
  9
$HYPERLINKBASE
  1

  9
$STYLESHEET
  1

  9
$XEDIT
290
     1
  9
$CEPSNTYPE
380
     0
  9
$PSTYLEMODE
290
     1
  9
$FINGERPRINTGUID
  2
{FAEB1C30-E019-11D5-929B-00C0DF256EC4}
  9
$VERSIONGUID
  2
{FAEB1C32-E019-11D5-929B-00C0DF256EC4}
  9
$EXTNAMES
290
     1
  9
$PSVPSCALE
 40
0.0
  9
$OLESTARTUP
290
     0
  0
ENDSEC
  0
SECTION
  2
CLASSES
  0
CLASS
  1
ACDBDICTIONARYWDFLT
  2
AcDbDictionaryWithDefault
  3
ObjectDBX Classes
 90
        0
280
     0
281
     0
  0
CLASS
  1
ACDBPLACEHOLDER
  2
AcDbPlaceHolder
  3
ObjectDBX Classes
 90
        0
280
     0
281
     0
  0
CLASS
  1
LAYOUT
  2
AcDbLayout
  3
ObjectDBX Classes
 90
        0
280
     0
281
     0
  0
ENDSEC
  0
SECTION
  2
TABLES
  0
TABLE
  2
VPORT
  5
8
330
0
100
AcDbSymbolTable
 70
     2
  0
VPORT
  5
29
330
8
100
AcDbSymbolTableRecord
100
AcDbViewportTableRecord
  2
*ACTIVE
 70
     0
 10
0.0
 20
0.0
 11
1.0
 21
1.0
 12
299.004903
 22
96.303
 13
0.0
 23
0.0
 14
1.0
 24
1.0
 15
0.0
 25
0.0
 16
0.0
 26
0.0
 36
1.0
 17
0.0
 27
0.0
 37
0.0
 40
594.0
 41
1.414141
 42
50.0
 43
0.0
 44
0.0
 50
0.0
 51
0.0
 71
    16
 72
   100
 73
     1
 74
     0
 75
     0
 76
     0
 77
     0
 78
     0
281
     0
 65
     0
110
0.0
120
0.0
130
0.0
111
1.0
121
0.0
131
0.0
112
0.0
122
1.0
132
0.0
 79
     0
146
0.0
  0
ENDTAB
  0
TABLE
  2
LTYPE
  5
5
330
0
100
AcDbSymbolTable
 70
     3
  0
LTYPE
  5
14
330
5
100
AcDbSymbolTableRecord
100
AcDbLinetypeTableRecord
  2
ByBlock
 70
     0
  3

 72
    65
 73
     0
 40
0.0
  0
LTYPE
  5
15
330
5
100
AcDbSymbolTableRecord
100
AcDbLinetypeTableRecord
  2
ByLayer
 70
     0
  3

 72
    65
 73
     0
 40
0.0
  0
LTYPE
  5
16
330
5
100
AcDbSymbolTableRecord
100
AcDbLinetypeTableRecord
  2
Continuous
 70
     0
  3
Solid line
 72
    65
 73
     0
 40
0.0
  0
LTYPE
  5
2A
330
5
100
AcDbSymbolTableRecord
100
AcDbLinetypeTableRecord
  2
DASHED
 70
     0
  3
__ __ __ __ __
 72
    65
 73
     2
 40
6.25
 49
5.0
 74
     4
 75
     0
340
0
 46
1.0
 50
0.0
 44
0.0
 45
0.0
 49
-1.25
 74
     4
 75
     0
340
0
 46
1.0
 50
0.0
 44
0.0
 45
0.0
  0
LTYPE
  5
E7
330
5
100
AcDbSymbolTableRecord
100
AcDbLinetypeTableRecord
  2
CENTER
 70
     0
  3
__ . __ . __ . __ . __
 72
    65
 73
     4
 40
7.5
 49
5.0
 74
     4
 75
     0
340
0
 46
1.0
 50
0.0
 44
0.0
 45
0.0
 49
-1.25
 74
     4
 75
     0
340
0
 46
1.0
 50
0.0
 44
0.0
 45
0.0
 49
0.0
 74
     4
 75
     0
340
0
 46
1.0
 50
0.0
 44
0.0
 45
0.0
 49
-1.25
 74
     4
 75
     0
340
0
 46
1.0
 50
0.0
 44
0.0
 45
0.0
  0
ENDTAB
  0
TABLE
  2
LAYER
  5
2
330
0
100
AcDbSymbolTable
 70
    11
  0
LAYER
  5
10
330
2
100
AcDbSymbolTableRecord
100
AcDbLayerTableRecord
  2
0
 70
     0
 62
     7
  6
Continuous
370
    -3
390
F
  0
LAYER
  5
2B
330
2
100
AcDbSymbolTableRecord
100
AcDbLayerTableRecord
  2
LC-INFO-1-2-mm-A3-0
 70
     1
 62
     7
  6
ByBlock
370
    -3
390
F
  0
LAYER
  5
2C
330
2
100
AcDbSymbolTableRecord
100
AcDbLayerTableRecord
  2
LC-CUT-HIDDEN
 70
     0
 62
     7
  6
DASHED
370
    -3
390
F
  0
LAYER
  5
2D
330
2
100
AcDbSymbolTableRecord
100
AcDbLayerTableRecord
  2
LC-VIEWPORT
 70
     0
 62
     7
  6
ByBlock
370
    -3
390
F
  0
LAYER
  5
2E
330
2
100
AcDbSymbolTableRecord
100
AcDbLayerTableRecord
  2
LC-3D-HIDDEN
 70
     0
 62
     9
  6
DASHED
370
    -3
390
F
  0
LAYER
  5
30
330
2
100
AcDbSymbolTableRecord
100
AcDbLayerTableRecord
  2
LC-001-002-----0
 70
     0
 62
     1
  6
ByBlock
370
    -3
390
F
  0
LAYER
  5
32
330
2
100
AcDbSymbolTableRecord
100
AcDbLayerTableRecord
  2
LC-002-002-RND-0
 70
     0
 62
     1
  6
ByBlock
370
    -3
390
F
  0
LAYER
  5
37
330
2
100
AcDbSymbolTableRecord
100
AcDbLayerTableRecord
  2
LC-003-003-----0
 70
     0
 62
     2
  6
ByBlock
370
    -3
390
F
  0
LAYER
  5
39
330
2
100
AcDbSymbolTableRecord
100
AcDbLayerTableRecord
  2
Defpoints
 70
     0
 62
     7
  6
Continuous
290
     0
370
    -3
390
F
  0
LAYER
  5
65
330
2
100
AcDbSymbolTableRecord
100
AcDbLayerTableRecord
  2
LC-004-005-----0
 70
     0
 62
     2
  6
ByBlock
370
    -3
390
F
  0
LAYER
  5
E8
330
2
100
AcDbSymbolTableRecord
100
AcDbLayerTableRecord
  2
LC-005-006-MLN-0
 70
     0
 62
     2
  6
CENTER
370
    -3
390
F
  0
ENDTAB
  0
TABLE
  2
STYLE
  5
3
330
0
100
AcDbSymbolTable
 70
     3
  0
STYLE
  5
11
330
3
100
AcDbSymbolTableRecord
100
AcDbTextStyleTableRecord
  2
Standard
 70
     0
 40
0.0
 41
1.0
 50
0.0
 71
     0
 42
2.5
  3
txt
  4

  0
STYLE
  5
2F
330
3
100
AcDbSymbolTableRecord
100
AcDbTextStyleTableRecord
  2
LCTX15-400-0-0-Arial
 70
     0
 40
0.0
 41
0.9
 50
0.0
 71
     0
 42
3.5
  3

  4

1001
ACAD
1000
Arial
1071
 16777218
  0
STYLE
  5
35
330
3
100
AcDbSymbolTableRecord
100
AcDbTextStyleTableRecord
  2
LCTX15-400-0-0pDIN-Schrift
 70
     0
 40
2.5
 41
0.8
 50
15.0
 71
     0
 42
3.5
  3
STANDARD
  4

  0
ENDTAB
  0
TABLE
  2
VIEW
  5
6
330
0
100
AcDbSymbolTable
 70
     0
  0
ENDTAB
  0
TABLE
  2
UCS
  5
7
330
0
100
AcDbSymbolTable
 70
     0
  0
ENDTAB
  0
TABLE
  2
APPID
  5
9
330
0
100
AcDbSymbolTable
 70
     1
  0
APPID
  5
12
330
9
100
AcDbSymbolTableRecord
100
AcDbRegAppTableRecord
  2
ACAD
 70
     0
  0
ENDTAB
  0
TABLE
  2
DIMSTYLE
  5
A
330
0
100
AcDbSymbolTable
 70
     2
100
AcDbDimStyleTable
  0
DIMSTYLE
105
27
330
A
100
AcDbSymbolTableRecord
100
AcDbDimStyleTableRecord
  2
ISO-25
 70
     0
 41
2.5
 42
0.625
 43
3.75
 44
1.25
 73
     0
 74
     0
 77
     1
 78
     8
140
2.5
141
2.5
143
0.03937
147
0.625
171
     3
172
     1
271
     2
272
     2
274
     3
278
    44
283
     0
284
     8
340
11
  0
DIMSTYLE
105
36
102
{ACAD_REACTORS
330
38
330
4B
330
58
330
111
330
141
102
}
330
A
100
AcDbSymbolTableRecord
100
AcDbDimStyleTableRecord
  2
LC-DIM-L-0140-02-02
 70
     0
 40
2.0
 41
14.0
 42
0.0
 43
7.5
 44
1.8
 73
     0
 74
     0
 77
     1
 78
     8
 79
     2
140
14.0
141
0.0
146
0.71
147
1.5
176
     2
177
     2
178
     2
179
     2
271
     2
278
    44
289
     1
340
35
  0
ENDTAB
  0
TABLE
  2
BLOCK_RECORD
  5
1
330
0
100
AcDbSymbolTable
 70
     6
  0
BLOCK_RECORD
  5
1F
330
1
100
AcDbSymbolTableRecord
100
AcDbBlockTableRecord
  2
*Model_Space
340
22
  0
BLOCK_RECORD
  5
1B
330
1
100
AcDbSymbolTableRecord
100
AcDbBlockTableRecord
  2
*Paper_Space
340
1E
  0
BLOCK_RECORD
  5
23
330
1
100
AcDbSymbolTableRecord
100
AcDbBlockTableRecord
  2
*Paper_Space0
340
26
  0
BLOCK_RECORD
  5
3A
330
1
100
AcDbSymbolTableRecord
100
AcDbBlockTableRecord
  2
*D1
340
0
  0
BLOCK_RECORD
  5
4C
330
1
100
AcDbSymbolTableRecord
100
AcDbBlockTableRecord
  2
*D2
340
0
  0
BLOCK_RECORD
  5
59
330
1
100
AcDbSymbolTableRecord
100
AcDbBlockTableRecord
  2
*D3
340
0
  0
BLOCK_RECORD
  5
112
330
1
100
AcDbSymbolTableRecord
100
AcDbBlockTableRecord
  2
*D4
340
0
  0
BLOCK_RECORD
  5
142
330
1
100
AcDbSymbolTableRecord
100
AcDbBlockTableRecord
  2
*D5
340
0
  0
ENDTAB
  0
ENDSEC
  0
SECTION
  2
BLOCKS
  0
BLOCK
  5
20
330
1F
100
AcDbEntity
  8
0
100
AcDbBlockBegin
  2
*Model_Space
 70
     0
 71
     0
 10
0.0
 20
0.0
 30
0.0
  3
*Model_Space
  1

  0
ENDBLK
  5
21
330
1F
100
AcDbEntity
  8
0
100
AcDbBlockEnd
  0
BLOCK
  5
1C
330
1B
100
AcDbEntity
 67
     1
  8
0
100
AcDbBlockBegin
  2
*Paper_Space
 70
     0
 71
     0
 10
0.0
 20
0.0
 30
0.0
  3
*Paper_Space
  1

  0
ENDBLK
  5
1D
330
1B
100
AcDbEntity
 67
     1
  8
0
100
AcDbBlockEnd
  0
BLOCK
  5
24
330
23
100
AcDbEntity
  8
0
100
AcDbBlockBegin
  2
*Paper_Space0
 70
     0
 71
     0
 10
0.0
 20
0.0
 30
0.0
  3
*Paper_Space0
  1

  0
ENDBLK
  5
25
330
23
100
AcDbEntity
  8
0
100
AcDbBlockEnd
  0
BLOCK
  5
45
330
3A
100
AcDbEntity
  8
0
100
AcDbBlockBegin
  2
*D1
 70
     1
 71
     0
 10
0.0
 20
0.0
 30
0.0
  3
*D1
  1

  0
LINE
  5
3B
330
3A
100
AcDbEntity
  8
LC-003-003-----0
 62
     2
370
    -2
100
AcDbLine
 10
335.62617
 20
127.128808
 30
0.0
 11
362.239368
 21
125.96685
 31
0.0
  0
LINE
  5
3C
330
3A
100
AcDbEntity
  8
LC-003-003-----0
 62
     2
370
    -2
100
AcDbLine
 10
332.354716
 20
52.200191
 30
0.0
 11
358.967914
 21
51.038234
 31
0.0
  0
LINE
  5
3D
330
3A
100
AcDbEntity
  8
LC-003-003-----0
 62
     2
370
    -2
100
AcDbLine
 10
357.421452
 20
98.15053
 30
0.0
 11
356.592684
 21
79.168614
 31
0.0
  0
LINE
  5
3E
330
3A
100
AcDbEntity
  8
LC-003-003-----0
 62
     2
370
    -2
100
AcDbLine
 10
358.642795
 20
126.12388
 30
0.0
 11
361.625674
 21
194.443034
 31
0.0
  0
SOLID
  5
3F
330
3A
100
AcDbEntity
  8
LC-003-003-----0
 62
     2
100
AcDbTrace
 10
362.083677
 20
97.946973
 30
0.0
 11
352.759227
 21
98.354087
 31
0.0
 12
358.642795
 22
126.12388
 32
0.0
 13
358.642795
 23
126.12388
 33
0.0
  0
SOLID
  5
40
330
3A
100
AcDbEntity
  8
LC-003-003-----0
 62
     2
100
AcDbTrace
 10
351.930459
 20
79.372171
 30
0.0
 11
361.254909
 21
78.965057
 31
0.0
 12
355.371341
 22
51.195264
 32
0.0
 13
355.371341
 23
51.195264
 33
0.0
  0
MTEXT
  5
41
330
3A
100
AcDbEntity
  8
LC-003-003-----0
 62
     2
100
AcDbMText
 10
328.846893
 20
149.793571
 30
0.0
 40
28.0
 41
0.0
 71
     5
 72
     1
  1
\A1;DN70
  7
LCTX15-400-0-0pDIN-Schrift
 11
0.04361938736533601
 21
0.9990482215818578
 31
0.0
 73
     1
 44
1.0
  0
POINT
  5
42
330
3A
100
AcDbEntity
  8
Defpoints
 62
     0
100
AcDbPoint
 10
335.62617
 20
127.128808
 30
0.0
  0
POINT
  5
43
330
3A
100
AcDbEntity
  8
Defpoints
 62
     0
100
AcDbPoint
 10
332.354716
 20
52.200191
 30
0.0
  0
POINT
  5
44
330
3A
100
AcDbEntity
  8
Defpoints
 62
     0
100
AcDbPoint
 10
355.371341
 20
51.195264
 30
0.0
  0
ENDBLK
  5
46
330
3A
100
AcDbEntity
  8
0
100
AcDbBlockEnd
  0
BLOCK
  5
56
330
4C
100
AcDbEntity
  8
0
100
AcDbBlockBegin
  2
*D2
 70
     1
 71
     0
 10
0.0
 20
0.0
 30
0.0
  3
*D2
  1

  0
LINE
  5
4D
330
4C
100
AcDbEntity
  8
LC-003-003-----0
 62
     2
370
    -2
100
AcDbLine
 10
187.487043
 20
58.525247
 30
0.0
 11
187.487043
 21
-3.6
 31
0.0
  0
LINE
  5
4E
330
4C
100
AcDbEntity
  8
LC-003-003-----0
 62
     2
370
    -2
100
AcDbLine
 10
337.487112
 20
89.511832
 30
0.0
 11
337.487112
 21
-3.6
 31
0.0
  0
LINE
  5
4F
330
4C
100
AcDbEntity
  8
LC-003-003-----0
 62
     2
370
    -2
100
AcDbLine
 10
215.487043
 20
0.0
 30
0.0
 11
309.487112
 21
0.0
 31
0.0
  0
SOLID
  5
50
330
4C
100
AcDbEntity
  8
LC-003-003-----0
 62
     2
100
AcDbTrace
 10
215.487043
 20
4.666667
 30
0.0
 11
215.487043
 21
-4.666667
 31
0.0
 12
187.487043
 22
0.0
 32
0.0
 13
187.487043
 23
0.0
 33
0.0
  0
SOLID
  5
51
330
4C
100
AcDbEntity
  8
LC-003-003-----0
 62
     2
100
AcDbTrace
 10
309.487112
 20
-4.666667
 30
0.0
 11
309.487112
 21
4.666667
 31
0.0
 12
337.487112
 22
0.0
 32
0.0
 13
337.487112
 23
0.0
 33
0.0
  0
MTEXT
  5
52
330
4C
100
AcDbEntity
  8
LC-003-003-----0
 62
     2
100
AcDbMText
 10
256.55682
 20
30.8
 30
0.0
 40
28.0
 41
0.0
 71
     5
 72
     1
  1
\A1;150
  7
LCTX15-400-0-0pDIN-Schrift
 73
     1
 44
1.0
  0
POINT
  5
53
330
4C
100
AcDbEntity
  8
Defpoints
 62
     0
100
AcDbPoint
 10
187.487043
 20
58.525247
 30
0.0
  0
POINT
  5
54
330
4C
100
AcDbEntity
  8
Defpoints
 62
     0
100
AcDbPoint
 10
337.487112
 20
89.511832
 30
0.0
  0
POINT
  5
55
330
4C
100
AcDbEntity
  8
Defpoints
 62
     0
100
AcDbPoint
 10
337.487112
 20
0.0
 30
0.0
  0
ENDBLK
  5
57
330
4C
100
AcDbEntity
  8
0
100
AcDbBlockEnd
  0
BLOCK
  5
63
330
59
100
AcDbEntity
  8
0
100
AcDbBlockBegin
  2
*D3
 70
     1
 71
     0
 10
0.0
 20
0.0
 30
0.0
  3
*D3
  1

  0
LINE
  5
5A
330
59
100
AcDbEntity
  8
LC-003-003-----0
 62
     2
370
    -2
100
AcDbLine
 10
72.487
 20
145.867617
 30
0.0
 11
72.487
 21
183.6
 31
0.0
  0
LINE
  5
5B
330
59
100
AcDbEntity
  8
LC-003-003-----0
 62
     2
370
    -2
100
AcDbLine
 10
302.487
 20
145.867617
 30
0.0
 11
302.487
 21
183.6
 31
0.0
  0
LINE
  5
5C
330
59
100
AcDbEntity
  8
LC-003-003-----0
 62
     2
370
    -2
100
AcDbLine
 10
100.487
 20
180.0
 30
0.0
 11
274.487
 21
180.0
 31
0.0
  0
SOLID
  5
5D
330
59
100
AcDbEntity
  8
LC-003-003-----0
 62
     2
100
AcDbTrace
 10
100.487
 20
184.666667
 30
0.0
 11
100.487
 21
175.333333
 31
0.0
 12
72.487
 22
180.0
 32
0.0
 13
72.487
 23
180.0
 33
0.0
  0
SOLID
  5
5E
330
59
100
AcDbEntity
  8
LC-003-003-----0
 62
     2
100
AcDbTrace
 10
274.487
 20
175.333333
 30
0.0
 11
274.487
 21
184.666667
 31
0.0
 12
302.487
 22
180.0
 32
0.0
 13
302.487
 23
180.0
 33
0.0
  0
MTEXT
  5
5F
330
59
100
AcDbEntity
  8
LC-003-003-----0
 62
     2
100
AcDbMText
 10
187.487
 20
210.8
 30
0.0
 40
28.0
 41
0.0
 71
     5
 72
     1
  1
%%c\A1;230
  7
LCTX15-400-0-0pDIN-Schrift
 73
     1
 44
1.0
  0
POINT
  5
60
330
59
100
AcDbEntity
  8
Defpoints
 62
     0
100
AcDbPoint
 10
72.487
 20
145.867617
 30
0.0
  0
POINT
  5
61
330
59
100
AcDbEntity
  8
Defpoints
 62
     0
100
AcDbPoint
 10
302.487
 20
145.867617
 30
0.0
  0
POINT
  5
62
330
59
100
AcDbEntity
  8
Defpoints
 62
     0
100
AcDbPoint
 10
302.487
 20
180.0
 30
0.0
  0
ENDBLK
  5
64
330
59
100
AcDbEntity
  8
0
100
AcDbBlockEnd
  0
BLOCK
  5
11C
330
112
100
AcDbEntity
  8
0
100
AcDbBlockBegin
  2
*D4
 70
     1
 71
     0
 10
0.0
 20
0.0
 30
0.0
  3
*D4
  1

  0
LINE
  5
113
330
112
100
AcDbEntity
  8
LC-003-003-----0
 62
     2
370
    -2
100
AcDbLine
 10
81.861349
 20
144.02986
 30
0.0
 11
68.4
 21
144.02986
 31
0.0
  0
LINE
  5
114
330
112
100
AcDbEntity
  8
LC-003-003-----0
 62
     2
370
    -2
100
AcDbLine
 10
180.715936
 20
59.093569
 30
0.0
 11
68.4
 21
59.093569
 31
0.0
  0
LINE
  5
115
330
112
100
AcDbEntity
  8
LC-003-003-----0
 62
     2
370
    -2
100
AcDbLine
 10
72.0
 20
116.02986
 30
0.0
 11
72.0
 21
87.093569
 31
0.0
  0
SOLID
  5
116
330
112
100
AcDbEntity
  8
LC-003-003-----0
 62
     2
100
AcDbTrace
 10
76.666667
 20
116.02986
 30
0.0
 11
67.333333
 21
116.02986
 31
0.0
 12
72.0
 22
144.02986
 32
0.0
 13
72.0
 23
144.02986
 33
0.0
  0
SOLID
  5
117
330
112
100
AcDbEntity
  8
LC-003-003-----0
 62
     2
100
AcDbTrace
 10
67.333333
 20
87.093569
 30
0.0
 11
76.666667
 21
87.093569
 31
0.0
 12
72.0
 22
59.093569
 32
0.0
 13
72.0
 23
59.093569
 33
0.0
  0
MTEXT
  5
118
330
112
100
AcDbEntity
  8
LC-003-003-----0
 62
     2
100
AcDbMText
 10
41.2
 20
82.047
 30
0.0
 40
28.0
 41
0.0
 71
     5
 72
     1
  1
\A1;85
  7
LCTX15-400-0-0pDIN-Schrift
 11
6.123031769111886E-17
 21
1.0
 31
0.0
 73
     1
 44
1.0
  0
POINT
  5
119
330
112
100
AcDbEntity
  8
Defpoints
 62
     0
100
AcDbPoint
 10
81.861349
 20
144.02986
 30
0.0
  0
POINT
  5
11A
330
112
100
AcDbEntity
  8
Defpoints
 62
     0
100
AcDbPoint
 10
180.715936
 20
59.093569
 30
0.0
  0
POINT
  5
11B
330
112
100
AcDbEntity
  8
Defpoints
 62
     0
100
AcDbPoint
 10
72.0
 20
59.093569
 30
0.0
  0
ENDBLK
  5
11D
330
112
100
AcDbEntity
  8
0
100
AcDbBlockEnd
  0
BLOCK
  5
14E
330
142
100
AcDbEntity
  8
0
100
AcDbBlockBegin
  2
*D5
 70
     1
 71
     0
 10
0.0
 20
0.0
 30
0.0
  3
*D5
  1

  0
LINE
  5
143
330
142
100
AcDbEntity
  8
LC-003-003-----0
 62
     2
370
    -2
100
AcDbLine
 10
293.967986
 20
144.061349
 30
0.0
 11
395.6
 21
144.061349
 31
0.0
  0
LINE
  5
144
330
142
100
AcDbEntity
  8
LC-003-003-----0
 62
     2
370
    -2
100
AcDbLine
 10
396.635495
 20
89.51088
 30
0.0
 11
388.4
 21
89.51088
 31
0.0
  0
LINE
  5
145
330
142
100
AcDbEntity
  8
LC-003-003-----0
 62
     2
370
    -2
100
AcDbLine
 10
392.0
 20
172.061349
 30
0.0
 11
392.0
 21
200.061349
 31
0.0
  0
LINE
  5
146
330
142
100
AcDbEntity
  8
LC-003-003-----0
 62
     2
370
    -2
100
AcDbLine
 10
392.0
 20
61.51088
 30
0.0
 11
392.0
 21
33.51088
 31
0.0
  0
LINE
  5
147
330
142
100
AcDbEntity
  8
LC-003-003-----0
 62
     2
370
    -2
100
AcDbLine
 10
392.0
 20
144.061349
 30
0.0
 11
392.0
 21
89.51088
 31
0.0
  0
SOLID
  5
148
330
142
100
AcDbEntity
  8
LC-003-003-----0
 62
     2
100
AcDbTrace
 10
387.333333
 20
172.061349
 30
0.0
 11
396.666667
 21
172.061349
 31
0.0
 12
392.0
 22
144.061349
 32
0.0
 13
392.0
 23
144.061349
 33
0.0
  0
SOLID
  5
149
330
142
100
AcDbEntity
  8
LC-003-003-----0
 62
     2
100
AcDbTrace
 10
396.666667
 20
61.51088
 30
0.0
 11
387.333333
 21
61.51088
 31
0.0
 12
392.0
 22
89.51088
 32
0.0
 13
392.0
 23
89.51088
 33
0.0
  0
MTEXT
  5
14A
330
142
100
AcDbEntity
  8
LC-003-003-----0
 62
     2
100
AcDbMText
 10
361.2
 20
142.041
 30
0.0
 40
28.0
 41
0.0
 71
     5
 72
     1
  1
\A1;54
  7
LCTX15-400-0-0pDIN-Schrift
 11
6.123031769111886E-17
 21
1.0
 31
0.0
 73
     1
 44
1.0
  0
POINT
  5
14B
330
142
100
AcDbEntity
  8
Defpoints
 62
     0
100
AcDbPoint
 10
293.967986
 20
144.061349
 30
0.0
  0
POINT
  5
14C
330
142
100
AcDbEntity
  8
Defpoints
 62
     0
100
AcDbPoint
 10
396.635495
 20
89.51088
 30
0.0
  0
POINT
  5
14D
330
142
100
AcDbEntity
  8
Defpoints
 62
     0
100
AcDbPoint
 10
392.0
 20
89.51088
 30
0.0
  0
ENDBLK
  5
14F
330
142
100
AcDbEntity
  8
0
100
AcDbBlockEnd
  0
ENDSEC
  0
SECTION
  2
ENTITIES
  0
LINE
  5
31
102
{ACAD_REACTORS
330
1B1
102
}
330
1F
100
AcDbEntity
  8
LC-001-002-----0
 62
     7
370
    50
100
AcDbLine
 10
127.486887
 20
142.910584
 30
0.0
 11
247.487112
 21
142.910584
 31
0.0
  0
ARC
  5
33
330
1F
100
AcDbEntity
  8
LC-002-002-RND-0
 62
     7
370
    50
100
AcDbCircle
 10
300.487086
 20
145.867617
 30
0.0
 40
2.0
100
AcDbArc
 50
0.0
 51
91.898364
  0
LINE
  5
34
102
{ACAD_REACTORS
330
1B1
102
}
330
1F
100
AcDbEntity
  8
LC-001-002-----0
 62
     7
370
    50
100
AcDbLine
 10
292.771929
 20
147.613
 30
0.0
 11
82.20207
 21
147.613
 31
0.0
  0
DIMENSION
  5
38
330
1F
100
AcDbEntity
  8
LC-003-003-----0
 62
     7
370
    25
100
AcDbDimension
  2
*D1
 10
355.371341
 20
51.195264
 30
0.0
 11
328.846893
 21
149.793571
 31
0.0
 70
   160
  1
DN70
 71
     5
 42
75.0
 53
87.5
  3
LC-DIM-L-0140-02-02
100
AcDbAlignedDimension
 13
335.62617
 23
127.128808
 33
0.0
 14
332.354716
 24
52.200191
 34
0.0
 50
87.5
100
AcDbRotatedDimension
  0
LINE
  5
47
330
1F
100
AcDbEntity
  8
LC-001-002-----0
 62
     7
370
    50
100
AcDbLine
 10
250.487112
 20
130.846059
 30
0.0
 11
250.487112
 21
135.411275
 31
0.0
  0
LINE
  5
48
330
1F
100
AcDbEntity
  8
LC-001-002-----0
 62
     7
370
    50
100
AcDbLine
 10
72.487
 20
144.386473
 30
0.0
 11
72.487
 21
145.867617
 31
0.0
  0
LINE
  5
49
330
1F
100
AcDbEntity
  8
LC-001-002-----0
 62
     7
370
    50
100
AcDbLine
 10
260.198324
 20
141.411275
 30
0.0
 11
260.487
 21
141.911275
 31
0.0
  0
ARC
  5
4A
330
1F
100
AcDbEntity
  8
LC-002-002-RND-0
 62
     7
370
    50
100
AcDbCircle
 10
74.487
 20
145.867617
 30
0.0
 40
1.999999999999994
100
AcDbArc
 50
88.101636
 51
180.0
  0
DIMENSION
  5
4B
330
1F
100
AcDbEntity
  8
LC-003-003-----0
 62
     7
370
    25
100
AcDbDimension
  2
*D2
 10
337.487112
 20
0.0
 30
0.0
 11
256.55682
 21
30.8
 31
0.0
 70
   160
 71
     5
 42
150.000069
  3
LC-DIM-L-0140-02-02
100
AcDbAlignedDimension
 13
187.487043
 23
58.525247
 33
0.0
 14
337.487112
 24
89.511832
 34
0.0
100
AcDbRotatedDimension
  0
DIMENSION
  5
58
330
1F
100
AcDbEntity
  8
LC-003-003-----0
 62
     7
370
    25
100
AcDbDimension
  2
*D3
 10
302.487
 20
180.0
 30
0.0
 11
187.487
 21
210.8
 31
0.0
 70
   160
  1
%%c<>
 71
     5
 42
230.0
  3
LC-DIM-L-0140-02-02
100
AcDbAlignedDimension
 13
72.487
 23
145.867617
 33
0.0
 14
302.487
 24
145.867617
 34
0.0
100
AcDbRotatedDimension
  0
LINE
  5
66
102
{ACAD_REACTORS
330
1B0
102
}
330
1F
100
AcDbEntity
  8
LC-004-005-----0
 62
     7
370
    25
100
AcDbLine
 10
335.808614
 20
52.965902
 30
0.0
 11
335.895265
 21
53.052553
 31
0.0
  0
LINE
  5
67
330
1F
100
AcDbEntity
  8
LC-001-002-----0
 62
     7
370
    50
100
AcDbLine
 10
258.198324
 20
141.411275
 30
0.0
 11
258.487
 21
141.911275
 31
0.0
  0
LINE
  5
68
330
1F
100
AcDbEntity
  8
LC-001-002-----0
 62
     7
370
    50
100
AcDbLine
 10
256.198324
 20
141.411275
 30
0.0
 11
256.487
 21
141.911275
 31
0.0
  0
LINE
  5
69
330
1F
100
AcDbEntity
  8
LC-001-002-----0
 62
     7
370
    50
100
AcDbLine
 10
254.198324
 20
141.411275
 30
0.0
 11
254.487
 21
141.911275
 31
0.0
  0
LINE
  5
6A
330
1F
100
AcDbEntity
  8
LC-001-002-----0
 62
     7
370
    50
100
AcDbLine
 10
260.487
 20
141.911275
 30
0.0
 11
260.775675
 21
141.411275
 31
0.0
  0
LINE
  5
6B
330
1F
100
AcDbEntity
  8
LC-001-002-----0
 62
     7
370
    50
100
AcDbLine
 10
258.487
 20
141.911275
 30
0.0
 11
258.775675
 21
141.411275
 31
0.0
  0
LINE
  5
6C
330
1F
100
AcDbEntity
  8
LC-001-002-----0
 62
     7
370
    50
100
AcDbLine
 10
256.487
 20
141.911275
 30
0.0
 11
256.775675
 21
141.411275
 31
0.0
  0
LINE
  5
6D
102
{ACAD_REACTORS
330
1B0
102
}
330
1F
100
AcDbEntity
  8
LC-004-005-----0
 62
     7
370
    25
100
AcDbLine
 10
332.220343
 20
52.206058
 30
0.0
 11
334.618039
 21
54.603754
 31
0.0
  0
LINE
  5
6E
102
{ACAD_REACTORS
330
1B0
102
}
330
1F
100
AcDbEntity
  8
LC-004-005-----0
 62
     7
370
    25
100
AcDbLine
 10
329.510242
 20
52.324384
 30
0.0
 11
331.907938
 21
54.72208
 31
0.0
  0
LINE
  5
6F
102
{ACAD_REACTORS
330
1B0
102
}
330
1F
100
AcDbEntity
  8
LC-004-005-----0
 62
     7
370
    25
100
AcDbLine
 10
326.80014
 20
52.442709
 30
0.0
 11
329.197836
 21
54.840405
 31
0.0
  0
LINE
  5
70
330
1F
100
AcDbEntity
  8
LC-001-002-----0
 62
     7
370
    50
100
AcDbLine
 10
260.775675
 20
141.411275
 30
0.0
 11
262.198324
 21
141.411275
 31
0.0
  0
LINE
  5
71
102
{ACAD_REACTORS
330
1B0
102
}
330
1F
100
AcDbEntity
  8
LC-004-005-----0
 62
     7
370
    25
100
AcDbLine
 10
324.090039
 20
52.561035
 30
0.0
 11
326.487735
 21
54.958731
 31
0.0
  0
LINE
  5
72
102
{ACAD_REACTORS
330
1B0
102
}
330
1F
100
AcDbEntity
  8
LC-004-005-----0
 62
     7
370
    25
100
AcDbLine
 10
321.379937
 20
52.67936
 30
0.0
 11
323.777633
 21
55.077056
 31
0.0
  0
LINE
  5
73
102
{ACAD_REACTORS
330
1B0
102
}
330
1F
100
AcDbEntity
  8
LC-004-005-----0
 62
     7
370
    25
100
AcDbLine
 10
318.669836
 20
52.797686
 30
0.0
 11
321.067532
 21
55.195382
 31
0.0
  0
LINE
  5
74
102
{ACAD_REACTORS
330
1B0
102
}
330
1F
100
AcDbEntity
  8
LC-004-005-----0
 62
     7
370
    25
100
AcDbLine
 10
315.959734
 20
52.916012
 30
0.0
 11
318.35743
 21
55.313708
 31
0.0
  0
LINE
  5
75
102
{ACAD_REACTORS
330
1B0
102
}
330
1F
100
AcDbEntity
  8
LC-004-005-----0
 62
     7
370
    25
100
AcDbLine
 10
313.249633
 20
53.034337
 30
0.0
 11
315.647329
 21
55.432033
 31
0.0
  0
LINE
  5
76
102
{ACAD_REACTORS
330
1B0
102
}
330
1F
100
AcDbEntity
  8
LC-004-005-----0
 62
     7
370
    25
100
AcDbLine
 10
310.539531
 20
53.152663
 30
0.0
 11
312.937227
 21
55.550359
 31
0.0
  0
LINE
  5
77
102
{ACAD_REACTORS
330
1B0
102
}
330
1F
100
AcDbEntity
  8
LC-004-005-----0
 62
     7
370
    25
100
AcDbLine
 10
307.82943
 20
53.270988
 30
0.0
 11
310.227126
 21
55.668684
 31
0.0
  0
LINE
  5
78
102
{ACAD_REACTORS
330
1B0
102
}
330
1F
100
AcDbEntity
  8
LC-004-005-----0
 62
     7
370
    25
100
AcDbLine
 10
305.119328
 20
53.389314
 30
0.0
 11
307.517024
 21
55.78701
 31
0.0
  0
LINE
  5
79
102
{ACAD_REACTORS
330
1B0
102
}
330
1F
100
AcDbEntity
  8
LC-004-005-----0
 62
     7
370
    25
100
AcDbLine
 10
302.409226
 20
53.507639
 30
0.0
 11
304.806922
 21
55.905335
 31
0.0
  0
LINE
  5
7A
102
{ACAD_REACTORS
330
1B0
102
}
330
1F
100
AcDbEntity
  8
LC-004-005-----0
 62
     7
370
    25
100
AcDbLine
 10
299.699125
 20
53.625965
 30
0.0
 11
302.096821
 21
56.023661
 31
0.0
  0
LINE
  5
7B
102
{ACAD_REACTORS
330
1B0
102
}
330
1F
100
AcDbEntity
  8
LC-004-005-----0
 62
     7
370
    25
100
AcDbLine
 10
296.989023
 20
53.744291
 30
0.0
 11
299.386719
 21
56.141987
 31
0.0
  0
LINE
  5
7C
102
{ACAD_REACTORS
330
1B0
102
}
330
1F
100
AcDbEntity
  8
LC-004-005-----0
 62
     7
370
    25
100
AcDbLine
 10
294.278922
 20
53.862616
 30
0.0
 11
296.676618
 21
56.260312
 31
0.0
  0
LINE
  5
7D
102
{ACAD_REACTORS
330
1B0
102
}
330
1F
100
AcDbEntity
  8
LC-004-005-----0
 62
     7
370
    25
100
AcDbLine
 10
291.56882
 20
53.980942
 30
0.0
 11
293.966516
 21
56.378638
 31
0.0
  0
LINE
  5
7E
102
{ACAD_REACTORS
330
1B0
102
}
330
1F
100
AcDbEntity
  8
LC-004-005-----0
 62
     7
370
    25
100
AcDbLine
 10
288.858719
 20
54.099267
 30
0.0
 11
291.256415
 21
56.496963
 31
0.0
  0
LINE
  5
7F
102
{ACAD_REACTORS
330
1B0
102
}
330
1F
100
AcDbEntity
  8
LC-004-005-----0
 62
     7
370
    25
100
AcDbLine
 10
286.148617
 20
54.217593
 30
0.0
 11
288.546313
 21
56.615289
 31
0.0
  0
LINE
  5
80
102
{ACAD_REACTORS
330
1B0
102
}
330
1F
100
AcDbEntity
  8
LC-004-005-----0
 62
     7
370
    25
100
AcDbLine
 10
283.438516
 20
54.335919
 30
0.0
 11
285.836212
 21
56.733615
 31
0.0
  0
LINE
  5
81
330
1F
100
AcDbEntity
  8
LC-001-002-----0
 62
     7
370
    50
100
AcDbLine
 10
302.487086
 20
144.386473
 30
0.0
 11
302.487086
 21
145.867617
 31
0.0
  0
LINE
  5
82
102
{ACAD_REACTORS
330
1B0
102
}
330
1F
100
AcDbEntity
  8
LC-004-005-----0
 62
     7
370
    25
100
AcDbLine
 10
280.728414
 20
54.454244
 30
0.0
 11
283.12611
 21
56.85194
 31
0.0
  0
LINE
  5
83
102
{ACAD_REACTORS
330
1B0
102
}
330
1F
100
AcDbEntity
  8
LC-004-005-----0
 62
     7
370
    25
100
AcDbLine
 10
278.018313
 20
54.57257
 30
0.0
 11
280.416009
 21
56.970266
 31
0.0
  0
LINE
  5
84
102
{ACAD_REACTORS
330
1B0
102
}
330
1F
100
AcDbEntity
  8
LC-004-005-----0
 62
     7
370
    25
100
AcDbLine
 10
275.308211
 20
54.690895
 30
0.0
 11
277.705907
 21
57.088591
 31
0.0
  0
LINE
  5
85
330
1F
100
AcDbEntity
  8
LC-001-002-----0
 62
     7
370
    50
100
AcDbLine
 10
262.487
 20
141.911275
 30
0.0
 11
260.487
 21
141.911275
 31
0.0
  0
LINE
  5
86
102
{ACAD_REACTORS
330
1B0
102
}
330
1F
100
AcDbEntity
  8
LC-004-005-----0
 62
     7
370
    25
100
AcDbLine
 10
272.59811
 20
54.809221
 30
0.0
 11
274.995806
 21
57.206917
 31
0.0
  0
LINE
  5
87
102
{ACAD_REACTORS
330
1B0
102
}
330
1F
100
AcDbEntity
  8
LC-004-005-----0
 62
     7
370
    25
100
AcDbLine
 10
269.888008
 20
54.927547
 30
0.0
 11
272.285704
 21
57.325243
 31
0.0
  0
LINE
  5
88
102
{ACAD_REACTORS
330
1B0
102
}
330
1F
100
AcDbEntity
  8
LC-004-005-----0
 62
     7
370
    25
100
AcDbLine
 10
267.177906
 20
55.045872
 30
0.0
 11
269.575603
 21
57.443568
 31
0.0
  0
LINE
  5
89
102
{ACAD_REACTORS
330
1B0
102
}
330
1F
100
AcDbEntity
  8
LC-004-005-----0
 62
     7
370
    25
100
AcDbLine
 10
264.467805
 20
55.164198
 30
0.0
 11
266.865501
 21
57.561894
 31
0.0
  0
LINE
  5
8A
102
{ACAD_REACTORS
330
1B0
102
}
330
1F
100
AcDbEntity
  8
LC-004-005-----0
 62
     7
370
    25
100
AcDbLine
 10
261.757703
 20
55.282523
 30
0.0
 11
264.155399
 21
57.680219
 31
0.0
  0
LINE
  5
8B
102
{ACAD_REACTORS
330
1B0
102
}
330
1F
100
AcDbEntity
  8
LC-004-005-----0
 62
     7
370
    25
100
AcDbLine
 10
259.047602
 20
55.400849
 30
0.0
 11
261.445298
 21
57.798545
 31
0.0
  0
LINE
  5
8C
102
{ACAD_REACTORS
330
1B0
102
}
330
1F
100
AcDbEntity
  8
LC-004-005-----0
 62
     7
370
    25
100
AcDbLine
 10
256.3375
 20
55.519174
 30
0.0
 11
258.735196
 21
57.91687
 31
0.0
  0
LINE
  5
8D
102
{ACAD_REACTORS
330
1B0
102
}
330
1F
100
AcDbEntity
  8
LC-004-005-----0
 62
     7
370
    25
100
AcDbLine
 10
253.627399
 20
55.6375
 30
0.0
 11
256.025095
 21
58.035196
 31
0.0
  0
LINE
  5
8E
102
{ACAD_REACTORS
330
1B0
102
}
330
1F
100
AcDbEntity
  8
LC-004-005-----0
 62
     7
370
    25
100
AcDbLine
 10
250.917297
 20
55.755826
 30
0.0
 11
253.314993
 21
58.153522
 31
0.0
  0
LINE
  5
8F
102
{ACAD_REACTORS
330
1B0
102
}
330
1F
100
AcDbEntity
  8
LC-004-005-----0
 62
     7
370
    25
100
AcDbLine
 10
248.207196
 20
55.874151
 30
0.0
 11
250.604892
 21
58.271847
 31
0.0
  0
LINE
  5
90
102
{ACAD_REACTORS
330
1B0
102
}
330
1F
100
AcDbEntity
  8
LC-004-005-----0
 62
     7
370
    25
100
AcDbLine
 10
245.497094
 20
55.992477
 30
0.0
 11
247.89479
 21
58.390173
 31
0.0
  0
LINE
  5
91
102
{ACAD_REACTORS
330
1B0
102
}
330
1F
100
AcDbEntity
  8
LC-004-005-----0
 62
     7
370
    25
100
AcDbLine
 10
242.786993
 20
56.110802
 30
0.0
 11
245.184689
 21
58.508498
 31
0.0
  0
LINE
  5
92
102
{ACAD_REACTORS
330
1B0
102
}
330
1F
100
AcDbEntity
  8
LC-004-005-----0
 62
     7
370
    25
100
AcDbLine
 10
240.076891
 20
56.229128
 30
0.0
 11
242.474587
 21
58.626824
 31
0.0
  0
LINE
  5
93
102
{ACAD_REACTORS
330
1B0
102
}
330
1F
100
AcDbEntity
  8
LC-004-005-----0
 62
     7
370
    25
100
AcDbLine
 10
237.36679
 20
56.347454
 30
0.0
 11
239.764486
 21
58.74515
 31
0.0
  0
LINE
  5
94
102
{ACAD_REACTORS
330
1B0
102
}
330
1F
100
AcDbEntity
  8
LC-004-005-----0
 62
     7
370
    25
100
AcDbLine
 10
234.656688
 20
56.465779
 30
0.0
 11
237.054384
 21
58.863475
 31
0.0
  0
LINE
  5
95
102
{ACAD_REACTORS
330
1B0
102
}
330
1F
100
AcDbEntity
  8
LC-004-005-----0
 62
     7
370
    25
100
AcDbLine
 10
231.946586
 20
56.584105
 30
0.0
 11
234.344283
 21
58.981801
 31
0.0
  0
LINE
  5
96
102
{ACAD_REACTORS
330
1B0
102
}
330
1F
100
AcDbEntity
  8
LC-004-005-----0
 62
     7
370
    25
100
AcDbLine
 10
229.236485
 20
56.70243
 30
0.0
 11
231.634181
 21
59.100126
 31
0.0
  0
LINE
  5
97
102
{ACAD_REACTORS
330
1B0
102
}
330
1F
100
AcDbEntity
  8
LC-004-005-----0
 62
     7
370
    25
100
AcDbLine
 10
226.526383
 20
56.820756
 30
0.0
 11
228.924079
 21
59.218452
 31
0.0
  0
LINE
  5
98
102
{ACAD_REACTORS
330
1B0
102
}
330
1F
100
AcDbEntity
  8
LC-004-005-----0
 62
     7
370
    25
100
AcDbLine
 10
223.816282
 20
56.939082
 30
0.0
 11
226.213978
 21
59.336778
 31
0.0
  0
LINE
  5
99
102
{ACAD_REACTORS
330
1B0
102
}
330
1F
100
AcDbEntity
  8
LC-004-005-----0
 62
     7
370
    25
100
AcDbLine
 10
221.10618
 20
57.057407
 30
0.0
 11
223.503876
 21
59.455103
 31
0.0
  0
LINE
  5
9A
102
{ACAD_REACTORS
330
1B0
102
}
330
1F
100
AcDbEntity
  8
LC-004-005-----0
 62
     7
370
    25
100
AcDbLine
 10
218.396079
 20
57.175733
 30
0.0
 11
220.793775
 21
59.573429
 31
0.0
  0
LINE
  5
9B
102
{ACAD_REACTORS
330
1B0
102
}
330
1F
100
AcDbEntity
  8
LC-004-005-----0
 62
     7
370
    25
100
AcDbLine
 10
215.685977
 20
57.294058
 30
0.0
 11
218.083673
 21
59.691754
 31
0.0
  0
LINE
  5
9C
102
{ACAD_REACTORS
330
1B0
102
}
330
1F
100
AcDbEntity
  8
LC-004-005-----0
 62
     7
370
    25
100
AcDbLine
 10
212.975876
 20
57.412384
 30
0.0
 11
215.373572
 21
59.81008
 31
0.0
  0
LINE
  5
9D
102
{ACAD_REACTORS
330
1B0
102
}
330
1F
100
AcDbEntity
  8
LC-004-005-----0
 62
     7
370
    25
100
AcDbLine
 10
210.265774
 20
57.530709
 30
0.0
 11
212.66347
 21
59.928406
 31
0.0
  0
LINE
  5
9E
102
{ACAD_REACTORS
330
1B0
102
}
330
1F
100
AcDbEntity
  8
LC-004-005-----0
 62
     7
370
    25
100
AcDbLine
 10
207.555673
 20
57.649035
 30
0.0
 11
209.953369
 21
60.046731
 31
0.0
  0
LINE
  5
9F
102
{ACAD_REACTORS
330
1B0
102
}
330
1F
100
AcDbEntity
  8
LC-004-005-----0
 62
     7
370
    25
100
AcDbLine
 10
204.845571
 20
57.767361
 30
0.0
 11
207.243267
 21
60.165057
 31
0.0
  0
LINE
  5
A0
102
{ACAD_REACTORS
330
1B0
102
}
330
1F
100
AcDbEntity
  8
LC-004-005-----0
 62
     7
370
    25
100
AcDbLine
 10
202.13547
 20
57.885686
 30
0.0
 11
204.533166
 21
60.283382
 31
0.0
  0
LINE
  5
A1
102
{ACAD_REACTORS
330
1B0
102
}
330
1F
100
AcDbEntity
  8
LC-004-005-----0
 62
     7
370
    25
100
AcDbLine
 10
199.425368
 20
58.004012
 30
0.0
 11
201.823064
 21
60.401708
 31
0.0
  0
LINE
  5
A2
102
{ACAD_REACTORS
330
1B0
102
}
330
1F
100
AcDbEntity
  8
LC-004-005-----0
 62
     7
370
    25
100
AcDbLine
 10
196.715267
 20
58.122337
 30
0.0
 11
199.112963
 21
60.520033
 31
0.0
  0
LINE
  5
A3
102
{ACAD_REACTORS
330
1B0
102
}
330
1F
100
AcDbEntity
  8
LC-004-005-----0
 62
     7
370
    25
100
AcDbLine
 10
194.005165
 20
58.240663
 30
0.0
 11
196.402861
 21
60.638359
 31
0.0
  0
LINE
  5
A4
102
{ACAD_REACTORS
330
1B0
102
}
330
1F
100
AcDbEntity
  8
LC-004-005-----0
 62
     7
370
    25
100
AcDbLine
 10
191.295063
 20
58.358989
 30
0.0
 11
193.692759
 21
60.756685
 31
0.0
  0
LINE
  5
A5
102
{ACAD_REACTORS
330
1B0
102
}
330
1F
100
AcDbEntity
  8
LC-004-005-----0
 62
     7
370
    25
100
AcDbLine
 10
188.584962
 20
58.477314
 30
0.0
 11
190.982658
 21
60.87501
 31
0.0
  0
LINE
  5
A6
102
{ACAD_REACTORS
330
1B0
102
}
330
1F
100
AcDbEntity
  8
LC-004-005-----0
 62
     7
370
    25
100
AcDbLine
 10
185.87486
 20
58.59564
 30
0.0
 11
188.272556
 21
60.993336
 31
0.0
  0
LINE
  5
A7
102
{ACAD_REACTORS
330
1B0
102
}
330
1F
100
AcDbEntity
  8
LC-004-005-----0
 62
     7
370
    25
100
AcDbLine
 10
183.21594
 20
58.765146
 30
0.0
 11
185.562455
 21
61.111661
 31
0.0
  0
LINE
  5
A8
102
{ACAD_REACTORS
330
1B0
102
}
330
1F
100
AcDbEntity
  8
LC-004-005-----0
 62
     7
370
    25
100
AcDbLine
 10
180.715936
 20
59.093569
 30
0.0
 11
182.931065
 21
61.308699
 31
0.0
  0
LINE
  5
A9
102
{ACAD_REACTORS
330
1B0
102
}
330
1F
100
AcDbEntity
  8
LC-004-005-----0
 62
     7
370
    25
100
AcDbLine
 10
178.356739
 20
59.5628
 30
0.0
 11
180.468968
 21
61.675029
 31
0.0
  0
LINE
  5
AA
102
{ACAD_REACTORS
330
1B0
102
}
330
1F
100
AcDbEntity
  8
LC-004-005-----0
 62
     7
370
    25
100
AcDbLine
 10
176.121232
 20
60.15572
 30
0.0
 11
178.151848
 21
62.186336
 31
0.0
  0
LINE
  5
AB
102
{ACAD_REACTORS
330
1B0
102
}
330
1F
100
AcDbEntity
  8
LC-004-005-----0
 62
     7
370
    25
100
AcDbLine
 10
173.996732
 20
60.859647
 30
0.0
 11
175.961906
 21
62.824821
 31
0.0
  0
LINE
  5
AC
102
{ACAD_REACTORS
330
1B0
102
}
330
1F
100
AcDbEntity
  8
LC-004-005-----0
 62
     7
370
    25
100
AcDbLine
 10
171.97364
 20
61.664982
 30
0.0
 11
173.88612
 21
63.577463
 31
0.0
  0
LINE
  5
AD
102
{ACAD_REACTORS
330
1B0
102
}
330
1F
100
AcDbEntity
  8
LC-004-005-----0
 62
     7
370
    25
100
AcDbLine
 10
170.044593
 20
62.564362
 30
0.0
 11
171.914761
 21
64.434531
 31
0.0
  0
LINE
  5
AE
102
{ACAD_REACTORS
330
1B0
102
}
330
1F
100
AcDbEntity
  8
LC-004-005-----0
 62
     7
370
    25
100
AcDbLine
 10
168.203914
 20
63.55211
 30
0.0
 11
170.040479
 21
65.388676
 31
0.0
  0
LINE
  5
AF
102
{ACAD_REACTORS
330
1B0
102
}
330
1F
100
AcDbEntity
  8
LC-004-005-----0
 62
     7
370
    25
100
AcDbLine
 10
166.447243
 20
64.623866
 30
0.0
 11
168.257718
 21
66.434341
 31
0.0
  0
LINE
  5
B0
330
1F
100
AcDbEntity
  8
LC-001-002-----0
 62
     7
370
    50
100
AcDbLine
 10
252.487
 20
141.911275
 30
0.0
 11
251.487
 21
141.911275
 31
0.0
  0
LINE
  5
B1
102
{ACAD_REACTORS
330
1B1
102
}
330
1F
100
AcDbEntity
  8
LC-001-002-----0
 62
     7
370
    50
100
AcDbLine
 10
339.081932
 20
126.03921
 30
0.0
 11
339.01379
 21
124.478519
 31
0.0
  0
LINE
  5
B2
102
{ACAD_REACTORS
330
1B0
102
}
330
1F
100
AcDbEntity
  8
LC-004-005-----0
 62
     7
370
    25
100
AcDbLine
 10
164.771284
 20
65.776334
 30
0.0
 11
166.56233
 21
67.567381
 31
0.0
  0
ELLIPSE
  5
B3
330
1F
100
AcDbEntity
  8
LC-001-002-----0
 62
     7
370
    50
100
AcDbEllipse
 10
239.487
 20
93.790609
 30
0.0
 11
0.0
 21
-35.12066586653086
 31
0.0
210
0.0
220
0.0
230
1.0
 40
0.385961
 41
0.0
 42
3.141592653589793
  0
LINE
  5
B4
330
1F
100
AcDbEntity
  8
LC-001-002-----0
 62
     7
370
    50
100
AcDbLine
 10
154.29286
 20
83.241978
 30
0.0
 11
135.487043
 21
130.911275
 31
0.0
  0
ARC
  5
B5
330
1F
100
AcDbEntity
  8
LC-001-002-----0
 62
     7
370
    50
100
AcDbCircle
 10
186.847016
 20
96.084784
 30
0.0
 40
34.99586744490194
100
AcDbArc
 50
201.529525
 51
267.5
  0
LINE
  5
B6
102
{ACAD_REACTORS
330
1B0
102
}
330
1F
100
AcDbEntity
  8
LC-004-005-----0
 62
     7
370
    25
100
AcDbLine
 10
163.173633
 20
67.007111
 30
0.0
 11
164.95132
 21
68.784798
 31
0.0
  0
LINE
  5
B7
102
{ACAD_REACTORS
330
1B0
102
}
330
1F
100
AcDbEntity
  8
LC-004-005-----0
 62
     7
370
    25
100
AcDbLine
 10
161.652665
 20
68.31457
 30
0.0
 11
163.422671
 21
70.084576
 31
0.0
  0
LINE
  5
B8
330
1F
100
AcDbEntity
  8
LC-001-002-----0
 62
     7
370
    50
100
AcDbLine
 10
151.967288
 20
82.324527
 30
0.0
 11
133.983321
 21
127.910584
 31
0.0
  0
LINE
  5
B9
102
{ACAD_REACTORS
330
1B0
102
}
330
1F
100
AcDbEntity
  8
LC-004-005-----0
 62
     7
370
    25
100
AcDbLine
 10
160.207452
 20
69.697784
 30
0.0
 11
161.975241
 21
71.465573
 31
0.0
  0
LINE
  5
BA
102
{ACAD_REACTORS
330
1B0
102
}
330
1F
100
AcDbEntity
  8
LC-004-005-----0
 62
     7
370
    25
100
AcDbLine
 10
158.837729
 20
71.156488
 30
0.0
 11
160.608702
 21
72.927461
 31
0.0
  0
LINE
  5
BB
102
{ACAD_REACTORS
330
1B0
102
}
330
1F
100
AcDbEntity
  8
LC-004-005-----0
 62
     7
370
    25
100
AcDbLine
 10
157.543877
 20
72.691064
 30
0.0
 11
159.323524
 21
74.470711
 31
0.0
  0
ARC
  5
BC
330
1F
100
AcDbEntity
  8
LC-001-002-----0
 62
     7
370
    50
100
AcDbCircle
 10
187.487043
 20
92.453115
 30
0.0
 40
38.45815942802843
100
AcDbArc
 50
359.710305
 51
90.0
  0
LINE
  5
BD
102
{ACAD_REACTORS
330
1B0
102
}
330
1F
100
AcDbEntity
  8
LC-004-005-----0
 62
     7
370
    25
100
AcDbLine
 10
156.326945
 20
74.302558
 30
0.0
 11
158.121002
 21
76.096616
 31
0.0
  0
LINE
  5
BE
102
{ACAD_REACTORS
330
1B0
102
}
330
1F
100
AcDbEntity
  8
LC-004-005-----0
 62
     7
370
    25
100
AcDbLine
 10
155.188691
 20
75.992732
 30
0.0
 11
157.003316
 21
77.807357
 31
0.0
  0
LINE
  5
BF
102
{ACAD_REACTORS
330
1B0
102
}
330
1F
100
AcDbEntity
  8
LC-004-005-----0
 62
     7
370
    25
100
AcDbLine
 10
154.131669
 20
77.764136
 30
0.0
 11
155.973655
 21
79.606122
 31
0.0
  0
LINE
  5
C0
102
{ACAD_REACTORS
330
1B0
102
}
330
1F
100
AcDbEntity
  8
LC-004-005-----0
 62
     7
370
    25
100
AcDbLine
 10
153.159348
 20
79.620243
 30
0.0
 11
155.036393
 21
81.497288
 31
0.0
  0
LINE
  5
C1
102
{ACAD_REACTORS
330
1B0
102
}
330
1F
100
AcDbEntity
  8
LC-004-005-----0
 62
     7
370
    25
100
AcDbLine
 10
152.276304
 20
81.565626
 30
0.0
 11
154.196616
 21
83.485938
 31
0.0
  0
LINE
  5
C2
102
{ACAD_REACTORS
330
1B0
102
}
330
1F
100
AcDbEntity
  8
LC-004-005-----0
 62
     7
370
    25
100
AcDbLine
 10
151.46924
 20
83.586989
 30
0.0
 11
153.396454
 21
85.514203
 31
0.0
  0
LINE
  5
C3
102
{ACAD_REACTORS
330
1B0
102
}
330
1F
100
AcDbEntity
  8
LC-004-005-----0
 62
     7
370
    25
100
AcDbLine
 10
150.669077
 20
85.615253
 30
0.0
 11
152.596292
 21
87.542468
 31
0.0
  0
LINE
  5
C4
102
{ACAD_REACTORS
330
1B0
102
}
330
1F
100
AcDbEntity
  8
LC-004-005-----0
 62
     7
370
    25
100
AcDbLine
 10
149.868915
 20
87.643518
 30
0.0
 11
151.796129
 21
89.570732
 31
0.0
  0
ARC
  5
C5
330
1F
100
AcDbEntity
  8
LC-001-002-----0
 62
     7
370
    50
100
AcDbCircle
 10
186.847016
 20
96.084784
 30
0.0
 40
37.49586744490105
100
AcDbArc
 50
201.529525
 51
267.5
  0
LINE
  5
C6
102
{ACAD_REACTORS
330
1B1
102
}
330
1F
100
AcDbEntity
  8
LC-001-002-----0
 62
     7
370
    50
100
AcDbLine
 10
335.960433
 20
54.545144
 30
0.0
 11
185.320518
 21
61.122225
 31
0.0
  0
LINE
  5
C7
102
{ACAD_REACTORS
330
1B0
102
}
330
1F
100
AcDbEntity
  8
LC-004-005-----0
 62
     7
370
    25
100
AcDbLine
 10
149.068753
 20
89.671783
 30
0.0
 11
150.995967
 21
91.598997
 31
0.0
  0
LINE
  5
C8
102
{ACAD_REACTORS
330
1B0
102
}
330
1F
100
AcDbEntity
  8
LC-004-005-----0
 62
     7
370
    25
100
AcDbLine
 10
148.26859
 20
91.700048
 30
0.0
 11
150.195804
 21
93.627262
 31
0.0
  0
LINE
  5
C9
102
{ACAD_REACTORS
330
1B1
102
}
330
1F
100
AcDbEntity
  8
LC-001-002-----0
 62
     7
370
    50
100
AcDbLine
 10
335.960433
 20
54.545144
 30
0.0
 11
335.892292
 21
52.984453
 31
0.0
  0
LINE
  5
CA
102
{ACAD_REACTORS
330
1B0
102
}
330
1F
100
AcDbEntity
  8
LC-004-005-----0
 62
     7
370
    25
100
AcDbLine
 10
147.468428
 20
93.728313
 30
0.0
 11
149.395642
 21
95.655527
 31
0.0
  0
LINE
  5
CB
102
{ACAD_REACTORS
330
1B0
102
}
330
1F
100
AcDbEntity
  8
LC-004-005-----0
 62
     7
370
    25
100
AcDbLine
 10
146.668266
 20
95.756577
 30
0.0
 11
148.59548
 21
97.683791
 31
0.0
  0
LINE
  5
CC
102
{ACAD_REACTORS
330
1B0
102
}
330
1F
100
AcDbEntity
  8
LC-004-005-----0
 62
     7
370
    25
100
AcDbLine
 10
145.868103
 20
97.784842
 30
0.0
 11
147.795317
 21
99.712056
 31
0.0
  0
LINE
  5
CD
330
1F
100
AcDbEntity
  8
LC-001-002-----0
 62
     7
370
    50
100
AcDbLine
 10
270.487521
 20
141.411275
 30
0.0
 11
263.487
 21
141.411275
 31
0.0
  0
LINE
  5
CE
102
{ACAD_REACTORS
330
1B2
102
}
330
1F
100
AcDbEntity
  8
LC-001-002-----0
 62
     7
370
    50
100
AcDbLine
 10
251.487
 20
142.911275
 30
0.0
 11
251.487
 21
141.411275
 31
0.0
  0
LINE
  5
CF
102
{ACAD_REACTORS
330
1B2
102
}
330
1F
100
AcDbEntity
  8
LC-001-002-----0
 62
     7
370
    50
100
AcDbLine
 10
263.487
 20
141.411275
 30
0.0
 11
263.487
 21
137.911275
 31
0.0
  0
LINE
  5
D0
102
{ACAD_REACTORS
330
1B2
102
}
330
1F
100
AcDbEntity
  8
LC-001-002-----0
 62
     7
370
    50
100
AcDbLine
 10
251.487
 20
141.411275
 30
0.0
 11
252.198324
 21
141.411275
 31
0.0
  0
LINE
  5
D1
102
{ACAD_REACTORS
330
1B2
102
}
330
1F
100
AcDbEntity
  8
LC-001-002-----0
 62
     7
370
    50
100
AcDbLine
 10
263.487521
 20
137.911275
 30
0.0
 11
270.487521
 21
137.911275
 31
0.0
  0
LINE
  5
D2
102
{ACAD_REACTORS
330
1B2
102
}
330
1F
100
AcDbEntity
  8
LC-001-002-----0
 62
     7
370
    50
100
AcDbLine
 10
270.487521
 20
137.911275
 30
0.0
 11
270.487521
 21
141.411275
 31
0.0
  0
LINE
  5
D3
102
{ACAD_REACTORS
330
1B2
102
}
330
1F
100
AcDbEntity
  8
LC-001-002-----0
 62
     7
370
    50
100
AcDbLine
 10
250.487112
 20
135.411275
 30
0.0
 11
270.487521
 21
135.411275
 31
0.0
  0
LINE
  5
D4
102
{ACAD_REACTORS
330
1B2
102
}
330
1F
100
AcDbEntity
  8
LC-001-002-----0
 62
     7
370
    50
100
AcDbLine
 10
270.487521
 20
135.411275
 30
0.0
 11
272.936148
 21
137.859902
 31
0.0
  0
LINE
  5
D5
102
{ACAD_REACTORS
330
1B0
102
}
330
1F
100
AcDbEntity
  8
LC-004-005-----0
 62
     7
370
    25
100
AcDbLine
 10
145.067941
 20
99.813107
 30
0.0
 11
146.995155
 21
101.740321
 31
0.0
  0
LINE
  5
D6
102
{ACAD_REACTORS
330
1B0
102
}
330
1F
100
AcDbEntity
  8
LC-004-005-----0
 62
     7
370
    25
100
AcDbLine
 10
144.267778
 20
101.841372
 30
0.0
 11
146.194993
 21
103.768586
 31
0.0
  0
LINE
  5
D7
102
{ACAD_REACTORS
330
1B2
102
}
330
1F
100
AcDbEntity
  8
LC-001-002-----0
 62
     7
370
    50
100
AcDbLine
 10
251.487
 20
142.911275
 30
0.0
 11
247.487112
 21
142.911275
 31
0.0
  0
LINE
  5
D8
102
{ACAD_REACTORS
330
1B2
102
}
330
1F
100
AcDbEntity
  8
LC-001-002-----0
 62
     7
370
    50
100
AcDbLine
 10
252.198324
 20
141.411275
 30
0.0
 11
252.487
 21
141.911275
 31
0.0
  0
LINE
  5
D9
102
{ACAD_REACTORS
330
1B2
102
}
330
1F
100
AcDbEntity
  8
LC-001-002-----0
 62
     7
370
    50
100
AcDbLine
 10
252.487
 20
141.911275
 30
0.0
 11
252.775675
 21
141.411275
 31
0.0
  0
LINE
  5
DA
330
1F
100
AcDbEntity
  8
LC-001-002-----0
 62
     7
370
    50
100
AcDbLine
 10
114.487
 20
141.911275
 30
0.0
 11
116.487
 21
141.911275
 31
0.0
  0
LINE
  5
DB
102
{ACAD_REACTORS
330
1B2
102
}
330
1F
100
AcDbEntity
  8
LC-001-002-----0
 62
     7
370
    50
100
AcDbLine
 10
262.487
 20
141.911275
 30
0.0
 11
262.775675
 21
141.411275
 31
0.0
  0
LINE
  5
DC
102
{ACAD_REACTORS
330
1B2
102
}
330
1F
100
AcDbEntity
  8
LC-001-002-----0
 62
     7
370
    50
100
AcDbLine
 10
262.198324
 20
141.411275
 30
0.0
 11
262.487
 21
141.911275
 31
0.0
  0
LINE
  5
DD
102
{ACAD_REACTORS
330
1B2
102
}
330
1F
100
AcDbEntity
  8
LC-001-002-----0
 62
     7
370
    50
100
AcDbLine
 10
262.775675
 20
141.411275
 30
0.0
 11
263.487
 21
141.411275
 31
0.0
  0
LINE
  5
DE
330
1F
100
AcDbEntity
  8
LC-001-002-----0
 62
     7
370
    50
100
AcDbLine
 10
116.198324
 20
141.411275
 30
0.0
 11
114.775675
 21
141.411275
 31
0.0
  0
LINE
  5
DF
330
1F
100
AcDbEntity
  8
LC-001-002-----0
 62
     7
370
    50
100
AcDbLine
 10
254.487
 20
141.911275
 30
0.0
 11
254.775675
 21
141.411275
 31
0.0
  0
LINE
  5
E0
330
1F
100
AcDbEntity
  8
LC-001-002-----0
 62
     7
370
    50
100
AcDbLine
 10
260.487
 20
141.911275
 30
0.0
 11
258.487
 21
141.911275
 31
0.0
  0
LINE
  5
E1
330
1F
100
AcDbEntity
  8
LC-001-002-----0
 62
     7
370
    50
100
AcDbLine
 10
258.487
 20
141.911275
 30
0.0
 11
256.487
 21
141.911275
 31
0.0
  0
LINE
  5
E2
102
{ACAD_REACTORS
330
1B0
102
}
330
1F
100
AcDbEntity
  8
LC-004-005-----0
 62
     7
370
    25
100
AcDbLine
 10
143.467616
 20
103.869636
 30
0.0
 11
145.39483
 21
105.796851
 31
0.0
  0
LINE
  5
E3
102
{ACAD_REACTORS
330
1B2
102
}
330
1F
100
AcDbEntity
  8
LC-001-002-----0
 62
     7
370
    50
100
AcDbLine
 10
270.487521
 20
141.411275
 30
0.0
 11
272.487
 21
141.411275
 31
0.0
  0
LINE
  5
E4
102
{ACAD_REACTORS
330
1B2
102
}
330
1F
100
AcDbEntity
  8
LC-001-002-----0
 62
     7
370
    50
100
AcDbLine
 10
247.487112
 20
142.911275
 30
0.0
 11
247.487112
 21
130.911275
 31
0.0
  0
LINE
  5
E5
330
1F
100
AcDbEntity
  8
LC-001-002-----0
 62
     7
370
    50
100
AcDbLine
 10
256.487
 20
141.911275
 30
0.0
 11
254.487
 21
141.911275
 31
0.0
  0
LINE
  5
E6
102
{ACAD_REACTORS
330
1B0
102
}
330
1F
100
AcDbEntity
  8
LC-004-005-----0
 62
     7
370
    25
100
AcDbLine
 10
142.667454
 20
105.897901
 30
0.0
 11
144.594668
 21
107.825115
 31
0.0
  0
LINE
  5
E9
330
1F
100
AcDbEntity
  8
LC-005-006-MLN-0
 62
     7
370
    25
100
AcDbLine
 10
187.487043
 20
150.259
 30
0.0
 11
187.487043
 21
48.525247
 31
0.0
  0
LINE
  5
EA
102
{ACAD_REACTORS
330
1B0
102
}
330
1F
100
AcDbEntity
  8
LC-004-005-----0
 62
     7
370
    25
100
AcDbLine
 10
141.867291
 20
107.926166
 30
0.0
 11
143.794506
 21
109.85338
 31
0.0
  0
LINE
  5
EB
330
1F
100
AcDbEntity
  8
LC-001-002-----0
 62
     7
370
    50
100
AcDbLine
 10
114.775675
 20
141.411275
 30
0.0
 11
114.487
 21
141.911275
 31
0.0
  0
LINE
  5
EC
330
1F
100
AcDbEntity
  8
LC-001-002-----0
 62
     7
370
    50
100
AcDbLine
 10
114.487
 20
141.911275
 30
0.0
 11
114.198324
 21
141.411275
 31
0.0
  0
LINE
  5
ED
330
1F
100
AcDbEntity
  8
LC-001-002-----0
 62
     7
370
    50
100
AcDbLine
 10
116.487
 20
141.911275
 30
0.0
 11
116.198324
 21
141.411275
 31
0.0
  0
LINE
  5
EE
330
1F
100
AcDbEntity
  8
LC-001-002-----0
 62
     7
370
    50
100
AcDbLine
 10
116.775675
 20
141.411275
 30
0.0
 11
116.487
 21
141.911275
 31
0.0
  0
LINE
  5
EF
330
1F
100
AcDbEntity
  8
LC-001-002-----0
 62
     7
370
    50
100
AcDbLine
 10
118.198324
 20
141.411275
 30
0.0
 11
116.775675
 21
141.411275
 31
0.0
  0
LINE
  5
F0
330
1F
100
AcDbEntity
  8
LC-001-002-----0
 62
     7
370
    50
100
AcDbLine
 10
116.487
 20
141.911275
 30
0.0
 11
118.487
 21
141.911275
 31
0.0
  0
LINE
  5
F1
330
1F
100
AcDbEntity
  8
LC-001-002-----0
 62
     7
370
    50
100
AcDbLine
 10
118.487
 20
141.911275
 30
0.0
 11
118.198324
 21
141.411275
 31
0.0
  0
LINE
  5
F2
102
{ACAD_REACTORS
330
1B0
102
}
330
1F
100
AcDbEntity
  8
LC-004-005-----0
 62
     7
370
    25
100
AcDbLine
 10
141.067129
 20
109.954431
 30
0.0
 11
142.994343
 21
111.881645
 31
0.0
  0
LINE
  5
F3
330
1F
100
AcDbEntity
  8
LC-001-002-----0
 62
     7
370
    50
100
AcDbLine
 10
114.198324
 20
141.411275
 30
0.0
 11
112.775675
 21
141.411275
 31
0.0
  0
LINE
  5
F4
102
{ACAD_REACTORS
330
1B0
102
}
330
1F
100
AcDbEntity
  8
LC-004-005-----0
 62
     7
370
    25
100
AcDbLine
 10
140.266967
 20
111.982695
 30
0.0
 11
142.194181
 21
113.90991
 31
0.0
  0
LINE
  5
F5
330
1F
100
AcDbEntity
  8
LC-001-002-----0
 62
     7
370
    50
100
AcDbLine
 10
112.487
 20
141.911275
 30
0.0
 11
114.487
 21
141.911275
 31
0.0
  0
LINE
  5
F6
102
{ACAD_REACTORS
330
1B0
102
}
330
1F
100
AcDbEntity
  8
LC-004-005-----0
 62
     7
370
    25
100
AcDbLine
 10
139.466804
 20
114.01096
 30
0.0
 11
141.394019
 21
115.938174
 31
0.0
  0
LINE
  5
F7
102
{ACAD_REACTORS
330
1B0
102
}
330
1F
100
AcDbEntity
  8
LC-004-005-----0
 62
     7
370
    25
100
AcDbLine
 10
138.666642
 20
116.039225
 30
0.0
 11
140.593856
 21
117.966439
 31
0.0
  0
LINE
  5
F8
102
{ACAD_REACTORS
330
1B0
102
}
330
1F
100
AcDbEntity
  8
LC-004-005-----0
 62
     7
370
    25
100
AcDbLine
 10
137.86648
 20
118.06749
 30
0.0
 11
139.793694
 21
119.994704
 31
0.0
  0
LINE
  5
F9
330
1F
100
AcDbEntity
  8
LC-001-002-----0
 62
     7
370
    50
100
AcDbLine
 10
118.775675
 20
141.411275
 30
0.0
 11
118.487
 21
141.911275
 31
0.0
  0
LINE
  5
FA
102
{ACAD_REACTORS
330
1B0
102
}
330
1F
100
AcDbEntity
  8
LC-004-005-----0
 62
     7
370
    25
100
AcDbLine
 10
137.066317
 20
120.095755
 30
0.0
 11
138.993531
 21
122.022969
 31
0.0
  0
LINE
  5
FB
102
{ACAD_REACTORS
330
1B0
102
}
330
1F
100
AcDbEntity
  8
LC-004-005-----0
 62
     7
370
    25
100
AcDbLine
 10
136.266155
 20
122.124019
 30
0.0
 11
138.193369
 21
124.051234
 31
0.0
  0
LINE
  5
FC
102
{ACAD_REACTORS
330
1B0
102
}
330
1F
100
AcDbEntity
  8
LC-004-005-----0
 62
     7
370
    25
100
AcDbLine
 10
135.465993
 20
124.152284
 30
0.0
 11
137.393207
 21
126.079498
 31
0.0
  0
LINE
  5
FD
330
1F
100
AcDbEntity
  8
LC-001-002-----0
 62
     7
370
    50
100
AcDbLine
 10
122.487
 20
141.911275
 30
0.0
 11
123.487
 21
141.911275
 31
0.0
  0
LINE
  5
FE
330
1F
100
AcDbEntity
  8
LC-001-002-----0
 62
     7
370
    50
100
AcDbLine
 10
104.486478
 20
141.411275
 30
0.0
 11
111.487
 21
141.411275
 31
0.0
  0
LINE
  5
FF
102
{ACAD_REACTORS
330
1B3
102
}
330
1F
100
AcDbEntity
  8
LC-001-002-----0
 62
     7
370
    50
100
AcDbLine
 10
123.487
 20
142.911275
 30
0.0
 11
123.487
 21
141.411275
 31
0.0
  0
LINE
  5
100
102
{ACAD_REACTORS
330
1B3
102
}
330
1F
100
AcDbEntity
  8
LC-001-002-----0
 62
     7
370
    50
100
AcDbLine
 10
111.487
 20
141.411275
 30
0.0
 11
111.487
 21
137.911275
 31
0.0
  0
LINE
  5
101
102
{ACAD_REACTORS
330
1B0
102
}
330
1F
100
AcDbEntity
  8
LC-004-005-----0
 62
     7
370
    25
100
AcDbLine
 10
134.66583
 20
126.180549
 30
0.0
 11
136.593044
 21
128.107763
 31
0.0
  0
LINE
  5
102
102
{ACAD_REACTORS
330
1B0
102
}
330
1F
100
AcDbEntity
  8
LC-004-005-----0
 62
     7
370
    25
100
AcDbLine
 10
133.567439
 20
127.910584
 30
0.0
 11
135.792882
 21
130.136028
 31
0.0
  0
LINE
  5
103
102
{ACAD_REACTORS
330
1B0
102
}
330
1F
100
AcDbEntity
  8
LC-004-005-----0
 62
     7
370
    25
100
AcDbLine
 10
130.739011
 20
127.910584
 30
0.0
 11
133.739702
 21
130.911275
 31
0.0
  0
LINE
  5
104
102
{ACAD_REACTORS
330
1B0
102
}
330
1F
100
AcDbEntity
  8
LC-004-005-----0
 62
     7
370
    25
100
AcDbLine
 10
127.910584
 20
127.910584
 30
0.0
 11
130.911275
 21
130.911275
 31
0.0
  0
LINE
  5
105
102
{ACAD_REACTORS
330
1B3
102
}
330
1F
100
AcDbEntity
  8
LC-001-002-----0
 62
     7
370
    50
100
AcDbLine
 10
123.487
 20
141.411275
 30
0.0
 11
122.775675
 21
141.411275
 31
0.0
  0
LINE
  5
106
102
{ACAD_REACTORS
330
1B0
102
}
330
1F
100
AcDbEntity
  8
LC-004-005-----0
 62
     7
370
    25
100
AcDbLine
 10
125.082157
 20
127.910584
 30
0.0
 11
128.082848
 21
130.911275
 31
0.0
  0
LINE
  5
107
102
{ACAD_REACTORS
330
1B0
102
}
330
1F
100
AcDbEntity
  8
LC-004-005-----0
 62
     7
370
    25
100
AcDbLine
 10
124.286887
 20
129.943742
 30
0.0
 11
127.486887
 21
133.143742
 31
0.0
  0
LINE
  5
108
102
{ACAD_REACTORS
330
1B0
102
}
330
1F
100
AcDbEntity
  8
LC-004-005-----0
 62
     7
370
    25
100
AcDbLine
 10
124.286887
 20
132.772169
 30
0.0
 11
127.486887
 21
135.972169
 31
0.0
  0
LINE
  5
109
102
{ACAD_REACTORS
330
1B0
102
}
330
1F
100
AcDbEntity
  8
LC-004-005-----0
 62
     7
370
    25
100
AcDbLine
 10
124.097566
 20
135.411275
 30
0.0
 11
127.486887
 21
138.800596
 31
0.0
  0
LINE
  5
10A
330
1F
100
AcDbEntity
  8
LC-001-002-----0
 62
     7
370
    50
100
AcDbLine
 10
118.487
 20
141.911275
 30
0.0
 11
120.487
 21
141.911275
 31
0.0
  0
LINE
  5
10B
102
{ACAD_REACTORS
330
1B1
102
}
330
1F
100
AcDbEntity
  8
LC-001-002-----0
 62
     7
370
    50
100
AcDbLine
 10
239.487
 20
130.911275
 30
0.0
 11
247.487112
 21
130.911275
 31
0.0
  0
LINE
  5
10C
330
1F
100
AcDbEntity
  8
LC-001-002-----0
 62
     7
370
    50
100
AcDbLine
 10
239.487
 20
130.911275
 30
0.0
 11
247.487112
 21
130.911275
 31
0.0
  0
LINE
  5
10D
102
{ACAD_REACTORS
330
1B1
102
}
330
1F
100
AcDbEntity
  8
LC-001-002-----0
 62
     7
370
    50
100
AcDbLine
 10
239.487
 20
128.911275
 30
0.0
 11
239.487
 21
130.911275
 31
0.0
  0
LINE
  5
10E
102
{ACAD_REACTORS
330
1B3
102
}
330
1F
100
AcDbEntity
  8
LC-001-002-----0
 62
     7
370
    50
100
AcDbLine
 10
111.486478
 20
137.911275
 30
0.0
 11
104.486478
 21
137.911275
 31
0.0
  0
LINE
  5
10F
102
{ACAD_REACTORS
330
1B3
102
}
330
1F
100
AcDbEntity
  8
LC-001-002-----0
 62
     7
370
    50
100
AcDbLine
 10
104.486478
 20
137.911275
 30
0.0
 11
104.486478
 21
141.411275
 31
0.0
  0
LINE
  5
110
102
{ACAD_REACTORS
330
1B3
102
}
330
1F
100
AcDbEntity
  8
LC-001-002-----0
 62
     7
370
    50
100
AcDbLine
 10
124.286887
 20
135.411275
 30
0.0
 11
104.486478
 21
135.411275
 31
0.0
  0
DIMENSION
  5
111
330
1F
100
AcDbEntity
  8
LC-003-003-----0
 62
     7
370
    25
100
AcDbDimension
  2
*D4
 10
72.0
 20
59.093569
 30
0.0
 11
41.2
 21
82.047
 31
0.0
 70
   160
  1
85
 71
     5
 42
84.936291
 53
90.0
  3
LC-DIM-L-0140-02-02
100
AcDbAlignedDimension
 13
81.861349
 23
144.02986
 33
0.0
 14
180.715936
 24
59.093569
 34
0.0
 50
90.0
100
AcDbRotatedDimension
  0
LINE
  5
11E
102
{ACAD_REACTORS
330
1B0
102
}
330
1F
100
AcDbEntity
  8
LC-004-005-----0
 62
     7
370
    25
100
AcDbLine
 10
121.269139
 20
135.411275
 30
0.0
 11
127.486887
 21
141.629023
 31
0.0
  0
LINE
  5
11F
102
{ACAD_REACTORS
330
1B0
102
}
330
1F
100
AcDbEntity
  8
LC-004-005-----0
 62
     7
370
    25
100
AcDbLine
 10
118.440712
 20
135.411275
 30
0.0
 11
125.940712
 21
142.911275
 31
0.0
  0
LINE
  5
120
102
{ACAD_REACTORS
330
1B0
102
}
330
1F
100
AcDbEntity
  8
LC-004-005-----0
 62
     7
370
    25
100
AcDbLine
 10
115.612285
 20
135.411275
 30
0.0
 11
121.612285
 21
141.411275
 31
0.0
  0
LINE
  5
121
102
{ACAD_REACTORS
330
1B0
102
}
330
1F
100
AcDbEntity
  8
LC-004-005-----0
 62
     7
370
    25
100
AcDbLine
 10
112.783858
 20
135.411275
 30
0.0
 11
118.783858
 21
141.411275
 31
0.0
  0
LINE
  5
122
102
{ACAD_REACTORS
330
1B0
102
}
330
1F
100
AcDbEntity
  8
LC-004-005-----0
 62
     7
370
    25
100
AcDbLine
 10
109.955431
 20
135.411275
 30
0.0
 11
115.955431
 21
141.411275
 31
0.0
  0
LINE
  5
123
102
{ACAD_REACTORS
330
1B0
102
}
330
1F
100
AcDbEntity
  8
LC-004-005-----0
 62
     7
370
    25
100
AcDbLine
 10
107.127004
 20
135.411275
 30
0.0
 11
109.627004
 21
137.911275
 31
0.0
  0
LINE
  5
124
102
{ACAD_REACTORS
330
1B0
102
}
330
1F
100
AcDbEntity
  8
LC-004-005-----0
 62
     7
370
    25
100
AcDbLine
 10
111.487
 20
139.771271
 30
0.0
 11
113.127004
 21
141.411275
 31
0.0
  0
LINE
  5
125
102
{ACAD_REACTORS
330
1B0
102
}
330
1F
100
AcDbEntity
  8
LC-004-005-----0
 62
     7
370
    25
100
AcDbLine
 10
104.392527
 20
135.505225
 30
0.0
 11
106.798576
 21
137.911275
 31
0.0
  0
LINE
  5
126
102
{ACAD_REACTORS
330
1B0
102
}
330
1F
100
AcDbEntity
  8
LC-004-005-----0
 62
     7
370
    25
100
AcDbLine
 10
102.978314
 20
136.919439
 30
0.0
 11
104.486478
 21
138.427603
 31
0.0
  0
LINE
  5
127
102
{ACAD_REACTORS
330
1B0
102
}
330
1F
100
AcDbEntity
  8
LC-004-005-----0
 62
     7
370
    25
100
AcDbLine
 10
101.31224
 20
138.081793
 30
0.0
 11
104.486478
 21
141.25603
 31
0.0
  0
LINE
  5
128
102
{ACAD_REACTORS
330
1B0
102
}
330
1F
100
AcDbEntity
  8
LC-004-005-----0
 62
     7
370
    25
100
AcDbLine
 10
99.14619
 20
138.74417
 30
0.0
 11
101.97104
 21
141.56902
 31
0.0
  0
LINE
  5
129
102
{ACAD_REACTORS
330
1B0
102
}
330
1F
100
AcDbEntity
  8
LC-004-005-----0
 62
     7
370
    25
100
AcDbLine
 10
96.980139
 20
139.406546
 30
0.0
 11
99.804876
 21
142.231282
 31
0.0
  0
LINE
  5
12A
102
{ACAD_REACTORS
330
1B0
102
}
330
1F
100
AcDbEntity
  8
LC-004-005-----0
 62
     7
370
    25
100
AcDbLine
 10
94.814089
 20
140.068923
 30
0.0
 11
97.638711
 21
142.893545
 31
0.0
  0
LINE
  5
12B
102
{ACAD_REACTORS
330
1B0
102
}
330
1F
100
AcDbEntity
  8
LC-004-005-----0
 62
     7
370
    25
100
AcDbLine
 10
92.648038
 20
140.731299
 30
0.0
 11
95.472547
 21
143.555808
 31
0.0
  0
LINE
  5
12C
102
{ACAD_REACTORS
330
1B0
102
}
330
1F
100
AcDbEntity
  8
LC-004-005-----0
 62
     7
370
    25
100
AcDbLine
 10
90.481988
 20
141.393676
 30
0.0
 11
93.306383
 21
144.218071
 31
0.0
  0
LINE
  5
12D
102
{ACAD_REACTORS
330
1B0
102
}
330
1F
100
AcDbEntity
  8
LC-004-005-----0
 62
     7
370
    25
100
AcDbLine
 10
88.315937
 20
142.056052
 30
0.0
 11
91.140219
 21
144.880334
 31
0.0
  0
LINE
  5
12E
102
{ACAD_REACTORS
330
1B0
102
}
330
1F
100
AcDbEntity
  8
LC-004-005-----0
 62
     7
370
    25
100
AcDbLine
 10
86.149886
 20
142.718429
 30
0.0
 11
88.974054
 21
145.542597
 31
0.0
  0
LINE
  5
12F
102
{ACAD_REACTORS
330
1B0
102
}
330
1F
100
AcDbEntity
  8
LC-004-005-----0
 62
     7
370
    25
100
AcDbLine
 10
83.983836
 20
143.380806
 30
0.0
 11
86.80789
 21
146.20486
 31
0.0
  0
LINE
  5
130
102
{ACAD_REACTORS
330
1B0
102
}
330
1F
100
AcDbEntity
  8
LC-004-005-----0
 62
     7
370
    25
100
AcDbLine
 10
81.806483
 20
144.03188
 30
0.0
 11
84.641726
 21
146.867122
 31
0.0
  0
LINE
  5
131
102
{ACAD_REACTORS
330
1B0
102
}
330
1F
100
AcDbEntity
  8
LC-004-005-----0
 62
     7
370
    25
100
AcDbLine
 10
79.078484
 20
144.132308
 30
0.0
 11
82.475562
 21
147.529385
 31
0.0
  0
LINE
  5
132
102
{ACAD_REACTORS
330
1B3
102
}
330
1F
100
AcDbEntity
  8
LC-001-002-----0
 62
     7
370
    50
100
AcDbLine
 10
104.486478
 20
135.411275
 30
0.0
 11
102.037851
 21
137.859902
 31
0.0
  0
LINE
  5
133
102
{ACAD_REACTORS
330
1B0
102
}
330
1F
100
AcDbEntity
  8
LC-004-005-----0
 62
     7
370
    25
100
AcDbLine
 10
76.350485
 20
144.232736
 30
0.0
 11
79.806823
 21
147.689074
 31
0.0
  0
LINE
  5
134
102
{ACAD_REACTORS
330
1B0
102
}
330
1F
100
AcDbEntity
  8
LC-004-005-----0
 62
     7
370
    25
100
AcDbLine
 10
73.622485
 20
144.333163
 30
0.0
 11
77.065462
 21
147.77614
 31
0.0
  0
LINE
  5
135
102
{ACAD_REACTORS
330
1B0
102
}
330
1F
100
AcDbEntity
  8
LC-004-005-----0
 62
     7
370
    25
100
AcDbLine
 10
72.407755
 20
145.946861
 30
0.0
 11
74.324101
 21
147.863207
 31
0.0
  0
LINE
  5
136
102
{ACAD_REACTORS
330
1B4
102
}
330
1F
100
AcDbEntity
  8
LC-004-005-----0
 62
     7
370
    25
100
AcDbLine
 10
336.713026
 20
124.580992
 30
0.0
 11
338.389551
 21
126.257517
 31
0.0
  0
LINE
  5
137
102
{ACAD_REACTORS
330
1B4
102
}
330
1F
100
AcDbEntity
  8
LC-004-005-----0
 62
     7
370
    25
100
AcDbLine
 10
334.005201
 20
124.701593
 30
0.0
 11
336.239145
 21
126.935538
 31
0.0
  0
LINE
  5
138
102
{ACAD_REACTORS
330
1B4
102
}
330
1F
100
AcDbEntity
  8
LC-004-005-----0
 62
     7
370
    25
100
AcDbLine
 10
331.297376
 20
124.822195
 30
0.0
 11
333.688585
 21
127.213405
 31
0.0
  0
LINE
  5
139
102
{ACAD_REACTORS
330
1B4
102
}
330
1F
100
AcDbEntity
  8
LC-004-005-----0
 62
     7
370
    25
100
AcDbLine
 10
328.58955
 20
124.942797
 30
0.0
 11
330.978483
 21
127.33173
 31
0.0
  0
LINE
  5
13A
102
{ACAD_REACTORS
330
1B4
102
}
330
1F
100
AcDbEntity
  8
LC-004-005-----0
 62
     7
370
    25
100
AcDbLine
 10
325.881725
 20
125.063399
 30
0.0
 11
328.268382
 21
127.450056
 31
0.0
  0
LINE
  5
13B
102
{ACAD_REACTORS
330
1B4
102
}
330
1F
100
AcDbEntity
  8
LC-004-005-----0
 62
     7
370
    25
100
AcDbLine
 10
323.1739
 20
125.184001
 30
0.0
 11
325.55828
 21
127.568381
 31
0.0
  0
LINE
  5
13C
102
{ACAD_REACTORS
330
1B4
102
}
330
1F
100
AcDbEntity
  8
LC-004-005-----0
 62
     7
370
    25
100
AcDbLine
 10
320.466075
 20
125.304603
 30
0.0
 11
322.848179
 21
127.686707
 31
0.0
  0
LINE
  5
13D
102
{ACAD_REACTORS
330
1B4
102
}
330
1F
100
AcDbEntity
  8
LC-004-005-----0
 62
     7
370
    25
100
AcDbLine
 10
317.75825
 20
125.425205
 30
0.0
 11
320.138077
 21
127.805033
 31
0.0
  0
LINE
  5
13E
102
{ACAD_REACTORS
330
1B4
102
}
330
1F
100
AcDbEntity
  8
LC-004-005-----0
 62
     7
370
    25
100
AcDbLine
 10
315.050425
 20
125.545807
 30
0.0
 11
317.427975
 21
127.923358
 31
0.0
  0
LINE
  5
13F
102
{ACAD_REACTORS
330
1B4
102
}
330
1F
100
AcDbEntity
  8
LC-004-005-----0
 62
     7
370
    25
100
AcDbLine
 10
312.342599
 20
125.666409
 30
0.0
 11
314.717874
 21
128.041684
 31
0.0
  0
LINE
  5
140
102
{ACAD_REACTORS
330
1B4
102
}
330
1F
100
AcDbEntity
  8
LC-004-005-----0
 62
     7
370
    25
100
AcDbLine
 10
309.634774
 20
125.787011
 30
0.0
 11
312.007772
 21
128.160009
 31
0.0
  0
DIMENSION
  5
141
330
1F
100
AcDbEntity
  8
LC-003-003-----0
 62
     7
370
    25
100
AcDbDimension
  2
*D5
 10
392.0
 20
89.51088
 30
0.0
 11
361.2
 21
142.041
 31
0.0
 70
   160
  1
54
 71
     5
 42
54.550468
 53
90.0
  3
LC-DIM-L-0140-02-02
100
AcDbAlignedDimension
 13
293.967986
 23
144.061349
 33
0.0
 14
396.635495
 24
89.51088
 34
0.0
 50
90.0
100
AcDbRotatedDimension
  0
LINE
  5
150
102
{ACAD_REACTORS
330
1B4
102
}
330
1F
100
AcDbEntity
  8
LC-004-005-----0
 62
     7
370
    25
100
AcDbLine
 10
306.926949
 20
125.907613
 30
0.0
 11
309.297671
 21
128.278335
 31
0.0
  0
LINE
  5
151
102
{ACAD_REACTORS
330
1B4
102
}
330
1F
100
AcDbEntity
  8
LC-004-005-----0
 62
     7
370
    25
100
AcDbLine
 10
304.219124
 20
126.028215
 30
0.0
 11
306.587569
 21
128.39666
 31
0.0
  0
LINE
  5
152
102
{ACAD_REACTORS
330
1B4
102
}
330
1F
100
AcDbEntity
  8
LC-004-005-----0
 62
     7
370
    25
100
AcDbLine
 10
301.511299
 20
126.148817
 30
0.0
 11
303.877468
 21
128.514986
 31
0.0
  0
LINE
  5
153
102
{ACAD_REACTORS
330
1B4
102
}
330
1F
100
AcDbEntity
  8
LC-004-005-----0
 62
     7
370
    25
100
AcDbLine
 10
298.803474
 20
126.269419
 30
0.0
 11
301.167366
 21
128.633312
 31
0.0
  0
LINE
  5
154
102
{ACAD_REACTORS
330
1B4
102
}
330
1F
100
AcDbEntity
  8
LC-004-005-----0
 62
     7
370
    25
100
AcDbLine
 10
296.095648
 20
126.390021
 30
0.0
 11
298.457265
 21
128.751637
 31
0.0
  0
LINE
  5
155
102
{ACAD_REACTORS
330
1B4
102
}
330
1F
100
AcDbEntity
  8
LC-004-005-----0
 62
     7
370
    25
100
AcDbLine
 10
293.387823
 20
126.510623
 30
0.0
 11
295.747163
 21
128.869963
 31
0.0
  0
LINE
  5
156
102
{ACAD_REACTORS
330
1B4
102
}
330
1F
100
AcDbEntity
  8
LC-004-005-----0
 62
     7
370
    25
100
AcDbLine
 10
290.679998
 20
126.631225
 30
0.0
 11
293.037062
 21
128.988288
 31
0.0
  0
LINE
  5
157
102
{ACAD_REACTORS
330
1B4
102
}
330
1F
100
AcDbEntity
  8
LC-004-005-----0
 62
     7
370
    25
100
AcDbLine
 10
287.972173
 20
126.751827
 30
0.0
 11
290.32696
 21
129.106614
 31
0.0
  0
LINE
  5
158
102
{ACAD_REACTORS
330
1B4
102
}
330
1F
100
AcDbEntity
  8
LC-004-005-----0
 62
     7
370
    25
100
AcDbLine
 10
285.264348
 20
126.872429
 30
0.0
 11
287.616859
 21
129.22494
 31
0.0
  0
LINE
  5
159
102
{ACAD_REACTORS
330
1B4
102
}
330
1F
100
AcDbEntity
  8
LC-004-005-----0
 62
     7
370
    25
100
AcDbLine
 10
282.556523
 20
126.993031
 30
0.0
 11
284.906757
 21
129.343265
 31
0.0
  0
LINE
  5
15A
102
{ACAD_REACTORS
330
1B4
102
}
330
1F
100
AcDbEntity
  8
LC-004-005-----0
 62
     7
370
    25
100
AcDbLine
 10
299.84105
 20
144.277558
 30
0.0
 11
302.292216
 21
146.728724
 31
0.0
  0
LINE
  5
15B
102
{ACAD_REACTORS
330
1B4
102
}
330
1F
100
AcDbEntity
  8
LC-004-005-----0
 62
     7
370
    25
100
AcDbLine
 10
279.848698
 20
127.113633
 30
0.0
 11
282.196655
 21
129.461591
 31
0.0
  0
LINE
  5
15C
102
{ACAD_REACTORS
330
1B4
102
}
330
1F
100
AcDbEntity
  8
LC-004-005-----0
 62
     7
370
    25
100
AcDbLine
 10
296.904518
 20
144.169453
 30
0.0
 11
300.596578
 21
147.861513
 31
0.0
  0
LINE
  5
15D
102
{ACAD_REACTORS
330
1B4
102
}
330
1F
100
AcDbEntity
  8
LC-004-005-----0
 62
     7
370
    25
100
AcDbLine
 10
277.140872
 20
127.234235
 30
0.0
 11
279.486554
 21
129.579916
 31
0.0
  0
LINE
  5
15E
102
{ACAD_REACTORS
330
1B4
102
}
330
1F
100
AcDbEntity
  8
LC-004-005-----0
 62
     7
370
    25
100
AcDbLine
 10
293.967986
 20
144.061349
 30
0.0
 11
297.675372
 21
147.768735
 31
0.0
  0
LINE
  5
15F
102
{ACAD_REACTORS
330
1B4
102
}
330
1F
100
AcDbEntity
  8
LC-004-005-----0
 62
     7
370
    25
100
AcDbLine
 10
274.433047
 20
127.354837
 30
0.0
 11
276.776452
 21
129.698242
 31
0.0
  0
LINE
  5
160
102
{ACAD_REACTORS
330
1B4
102
}
330
1F
100
AcDbEntity
  8
LC-004-005-----0
 62
     7
370
    25
100
AcDbLine
 10
290.225043
 20
143.146832
 30
0.0
 11
294.754167
 21
147.675957
 31
0.0
  0
LINE
  5
161
102
{ACAD_REACTORS
330
1B4
102
}
330
1F
100
AcDbEntity
  8
LC-004-005-----0
 62
     7
370
    25
100
AcDbLine
 10
271.725222
 20
127.475439
 30
0.0
 11
274.066351
 21
129.816568
 31
0.0
  0
LINE
  5
162
102
{ACAD_REACTORS
330
1B4
102
}
330
1F
100
AcDbEntity
  8
LC-004-005-----0
 62
     7
370
    25
100
AcDbLine
 10
286.150678
 20
141.900895
 30
0.0
 11
291.462429
 21
147.212646
 31
0.0
  0
LINE
  5
163
102
{ACAD_REACTORS
330
1B4
102
}
330
1F
100
AcDbEntity
  8
LC-004-005-----0
 62
     7
370
    25
100
AcDbLine
 10
269.017397
 20
127.596041
 30
0.0
 11
271.356249
 21
129.934893
 31
0.0
  0
LINE
  5
164
102
{ACAD_REACTORS
330
1B4
102
}
330
1F
100
AcDbEntity
  8
LC-004-005-----0
 62
     7
370
    25
100
AcDbLine
 10
282.076313
 20
140.654957
 30
0.0
 11
287.388467
 21
145.96711
 31
0.0
  0
LINE
  5
165
102
{ACAD_REACTORS
330
1B4
102
}
330
1F
100
AcDbEntity
  8
LC-004-005-----0
 62
     7
370
    25
100
AcDbLine
 10
266.309572
 20
127.716643
 30
0.0
 11
268.646148
 21
130.053219
 31
0.0
  0
LINE
  5
166
102
{ACAD_REACTORS
330
1B4
102
}
330
1F
100
AcDbEntity
  8
LC-004-005-----0
 62
     7
370
    25
100
AcDbLine
 10
278.001949
 20
139.40902
 30
0.0
 11
283.314504
 21
144.721575
 31
0.0
  0
LINE
  5
167
102
{ACAD_REACTORS
330
1B4
102
}
330
1F
100
AcDbEntity
  8
LC-004-005-----0
 62
     7
370
    25
100
AcDbLine
 10
263.601747
 20
127.837245
 30
0.0
 11
265.936046
 21
130.171544
 31
0.0
  0
LINE
  5
168
102
{ACAD_REACTORS
330
1B4
102
}
330
1F
100
AcDbEntity
  8
LC-004-005-----0
 62
     7
370
    25
100
AcDbLine
 10
273.927584
 20
138.163082
 30
0.0
 11
279.240542
 21
143.47604
 31
0.0
  0
LINE
  5
169
102
{ACAD_REACTORS
330
1B4
102
}
330
1F
100
AcDbEntity
  8
LC-004-005-----0
 62
     7
370
    25
100
AcDbLine
 10
260.893921
 20
127.957847
 30
0.0
 11
263.225945
 21
130.28987
 31
0.0
  0
LINE
  5
16A
102
{ACAD_REACTORS
330
1B4
102
}
330
1F
100
AcDbEntity
  8
LC-004-005-----0
 62
     7
370
    25
100
AcDbLine
 10
268.34735
 20
135.411275
 30
0.0
 11
275.166579
 21
142.230505
 31
0.0
  0
LINE
  5
16B
102
{ACAD_REACTORS
330
1B4
102
}
330
1F
100
AcDbEntity
  8
LC-004-005-----0
 62
     7
370
    25
100
AcDbLine
 10
258.186096
 20
128.078449
 30
0.0
 11
260.515843
 21
130.408195
 31
0.0
  0
LINE
  5
16C
102
{ACAD_REACTORS
330
1B4
102
}
330
1F
100
AcDbEntity
  8
LC-004-005-----0
 62
     7
370
    25
100
AcDbLine
 10
265.518923
 20
135.411275
 30
0.0
 11
268.018923
 21
137.911275
 31
0.0
  0
LINE
  5
16D
102
{ACAD_REACTORS
330
1B4
102
}
330
1F
100
AcDbEntity
  8
LC-004-005-----0
 62
     7
370
    25
100
AcDbLine
 10
270.487521
 20
140.379874
 30
0.0
 11
271.518923
 21
141.411275
 31
0.0
  0
LINE
  5
16E
102
{ACAD_REACTORS
330
1B4
102
}
330
1F
100
AcDbEntity
  8
LC-004-005-----0
 62
     7
370
    25
100
AcDbLine
 10
255.478271
 20
128.199051
 30
0.0
 11
257.805742
 21
130.526521
 31
0.0
  0
LINE
  5
16F
102
{ACAD_REACTORS
330
1B4
102
}
330
1F
100
AcDbEntity
  8
LC-004-005-----0
 62
     7
370
    25
100
AcDbLine
 10
262.690495
 20
135.411275
 30
0.0
 11
265.190495
 21
137.911275
 31
0.0
  0
LINE
  5
170
102
{ACAD_REACTORS
330
1B4
102
}
330
1F
100
AcDbEntity
  8
LC-004-005-----0
 62
     7
370
    25
100
AcDbLine
 10
252.770446
 20
128.319652
 30
0.0
 11
255.09564
 21
130.644847
 31
0.0
  0
LINE
  5
171
102
{ACAD_REACTORS
330
1B4
102
}
330
1F
100
AcDbEntity
  8
LC-004-005-----0
 62
     7
370
    25
100
AcDbLine
 10
259.862068
 20
135.411275
 30
0.0
 11
263.487
 21
139.036206
 31
0.0
  0
LINE
  5
172
102
{ACAD_REACTORS
330
1B4
102
}
330
1F
100
AcDbEntity
  8
LC-004-005-----0
 62
     7
370
    25
100
AcDbLine
 10
250.062621
 20
128.440254
 30
0.0
 11
252.385539
 21
130.763172
 31
0.0
  0
LINE
  5
173
102
{ACAD_REACTORS
330
1B4
102
}
330
1F
100
AcDbEntity
  8
LC-004-005-----0
 62
     7
370
    25
100
AcDbLine
 10
257.033641
 20
135.411275
 30
0.0
 11
263.033641
 21
141.411275
 31
0.0
  0
LINE
  5
174
102
{ACAD_REACTORS
330
1B4
102
}
330
1F
100
AcDbEntity
  8
LC-004-005-----0
 62
     7
370
    25
100
AcDbLine
 10
247.354796
 20
128.560856
 30
0.0
 11
250.487112
 21
131.693172
 31
0.0
  0
LINE
  5
175
102
{ACAD_REACTORS
330
1B4
102
}
330
1F
100
AcDbEntity
  8
LC-004-005-----0
 62
     7
370
    25
100
AcDbLine
 10
254.205214
 20
135.411275
 30
0.0
 11
260.566872
 21
141.772932
 31
0.0
  0
LINE
  5
176
102
{ACAD_REACTORS
330
1B4
102
}
330
1F
100
AcDbEntity
  8
LC-004-005-----0
 62
     7
370
    25
100
AcDbLine
 10
244.64697
 20
128.681458
 30
0.0
 11
246.876787
 21
130.911275
 31
0.0
  0
LINE
  5
177
102
{ACAD_REACTORS
330
1B4
102
}
330
1F
100
AcDbEntity
  8
LC-004-005-----0
 62
     7
370
    25
100
AcDbLine
 10
247.487112
 20
131.5216
 30
0.0
 11
250.487112
 21
134.5216
 31
0.0
  0
LINE
  5
178
102
{ACAD_REACTORS
330
1B4
102
}
330
1F
100
AcDbEntity
  8
LC-004-005-----0
 62
     7
370
    25
100
AcDbLine
 10
251.376787
 20
135.411275
 30
0.0
 11
257.376787
 21
141.411275
 31
0.0
  0
LINE
  5
179
102
{ACAD_REACTORS
330
1B4
102
}
330
1F
100
AcDbEntity
  8
LC-004-005-----0
 62
     7
370
    25
100
AcDbLine
 10
241.939145
 20
128.80206
 30
0.0
 11
244.04836
 21
130.911275
 31
0.0
  0
LINE
  5
17A
102
{ACAD_REACTORS
330
1B4
102
}
330
1F
100
AcDbEntity
  8
LC-004-005-----0
 62
     7
370
    25
100
AcDbLine
 10
247.487112
 20
134.350027
 30
0.0
 11
254.692472
 21
141.555387
 31
0.0
  0
LINE
  5
17B
102
{ACAD_REACTORS
330
1B4
102
}
330
1F
100
AcDbEntity
  8
LC-004-005-----0
 62
     7
370
    25
100
AcDbLine
 10
239.487
 20
129.178342
 30
0.0
 11
241.219933
 21
130.911275
 31
0.0
  0
LINE
  5
17C
102
{ACAD_REACTORS
330
1B4
102
}
330
1F
100
AcDbEntity
  8
LC-004-005-----0
 62
     7
370
    25
100
AcDbLine
 10
247.487112
 20
137.178454
 30
0.0
 11
251.719933
 21
141.411275
 31
0.0
  0
LINE
  5
17D
102
{ACAD_REACTORS
330
1B4
102
}
330
1F
100
AcDbEntity
  8
LC-004-005-----0
 62
     7
370
    25
100
AcDbLine
 10
247.487112
 20
140.006881
 30
0.0
 11
250.391506
 21
142.911275
 31
0.0
  0
LINE
  5
17E
102
{ACAD_REACTORS
330
1B4
102
}
330
1F
100
AcDbEntity
  8
LC-004-005-----0
 62
     7
370
    25
100
AcDbLine
 10
247.487112
 20
142.835308
 30
0.0
 11
247.563078
 21
142.911275
 31
0.0
  0
LINE
  5
17F
102
{ACAD_REACTORS
330
1B3
102
}
330
1F
100
AcDbEntity
  8
LC-001-002-----0
 62
     7
370
    50
100
AcDbLine
 10
126.486887
 20
142.911275
 30
0.0
 11
127.486887
 21
142.911275
 31
0.0
  0
LINE
  5
180
102
{ACAD_REACTORS
330
1B3
102
}
330
1F
100
AcDbEntity
  8
LC-001-002-----0
 62
     7
370
    50
100
AcDbLine
 10
122.775675
 20
141.411275
 30
0.0
 11
122.487
 21
141.911275
 31
0.0
  0
LINE
  5
181
102
{ACAD_REACTORS
330
1B3
102
}
330
1F
100
AcDbEntity
  8
LC-001-002-----0
 62
     7
370
    50
100
AcDbLine
 10
122.487
 20
141.911275
 30
0.0
 11
122.198324
 21
141.411275
 31
0.0
  0
LINE
  5
182
330
1F
100
AcDbEntity
  8
LC-001-002-----0
 62
     7
370
    50
100
AcDbLine
 10
120.198324
 20
141.411275
 30
0.0
 11
118.775675
 21
141.411275
 31
0.0
  0
LINE
  5
183
102
{ACAD_REACTORS
330
1B3
102
}
330
1F
100
AcDbEntity
  8
LC-001-002-----0
 62
     7
370
    50
100
AcDbLine
 10
112.487
 20
141.911275
 30
0.0
 11
112.198324
 21
141.411275
 31
0.0
  0
LINE
  5
184
102
{ACAD_REACTORS
330
1B3
102
}
330
1F
100
AcDbEntity
  8
LC-001-002-----0
 62
     7
370
    50
100
AcDbLine
 10
112.775675
 20
141.411275
 30
0.0
 11
112.487
 21
141.911275
 31
0.0
  0
LINE
  5
185
102
{ACAD_REACTORS
330
1B3
102
}
330
1F
100
AcDbEntity
  8
LC-001-002-----0
 62
     7
370
    50
100
AcDbLine
 10
112.198324
 20
141.411275
 30
0.0
 11
111.487
 21
141.411275
 31
0.0
  0
LINE
  5
186
330
1F
100
AcDbEntity
  8
LC-001-002-----0
 62
     7
370
    50
100
AcDbLine
 10
120.487
 20
141.911275
 30
0.0
 11
120.198324
 21
141.411275
 31
0.0
  0
LINE
  5
187
330
1F
100
AcDbEntity
  8
LC-001-002-----0
 62
     7
370
    50
100
AcDbLine
 10
120.775675
 20
141.411275
 30
0.0
 11
120.487
 21
141.911275
 31
0.0
  0
LINE
  5
188
330
1F
100
AcDbEntity
  8
LC-001-002-----0
 62
     7
370
    50
100
AcDbLine
 10
120.487
 20
141.911275
 30
0.0
 11
122.487
 21
141.911275
 31
0.0
  0
LINE
  5
189
330
1F
100
AcDbEntity
  8
LC-001-002-----0
 62
     7
370
    50
100
AcDbLine
 10
122.198324
 20
141.411275
 30
0.0
 11
120.775675
 21
141.411275
 31
0.0
  0
LINE
  5
18A
102
{ACAD_REACTORS
330
1B3
102
}
330
1F
100
AcDbEntity
  8
LC-001-002-----0
 62
     7
370
    50
100
AcDbLine
 10
123.487
 20
142.911275
 30
0.0
 11
124.486887
 21
142.911275
 31
0.0
  0
LINE
  5
18B
102
{ACAD_REACTORS
330
1B3
102
}
330
1F
100
AcDbEntity
  8
LC-001-002-----0
 62
     7
370
    50
100
AcDbLine
 10
104.486478
 20
141.411275
 30
0.0
 11
102.487
 21
141.411275
 31
0.0
  0
LINE
  5
18C
102
{ACAD_REACTORS
330
1B3
102
}
330
1F
100
AcDbEntity
  8
LC-001-002-----0
 62
     7
370
    50
100
AcDbLine
 10
127.486887
 20
142.911275
 30
0.0
 11
127.486887
 21
130.911275
 31
0.0
  0
LINE
  5
18D
330
1F
100
AcDbEntity
  8
LC-001-002-----0
 62
     7
370
    50
100
AcDbLine
 10
126.486887
 20
142.911275
 30
0.0
 11
124.486887
 21
142.911275
 31
0.0
  0
LINE
  5
18E
330
1F
100
AcDbEntity
  8
LC-001-002-----0
 62
     7
370
    50
100
AcDbLine
 10
254.487
 20
141.911275
 30
0.0
 11
252.487
 21
141.911275
 31
0.0
  0
LINE
  5
18F
330
1F
100
AcDbEntity
  8
LC-001-002-----0
 62
     7
370
    50
100
AcDbLine
 10
258.775675
 20
141.411275
 30
0.0
 11
260.198324
 21
141.411275
 31
0.0
  0
LINE
  5
190
330
1F
100
AcDbEntity
  8
LC-001-002-----0
 62
     7
370
    50
100
AcDbLine
 10
256.775675
 20
141.411275
 30
0.0
 11
258.198324
 21
141.411275
 31
0.0
  0
LINE
  5
191
330
1F
100
AcDbEntity
  8
LC-001-002-----0
 62
     7
370
    50
100
AcDbLine
 10
254.775675
 20
141.411275
 30
0.0
 11
256.198324
 21
141.411275
 31
0.0
  0
LINE
  5
192
330
1F
100
AcDbEntity
  8
LC-001-002-----0
 62
     7
370
    50
100
AcDbLine
 10
252.775675
 20
141.411275
 30
0.0
 11
254.198324
 21
141.411275
 31
0.0
  0
LINE
  5
193
330
1F
100
AcDbEntity
  8
LC-001-002-----0
 62
     7
370
    50
100
AcDbLine
 10
242.448546
 20
142.910584
 30
0.0
 11
242.448546
 21
145.910584
 31
0.0
  0
LINE
  5
194
330
1F
100
AcDbEntity
  8
LC-001-002-----0
 62
     7
370
    50
100
AcDbLine
 10
242.448546
 20
145.910584
 30
0.0
 11
238.900358
 21
145.910584
 31
0.0
  0
LINE
  5
195
330
1F
100
AcDbEntity
  8
LC-001-002-----0
 62
     7
370
    50
100
AcDbLine
 10
238.900358
 20
145.910584
 30
0.0
 11
238.900358
 21
142.910584
 31
0.0
  0
LINE
  5
196
330
1F
100
AcDbEntity
  8
LC-001-002-----0
 62
     7
370
    50
100
AcDbLine
 10
241.728785
 20
142.910584
 30
0.0
 11
241.728785
 21
145.910584
 31
0.0
  0
LINE
  5
197
330
1F
100
AcDbEntity
  8
LC-001-002-----0
 62
     7
370
    50
100
AcDbLine
 10
136.073641
 20
142.910584
 30
0.0
 11
136.073641
 21
145.910584
 31
0.0
  0
LINE
  5
198
330
1F
100
AcDbEntity
  8
LC-001-002-----0
 62
     7
370
    50
100
AcDbLine
 10
136.073641
 20
145.910584
 30
0.0
 11
132.525453
 21
145.910584
 31
0.0
  0
LINE
  5
199
330
1F
100
AcDbEntity
  8
LC-001-002-----0
 62
     7
370
    50
100
AcDbLine
 10
132.525453
 20
145.910584
 30
0.0
 11
132.525453
 21
142.910584
 31
0.0
  0
LINE
  5
19A
330
1F
100
AcDbEntity
  8
LC-001-002-----0
 62
     7
370
    50
100
AcDbLine
 10
133.245214
 20
145.910584
 30
0.0
 11
133.245214
 21
142.910584
 31
0.0
  0
LINE
  5
19B
102
{ACAD_REACTORS
330
1B1
102
}
330
1F
100
AcDbEntity
  8
LC-001-002-----0
 62
     7
370
    50
100
AcDbLine
 10
124.286887
 20
135.411275
 30
0.0
 11
124.286887
 21
127.910584
 31
0.0
  0
LINE
  5
19C
102
{ACAD_REACTORS
330
1B1
102
}
330
1F
100
AcDbEntity
  8
LC-001-002-----0
 62
     7
370
    50
100
AcDbLine
 10
335.62617
 20
127.128808
 30
0.0
 11
250.487112
 21
130.846059
 31
0.0
  0
LINE
  5
19D
102
{ACAD_REACTORS
330
1B1
102
}
330
1F
100
AcDbEntity
  8
LC-001-002-----0
 62
     7
370
    50
100
AcDbLine
 10
82.20207
 20
147.613
 30
0.0
 11
74.552917
 21
147.855939
 31
0.0
  0
LINE
  5
19E
102
{ACAD_REACTORS
330
1B1
102
}
330
1F
100
AcDbEntity
  8
LC-001-002-----0
 62
     7
370
    50
100
AcDbLine
 10
127.486973
 20
130.911275
 30
0.0
 11
135.487043
 21
130.911275
 31
0.0
  0
LINE
  5
19F
102
{ACAD_REACTORS
330
1B1
102
}
330
1F
100
AcDbEntity
  8
LC-005-006-MLN-0
 62
     7
370
    25
100
AcDbLine
 10
335.733993
 20
89.588374
 30
0.0
 11
176.973064
 21
96.520026
 31
0.0
  0
LINE
  5
1A0
102
{ACAD_REACTORS
330
1B1
102
}
330
1F
100
AcDbEntity
  8
LC-001-002-----0
 62
     7
370
    50
100
AcDbLine
 10
127.486973
 20
130.911275
 30
0.0
 11
127.486973
 21
134.911275
 31
0.0
  0
LINE
  5
1A1
102
{ACAD_REACTORS
330
1B1
102
}
330
1F
100
AcDbEntity
  8
LC-001-002-----0
 62
     7
370
    50
100
AcDbLine
 10
102.487
 20
141.411275
 30
0.0
 11
82.20207
 21
147.613
 31
0.0
  0
LINE
  5
1A2
102
{ACAD_REACTORS
330
1B1
102
}
330
1F
100
AcDbEntity
  8
LC-001-002-----0
 62
     7
370
    50
100
AcDbLine
 10
339.01379
 20
124.478519
 30
0.0
 11
335.960433
 21
54.545144
 31
0.0
  0
LINE
  5
1A3
102
{ACAD_REACTORS
330
1B1
102
}
330
1F
100
AcDbEntity
  8
LC-001-002-----0
 62
     7
370
    50
100
AcDbLine
 10
247.487112
 20
142.910584
 30
0.0
 11
247.487112
 21
130.911275
 31
0.0
  0
LINE
  5
1A4
102
{ACAD_REACTORS
330
1B1
102
}
330
1F
100
AcDbEntity
  8
LC-001-002-----0
 62
     7
370
    50
100
AcDbLine
 10
102.037851
 20
137.859902
 30
0.0
 11
81.861349
 21
144.02986
 31
0.0
  0
LINE
  5
1A5
102
{ACAD_REACTORS
330
1B1
102
}
330
1F
100
AcDbEntity
  8
LC-001-002-----0
 62
     7
370
    50
100
AcDbLine
 10
339.081932
 20
126.03921
 30
0.0
 11
335.62617
 21
127.128808
 31
0.0
  0
LINE
  5
1A6
102
{ACAD_REACTORS
330
1B1
102
}
330
1F
100
AcDbEntity
  8
LC-001-002-----0
 62
     7
370
    50
100
AcDbLine
 10
335.892292
 20
52.984453
 30
0.0
 11
332.354716
 21
52.200191
 31
0.0
  0
LINE
  5
1A7
102
{ACAD_REACTORS
330
1B1
102
}
330
1F
100
AcDbEntity
  8
LC-001-002-----0
 62
     7
370
    50
100
AcDbLine
 10
81.861349
 20
144.02986
 30
0.0
 11
72.487
 21
144.374965
 31
0.0
  0
LINE
  5
1A8
102
{ACAD_REACTORS
330
1B1
102
}
330
1F
100
AcDbEntity
  8
LC-001-002-----0
 62
     7
370
    50
100
AcDbLine
 10
293.11265
 20
144.02986
 30
0.0
 11
302.487509
 21
144.374984
 31
0.0
  0
LINE
  5
1A9
102
{ACAD_REACTORS
330
1B1
102
}
330
1F
100
AcDbEntity
  8
LC-001-002-----0
 62
     7
370
    50
100
AcDbLine
 10
272.936148
 20
137.859902
 30
0.0
 11
293.11265
 21
144.02986
 31
0.0
  0
LINE
  5
1AA
102
{ACAD_REACTORS
330
1B1
102
}
330
1F
100
AcDbEntity
  8
LC-001-002-----0
 62
     7
370
    50
100
AcDbLine
 10
272.487
 20
141.411275
 30
0.0
 11
292.771929
 21
147.613
 31
0.0
  0
LINE
  5
1AB
102
{ACAD_REACTORS
330
1B1
102
}
330
1F
100
AcDbEntity
  8
LC-001-002-----0
 62
     7
370
    50
100
AcDbLine
 10
292.771929
 20
147.613
 30
0.0
 11
300.629315
 21
147.862553
 31
0.0
  0
LINE
  5
1AC
102
{ACAD_REACTORS
330
1B1
102
}
330
1F
100
AcDbEntity
  8
LC-001-002-----0
 62
     7
370
    50
100
AcDbLine
 10
124.286887
 20
127.910584
 30
0.0
 11
133.983321
 21
127.910584
 31
0.0
  0
LINE
  5
1AD
102
{ACAD_REACTORS
330
1B1
102
}
330
1F
100
AcDbEntity
  8
LC-001-002-----0
 62
     7
370
    50
100
AcDbLine
 10
339.01379
 20
124.478519
 30
0.0
 11
239.487
 21
128.911275
 31
0.0
  0
LINE
  5
1AE
102
{ACAD_REACTORS
330
1B1
102
}
330
1F
100
AcDbEntity
  8
LC-001-002-----0
 62
     7
370
    50
100
AcDbLine
 10
332.354716
 20
52.200191
 30
0.0
 11
185.30603
 21
58.620475
 31
0.0
  0
LINE
  5
1AF
102
{ACAD_REACTORS
330
1B1
102
}
330
1F
100
AcDbEntity
  8
LC-001-002-----0
 62
     7
370
    50
100
AcDbLine
 10
135.487043
 20
130.911275
 30
0.0
 11
239.487
 21
130.911275
 31
0.0
  0
ENDSEC
  0
SECTION
  2
OBJECTS
  0
DICTIONARY
  5
C
330
0
100
AcDbDictionary
281
     1
  3
ACAD_GROUP
350
D
  3
ACAD_LAYOUT
350
1A
  3
ACAD_MLINESTYLE
350
17
  3
ACAD_PLOTSETTINGS
350
19
  3
ACAD_PLOTSTYLENAME
350
E
  0
DICTIONARY
  5
D
102
{ACAD_REACTORS
330
C
102
}
330
C
100
AcDbDictionary
281
     1
  3
LCGROUP151
350
1B2
  3
LCGROUP18
350
1B0
  3
LCGROUP242
350
1B4
  3
LCGROUP2573
350
1B1
  3
LCGROUP434
350
1B3
  0
DICTIONARY
  5
1A
102
{ACAD_REACTORS
330
C
102
}
330
C
100
AcDbDictionary
281
     1
  3
Layout1
350
1E
  3
Layout2
350
26
  3
Model
350
22
  0
DICTIONARY
  5
17
102
{ACAD_REACTORS
330
C
102
}
330
C
100
AcDbDictionary
281
     1
  3
Standard
350
18
  0
DICTIONARY
  5
19
102
{ACAD_REACTORS
330
C
102
}
330
C
100
AcDbDictionary
281
     1
  0
ACDBDICTIONARYWDFLT
  5
E
102
{ACAD_REACTORS
330
C
102
}
330
C
100
AcDbDictionary
281
     1
  3
Normal
350
F
100
AcDbDictionaryWithDefault
340
F
  0
GROUP
  5
1B2
102
{ACAD_REACTORS
330
D
102
}
330
D
100
AcDbGroup
300
ablaufschn
 70
     1
 71
     1
340
CE
340
CF
340
D0
340
D1
340
D2
340
D3
340
D4
340
D7
340
D8
340
D9
340
DB
340
DC
340
DD
340
E3
340
E4
  0
GROUP
  5
1B0
102
{ACAD_REACTORS
330
D
102
}
330
D
100
AcDbGroup
300
GRP18
 70
     1
 71
     1
340
66
340
6D
340
6E
340
6F
340
71
340
72
340
73
340
74
340
75
340
76
340
77
340
78
340
79
340
7A
340
7B
340
7C
340
7D
340
7E
340
7F
340
80
340
82
340
83
340
84
340
86
340
87
340
88
340
89
340
8A
340
8B
340
8C
340
8D
340
8E
340
8F
340
90
340
91
340
92
340
93
340
94
340
95
340
96
340
97
340
98
340
99
340
9A
340
9B
340
9C
340
9D
340
9E
340
9F
340
A0
340
A1
340
A2
340
A3
340
A4
340
A5
340
A6
340
A7
340
A8
340
A9
340
AA
340
AB
340
AC
340
AD
340
AE
340
AF
340
B2
340
B6
340
B7
340
B9
340
BA
340
BB
340
BD
340
BE
340
BF
340
C0
340
C1
340
C2
340
C3
340
C4
340
C7
340
C8
340
CA
340
CB
340
CC
340
D5
340
D6
340
E2
340
E6
340
EA
340
F2
340
F4
340
F6
340
F7
340
F8
340
FA
340
FB
340
FC
340
101
340
102
340
103
340
104
340
106
340
107
340
108
340
109
340
11E
340
11F
340
120
340
121
340
122
340
123
340
124
340
125
340
126
340
127
340
128
340
129
340
12A
340
12B
340
12C
340
12D
340
12E
340
12F
340
130
340
131
340
133
340
134
340
135
  0
GROUP
  5
1B4
102
{ACAD_REACTORS
330
D
102
}
330
D
100
AcDbGroup
300
GRP242
 70
     1
 71
     1
340
136
340
137
340
138
340
139
340
13A
340
13B
340
13C
340
13D
340
13E
340
13F
340
140
340
150
340
151
340
152
340
153
340
154
340
155
340
156
340
157
340
158
340
159
340
15A
340
15B
340
15C
340
15D
340
15E
340
15F
340
160
340
161
340
162
340
163
340
164
340
165
340
166
340
167
340
168
340
169
340
16A
340
16B
340
16C
340
16D
340
16E
340
16F
340
170
340
171
340
172
340
173
340
174
340
175
340
176
340
177
340
178
340
179
340
17A
340
17B
340
17C
340
17D
340
17E
  0
GROUP
  5
1B1
102
{ACAD_REACTORS
330
D
102
}
330
D
100
AcDbGroup
300
ablaufschn
 70
     1
 71
     1
340
31
340
34
340
B1
340
C6
340
C9
340
10B
340
10D
340
19B
340
19C
340
19D
340
19E
340
19F
340
1A0
340
1A1
340
1A2
340
1A3
340
1A4
340
1A5
340
1A6
340
1A7
340
1A8
340
1A9
340
1AA
340
1AB
340
1AC
340
1AD
340
1AE
340
1AF
  0
GROUP
  5
1B3
102
{ACAD_REACTORS
330
D
102
}
330
D
100
AcDbGroup
300
ablaufschn
 70
     1
 71
     1
340
FF
340
100
340
105
340
10E
340
10F
340
110
340
132
340
17F
340
180
340
181
340
183
340
184
340
185
340
18A
340
18B
340
18C
  0
LAYOUT
  5
1E
102
{ACAD_REACTORS
330
1A
102
}
330
1A
100
AcDbPlotSettings
  1

  2

  4

  6

 40
0.0
 41
0.0
 42
0.0
 43
0.0
 44
0.0
 45
0.0
 46
0.0
 47
0.0
 48
0.0
 49
0.0
140
0.0
141
0.0
142
1.0
143
1.0
 70
   688
 72
     0
 73
     0
 74
     5
  7

 75
    16
147
1.0
148
0.0
149
0.0
100
AcDbLayout
  1
Layout1
 70
     1
 71
     1
 10
-120.995097
 20
-200.697
 11
719.004903
 21
393.303
 12
0.0
 22
0.0
 32
0.0
 14
-120.995097
 24
-200.697
 34
0.0
 15
719.004903
 25
393.303
 35
0.0
146
0.0
 13
0.0
 23
0.0
 33
0.0
 16
1.0
 26
0.0
 36
0.0
 17
0.0
 27
1.0
 37
0.0
 76
     0
330
1B
  0
LAYOUT
  5
26
102
{ACAD_REACTORS
330
1A
102
}
330
1A
100
AcDbPlotSettings
  1

  2

  4

  6

 40
0.0
 41
0.0
 42
0.0
 43
0.0
 44
0.0
 45
0.0
 46
0.0
 47
0.0
 48
0.0
 49
0.0
140
0.0
141
0.0
142
1.0
143
1.0
 70
   688
 72
     0
 73
     0
 74
     5
  7

 75
    16
147
1.0
148
0.0
149
0.0
100
AcDbLayout
  1
Layout2
 70
     1
 71
     2
 10
0.0
 20
0.0
 11
0.0
 21
0.0
 12
0.0
 22
0.0
 32
0.0
 14
0.0
 24
0.0
 34
0.0
 15
0.0
 25
0.0
 35
0.0
146
0.0
 13
0.0
 23
0.0
 33
0.0
 16
1.0
 26
0.0
 36
0.0
 17
0.0
 27
1.0
 37
0.0
 76
     0
330
23
  0
LAYOUT
  5
22
102
{ACAD_REACTORS
330
1A
102
}
330
1A
100
AcDbPlotSettings
  1

  2

  4

  6

 40
0.0
 41
0.0
 42
0.0
 43
0.0
 44
0.0
 45
0.0
 46
0.0
 47
0.0
 48
0.0
 49
0.0
140
0.0
141
0.0
142
1.0
143
1.0
 70
  1776
 72
     0
 73
     0
 74
     0
  7

 75
     0
147
1.0
148
0.0
149
0.0
100
AcDbLayout
  1
Model
 70
     1
 71
     0
 10
-120.995097
 20
-200.697
 11
719.004903
 21
393.303
 12
0.0
 22
0.0
 32
0.0
 14
-120.995097
 24
-200.697
 34
0.0
 15
719.004903
 25
393.303
 35
0.0
146
0.0
 13
0.0
 23
0.0
 33
0.0
 16
1.0
 26
0.0
 36
0.0
 17
0.0
 27
1.0
 37
0.0
 76
     0
330
1F
  0
MLINESTYLE
  5
18
102
{ACAD_REACTORS
330
17
102
}
330
17
100
AcDbMlineStyle
  2
Standard
 70
     0
  3

 62
   256
 51
90.0
 52
90.0
 71
     2
 49
0.5
 62
   256
  6
BYLAYER
 49
-0.5
 62
   256
  6
BYLAYER
  0
ACDBPLACEHOLDER
  5
F
102
{ACAD_REACTORS
330
E
102
}
330
E
  0
ENDSEC
  0
EOF
