  0
SECTION
  2
HEADER
  9
$ACADVER
  1
AC1009
  9
$INSBASE
 10
-111.419116
 20
-1135.36516
 30
0.0
  9
$EXTMIN
 10
-321.419116
 20
-1283.86516
 30
0.0
  9
$EXTMAX
 10
518.580884
 20
-689.86516
 30
0.0
  9
$LIMMIN
 10
-321.419116
 20
-1283.86516
  9
$LIMMAX
 10
518.580884
 20
-689.86516
  9
$ORTHOMODE
 70
     0
  9
$REGENMODE
 70
     1
  9
$FILLMODE
 70
     1
  9
$QTEXTMODE
 70
     0
  9
$MIRRTEXT
 70
     1
  9
$DRAGMODE
 70
     2
  9
$LTSCALE
 40
2.0
  9
$OSMODE
 70
     0
  9
$ATTMODE
 70
     1
  9
$TEXTSIZE
 40
0.2
  9
$TRACEWID
 40
0.05
  9
$TEXTSTYLE
  7
STANDARD
  9
$CLAYER
  8
0
  9
$CELTYPE
  6
BYLAYER
  9
$CECOLOR
 62
     7
  9
$DIMSCALE
 40
2.0
  9
$DIMASZ
 40
3.5
  9
$DIMEXO
 40
0.0625
  9
$DIMDLI
 40
0.38
  9
$DIMRND
 40
0.0
  9
$DIMDLE
 40
0.0
  9
$DIMEXE
 40
0.18
  9
$DIMTP
 40
0.0
  9
$DIMTM
 40
0.0
  9
$DIMTXT
 40
3.5
  9
$DIMCEN
 40
0.09
  9
$DIMTSZ
 40
0.0
  9
$DIMTOL
 70
     0
  9
$DIMLIM
 70
     0
  9
$DIMTIH
 70
     1
  9
$DIMTOH
 70
     1
  9
$DIMSE1
 70
     0
  9
$DIMSE2
 70
     0
  9
$DIMTAD
 70
     1
  9
$DIMZIN
 70
     0
  9
$DIMBLK
  1

  9
$DIMASO
 70
     1
  9
$DIMSHO
 70
     1
  9
$DIMPOST
  1

  9
$DIMAPOST
  1

  9
$DIMALT
 70
     0
  9
$DIMALTD
 70
     2
  9
$DIMALTF
 40
25.4
  9
$DIMLFAC
 40
1.0
  9
$DIMTOFL
 70
     0
  9
$DIMTVP
 40
0.0
  9
$DIMTIX
 70
     0
  9
$DIMSOXD
 70
     0
  9
$DIMSAH
 70
     0
  9
$DIMBLK1
  1

  9
$DIMBLK2
  1

  9
$DIMSTYLE
  2
STANDARD
  9
$DIMCLRD
 70
     0
  9
$DIMCLRE
 70
     0
  9
$DIMCLRT
 70
     0
  9
$DIMTFAC
 40
1.0
  9
$DIMGAP
 40
0.09
  9
$LUNITS
 70
     2
  9
$LUPREC
 70
     2
  9
$AXISMODE
 70
     0
  9
$AXISUNIT
 10
0.0
 20
0.0
  9
$SKETCHINC
 40
0.1
  9
$FILLETRAD
 40
0.0
  9
$AUNITS
 70
     0
  9
$AUPREC
 70
     0
  9
$MENU
  1
acad
  9
$ELEVATION
 40
0.0
  9
$PELEVATION
 40
0.0
  9
$THICKNESS
 40
0.0
  9
$LIMCHECK
 70
     0
  9
$BLIPMODE
 70
     1
  9
$CHAMFERA
 40
0.0
  9
$CHAMFERB
 40
0.0
  9
$SKPOLY
 70
     0
  9
$TDCREATE
 40
0.000000000
  9
$TDUPDATE
 40
0.000000000
  9
$TDINDWG
 40
0.0000000000
  9
$TDUSRTIMER
 40
0.0000000000
  9
$USRTIMER
 70
     1
  9
$ANGBASE
 50
0.0
  9
$ANGDIR
 70
     0
  9
$PDMODE
 70
     0
  9
$PDSIZE
 40
0.0
  9
$PLINEWID
 40
0.0
  9
$COORDS
 70
     0
  9
$SPLFRAME
 70
     0
  9
$SPLINETYPE
 70
     6
  9
$SPLINESEGS
 70
     8
  9
$ATTDIA
 70
     0
  9
$ATTREQ
 70
     1
  9
$HANDLING
 70
     1
  9
$HANDSEED
  5
106
  9
$SURFTAB1
 70
     6
  9
$SURFTAB2
 70
     6
  9
$SURFTYPE
 70
     6
  9
$SURFU
 70
     6
  9
$SURFV
 70
     6
  9
$UCSNAME
  2

  9
$UCSORG
 10
0.0
 20
0.0
 30
0.0
  9
$UCSXDIR
 10
1.0
 20
0.0
 30
0.0
  9
$UCSYDIR
 10
0.0
 20
1.0
 30
0.0
  9
$PUCSNAME
  2

  9
$PUCSORG
 10
0.0
 20
0.0
 30
0.0
  9
$PUCSXDIR
 10
1.0
 20
0.0
 30
0.0
  9
$PUCSYDIR
 10
0.0
 20
1.0
 30
0.0
  9
$USERI1
 70
     0
  9
$USERI2
 70
     0
  9
$USERI3
 70
     0
  9
$USERI4
 70
     0
  9
$USERI5
 70
     0
  9
$USERR1
 40
0.0
  9
$USERR2
 40
0.0
  9
$USERR3
 40
0.0
  9
$USERR4
 40
0.0
  9
$USERR5
 40
0.0
  9
$WORLDVIEW
 70
     1
  9
$SHADEDGE
 70
     3
  9
$SHADEDIF
 70
    70
  9
$TILEMODE
 70
     1
  9
$MAXACTVP
 70
    16
  9
$PINSBASE
 10
0.0
 20
0.0
 30
0.0
  9
$PLIMCHECK
 70
     0
  9
$PEXTMIN
 10
1.000000E+20
 20
1.000000E+20
 30
1.000000E+20
  9
$PEXTMAX
 10
-1.000000E+20
 20
-1.000000E+20
 30
-1.000000E+20
  9
$PLIMMIN
 10
-321.419116
 20
-1283.86516
  9
$PLIMMAX
 10
518.580884
 20
-689.86516
  9
$UNITMODE
 70
     0
  9
$VISRETAIN
 70
     0
  9
$PLINEGEN
 70
     1
  9
$PSLTSCALE
 70
     0
  9
$TREEDEPTH
 70
  3020
  9
$DWGCODEPAGE
  3
dos850
  0
ENDSEC
  0
SECTION
  2
TABLES
  0
TABLE
  2
VPORT
 70
     1
  0
VPORT
  2
*ACTIVE
 70
     0
 10
0.0
 20
0.0
 11
1.0
 21
1.0
 12
420.0
 22
297.0
 13
0.0
 23
0.0
 14
1.0
 24
1.0
 15
0.0
 25
0.0
 16
0.0
 26
0.0
 36
1.0
 17
-321.419116
 27
-1283.86516
 37
0.0
 40
594.0
 41
1.604229
 42
50.0
 43
0.0
 44
0.0
 50
0.0
 51
0.0
 71
     0
 72
   100
 73
     1
 74
     1
 75
     0
 76
     0
 77
     0
 78
     0
  0
ENDTAB
  0
TABLE
  2
LTYPE
 70
     3
  0
LTYPE
  2
CONTINUOUS
 70
    64
  3
Solid line
 72
    65
 73
     0
 40
0.0
  0
LTYPE
  2
DASHDOT
 70
    64
  3
__ . __ . __ . __ . __
 72
    65
 73
     4
 40
7.5
 49
5.0
 49
-1.25
 49
0.0
 49
-1.25
  0
LTYPE
  2
CENTER
 70
    64
  3
__ . __ . __ . __ . __
 72
    65
 73
     4
 40
7.5
 49
5.0
 49
-1.25
 49
0.0
 49
-1.25
  0
ENDTAB
  0
TABLE
  2
LAYER
 70
    10
  0
LAYER
  2
0
 70
     0
 62
     7
  6
CONTINUOUS
  0
LAYER
  2
LC-INFO-1-2-MM-A3-0
 70
     1
 62
    -1
  6
CONTINUOUS
  0
LAYER
  2
LC-005-003-MTH-0
 70
     0
 62
     2
  6
CONTINUOUS
  0
LAYER
  2
LC-004-003-----0
 70
     0
 62
     2
  6
CONTINUOUS
  0
LAYER
  2
LC-006-003-MTG-0
 70
     0
 62
     2
  6
CONTINUOUS
  0
LAYER
  2
LC-007-000-----0
 70
     0
 62
     7
  6
CONTINUOUS
  0
LAYER
  2
LC-001-006-MLN-0
 70
     0
 62
     2
  6
CENTER
  0
LAYER
  2
LC-002-002-----0
 70
     0
 62
     1
  6
CONTINUOUS
  0
LAYER
  2
LC-003-002-RND-0
 70
     0
 62
     1
  6
CONTINUOUS
  0
LAYER
  2
LC-000
 70
     0
 62
     7
  6
CONTINUOUS
  0
ENDTAB
  0
TABLE
  2
STYLE
 70
     3
  0
STYLE
  2
STANDARD
 70
     0
 40
0.0
 41
1.0
 50
0.0
 71
     0
 42
0.0
  3
txt
  4

  0
STYLE
  2
LC-TXTSTYLE-150-400-0-0-A1
 70
    64
 40
0.0
 41
1.0
 50
15.0
 71
     0
 42
3.5
  3
Arial
  4

  0
STYLE
  2
LC-STANDARD
 70
    64
 40
0.0
 41
1.0
 50
0.0
 71
     0
 42
3.5
  3
MONOTXT
  4

  0
ENDTAB
  0
TABLE
  2
VIEW
 70
     0
  0
ENDTAB
  0
TABLE
  2
UCS
 70
     0
  0
ENDTAB
  0
TABLE
  2
APPID
 70
     1
  0
APPID
  2
ACAD
 70
     0
  0
ENDTAB
  0
TABLE
  2
DIMSTYLE
 70
     4
  0
DIMSTYLE
  2
STANDARD
 70
     0
  3

  4

  5

  6

  7

 40
1.0
 41
0.18
 42
0.0625
 43
0.38
 44
0.18
 45
0.0
 46
0.0
 47
0.0
 48
0.0
 71
     0
 72
     0
 73
     1
 74
     1
 75
     0
 76
     0
 77
     0
 78
     0
140
0.18
141
0.09
142
0.0
143
25.4
144
1.0
145
0.0
146
1.0
147
0.09
170
     0
171
     2
172
     0
173
     0
174
     0
175
     0
176
     0
177
     0
178
     0
  0
DIMSTYLE
  2
LC-STANDARD
 70
     0
  3

  4

  5

  6

  7

 40
1.0
 41
3.5
 42
0.0
 43
7.5
 44
1.8
 45
0.0
 46
0.0
 47
0.0
 48
0.0
 71
     0
 72
     0
 73
     0
 74
     0
 75
     0
 76
     0
 77
     1
 78
     8
140
3.5
141
0.0
142
0.0
143
25.4
144
1.0
145
0.0
146
0.71
147
1.5
170
     0
171
     2
172
     1
173
     0
174
     0
175
     0
176
     0
177
     0
178
     3
  0
DIMSTYLE
  2
LC-DIM-L-0140-01-02
 70
     0
  3

  4

  5

  6

  7

 40
2.0
 41
3.5
 42
0.0
 43
7.5
 44
1.8
 45
0.0
 46
0.0
 47
0.0
 48
0.0
 71
     0
 72
     0
 73
     0
 74
     0
 75
     0
 76
     0
 77
     1
 78
     8
140
14.0
141
0.0
142
0.0
143
25.4
144
1.0
145
0.0
146
0.71
147
1.5
170
     0
171
     2
172
     0
173
     0
174
     0
175
     0
176
     2
177
     2
178
     8
  0
DIMSTYLE
  2
LC-DIM-L-0140-02-02
 70
     0
  3

  4

  5

  6

  7

 40
2.0
 41
3.5
 42
0.0
 43
7.5
 44
1.8
 45
0.0
 46
0.0
 47
0.0
 48
0.0
 71
     0
 72
     0
 73
     0
 74
     0
 75
     0
 76
     0
 77
     1
 78
     8
140
14.0
141
0.0
142
0.0
143
25.4
144
1.0
145
0.0
146
0.71
147
1.5
170
     0
171
     2
172
     0
173
     0
174
     0
175
     0
176
     2
177
     2
178
     8
  0
ENDTAB
  0
ENDSEC
  0
SECTION
  2
BLOCKS
  0
BLOCK
  8
0
  5
24
  2
*D0
 70
    65
 10
0.0
 20
0.0
 30
0.0
  3
*D0
  0
LINE
  8
LC-005-003-MTH-0
  6
CONTINUOUS
  5
26
 10
16.854533
 20
-1052.87716
 30
0.0
 11
95.2
 21
-1052.87716
 31
0.0
  0
LINE
  8
LC-005-003-MTH-0
  6
CONTINUOUS
  5
27
 10
17.354533
 20
-1015.37716
 30
0.0
 11
95.2
 21
-1015.37716
 31
0.0
  0
LINE
  8
LC-004-003-----0
  6
CONTINUOUS
  5
29
 10
82.054733
 20
-1080.637616
 30
0.0
 11
78.4
 21
-1052.87716
 31
0.0
  0
LINE
  8
LC-004-003-----0
  6
CONTINUOUS
  5
2A
 10
78.4
 20
-1052.87716
 30
0.0
 11
74.745267
 21
-1080.637616
 31
0.0
  0
LINE
  8
LC-004-003-----0
  6
CONTINUOUS
  5
2B
 10
74.745267
 20
-1080.637616
 30
0.0
 11
82.054733
 21
-1080.637616
 31
0.0
  0
LINE
  8
LC-004-003-----0
  6
CONTINUOUS
  5
2C
 10
81.104503
 20
-1080.699897
 30
0.0
 11
78.4
 21
-1060.15716
 31
0.0
  0
LINE
  8
LC-004-003-----0
  6
CONTINUOUS
  5
2D
 10
78.4
 20
-1060.15716
 30
0.0
 11
75.695497
 21
-1080.699897
 31
0.0
  0
LINE
  8
LC-004-003-----0
  6
CONTINUOUS
  5
2E
 10
80.154272
 20
-1080.762179
 30
0.0
 11
78.4
 21
-1067.43716
 31
0.0
  0
LINE
  8
LC-004-003-----0
  6
CONTINUOUS
  5
2F
 10
78.4
 20
-1067.43716
 30
0.0
 11
76.645728
 21
-1080.762179
 31
0.0
  0
LINE
  8
LC-004-003-----0
  6
CONTINUOUS
  5
30
 10
79.204041
 20
-1080.82446
 30
0.0
 11
78.4
 21
-1074.71716
 31
0.0
  0
LINE
  8
LC-004-003-----0
  6
CONTINUOUS
  5
31
 10
78.4
 20
-1074.71716
 30
0.0
 11
77.595959
 21
-1080.82446
 31
0.0
  0
LINE
  8
LC-004-003-----0
  6
CONTINUOUS
  5
32
 10
74.745267
 20
-987.616704
 30
0.0
 11
78.4
 21
-1015.37716
 31
0.0
  0
LINE
  8
LC-004-003-----0
  6
CONTINUOUS
  5
33
 10
78.4
 20
-1015.37716
 30
0.0
 11
82.054733
 21
-987.616704
 31
0.0
  0
LINE
  8
LC-004-003-----0
  6
CONTINUOUS
  5
34
 10
82.054733
 20
-987.616704
 30
0.0
 11
74.745267
 21
-987.616704
 31
0.0
  0
LINE
  8
LC-004-003-----0
  6
CONTINUOUS
  5
35
 10
75.695497
 20
-987.554422
 30
0.0
 11
78.4
 21
-1008.09716
 31
0.0
  0
LINE
  8
LC-004-003-----0
  6
CONTINUOUS
  5
36
 10
78.4
 20
-1008.09716
 30
0.0
 11
81.104503
 21
-987.554422
 31
0.0
  0
LINE
  8
LC-004-003-----0
  6
CONTINUOUS
  5
37
 10
76.645728
 20
-987.492141
 30
0.0
 11
78.4
 21
-1000.81716
 31
0.0
  0
LINE
  8
LC-004-003-----0
  6
CONTINUOUS
  5
38
 10
78.4
 20
-1000.81716
 30
0.0
 11
80.154272
 21
-987.492141
 31
0.0
  0
LINE
  8
LC-004-003-----0
  6
CONTINUOUS
  5
39
 10
77.595959
 20
-987.429859
 30
0.0
 11
78.4
 21
-993.53716
 31
0.0
  0
LINE
  8
LC-004-003-----0
  6
CONTINUOUS
  5
3A
 10
78.4
 20
-993.53716
 30
0.0
 11
79.204041
 21
-987.429859
 31
0.0
  0
LINE
  8
LC-006-003-MTG-0
  6
CONTINUOUS
  5
3C
 10
78.4
 20
-1092.07716
 30
0.0
 11
78.4
 21
-905.60946
 31
0.0
  0
TEXT
  8
LC-004-003-----0
  6
CONTINUOUS
 62
     8
  5
3D
 10
70.572446
 20
-972.949
 30
0.0
 40
28.0
  1
37,5
 50
90.0
 41
0.9
 51
15.0
  7
LC-TXTSTYLE-150-400-0-0-A0
  0
ENDBLK
  8
0
  5
3E
  0
BLOCK
  8
0
  5
40
  2
*D1
 70
    65
 10
0.0
 20
0.0
 30
0.0
  3
*D1
  0
LINE
  8
LC-005-003-MTH-0
  6
CONTINUOUS
  5
41
 10
-80.645467
 20
-1017.37716
 30
0.0
 11
-80.645467
 21
-963.2
 31
0.0
  0
LINE
  8
LC-005-003-MTH-0
  6
CONTINUOUS
  5
42
 10
19.354533
 20
-1017.37716
 30
0.0
 11
19.354533
 21
-963.2
 31
0.0
  0
LINE
  8
LC-006-003-MTG-0
  6
CONTINUOUS
  5
43
 10
-80.645467
 20
-980.0
 30
0.0
 11
19.354533
 21
-980.0
 31
0.0
  0
LINE
  8
LC-004-003-----0
  6
CONTINUOUS
  5
44
 10
-52.88501
 20
-976.345267
 30
0.0
 11
-80.645467
 21
-980.0
 31
0.0
  0
LINE
  8
LC-004-003-----0
  6
CONTINUOUS
  5
45
 10
-80.645467
 20
-980.0
 30
0.0
 11
-52.88501
 21
-983.654733
 31
0.0
  0
LINE
  8
LC-004-003-----0
  6
CONTINUOUS
  5
46
 10
-52.88501
 20
-983.654733
 30
0.0
 11
-52.88501
 21
-976.345267
 31
0.0
  0
LINE
  8
LC-004-003-----0
  6
CONTINUOUS
  5
47
 10
-52.822729
 20
-977.295497
 30
0.0
 11
-73.365467
 21
-980.0
 31
0.0
  0
LINE
  8
LC-004-003-----0
  6
CONTINUOUS
  5
48
 10
-73.365467
 20
-980.0
 30
0.0
 11
-52.822729
 21
-982.704503
 31
0.0
  0
LINE
  8
LC-004-003-----0
  6
CONTINUOUS
  5
49
 10
-52.760448
 20
-978.245728
 30
0.0
 11
-66.085467
 21
-980.0
 31
0.0
  0
LINE
  8
LC-004-003-----0
  6
CONTINUOUS
  5
4A
 10
-66.085467
 20
-980.0
 30
0.0
 11
-52.760448
 21
-981.754272
 31
0.0
  0
LINE
  8
LC-004-003-----0
  6
CONTINUOUS
  5
4B
 10
-52.698166
 20
-979.195959
 30
0.0
 11
-58.805467
 21
-980.0
 31
0.0
  0
LINE
  8
LC-004-003-----0
  6
CONTINUOUS
  5
4C
 10
-58.805467
 20
-980.0
 30
0.0
 11
-52.698166
 21
-980.804041
 31
0.0
  0
LINE
  8
LC-004-003-----0
  6
CONTINUOUS
  5
4D
 10
-8.405923
 20
-983.654733
 30
0.0
 11
19.354533
 21
-980.0
 31
0.0
  0
LINE
  8
LC-004-003-----0
  6
CONTINUOUS
  5
4E
 10
19.354533
 20
-980.0
 30
0.0
 11
-8.405923
 21
-976.345267
 31
0.0
  0
LINE
  8
LC-004-003-----0
  6
CONTINUOUS
  5
4F
 10
-8.405923
 20
-976.345267
 30
0.0
 11
-8.405923
 21
-983.654733
 31
0.0
  0
LINE
  8
LC-004-003-----0
  6
CONTINUOUS
  5
50
 10
-8.468204
 20
-982.704503
 30
0.0
 11
12.074533
 21
-980.0
 31
0.0
  0
LINE
  8
LC-004-003-----0
  6
CONTINUOUS
  5
51
 10
12.074533
 20
-980.0
 30
0.0
 11
-8.468204
 21
-977.295497
 31
0.0
  0
LINE
  8
LC-004-003-----0
  6
CONTINUOUS
  5
52
 10
-8.530485
 20
-981.754272
 30
0.0
 11
4.794533
 21
-980.0
 31
0.0
  0
LINE
  8
LC-004-003-----0
  6
CONTINUOUS
  5
53
 10
4.794533
 20
-980.0
 30
0.0
 11
-8.530485
 21
-978.245728
 31
0.0
  0
LINE
  8
LC-004-003-----0
  6
CONTINUOUS
  5
54
 10
-8.592767
 20
-980.804041
 30
0.0
 11
-2.485467
 21
-980.0
 31
0.0
  0
LINE
  8
LC-004-003-----0
  6
CONTINUOUS
  5
55
 10
-2.485467
 20
-980.0
 30
0.0
 11
-8.592767
 21
-979.195959
 31
0.0
  0
TEXT
  8
LC-004-003-----0
  6
CONTINUOUS
 62
     8
  5
56
 10
-52.700607
 20
-972.172446
 30
0.0
 40
28.0
  1
100
 41
0.9
 51
15.0
  7
LC-TXTSTYLE-150-400-0-0-A0
 72
     1
 11
-26.297307
 21
-972.172446
 31
0.0
  0
ENDBLK
  8
0
  5
57
  0
BLOCK
  8
0
  5
59
  2
BLK1
 70
    64
 10
0.0
 20
0.0
 30
0.0
  3
BLK1
  0
ENDBLK
  8
0
  5
5A
  0
BLOCK
  8
0
  5
5C
  2
*D3
 70
    65
 10
0.0
 20
0.0
 30
0.0
  3
*D3
  0
LINE
  8
LC-005-003-MTH-0
  6
CONTINUOUS
  5
5D
 10
-78.145482
 20
-914.139598
 30
0.0
 11
-134.4
 21
-914.139598
 31
0.0
  0
LINE
  8
LC-005-003-MTH-0
  6
CONTINUOUS
  5
5E
 10
-78.145482
 20
-813.639598
 30
0.0
 11
-134.4
 21
-813.639598
 31
0.0
  0
LINE
  8
LC-006-003-MTG-0
  6
CONTINUOUS
  5
5F
 10
-117.6
 20
-914.139598
 30
0.0
 11
-117.6
 21
-813.639598
 31
0.0
  0
LINE
  8
LC-004-003-----0
  6
CONTINUOUS
  5
60
 10
-121.254733
 20
-886.379142
 30
0.0
 11
-117.6
 21
-914.139598
 31
0.0
  0
LINE
  8
LC-004-003-----0
  6
CONTINUOUS
  5
61
 10
-117.6
 20
-914.139598
 30
0.0
 11
-113.945267
 21
-886.379142
 31
0.0
  0
LINE
  8
LC-004-003-----0
  6
CONTINUOUS
  5
62
 10
-113.945267
 20
-886.379142
 30
0.0
 11
-121.254733
 21
-886.379142
 31
0.0
  0
LINE
  8
LC-004-003-----0
  6
CONTINUOUS
  5
63
 10
-120.304503
 20
-886.31686
 30
0.0
 11
-117.6
 21
-906.859598
 31
0.0
  0
LINE
  8
LC-004-003-----0
  6
CONTINUOUS
  5
64
 10
-117.6
 20
-906.859598
 30
0.0
 11
-114.895497
 21
-886.31686
 31
0.0
  0
LINE
  8
LC-004-003-----0
  6
CONTINUOUS
  5
65
 10
-119.354272
 20
-886.254579
 30
0.0
 11
-117.6
 21
-899.579598
 31
0.0
  0
LINE
  8
LC-004-003-----0
  6
CONTINUOUS
  5
66
 10
-117.6
 20
-899.579598
 30
0.0
 11
-115.845728
 21
-886.254579
 31
0.0
  0
LINE
  8
LC-004-003-----0
  6
CONTINUOUS
  5
67
 10
-118.404041
 20
-886.192297
 30
0.0
 11
-117.6
 21
-892.299598
 31
0.0
  0
LINE
  8
LC-004-003-----0
  6
CONTINUOUS
  5
68
 10
-117.6
 20
-892.299598
 30
0.0
 11
-116.795959
 21
-886.192297
 31
0.0
  0
LINE
  8
LC-004-003-----0
  6
CONTINUOUS
  5
69
 10
-113.945267
 20
-841.400054
 30
0.0
 11
-117.6
 21
-813.639598
 31
0.0
  0
LINE
  8
LC-004-003-----0
  6
CONTINUOUS
  5
6A
 10
-117.6
 20
-813.639598
 30
0.0
 11
-121.254733
 21
-841.400054
 31
0.0
  0
LINE
  8
LC-004-003-----0
  6
CONTINUOUS
  5
6B
 10
-121.254733
 20
-841.400054
 30
0.0
 11
-113.945267
 21
-841.400054
 31
0.0
  0
LINE
  8
LC-004-003-----0
  6
CONTINUOUS
  5
6C
 10
-114.895497
 20
-841.462335
 30
0.0
 11
-117.6
 21
-820.919598
 31
0.0
  0
LINE
  8
LC-004-003-----0
  6
CONTINUOUS
  5
6D
 10
-117.6
 20
-820.919598
 30
0.0
 11
-120.304503
 21
-841.462335
 31
0.0
  0
LINE
  8
LC-004-003-----0
  6
CONTINUOUS
  5
6E
 10
-115.845728
 20
-841.524617
 30
0.0
 11
-117.6
 21
-828.199598
 31
0.0
  0
LINE
  8
LC-004-003-----0
  6
CONTINUOUS
  5
6F
 10
-117.6
 20
-828.199598
 30
0.0
 11
-119.354272
 21
-841.524617
 31
0.0
  0
LINE
  8
LC-004-003-----0
  6
CONTINUOUS
  5
70
 10
-116.795959
 20
-841.586898
 30
0.0
 11
-117.6
 21
-835.479598
 31
0.0
  0
LINE
  8
LC-004-003-----0
  6
CONTINUOUS
  5
71
 10
-117.6
 20
-835.479598
 30
0.0
 11
-118.404041
 21
-841.586898
 31
0.0
  0
TEXT
  8
LC-004-003-----0
  6
CONTINUOUS
 62
     8
  5
72
 10
-125.427554
 20
-899.146388
 30
0.0
 40
28.0
  1
100,5
 50
90.0
 41
0.9
 51
15.0
  7
LC-TXTSTYLE-150-400-0-0-A0
 72
     1
 11
-125.427554
 21
-859.541438
 31
0.0
  0
ENDBLK
  8
0
  5
73
  0
ENDSEC
  0
SECTION
  2
ENTITIES
  0
VIEWPORT
  8
LC-000
  5
101
 67
     1
 68
     1
 10
420.0
 20
297.0
 30
0.0
 40
840.0
 41
594.0
 69
     1
1001
ACAD
1000
MVIEW
1002
{
1070
    16
1010
0.0
1020
0.0
1030
0.0
1010
0.0
1020
0.0
1030
1.0
1040
0.0
1040
594.0
1040
420.0
1040
297.0
1040
50.0
1040
0.0
1040
0.0
1070
     0
1070
   100
1070
     1
1070
     1
1070
     0
1070
     0
1070
     0
1070
     0
1040
0.0
1040
0.0
1040
0.0
1040
1.0
1040
1.0
1040
0.0
1040
0.0
1070
     0
1002
{
1002
}
1002
}
  0
VIEWPORT
  8
0
  5
102
 67
     1
 68
     1
 10
0.0
 20
0.0
 30
0.0
 40
0.0
 41
0.0
 69
     1
1001
ACAD
1000
MVIEW
1002
{
1070
    16
1010
0.0
1020
0.0
1030
0.0
1010
0.0
1020
0.0
1030
1.0
1040
0.0
1040
594.0
1040
0.0
1040
0.0
1040
50.0
1040
0.0
1040
0.0
1070
     0
1070
   100
1070
     0
1070
     1
1070
     0
1070
     0
1070
     0
1070
     0
1040
0.0
1040
0.0
1040
0.0
1040
0.5
1040
0.5
1040
0.5
1040
0.5
1070
     0
1002
{
1002
}
1002
}
  0
DIMENSION
  8
LC-004-003-----0
  6
CONTINUOUS
  5
74
  2
*D0
 10
78.4
 20
-1034.12716
 30
0.0
 11
78.4
 21
-1034.12716
 31
0.0
 13
17.354533
 23
-1015.37716
 33
0.0
 14
16.854533
 24
-1052.87716
 34
0.0
 50
90.0
  3
LC-DIM-L-0140-01-02
  0
DIMENSION
  8
LC-004-003-----0
  6
CONTINUOUS
  5
75
  2
*D1
 10
-30.645467
 20
-980.0
 30
0.0
 11
-30.645467
 21
-980.0
 31
0.0
 13
-80.645467
 23
-1017.37716
 33
0.0
 14
19.354533
 24
-1017.37716
 34
0.0
  3
LC-DIM-L-0140-01-02
  0
INSERT
  8
LC-007-000-----0
  5
77
  2
BLK1
 10
0.0
 20
0.0
 30
0.0
  0
DIMENSION
  8
LC-004-003-----0
  6
CONTINUOUS
  5
78
  2
*D3
 10
-117.6
 20
-863.889598
 30
0.0
 11
-117.6
 21
-863.889598
 31
0.0
 13
-78.145482
 23
-813.639598
 33
0.0
 14
-78.145482
 24
-914.139598
 34
0.0
 50
90.0
  3
LC-DIM-L-0140-02-02
  0
LINE
  8
LC-001-006-MLN-0
  6
DASHDOT
  5
7C
 10
-60.645467
 20
-1030.37716
 30
0.0
 11
-91.563376
 21
-1030.37716
 31
0.0
  0
LINE
  8
LC-002-002-----0
  6
CONTINUOUS
  5
7E
 10
19.354533
 20
-1052.87716
 30
0.0
 11
19.354533
 21
-1017.37716
 31
0.0
  0
LINE
  8
LC-002-002-----0
  6
CONTINUOUS
  5
7F
 10
-80.645467
 20
-1052.87716
 30
0.0
 11
-80.645467
 21
-1017.37716
 31
0.0
  0
LINE
  8
LC-002-002-----0
  6
CONTINUOUS
  5
80
 10
17.354533
 20
-1015.37716
 30
0.0
 11
-78.645467
 21
-1015.37716
 31
0.0
  0
LINE
  8
LC-002-002-----0
  6
CONTINUOUS
  5
81
 10
19.354533
 20
-1052.87716
 30
0.0
 11
11.354533
 21
-1052.87716
 31
0.0
  0
LINE
  8
LC-002-002-----0
  6
CONTINUOUS
  5
82
 10
19.354533
 20
-1033.87716
 30
0.0
 11
8.903287
 21
-1033.87716
 31
0.0
  0
LINE
  8
LC-002-002-----0
  6
CONTINUOUS
  5
83
 10
-70.645467
 20
-1050.87716
 30
0.0
 11
-70.645467
 21
-1026.387377
 31
0.0
  0
LINE
  8
LC-002-002-----0
  6
CONTINUOUS
  5
84
 10
9.354533
 20
-1050.87716
 30
0.0
 11
9.354533
 21
-1026.387377
 31
0.0
  0
LINE
  8
LC-002-002-----0
  6
CONTINUOUS
  5
85
 10
-78.145467
 20
-1052.87716
 30
0.0
 11
-78.145467
 21
-1033.87716
 31
0.0
  0
LINE
  8
LC-002-002-----0
  6
CONTINUOUS
  5
86
 10
16.854533
 20
-1052.87716
 30
0.0
 11
16.854533
 21
-1033.87716
 31
0.0
  0
LINE
  8
LC-002-002-----0
  6
CONTINUOUS
  5
87
 10
19.354533
 20
-1026.387377
 30
0.0
 11
9.354533
 21
-1026.387377
 31
0.0
  0
ARC
  8
LC-002-002-----0
  6
CONTINUOUS
  5
88
 10
-60.645467
 20
-1039.144987
 30
0.0
 40
10.0
 50
37.275791
 51
142.724209
  0
ARC
  8
LC-002-002-----0
  6
CONTINUOUS
  5
89
 10
-20.645467
 20
-1039.144987
 30
0.0
 40
10.0
 50
37.275791
 51
142.724209
  0
ARC
  8
LC-002-002-----0
  6
CONTINUOUS
  5
8A
 10
-0.645467
 20
-1039.144987
 30
0.0
 40
10.0
 50
37.275791
 51
142.724209
  0
LINE
  8
LC-002-002-----0
  6
CONTINUOUS
  5
8B
 10
-10.19422
 20
-1033.87716
 30
0.0
 11
-11.096713
 21
-1033.87716
 31
0.0
  0
LINE
  8
LC-002-002-----0
  6
CONTINUOUS
  5
8C
 10
-70.645467
 20
-1026.387377
 30
0.0
 11
-80.645467
 21
-1026.387377
 31
0.0
  0
LINE
  8
LC-002-002-----0
  6
CONTINUOUS
  5
8D
 10
9.234841
 20
-1033.87716
 30
0.0
 11
8.574078
 21
-1033.87716
 31
0.0
  0
ARC
  8
LC-002-002-----0
  6
CONTINUOUS
  5
8E
 10
-40.645467
 20
-1039.144987
 30
0.0
 40
10.0
 50
37.275791
 51
142.724209
  0
LINE
  8
LC-002-002-----0
  6
CONTINUOUS
  5
8F
 10
11.190101
 20
-1033.87716
 30
0.0
 11
8.903287
 21
-1033.87716
 31
0.0
  0
LINE
  8
LC-001-006-MLN-0
  6
DASHDOT
  5
90
 10
29.354533
 20
-1030.37716
 30
0.0
 11
-0.645467
 21
-1030.37716
 31
0.0
  0
LINE
  8
LC-002-002-----0
  6
CONTINUOUS
  5
91
 10
-72.645467
 20
-1052.87716
 30
0.0
 11
-80.645467
 21
-1052.87716
 31
0.0
  0
ARC
  8
LC-002-002-----0
  6
CONTINUOUS
  5
92
 10
-78.645467
 20
-1017.37716
 30
0.0
 40
2.0
 50
90.0
 51
180.0
  0
ARC
  8
LC-003-002-RND-0
  6
CONTINUOUS
  5
94
 10
17.354533
 20
-1017.37716
 30
0.0
 40
2.0
 50
0.0
 51
90.0
  0
ARC
  8
LC-003-002-RND-0
  6
CONTINUOUS
  5
95
 10
-72.645467
 20
-1050.87716
 30
0.0
 40
2.0
 50
270.0
 51
0.0
  0
ARC
  8
LC-003-002-RND-0
  6
CONTINUOUS
  5
96
 10
11.354533
 20
-1050.87716
 30
0.0
 40
2.0
 50
180.0
 51
270.0
  0
LINE
  8
LC-002-002-----0
  6
CONTINUOUS
  5
97
 10
-30.19422
 20
-1033.87716
 30
0.0
 11
-31.096713
 21
-1033.87716
 31
0.0
  0
LINE
  8
LC-002-002-----0
  6
CONTINUOUS
  5
98
 10
-50.19422
 20
-1033.87716
 30
0.0
 11
-51.096713
 21
-1033.87716
 31
0.0
  0
LINE
  8
LC-002-002-----0
  6
CONTINUOUS
  5
99
 10
-70.19422
 20
-1033.87716
 30
0.0
 11
-80.645467
 21
-1033.87716
 31
0.0
  0
ARC
  8
LC-003-002-RND-0
  6
CONTINUOUS
  5
9A
 10
-51.096713
 20
-1031.87716
 30
0.0
 40
2.0
 50
217.275791
 51
270.0
  0
ARC
  8
LC-003-002-RND-0
  6
CONTINUOUS
  5
9B
 10
-50.19422
 20
-1031.87716
 30
0.0
 40
2.0
 50
270.0
 51
322.724209
  0
ARC
  8
LC-003-002-RND-0
  6
CONTINUOUS
  5
9C
 10
-31.096713
 20
-1031.87716
 30
0.0
 40
2.0
 50
217.275791
 51
270.0
  0
ARC
  8
LC-003-002-RND-0
  6
CONTINUOUS
  5
9D
 10
-30.19422
 20
-1031.87716
 30
0.0
 40
2.0
 50
270.0
 51
322.724209
  0
ARC
  8
LC-003-002-RND-0
  6
CONTINUOUS
  5
9E
 10
-11.096713
 20
-1031.87716
 30
0.0
 40
2.0
 50
217.275791
 51
270.0
  0
ARC
  8
LC-003-002-RND-0
  6
CONTINUOUS
  5
9F
 10
-70.19422
 20
-1031.87716
 30
0.0
 40
2.0
 50
270.0
 51
322.724209
  0
ARC
  8
LC-003-002-RND-0
  6
CONTINUOUS
  5
A0
 10
-10.19422
 20
-1031.87716
 30
0.0
 40
2.0
 50
270.0
 51
322.724209
  0
ARC
  8
LC-003-002-RND-0
  6
CONTINUOUS
  5
A1
 10
8.903287
 20
-1031.87716
 30
0.0
 40
2.0
 50
217.275791
 51
270.0
  0
LINE
  8
LC-002-002-----0
  6
CONTINUOUS
  5
A2
 10
-70.245482
 20
-810.639598
 30
0.0
 11
-77.895482
 21
-810.639598
 31
0.0
  0
LINE
  8
LC-002-002-----0
  6
CONTINUOUS
  5
A3
 10
16.604518
 20
-805.639598
 30
0.0
 11
8.954518
 21
-805.639598
 31
0.0
  0
ARC
  8
LC-002-002-----0
  6
CONTINUOUS
  5
A4
 10
16.604533
 20
-808.139583
 30
0.0
 40
2.5
 50
0.0
 51
90.0
  0
ARC
  8
LC-002-002-----0
  6
CONTINUOUS
  5
A5
 10
16.604533
 20
-808.139583
 30
0.0
 40
2.5
 50
270.0
 51
0.0
  0
ARC
  8
LC-002-002-----0
  6
CONTINUOUS
  5
A6
 10
-77.895467
 20
-808.139583
 30
0.0
 40
2.5
 50
90.0
 51
270.0
  0
ARC
  8
LC-002-002-----0
  6
CONTINUOUS
  5
A7
 10
-70.245467
 20
-806.139583
 30
0.0
 40
0.5
 50
0.0
 51
90.0
  0
LINE
  8
LC-002-002-----0
  6
CONTINUOUS
  5
A8
 10
-70.245482
 20
-805.639598
 30
0.0
 11
-77.895482
 21
-805.639598
 31
0.0
  0
LINE
  8
LC-002-002-----0
  6
CONTINUOUS
  5
A9
 10
8.454518
 20
-806.139598
 30
0.0
 11
-69.745482
 21
-806.139598
 31
0.0
  0
ARC
  8
LC-002-002-----0
  6
CONTINUOUS
  5
AA
 10
-70.245467
 20
-810.139583
 30
0.0
 40
0.5
 50
270.0
 51
0.0
  0
ARC
  8
LC-002-002-----0
  6
CONTINUOUS
  5
AB
 10
8.954533
 20
-810.139583
 30
0.0
 40
0.5
 50
180.0
 51
270.0
  0
LINE
  8
LC-002-002-----0
  6
CONTINUOUS
  5
AC
 10
16.604518
 20
-810.639598
 30
0.0
 11
8.954518
 21
-810.639598
 31
0.0
  0
ARC
  8
LC-002-002-----0
  6
CONTINUOUS
  5
AD
 10
8.954533
 20
-806.139583
 30
0.0
 40
0.5
 50
90.0
 51
180.0
  0
ARC
  8
LC-002-002-----0
  6
CONTINUOUS
  5
AE
 10
7.954533
 20
-913.639583
 30
0.0
 40
0.5
 50
270.0
 51
0.0
  0
LINE
  8
LC-002-002-----0
  6
CONTINUOUS
  5
AF
 10
-66.645482
 20
-808.139598
 30
0.0
 11
-66.645482
 21
-811.639598
 31
0.0
  0
LINE
  8
LC-002-002-----0
  6
CONTINUOUS
  5
B0
 10
19.104518
 20
-911.139598
 30
0.0
 11
19.104518
 21
-816.639598
 31
0.0
  0
ARC
  8
LC-002-002-----0
  6
CONTINUOUS
  5
B1
 10
16.854533
 20
-913.639583
 30
0.0
 40
0.5
 50
180.0
 51
270.0
  0
LINE
  8
LC-002-002-----0
  6
CONTINUOUS
  5
B2
 10
-77.645482
 20
-814.139598
 30
0.0
 11
-77.645482
 21
-816.639598
 31
0.0
  0
ARC
  8
LC-002-002-----0
  6
CONTINUOUS
  5
B3
 10
-79.895467
 20
-913.639583
 30
0.0
 40
0.5
 50
180.0
 51
270.0
  0
LINE
  8
LC-002-002-----0
  6
CONTINUOUS
  5
B4
 10
16.854518
 20
-813.639598
 30
0.0
 11
8.454518
 21
-813.639598
 31
0.0
  0
LINE
  8
LC-002-002-----0
  6
CONTINUOUS
  5
B5
 10
-78.145482
 20
-914.139598
 30
0.0
 11
-79.895482
 21
-914.139598
 31
0.0
  0
ARC
  8
LC-002-002-----0
  6
CONTINUOUS
  5
B6
 10
-78.145467
 20
-814.139583
 30
0.0
 40
0.5
 50
0.0
 51
90.0
  0
LINE
  8
LC-002-002-----0
  6
CONTINUOUS
  5
B7
 10
4.854518
 20
-862.482688
 30
0.0
 11
4.854518
 21
-911.139598
 31
0.0
  0
LINE
  8
LC-002-002-----0
  6
CONTINUOUS
  5
B8
 10
8.454518
 20
-806.139598
 30
0.0
 11
8.454518
 21
-808.139598
 31
0.0
  0
LINE
  8
LC-002-002-----0
  6
CONTINUOUS
  5
B9
 10
16.354518
 20
-816.639598
 30
0.0
 11
16.354518
 21
-814.139598
 31
0.0
  0
ARC
  8
LC-002-002-----0
  6
CONTINUOUS
  5
BA
 10
7.954533
 20
-812.139583
 30
0.0
 40
0.5
 50
0.0
 51
90.0
  0
LINE
  8
LC-002-002-----0
  6
CONTINUOUS
  5
BB
 10
-69.745482
 20
-806.139598
 30
0.0
 11
-69.745482
 21
-808.139598
 31
0.0
  0
LINE
  8
LC-002-002-----0
  6
CONTINUOUS
  5
BC
 10
-77.645482
 20
-814.139598
 30
0.0
 11
-69.745482
 21
-814.139598
 31
0.0
  0
LINE
  8
LC-002-002-----0
  6
CONTINUOUS
  5
BD
 10
18.604518
 20
-813.639598
 30
0.0
 11
16.854518
 21
-813.639598
 31
0.0
  0
LINE
  8
LC-002-002-----0
  6
CONTINUOUS
  5
BE
 10
7.954518
 20
-914.139598
 30
0.0
 11
16.854518
 21
-914.139598
 31
0.0
  0
ARC
  8
LC-002-002-----0
  6
CONTINUOUS
  5
BF
 10
-5.9788
 20
-868.927742
 30
0.0
 40
12.605556
 50
30.749662
 51
147.610653
  0
LINE
  8
LC-002-002-----0
  6
CONTINUOUS
  5
C0
 10
-77.645482
 20
-911.139598
 30
0.0
 11
-77.645482
 21
-816.639598
 31
0.0
  0
LINE
  8
LC-002-002-----0
  6
CONTINUOUS
  5
C1
 10
19.104518
 20
-814.139598
 30
0.0
 11
19.104518
 21
-816.639598
 31
0.0
  0
LINE
  8
LC-002-002-----0
  6
CONTINUOUS
  5
C2
 10
4.854518
 20
-812.139598
 30
0.0
 11
4.854518
 21
-856.179598
 31
0.0
  0
LINE
  8
LC-002-002-----0
  6
CONTINUOUS
  5
C3
 10
-69.745482
 20
-814.639598
 30
0.0
 11
-69.745482
 21
-911.139598
 31
0.0
  0
LINE
  8
LC-002-002-----0
  6
CONTINUOUS
  5
C4
 10
-77.645482
 20
-911.139598
 30
0.0
 11
-77.645482
 21
-913.639598
 31
0.0
  0
ARC
  8
LC-002-002-----0
  6
CONTINUOUS
  5
C5
 10
-30.645467
 20
-868.927742
 30
0.0
 40
12.605556
 50
32.389347
 51
147.610653
  0
LINE
  8
LC-002-002-----0
  6
CONTINUOUS
  5
C6
 10
16.354518
 20
-913.639598
 30
0.0
 11
8.454518
 21
-913.639598
 31
0.0
  0
ARC
  8
LC-002-002-----0
  6
CONTINUOUS
  5
C7
 10
5.354533
 20
-913.639583
 30
0.0
 40
0.5
 50
180.0
 51
270.0
  0
LINE
  8
LC-002-002-----0
  6
CONTINUOUS
  5
C8
 10
-69.245482
 20
-811.639598
 30
0.0
 11
-66.645482
 21
-811.639598
 31
0.0
  0
ARC
  8
LC-002-002-----0
  6
CONTINUOUS
  5
C9
 10
3.854533
 20
-856.179583
 30
0.0
 40
1.0
 50
232.355086
 51
0.0
  0
LINE
  8
LC-002-002-----0
  6
CONTINUOUS
  5
CA
 10
7.954518
 20
-914.139598
 30
0.0
 11
5.354518
 21
-914.139598
 31
0.0
  0
ARC
  8
LC-002-002-----0
  6
CONTINUOUS
  5
CB
 10
18.604533
 20
-913.639583
 30
0.0
 40
0.5
 50
270.0
 51
0.0
  0
ARC
  8
LC-002-002-----0
  6
CONTINUOUS
  5
CC
 10
-69.245467
 20
-812.139583
 30
0.0
 40
0.5
 50
90.0
 51
180.0
  0
LINE
  8
LC-002-002-----0
  6
CONTINUOUS
  5
CD
 10
-80.395482
 20
-816.639598
 30
0.0
 11
-80.395482
 21
-814.139598
 31
0.0
  0
LINE
  8
LC-002-002-----0
  6
CONTINUOUS
  5
CE
 10
16.604518
 20
-808.139598
 30
0.0
 11
16.604518
 21
-805.639598
 31
0.0
  0
LINE
  8
LC-002-002-----0
  6
CONTINUOUS
  5
CF
 10
16.604518
 20
-810.639598
 30
0.0
 11
16.604518
 21
-808.139598
 31
0.0
  0
ARC
  8
LC-002-002-----0
  6
CONTINUOUS
  5
D0
 10
-66.645467
 20
-913.639583
 30
0.0
 40
0.5
 50
270.0
 51
0.0
  0
ARC
  8
LC-002-002-----0
  6
CONTINUOUS
  5
D1
 10
-55.312133
 20
-868.927742
 30
0.0
 40
12.605556
 50
32.389347
 51
149.250338
  0
LINE
  8
LC-002-002-----0
  6
CONTINUOUS
  5
D2
 10
-80.395482
 20
-913.639598
 30
0.0
 11
-80.395482
 21
-911.139598
 31
0.0
  0
ARC
  8
LC-002-002-----0
  6
CONTINUOUS
  5
D3
 10
-42.9788
 20
-861.103987
 30
0.0
 40
2.0
 50
212.389347
 51
327.610653
  0
LINE
  8
LC-002-002-----0
  6
CONTINUOUS
  5
D4
 10
8.454518
 20
-812.139598
 30
0.0
 11
8.454518
 21
-814.639598
 31
0.0
  0
LINE
  8
LC-002-002-----0
  6
CONTINUOUS
  5
D5
 10
4.854518
 20
-913.639598
 30
0.0
 11
4.854518
 21
-911.139598
 31
0.0
  0
ARC
  8
LC-002-002-----0
  6
CONTINUOUS
  5
D6
 10
-69.245467
 20
-913.639583
 30
0.0
 40
0.5
 50
180.0
 51
270.0
  0
LINE
  8
LC-002-002-----0
  6
CONTINUOUS
  5
D7
 10
-69.745482
 20
-808.139598
 30
0.0
 11
-69.745482
 21
-812.139598
 31
0.0
  0
LINE
  8
LC-002-002-----0
  6
CONTINUOUS
  5
D8
 10
8.454518
 20
-812.139598
 30
0.0
 11
8.454518
 21
-808.139598
 31
0.0
  0
ARC
  8
LC-002-002-----0
  6
CONTINUOUS
  5
D9
 10
-66.645467
 20
-812.139583
 30
0.0
 40
0.5
 50
0.0
 51
90.0
  0
LINE
  8
LC-002-002-----0
  6
CONTINUOUS
  5
DA
 10
5.354518
 20
-808.139598
 30
0.0
 11
5.354518
 21
-811.639598
 31
0.0
  0
LINE
  8
LC-002-002-----0
  6
CONTINUOUS
  5
DB
 10
-70.245482
 20
-810.639598
 30
0.0
 11
-70.245482
 21
-805.639598
 31
0.0
  0
LINE
  8
LC-002-002-----0
  6
CONTINUOUS
  5
DC
 10
-69.745482
 20
-913.639598
 30
0.0
 11
-77.645482
 21
-913.639598
 31
0.0
  0
ARC
  8
LC-002-002-----0
  6
CONTINUOUS
  5
DD
 10
-5.9788
 20
-868.927742
 30
0.0
 40
15.1
 50
52.355086
 51
144.763453
  0
ARC
  8
LC-002-002-----0
  6
CONTINUOUS
  5
DE
 10
-78.145467
 20
-913.639583
 30
0.0
 40
0.5
 50
270.0
 51
0.0
  0
ARC
  8
LC-002-002-----0
  6
CONTINUOUS
  5
DF
 10
-79.895467
 20
-814.139583
 30
0.0
 40
0.5
 50
90.0
 51
180.0
  0
LINE
  8
LC-002-002-----0
  6
CONTINUOUS
  5
E0
 10
-66.145482
 20
-856.179598
 30
0.0
 11
-66.145482
 21
-812.143456
 31
0.0
  0
LINE
  8
LC-002-002-----0
  6
CONTINUOUS
  5
E1
 10
8.454518
 20
-814.139598
 30
0.0
 11
16.354518
 21
-814.139598
 31
0.0
  0
ARC
  8
LC-002-002-----0
  6
CONTINUOUS
  5
E2
 10
18.604533
 20
-814.139583
 30
0.0
 40
0.5
 50
0.0
 51
90.0
  0
LINE
  8
LC-002-002-----0
  6
CONTINUOUS
  5
E3
 10
-69.745482
 20
-814.639598
 30
0.0
 11
-69.745482
 21
-812.139598
 31
0.0
  0
LINE
  8
LC-002-002-----0
  6
CONTINUOUS
  5
E4
 10
5.354518
 20
-811.639598
 30
0.0
 11
7.954518
 21
-811.639598
 31
0.0
  0
ARC
  8
LC-002-002-----0
  6
CONTINUOUS
  5
E5
 10
-65.145467
 20
-856.179583
 30
0.0
 40
1.0
 50
180.0
 51
307.644914
  0
LINE
  8
LC-002-002-----0
  6
CONTINUOUS
  5
E6
 10
-66.145482
 20
-911.139598
 30
0.0
 11
-66.145482
 21
-913.639598
 31
0.0
  0
LINE
  8
LC-002-002-----0
  6
CONTINUOUS
  5
E7
 10
-69.745482
 20
-913.639598
 30
0.0
 11
-69.745482
 21
-911.139598
 31
0.0
  0
ARC
  8
LC-002-002-----0
  6
CONTINUOUS
  5
E8
 10
16.854533
 20
-814.139583
 30
0.0
 40
0.5
 50
90.0
 51
180.0
  0
LINE
  8
LC-002-002-----0
  6
CONTINUOUS
  5
E9
 10
16.354518
 20
-816.639598
 30
0.0
 11
16.354518
 21
-911.139598
 31
0.0
  0
ARC
  8
LC-002-002-----0
  6
CONTINUOUS
  5
EA
 10
-55.312133
 20
-868.927742
 30
0.0
 40
15.1
 50
35.236547
 51
127.644914
  0
LINE
  8
LC-002-002-----0
  6
CONTINUOUS
  5
EB
 10
16.354518
 20
-913.639598
 30
0.0
 11
16.354518
 21
-911.139598
 31
0.0
  0
LINE
  8
LC-002-002-----0
  6
CONTINUOUS
  5
EC
 10
-66.645482
 20
-914.139598
 30
0.0
 11
-69.245482
 21
-914.139598
 31
0.0
  0
LINE
  8
LC-002-002-----0
  6
CONTINUOUS
  5
ED
 10
-77.895482
 20
-808.139598
 30
0.0
 11
-77.895482
 21
-810.639598
 31
0.0
  0
LINE
  8
LC-002-002-----0
  6
CONTINUOUS
  5
EE
 10
-77.895482
 20
-805.639598
 30
0.0
 11
-77.895482
 21
-808.139598
 31
0.0
  0
LINE
  8
LC-002-002-----0
  6
CONTINUOUS
  5
EF
 10
-78.145482
 20
-914.139598
 30
0.0
 11
-69.245482
 21
-914.139598
 31
0.0
  0
ARC
  8
LC-002-002-----0
  6
CONTINUOUS
  5
F0
 10
-30.645467
 20
-868.927742
 30
0.0
 40
15.1
 50
35.236547
 51
144.763453
  0
LINE
  8
LC-002-002-----0
  6
CONTINUOUS
  5
F1
 10
18.604518
 20
-914.139598
 30
0.0
 11
16.854518
 21
-914.139598
 31
0.0
  0
LINE
  8
LC-002-002-----0
  6
CONTINUOUS
  5
F2
 10
-80.395482
 20
-816.639598
 30
0.0
 11
-80.395482
 21
-911.139598
 31
0.0
  0
LINE
  8
LC-002-002-----0
  6
CONTINUOUS
  5
F3
 10
-69.745482
 20
-813.639598
 30
0.0
 11
-78.145482
 21
-813.639598
 31
0.0
  0
ARC
  8
LC-002-002-----0
  6
CONTINUOUS
  5
F4
 10
-18.312133
 20
-861.103987
 30
0.0
 40
2.0
 50
212.389347
 51
327.610653
  0
LINE
  8
LC-002-002-----0
  6
CONTINUOUS
  5
F5
 10
8.954518
 20
-805.639598
 30
0.0
 11
8.954518
 21
-810.639598
 31
0.0
  0
LINE
  8
LC-002-002-----0
  6
CONTINUOUS
  5
F6
 10
8.454518
 20
-911.139598
 30
0.0
 11
8.454518
 21
-913.639598
 31
0.0
  0
LINE
  8
LC-002-002-----0
  6
CONTINUOUS
  5
F7
 10
-78.145482
 20
-813.639598
 30
0.0
 11
-79.895482
 21
-813.639598
 31
0.0
  0
LINE
  8
LC-002-002-----0
  6
CONTINUOUS
  5
F8
 10
19.104518
 20
-911.139598
 30
0.0
 11
19.104518
 21
-913.639598
 31
0.0
  0
LINE
  8
LC-002-002-----0
  6
CONTINUOUS
  5
F9
 10
-66.145482
 20
-911.139598
 30
0.0
 11
-66.145482
 21
-862.482688
 31
0.0
  0
LINE
  8
LC-002-002-----0
  6
CONTINUOUS
  5
FA
 10
8.454518
 20
-911.139598
 30
0.0
 11
8.454518
 21
-814.639598
 31
0.0
  0
LINE
  8
LC-002-002-----0
  6
CONTINUOUS
  5
FB
 10
5.354518
 20
-811.639598
 30
0.0
 11
-66.645482
 21
-811.639598
 31
0.0
  0
LINE
  8
LC-001-006-MLN-0
  6
DASHDOT
  5
FC
 10
-90.395467
 20
-808.139598
 30
0.0
 11
29.104533
 21
-808.139598
 31
0.0
  0
LINE
  8
LC-001-006-MLN-0
  6
DASHDOT
  5
FD
 10
-30.645482
 20
-916.507015
 30
0.0
 11
-30.645482
 21
-796.139598
 31
0.0
  0
ARC
  8
LC-003-002-RND-0
  6
CONTINUOUS
  5
FE
 10
5.354518
 20
-812.139598
 30
0.0
 40
0.5
 50
90.0
 51
180.0
  0
LINE
  8
LC-002-002-----0
  6
DASHDOT
 62
     2
  5
FF
 10
-30.645467
 20
-1015.37716
 30
0.0
 11
-30.645467
 21
-1052.87716
 31
0.0
  0
ENDSEC
  0
EOF
