  0
SECTION
  2
HEADER
  9
$ACADVER
  1
AC1009
  9
$INSBASE
 10
408.121648
 20
230.266
 30
0.0
  9
$EXTMIN
 10
408.121648
 20
230.266
 30
0.0
  9
$EXTMAX
 10
1248.121648
 20
824.266
 30
0.0
  9
$LIMMIN
 10
408.121648
 20
230.266
  9
$LIMMAX
 10
1248.121648
 20
824.266
  9
$ORTHOMODE
 70
     0
  9
$REGENMODE
 70
     1
  9
$FILLMODE
 70
     1
  9
$QTEXTMODE
 70
     0
  9
$MIRRTEXT
 70
     1
  9
$DRAGMODE
 70
     2
  9
$LTSCALE
 40
2.0
  9
$OSMODE
 70
     0
  9
$ATTMODE
 70
     1
  9
$TEXTSIZE
 40
0.2
  9
$TRACEWID
 40
0.05
  9
$TEXTSTYLE
  7
STANDARD
  9
$CLAYER
  8
0
  9
$CELTYPE
  6
BYLAYER
  9
$CECOLOR
 62
     7
  9
$DIMSCALE
 40
2.0
  9
$DIMASZ
 40
3.5
  9
$DIMEXO
 40
0.0625
  9
$DIMDLI
 40
0.38
  9
$DIMRND
 40
0.0
  9
$DIMDLE
 40
0.0
  9
$DIMEXE
 40
0.18
  9
$DIMTP
 40
0.0
  9
$DIMTM
 40
0.0
  9
$DIMTXT
 40
3.5
  9
$DIMCEN
 40
0.09
  9
$DIMTSZ
 40
0.0
  9
$DIMTOL
 70
     0
  9
$DIMLIM
 70
     0
  9
$DIMTIH
 70
     1
  9
$DIMTOH
 70
     1
  9
$DIMSE1
 70
     0
  9
$DIMSE2
 70
     0
  9
$DIMTAD
 70
     1
  9
$DIMZIN
 70
     0
  9
$DIMBLK
  1

  9
$DIMASO
 70
     1
  9
$DIMSHO
 70
     1
  9
$DIMPOST
  1

  9
$DIMAPOST
  1

  9
$DIMALT
 70
     0
  9
$DIMALTD
 70
     2
  9
$DIMALTF
 40
25.4
  9
$DIMLFAC
 40
1.0
  9
$DIMTOFL
 70
     0
  9
$DIMTVP
 40
0.0
  9
$DIMTIX
 70
     0
  9
$DIMSOXD
 70
     0
  9
$DIMSAH
 70
     0
  9
$DIMBLK1
  1

  9
$DIMBLK2
  1

  9
$DIMSTYLE
  2
STANDARD
  9
$DIMCLRD
 70
     0
  9
$DIMCLRE
 70
     0
  9
$DIMCLRT
 70
     0
  9
$DIMTFAC
 40
1.0
  9
$DIMGAP
 40
0.09
  9
$LUNITS
 70
     2
  9
$LUPREC
 70
     2
  9
$AXISMODE
 70
     0
  9
$AXISUNIT
 10
0.0
 20
0.0
  9
$SKETCHINC
 40
0.1
  9
$FILLETRAD
 40
0.0
  9
$AUNITS
 70
     0
  9
$AUPREC
 70
     0
  9
$MENU
  1
acad
  9
$ELEVATION
 40
0.0
  9
$PELEVATION
 40
0.0
  9
$THICKNESS
 40
0.0
  9
$LIMCHECK
 70
     0
  9
$BLIPMODE
 70
     1
  9
$CHAMFERA
 40
0.0
  9
$CHAMFERB
 40
0.0
  9
$SKPOLY
 70
     0
  9
$TDCREATE
 40
0.000000000
  9
$TDUPDATE
 40
0.000000000
  9
$TDINDWG
 40
0.0000000000
  9
$TDUSRTIMER
 40
0.0000000000
  9
$USRTIMER
 70
     1
  9
$ANGBASE
 50
0.0
  9
$ANGDIR
 70
     0
  9
$PDMODE
 70
     0
  9
$PDSIZE
 40
0.0
  9
$PLINEWID
 40
0.0
  9
$COORDS
 70
     0
  9
$SPLFRAME
 70
     0
  9
$SPLINETYPE
 70
     6
  9
$SPLINESEGS
 70
     8
  9
$ATTDIA
 70
     0
  9
$ATTREQ
 70
     1
  9
$HANDLING
 70
     1
  9
$HANDSEED
  5
300
  9
$SURFTAB1
 70
     6
  9
$SURFTAB2
 70
     6
  9
$SURFTYPE
 70
     6
  9
$SURFU
 70
     6
  9
$SURFV
 70
     6
  9
$UCSNAME
  2

  9
$UCSORG
 10
0.0
 20
0.0
 30
0.0
  9
$UCSXDIR
 10
1.0
 20
0.0
 30
0.0
  9
$UCSYDIR
 10
0.0
 20
1.0
 30
0.0
  9
$PUCSNAME
  2

  9
$PUCSORG
 10
0.0
 20
0.0
 30
0.0
  9
$PUCSXDIR
 10
1.0
 20
0.0
 30
0.0
  9
$PUCSYDIR
 10
0.0
 20
1.0
 30
0.0
  9
$USERI1
 70
     0
  9
$USERI2
 70
     0
  9
$USERI3
 70
     0
  9
$USERI4
 70
     0
  9
$USERI5
 70
     0
  9
$USERR1
 40
0.0
  9
$USERR2
 40
0.0
  9
$USERR3
 40
0.0
  9
$USERR4
 40
0.0
  9
$USERR5
 40
0.0
  9
$WORLDVIEW
 70
     1
  9
$SHADEDGE
 70
     3
  9
$SHADEDIF
 70
    70
  9
$TILEMODE
 70
     1
  9
$MAXACTVP
 70
    16
  9
$PINSBASE
 10
0.0
 20
0.0
 30
0.0
  9
$PLIMCHECK
 70
     0
  9
$PEXTMIN
 10
1.000000E+20
 20
1.000000E+20
 30
1.000000E+20
  9
$PEXTMAX
 10
-1.000000E+20
 20
-1.000000E+20
 30
-1.000000E+20
  9
$PLIMMIN
 10
408.121648
 20
230.266
  9
$PLIMMAX
 10
1248.121648
 20
824.266
  9
$UNITMODE
 70
     0
  9
$VISRETAIN
 70
     0
  9
$PLINEGEN
 70
     1
  9
$PSLTSCALE
 70
     0
  9
$TREEDEPTH
 70
  3020
  9
$DWGCODEPAGE
  3
dos850
  0
ENDSEC
  0
SECTION
  2
TABLES
  0
TABLE
  2
VPORT
 70
     1
  0
VPORT
  2
*ACTIVE
 70
     0
 10
0.0
 20
0.0
 11
1.0
 21
1.0
 12
420.0
 22
297.0
 13
0.0
 23
0.0
 14
1.0
 24
1.0
 15
0.0
 25
0.0
 16
0.0
 26
0.0
 36
1.0
 17
408.121648
 27
230.266
 37
0.0
 40
594.0
 41
1.604229
 42
50.0
 43
0.0
 44
0.0
 50
0.0
 51
0.0
 71
     0
 72
   100
 73
     1
 74
     1
 75
     0
 76
     0
 77
     0
 78
     0
  0
ENDTAB
  0
TABLE
  2
LTYPE
 70
     3
  0
LTYPE
  2
CONTINUOUS
 70
    64
  3
Solid line
 72
    65
 73
     0
 40
0.0
  0
LTYPE
  2
DASHED
 70
    64
  3
__ __ __ __ __
 72
    65
 73
     2
 40
6.25
 49
5.0
 49
-1.25
  0
LTYPE
  2
DASHDOT
 70
    64
  3
__ . __ . __ . __ . __
 72
    65
 73
     4
 40
7.5
 49
5.0
 49
-1.25
 49
0.0
 49
-1.25
  0
ENDTAB
  0
TABLE
  2
LAYER
 70
    15
  0
LAYER
  2
0
 70
     0
 62
     7
  6
CONTINUOUS
  0
LAYER
  2
LC-INFO-1-2-MM-A3-0
 70
     1
 62
    -1
  6
CONTINUOUS
  0
LAYER
  2
LC-008-003-MTH-0
 70
     0
 62
     2
  6
CONTINUOUS
  0
LAYER
  2
LC-009-003-MTG-0
 70
     0
 62
     2
  6
CONTINUOUS
  0
LAYER
  2
LC-007-003-----0
 70
     0
 62
     2
  6
CONTINUOUS
  0
LAYER
  2
LC-010-005-----0
 70
     0
 62
     2
  6
CONTINUOUS
  0
LAYER
  2
LC-001-100-D02-0
 70
     0
 62
     4
  6
CONTINUOUS
  0
LAYER
  2
LC-011-000-----0
 70
     0
 62
     7
  6
CONTINUOUS
  0
LAYER
  2
LC-002-002-----0
 70
     0
 62
     1
  6
CONTINUOUS
  0
LAYER
  2
LC-003-100-D03-0
 70
     0
 62
     1
  6
CONTINUOUS
  0
LAYER
  2
LC-004-100-D01-0
 70
     0
 62
     1
  6
CONTINUOUS
  0
LAYER
  2
LC-005-001-----0
 70
     0
 62
     1
  6
CONTINUOUS
  0
LAYER
  2
LC-006-002-RND-0
 70
     0
 62
     1
  6
CONTINUOUS
  0
LAYER
  2
LC-012-007-KH--0
 70
     0
 62
     7
  6
DASHDOT
  0
LAYER
  2
LC-000
 70
     0
 62
     7
  6
CONTINUOUS
  0
ENDTAB
  0
TABLE
  2
STYLE
 70
     4
  0
STYLE
  2
STANDARD
 70
     0
 40
0.0
 41
1.0
 50
0.0
 71
     0
 42
0.0
  3
txt
  4

  0
STYLE
  2
LC-STANDARD
 70
    64
 40
0.0
 41
1.0
 50
0.0
 71
     0
 42
3.5
  3
MONOTXT
  4

  0
STYLE
  2
LC-TXTSTYLE-150-400-0-0-D2
 70
    64
 40
0.0
 41
1.0
 50
15.0
 71
     0
 42
3.5
  3
MONOTXT
  4

  0
STYLE
  2
LC-TXTSTYLE-150-400-0-0-D3
 70
    64
 40
0.0
 41
1.0
 50
15.0
 71
     0
 42
3.5
  3
LC-STANDARD
  4

  0
ENDTAB
  0
TABLE
  2
VIEW
 70
     0
  0
ENDTAB
  0
TABLE
  2
UCS
 70
     0
  0
ENDTAB
  0
TABLE
  2
APPID
 70
     1
  0
APPID
  2
ACAD
 70
     0
  0
ENDTAB
  0
TABLE
  2
DIMSTYLE
 70
     3
  0
DIMSTYLE
  2
STANDARD
 70
     0
  3

  4

  5

  6

  7

 40
1.0
 41
0.18
 42
0.0625
 43
0.38
 44
0.18
 45
0.0
 46
0.0
 47
0.0
 48
0.0
 71
     0
 72
     0
 73
     1
 74
     1
 75
     0
 76
     0
 77
     0
 78
     0
140
0.18
141
0.09
142
0.0
143
25.4
144
1.0
145
0.0
146
1.0
147
0.09
170
     0
171
     2
172
     0
173
     0
174
     0
175
     0
176
     0
177
     0
178
     0
  0
DIMSTYLE
  2
LC-STANDARD
 70
     0
  3

  4

  5

  6

  7

 40
1.0
 41
3.5
 42
0.0
 43
7.5
 44
1.8
 45
0.0
 46
0.0
 47
0.0
 48
0.0
 71
     0
 72
     0
 73
     0
 74
     0
 75
     0
 76
     0
 77
     1
 78
     8
140
3.5
141
0.0
142
0.0
143
25.4
144
1.0
145
0.0
146
0.71
147
1.5
170
     0
171
     2
172
     1
173
     0
174
     0
175
     0
176
     0
177
     0
178
     3
  0
DIMSTYLE
  2
LC-DIM-L-0090-02-02
 70
     0
  3

  4

  5

  6

  7

 40
2.0
 41
3.5
 42
0.0
 43
7.5
 44
1.8
 45
0.0
 46
0.0
 47
0.0
 48
0.0
 71
     0
 72
     0
 73
     0
 74
     0
 75
     0
 76
     0
 77
     1
 78
     8
140
9.0
141
0.0
142
0.0
143
25.4
144
1.0
145
0.0
146
0.71
147
1.5
170
     0
171
     2
172
     0
173
     0
174
     0
175
     0
176
     2
177
     2
178
     6
  0
ENDTAB
  0
ENDSEC
  0
SECTION
  2
BLOCKS
  0
BLOCK
  8
0
  5
23
  2
SYM1
 70
    64
 10
778.335274
 20
1865.143847
 30
0.0
  3
SYM1
  0
ENDBLK
  8
0
  5
24
  0
BLOCK
  8
0
  5
26
  2
*D1
 70
    65
 10
0.0
 20
0.0
 30
0.0
  3
*D1
  0
LINE
  8
LC-008-003-MTH-0
  6
CONTINUOUS
  5
28
 10
625.738602
 20
425.366237
 30
0.0
 11
625.738602
 21
353.2
 31
0.0
  0
LINE
  8
LC-008-003-MTH-0
  6
CONTINUOUS
  5
29
 10
939.912791
 20
414.646692
 30
0.0
 11
939.912791
 21
353.2
 31
0.0
  0
LINE
  8
LC-009-003-MTG-0
  6
CONTINUOUS
  5
2B
 10
625.738602
 20
364.0
 30
0.0
 11
939.912791
 21
364.0
 31
0.0
  0
LINE
  8
LC-007-003-----0
  6
CONTINUOUS
  5
2D
 10
643.58461
 20
366.349471
 30
0.0
 11
625.738602
 21
364.0
 31
0.0
  0
LINE
  8
LC-007-003-----0
  6
CONTINUOUS
  5
2E
 10
625.738602
 20
364.0
 30
0.0
 11
643.58461
 21
361.650529
 31
0.0
  0
LINE
  8
LC-007-003-----0
  6
CONTINUOUS
  5
2F
 10
643.58461
 20
361.650529
 30
0.0
 11
643.58461
 21
366.349471
 31
0.0
  0
LINE
  8
LC-007-003-----0
  6
CONTINUOUS
  5
30
 10
643.624648
 20
365.738609
 30
0.0
 11
630.418602
 21
364.0
 31
0.0
  0
LINE
  8
LC-007-003-----0
  6
CONTINUOUS
  5
31
 10
630.418602
 20
364.0
 30
0.0
 11
643.624648
 21
362.261391
 31
0.0
  0
LINE
  8
LC-007-003-----0
  6
CONTINUOUS
  5
32
 10
643.664686
 20
365.127746
 30
0.0
 11
635.098602
 21
364.0
 31
0.0
  0
LINE
  8
LC-007-003-----0
  6
CONTINUOUS
  5
33
 10
635.098602
 20
364.0
 30
0.0
 11
643.664686
 21
362.872254
 31
0.0
  0
LINE
  8
LC-007-003-----0
  6
CONTINUOUS
  5
34
 10
643.704724
 20
364.516884
 30
0.0
 11
639.778602
 21
364.0
 31
0.0
  0
LINE
  8
LC-007-003-----0
  6
CONTINUOUS
  5
35
 10
639.778602
 20
364.0
 30
0.0
 11
643.704724
 21
363.483116
 31
0.0
  0
LINE
  8
LC-007-003-----0
  6
CONTINUOUS
  5
36
 10
922.066783
 20
361.650529
 30
0.0
 11
939.912791
 21
364.0
 31
0.0
  0
LINE
  8
LC-007-003-----0
  6
CONTINUOUS
  5
37
 10
939.912791
 20
364.0
 30
0.0
 11
922.066783
 21
366.349471
 31
0.0
  0
LINE
  8
LC-007-003-----0
  6
CONTINUOUS
  5
38
 10
922.066783
 20
366.349471
 30
0.0
 11
922.066783
 21
361.650529
 31
0.0
  0
LINE
  8
LC-007-003-----0
  6
CONTINUOUS
  5
39
 10
922.026745
 20
362.261391
 30
0.0
 11
935.232791
 21
364.0
 31
0.0
  0
LINE
  8
LC-007-003-----0
  6
CONTINUOUS
  5
3A
 10
935.232791
 20
364.0
 30
0.0
 11
922.026745
 21
365.738609
 31
0.0
  0
LINE
  8
LC-007-003-----0
  6
CONTINUOUS
  5
3B
 10
921.986707
 20
362.872254
 30
0.0
 11
930.552791
 21
364.0
 31
0.0
  0
LINE
  8
LC-007-003-----0
  6
CONTINUOUS
  5
3C
 10
930.552791
 20
364.0
 30
0.0
 11
921.986707
 21
365.127746
 31
0.0
  0
LINE
  8
LC-007-003-----0
  6
CONTINUOUS
  5
3D
 10
921.946669
 20
363.483116
 30
0.0
 11
925.872791
 21
364.0
 31
0.0
  0
LINE
  8
LC-007-003-----0
  6
CONTINUOUS
  5
3E
 10
925.872791
 20
364.0
 30
0.0
 11
921.946669
 21
364.516884
 31
0.0
  0
TEXT
  8
LC-007-003-----0
  6
CONTINUOUS
 62
     6
  5
40
 10
766.487084
 20
374.431999
 30
0.0
 40
18.0
  1
315
 41
0.9
 51
15.0
  7
LC-TXTSTYLE-150-400-0-0-D0
 72
     1
 11
785.620942
 21
374.431999
 31
0.0
  0
ENDBLK
  8
0
  5
41
  0
BLOCK
  8
0
  5
43
  2
SYM2
 70
    64
 10
1356.381777
 20
827.598303
 30
0.0
  3
SYM2
  0
ENDBLK
  8
0
  5
44
  0
BLOCK
  8
0
  5
46
  2
*X3
 70
    65
 10
625.738602
 20
551.807987
 30
0.0
  3
*X3
  0
LINE
  8
LC-010-005-----0
  6
CONTINUOUS
  5
48
 10
692.232373
 20
594.701969
 30
0.0
 11
689.623203
 21
597.311139
 31
0.0
  0
LINE
  8
LC-010-005-----0
  6
CONTINUOUS
  5
49
 10
692.282621
 20
591.823294
 30
0.0
 11
688.681191
 21
595.424724
 31
0.0
  0
LINE
  8
LC-010-005-----0
  6
CONTINUOUS
  5
4A
 10
692.332868
 20
588.944619
 30
0.0
 11
688.540341
 21
592.737146
 31
0.0
  0
LINE
  8
LC-010-005-----0
  6
CONTINUOUS
  5
4B
 10
692.383116
 20
586.065945
 30
0.0
 11
688.399491
 21
590.049569
 31
0.0
  0
LINE
  8
LC-010-005-----0
  6
CONTINUOUS
  5
4C
 10
692.433363
 20
583.18727
 30
0.0
 11
687.349766
 21
588.270867
 31
0.0
  0
LINE
  8
LC-010-005-----0
  6
CONTINUOUS
  5
4D
 10
692.48361
 20
580.308596
 30
0.0
 11
687.400014
 21
585.392192
 31
0.0
  0
LINE
  8
LC-010-005-----0
  6
CONTINUOUS
  5
4E
 10
692.533858
 20
577.429921
 30
0.0
 11
687.450262
 21
582.513517
 31
0.0
  0
LINE
  8
LC-010-005-----0
  6
CONTINUOUS
  5
4F
 10
692.584105
 20
574.551247
 30
0.0
 11
687.500509
 21
579.634843
 31
0.0
  0
LINE
  8
LC-010-005-----0
  6
CONTINUOUS
  5
50
 10
692.634353
 20
571.672572
 30
0.0
 11
687.550757
 21
576.756168
 31
0.0
  0
LINE
  8
LC-010-005-----0
  6
CONTINUOUS
  5
51
 10
692.6846
 20
568.793897
 30
0.0
 11
687.601004
 21
573.877494
 31
0.0
  0
LINE
  8
LC-010-005-----0
  6
CONTINUOUS
  5
52
 10
692.734848
 20
565.915223
 30
0.0
 11
687.651252
 21
570.998819
 31
0.0
  0
LINE
  8
LC-010-005-----0
  6
CONTINUOUS
  5
53
 10
692.785095
 20
563.036548
 30
0.0
 11
687.701499
 21
568.120144
 31
0.0
  0
LINE
  8
LC-010-005-----0
  6
CONTINUOUS
  5
54
 10
692.835343
 20
560.157874
 30
0.0
 11
687.751747
 21
565.24147
 31
0.0
  0
LINE
  8
LC-010-005-----0
  6
CONTINUOUS
  5
55
 10
692.88559
 20
557.279199
 30
0.0
 11
687.801994
 21
562.362795
 31
0.0
  0
LINE
  8
LC-010-005-----0
  6
CONTINUOUS
  5
56
 10
692.935838
 20
554.400524
 30
0.0
 11
687.852242
 21
559.48412
 31
0.0
  0
LINE
  8
LC-010-005-----0
  6
CONTINUOUS
  5
57
 10
692.699134
 20
551.808801
 30
0.0
 11
685.396812
 21
559.111123
 31
0.0
  0
LINE
  8
LC-010-005-----0
  6
CONTINUOUS
  5
58
 10
687.574929
 20
554.104579
 30
0.0
 11
682.568385
 21
559.111123
 31
0.0
  0
LINE
  8
LC-010-005-----0
  6
CONTINUOUS
  5
59
 10
683.986405
 20
554.864676
 30
0.0
 11
679.739958
 21
559.111123
 31
0.0
  0
LINE
  8
LC-010-005-----0
  6
CONTINUOUS
  5
5A
 10
681.157978
 20
554.864676
 30
0.0
 11
676.911531
 21
559.111123
 31
0.0
  0
LINE
  8
LC-010-005-----0
  6
CONTINUOUS
  5
5B
 10
678.329551
 20
554.864676
 30
0.0
 11
674.083104
 21
559.111123
 31
0.0
  0
LINE
  8
LC-010-005-----0
  6
CONTINUOUS
  5
5C
 10
675.501123
 20
554.864676
 30
0.0
 11
671.254676
 21
559.111123
 31
0.0
  0
LINE
  8
LC-010-005-----0
  6
CONTINUOUS
  5
5D
 10
672.672696
 20
554.864676
 30
0.0
 11
668.426249
 21
559.111123
 31
0.0
  0
LINE
  8
LC-010-005-----0
  6
CONTINUOUS
  5
5E
 10
669.844269
 20
554.864676
 30
0.0
 11
665.597822
 21
559.111123
 31
0.0
  0
LINE
  8
LC-010-005-----0
  6
CONTINUOUS
  5
5F
 10
667.015842
 20
554.864676
 30
0.0
 11
662.769395
 21
559.111123
 31
0.0
  0
LINE
  8
LC-010-005-----0
  6
CONTINUOUS
  5
60
 10
664.187414
 20
554.864677
 30
0.0
 11
659.940968
 21
559.111123
 31
0.0
  0
LINE
  8
LC-010-005-----0
  6
CONTINUOUS
  5
61
 10
661.358987
 20
554.864677
 30
0.0
 11
657.11254
 21
559.111123
 31
0.0
  0
LINE
  8
LC-010-005-----0
  6
CONTINUOUS
  5
62
 10
658.53056
 20
554.864677
 30
0.0
 11
654.284113
 21
559.111123
 31
0.0
  0
LINE
  8
LC-010-005-----0
  6
CONTINUOUS
  5
63
 10
655.702132
 20
554.864677
 30
0.0
 11
651.455686
 21
559.111123
 31
0.0
  0
LINE
  8
LC-010-005-----0
  6
CONTINUOUS
  5
64
 10
646.832889
 20
563.73392
 30
0.0
 11
645.484671
 21
565.082138
 31
0.0
  0
LINE
  8
LC-010-005-----0
  6
CONTINUOUS
  5
65
 10
652.873705
 20
554.864677
 30
0.0
 11
642.797093
 21
564.941289
 31
0.0
  0
LINE
  8
LC-010-005-----0
  6
CONTINUOUS
  5
66
 10
650.045278
 20
554.864677
 30
0.0
 11
640.109516
 21
564.800439
 31
0.0
  0
LINE
  8
LC-010-005-----0
  6
CONTINUOUS
  5
67
 10
647.216851
 20
554.864677
 30
0.0
 11
644.738208
 21
557.34332
 31
0.0
  0
LINE
  8
LC-010-005-----0
  6
CONTINUOUS
  5
68
 10
641.293198
 20
560.78833
 30
0.0
 11
637.421938
 21
564.65959
 31
0.0
  0
LINE
  8
LC-010-005-----0
  6
CONTINUOUS
  5
69
 10
638.60562
 20
560.647481
 30
0.0
 11
634.734361
 21
564.51874
 31
0.0
  0
LINE
  8
LC-010-005-----0
  6
CONTINUOUS
  5
6A
 10
635.918042
 20
560.506632
 30
0.0
 11
632.315229
 21
564.109445
 31
0.0
  0
LINE
  8
LC-010-005-----0
  6
CONTINUOUS
  5
6B
 10
634.234888
 20
559.361359
 30
0.0
 11
630.631626
 21
562.964621
 31
0.0
  0
LINE
  8
LC-010-005-----0
  6
CONTINUOUS
  5
6C
 10
632.820674
 20
557.947146
 30
0.0
 11
629.542523
 21
561.225297
 31
0.0
  0
LINE
  8
LC-010-005-----0
  6
CONTINUOUS
  5
6D
 10
631.40646
 20
556.532932
 30
0.0
 11
628.848701
 21
559.090692
 31
0.0
  0
LINE
  8
LC-010-005-----0
  6
CONTINUOUS
  5
6E
 10
629.077217
 20
556.033749
 30
0.0
 11
626.163207
 21
558.947758
 31
0.0
  0
LINE
  8
LC-010-005-----0
  6
CONTINUOUS
  5
6F
 10
626.389639
 20
555.892899
 30
0.0
 11
625.738602
 21
556.543936
 31
0.0
  0
ENDBLK
  8
0
  5
70
  0
BLOCK
  8
0
  5
72
  2
*X4
 70
    65
 10
625.738602
 20
408.315414
 30
0.0
  3
*X4
  0
LINE
  8
LC-010-005-----0
  6
CONTINUOUS
  5
73
 10
939.912791
 20
414.903802
 30
0.0
 11
937.500934
 21
417.315659
 31
0.0
  0
LINE
  8
LC-010-005-----0
  6
CONTINUOUS
  5
74
 10
937.884857
 20
414.103309
 30
0.0
 11
934.672507
 21
417.315659
 31
0.0
  0
LINE
  8
LC-010-005-----0
  6
CONTINUOUS
  5
75
 10
935.654146
 20
413.505592
 30
0.0
 11
931.84408
 21
417.315659
 31
0.0
  0
LINE
  8
LC-010-005-----0
  6
CONTINUOUS
  5
76
 10
933.016831
 20
413.31448
 30
0.0
 11
929.015653
 21
417.315659
 31
0.0
  0
LINE
  8
LC-010-005-----0
  6
CONTINUOUS
  5
77
 10
930.188388
 20
413.314496
 30
0.0
 11
926.187226
 21
417.315659
 31
0.0
  0
LINE
  8
LC-010-005-----0
  6
CONTINUOUS
  5
78
 10
927.359945
 20
413.314512
 30
0.0
 11
923.358799
 21
417.315659
 31
0.0
  0
LINE
  8
LC-010-005-----0
  6
CONTINUOUS
  5
79
 10
924.531502
 20
413.314528
 30
0.0
 11
920.530372
 21
417.315659
 31
0.0
  0
LINE
  8
LC-010-005-----0
  6
CONTINUOUS
  5
7A
 10
921.703059
 20
413.314544
 30
0.0
 11
917.701944
 21
417.315659
 31
0.0
  0
LINE
  8
LC-010-005-----0
  6
CONTINUOUS
  5
7B
 10
918.874616
 20
413.31456
 30
0.0
 11
914.873517
 21
417.315659
 31
0.0
  0
LINE
  8
LC-010-005-----0
  6
CONTINUOUS
  5
7C
 10
916.046173
 20
413.314576
 30
0.0
 11
912.04509
 21
417.315659
 31
0.0
  0
LINE
  8
LC-010-005-----0
  6
CONTINUOUS
  5
7D
 10
913.21773
 20
413.314592
 30
0.0
 11
909.216663
 21
417.315659
 31
0.0
  0
LINE
  8
LC-010-005-----0
  6
CONTINUOUS
  5
7E
 10
910.389287
 20
413.314608
 30
0.0
 11
906.388236
 21
417.315659
 31
0.0
  0
LINE
  8
LC-010-005-----0
  6
CONTINUOUS
  5
7F
 10
907.560843
 20
413.314624
 30
0.0
 11
903.559809
 21
417.315659
 31
0.0
  0
LINE
  8
LC-010-005-----0
  6
CONTINUOUS
  5
80
 10
904.7324
 20
413.31464
 30
0.0
 11
900.731382
 21
417.315659
 31
0.0
  0
LINE
  8
LC-010-005-----0
  6
CONTINUOUS
  5
81
 10
901.903957
 20
413.314656
 30
0.0
 11
897.902955
 21
417.315659
 31
0.0
  0
LINE
  8
LC-010-005-----0
  6
CONTINUOUS
  5
82
 10
899.075514
 20
413.314672
 30
0.0
 11
895.074527
 21
417.315659
 31
0.0
  0
LINE
  8
LC-010-005-----0
  6
CONTINUOUS
  5
83
 10
896.247071
 20
413.314688
 30
0.0
 11
892.2461
 21
417.315659
 31
0.0
  0
LINE
  8
LC-010-005-----0
  6
CONTINUOUS
  5
84
 10
893.418628
 20
413.314704
 30
0.0
 11
889.417673
 21
417.315659
 31
0.0
  0
LINE
  8
LC-010-005-----0
  6
CONTINUOUS
  5
85
 10
890.590185
 20
413.314719
 30
0.0
 11
886.589246
 21
417.315659
 31
0.0
  0
LINE
  8
LC-010-005-----0
  6
CONTINUOUS
  5
86
 10
887.761742
 20
413.314735
 30
0.0
 11
883.760819
 21
417.315659
 31
0.0
  0
LINE
  8
LC-010-005-----0
  6
CONTINUOUS
  5
87
 10
884.933299
 20
413.314751
 30
0.0
 11
880.932392
 21
417.315659
 31
0.0
  0
LINE
  8
LC-010-005-----0
  6
CONTINUOUS
  5
88
 10
882.104856
 20
413.314767
 30
0.0
 11
878.103965
 21
417.315659
 31
0.0
  0
LINE
  8
LC-010-005-----0
  6
CONTINUOUS
  5
89
 10
879.276413
 20
413.314783
 30
0.0
 11
875.275538
 21
417.315659
 31
0.0
  0
LINE
  8
LC-010-005-----0
  6
CONTINUOUS
  5
8A
 10
876.44797
 20
413.314799
 30
0.0
 11
872.44711
 21
417.315659
 31
0.0
  0
LINE
  8
LC-010-005-----0
  6
CONTINUOUS
  5
8B
 10
873.619527
 20
413.314815
 30
0.0
 11
869.618683
 21
417.315659
 31
0.0
  0
LINE
  8
LC-010-005-----0
  6
CONTINUOUS
  5
8C
 10
870.791084
 20
413.314831
 30
0.0
 11
866.790256
 21
417.315659
 31
0.0
  0
LINE
  8
LC-010-005-----0
  6
CONTINUOUS
  5
8D
 10
867.962641
 20
413.314847
 30
0.0
 11
863.961829
 21
417.315659
 31
0.0
  0
LINE
  8
LC-010-005-----0
  6
CONTINUOUS
  5
8E
 10
865.134198
 20
413.314863
 30
0.0
 11
861.133402
 21
417.315659
 31
0.0
  0
LINE
  8
LC-010-005-----0
  6
CONTINUOUS
  5
8F
 10
862.305755
 20
413.314879
 30
0.0
 11
858.304975
 21
417.315659
 31
0.0
  0
LINE
  8
LC-010-005-----0
  6
CONTINUOUS
  5
90
 10
859.477312
 20
413.314894
 30
0.0
 11
855.476548
 21
417.315659
 31
0.0
  0
LINE
  8
LC-010-005-----0
  6
CONTINUOUS
  5
91
 10
856.648869
 20
413.31491
 30
0.0
 11
852.648121
 21
417.315659
 31
0.0
  0
LINE
  8
LC-010-005-----0
  6
CONTINUOUS
  5
92
 10
853.820426
 20
413.314926
 30
0.0
 11
849.819693
 21
417.315659
 31
0.0
  0
LINE
  8
LC-010-005-----0
  6
CONTINUOUS
  5
93
 10
850.991983
 20
413.314942
 30
0.0
 11
846.991266
 21
417.315659
 31
0.0
  0
LINE
  8
LC-010-005-----0
  6
CONTINUOUS
  5
94
 10
848.16354
 20
413.314957
 30
0.0
 11
844.162839
 21
417.315659
 31
0.0
  0
LINE
  8
LC-010-005-----0
  6
CONTINUOUS
  5
95
 10
845.335097
 20
413.314973
 30
0.0
 11
841.334412
 21
417.315659
 31
0.0
  0
LINE
  8
LC-010-005-----0
  6
CONTINUOUS
  5
96
 10
842.506654
 20
413.314989
 30
0.0
 11
838.505985
 21
417.315659
 31
0.0
  0
LINE
  8
LC-010-005-----0
  6
CONTINUOUS
  5
97
 10
839.678211
 20
413.315005
 30
0.0
 11
835.677558
 21
417.315659
 31
0.0
  0
LINE
  8
LC-010-005-----0
  6
CONTINUOUS
  5
98
 10
836.849769
 20
413.315021
 30
0.0
 11
832.849131
 21
417.315659
 31
0.0
  0
LINE
  8
LC-010-005-----0
  6
CONTINUOUS
  5
99
 10
834.021326
 20
413.315036
 30
0.0
 11
830.020704
 21
417.315659
 31
0.0
  0
LINE
  8
LC-010-005-----0
  6
CONTINUOUS
  5
9A
 10
831.192883
 20
413.315052
 30
0.0
 11
827.192276
 21
417.315659
 31
0.0
  0
LINE
  8
LC-010-005-----0
  6
CONTINUOUS
  5
9B
 10
828.36444
 20
413.315068
 30
0.0
 11
824.363849
 21
417.315659
 31
0.0
  0
LINE
  8
LC-010-005-----0
  6
CONTINUOUS
  5
9C
 10
825.535997
 20
413.315084
 30
0.0
 11
821.535422
 21
417.315659
 31
0.0
  0
LINE
  8
LC-010-005-----0
  6
CONTINUOUS
  5
9D
 10
822.707554
 20
413.315099
 30
0.0
 11
818.706995
 21
417.315659
 31
0.0
  0
LINE
  8
LC-010-005-----0
  6
CONTINUOUS
  5
9E
 10
819.879111
 20
413.315115
 30
0.0
 11
815.878568
 21
417.315659
 31
0.0
  0
LINE
  8
LC-010-005-----0
  6
CONTINUOUS
  5
9F
 10
817.050668
 20
413.315131
 30
0.0
 11
813.050141
 21
417.315659
 31
0.0
  0
LINE
  8
LC-010-005-----0
  6
CONTINUOUS
  5
A0
 10
814.222225
 20
413.315147
 30
0.0
 11
810.221714
 21
417.315659
 31
0.0
  0
LINE
  8
LC-010-005-----0
  6
CONTINUOUS
  5
A1
 10
811.393783
 20
413.315162
 30
0.0
 11
807.393287
 21
417.315659
 31
0.0
  0
LINE
  8
LC-010-005-----0
  6
CONTINUOUS
  5
A2
 10
808.56534
 20
413.315178
 30
0.0
 11
804.564859
 21
417.315659
 31
0.0
  0
LINE
  8
LC-010-005-----0
  6
CONTINUOUS
  5
A3
 10
805.736897
 20
413.315194
 30
0.0
 11
801.736432
 21
417.315659
 31
0.0
  0
LINE
  8
LC-010-005-----0
  6
CONTINUOUS
  5
A4
 10
802.908454
 20
413.31521
 30
0.0
 11
798.908005
 21
417.315659
 31
0.0
  0
LINE
  8
LC-010-005-----0
  6
CONTINUOUS
  5
A5
 10
800.080011
 20
413.315226
 30
0.0
 11
796.079578
 21
417.315659
 31
0.0
  0
LINE
  8
LC-010-005-----0
  6
CONTINUOUS
  5
A6
 10
797.251568
 20
413.315241
 30
0.0
 11
793.251151
 21
417.315659
 31
0.0
  0
LINE
  8
LC-010-005-----0
  6
CONTINUOUS
  5
A7
 10
794.423125
 20
413.315257
 30
0.0
 11
790.422724
 21
417.315659
 31
0.0
  0
LINE
  8
LC-010-005-----0
  6
CONTINUOUS
  5
A8
 10
791.594682
 20
413.315273
 30
0.0
 11
787.594297
 21
417.315659
 31
0.0
  0
LINE
  8
LC-010-005-----0
  6
CONTINUOUS
  5
A9
 10
788.766239
 20
413.315289
 30
0.0
 11
784.76587
 21
417.315659
 31
0.0
  0
LINE
  8
LC-010-005-----0
  6
CONTINUOUS
  5
AA
 10
785.937797
 20
413.315304
 30
0.0
 11
781.937442
 21
417.315659
 31
0.0
  0
LINE
  8
LC-010-005-----0
  6
CONTINUOUS
  5
AB
 10
783.109354
 20
413.31532
 30
0.0
 11
779.109015
 21
417.315659
 31
0.0
  0
LINE
  8
LC-010-005-----0
  6
CONTINUOUS
  5
AC
 10
780.280911
 20
413.315336
 30
0.0
 11
776.280588
 21
417.315659
 31
0.0
  0
LINE
  8
LC-010-005-----0
  6
CONTINUOUS
  5
AD
 10
777.452468
 20
413.315352
 30
0.0
 11
773.452161
 21
417.315659
 31
0.0
  0
LINE
  8
LC-010-005-----0
  6
CONTINUOUS
  5
AE
 10
774.624025
 20
413.315367
 30
0.0
 11
770.623734
 21
417.315659
 31
0.0
  0
LINE
  8
LC-010-005-----0
  6
CONTINUOUS
  5
AF
 10
771.795582
 20
413.315383
 30
0.0
 11
767.795307
 21
417.315659
 31
0.0
  0
LINE
  8
LC-010-005-----0
  6
CONTINUOUS
  5
B0
 10
768.967139
 20
413.315399
 30
0.0
 11
764.96688
 21
417.315659
 31
0.0
  0
LINE
  8
LC-010-005-----0
  6
CONTINUOUS
  5
B1
 10
766.138696
 20
413.315415
 30
0.0
 11
762.138453
 21
417.315659
 31
0.0
  0
LINE
  8
LC-010-005-----0
  6
CONTINUOUS
  5
B2
 10
763.310253
 20
413.315431
 30
0.0
 11
759.310025
 21
417.315659
 31
0.0
  0
LINE
  8
LC-010-005-----0
  6
CONTINUOUS
  5
B3
 10
760.48181
 20
413.315446
 30
0.0
 11
756.481598
 21
417.315659
 31
0.0
  0
LINE
  8
LC-010-005-----0
  6
CONTINUOUS
  5
B4
 10
757.653368
 20
413.315462
 30
0.0
 11
753.653171
 21
417.315659
 31
0.0
  0
LINE
  8
LC-010-005-----0
  6
CONTINUOUS
  5
B5
 10
754.824925
 20
413.315478
 30
0.0
 11
750.824744
 21
417.315659
 31
0.0
  0
LINE
  8
LC-010-005-----0
  6
CONTINUOUS
  5
B6
 10
751.996482
 20
413.315494
 30
0.0
 11
747.996317
 21
417.315659
 31
0.0
  0
LINE
  8
LC-010-005-----0
  6
CONTINUOUS
  5
B7
 10
749.168039
 20
413.315509
 30
0.0
 11
745.16789
 21
417.315659
 31
0.0
  0
LINE
  8
LC-010-005-----0
  6
CONTINUOUS
  5
B8
 10
746.339596
 20
413.315525
 30
0.0
 11
742.339463
 21
417.315659
 31
0.0
  0
LINE
  8
LC-010-005-----0
  6
CONTINUOUS
  5
B9
 10
743.511153
 20
413.315541
 30
0.0
 11
739.511036
 21
417.315659
 31
0.0
  0
LINE
  8
LC-010-005-----0
  6
CONTINUOUS
  5
BA
 10
740.68271
 20
413.315557
 30
0.0
 11
736.682608
 21
417.315659
 31
0.0
  0
LINE
  8
LC-010-005-----0
  6
CONTINUOUS
  5
BB
 10
737.854267
 20
413.315572
 30
0.0
 11
733.854181
 21
417.315659
 31
0.0
  0
LINE
  8
LC-010-005-----0
  6
CONTINUOUS
  5
BC
 10
735.025824
 20
413.315588
 30
0.0
 11
731.025754
 21
417.315659
 31
0.0
  0
LINE
  8
LC-010-005-----0
  6
CONTINUOUS
  5
BD
 10
732.197382
 20
413.315604
 30
0.0
 11
728.197327
 21
417.315659
 31
0.0
  0
LINE
  8
LC-010-005-----0
  6
CONTINUOUS
  5
BE
 10
729.368939
 20
413.31562
 30
0.0
 11
725.3689
 21
417.315659
 31
0.0
  0
LINE
  8
LC-010-005-----0
  6
CONTINUOUS
  5
BF
 10
726.540496
 20
413.315635
 30
0.0
 11
722.540473
 21
417.315659
 31
0.0
  0
LINE
  8
LC-010-005-----0
  6
CONTINUOUS
  5
C0
 10
723.712053
 20
413.315651
 30
0.0
 11
719.712046
 21
417.315659
 31
0.0
  0
LINE
  8
LC-010-005-----0
  6
CONTINUOUS
  5
C1
 10
721.916507
 20
412.28277
 30
0.0
 11
717.916507
 21
416.28277
 31
0.0
  0
LINE
  8
LC-010-005-----0
  6
CONTINUOUS
  5
C2
 10
721.783142
 20
409.587708
 30
0.0
 11
717.916507
 21
413.454343
 31
0.0
  0
LINE
  8
LC-010-005-----0
  6
CONTINUOUS
  5
C3
 10
720.207332
 20
408.33509
 30
0.0
 11
716.227009
 21
412.315414
 31
0.0
  0
LINE
  8
LC-010-005-----0
  6
CONTINUOUS
  5
C4
 10
717.398582
 20
408.315414
 30
0.0
 11
713.398582
 21
412.315414
 31
0.0
  0
LINE
  8
LC-010-005-----0
  6
CONTINUOUS
  5
C5
 10
695.096478
 20
430.617518
 30
0.0
 11
693.649852
 21
432.064144
 31
0.0
  0
LINE
  8
LC-010-005-----0
  6
CONTINUOUS
  5
C6
 10
714.570155
 20
408.315414
 30
0.0
 11
710.570155
 21
412.315414
 31
0.0
  0
LINE
  8
LC-010-005-----0
  6
CONTINUOUS
  5
C7
 10
695.146725
 20
427.738843
 30
0.0
 11
690.821425
 21
432.064144
 31
0.0
  0
LINE
  8
LC-010-005-----0
  6
CONTINUOUS
  5
C8
 10
711.741728
 20
408.315414
 30
0.0
 11
707.741728
 21
412.315414
 31
0.0
  0
LINE
  8
LC-010-005-----0
  6
CONTINUOUS
  5
C9
 10
695.196973
 20
424.860169
 30
0.0
 11
689.755252
 21
430.301889
 31
0.0
  0
LINE
  8
LC-010-005-----0
  6
CONTINUOUS
  5
CA
 10
708.9133
 20
408.315414
 30
0.0
 11
704.913301
 21
412.315414
 31
0.0
  0
LINE
  8
LC-010-005-----0
  6
CONTINUOUS
  5
CB
 10
695.24722
 20
421.981494
 30
0.0
 11
687.524541
 21
429.704173
 31
0.0
  0
LINE
  8
LC-010-005-----0
  6
CONTINUOUS
  5
CC
 10
706.084873
 20
408.315414
 30
0.0
 11
702.084874
 21
412.315414
 31
0.0
  0
LINE
  8
LC-010-005-----0
  6
CONTINUOUS
  5
CD
 10
695.297467
 20
419.10282
 30
0.0
 11
690.213875
 21
424.186412
 31
0.0
  0
LINE
  8
LC-010-005-----0
  6
CONTINUOUS
  5
CE
 10
689.682055
 20
424.718232
 30
0.0
 11
685.293831
 21
429.106456
 31
0.0
  0
LINE
  8
LC-010-005-----0
  6
CONTINUOUS
  5
CF
 10
703.256446
 20
408.315414
 30
0.0
 11
699.256447
 21
412.315414
 31
0.0
  0
LINE
  8
LC-010-005-----0
  6
CONTINUOUS
  5
D0
 10
695.347715
 20
416.224145
 30
0.0
 11
690.264123
 21
421.307737
 31
0.0
  0
LINE
  8
LC-010-005-----0
  6
CONTINUOUS
  5
D1
 10
686.853628
 20
424.718232
 30
0.0
 11
682.607181
 21
428.964679
 31
0.0
  0
LINE
  8
LC-010-005-----0
  6
CONTINUOUS
  5
D2
 10
700.428019
 20
408.315414
 30
0.0
 11
696.428019
 21
412.315414
 31
0.0
  0
LINE
  8
LC-010-005-----0
  6
CONTINUOUS
  5
D3
 10
695.397962
 20
413.345471
 30
0.0
 11
690.31437
 21
418.429063
 31
0.0
  0
LINE
  8
LC-010-005-----0
  6
CONTINUOUS
  5
D4
 10
684.025201
 20
424.718232
 30
0.0
 11
679.778754
 21
428.964679
 31
0.0
  0
LINE
  8
LC-010-005-----0
  6
CONTINUOUS
  5
D5
 10
697.599591
 20
408.315414
 30
0.0
 11
690.364618
 21
415.550388
 31
0.0
  0
LINE
  8
LC-010-005-----0
  6
CONTINUOUS
  5
D6
 10
681.196773
 20
424.718232
 30
0.0
 11
676.950327
 21
428.964679
 31
0.0
  0
LINE
  8
LC-010-005-----0
  6
CONTINUOUS
  5
D7
 10
694.771164
 20
408.315414
 30
0.0
 11
690.414865
 21
412.671713
 31
0.0
  0
LINE
  8
LC-010-005-----0
  6
CONTINUOUS
  5
D8
 10
678.368346
 20
424.718232
 30
0.0
 11
674.1219
 21
428.964679
 31
0.0
  0
LINE
  8
LC-010-005-----0
  6
CONTINUOUS
  5
D9
 10
675.539919
 20
424.718232
 30
0.0
 11
671.293473
 21
428.964679
 31
0.0
  0
LINE
  8
LC-010-005-----0
  6
CONTINUOUS
  5
DA
 10
672.711492
 20
424.718232
 30
0.0
 11
668.465046
 21
428.964679
 31
0.0
  0
LINE
  8
LC-010-005-----0
  6
CONTINUOUS
  5
DB
 10
669.883065
 20
424.718232
 30
0.0
 11
665.636619
 21
428.964679
 31
0.0
  0
LINE
  8
LC-010-005-----0
  6
CONTINUOUS
  5
DC
 10
667.054638
 20
424.718232
 30
0.0
 11
662.808192
 21
428.964678
 31
0.0
  0
LINE
  8
LC-010-005-----0
  6
CONTINUOUS
  5
DD
 10
664.226211
 20
424.718232
 30
0.0
 11
659.979765
 21
428.964678
 31
0.0
  0
LINE
  8
LC-010-005-----0
  6
CONTINUOUS
  5
DE
 10
661.397784
 20
424.718232
 30
0.0
 11
657.151338
 21
428.964678
 31
0.0
  0
LINE
  8
LC-010-005-----0
  6
CONTINUOUS
  5
DF
 10
658.569357
 20
424.718232
 30
0.0
 11
654.322911
 21
428.964678
 31
0.0
  0
LINE
  8
LC-010-005-----0
  6
CONTINUOUS
  5
E0
 10
655.74093
 20
424.718232
 30
0.0
 11
651.494484
 21
428.964678
 31
0.0
  0
LINE
  8
LC-010-005-----0
  6
CONTINUOUS
  5
E1
 10
652.912503
 20
424.718232
 30
0.0
 11
648.666057
 21
428.964678
 31
0.0
  0
LINE
  8
LC-010-005-----0
  6
CONTINUOUS
  5
E2
 10
650.084076
 20
424.718232
 30
0.0
 11
645.83763
 21
428.964678
 31
0.0
  0
LINE
  8
LC-010-005-----0
  6
CONTINUOUS
  5
E3
 10
648.68229
 20
423.29159
 30
0.0
 11
644.738208
 21
427.235672
 31
0.0
  0
LINE
  8
LC-010-005-----0
  6
CONTINUOUS
  5
E4
 10
647.647014
 20
421.498439
 30
0.0
 11
644.679452
 21
424.466001
 31
0.0
  0
LINE
  8
LC-010-005-----0
  6
CONTINUOUS
  5
E5
 10
646.611738
 20
419.705288
 30
0.0
 11
643.285875
 21
423.031151
 31
0.0
  0
LINE
  8
LC-010-005-----0
  6
CONTINUOUS
  5
E6
 10
644.707769
 20
418.78083
 30
0.0
 11
640.4083
 21
423.080298
 31
0.0
  0
LINE
  8
LC-010-005-----0
  6
CONTINUOUS
  5
E7
 10
641.722912
 20
418.93726
 30
0.0
 11
637.423445
 21
423.236727
 31
0.0
  0
LINE
  8
LC-010-005-----0
  6
CONTINUOUS
  5
E8
 10
638.738055
 20
419.093689
 30
0.0
 11
630.096668
 21
427.735077
 31
0.0
  0
LINE
  8
LC-010-005-----0
  6
CONTINUOUS
  5
E9
 10
635.753199
 20
419.250119
 30
0.0
 11
627.111811
 21
427.891507
 31
0.0
  0
LINE
  8
LC-010-005-----0
  6
CONTINUOUS
  5
EA
 10
632.553029
 20
419.621862
 30
0.0
 11
629.522601
 21
422.652289
 31
0.0
  0
LINE
  8
LC-010-005-----0
  6
CONTINUOUS
  5
EB
 10
627.365603
 20
424.809287
 30
0.0
 11
625.738602
 21
426.436288
 31
0.0
  0
ENDBLK
  8
0
  5
EC
  0
BLOCK
  8
0
  5
EE
  2
*X5
 70
    65
 10
863.384855
 20
534.273234
 30
0.0
  3
*X5
  0
LINE
  8
LC-010-005-----0
  6
CONTINUOUS
  5
EF
 10
939.912791
 20
536.526168
 30
0.0
 11
939.345585
 21
537.093374
 31
0.0
  0
LINE
  8
LC-010-005-----0
  6
CONTINUOUS
  5
F0
 10
939.337298
 20
534.273234
 30
0.0
 11
935.481882
 21
538.12865
 31
0.0
  0
LINE
  8
LC-010-005-----0
  6
CONTINUOUS
  5
F1
 10
936.508871
 20
534.273234
 30
0.0
 11
932.508871
 21
538.273234
 31
0.0
  0
LINE
  8
LC-010-005-----0
  6
CONTINUOUS
  5
F2
 10
933.680444
 20
534.273234
 30
0.0
 11
929.680444
 21
538.273234
 31
0.0
  0
LINE
  8
LC-010-005-----0
  6
CONTINUOUS
  5
F3
 10
930.852017
 20
534.273234
 30
0.0
 11
926.852017
 21
538.273234
 31
0.0
  0
LINE
  8
LC-010-005-----0
  6
CONTINUOUS
  5
F4
 10
928.02359
 20
534.273234
 30
0.0
 11
924.02359
 21
538.273234
 31
0.0
  0
LINE
  8
LC-010-005-----0
  6
CONTINUOUS
  5
F5
 10
868.051148
 20
594.245675
 30
0.0
 11
864.985685
 21
597.311139
 31
0.0
  0
LINE
  8
LC-010-005-----0
  6
CONTINUOUS
  5
F6
 10
925.195163
 20
534.273234
 30
0.0
 11
921.195163
 21
538.273234
 31
0.0
  0
LINE
  8
LC-010-005-----0
  6
CONTINUOUS
  5
F7
 10
868.207578
 20
591.260819
 30
0.0
 11
864.44404
 21
595.024356
 31
0.0
  0
LINE
  8
LC-010-005-----0
  6
CONTINUOUS
  5
F8
 10
922.366736
 20
534.273234
 30
0.0
 11
918.366736
 21
538.273234
 31
0.0
  0
LINE
  8
LC-010-005-----0
  6
CONTINUOUS
  5
F9
 10
869.304539
 20
587.33543
 30
0.0
 11
864.395572
 21
592.244397
 31
0.0
  0
LINE
  8
LC-010-005-----0
  6
CONTINUOUS
  5
FA
 10
919.538309
 20
534.273234
 30
0.0
 11
915.538309
 21
538.273234
 31
0.0
  0
LINE
  8
LC-010-005-----0
  6
CONTINUOUS
  5
FB
 10
869.256175
 20
584.555367
 30
0.0
 11
864.347104
 21
589.464438
 31
0.0
  0
LINE
  8
LC-010-005-----0
  6
CONTINUOUS
  5
FC
 10
916.709881
 20
534.273234
 30
0.0
 11
912.709881
 21
538.273234
 31
0.0
  0
LINE
  8
LC-010-005-----0
  6
CONTINUOUS
  5
FD
 10
869.207812
 20
581.775303
 30
0.0
 11
864.298636
 21
586.684479
 31
0.0
  0
LINE
  8
LC-010-005-----0
  6
CONTINUOUS
  5
FE
 10
913.881454
 20
534.273234
 30
0.0
 11
909.881454
 21
538.273234
 31
0.0
  0
LINE
  8
LC-010-005-----0
  6
CONTINUOUS
  5
FF
 10
869.159448
 20
578.995239
 30
0.0
 11
864.250168
 21
583.90452
 31
0.0
  0
LINE
  8
LC-010-005-----0
  6
CONTINUOUS
  5
100
 10
911.053027
 20
534.273234
 30
0.0
 11
907.053027
 21
538.273234
 31
0.0
  0
LINE
  8
LC-010-005-----0
  6
CONTINUOUS
  5
101
 10
869.111085
 20
576.215176
 30
0.0
 11
864.2017
 21
581.124561
 31
0.0
  0
LINE
  8
LC-010-005-----0
  6
CONTINUOUS
  5
102
 10
908.2246
 20
534.273234
 30
0.0
 11
904.2246
 21
538.273234
 31
0.0
  0
LINE
  8
LC-010-005-----0
  6
CONTINUOUS
  5
103
 10
869.062722
 20
573.435112
 30
0.0
 11
864.153232
 21
578.344602
 31
0.0
  0
LINE
  8
LC-010-005-----0
  6
CONTINUOUS
  5
104
 10
905.396173
 20
534.273234
 30
0.0
 11
901.396173
 21
538.273234
 31
0.0
  0
LINE
  8
LC-010-005-----0
  6
CONTINUOUS
  5
105
 10
869.014358
 20
570.655048
 30
0.0
 11
864.104764
 21
575.564643
 31
0.0
  0
LINE
  8
LC-010-005-----0
  6
CONTINUOUS
  5
106
 10
902.567746
 20
534.273234
 30
0.0
 11
898.567746
 21
538.273234
 31
0.0
  0
LINE
  8
LC-010-005-----0
  6
CONTINUOUS
  5
107
 10
868.965995
 20
567.874985
 30
0.0
 11
864.056296
 21
572.784684
 31
0.0
  0
LINE
  8
LC-010-005-----0
  6
CONTINUOUS
  5
108
 10
899.739319
 20
534.273234
 30
0.0
 11
895.739319
 21
538.273234
 31
0.0
  0
LINE
  8
LC-010-005-----0
  6
CONTINUOUS
  5
109
 10
868.917631
 20
565.094921
 30
0.0
 11
864.007827
 21
570.004725
 31
0.0
  0
LINE
  8
LC-010-005-----0
  6
CONTINUOUS
  5
10A
 10
896.910892
 20
534.273234
 30
0.0
 11
892.910892
 21
538.273234
 31
0.0
  0
LINE
  8
LC-010-005-----0
  6
CONTINUOUS
  5
10B
 10
868.869268
 20
562.314857
 30
0.0
 11
863.959359
 21
567.224766
 31
0.0
  0
LINE
  8
LC-010-005-----0
  6
CONTINUOUS
  5
10C
 10
894.082464
 20
534.273234
 30
0.0
 11
890.082464
 21
538.273234
 31
0.0
  0
LINE
  8
LC-010-005-----0
  6
CONTINUOUS
  5
10D
 10
868.820904
 20
559.534794
 30
0.0
 11
863.910891
 21
564.444807
 31
0.0
  0
LINE
  8
LC-010-005-----0
  6
CONTINUOUS
  5
10E
 10
891.254037
 20
534.273234
 30
0.0
 11
887.254037
 21
538.273234
 31
0.0
  0
LINE
  8
LC-010-005-----0
  6
CONTINUOUS
  5
10F
 10
868.772541
 20
556.75473
 30
0.0
 11
863.862423
 21
561.664848
 31
0.0
  0
LINE
  8
LC-010-005-----0
  6
CONTINUOUS
  5
110
 10
888.42561
 20
534.273234
 30
0.0
 11
884.42561
 21
538.273234
 31
0.0
  0
LINE
  8
LC-010-005-----0
  6
CONTINUOUS
  5
111
 10
868.724178
 20
553.974666
 30
0.0
 11
863.813955
 21
558.884889
 31
0.0
  0
LINE
  8
LC-010-005-----0
  6
CONTINUOUS
  5
112
 10
885.597183
 20
534.273234
 30
0.0
 11
881.597183
 21
538.273234
 31
0.0
  0
LINE
  8
LC-010-005-----0
  6
CONTINUOUS
  5
113
 10
868.675814
 20
551.194603
 30
0.0
 11
863.765487
 21
556.10493
 31
0.0
  0
LINE
  8
LC-010-005-----0
  6
CONTINUOUS
  5
114
 10
882.768756
 20
534.273234
 30
0.0
 11
878.768756
 21
538.273234
 31
0.0
  0
LINE
  8
LC-010-005-----0
  6
CONTINUOUS
  5
115
 10
868.627451
 20
548.414539
 30
0.0
 11
863.717019
 21
553.324971
 31
0.0
  0
LINE
  8
LC-010-005-----0
  6
CONTINUOUS
  5
116
 10
879.940329
 20
534.273234
 30
0.0
 11
875.940329
 21
538.273234
 31
0.0
  0
LINE
  8
LC-010-005-----0
  6
CONTINUOUS
  5
117
 10
868.579087
 20
545.634475
 30
0.0
 11
863.668551
 21
550.545012
 31
0.0
  0
LINE
  8
LC-010-005-----0
  6
CONTINUOUS
  5
118
 10
877.111902
 20
534.273234
 30
0.0
 11
873.111902
 21
538.273234
 31
0.0
  0
LINE
  8
LC-010-005-----0
  6
CONTINUOUS
  5
119
 10
868.530724
 20
542.854411
 30
0.0
 11
863.620083
 21
547.765053
 31
0.0
  0
LINE
  8
LC-010-005-----0
  6
CONTINUOUS
  5
11A
 10
874.283475
 20
534.273234
 30
0.0
 11
870.283475
 21
538.273234
 31
0.0
  0
LINE
  8
LC-010-005-----0
  6
CONTINUOUS
  5
11B
 10
868.48236
 20
540.074348
 30
0.0
 11
863.571614
 21
544.985094
 31
0.0
  0
LINE
  8
LC-010-005-----0
  6
CONTINUOUS
  5
11C
 10
871.455047
 20
534.273234
 30
0.0
 11
863.523146
 21
542.205135
 31
0.0
  0
LINE
  8
LC-010-005-----0
  6
CONTINUOUS
  5
11D
 10
868.62662
 20
534.273234
 30
0.0
 11
863.474678
 21
539.425176
 31
0.0
  0
LINE
  8
LC-010-005-----0
  6
CONTINUOUS
  5
11E
 10
865.798193
 20
534.273234
 30
0.0
 11
863.42621
 21
536.645217
 31
0.0
  0
ENDBLK
  8
0
  5
11F
  0
BLOCK
  8
0
  5
121
  2
*X6
 70
    65
 10
634.668065
 20
554.977573
 30
0.0
  3
*X6
  0
LINE
  8
LC-010-005-----0
  6
CONTINUOUS
  5
122
 10
642.763289
 20
555.082048
 30
0.0
 11
642.807374
 21
555.126133
 31
0.0
  0
LINE
  8
LC-010-005-----0
  6
CONTINUOUS
  5
123
 10
644.176603
 20
556.495362
 30
0.0
 11
644.191536
 21
556.510295
 31
0.0
  0
LINE
  8
LC-010-005-----0
  6
CONTINUOUS
  5
124
 10
641.777647
 20
555.510619
 30
0.0
 11
644.182705
 21
557.915678
 31
0.0
  0
LINE
  8
LC-010-005-----0
  6
CONTINUOUS
  5
125
 10
639.834795
 20
554.981981
 30
0.0
 11
639.939029
 21
555.086216
 31
0.0
  0
LINE
  8
LC-010-005-----0
  6
CONTINUOUS
  5
126
 10
640.792004
 20
555.93919
 30
0.0
 11
644.173875
 21
559.321061
 31
0.0
  0
LINE
  8
LC-010-005-----0
  6
CONTINUOUS
  5
127
 10
638.826288
 20
555.387688
 30
0.0
 11
639.611654
 21
556.173053
 31
0.0
  0
LINE
  8
LC-010-005-----0
  6
CONTINUOUS
  5
128
 10
639.806362
 20
556.367761
 30
0.0
 11
643.070613
 21
559.632013
 31
0.0
  0
LINE
  8
LC-010-005-----0
  6
CONTINUOUS
  5
129
 10
637.840646
 20
555.816259
 30
0.0
 11
641.647458
 21
559.623071
 31
0.0
  0
LINE
  8
LC-010-005-----0
  6
CONTINUOUS
  5
12A
 10
636.855003
 20
556.24483
 30
0.0
 11
640.224302
 21
559.614129
 31
0.0
  0
LINE
  8
LC-010-005-----0
  6
CONTINUOUS
  5
12B
 10
635.637669
 20
556.44171
 30
0.0
 11
638.801146
 21
559.605187
 31
0.0
  0
LINE
  8
LC-010-005-----0
  6
CONTINUOUS
  5
12C
 10
634.68488
 20
556.903134
 30
0.0
 11
637.377991
 21
559.596245
 31
0.0
  0
LINE
  8
LC-010-005-----0
  6
CONTINUOUS
  5
12D
 10
634.676049
 20
558.308517
 30
0.0
 11
635.954835
 21
559.587303
 31
0.0
  0
ENDBLK
  8
0
  5
12E
  0
BLOCK
  8
0
  5
130
  2
*X7
 70
    65
 10
634.668065
 20
424.18332
 30
0.0
  3
*X7
  0
LINE
  8
LC-010-005-----0
  6
CONTINUOUS
  5
131
 10
643.391327
 20
424.188225
 30
0.0
 11
644.176844
 21
424.973742
 31
0.0
  0
LINE
  8
LC-010-005-----0
  6
CONTINUOUS
  5
132
 10
641.985944
 20
424.197055
 30
0.0
 11
644.185786
 21
426.396897
 31
0.0
  0
LINE
  8
LC-010-005-----0
  6
CONTINUOUS
  5
133
 10
640.580561
 20
424.205885
 30
0.0
 11
643.704532
 21
427.329857
 31
0.0
  0
LINE
  8
LC-010-005-----0
  6
CONTINUOUS
  5
134
 10
639.175177
 20
424.214716
 30
0.0
 11
642.781629
 21
427.821168
 31
0.0
  0
LINE
  8
LC-010-005-----0
  6
CONTINUOUS
  5
135
 10
637.769794
 20
424.223546
 30
0.0
 11
641.919608
 21
428.37336
 31
0.0
  0
LINE
  8
LC-010-005-----0
  6
CONTINUOUS
  5
136
 10
636.364411
 20
424.232377
 30
0.0
 11
639.590662
 21
427.458628
 31
0.0
  0
LINE
  8
LC-010-005-----0
  6
CONTINUOUS
  5
137
 10
634.959028
 20
424.241207
 30
0.0
 11
639.403262
 21
428.685441
 31
0.0
  0
LINE
  8
LC-010-005-----0
  6
CONTINUOUS
  5
138
 10
634.675156
 20
425.371549
 30
0.0
 11
636.901054
 21
427.597447
 31
0.0
  0
LINE
  8
LC-010-005-----0
  6
CONTINUOUS
  5
139
 10
634.684098
 20
426.794704
 30
0.0
 11
635.272233
 21
427.382839
 31
0.0
  0
ENDBLK
  8
0
  5
13A
  0
BLOCK
  8
0
  5
13C
  2
BLK1
 70
    64
 10
0.0
 20
0.0
 30
0.0
  3
BLK1
  0
ENDBLK
  8
0
  5
13D
  0
BLOCK
  8
0
  5
13F
  2
BLK2
 70
    64
 10
0.0
 20
0.0
 30
0.0
  3
BLK2
  0
ENDBLK
  8
0
  5
140
  0
BLOCK
  8
0
  5
142
  2
*D10
 70
    65
 10
0.0
 20
0.0
 30
0.0
  3
*D10
  0
LINE
  8
LC-008-003-MTH-0
  6
CONTINUOUS
  5
143
 10
625.738602
 20
427.963474
 30
0.0
 11
591.2
 21
427.963474
 31
0.0
  0
LINE
  8
LC-008-003-MTH-0
  6
CONTINUOUS
  5
144
 10
625.738602
 20
555.858779
 30
0.0
 11
591.2
 21
555.858779
 31
0.0
  0
LINE
  8
LC-009-003-MTG-0
  6
CONTINUOUS
  5
145
 10
602.0
 20
427.963474
 30
0.0
 11
602.0
 21
555.858779
 31
0.0
  0
LINE
  8
LC-007-003-----0
  6
CONTINUOUS
  5
146
 10
599.650529
 20
445.809481
 30
0.0
 11
602.0
 21
427.963474
 31
0.0
  0
LINE
  8
LC-007-003-----0
  6
CONTINUOUS
  5
147
 10
602.0
 20
427.963474
 30
0.0
 11
604.349471
 21
445.809481
 31
0.0
  0
LINE
  8
LC-007-003-----0
  6
CONTINUOUS
  5
148
 10
604.349471
 20
445.809481
 30
0.0
 11
599.650529
 21
445.809481
 31
0.0
  0
LINE
  8
LC-007-003-----0
  6
CONTINUOUS
  5
149
 10
600.261391
 20
445.849519
 30
0.0
 11
602.0
 21
432.643474
 31
0.0
  0
LINE
  8
LC-007-003-----0
  6
CONTINUOUS
  5
14A
 10
602.0
 20
432.643474
 30
0.0
 11
603.738609
 21
445.849519
 31
0.0
  0
LINE
  8
LC-007-003-----0
  6
CONTINUOUS
  5
14B
 10
600.872254
 20
445.889557
 30
0.0
 11
602.0
 21
437.323474
 31
0.0
  0
LINE
  8
LC-007-003-----0
  6
CONTINUOUS
  5
14C
 10
602.0
 20
437.323474
 30
0.0
 11
603.127746
 21
445.889557
 31
0.0
  0
LINE
  8
LC-007-003-----0
  6
CONTINUOUS
  5
14D
 10
601.483116
 20
445.929595
 30
0.0
 11
602.0
 21
442.003474
 31
0.0
  0
LINE
  8
LC-007-003-----0
  6
CONTINUOUS
  5
14E
 10
602.0
 20
442.003474
 30
0.0
 11
602.516884
 21
445.929595
 31
0.0
  0
LINE
  8
LC-007-003-----0
  6
CONTINUOUS
  5
14F
 10
604.349471
 20
538.012772
 30
0.0
 11
602.0
 21
555.858779
 31
0.0
  0
LINE
  8
LC-007-003-----0
  6
CONTINUOUS
  5
150
 10
602.0
 20
555.858779
 30
0.0
 11
599.650529
 21
538.012772
 31
0.0
  0
LINE
  8
LC-007-003-----0
  6
CONTINUOUS
  5
151
 10
599.650529
 20
538.012772
 30
0.0
 11
604.349471
 21
538.012772
 31
0.0
  0
LINE
  8
LC-007-003-----0
  6
CONTINUOUS
  5
152
 10
603.738609
 20
537.972734
 30
0.0
 11
602.0
 21
551.178779
 31
0.0
  0
LINE
  8
LC-007-003-----0
  6
CONTINUOUS
  5
153
 10
602.0
 20
551.178779
 30
0.0
 11
600.261391
 21
537.972734
 31
0.0
  0
LINE
  8
LC-007-003-----0
  6
CONTINUOUS
  5
154
 10
603.127746
 20
537.932696
 30
0.0
 11
602.0
 21
546.498779
 31
0.0
  0
LINE
  8
LC-007-003-----0
  6
CONTINUOUS
  5
155
 10
602.0
 20
546.498779
 30
0.0
 11
600.872254
 21
537.932696
 31
0.0
  0
LINE
  8
LC-007-003-----0
  6
CONTINUOUS
  5
156
 10
602.516884
 20
537.892658
 30
0.0
 11
602.0
 21
541.81878
 31
0.0
  0
LINE
  8
LC-007-003-----0
  6
CONTINUOUS
  5
157
 10
602.0
 20
541.81878
 30
0.0
 11
601.483116
 21
537.892658
 31
0.0
  0
TEXT
  8
LC-007-003-----0
  6
CONTINUOUS
 62
     6
  5
158
 10
591.568001
 20
461.030782
 30
0.0
 40
18.0
  1
DN125
 50
90.0
 51
15.0
  7
LC-TXTSTYLE-150-400-0-0-D0
 72
     1
 11
591.568001
 21
494.706372
 31
0.0
  0
ENDBLK
  8
0
  5
159
  0
BLOCK
  8
0
  5
15B
  2
*D11
 70
    65
 10
0.0
 20
0.0
 30
0.0
  3
*D11
  0
LINE
  8
LC-008-003-MTH-0
  6
CONTINUOUS
  5
15C
 10
934.940867
 20
413.31447
 30
0.0
 11
1018.8
 21
413.31447
 31
0.0
  0
LINE
  8
LC-008-003-MTH-0
  6
CONTINUOUS
  5
15D
 10
934.94229
 20
538.273234
 30
0.0
 11
1018.8
 21
538.273234
 31
0.0
  0
LINE
  8
LC-009-003-MTG-0
  6
CONTINUOUS
  5
15E
 10
1008.0
 20
413.31447
 30
0.0
 11
1008.0
 21
538.273234
 31
0.0
  0
LINE
  8
LC-007-003-----0
  6
CONTINUOUS
  5
15F
 10
1005.650529
 20
431.160477
 30
0.0
 11
1008.0
 21
413.31447
 31
0.0
  0
LINE
  8
LC-007-003-----0
  6
CONTINUOUS
  5
160
 10
1008.0
 20
413.31447
 30
0.0
 11
1010.349471
 21
431.160477
 31
0.0
  0
LINE
  8
LC-007-003-----0
  6
CONTINUOUS
  5
161
 10
1010.349471
 20
431.160477
 30
0.0
 11
1005.650529
 21
431.160477
 31
0.0
  0
LINE
  8
LC-007-003-----0
  6
CONTINUOUS
  5
162
 10
1006.261391
 20
431.200515
 30
0.0
 11
1008.0
 21
417.99447
 31
0.0
  0
LINE
  8
LC-007-003-----0
  6
CONTINUOUS
  5
163
 10
1008.0
 20
417.99447
 30
0.0
 11
1009.738609
 21
431.200515
 31
0.0
  0
LINE
  8
LC-007-003-----0
  6
CONTINUOUS
  5
164
 10
1006.872254
 20
431.240553
 30
0.0
 11
1008.0
 21
422.67447
 31
0.0
  0
LINE
  8
LC-007-003-----0
  6
CONTINUOUS
  5
165
 10
1008.0
 20
422.67447
 30
0.0
 11
1009.127746
 21
431.240553
 31
0.0
  0
LINE
  8
LC-007-003-----0
  6
CONTINUOUS
  5
166
 10
1007.483116
 20
431.280591
 30
0.0
 11
1008.0
 21
427.35447
 31
0.0
  0
LINE
  8
LC-007-003-----0
  6
CONTINUOUS
  5
167
 10
1008.0
 20
427.35447
 30
0.0
 11
1008.516884
 21
431.280591
 31
0.0
  0
LINE
  8
LC-007-003-----0
  6
CONTINUOUS
  5
168
 10
1010.349471
 20
520.427226
 30
0.0
 11
1008.0
 21
538.273234
 31
0.0
  0
LINE
  8
LC-007-003-----0
  6
CONTINUOUS
  5
169
 10
1008.0
 20
538.273234
 30
0.0
 11
1005.650529
 21
520.427226
 31
0.0
  0
LINE
  8
LC-007-003-----0
  6
CONTINUOUS
  5
16A
 10
1005.650529
 20
520.427226
 30
0.0
 11
1010.349471
 21
520.427226
 31
0.0
  0
LINE
  8
LC-007-003-----0
  6
CONTINUOUS
  5
16B
 10
1009.738609
 20
520.387188
 30
0.0
 11
1008.0
 21
533.593234
 31
0.0
  0
LINE
  8
LC-007-003-----0
  6
CONTINUOUS
  5
16C
 10
1008.0
 20
533.593234
 30
0.0
 11
1006.261391
 21
520.387188
 31
0.0
  0
LINE
  8
LC-007-003-----0
  6
CONTINUOUS
  5
16D
 10
1009.127746
 20
520.34715
 30
0.0
 11
1008.0
 21
528.913234
 31
0.0
  0
LINE
  8
LC-007-003-----0
  6
CONTINUOUS
  5
16E
 10
1008.0
 20
528.913234
 30
0.0
 11
1006.872254
 21
520.34715
 31
0.0
  0
LINE
  8
LC-007-003-----0
  6
CONTINUOUS
  5
16F
 10
1008.516884
 20
520.307112
 30
0.0
 11
1008.0
 21
524.233234
 31
0.0
  0
LINE
  8
LC-007-003-----0
  6
CONTINUOUS
  5
170
 10
1008.0
 20
524.233234
 30
0.0
 11
1007.483116
 21
520.307112
 31
0.0
  0
TEXT
  8
LC-007-003-----0
  6
CONTINUOUS
 62
     6
  5
171
 10
997.568001
 20
444.913507
 30
0.0
 40
18.0
  1
DN125
 50
90.0
 51
15.0
  7
LC-TXTSTYLE-150-400-0-0-D0
 72
     1
 11
997.568001
 21
478.589097
 31
0.0
  0
ENDBLK
  8
0
  5
172
  0
BLOCK
  8
0
  5
174
  2
*D12
 70
    65
 10
0.0
 20
0.0
 30
0.0
  3
*D12
  0
LINE
  8
LC-008-003-MTH-0
  6
CONTINUOUS
  5
175
 10
867.364106
 20
475.794043
 30
0.0
 11
930.8
 21
475.794043
 31
0.0
  0
LINE
  8
LC-008-003-MTH-0
  6
CONTINUOUS
  5
176
 10
712.79531
 20
491.911127
 30
0.0
 11
930.8
 21
491.911127
 31
0.0
  0
LINE
  8
LC-007-003-----0
  6
CONTINUOUS
  5
177
 10
922.349471
 20
457.948035
 30
0.0
 11
920.0
 21
475.794043
 31
0.0
  0
LINE
  8
LC-007-003-----0
  6
CONTINUOUS
  5
178
 10
920.0
 20
475.794043
 30
0.0
 11
917.650529
 21
457.948035
 31
0.0
  0
LINE
  8
LC-007-003-----0
  6
CONTINUOUS
  5
179
 10
917.650529
 20
457.948035
 30
0.0
 11
922.349471
 21
457.948035
 31
0.0
  0
LINE
  8
LC-007-003-----0
  6
CONTINUOUS
  5
17A
 10
921.738609
 20
457.907997
 30
0.0
 11
920.0
 21
471.114043
 31
0.0
  0
LINE
  8
LC-007-003-----0
  6
CONTINUOUS
  5
17B
 10
920.0
 20
471.114043
 30
0.0
 11
918.261391
 21
457.907997
 31
0.0
  0
LINE
  8
LC-007-003-----0
  6
CONTINUOUS
  5
17C
 10
921.127746
 20
457.867959
 30
0.0
 11
920.0
 21
466.434043
 31
0.0
  0
LINE
  8
LC-007-003-----0
  6
CONTINUOUS
  5
17D
 10
920.0
 20
466.434043
 30
0.0
 11
918.872254
 21
457.867959
 31
0.0
  0
LINE
  8
LC-007-003-----0
  6
CONTINUOUS
  5
17E
 10
920.516884
 20
457.827921
 30
0.0
 11
920.0
 21
461.754043
 31
0.0
  0
LINE
  8
LC-007-003-----0
  6
CONTINUOUS
  5
17F
 10
920.0
 20
461.754043
 30
0.0
 11
919.483116
 21
457.827921
 31
0.0
  0
LINE
  8
LC-007-003-----0
  6
CONTINUOUS
  5
180
 10
917.650529
 20
509.757134
 30
0.0
 11
920.0
 21
491.911127
 31
0.0
  0
LINE
  8
LC-007-003-----0
  6
CONTINUOUS
  5
181
 10
920.0
 20
491.911127
 30
0.0
 11
922.349471
 21
509.757134
 31
0.0
  0
LINE
  8
LC-007-003-----0
  6
CONTINUOUS
  5
182
 10
922.349471
 20
509.757134
 30
0.0
 11
917.650529
 21
509.757134
 31
0.0
  0
LINE
  8
LC-007-003-----0
  6
CONTINUOUS
  5
183
 10
918.261391
 20
509.797172
 30
0.0
 11
920.0
 21
496.591127
 31
0.0
  0
LINE
  8
LC-007-003-----0
  6
CONTINUOUS
  5
184
 10
920.0
 20
496.591127
 30
0.0
 11
921.738609
 21
509.797172
 31
0.0
  0
LINE
  8
LC-007-003-----0
  6
CONTINUOUS
  5
185
 10
918.872254
 20
509.83721
 30
0.0
 11
920.0
 21
501.271127
 31
0.0
  0
LINE
  8
LC-007-003-----0
  6
CONTINUOUS
  5
186
 10
920.0
 20
501.271127
 30
0.0
 11
921.127746
 21
509.83721
 31
0.0
  0
LINE
  8
LC-007-003-----0
  6
CONTINUOUS
  5
187
 10
919.483116
 20
509.877248
 30
0.0
 11
920.0
 21
505.951127
 31
0.0
  0
LINE
  8
LC-007-003-----0
  6
CONTINUOUS
  5
188
 10
920.0
 20
505.951127
 30
0.0
 11
920.516884
 21
509.877248
 31
0.0
  0
LINE
  8
LC-009-003-MTG-0
  6
CONTINUOUS
  5
189
 10
920.0
 20
450.594043
 30
0.0
 11
920.0
 21
608.01726
 31
0.0
  0
TEXT
  8
LC-007-003-----0
  6
CONTINUOUS
 62
     6
  5
18A
 10
909.568001
 20
544.889986
 30
0.0
 40
18.0
  1
16,5
 50
90.0
 51
15.0
  7
LC-TXTSTYLE-150-400-0-0-D0
  0
ENDBLK
  8
0
  5
18B
  0
BLOCK
  8
0
  5
18D
  2
SYM3
 70
    64
 10
1356.381777
 20
827.598303
 30
0.0
  3
SYM3
  0
ENDBLK
  8
0
  5
18E
  0
BLOCK
  8
0
  5
190
  2
*X14
 70
    65
 10
862.602848
 20
588.811139
 30
0.0
  3
*X14
  0
LINE
  8
LC-010-005-----0
  6
DASHED
  5
192
 10
868.447398
 20
589.847326
 30
0.0
 11
869.975619
 21
591.375547
 31
0.0
  0
LINE
  8
LC-010-005-----0
  6
DASHED
  5
193
 10
868.376973
 20
591.191115
 30
0.0
 11
869.908771
 21
592.722913
 31
0.0
  0
LINE
  8
LC-010-005-----0
  6
CONTINUOUS
  5
194
 10
863.16857
 20
588.811139
 30
0.0
 11
864.261259
 21
589.903828
 31
0.0
  0
LINE
  8
LC-010-005-----0
  6
CONTINUOUS
  5
195
 10
868.236123
 20
593.878692
 30
0.0
 11
869.775076
 21
595.417645
 31
0.0
  0
LINE
  8
LC-010-005-----0
  6
CONTINUOUS
  5
196
 10
862.647142
 20
589.703925
 30
0.0
 11
864.339474
 21
591.396257
 31
0.0
  0
LINE
  8
LC-010-005-----0
  6
CONTINUOUS
  5
197
 10
868.165698
 20
595.22248
 30
0.0
 11
869.708229
 21
596.765011
 31
0.0
  0
LINE
  8
LC-010-005-----0
  6
DASHED
  5
198
 10
862.794796
 20
592.680006
 30
0.0
 11
864.495904
 21
594.381114
 31
0.0
  0
LINE
  8
LC-010-005-----0
  6
DASHED
  5
199
 10
867.425929
 20
597.311139
 30
0.0
 11
868.826733
 21
598.711942
 31
0.0
  0
LINE
  8
LC-010-005-----0
  6
DASHED
  5
19A
 10
862.868623
 20
594.168046
 30
0.0
 11
864.574119
 21
595.873542
 31
0.0
  0
LINE
  8
LC-010-005-----0
  6
DASHED
  5
19B
 10
866.011715
 20
597.311139
 30
0.0
 11
867.909709
 21
599.209132
 31
0.0
  0
LINE
  8
LC-010-005-----0
  6
CONTINUOUS
  5
19C
 10
863.026502
 20
597.154352
 30
0.0
 11
865.159617
 21
599.287467
 31
0.0
  0
ENDBLK
  8
0
  5
19D
  0
BLOCK
  8
0
  5
19F
  2
*X15
 70
    65
 10
684.262863
 20
588.311139
 30
0.0
  3
*X15
  0
LINE
  8
LC-010-005-----0
  6
CONTINUOUS
  5
1A0
 10
872.450951
 20
601.159581
 30
0.0
 11
870.421869
 21
603.188663
 31
0.0
  0
LINE
  8
LC-010-005-----0
  6
CONTINUOUS
  5
1A1
 10
872.573427
 20
598.208678
 30
0.0
 11
867.470966
 21
603.311139
 31
0.0
  0
LINE
  8
LC-010-005-----0
  6
CONTINUOUS
  5
1A2
 10
872.573427
 20
595.380251
 30
0.0
 11
870.066908
 21
597.88677
 31
0.0
  0
LINE
  8
LC-010-005-----0
  6
CONTINUOUS
  5
1A3
 10
868.642539
 20
599.311139
 30
0.0
 11
864.642539
 21
603.311139
 31
0.0
  0
LINE
  8
LC-010-005-----0
  6
CONTINUOUS
  5
1A4
 10
872.573427
 20
592.551824
 30
0.0
 11
870.223338
 21
594.901913
 31
0.0
  0
LINE
  8
LC-010-005-----0
  6
CONTINUOUS
  5
1A5
 10
865.814112
 20
599.311139
 30
0.0
 11
861.814112
 21
603.311139
 31
0.0
  0
LINE
  8
LC-010-005-----0
  6
CONTINUOUS
  5
1A6
 10
872.573427
 20
589.723396
 30
0.0
 11
870.379767
 21
591.917056
 31
0.0
  0
LINE
  8
LC-010-005-----0
  6
CONTINUOUS
  5
1A7
 10
863.146706
 20
599.150117
 30
0.0
 11
858.985685
 21
603.311139
 31
0.0
  0
LINE
  8
LC-010-005-----0
  6
CONTINUOUS
  5
1A8
 10
871.157258
 20
588.311139
 30
0.0
 11
870.536197
 21
588.932199
 31
0.0
  0
LINE
  8
LC-010-005-----0
  6
CONTINUOUS
  5
1A9
 10
862.896231
 20
596.572166
 30
0.0
 11
860.650974
 21
598.817422
 31
0.0
  0
LINE
  8
LC-010-005-----0
  6
CONTINUOUS
  5
1AA
 10
860.145295
 20
599.323101
 30
0.0
 11
856.157258
 21
603.311139
 31
0.0
  0
LINE
  8
LC-010-005-----0
  6
CONTINUOUS
  5
1AB
 10
862.755381
 20
593.884588
 30
0.0
 11
860.650974
 21
595.988995
 31
0.0
  0
LINE
  8
LC-010-005-----0
  6
CONTINUOUS
  5
1AC
 10
857.317075
 20
599.322894
 30
0.0
 11
853.328831
 21
603.311139
 31
0.0
  0
LINE
  8
LC-010-005-----0
  6
CONTINUOUS
  5
1AD
 10
862.000404
 20
591.811139
 30
0.0
 11
860.650974
 21
593.160568
 31
0.0
  0
LINE
  8
LC-010-005-----0
  6
CONTINUOUS
  5
1AE
 10
854.488855
 20
599.322687
 30
0.0
 11
850.500404
 21
603.311139
 31
0.0
  0
LINE
  8
LC-010-005-----0
  6
CONTINUOUS
  5
1AF
 10
851.660635
 20
599.32248
 30
0.0
 11
847.671976
 21
603.311139
 31
0.0
  0
LINE
  8
LC-010-005-----0
  6
CONTINUOUS
  5
1B0
 10
848.832414
 20
599.322273
 30
0.0
 11
844.843549
 21
603.311139
 31
0.0
  0
LINE
  8
LC-010-005-----0
  6
CONTINUOUS
  5
1B1
 10
846.004194
 20
599.322066
 30
0.0
 11
842.015122
 21
603.311139
 31
0.0
  0
LINE
  8
LC-010-005-----0
  6
CONTINUOUS
  5
1B2
 10
843.175974
 20
599.321859
 30
0.0
 11
839.186695
 21
603.311139
 31
0.0
  0
LINE
  8
LC-010-005-----0
  6
CONTINUOUS
  5
1B3
 10
840.347754
 20
599.321652
 30
0.0
 11
836.358268
 21
603.311139
 31
0.0
  0
LINE
  8
LC-010-005-----0
  6
CONTINUOUS
  5
1B4
 10
837.519534
 20
599.321445
 30
0.0
 11
833.529841
 21
603.311139
 31
0.0
  0
LINE
  8
LC-010-005-----0
  6
CONTINUOUS
  5
1B5
 10
834.691314
 20
599.321238
 30
0.0
 11
830.701414
 21
603.311139
 31
0.0
  0
LINE
  8
LC-010-005-----0
  6
CONTINUOUS
  5
1B6
 10
831.863094
 20
599.321031
 30
0.0
 11
827.872987
 21
603.311139
 31
0.0
  0
LINE
  8
LC-010-005-----0
  6
CONTINUOUS
  5
1B7
 10
829.034873
 20
599.320825
 30
0.0
 11
825.044559
 21
603.311139
 31
0.0
  0
LINE
  8
LC-010-005-----0
  6
CONTINUOUS
  5
1B8
 10
826.206653
 20
599.320618
 30
0.0
 11
822.216132
 21
603.311139
 31
0.0
  0
LINE
  8
LC-010-005-----0
  6
CONTINUOUS
  5
1B9
 10
823.378433
 20
599.320411
 30
0.0
 11
819.387705
 21
603.311139
 31
0.0
  0
LINE
  8
LC-010-005-----0
  6
CONTINUOUS
  5
1BA
 10
820.550213
 20
599.320204
 30
0.0
 11
816.559278
 21
603.311139
 31
0.0
  0
LINE
  8
LC-010-005-----0
  6
CONTINUOUS
  5
1BB
 10
817.721993
 20
599.319997
 30
0.0
 11
813.730851
 21
603.311139
 31
0.0
  0
LINE
  8
LC-010-005-----0
  6
CONTINUOUS
  5
1BC
 10
814.893773
 20
599.31979
 30
0.0
 11
810.902424
 21
603.311139
 31
0.0
  0
LINE
  8
LC-010-005-----0
  6
CONTINUOUS
  5
1BD
 10
812.065553
 20
599.319583
 30
0.0
 11
808.073997
 21
603.311139
 31
0.0
  0
LINE
  8
LC-010-005-----0
  6
CONTINUOUS
  5
1BE
 10
809.237332
 20
599.319376
 30
0.0
 11
805.24557
 21
603.311139
 31
0.0
  0
LINE
  8
LC-010-005-----0
  6
CONTINUOUS
  5
1BF
 10
806.409112
 20
599.319169
 30
0.0
 11
802.417142
 21
603.311139
 31
0.0
  0
LINE
  8
LC-010-005-----0
  6
CONTINUOUS
  5
1C0
 10
803.580892
 20
599.318962
 30
0.0
 11
799.588715
 21
603.311139
 31
0.0
  0
LINE
  8
LC-010-005-----0
  6
CONTINUOUS
  5
1C1
 10
800.752672
 20
599.318755
 30
0.0
 11
796.760288
 21
603.311139
 31
0.0
  0
LINE
  8
LC-010-005-----0
  6
CONTINUOUS
  5
1C2
 10
797.924452
 20
599.318548
 30
0.0
 11
793.931861
 21
603.311139
 31
0.0
  0
LINE
  8
LC-010-005-----0
  6
CONTINUOUS
  5
1C3
 10
795.096232
 20
599.318341
 30
0.0
 11
791.103434
 21
603.311139
 31
0.0
  0
LINE
  8
LC-010-005-----0
  6
CONTINUOUS
  5
1C4
 10
792.268012
 20
599.318134
 30
0.0
 11
788.275007
 21
603.311139
 31
0.0
  0
LINE
  8
LC-010-005-----0
  6
CONTINUOUS
  5
1C5
 10
789.439791
 20
599.317927
 30
0.0
 11
785.44658
 21
603.311139
 31
0.0
  0
LINE
  8
LC-010-005-----0
  6
CONTINUOUS
  5
1C6
 10
786.611571
 20
599.31772
 30
0.0
 11
782.618153
 21
603.311139
 31
0.0
  0
LINE
  8
LC-010-005-----0
  6
CONTINUOUS
  5
1C7
 10
783.783351
 20
599.317513
 30
0.0
 11
779.789726
 21
603.311139
 31
0.0
  0
LINE
  8
LC-010-005-----0
  6
CONTINUOUS
  5
1C8
 10
780.955131
 20
599.317306
 30
0.0
 11
776.961298
 21
603.311139
 31
0.0
  0
LINE
  8
LC-010-005-----0
  6
CONTINUOUS
  5
1C9
 10
778.126911
 20
599.317099
 30
0.0
 11
774.132871
 21
603.311139
 31
0.0
  0
LINE
  8
LC-010-005-----0
  6
CONTINUOUS
  5
1CA
 10
775.298691
 20
599.316892
 30
0.0
 11
771.304444
 21
603.311139
 31
0.0
  0
LINE
  8
LC-010-005-----0
  6
CONTINUOUS
  5
1CB
 10
772.470471
 20
599.316685
 30
0.0
 11
768.476017
 21
603.311139
 31
0.0
  0
LINE
  8
LC-010-005-----0
  6
CONTINUOUS
  5
1CC
 10
769.64225
 20
599.316478
 30
0.0
 11
765.64759
 21
603.311139
 31
0.0
  0
LINE
  8
LC-010-005-----0
  6
CONTINUOUS
  5
1CD
 10
766.81403
 20
599.316271
 30
0.0
 11
762.819163
 21
603.311139
 31
0.0
  0
LINE
  8
LC-010-005-----0
  6
CONTINUOUS
  5
1CE
 10
763.98581
 20
599.316064
 30
0.0
 11
759.990736
 21
603.311139
 31
0.0
  0
LINE
  8
LC-010-005-----0
  6
CONTINUOUS
  5
1CF
 10
761.15759
 20
599.315857
 30
0.0
 11
757.162309
 21
603.311139
 31
0.0
  0
LINE
  8
LC-010-005-----0
  6
CONTINUOUS
  5
1D0
 10
758.32937
 20
599.31565
 30
0.0
 11
754.333881
 21
603.311139
 31
0.0
  0
LINE
  8
LC-010-005-----0
  6
CONTINUOUS
  5
1D1
 10
755.50115
 20
599.315443
 30
0.0
 11
751.505454
 21
603.311139
 31
0.0
  0
LINE
  8
LC-010-005-----0
  6
CONTINUOUS
  5
1D2
 10
752.67293
 20
599.315236
 30
0.0
 11
748.677027
 21
603.311139
 31
0.0
  0
LINE
  8
LC-010-005-----0
  6
CONTINUOUS
  5
1D3
 10
749.844709
 20
599.315029
 30
0.0
 11
745.8486
 21
603.311139
 31
0.0
  0
LINE
  8
LC-010-005-----0
  6
CONTINUOUS
  5
1D4
 10
747.016489
 20
599.314822
 30
0.0
 11
743.020173
 21
603.311139
 31
0.0
  0
LINE
  8
LC-010-005-----0
  6
CONTINUOUS
  5
1D5
 10
744.188269
 20
599.314615
 30
0.0
 11
740.191746
 21
603.311139
 31
0.0
  0
LINE
  8
LC-010-005-----0
  6
CONTINUOUS
  5
1D6
 10
741.360049
 20
599.314408
 30
0.0
 11
737.363319
 21
603.311139
 31
0.0
  0
LINE
  8
LC-010-005-----0
  6
CONTINUOUS
  5
1D7
 10
738.531829
 20
599.314201
 30
0.0
 11
734.534892
 21
603.311139
 31
0.0
  0
LINE
  8
LC-010-005-----0
  6
CONTINUOUS
  5
1D8
 10
735.703609
 20
599.313994
 30
0.0
 11
731.706464
 21
603.311139
 31
0.0
  0
LINE
  8
LC-010-005-----0
  6
CONTINUOUS
  5
1D9
 10
732.875389
 20
599.313787
 30
0.0
 11
728.878037
 21
603.311139
 31
0.0
  0
LINE
  8
LC-010-005-----0
  6
CONTINUOUS
  5
1DA
 10
730.047168
 20
599.31358
 30
0.0
 11
726.04961
 21
603.311139
 31
0.0
  0
LINE
  8
LC-010-005-----0
  6
CONTINUOUS
  5
1DB
 10
727.218948
 20
599.313373
 30
0.0
 11
723.221183
 21
603.311139
 31
0.0
  0
LINE
  8
LC-010-005-----0
  6
CONTINUOUS
  5
1DC
 10
724.390728
 20
599.313166
 30
0.0
 11
720.392756
 21
603.311139
 31
0.0
  0
LINE
  8
LC-010-005-----0
  6
CONTINUOUS
  5
1DD
 10
721.562508
 20
599.312959
 30
0.0
 11
717.564329
 21
603.311139
 31
0.0
  0
LINE
  8
LC-010-005-----0
  6
CONTINUOUS
  5
1DE
 10
718.734288
 20
599.312752
 30
0.0
 11
714.735902
 21
603.311139
 31
0.0
  0
LINE
  8
LC-010-005-----0
  6
CONTINUOUS
  5
1DF
 10
715.906068
 20
599.312545
 30
0.0
 11
711.907475
 21
603.311139
 31
0.0
  0
LINE
  8
LC-010-005-----0
  6
CONTINUOUS
  5
1E0
 10
713.077848
 20
599.312338
 30
0.0
 11
709.079047
 21
603.311139
 31
0.0
  0
LINE
  8
LC-010-005-----0
  6
CONTINUOUS
  5
1E1
 10
710.249627
 20
599.312131
 30
0.0
 11
706.25062
 21
603.311139
 31
0.0
  0
LINE
  8
LC-010-005-----0
  6
CONTINUOUS
  5
1E2
 10
707.421407
 20
599.311924
 30
0.0
 11
703.422193
 21
603.311139
 31
0.0
  0
LINE
  8
LC-010-005-----0
  6
CONTINUOUS
  5
1E3
 10
704.593187
 20
599.311717
 30
0.0
 11
700.593766
 21
603.311139
 31
0.0
  0
LINE
  8
LC-010-005-----0
  6
CONTINUOUS
  5
1E4
 10
701.764967
 20
599.31151
 30
0.0
 11
697.765339
 21
603.311139
 31
0.0
  0
LINE
  8
LC-010-005-----0
  6
CONTINUOUS
  5
1E5
 10
698.936747
 20
599.311303
 30
0.0
 11
694.936912
 21
603.311139
 31
0.0
  0
LINE
  8
LC-010-005-----0
  6
CONTINUOUS
  5
1E6
 10
696.29476
 20
599.124863
 30
0.0
 11
692.108485
 21
603.311139
 31
0.0
  0
LINE
  8
LC-010-005-----0
  6
CONTINUOUS
  5
1E7
 10
696.184089
 20
596.407107
 30
0.0
 11
693.82508
 21
598.766116
 31
0.0
  0
LINE
  8
LC-010-005-----0
  6
CONTINUOUS
  5
1E8
 10
693.280058
 20
599.311138
 30
0.0
 11
689.280058
 21
603.311139
 31
0.0
  0
LINE
  8
LC-010-005-----0
  6
CONTINUOUS
  5
1E9
 10
696.184089
 20
593.57868
 30
0.0
 11
693.981509
 21
595.78126
 31
0.0
  0
LINE
  8
LC-010-005-----0
  6
CONTINUOUS
  5
1EA
 10
690.45163
 20
599.311138
 30
0.0
 11
686.540017
 21
603.222752
 31
0.0
  0
LINE
  8
LC-010-005-----0
  6
CONTINUOUS
  5
1EB
 10
695.123203
 20
591.811139
 30
0.0
 11
694.137939
 21
592.796403
 31
0.0
  0
LINE
  8
LC-010-005-----0
  6
CONTINUOUS
  5
1EC
 10
687.623203
 20
599.311139
 30
0.0
 11
684.845962
 21
602.08838
 31
0.0
  0
LINE
  8
LC-010-005-----0
  6
CONTINUOUS
  5
1ED
 10
686.741982
 20
597.363933
 30
0.0
 11
684.262863
 21
599.843051
 31
0.0
  0
LINE
  8
LC-010-005-----0
  6
CONTINUOUS
  5
1EE
 10
686.601132
 20
594.676356
 30
0.0
 11
684.262863
 21
597.014624
 31
0.0
  0
LINE
  8
LC-010-005-----0
  6
CONTINUOUS
  5
1EF
 10
686.460282
 20
591.988779
 30
0.0
 11
684.262863
 21
594.186197
 31
0.0
  0
LINE
  8
LC-010-005-----0
  6
CONTINUOUS
  5
1F0
 10
686.319432
 20
589.301201
 30
0.0
 11
684.262863
 21
591.35777
 31
0.0
  0
ENDBLK
  8
0
  5
1F1
  0
BLOCK
  8
0
  5
1F3
  2
*X16
 70
    65
 10
686.733442
 20
588.811139
 30
0.0
  3
*X16
  0
LINE
  8
LC-010-005-----0
  6
CONTINUOUS
  5
1F4
 10
693.462942
 20
588.811139
 30
0.0
 11
694.197022
 21
589.545218
 31
0.0
  0
LINE
  8
LC-010-005-----0
  6
DASHED
  5
1F5
 10
692.532811
 20
590.709434
 30
0.0
 11
694.063327
 21
592.239951
 31
0.0
  0
LINE
  8
LC-010-005-----0
  6
DASHED
  5
1F6
 10
692.462386
 20
592.053223
 30
0.0
 11
693.99648
 21
593.587317
 31
0.0
  0
LINE
  8
LC-010-005-----0
  6
CONTINUOUS
  5
1F7
 10
686.751273
 20
589.170537
 30
0.0
 11
688.442032
 21
590.861297
 31
0.0
  0
LINE
  8
LC-010-005-----0
  6
CONTINUOUS
  5
1F8
 10
692.321536
 20
594.7408
 30
0.0
 11
693.862785
 21
596.282049
 31
0.0
  0
LINE
  8
LC-010-005-----0
  6
CONTINUOUS
  5
1F9
 10
686.8251
 20
590.658578
 30
0.0
 11
688.520247
 21
592.353725
 31
0.0
  0
LINE
  8
LC-010-005-----0
  6
CONTINUOUS
  5
1FA
 10
692.251111
 20
596.084589
 30
0.0
 11
693.720536
 21
597.554014
 31
0.0
  0
LINE
  8
LC-010-005-----0
  6
DASHED
  5
1FB
 10
686.972754
 20
593.634659
 30
0.0
 11
688.676677
 21
595.338582
 31
0.0
  0
LINE
  8
LC-010-005-----0
  6
DASHED
  5
1FC
 10
690.649234
 20
597.311139
 30
0.0
 11
692.407
 21
599.068905
 31
0.0
  0
LINE
  8
LC-010-005-----0
  6
DASHED
  5
1FD
 10
687.046581
 20
595.122699
 30
0.0
 11
688.754892
 21
596.83101
 31
0.0
  0
LINE
  8
LC-010-005-----0
  6
DASHED
  5
1FE
 10
689.234623
 20
597.310742
 30
0.0
 11
691.23502
 21
599.311139
 31
0.0
  0
ENDBLK
  8
0
  5
1FF
  0
BLOCK
  8
0
  5
201
  2
BLK3
 70
    64
 10
0.0
 20
0.0
 30
0.0
  3
BLK3
  0
ENDBLK
  8
0
  5
202
  0
BLOCK
  8
0
  5
204
  2
BLK4
 70
    64
 10
0.0
 20
0.0
 30
0.0
  3
BLK4
  0
ENDBLK
  8
0
  5
205
  0
BLOCK
  8
0
  5
207
  2
BLK5
 70
    64
 10
0.0
 20
0.0
 30
0.0
  3
BLK5
  0
ENDBLK
  8
0
  5
208
  0
ENDSEC
  0
SECTION
  2
ENTITIES
  0
VIEWPORT
  8
LC-000
  5
2F7
 67
     1
 68
     1
 10
420.0
 20
297.0
 30
0.0
 40
840.0
 41
594.0
 69
     1
1001
ACAD
1000
MVIEW
1002
{
1070
    16
1010
0.0
1020
0.0
1030
0.0
1010
0.0
1020
0.0
1030
1.0
1040
0.0
1040
594.0
1040
420.0
1040
297.0
1040
50.0
1040
0.0
1040
0.0
1070
     0
1070
   100
1070
     1
1070
     1
1070
     0
1070
     0
1070
     0
1070
     0
1040
0.0
1040
0.0
1040
0.0
1040
1.0
1040
1.0
1040
0.0
1040
0.0
1070
     0
1002
{
1002
}
1002
}
  0
VIEWPORT
  8
0
  5
2F8
 67
     1
 68
     1
 10
0.0
 20
0.0
 30
0.0
 40
0.0
 41
0.0
 69
     1
1001
ACAD
1000
MVIEW
1002
{
1070
    16
1010
0.0
1020
0.0
1030
0.0
1010
0.0
1020
0.0
1030
1.0
1040
0.0
1040
594.0
1040
0.0
1040
0.0
1040
50.0
1040
0.0
1040
0.0
1070
     0
1070
   100
1070
     0
1070
     1
1070
     0
1070
     0
1070
     0
1070
     0
1040
0.0
1040
0.0
1040
0.0
1040
0.5
1040
0.5
1040
0.5
1040
0.5
1070
     0
1002
{
1002
}
1002
}
  0
INSERT
  8
0
  5
20A
  2
SYM1
 10
778.335274
 20
1865.143847
 30
0.0
  0
DIMENSION
  8
0
  5
20B
  2
*D1
 10
782.825697
 20
364.0
 30
0.0
 11
782.825697
 21
364.0
 31
0.0
  1
315
 13
625.738602
 23
425.366237
 33
0.0
 14
939.912791
 24
414.646692
 34
0.0
  3
LC-DIM-L-0090-02-02
  0
INSERT
  8
0
  5
20C
  2
SYM2
 10
1356.381777
 20
827.598303
 30
0.0
  0
INSERT
  8
0
  5
20D
  2
*X3
 10
625.738602
 20
551.807987
 30
0.0
  0
INSERT
  8
0
  5
20E
  2
*X4
 10
625.738602
 20
408.315414
 30
0.0
  0
INSERT
  8
0
  5
20F
  2
*X5
 10
863.384855
 20
534.273234
 30
0.0
  0
INSERT
  8
0
  5
210
  2
*X6
 10
634.668065
 20
554.977573
 30
0.0
  0
INSERT
  8
0
  5
211
  2
*X7
 10
634.668065
 20
424.18332
 30
0.0
  0
INSERT
  8
0
  5
213
  2
BLK1
 10
0.0
 20
0.0
 30
0.0
  0
INSERT
  8
0
  5
214
  2
BLK2
 10
0.0
 20
0.0
 30
0.0
  0
DIMENSION
  8
0
  5
215
  2
*D10
 10
602.0
 20
491.911127
 30
0.0
 11
602.0
 21
491.911127
 31
0.0
  1
DN125
 13
625.738602
 23
555.858779
 33
0.0
 14
625.738602
 24
427.963474
 34
0.0
 50
90.0
  3
LC-DIM-L-0090-02-02
  0
DIMENSION
  8
0
  5
216
  2
*D11
 10
1008.0
 20
475.793852
 30
0.0
 11
1008.0
 21
475.793852
 31
0.0
  1
DN125
 13
934.94229
 23
538.273234
 33
0.0
 14
934.940867
 24
413.31447
 34
0.0
 50
90.0
  3
LC-DIM-L-0090-02-02
  0
DIMENSION
  8
0
  5
217
  2
*D12
 10
920.0
 20
571.816
 30
0.0
 11
920.0
 21
571.816
 31
0.0
  1
16,5
 13
712.79531
 23
491.911127
 33
0.0
 14
867.364106
 24
475.794043
 34
0.0
 50
90.0
  3
LC-DIM-L-0090-02-02
  0
INSERT
  8
0
  5
218
  2
SYM3
 10
1356.381777
 20
827.598303
 30
0.0
  0
INSERT
  8
0
  5
219
  2
*X14
 10
862.602848
 20
588.811139
 30
0.0
  0
INSERT
  8
0
  5
21A
  2
*X15
 10
684.262863
 20
588.311139
 30
0.0
  0
INSERT
  8
0
  5
21B
  2
*X16
 10
686.733442
 20
588.811139
 30
0.0
  0
INSERT
  8
0
  5
21C
  2
BLK3
 10
0.0
 20
0.0
 30
0.0
  0
INSERT
  8
0
  5
21D
  2
BLK4
 10
0.0
 20
0.0
 30
0.0
  0
INSERT
  8
0
  5
21E
  2
BLK5
 10
0.0
 20
0.0
 30
0.0
  0
LINE
  8
LC-002-002-----0
  6
CONTINUOUS
  5
220
 10
863.384855
 20
534.273234
 30
0.0
 11
939.912791
 21
534.273234
 31
0.0
  0
LINE
  8
LC-003-100-D03-0
  6
CONTINUOUS
  5
222
 10
687.858752
 20
559.111122
 30
0.0
 11
687.340336
 21
588.811139
 31
0.0
  0
LINE
  8
LC-002-002-----0
  6
CONTINUOUS
  5
223
 10
644.171878
 20
559.638933
 30
0.0
 11
634.668065
 21
559.638933
 31
0.0
  0
LINE
  8
LC-002-002-----0
  6
CONTINUOUS
  5
224
 10
634.681637
 20
557.41926
 30
0.0
 11
634.66769
 21
559.638933
 31
0.0
  0
LINE
  8
LC-004-100-D01-0
  6
CONTINUOUS
  5
226
 10
695.071227
 20
432.064143
 30
0.0
 11
695.398893
 21
413.292165
 31
0.0
  0
LINE
  8
LC-005-001-----0
  6
CONTINUOUS
  5
228
 10
869.330211
 20
588.811139
 30
0.0
 11
868.33596
 21
588.811139
 31
0.0
  0
LINE
  8
LC-002-002-----0
  6
CONTINUOUS
  5
229
 10
644.185449
 20
557.478975
 30
0.0
 11
644.171878
 21
559.638933
 31
0.0
  0
LINE
  8
LC-004-100-D01-0
  6
CONTINUOUS
  5
22A
 10
861.34572
 20
417.315659
 30
0.0
 11
864.401379
 21
592.577477
 31
0.0
  0
LINE
  8
LC-004-100-D01-0
  6
CONTINUOUS
  5
22B
 10
692.18683
 20
597.311139
 30
0.0
 11
695.071227
 21
432.064143
 31
0.0
  0
LINE
  8
LC-002-002-----0
  6
CONTINUOUS
  5
22C
 10
636.391321
 20
556.446445
 30
0.0
 11
634.687816
 21
556.435741
 31
0.0
  0
LINE
  8
LC-002-002-----0
  6
CONTINUOUS
  5
22D
 10
643.126307
 20
555.179747
 30
0.0
 11
642.767346
 21
556.486507
 31
0.0
  0
LINE
  8
LC-002-002-----0
  6
CONTINUOUS
  5
22E
 10
639.938294
 20
555.159716
 30
0.0
 11
639.579334
 21
556.466476
 31
0.0
  0
ARC
  8
LC-006-002-RND-0
  6
CONTINUOUS
  5
230
 10
642.98745
 20
555.141604
 30
0.0
 40
0.144
 50
246.499934
 51
15.36
  0
LINE
  8
LC-003-100-D03-0
  6
CONTINUOUS
  5
231
 10
722.413559
 20
413.315659
 30
0.0
 11
866.277186
 21
413.314857
 31
0.0
  0
LINE
  8
LC-004-100-D01-0
  6
CONTINUOUS
  5
232
 10
718.910607
 20
417.315659
 30
0.0
 11
939.912791
 21
417.315659
 31
0.0
  0
ARC
  8
LC-006-002-RND-0
  6
CONTINUOUS
  5
233
 10
639.799438
 20
555.121573
 30
0.0
 40
0.144
 50
246.499934
 51
15.36
  0
ARC
  8
LC-004-100-D01-0
  6
CONTINUOUS
  5
234
 10
718.910607
 20
416.321559
 30
0.0
 40
0.9941
 50
90.0
 51
180.0
  0
ARC
  8
LC-004-100-D01-0
  6
CONTINUOUS
  5
235
 10
716.922407
 20
413.309514
 30
0.0
 40
0.9941
 50
270.0
 51
0.0
  0
ARC
  8
LC-004-100-D01-0
  6
DASHED
  5
236
 10
696.392841
 20
413.309514
 30
0.0
 40
0.9941
 50
181.0
 51
270.0
  0
ARC
  8
LC-003-100-D03-0
  6
CONTINUOUS
  5
237
 10
719.928306
 20
410.303614
 30
0.0
 40
1.9882
 50
270.0
 51
0.0
  0
ARC
  8
LC-003-100-D03-0
  6
CONTINUOUS
  5
238
 10
722.413557
 20
412.818609
 30
0.0
 40
0.49705
 50
89.99968
 51
180.0
  0
LINE
  8
LC-003-100-D03-0
  6
CONTINUOUS
  5
239
 10
721.916507
 20
410.303614
 30
0.0
 11
721.916507
 21
412.818609
 31
0.0
  0
LINE
  8
LC-003-100-D03-0
  6
CONTINUOUS
  5
23A
 10
693.421603
 20
408.315414
 30
0.0
 11
719.928306
 21
408.315414
 31
0.0
  0
LINE
  8
LC-004-100-D01-0
  6
CONTINUOUS
  5
23B
 10
717.916507
 20
491.911127
 30
0.0
 11
717.916507
 21
413.309514
 31
0.0
  0
LINE
  8
LC-004-100-D01-0
  6
CONTINUOUS
  5
23C
 10
696.392841
 20
412.315414
 30
0.0
 11
716.922407
 21
412.315414
 31
0.0
  0
LINE
  8
LC-002-002-----0
  6
CONTINUOUS
  5
23D
 10
634.687816
 20
556.435741
 30
0.0
 11
634.681637
 21
557.41926
 31
0.0
  0
LINE
  8
LC-002-002-----0
  6
CONTINUOUS
  5
23E
 10
642.767346
 20
556.486507
 30
0.0
 11
644.191629
 21
556.495456
 31
0.0
  0
LINE
  8
LC-005-001-----0
  6
CONTINUOUS
  5
23F
 10
866.277186
 20
413.314851
 30
0.0
 11
934.940867
 21
413.31447
 31
0.0
  0
LINE
  8
LC-005-001-----0
  6
CONTINUOUS
  5
240
 10
688.334588
 20
588.811139
 30
0.0
 11
687.340336
 21
588.811139
 31
0.0
  0
ARC
  8
LC-003-100-D03-0
  6
CONTINUOUS
  5
241
 10
689.254536
 20
596.811139
 30
0.0
 40
0.5
 50
90.0
 51
177.0
  0
LINE
  8
LC-003-100-D03-0
  6
CONTINUOUS
  5
242
 10
688.334588
 20
588.811139
 30
0.0
 11
688.755222
 21
596.837306
 31
0.0
  0
LINE
  8
LC-003-100-D03-0
  6
CONTINUOUS
  5
243
 10
689.254536
 20
597.311139
 30
0.0
 11
692.18683
 21
597.311139
 31
0.0
  0
LINE
  8
LC-002-002-----0
  6
CONTINUOUS
  5
244
 10
644.191629
 20
556.495456
 30
0.0
 11
644.185449
 21
557.478975
 31
0.0
  0
LINE
  8
LC-005-001-----0
  6
CONTINUOUS
  5
245
 10
864.64946
 20
597.311139
 30
0.0
 11
867.416012
 21
597.311139
 31
0.0
  0
ARC
  8
LC-005-001-----0
  6
CONTINUOUS
  5
246
 10
867.416012
 20
596.811139
 30
0.0
 40
0.5
 50
3.0
 51
90.0
  0
LINE
  8
LC-005-001-----0
  6
CONTINUOUS
  5
247
 10
868.33596
 20
588.811139
 30
0.0
 11
867.915326
 21
596.837307
 31
0.0
  0
LINE
  8
LC-003-100-D03-0
  6
CONTINUOUS
  5
248
 10
690.439757
 20
411.245666
 30
0.0
 11
690.204592
 21
424.718233
 31
0.0
  0
LINE
  8
LC-005-001-----0
  6
CONTINUOUS
  5
249
 10
868.451027
 20
538.273234
 30
0.0
 11
869.330211
 21
588.811139
 31
0.0
  0
LINE
  8
LC-002-002-----0
  6
CONTINUOUS
  5
24A
 10
636.391321
 20
556.446445
 30
0.0
 11
639.742018
 21
554.989516
 31
0.0
  0
ARC
  8
LC-003-100-D03-0
  6
CONTINUOUS
  5
24B
 10
693.421603
 20
411.297715
 30
0.0
 40
2.9823
 50
181.000001
 51
270.0
  0
LINE
  8
LC-002-002-----0
  6
CONTINUOUS
  5
24C
 10
639.579334
 20
556.466476
 30
0.0
 11
642.93003
 21
555.009547
 31
0.0
  0
LINE
  8
LC-002-002-----0
  6
CONTINUOUS
  5
24D
 10
644.171878
 20
424.18332
 30
0.0
 11
634.668065
 21
424.18332
 31
0.0
  0
LINE
  8
LC-002-002-----0
  6
CONTINUOUS
  5
24E
 10
634.681637
 20
426.402993
 30
0.0
 11
634.66769
 21
424.18332
 31
0.0
  0
LINE
  8
LC-002-002-----0
  6
CONTINUOUS
  5
24F
 10
644.185449
 20
426.343278
 30
0.0
 11
644.171878
 21
424.18332
 31
0.0
  0
LINE
  8
LC-002-002-----0
  6
CONTINUOUS
  5
250
 10
636.391321
 20
427.375808
 30
0.0
 11
634.687816
 21
427.386512
 31
0.0
  0
LINE
  8
LC-002-002-----0
  6
CONTINUOUS
  5
251
 10
643.126307
 20
428.642506
 30
0.0
 11
642.767346
 21
427.335746
 31
0.0
  0
LINE
  8
LC-002-002-----0
  6
CONTINUOUS
  5
252
 10
639.938294
 20
428.662537
 30
0.0
 11
639.579334
 21
427.355777
 31
0.0
  0
ARC
  8
LC-006-002-RND-0
  6
CONTINUOUS
  5
253
 10
642.98745
 20
428.680649
 30
0.0
 40
0.144
 50
344.64
 51
113.500066
  0
ARC
  8
LC-006-002-RND-0
  6
CONTINUOUS
  5
254
 10
639.799438
 20
428.70068
 30
0.0
 40
0.144
 50
344.64
 51
113.500066
  0
LINE
  8
LC-002-002-----0
  6
CONTINUOUS
  5
255
 10
634.687816
 20
427.386512
 30
0.0
 11
634.681637
 21
426.402993
 31
0.0
  0
LINE
  8
LC-002-002-----0
  6
CONTINUOUS
  5
256
 10
642.767346
 20
427.335746
 30
0.0
 11
644.191629
 21
427.326797
 31
0.0
  0
LINE
  8
LC-002-002-----0
  6
CONTINUOUS
  5
257
 10
644.191629
 20
427.326797
 30
0.0
 11
644.185449
 21
426.343278
 31
0.0
  0
LINE
  8
LC-002-002-----0
  6
CONTINUOUS
  5
258
 10
636.391321
 20
427.375808
 30
0.0
 11
639.742018
 21
428.832737
 31
0.0
  0
LINE
  8
LC-002-002-----0
  6
CONTINUOUS
  5
259
 10
639.579334
 20
427.355777
 30
0.0
 11
642.93003
 21
428.812706
 31
0.0
  0
ARC
  8
LC-006-002-RND-0
  6
CONTINUOUS
  5
25A
 10
860.150974
 20
598.823102
 30
0.0
 40
0.5
 50
0.0
 51
90.004193
  0
ARC
  8
LC-006-002-RND-0
  6
CONTINUOUS
  5
25B
 10
867.202865
 20
596.811139
 30
0.0
 40
2.5
 50
2.840313
 51
90.0
  0
ARC
  8
LC-006-002-RND-0
  6
CONTINUOUS
  5
25C
 10
865.502831
 20
596.811139
 30
0.0
 40
2.5
 50
90.0
 51
177.159687
  0
LINE
  8
LC-002-002-----0
  6
CONTINUOUS
  5
25D
 10
862.602848
 20
588.811139
 30
0.0
 11
863.005902
 21
596.93502
 31
0.0
  0
ARC
  8
LC-003-100-D03-0
  6
CONTINUOUS
  5
25E
 10
634.209103
 20
424.308364
 30
0.0
 40
4.970501
 50
180.0
 51
267.000005
  0
LINE
  8
LC-003-100-D03-0
  6
CONTINUOUS
  5
25F
 10
646.03776
 20
418.711129
 30
0.0
 11
649.501862
 21
424.711129
 31
0.0
  0
LINE
  8
LC-003-100-D03-0
  6
CONTINUOUS
  5
260
 10
646.03776
 20
418.711129
 30
0.0
 11
633.948967
 21
419.344675
 31
0.0
  0
LINE
  8
LC-004-100-D01-0
  6
CONTINUOUS
  5
261
 10
644.738208
 20
491.914677
 30
0.0
 11
644.738208
 21
558.876477
 31
0.0
  0
LINE
  8
LC-004-100-D01-0
  6
CONTINUOUS
  5
262
 10
644.738208
 20
491.914677
 30
0.0
 11
644.738208
 21
424.952879
 31
0.0
  0
ARC
  8
LC-004-100-D01-0
  6
CONTINUOUS
  5
263
 10
642.750008
 20
424.945776
 30
0.0
 40
1.9882
 50
270.000017
 51
0.0
  0
LINE
  8
LC-004-100-D01-0
  6
CONTINUOUS
  5
264
 10
642.750008
 20
422.957576
 30
0.0
 11
635.350412
 21
423.34537
 31
0.0
  0
LINE
  8
LC-004-100-D01-0
  6
CONTINUOUS
  5
265
 10
635.350412
 20
423.34537
 30
0.0
 11
631.008491
 21
427.68729
 31
0.0
  0
LINE
  8
LC-003-100-D03-0
  6
CONTINUOUS
  5
266
 10
625.738602
 20
425.366237
 30
0.0
 11
625.738602
 21
427.963474
 31
0.0
  0
LINE
  8
LC-004-100-D01-0
  6
CONTINUOUS
  5
267
 10
631.008491
 20
427.68729
 30
0.0
 11
625.738602
 21
427.963474
 31
0.0
  0
LINE
  8
LC-003-100-D03-0
  6
CONTINUOUS
  5
268
 10
629.238602
 20
424.711127
 30
0.0
 11
626.209639
 21
424.869869
 31
0.0
  0
ARC
  8
LC-003-100-D03-0
  6
CONTINUOUS
  5
269
 10
626.235652
 20
425.366237
 30
0.0
 40
0.49705
 50
180.0
 51
267.0
  0
LINE
  8
LC-003-100-D03-0
  6
CONTINUOUS
 62
     7
  5
26A
 10
629.238602
 20
424.308364
 30
0.0
 11
629.238602
 21
424.711127
 31
0.0
  0
ARC
  8
LC-004-100-D01-0
  6
CONTINUOUS
  5
26B
 10
642.750008
 20
558.876477
 30
0.0
 40
1.9882
 50
0.0
 51
89.999983
  0
LINE
  8
LC-003-100-D03-0
  6
CONTINUOUS
  5
26C
 10
646.03776
 20
565.111125
 30
0.0
 11
633.948967
 21
564.477579
 31
0.0
  0
LINE
  8
LC-003-100-D03-0
  6
CONTINUOUS
  5
26D
 10
646.03776
 20
565.111125
 30
0.0
 11
649.501862
 21
559.111124
 31
0.0
  0
LINE
  8
LC-004-100-D01-0
  6
CONTINUOUS
  5
26E
 10
642.750008
 20
560.864677
 30
0.0
 11
635.350412
 21
560.476883
 31
0.0
  0
LINE
  8
LC-004-100-D01-0
  6
CONTINUOUS
  5
26F
 10
635.350412
 20
560.476883
 30
0.0
 11
631.008491
 21
556.134963
 31
0.0
  0
LINE
  8
LC-003-100-D03-0
  6
CONTINUOUS
  5
270
 10
625.738602
 20
558.456016
 30
0.0
 11
625.738602
 21
555.858779
 31
0.0
  0
ARC
  8
LC-003-100-D03-0
  6
CONTINUOUS
  5
271
 10
626.235652
 20
558.456016
 30
0.0
 40
0.49705
 50
93.0
 51
180.0
  0
LINE
  8
LC-003-100-D03-0
  6
CONTINUOUS
 62
     7
  5
272
 10
629.238602
 20
559.513891
 30
0.0
 11
629.238602
 21
559.111126
 31
0.0
  0
LINE
  8
LC-003-100-D03-0
  6
CONTINUOUS
  5
273
 10
629.238602
 20
559.111126
 30
0.0
 11
626.209639
 21
558.952385
 31
0.0
  0
LINE
  8
LC-004-100-D01-0
  6
CONTINUOUS
  5
274
 10
631.008491
 20
556.134963
 30
0.0
 11
625.738602
 21
555.858779
 31
0.0
  0
ARC
  8
LC-003-100-D03-0
  6
CONTINUOUS
  5
275
 10
634.209103
 20
559.513891
 30
0.0
 40
4.970501
 50
92.999995
 51
180.0
  0
LINE
  8
LC-004-100-D01-0
  6
CONTINUOUS
  5
276
 10
684.738208
 20
554.864675
 30
0.0
 11
684.738208
 21
428.96468
 31
0.0
  0
LINE
  8
LC-004-100-D01-0
  6
CONTINUOUS
  5
277
 10
690.738208
 20
430.575231
 30
0.0
 11
690.738208
 21
553.256981
 31
0.0
  0
LINE
  8
LC-004-100-D01-0
  6
CONTINUOUS
  5
278
 10
690.738208
 20
432.064144
 30
0.0
 11
695.071227
 21
432.064144
 31
0.0
  0
LINE
  8
LC-004-100-D01-0
  6
CONTINUOUS
  5
279
 10
684.738208
 20
428.957578
 30
0.0
 11
690.738208
 21
430.565271
 31
0.0
  0
LINE
  8
LC-004-100-D01-0
  6
CONTINUOUS
  5
27A
 10
684.738208
 20
554.864675
 30
0.0
 11
690.738208
 21
553.256981
 31
0.0
  0
LINE
  8
LC-004-100-D01-0
  6
CONTINUOUS
  5
27B
 10
691.205591
 20
551.807987
 30
0.0
 11
692.981073
 21
551.808955
 31
0.0
  0
ARC
  8
LC-004-100-D01-0
  6
CONTINUOUS
  5
27C
 10
691.205319
 20
552.307987
 30
0.0
 40
0.5
 50
180.031213
 51
270.031213
  0
LINE
  8
LC-003-100-D03-0
  6
CONTINUOUS
  5
27D
 10
690.204592
 20
424.718232
 30
0.0
 11
649.501862
 21
424.718231
 31
0.0
  0
LINE
  8
LC-004-100-D01-0
  6
CONTINUOUS
  5
27E
 10
684.738208
 20
428.96468
 30
0.0
 11
644.738208
 21
428.964678
 31
0.0
  0
LINE
  8
LC-003-100-D03-0
  6
CONTINUOUS
  5
27F
 10
687.858753
 20
559.111123
 30
0.0
 11
649.501862
 21
559.111124
 31
0.0
  0
LINE
  8
LC-004-100-D01-0
  6
CONTINUOUS
  5
280
 10
684.738208
 20
554.864675
 30
0.0
 11
644.738208
 21
554.864677
 31
0.0
  0
LINE
  8
LC-003-100-D03-0
  6
CONTINUOUS
  5
281
 10
625.738602
 20
555.858779
 30
0.0
 11
625.738602
 21
427.963474
 31
0.0
  0
LINE
  8
LC-001-100-D02-0
  6
DASHDOT
 62
     2
  5
283
 10
625.738602
 20
491.911127
 30
0.0
 11
712.79531
 21
491.911127
 31
0.0
  0
LINE
  8
LC-002-002-----0
  6
CONTINUOUS
  5
284
 10
864.203994
 20
588.811139
 30
0.0
 11
862.602848
 21
588.811139
 31
0.0
  0
LINE
  8
LC-003-100-D03-0
  6
CONTINUOUS
  5
285
 10
864.203994
 20
588.811139
 30
0.0
 11
864.64946
 21
597.311139
 31
0.0
  0
LINE
  8
LC-002-002-----0
  6
CONTINUOUS
  5
286
 10
870.102848
 20
588.811139
 30
0.0
 11
869.699794
 21
596.93502
 31
0.0
  0
LINE
  8
LC-002-002-----0
  6
CONTINUOUS
  5
287
 10
868.501702
 20
588.811139
 30
0.0
 11
870.102848
 21
588.811139
 31
0.0
  0
LINE
  8
LC-001-100-D02-0
  6
DASHDOT
 62
     2
  5
288
 10
939.912791
 20
475.794043
 30
0.0
 11
867.364106
 21
475.794043
 31
0.0
  0
LINE
  8
LC-003-100-D03-0
  6
CONTINUOUS
  5
289
 10
939.912791
 20
414.646692
 30
0.0
 11
939.912791
 21
536.941392
 31
0.0
  0
LINE
  8
LC-003-100-D03-0
  6
CONTINUOUS
  5
28A
 10
868.451027
 20
538.273234
 30
0.0
 11
934.94229
 21
538.273234
 31
0.0
  0
LINE
  8
LC-003-100-D03-0
  6
CONTINUOUS
  5
28B
 10
934.94229
 20
538.273234
 30
0.0
 11
939.912791
 21
536.941392
 31
0.0
  0
LINE
  8
LC-003-100-D03-0
  6
CONTINUOUS
  5
28C
 10
934.940867
 20
413.31447
 30
0.0
 11
939.912791
 21
414.646692
 31
0.0
  0
LINE
  8
LC-002-002-----0
  6
CONTINUOUS
  5
28D
 10
861.150974
 20
591.811139
 30
0.0
 11
862.172234
 21
591.811139
 31
0.0
  0
LINE
  8
LC-002-002-----0
  6
CONTINUOUS
  5
28E
 10
871.043228
 20
588.311139
 30
0.0
 11
872.073427
 21
588.311139
 31
0.0
  0
LINE
  8
LC-012-007-KH--0
  5
290
 10
847.575961
 20
603.321138
 30
0.0
 11
847.650955
 21
603.321138
 31
0.0
  0
LINE
  8
LC-002-002-----0
  6
CONTINUOUS
  5
291
 10
691.33346
 20
599.311139
 30
0.0
 11
689.633425
 21
599.311139
 31
0.0
  0
LINE
  8
LC-003-100-D03-0
  6
CONTINUOUS
  5
292
 10
692.632297
 20
588.811139
 30
0.0
 11
692.211663
 21
596.837306
 31
0.0
  0
ARC
  8
LC-006-002-RND-0
  6
CONTINUOUS
  5
293
 10
689.633425
 20
596.811139
 30
0.0
 40
2.5
 50
90.0
 51
177.159687
  0
ARC
  8
LC-006-002-RND-0
  6
CONTINUOUS
  5
294
 10
691.33346
 20
596.811139
 30
0.0
 40
2.5
 50
2.840313
 51
90.0
  0
LINE
  8
LC-002-002-----0
  6
CONTINUOUS
  5
295
 10
686.292377
 20
588.784971
 30
0.0
 11
686.819198
 21
598.837306
 31
0.0
  0
ARC
  8
LC-006-002-RND-0
  6
CONTINUOUS
  5
296
 10
863.514256
 20
598.811139
 30
0.0
 40
0.5
 50
90.0
 51
177.0
  0
ARC
  8
LC-006-002-RND-0
  6
CONTINUOUS
  5
297
 10
687.318513
 20
598.811139
 30
0.0
 40
0.5
 50
90.0
 51
177.0
  0
ARC
  8
LC-006-002-RND-0
  6
CONTINUOUS
  5
298
 10
693.322034
 20
598.811139
 30
0.0
 40
0.5
 50
3.0
 51
90.0
  0
ARC
  8
LC-006-002-RND-0
  6
CONTINUOUS
  5
299
 10
696.684089
 20
598.811139
 30
0.0
 40
0.5
 50
90.0
 51
180.0
  0
LINE
  8
LC-002-002-----0
  6
CONTINUOUS
  5
29A
 10
694.664057
 20
591.811139
 30
0.0
 11
695.684089
 21
591.811139
 31
0.0
  0
LINE
  8
LC-002-002-----0
  6
CONTINUOUS
  5
29B
 10
684.762863
 20
588.311139
 30
0.0
 11
685.793063
 21
588.311139
 31
0.0
  0
LINE
  8
LC-002-002-----0
  6
CONTINUOUS
  5
29C
 10
688.334588
 20
588.811139
 30
0.0
 11
686.733442
 21
588.811139
 31
0.0
  0
LINE
  8
LC-002-002-----0
  6
CONTINUOUS
  5
29D
 10
694.164742
 20
592.284971
 30
0.0
 11
693.821349
 21
598.837306
 31
0.0
  0
LINE
  8
LC-002-002-----0
  6
CONTINUOUS
  5
29E
 10
862.671548
 20
592.284971
 30
0.0
 11
863.014942
 21
598.837306
 31
0.0
  0
LINE
  8
LC-002-002-----0
  6
CONTINUOUS
  5
29F
 10
687.318513
 20
599.311139
 30
0.0
 11
693.322034
 21
599.311139
 31
0.0
  0
LINE
  8
LC-002-002-----0
  6
CONTINUOUS
  5
2A0
 10
687.262863
 20
603.311139
 30
0.0
 11
748.492858
 21
603.311139
 31
0.0
  0
ARC
  8
LC-006-002-RND-0
  6
CONTINUOUS
  5
2A1
 10
684.762863
 20
588.811139
 30
0.0
 40
0.5
 50
180.0
 51
270.0
  0
LINE
  8
LC-002-002-----0
  6
CONTINUOUS
  5
2A2
 10
696.684089
 20
599.311139
 30
0.0
 11
860.150938
 21
599.323102
 31
0.0
  0
LINE
  8
LC-002-002-----0
  6
CONTINUOUS
  5
2A3
 10
696.184089
 20
598.811139
 30
0.0
 11
696.184089
 21
592.311139
 31
0.0
  0
LINE
  8
LC-002-002-----0
  6
CONTINUOUS
  5
2A4
 10
863.514256
 20
599.311139
 30
0.0
 11
869.517778
 21
599.311139
 31
0.0
  0
LINE
  8
LC-002-002-----0
  6
CONTINUOUS
  5
2A5
 10
860.650974
 20
598.823102
 30
0.0
 11
860.650974
 21
592.311139
 31
0.0
  0
ARC
  8
LC-006-002-RND-0
  6
CONTINUOUS
  5
2A6
 10
687.262863
 20
600.311139
 30
0.0
 40
3.0
 50
90.0
 51
180.0
  0
ARC
  8
LC-006-002-RND-0
  6
CONTINUOUS
  5
2A7
 10
695.684089
 20
592.311139
 30
0.0
 40
0.5
 50
270.0
 51
0.0
  0
LINE
  8
LC-002-002-----0
  6
CONTINUOUS
  5
2A8
 10
686.733442
 20
588.811139
 30
0.0
 11
687.136496
 21
596.93502
 31
0.0
  0
LINE
  8
LC-002-002-----0
  6
CONTINUOUS
  5
2A9
 10
694.233442
 20
588.811139
 30
0.0
 11
693.830388
 21
596.93502
 31
0.0
  0
LINE
  8
LC-002-002-----0
  6
CONTINUOUS
  5
2AA
 10
692.632297
 20
588.811139
 30
0.0
 11
694.233442
 21
588.811139
 31
0.0
  0
LINE
  8
LC-002-002-----0
  6
CONTINUOUS
  5
2AB
 10
732.992858
 20
599.311139
 30
0.0
 11
741.992858
 21
599.311139
 31
0.0
  0
LINE
  8
LC-002-002-----0
  6
DASHDOT
 62
     2
  5
2AC
 10
724.335757
 20
603.311139
 30
0.0
 11
724.335757
 21
630.811139
 31
0.0
  0
LINE
  8
LC-002-002-----0
  6
CONTINUOUS
  5
2AD
 10
714.835757
 20
603.311139
 30
0.0
 11
714.835757
 21
619.995507
 31
0.0
  0
ARC
  8
LC-002-002-----0
  6
CONTINUOUS
  5
2AE
 10
719.835757
 20
624.194486
 30
0.0
 40
2.0
 50
280.339949
 51
0.0
  0
ARC
  8
LC-002-002-----0
  6
CONTINUOUS
  5
2AF
 10
712.835757
 20
587.561138
 30
0.0
 40
41.0
 50
79.660109
 51
100.339891
  0
ARC
  8
LC-002-002-----0
  6
CONTINUOUS
  5
2B0
 10
705.835757
 20
625.927791
 30
0.0
 40
2.0
 50
100.339872
 51
180.0
  0
ARC
  8
LC-002-002-----0
  6
CONTINUOUS
  5
2B1
 10
712.835757
 20
662.561139
 30
0.0
 40
41.0
 50
259.660109
 51
280.339949
  0
ARC
  8
LC-002-002-----0
  6
CONTINUOUS
  5
2B2
 10
705.835757
 20
624.194486
 30
0.0
 40
2.0
 50
180.0
 51
259.659957
  0
ARC
  8
LC-002-002-----0
  6
CONTINUOUS
  5
2B3
 10
705.835757
 20
626.09137
 30
0.0
 40
2.0
 50
106.726782
 51
180.0
  0
ARC
  8
LC-002-002-----0
  6
CONTINUOUS
  5
2B4
 10
705.835757
 20
624.030907
 30
0.0
 40
2.0
 50
180.0
 51
253.273047
  0
LINE
  8
LC-002-002-----0
  6
CONTINUOUS
  5
2B5
 10
703.835757
 20
624.030907
 30
0.0
 11
703.835757
 21
626.09137
 31
0.0
  0
LINE
  8
LC-002-002-----0
  6
CONTINUOUS
  5
2B6
 10
733.835961
 20
603.311306
 30
0.0
 11
733.835971
 21
619.995675
 31
0.0
  0
ARC
  8
LC-002-002-----0
  6
CONTINUOUS
  5
2B7
 10
735.83595
 20
587.561305
 30
0.0
 40
41.0
 50
79.660072
 51
100.339835
  0
ARC
  8
LC-002-002-----0
  6
CONTINUOUS
  5
2B8
 10
728.835975
 20
625.927961
 30
0.0
 40
2.0
 50
100.339835
 51
179.999963
  0
ARC
  8
LC-002-002-----0
  6
CONTINUOUS
  5
2B9
 10
728.835974
 20
624.194657
 30
0.0
 40
2.0
 50
179.999963
 51
259.659995
  0
ARC
  8
LC-002-002-----0
  6
CONTINUOUS
  5
2BA
 10
735.835999
 20
662.561305
 30
0.0
 40
41.0
 50
259.65992
 51
280.339853
  0
LINE
  8
LC-002-002-----0
  6
CONTINUOUS
  5
2BB
 10
748.492858
 20
603.311139
 30
0.0
 11
869.503427
 21
603.311139
 31
0.0
  0
ARC
  8
LC-006-002-RND-0
  6
CONTINUOUS
  5
2BC
 10
862.172234
 20
592.311139
 30
0.0
 40
0.5
 50
270.0
 51
357.0
  0
ARC
  8
LC-006-002-RND-0
  6
CONTINUOUS
  5
2BD
 10
694.664057
 20
592.311139
 30
0.0
 40
0.5
 50
183.0
 51
270.0
  0
ARC
  8
LC-006-002-RND-0
  6
CONTINUOUS
  5
2BE
 10
861.150974
 20
592.311139
 30
0.0
 40
0.5
 50
180.0
 51
270.0
  0
LINE
  8
LC-002-002-----0
  6
CONTINUOUS
  5
2BF
 10
684.262863
 20
600.311139
 30
0.0
 11
684.262863
 21
588.811139
 31
0.0
  0
ARC
  8
LC-002-002-----0
  6
CONTINUOUS
  5
2C0
 10
742.835975
 20
625.927952
 30
0.0
 40
2.0
 50
359.999963
 51
79.659997
  0
ARC
  8
LC-002-002-----0
  6
CONTINUOUS
  5
2C1
 10
724.335757
 20
564.532292
 30
0.0
 40
66.278846
 50
73.273199
 51
106.726782
  0
ARC
  8
LC-002-002-----0
  6
CONTINUOUS
  5
2C2
 10
742.835757
 20
626.09137
 30
0.0
 40
2.0
 50
0.0
 51
73.273199
  0
ARC
  8
LC-006-002-RND-0
  6
CONTINUOUS
  5
2C3
 10
685.793063
 20
588.811139
 30
0.0
 40
0.5
 50
270.0
 51
357.0
  0
LINE
  8
LC-002-002-----0
  6
CONTINUOUS
  5
2C4
 10
872.573427
 20
600.311139
 30
0.0
 11
872.573427
 21
588.811139
 31
0.0
  0
ARC
  8
LC-006-002-RND-0
  6
CONTINUOUS
  5
2C5
 10
869.573427
 20
600.311139
 30
0.0
 40
3.0
 50
0.0
 51
90.0
  0
ARC
  8
LC-006-002-RND-0
  6
CONTINUOUS
  5
2C6
 10
872.073427
 20
588.811139
 30
0.0
 40
0.5
 50
270.0
 51
0.0
  0
LINE
  8
LC-002-002-----0
  6
CONTINUOUS
  5
2C7
 10
870.543913
 20
588.784971
 30
0.0
 11
870.017092
 21
598.837306
 31
0.0
  0
ARC
  8
LC-006-002-RND-0
  6
CONTINUOUS
  5
2C8
 10
869.517778
 20
598.811139
 30
0.0
 40
0.5
 50
3.0
 51
90.0
  0
ARC
  8
LC-006-002-RND-0
  6
CONTINUOUS
  5
2C9
 10
871.043228
 20
588.811139
 30
0.0
 40
0.5
 50
183.0
 51
270.0
  0
ARC
  8
LC-002-002-----0
  6
CONTINUOUS
  5
2CA
 10
742.835974
 20
624.194648
 30
0.0
 40
2.0
 50
280.339912
 51
359.999963
  0
ARC
  8
LC-002-002-----0
  6
CONTINUOUS
  5
2CB
 10
724.335757
 20
685.589985
 30
0.0
 40
66.278846
 50
253.273047
 51
286.726801
  0
ARC
  8
LC-002-002-----0
  6
CONTINUOUS
  5
2CC
 10
742.835757
 20
624.030907
 30
0.0
 40
2.0
 50
286.72686
 51
0.0
  0
LINE
  8
LC-002-002-----0
  6
CONTINUOUS
  5
2CD
 10
744.835757
 20
624.030907
 30
0.0
 11
744.835757
 21
626.09137
 31
0.0
  0
ARC
  8
LC-002-002-----0
  6
CONTINUOUS
  5
2CE
 10
719.835757
 20
625.927791
 30
0.0
 40
2.0
 50
0.0
 51
79.660109
  0
ARC
  8
LC-002-002-----0
  6
CONTINUOUS
  5
2CF
 10
722.835757
 20
626.561139
 30
0.0
 40
1.0
 50
90.0
 51
179.999848
  0
LINE
  8
LC-002-002-----0
  6
CONTINUOUS
  5
2D0
 10
725.835757
 20
627.561139
 30
0.0
 11
722.835757
 21
627.561139
 31
0.0
  0
ARC
  8
LC-002-002-----0
  6
CONTINUOUS
  5
2D1
 10
725.835757
 20
626.561139
 30
0.0
 40
1.0
 50
0.0
 51
90.0
  0
LINE
  8
LC-002-002-----0
  6
CONTINUOUS
  5
2D2
 10
726.835757
 20
623.561139
 30
0.0
 11
726.835757
 21
626.561139
 31
0.0
  0
ARC
  8
LC-002-002-----0
  6
CONTINUOUS
  5
2D3
 10
725.835757
 20
623.561139
 30
0.0
 40
1.0
 50
270.000058
 51
0.0
  0
LINE
  8
LC-002-002-----0
  6
CONTINUOUS
  5
2D4
 10
721.835757
 20
626.561139
 30
0.0
 11
721.835757
 21
623.561139
 31
0.0
  0
ARC
  8
LC-002-002-----0
  6
CONTINUOUS
  5
2D5
 10
722.835757
 20
623.561139
 30
0.0
 40
1.0
 50
180.0
 51
270.000058
  0
LINE
  8
LC-002-002-----0
  6
CONTINUOUS
  5
2D6
 10
722.835757
 20
622.561139
 30
0.0
 11
725.835757
 21
622.561139
 31
0.0
  0
LINE
  8
LC-002-002-----0
  6
DASHDOT
 62
     2
  5
2D7
 10
832.334791
 20
603.311139
 30
0.0
 11
832.334791
 21
630.811139
 31
0.0
  0
LINE
  8
LC-002-002-----0
  6
CONTINUOUS
  5
2D8
 10
822.834791
 20
603.311139
 30
0.0
 11
822.834791
 21
619.995507
 31
0.0
  0
ARC
  8
LC-002-002-----0
  6
CONTINUOUS
  5
2D9
 10
827.834791
 20
624.194486
 30
0.0
 40
2.0
 50
280.339949
 51
0.0
  0
ARC
  8
LC-002-002-----0
  6
CONTINUOUS
  5
2DA
 10
820.834791
 20
587.561138
 30
0.0
 40
41.0
 50
79.660109
 51
100.339891
  0
ARC
  8
LC-002-002-----0
  6
CONTINUOUS
  5
2DB
 10
813.834791
 20
625.927791
 30
0.0
 40
2.0
 50
100.339872
 51
180.0
  0
ARC
  8
LC-002-002-----0
  6
CONTINUOUS
  5
2DC
 10
820.834791
 20
662.561139
 30
0.0
 40
41.0
 50
259.660109
 51
280.339949
  0
ARC
  8
LC-002-002-----0
  6
CONTINUOUS
  5
2DD
 10
813.834791
 20
624.194486
 30
0.0
 40
2.0
 50
180.0
 51
259.659957
  0
ARC
  8
LC-002-002-----0
  6
CONTINUOUS
  5
2DE
 10
813.834791
 20
626.09137
 30
0.0
 40
2.0
 50
106.726782
 51
180.0
  0
ARC
  8
LC-002-002-----0
  6
CONTINUOUS
  5
2DF
 10
813.834791
 20
624.030907
 30
0.0
 40
2.0
 50
180.0
 51
253.273047
  0
LINE
  8
LC-002-002-----0
  6
CONTINUOUS
  5
2E0
 10
811.834791
 20
624.030907
 30
0.0
 11
811.834791
 21
626.09137
 31
0.0
  0
LINE
  8
LC-002-002-----0
  6
CONTINUOUS
  5
2E1
 10
841.834995
 20
603.311306
 30
0.0
 11
841.835005
 21
619.995675
 31
0.0
  0
ARC
  8
LC-002-002-----0
  6
CONTINUOUS
  5
2E2
 10
843.834984
 20
587.561305
 30
0.0
 40
41.0
 50
79.660072
 51
100.339835
  0
ARC
  8
LC-002-002-----0
  6
CONTINUOUS
  5
2E3
 10
836.835009
 20
625.927961
 30
0.0
 40
2.0
 50
100.339835
 51
179.999963
  0
ARC
  8
LC-002-002-----0
  6
CONTINUOUS
  5
2E4
 10
836.835008
 20
624.194657
 30
0.0
 40
2.0
 50
179.999963
 51
259.659995
  0
ARC
  8
LC-002-002-----0
  6
CONTINUOUS
  5
2E5
 10
843.835033
 20
662.561305
 30
0.0
 40
41.0
 50
259.65992
 51
280.339853
  0
ARC
  8
LC-002-002-----0
  6
CONTINUOUS
  5
2E6
 10
850.835009
 20
625.927952
 30
0.0
 40
2.0
 50
359.999963
 51
79.659997
  0
ARC
  8
LC-002-002-----0
  6
CONTINUOUS
  5
2E7
 10
832.334791
 20
564.532292
 30
0.0
 40
66.278846
 50
73.273199
 51
106.726782
  0
ARC
  8
LC-002-002-----0
  6
CONTINUOUS
  5
2E8
 10
850.834791
 20
626.09137
 30
0.0
 40
2.0
 50
0.0
 51
73.273199
  0
ARC
  8
LC-002-002-----0
  6
CONTINUOUS
  5
2E9
 10
850.835008
 20
624.194648
 30
0.0
 40
2.0
 50
280.339912
 51
359.999963
  0
ARC
  8
LC-002-002-----0
  6
CONTINUOUS
  5
2EA
 10
832.334791
 20
685.589985
 30
0.0
 40
66.278846
 50
253.273047
 51
286.726801
  0
ARC
  8
LC-002-002-----0
  6
CONTINUOUS
  5
2EB
 10
850.834791
 20
624.030907
 30
0.0
 40
2.0
 50
286.72686
 51
0.0
  0
LINE
  8
LC-002-002-----0
  6
CONTINUOUS
  5
2EC
 10
852.834791
 20
624.030907
 30
0.0
 11
852.834791
 21
626.09137
 31
0.0
  0
ARC
  8
LC-002-002-----0
  6
CONTINUOUS
  5
2ED
 10
827.834791
 20
625.927791
 30
0.0
 40
2.0
 50
0.0
 51
79.660109
  0
ARC
  8
LC-002-002-----0
  6
CONTINUOUS
  5
2EE
 10
830.834791
 20
626.561139
 30
0.0
 40
1.0
 50
90.0
 51
179.999848
  0
LINE
  8
LC-002-002-----0
  6
CONTINUOUS
  5
2EF
 10
833.834791
 20
627.561139
 30
0.0
 11
830.834791
 21
627.561139
 31
0.0
  0
ARC
  8
LC-002-002-----0
  6
CONTINUOUS
  5
2F0
 10
833.834791
 20
626.561139
 30
0.0
 40
1.0
 50
0.0
 51
90.0
  0
LINE
  8
LC-002-002-----0
  6
CONTINUOUS
  5
2F1
 10
834.834791
 20
623.561139
 30
0.0
 11
834.834791
 21
626.561139
 31
0.0
  0
ARC
  8
LC-002-002-----0
  6
CONTINUOUS
  5
2F2
 10
833.834791
 20
623.561139
 30
0.0
 40
1.0
 50
270.000058
 51
0.0
  0
LINE
  8
LC-002-002-----0
  6
CONTINUOUS
  5
2F3
 10
829.834791
 20
626.561139
 30
0.0
 11
829.834791
 21
623.561139
 31
0.0
  0
ARC
  8
LC-002-002-----0
  6
CONTINUOUS
  5
2F4
 10
830.834791
 20
623.561139
 30
0.0
 40
1.0
 50
180.0
 51
270.000058
  0
LINE
  8
LC-002-002-----0
  6
CONTINUOUS
  5
2F5
 10
830.834791
 20
622.561139
 30
0.0
 11
833.834791
 21
622.561139
 31
0.0
  0
ENDSEC
  0
EOF
