  0
SECTION
  2
HEADER
  9
$ACADVER
  1
AC1009
  9
$INSBASE
 10
408.121648
 20
230.266
 30
0.0
  9
$EXTMIN
 10
408.121648
 20
230.266
 30
0.0
  9
$EXTMAX
 10
1248.121648
 20
824.266
 30
0.0
  9
$LIMMIN
 10
408.121648
 20
230.266
  9
$LIMMAX
 10
1248.121648
 20
824.266
  9
$ORTHOMODE
 70
     0
  9
$REGENMODE
 70
     1
  9
$FILLMODE
 70
     1
  9
$QTEXTMODE
 70
     0
  9
$MIRRTEXT
 70
     1
  9
$DRAGMODE
 70
     2
  9
$LTSCALE
 40
2.0
  9
$OSMODE
 70
     0
  9
$ATTMODE
 70
     1
  9
$TEXTSIZE
 40
0.2
  9
$TRACEWID
 40
0.05
  9
$TEXTSTYLE
  7
STANDARD
  9
$CLAYER
  8
0
  9
$CELTYPE
  6
BYLAYER
  9
$CECOLOR
 62
     7
  9
$DIMSCALE
 40
2.0
  9
$DIMASZ
 40
3.5
  9
$DIMEXO
 40
0.0625
  9
$DIMDLI
 40
0.38
  9
$DIMRND
 40
0.0
  9
$DIMDLE
 40
0.0
  9
$DIMEXE
 40
0.18
  9
$DIMTP
 40
0.0
  9
$DIMTM
 40
0.0
  9
$DIMTXT
 40
3.5
  9
$DIMCEN
 40
0.09
  9
$DIMTSZ
 40
0.0
  9
$DIMTOL
 70
     0
  9
$DIMLIM
 70
     0
  9
$DIMTIH
 70
     1
  9
$DIMTOH
 70
     1
  9
$DIMSE1
 70
     0
  9
$DIMSE2
 70
     0
  9
$DIMTAD
 70
     1
  9
$DIMZIN
 70
     0
  9
$DIMBLK
  1

  9
$DIMASO
 70
     1
  9
$DIMSHO
 70
     1
  9
$DIMPOST
  1

  9
$DIMAPOST
  1

  9
$DIMALT
 70
     0
  9
$DIMALTD
 70
     2
  9
$DIMALTF
 40
25.4
  9
$DIMLFAC
 40
1.0
  9
$DIMTOFL
 70
     0
  9
$DIMTVP
 40
0.0
  9
$DIMTIX
 70
     0
  9
$DIMSOXD
 70
     0
  9
$DIMSAH
 70
     0
  9
$DIMBLK1
  1

  9
$DIMBLK2
  1

  9
$DIMSTYLE
  2
STANDARD
  9
$DIMCLRD
 70
     0
  9
$DIMCLRE
 70
     0
  9
$DIMCLRT
 70
     0
  9
$DIMTFAC
 40
1.0
  9
$DIMGAP
 40
0.09
  9
$LUNITS
 70
     2
  9
$LUPREC
 70
     2
  9
$AXISMODE
 70
     0
  9
$AXISUNIT
 10
0.0
 20
0.0
  9
$SKETCHINC
 40
0.1
  9
$FILLETRAD
 40
0.0
  9
$AUNITS
 70
     0
  9
$AUPREC
 70
     0
  9
$MENU
  1
acad
  9
$ELEVATION
 40
0.0
  9
$PELEVATION
 40
0.0
  9
$THICKNESS
 40
0.0
  9
$LIMCHECK
 70
     0
  9
$BLIPMODE
 70
     1
  9
$CHAMFERA
 40
0.0
  9
$CHAMFERB
 40
0.0
  9
$SKPOLY
 70
     0
  9
$TDCREATE
 40
0.000000000
  9
$TDUPDATE
 40
0.000000000
  9
$TDINDWG
 40
0.0000000000
  9
$TDUSRTIMER
 40
0.0000000000
  9
$USRTIMER
 70
     1
  9
$ANGBASE
 50
0.0
  9
$ANGDIR
 70
     0
  9
$PDMODE
 70
     0
  9
$PDSIZE
 40
0.0
  9
$PLINEWID
 40
0.0
  9
$COORDS
 70
     0
  9
$SPLFRAME
 70
     0
  9
$SPLINETYPE
 70
     6
  9
$SPLINESEGS
 70
     8
  9
$ATTDIA
 70
     0
  9
$ATTREQ
 70
     1
  9
$HANDLING
 70
     1
  9
$HANDSEED
  5
44A
  9
$SURFTAB1
 70
     6
  9
$SURFTAB2
 70
     6
  9
$SURFTYPE
 70
     6
  9
$SURFU
 70
     6
  9
$SURFV
 70
     6
  9
$UCSNAME
  2

  9
$UCSORG
 10
0.0
 20
0.0
 30
0.0
  9
$UCSXDIR
 10
1.0
 20
0.0
 30
0.0
  9
$UCSYDIR
 10
0.0
 20
1.0
 30
0.0
  9
$PUCSNAME
  2

  9
$PUCSORG
 10
0.0
 20
0.0
 30
0.0
  9
$PUCSXDIR
 10
1.0
 20
0.0
 30
0.0
  9
$PUCSYDIR
 10
0.0
 20
1.0
 30
0.0
  9
$USERI1
 70
     0
  9
$USERI2
 70
     0
  9
$USERI3
 70
     0
  9
$USERI4
 70
     0
  9
$USERI5
 70
     0
  9
$USERR1
 40
0.0
  9
$USERR2
 40
0.0
  9
$USERR3
 40
0.0
  9
$USERR4
 40
0.0
  9
$USERR5
 40
0.0
  9
$WORLDVIEW
 70
     1
  9
$SHADEDGE
 70
     3
  9
$SHADEDIF
 70
    70
  9
$TILEMODE
 70
     1
  9
$MAXACTVP
 70
    16
  9
$PINSBASE
 10
0.0
 20
0.0
 30
0.0
  9
$PLIMCHECK
 70
     0
  9
$PEXTMIN
 10
1.000000E+20
 20
1.000000E+20
 30
1.000000E+20
  9
$PEXTMAX
 10
-1.000000E+20
 20
-1.000000E+20
 30
-1.000000E+20
  9
$PLIMMIN
 10
408.121648
 20
230.266
  9
$PLIMMAX
 10
1248.121648
 20
824.266
  9
$UNITMODE
 70
     0
  9
$VISRETAIN
 70
     0
  9
$PLINEGEN
 70
     1
  9
$PSLTSCALE
 70
     0
  9
$TREEDEPTH
 70
  3020
  9
$DWGCODEPAGE
  3
dos850
  0
ENDSEC
  0
SECTION
  2
TABLES
  0
TABLE
  2
VPORT
 70
     1
  0
VPORT
  2
*ACTIVE
 70
     0
 10
0.0
 20
0.0
 11
1.0
 21
1.0
 12
420.0
 22
297.0
 13
0.0
 23
0.0
 14
1.0
 24
1.0
 15
0.0
 25
0.0
 16
0.0
 26
0.0
 36
1.0
 17
408.121648
 27
230.266
 37
0.0
 40
594.0
 41
1.604229
 42
50.0
 43
0.0
 44
0.0
 50
0.0
 51
0.0
 71
     0
 72
   100
 73
     1
 74
     1
 75
     0
 76
     0
 77
     0
 78
     0
  0
ENDTAB
  0
TABLE
  2
LTYPE
 70
     4
  0
LTYPE
  2
CONTINUOUS
 70
    64
  3
Solid line
 72
    65
 73
     0
 40
0.0
  0
LTYPE
  2
DASHED
 70
    64
  3
__ __ __ __ __
 72
    65
 73
     2
 40
6.25
 49
5.0
 49
-1.25
  0
LTYPE
  2
DASHDOT
 70
    64
  3
__ . __ . __ . __ . __
 72
    65
 73
     4
 40
7.5
 49
5.0
 49
-1.25
 49
0.0
 49
-1.25
  0
LTYPE
  2
CENTER
 70
    64
  3
__ . __ . __ . __ . __
 72
    65
 73
     4
 40
7.5
 49
5.0
 49
-1.25
 49
0.0
 49
-1.25
  0
ENDTAB
  0
TABLE
  2
LAYER
 70
    17
  0
LAYER
  2
0
 70
     0
 62
     7
  6
CONTINUOUS
  0
LAYER
  2
LC-INFO-1-2-MM-A3-0
 70
     1
 62
    -1
  6
CONTINUOUS
  0
LAYER
  2
LC-003-003-MTH-0
 70
     0
 62
     2
  6
CONTINUOUS
  0
LAYER
  2
LC-004-003-MTG-0
 70
     0
 62
     2
  6
CONTINUOUS
  0
LAYER
  2
LC-002-003-----0
 70
     0
 62
     2
  6
CONTINUOUS
  0
LAYER
  2
LC-007-005-----0
 70
     0
 62
     2
  6
CONTINUOUS
  0
LAYER
  2
LC-001-100-D02-0
 70
     0
 62
     4
  6
CONTINUOUS
  0
LAYER
  2
LC-013-000-----0
 70
     0
 62
     7
  6
CONTINUOUS
  0
LAYER
  2
LC-005-002-----0
 70
     0
 62
     1
  6
CONTINUOUS
  0
LAYER
  2
LC-006-006-MLN-0
 70
     0
 62
     2
  6
CENTER
  0
LAYER
  2
LC-008-001-----0
 70
     0
 62
     1
  6
CONTINUOUS
  0
LAYER
  2
LC-009-100-D01-0
 70
     0
 62
     1
  6
CONTINUOUS
  0
LAYER
  2
LC-010-001-RND-0
 70
     0
 62
     1
  6
CONTINUOUS
  0
LAYER
  2
LC-011-100-D03-0
 70
     0
 62
     1
  6
CONTINUOUS
  0
LAYER
  2
LC-012-007-KH--0
 70
     0
 62
     7
  6
DASHDOT
  0
LAYER
  2
LC-014-002-RND-0
 70
     0
 62
     1
  6
CONTINUOUS
  0
LAYER
  2
LC-000
 70
     0
 62
     7
  6
CONTINUOUS
  0
ENDTAB
  0
TABLE
  2
STYLE
 70
     4
  0
STYLE
  2
STANDARD
 70
     0
 40
0.0
 41
1.0
 50
0.0
 71
     0
 42
0.0
  3
txt
  4

  0
STYLE
  2
LC-STANDARD
 70
    64
 40
0.0
 41
1.0
 50
0.0
 71
     0
 42
3.5
  3
MONOTXT
  4

  0
STYLE
  2
LC-TXTSTYLE-150-400-0-0-D2
 70
    64
 40
0.0
 41
1.0
 50
15.0
 71
     0
 42
3.5
  3
MONOTXT
  4

  0
STYLE
  2
LC-TXTSTYLE-150-400-0-0-D3
 70
    64
 40
0.0
 41
1.0
 50
15.0
 71
     0
 42
3.5
  3
LC-STANDARD
  4

  0
ENDTAB
  0
TABLE
  2
VIEW
 70
     0
  0
ENDTAB
  0
TABLE
  2
UCS
 70
     0
  0
ENDTAB
  0
TABLE
  2
APPID
 70
     1
  0
APPID
  2
ACAD
 70
     0
  0
ENDTAB
  0
TABLE
  2
DIMSTYLE
 70
     4
  0
DIMSTYLE
  2
STANDARD
 70
     0
  3

  4

  5

  6

  7

 40
1.0
 41
0.18
 42
0.0625
 43
0.38
 44
0.18
 45
0.0
 46
0.0
 47
0.0
 48
0.0
 71
     0
 72
     0
 73
     1
 74
     1
 75
     0
 76
     0
 77
     0
 78
     0
140
0.18
141
0.09
142
0.0
143
25.4
144
1.0
145
0.0
146
1.0
147
0.09
170
     0
171
     2
172
     0
173
     0
174
     0
175
     0
176
     0
177
     0
178
     0
  0
DIMSTYLE
  2
LC-STANDARD
 70
     0
  3

  4

  5

  6

  7

 40
1.0
 41
3.5
 42
0.0
 43
7.5
 44
1.8
 45
0.0
 46
0.0
 47
0.0
 48
0.0
 71
     0
 72
     0
 73
     0
 74
     0
 75
     0
 76
     0
 77
     1
 78
     8
140
3.5
141
0.0
142
0.0
143
25.4
144
1.0
145
0.0
146
0.71
147
1.5
170
     0
171
     2
172
     1
173
     0
174
     0
175
     0
176
     0
177
     0
178
     3
  0
DIMSTYLE
  2
LC-DIM-L-0090-03-02
 70
     0
  3

  4

  5

  6

  7

 40
2.0
 41
3.5
 42
0.0
 43
7.5
 44
1.8
 45
0.0
 46
0.0
 47
0.0
 48
0.0
 71
     0
 72
     0
 73
     0
 74
     0
 75
     0
 76
     0
 77
     1
 78
     8
140
9.0
141
0.0
142
0.0
143
25.4
144
1.0
145
0.0
146
0.71
147
1.5
170
     0
171
     2
172
     0
173
     0
174
     0
175
     0
176
     2
177
     2
178
     6
  0
DIMSTYLE
  2
LC-DIM-L-0090-02-02
 70
     0
  3

  4

  5

  6

  7

 40
2.0
 41
3.5
 42
0.0
 43
7.5
 44
1.8
 45
0.0
 46
0.0
 47
0.0
 48
0.0
 71
     0
 72
     0
 73
     0
 74
     0
 75
     0
 76
     0
 77
     1
 78
     8
140
9.0
141
0.0
142
0.0
143
25.4
144
1.0
145
0.0
146
0.71
147
1.5
170
     0
171
     2
172
     0
173
     0
174
     0
175
     0
176
     2
177
     2
178
     6
  0
ENDTAB
  0
ENDSEC
  0
SECTION
  2
BLOCKS
  0
BLOCK
  8
0
  5
24
  2
SYM1
 70
    64
 10
778.335274
 20
1865.143847
 30
0.0
  3
SYM1
  0
ENDBLK
  8
0
  5
25
  0
BLOCK
  8
0
  5
27
  2
SYM2
 70
    64
 10
1356.381777
 20
827.598303
 30
0.0
  3
SYM2
  0
ENDBLK
  8
0
  5
28
  0
BLOCK
  8
0
  5
2A
  2
SYM3
 70
    64
 10
1356.381777
 20
827.598303
 30
0.0
  3
SYM3
  0
ENDBLK
  8
0
  5
2B
  0
BLOCK
  8
0
  5
2D
  2
*D3
 70
    65
 10
0.0
 20
0.0
 30
0.0
  3
*D3
  0
LINE
  8
LC-003-003-MTH-0
  6
CONTINUOUS
  5
2F
 10
713.965037
 20
581.712368
 30
0.0
 11
713.965037
 21
451.2
 31
0.0
  0
LINE
  8
LC-003-003-MTH-0
  6
CONTINUOUS
  5
30
 10
1017.465037
 20
620.989083
 30
0.0
 11
1017.465037
 21
451.2
 31
0.0
  0
LINE
  8
LC-004-003-MTG-0
  6
CONTINUOUS
  5
32
 10
713.965037
 20
462.0
 30
0.0
 11
1017.465037
 21
462.0
 31
0.0
  0
LINE
  8
LC-002-003-----0
  6
CONTINUOUS
  5
34
 10
731.811045
 20
464.349471
 30
0.0
 11
713.965037
 21
462.0
 31
0.0
  0
LINE
  8
LC-002-003-----0
  6
CONTINUOUS
  5
35
 10
713.965037
 20
462.0
 30
0.0
 11
731.811045
 21
459.650529
 31
0.0
  0
LINE
  8
LC-002-003-----0
  6
CONTINUOUS
  5
36
 10
731.811045
 20
459.650529
 30
0.0
 11
731.811045
 21
464.349471
 31
0.0
  0
LINE
  8
LC-002-003-----0
  6
CONTINUOUS
  5
37
 10
731.851083
 20
463.738609
 30
0.0
 11
718.645037
 21
462.0
 31
0.0
  0
LINE
  8
LC-002-003-----0
  6
CONTINUOUS
  5
38
 10
718.645037
 20
462.0
 30
0.0
 11
731.851083
 21
460.261391
 31
0.0
  0
LINE
  8
LC-002-003-----0
  6
CONTINUOUS
  5
39
 10
731.891121
 20
463.127746
 30
0.0
 11
723.325037
 21
462.0
 31
0.0
  0
LINE
  8
LC-002-003-----0
  6
CONTINUOUS
  5
3A
 10
723.325037
 20
462.0
 30
0.0
 11
731.891121
 21
460.872254
 31
0.0
  0
LINE
  8
LC-002-003-----0
  6
CONTINUOUS
  5
3B
 10
731.931159
 20
462.516884
 30
0.0
 11
728.005037
 21
462.0
 31
0.0
  0
LINE
  8
LC-002-003-----0
  6
CONTINUOUS
  5
3C
 10
728.005037
 20
462.0
 30
0.0
 11
731.931159
 21
461.483116
 31
0.0
  0
LINE
  8
LC-002-003-----0
  6
CONTINUOUS
  5
3D
 10
999.61903
 20
459.650529
 30
0.0
 11
1017.465037
 21
462.0
 31
0.0
  0
LINE
  8
LC-002-003-----0
  6
CONTINUOUS
  5
3E
 10
1017.465037
 20
462.0
 30
0.0
 11
999.61903
 21
464.349471
 31
0.0
  0
LINE
  8
LC-002-003-----0
  6
CONTINUOUS
  5
3F
 10
999.61903
 20
464.349471
 30
0.0
 11
999.61903
 21
459.650529
 31
0.0
  0
LINE
  8
LC-002-003-----0
  6
CONTINUOUS
  5
40
 10
999.578992
 20
460.261391
 30
0.0
 11
1012.785037
 21
462.0
 31
0.0
  0
LINE
  8
LC-002-003-----0
  6
CONTINUOUS
  5
41
 10
1012.785037
 20
462.0
 30
0.0
 11
999.578992
 21
463.738609
 31
0.0
  0
LINE
  8
LC-002-003-----0
  6
CONTINUOUS
  5
42
 10
999.538953
 20
460.872254
 30
0.0
 11
1008.105037
 21
462.0
 31
0.0
  0
LINE
  8
LC-002-003-----0
  6
CONTINUOUS
  5
43
 10
1008.105037
 20
462.0
 30
0.0
 11
999.538953
 21
463.127746
 31
0.0
  0
LINE
  8
LC-002-003-----0
  6
CONTINUOUS
  5
44
 10
999.498915
 20
461.483116
 30
0.0
 11
1003.425037
 21
462.0
 31
0.0
  0
LINE
  8
LC-002-003-----0
  6
CONTINUOUS
  5
45
 10
1003.425037
 20
462.0
 30
0.0
 11
999.498915
 21
462.516884
 31
0.0
  0
TEXT
  8
LC-002-003-----0
  6
CONTINUOUS
 62
     6
  5
47
 10
834.417512
 20
472.431999
 30
0.0
 40
18.0
  1
303,5
 41
0.9
 51
15.0
  7
LC-TXTSTYLE-150-400-0-0-D0
 72
     1
 11
864.138772
 21
472.431999
 31
0.0
  0
ENDBLK
  8
0
  5
48
  0
BLOCK
  8
0
  5
4A
  2
*X4
 70
    65
 10
779.886656
 20
509.863105
 30
0.0
  3
*X4
  0
LINE
  8
LC-007-005-----0
  6
CONTINUOUS
  5
4C
 10
1015.108863
 20
513.063049
 30
0.0
 11
1017.087558
 21
515.041743
 31
0.0
  0
LINE
  8
LC-007-005-----0
  6
CONTINUOUS
  5
4D
 10
1007.336939
 20
512.362192
 30
0.0
 11
1010.016533
 21
515.041787
 31
0.0
  0
LINE
  8
LC-007-005-----0
  6
CONTINUOUS
  5
4E
 10
1000.265915
 20
512.362236
 30
0.0
 11
1002.945509
 21
515.04183
 31
0.0
  0
LINE
  8
LC-007-005-----0
  6
CONTINUOUS
  5
4F
 10
993.194891
 20
512.36228
 30
0.0
 11
995.874484
 21
515.041873
 31
0.0
  0
LINE
  8
LC-007-005-----0
  6
CONTINUOUS
  5
50
 10
986.123867
 20
512.362323
 30
0.0
 11
988.803459
 21
515.041916
 31
0.0
  0
LINE
  8
LC-007-005-----0
  6
CONTINUOUS
  5
51
 10
979.052843
 20
512.362367
 30
0.0
 11
981.732434
 21
515.041959
 31
0.0
  0
LINE
  8
LC-007-005-----0
  6
CONTINUOUS
  5
52
 10
971.981819
 20
512.362411
 30
0.0
 11
974.661409
 21
515.042002
 31
0.0
  0
LINE
  8
LC-007-005-----0
  6
CONTINUOUS
  5
53
 10
964.910794
 20
512.362454
 30
0.0
 11
967.590385
 21
515.042045
 31
0.0
  0
LINE
  8
LC-007-005-----0
  6
CONTINUOUS
  5
54
 10
957.83977
 20
512.362498
 30
0.0
 11
960.51936
 21
515.042088
 31
0.0
  0
LINE
  8
LC-007-005-----0
  6
CONTINUOUS
  5
55
 10
949.26876
 20
510.862556
 30
0.0
 11
953.448335
 21
515.042131
 31
0.0
  0
LINE
  8
LC-007-005-----0
  6
CONTINUOUS
  5
56
 10
942.197732
 20
510.862595
 30
0.0
 11
946.37731
 21
515.042174
 31
0.0
  0
LINE
  8
LC-007-005-----0
  6
CONTINUOUS
  5
57
 10
935.126703
 20
510.862635
 30
0.0
 11
939.127418
 21
514.86335
 31
0.0
  0
LINE
  8
LC-007-005-----0
  6
CONTINUOUS
  5
58
 10
928.055675
 20
510.862674
 30
0.0
 11
932.05635
 21
514.86335
 31
0.0
  0
LINE
  8
LC-007-005-----0
  6
CONTINUOUS
  5
59
 10
920.984647
 20
510.862714
 30
0.0
 11
924.985283
 21
514.86335
 31
0.0
  0
ENDBLK
  8
0
  5
5A
  0
BLOCK
  8
0
  5
5C
  2
*D5
 70
    65
 10
0.0
 20
0.0
 30
0.0
  3
*D5
  0
LINE
  8
LC-003-003-MTH-0
  6
CONTINUOUS
  5
5D
 10
732.964649
 20
526.512365
 30
0.0
 11
689.2
 21
526.512365
 31
0.0
  0
LINE
  8
LC-003-003-MTH-0
  6
CONTINUOUS
  5
5E
 10
732.964643
 20
636.912373
 30
0.0
 11
689.2
 21
636.912373
 31
0.0
  0
LINE
  8
LC-004-003-MTG-0
  6
CONTINUOUS
  5
5F
 10
700.0
 20
526.512365
 30
0.0
 11
700.0
 21
636.912373
 31
0.0
  0
LINE
  8
LC-002-003-----0
  6
CONTINUOUS
  5
60
 10
697.650529
 20
544.358372
 30
0.0
 11
700.0
 21
526.512365
 31
0.0
  0
LINE
  8
LC-002-003-----0
  6
CONTINUOUS
  5
61
 10
700.0
 20
526.512365
 30
0.0
 11
702.349471
 21
544.358372
 31
0.0
  0
LINE
  8
LC-002-003-----0
  6
CONTINUOUS
  5
62
 10
702.349471
 20
544.358372
 30
0.0
 11
697.650529
 21
544.358372
 31
0.0
  0
LINE
  8
LC-002-003-----0
  6
CONTINUOUS
  5
63
 10
698.261391
 20
544.39841
 30
0.0
 11
700.0
 21
531.192365
 31
0.0
  0
LINE
  8
LC-002-003-----0
  6
CONTINUOUS
  5
64
 10
700.0
 20
531.192365
 30
0.0
 11
701.738609
 21
544.39841
 31
0.0
  0
LINE
  8
LC-002-003-----0
  6
CONTINUOUS
  5
65
 10
698.872254
 20
544.438448
 30
0.0
 11
700.0
 21
535.872365
 31
0.0
  0
LINE
  8
LC-002-003-----0
  6
CONTINUOUS
  5
66
 10
700.0
 20
535.872365
 30
0.0
 11
701.127746
 21
544.438448
 31
0.0
  0
LINE
  8
LC-002-003-----0
  6
CONTINUOUS
  5
67
 10
699.483116
 20
544.478486
 30
0.0
 11
700.0
 21
540.552365
 31
0.0
  0
LINE
  8
LC-002-003-----0
  6
CONTINUOUS
  5
68
 10
700.0
 20
540.552365
 30
0.0
 11
700.516884
 21
544.478486
 31
0.0
  0
LINE
  8
LC-002-003-----0
  6
CONTINUOUS
  5
69
 10
702.349471
 20
619.066365
 30
0.0
 11
700.0
 21
636.912373
 31
0.0
  0
LINE
  8
LC-002-003-----0
  6
CONTINUOUS
  5
6A
 10
700.0
 20
636.912373
 30
0.0
 11
697.650529
 21
619.066365
 31
0.0
  0
LINE
  8
LC-002-003-----0
  6
CONTINUOUS
  5
6B
 10
697.650529
 20
619.066365
 30
0.0
 11
702.349471
 21
619.066365
 31
0.0
  0
LINE
  8
LC-002-003-----0
  6
CONTINUOUS
  5
6C
 10
701.738609
 20
619.026327
 30
0.0
 11
700.0
 21
632.232373
 31
0.0
  0
LINE
  8
LC-002-003-----0
  6
CONTINUOUS
  5
6D
 10
700.0
 20
632.232373
 30
0.0
 11
698.261391
 21
619.026327
 31
0.0
  0
LINE
  8
LC-002-003-----0
  6
CONTINUOUS
  5
6E
 10
701.127746
 20
618.986289
 30
0.0
 11
700.0
 21
627.552373
 31
0.0
  0
LINE
  8
LC-002-003-----0
  6
CONTINUOUS
  5
6F
 10
700.0
 20
627.552373
 30
0.0
 11
698.872254
 21
618.986289
 31
0.0
  0
LINE
  8
LC-002-003-----0
  6
CONTINUOUS
  5
70
 10
700.516884
 20
618.946251
 30
0.0
 11
700.0
 21
622.872373
 31
0.0
  0
LINE
  8
LC-002-003-----0
  6
CONTINUOUS
  5
71
 10
700.0
 20
622.872373
 30
0.0
 11
699.483116
 21
618.946251
 31
0.0
  0
TEXT
  8
LC-002-003-----0
  6
CONTINUOUS
 62
     6
  5
72
 10
689.568001
 20
551.729103
 30
0.0
 40
18.0
  1
DN100
 50
90.0
 51
15.0
  7
LC-TXTSTYLE-150-400-0-0-D0
 72
     1
 11
689.568001
 21
585.404694
 31
0.0
  0
ENDBLK
  8
0
  5
73
  0
BLOCK
  8
0
  5
75
  2
*D6
 70
    65
 10
0.0
 20
0.0
 30
0.0
  3
*D6
  0
LINE
  8
LC-003-003-MTH-0
  6
CONTINUOUS
  5
76
 10
946.74859
 20
567.341954
 30
0.0
 11
925.2
 21
567.341954
 31
0.0
  0
LINE
  8
LC-003-003-MTH-0
  6
CONTINUOUS
  5
77
 10
778.649724
 20
581.712371
 30
0.0
 11
946.8
 21
581.712371
 31
0.0
  0
LINE
  8
LC-002-003-----0
  6
CONTINUOUS
  5
78
 10
938.349471
 20
549.495946
 30
0.0
 11
936.0
 21
567.341954
 31
0.0
  0
LINE
  8
LC-002-003-----0
  6
CONTINUOUS
  5
79
 10
936.0
 20
567.341954
 30
0.0
 11
933.650529
 21
549.495946
 31
0.0
  0
LINE
  8
LC-002-003-----0
  6
CONTINUOUS
  5
7A
 10
933.650529
 20
549.495946
 30
0.0
 11
938.349471
 21
549.495946
 31
0.0
  0
LINE
  8
LC-002-003-----0
  6
CONTINUOUS
  5
7B
 10
937.738609
 20
549.455908
 30
0.0
 11
936.0
 21
562.661954
 31
0.0
  0
LINE
  8
LC-002-003-----0
  6
CONTINUOUS
  5
7C
 10
936.0
 20
562.661954
 30
0.0
 11
934.261391
 21
549.455908
 31
0.0
  0
LINE
  8
LC-002-003-----0
  6
CONTINUOUS
  5
7D
 10
937.127746
 20
549.41587
 30
0.0
 11
936.0
 21
557.981954
 31
0.0
  0
LINE
  8
LC-002-003-----0
  6
CONTINUOUS
  5
7E
 10
936.0
 20
557.981954
 30
0.0
 11
934.872254
 21
549.41587
 31
0.0
  0
LINE
  8
LC-002-003-----0
  6
CONTINUOUS
  5
7F
 10
936.516884
 20
549.375832
 30
0.0
 11
936.0
 21
553.301954
 31
0.0
  0
LINE
  8
LC-002-003-----0
  6
CONTINUOUS
  5
80
 10
936.0
 20
553.301954
 30
0.0
 11
935.483116
 21
549.375832
 31
0.0
  0
LINE
  8
LC-002-003-----0
  6
CONTINUOUS
  5
81
 10
933.650529
 20
599.558379
 30
0.0
 11
936.0
 21
581.712371
 31
0.0
  0
LINE
  8
LC-002-003-----0
  6
CONTINUOUS
  5
82
 10
936.0
 20
581.712371
 30
0.0
 11
938.349471
 21
599.558379
 31
0.0
  0
LINE
  8
LC-002-003-----0
  6
CONTINUOUS
  5
83
 10
938.349471
 20
599.558379
 30
0.0
 11
933.650529
 21
599.558379
 31
0.0
  0
LINE
  8
LC-002-003-----0
  6
CONTINUOUS
  5
84
 10
934.261391
 20
599.598417
 30
0.0
 11
936.0
 21
586.392371
 31
0.0
  0
LINE
  8
LC-002-003-----0
  6
CONTINUOUS
  5
85
 10
936.0
 20
586.392371
 30
0.0
 11
937.738609
 21
599.598417
 31
0.0
  0
LINE
  8
LC-002-003-----0
  6
CONTINUOUS
  5
86
 10
934.872254
 20
599.638455
 30
0.0
 11
936.0
 21
591.072371
 31
0.0
  0
LINE
  8
LC-002-003-----0
  6
CONTINUOUS
  5
87
 10
936.0
 20
591.072371
 30
0.0
 11
937.127746
 21
599.638455
 31
0.0
  0
LINE
  8
LC-002-003-----0
  6
CONTINUOUS
  5
88
 10
935.483116
 20
599.678493
 30
0.0
 11
936.0
 21
595.752371
 31
0.0
  0
LINE
  8
LC-002-003-----0
  6
CONTINUOUS
  5
89
 10
936.0
 20
595.752371
 30
0.0
 11
936.516884
 21
599.678493
 31
0.0
  0
LINE
  8
LC-004-003-MTG-0
  6
CONTINUOUS
  5
8A
 10
936.0
 20
542.141954
 30
0.0
 11
936.0
 21
687.01926
 31
0.0
  0
TEXT
  8
LC-002-003-----0
  6
CONTINUOUS
 62
     6
  5
8B
 10
925.568001
 20
623.891986
 30
0.0
 40
18.0
  1
14,5
 50
90.0
 51
15.0
  7
LC-TXTSTYLE-150-400-0-0-D0
  0
ENDBLK
  8
0
  5
8C
  0
BLOCK
  8
0
  5
8E
  2
*X7
 70
    65
 10
713.965037
 20
505.863105
 30
0.0
  3
*X7
  0
LINE
  8
LC-007-005-----0
  6
CONTINUOUS
  5
8F
 10
1017.040715
 20
513.580687
 30
0.0
 11
1017.465037
 21
514.005009
 31
0.0
  0
LINE
  8
LC-007-005-----0
  6
CONTINUOUS
  5
90
 10
1013.177012
 20
512.545411
 30
0.0
 11
1015.673353
 21
515.041752
 31
0.0
  0
LINE
  8
LC-007-005-----0
  6
CONTINUOUS
  5
91
 10
1010.165349
 20
512.362175
 30
0.0
 11
1012.844943
 21
515.041769
 31
0.0
  0
LINE
  8
LC-007-005-----0
  6
CONTINUOUS
  5
92
 10
1007.336939
 20
512.362192
 30
0.0
 11
1010.016533
 21
515.041787
 31
0.0
  0
LINE
  8
LC-007-005-----0
  6
CONTINUOUS
  5
93
 10
1004.50853
 20
512.36221
 30
0.0
 11
1007.188123
 21
515.041804
 31
0.0
  0
LINE
  8
LC-007-005-----0
  6
CONTINUOUS
  5
94
 10
1001.68012
 20
512.362227
 30
0.0
 11
1004.359714
 21
515.041821
 31
0.0
  0
LINE
  8
LC-007-005-----0
  6
CONTINUOUS
  5
95
 10
998.85171
 20
512.362245
 30
0.0
 11
1001.531304
 21
515.041838
 31
0.0
  0
LINE
  8
LC-007-005-----0
  6
CONTINUOUS
  5
96
 10
996.023301
 20
512.362262
 30
0.0
 11
998.702894
 21
515.041855
 31
0.0
  0
LINE
  8
LC-007-005-----0
  6
CONTINUOUS
  5
97
 10
993.194891
 20
512.36228
 30
0.0
 11
995.874484
 21
515.041873
 31
0.0
  0
LINE
  8
LC-007-005-----0
  6
CONTINUOUS
  5
98
 10
990.366481
 20
512.362297
 30
0.0
 11
993.046074
 21
515.04189
 31
0.0
  0
LINE
  8
LC-007-005-----0
  6
CONTINUOUS
  5
99
 10
987.538072
 20
512.362315
 30
0.0
 11
990.217664
 21
515.041907
 31
0.0
  0
LINE
  8
LC-007-005-----0
  6
CONTINUOUS
  5
9A
 10
984.709662
 20
512.362332
 30
0.0
 11
987.389254
 21
515.041924
 31
0.0
  0
LINE
  8
LC-007-005-----0
  6
CONTINUOUS
  5
9B
 10
981.881252
 20
512.36235
 30
0.0
 11
984.560844
 21
515.041941
 31
0.0
  0
LINE
  8
LC-007-005-----0
  6
CONTINUOUS
  5
9C
 10
979.052843
 20
512.362367
 30
0.0
 11
981.732434
 21
515.041959
 31
0.0
  0
LINE
  8
LC-007-005-----0
  6
CONTINUOUS
  5
9D
 10
976.224433
 20
512.362385
 30
0.0
 11
978.904024
 21
515.041976
 31
0.0
  0
LINE
  8
LC-007-005-----0
  6
CONTINUOUS
  5
9E
 10
973.396023
 20
512.362402
 30
0.0
 11
976.075614
 21
515.041993
 31
0.0
  0
LINE
  8
LC-007-005-----0
  6
CONTINUOUS
  5
9F
 10
970.567614
 20
512.362419
 30
0.0
 11
973.247205
 21
515.04201
 31
0.0
  0
LINE
  8
LC-007-005-----0
  6
CONTINUOUS
  5
A0
 10
967.739204
 20
512.362437
 30
0.0
 11
970.418795
 21
515.042028
 31
0.0
  0
LINE
  8
LC-007-005-----0
  6
CONTINUOUS
  5
A1
 10
964.910794
 20
512.362454
 30
0.0
 11
967.590385
 21
515.042045
 31
0.0
  0
LINE
  8
LC-007-005-----0
  6
CONTINUOUS
  5
A2
 10
962.082385
 20
512.362472
 30
0.0
 11
964.761975
 21
515.042062
 31
0.0
  0
LINE
  8
LC-007-005-----0
  6
CONTINUOUS
  5
A3
 10
959.253975
 20
512.362489
 30
0.0
 11
961.933565
 21
515.042079
 31
0.0
  0
LINE
  8
LC-007-005-----0
  6
CONTINUOUS
  5
A4
 10
956.425565
 20
512.362507
 30
0.0
 11
959.105155
 21
515.042096
 31
0.0
  0
LINE
  8
LC-007-005-----0
  6
CONTINUOUS
  5
A5
 10
953.597156
 20
512.362524
 30
0.0
 11
956.276745
 21
515.042114
 31
0.0
  0
LINE
  8
LC-007-005-----0
  6
CONTINUOUS
  5
A6
 10
949.26876
 20
510.862556
 30
0.0
 11
953.448335
 21
515.042131
 31
0.0
  0
LINE
  8
LC-007-005-----0
  6
CONTINUOUS
  5
A7
 10
946.440349
 20
510.862572
 30
0.0
 11
950.619925
 21
515.042148
 31
0.0
  0
LINE
  8
LC-007-005-----0
  6
CONTINUOUS
  5
A8
 10
943.611938
 20
510.862587
 30
0.0
 11
947.791515
 21
515.042165
 31
0.0
  0
LINE
  8
LC-007-005-----0
  6
CONTINUOUS
  5
A9
 10
940.783526
 20
510.862603
 30
0.0
 11
944.784273
 21
514.86335
 31
0.0
  0
LINE
  8
LC-007-005-----0
  6
CONTINUOUS
  5
AA
 10
937.955115
 20
510.862619
 30
0.0
 11
941.955845
 21
514.86335
 31
0.0
  0
LINE
  8
LC-007-005-----0
  6
CONTINUOUS
  5
AB
 10
935.126703
 20
510.862635
 30
0.0
 11
939.127418
 21
514.86335
 31
0.0
  0
LINE
  8
LC-007-005-----0
  6
CONTINUOUS
  5
AC
 10
932.298292
 20
510.862651
 30
0.0
 11
936.298991
 21
514.86335
 31
0.0
  0
LINE
  8
LC-007-005-----0
  6
CONTINUOUS
  5
AD
 10
929.469881
 20
510.862666
 30
0.0
 11
933.470564
 21
514.86335
 31
0.0
  0
LINE
  8
LC-007-005-----0
  6
CONTINUOUS
  5
AE
 10
926.641469
 20
510.862682
 30
0.0
 11
930.642137
 21
514.86335
 31
0.0
  0
LINE
  8
LC-007-005-----0
  6
CONTINUOUS
  5
AF
 10
923.813058
 20
510.862698
 30
0.0
 11
927.81371
 21
514.86335
 31
0.0
  0
LINE
  8
LC-007-005-----0
  6
CONTINUOUS
  5
B0
 10
920.984647
 20
510.862714
 30
0.0
 11
924.985283
 21
514.86335
 31
0.0
  0
LINE
  8
LC-007-005-----0
  6
CONTINUOUS
  5
B1
 10
918.156235
 20
510.862729
 30
0.0
 11
922.156856
 21
514.86335
 31
0.0
  0
LINE
  8
LC-007-005-----0
  6
CONTINUOUS
  5
B2
 10
915.327824
 20
510.862745
 30
0.0
 11
919.328428
 21
514.86335
 31
0.0
  0
LINE
  8
LC-007-005-----0
  6
CONTINUOUS
  5
B3
 10
912.499413
 20
510.862761
 30
0.0
 11
916.500001
 21
514.86335
 31
0.0
  0
LINE
  8
LC-007-005-----0
  6
CONTINUOUS
  5
B4
 10
909.671001
 20
510.862777
 30
0.0
 11
913.671574
 21
514.86335
 31
0.0
  0
LINE
  8
LC-007-005-----0
  6
CONTINUOUS
  5
B5
 10
906.84259
 20
510.862792
 30
0.0
 11
910.843147
 21
514.86335
 31
0.0
  0
LINE
  8
LC-007-005-----0
  6
CONTINUOUS
  5
B6
 10
904.014179
 20
510.862808
 30
0.0
 11
908.01472
 21
514.86335
 31
0.0
  0
LINE
  8
LC-007-005-----0
  6
CONTINUOUS
  5
B7
 10
901.185767
 20
510.862824
 30
0.0
 11
905.186293
 21
514.86335
 31
0.0
  0
LINE
  8
LC-007-005-----0
  6
CONTINUOUS
  5
B8
 10
898.357356
 20
510.86284
 30
0.0
 11
902.357866
 21
514.86335
 31
0.0
  0
LINE
  8
LC-007-005-----0
  6
CONTINUOUS
  5
B9
 10
895.528944
 20
510.862855
 30
0.0
 11
899.529439
 21
514.86335
 31
0.0
  0
LINE
  8
LC-007-005-----0
  6
CONTINUOUS
  5
BA
 10
892.700533
 20
510.862871
 30
0.0
 11
896.701011
 21
514.86335
 31
0.0
  0
LINE
  8
LC-007-005-----0
  6
CONTINUOUS
  5
BB
 10
889.872122
 20
510.862887
 30
0.0
 11
893.872584
 21
514.86335
 31
0.0
  0
LINE
  8
LC-007-005-----0
  6
CONTINUOUS
  5
BC
 10
887.04371
 20
510.862903
 30
0.0
 11
891.044157
 21
514.86335
 31
0.0
  0
LINE
  8
LC-007-005-----0
  6
CONTINUOUS
  5
BD
 10
884.215299
 20
510.862919
 30
0.0
 11
888.21573
 21
514.86335
 31
0.0
  0
LINE
  8
LC-007-005-----0
  6
CONTINUOUS
  5
BE
 10
881.386888
 20
510.862934
 30
0.0
 11
885.387303
 21
514.86335
 31
0.0
  0
LINE
  8
LC-007-005-----0
  6
CONTINUOUS
  5
BF
 10
878.558476
 20
510.86295
 30
0.0
 11
882.558876
 21
514.86335
 31
0.0
  0
LINE
  8
LC-007-005-----0
  6
CONTINUOUS
  5
C0
 10
875.730065
 20
510.862966
 30
0.0
 11
879.730449
 21
514.86335
 31
0.0
  0
LINE
  8
LC-007-005-----0
  6
CONTINUOUS
  5
C1
 10
872.901654
 20
510.862982
 30
0.0
 11
876.902022
 21
514.86335
 31
0.0
  0
LINE
  8
LC-007-005-----0
  6
CONTINUOUS
  5
C2
 10
870.073242
 20
510.862997
 30
0.0
 11
874.073594
 21
514.86335
 31
0.0
  0
LINE
  8
LC-007-005-----0
  6
CONTINUOUS
  5
C3
 10
867.244831
 20
510.863013
 30
0.0
 11
871.245167
 21
514.86335
 31
0.0
  0
LINE
  8
LC-007-005-----0
  6
CONTINUOUS
  5
C4
 10
864.41642
 20
510.863029
 30
0.0
 11
868.41674
 21
514.86335
 31
0.0
  0
LINE
  8
LC-007-005-----0
  6
CONTINUOUS
  5
C5
 10
861.588008
 20
510.863045
 30
0.0
 11
865.588313
 21
514.86335
 31
0.0
  0
LINE
  8
LC-007-005-----0
  6
CONTINUOUS
  5
C6
 10
858.759597
 20
510.86306
 30
0.0
 11
862.759886
 21
514.86335
 31
0.0
  0
LINE
  8
LC-007-005-----0
  6
CONTINUOUS
  5
C7
 10
855.931185
 20
510.863076
 30
0.0
 11
859.931459
 21
514.86335
 31
0.0
  0
LINE
  8
LC-007-005-----0
  6
CONTINUOUS
  5
C8
 10
853.102774
 20
510.863092
 30
0.0
 11
857.103032
 21
514.86335
 31
0.0
  0
LINE
  8
LC-007-005-----0
  6
CONTINUOUS
  5
C9
 10
850.274363
 20
510.863108
 30
0.0
 11
854.274605
 21
514.86335
 31
0.0
  0
LINE
  8
LC-007-005-----0
  6
CONTINUOUS
  5
CA
 10
847.445951
 20
510.863124
 30
0.0
 11
851.446177
 21
514.86335
 31
0.0
  0
LINE
  8
LC-007-005-----0
  6
CONTINUOUS
  5
CB
 10
844.61754
 20
510.863139
 30
0.0
 11
848.61775
 21
514.86335
 31
0.0
  0
LINE
  8
LC-007-005-----0
  6
CONTINUOUS
  5
CC
 10
841.789129
 20
510.863155
 30
0.0
 11
845.789323
 21
514.86335
 31
0.0
  0
LINE
  8
LC-007-005-----0
  6
CONTINUOUS
  5
CD
 10
838.960717
 20
510.863171
 30
0.0
 11
842.960896
 21
514.86335
 31
0.0
  0
LINE
  8
LC-007-005-----0
  6
CONTINUOUS
  5
CE
 10
836.132306
 20
510.863187
 30
0.0
 11
840.132469
 21
514.86335
 31
0.0
  0
LINE
  8
LC-007-005-----0
  6
CONTINUOUS
  5
CF
 10
833.303895
 20
510.863202
 30
0.0
 11
837.304042
 21
514.86335
 31
0.0
  0
LINE
  8
LC-007-005-----0
  6
CONTINUOUS
  5
D0
 10
830.475483
 20
510.863218
 30
0.0
 11
834.475615
 21
514.86335
 31
0.0
  0
LINE
  8
LC-007-005-----0
  6
CONTINUOUS
  5
D1
 10
827.647072
 20
510.863234
 30
0.0
 11
831.647188
 21
514.86335
 31
0.0
  0
LINE
  8
LC-007-005-----0
  6
CONTINUOUS
  5
D2
 10
824.818661
 20
510.86325
 30
0.0
 11
828.81876
 21
514.86335
 31
0.0
  0
LINE
  8
LC-007-005-----0
  6
CONTINUOUS
  5
D3
 10
821.990249
 20
510.863265
 30
0.0
 11
825.990333
 21
514.86335
 31
0.0
  0
LINE
  8
LC-007-005-----0
  6
CONTINUOUS
  5
D4
 10
819.161838
 20
510.863281
 30
0.0
 11
823.161906
 21
514.86335
 31
0.0
  0
LINE
  8
LC-007-005-----0
  6
CONTINUOUS
  5
D5
 10
816.333426
 20
510.863297
 30
0.0
 11
820.333479
 21
514.86335
 31
0.0
  0
LINE
  8
LC-007-005-----0
  6
CONTINUOUS
  5
D6
 10
813.505015
 20
510.863313
 30
0.0
 11
817.505052
 21
514.86335
 31
0.0
  0
LINE
  8
LC-007-005-----0
  6
CONTINUOUS
  5
D7
 10
810.676604
 20
510.863329
 30
0.0
 11
814.676625
 21
514.86335
 31
0.0
  0
LINE
  8
LC-007-005-----0
  6
CONTINUOUS
  5
D8
 10
802.847953
 20
505.863105
 30
0.0
 11
806.404422
 21
509.419574
 31
0.0
  0
LINE
  8
LC-007-005-----0
  6
CONTINUOUS
  5
D9
 10
807.848192
 20
510.863344
 30
0.0
 11
811.848198
 21
514.86335
 31
0.0
  0
LINE
  8
LC-007-005-----0
  6
CONTINUOUS
  5
DA
 10
800.019526
 20
505.863105
 30
0.0
 11
809.019771
 21
514.86335
 31
0.0
  0
LINE
  8
LC-007-005-----0
  6
CONTINUOUS
  5
DB
 10
797.191099
 20
505.863105
 30
0.0
 11
801.191098
 21
509.863105
 31
0.0
  0
LINE
  8
LC-007-005-----0
  6
CONTINUOUS
  5
DC
 10
802.404422
 20
511.076428
 30
0.0
 11
806.191343
 21
514.86335
 31
0.0
  0
LINE
  8
LC-007-005-----0
  6
CONTINUOUS
  5
DD
 10
794.362672
 20
505.863105
 30
0.0
 11
798.362671
 21
509.863105
 31
0.0
  0
LINE
  8
LC-007-005-----0
  6
CONTINUOUS
  5
DE
 10
802.405084
 20
513.905517
 30
0.0
 11
803.362254
 21
514.862688
 31
0.0
  0
LINE
  8
LC-007-005-----0
  6
CONTINUOUS
  5
DF
 10
791.534245
 20
505.863105
 30
0.0
 11
795.534244
 21
509.863105
 31
0.0
  0
LINE
  8
LC-007-005-----0
  6
CONTINUOUS
  5
E0
 10
788.705818
 20
505.863105
 30
0.0
 11
792.705817
 21
509.863105
 31
0.0
  0
LINE
  8
LC-007-005-----0
  6
CONTINUOUS
  5
E1
 10
785.877391
 20
505.863105
 30
0.0
 11
789.87739
 21
509.863105
 31
0.0
  0
LINE
  8
LC-007-005-----0
  6
CONTINUOUS
  5
E2
 10
783.048964
 20
505.863105
 30
0.0
 11
787.048963
 21
509.863105
 31
0.0
  0
LINE
  8
LC-007-005-----0
  6
CONTINUOUS
  5
E3
 10
780.220537
 20
505.863105
 30
0.0
 11
784.220536
 21
509.863105
 31
0.0
  0
LINE
  8
LC-007-005-----0
  6
CONTINUOUS
  5
E4
 10
777.430785
 20
505.901781
 30
0.0
 11
781.392109
 21
509.863105
 31
0.0
  0
LINE
  8
LC-007-005-----0
  6
CONTINUOUS
  5
E5
 10
775.626794
 20
506.926217
 30
0.0
 11
779.880866
 21
511.180289
 31
0.0
  0
LINE
  8
LC-007-005-----0
  6
CONTINUOUS
  5
E6
 10
774.923175
 20
509.051025
 30
0.0
 11
779.832342
 21
513.960193
 31
0.0
  0
LINE
  8
LC-007-005-----0
  6
CONTINUOUS
  5
E7
 10
774.874651
 20
511.830929
 30
0.0
 11
779.783819
 21
516.740096
 31
0.0
  0
LINE
  8
LC-007-005-----0
  6
CONTINUOUS
  5
E8
 10
774.826128
 20
514.610832
 30
0.0
 11
779.735296
 21
519.52
 31
0.0
  0
LINE
  8
LC-007-005-----0
  6
CONTINUOUS
  5
E9
 10
774.777604
 20
517.390736
 30
0.0
 11
779.686772
 21
522.299904
 31
0.0
  0
LINE
  8
LC-007-005-----0
  6
CONTINUOUS
  5
EA
 10
774.729081
 20
520.170639
 30
0.0
 11
779.638249
 21
525.079808
 31
0.0
  0
LINE
  8
LC-007-005-----0
  6
CONTINUOUS
  5
EB
 10
773.995938
 20
522.265924
 30
0.0
 11
779.589725
 21
527.859711
 31
0.0
  0
LINE
  8
LC-007-005-----0
  6
CONTINUOUS
  5
EC
 10
771.16751
 20
522.265924
 30
0.0
 11
778.513422
 21
529.611835
 31
0.0
  0
LINE
  8
LC-007-005-----0
  6
CONTINUOUS
  5
ED
 10
768.339083
 20
522.265923
 30
0.0
 11
773.805456
 21
527.732296
 31
0.0
  0
LINE
  8
LC-007-005-----0
  6
CONTINUOUS
  5
EE
 10
775.226123
 20
529.152963
 30
0.0
 11
775.684994
 21
529.611835
 31
0.0
  0
LINE
  8
LC-007-005-----0
  6
CONTINUOUS
  5
EF
 10
765.510656
 20
522.265923
 30
0.0
 11
769.941754
 21
526.697021
 31
0.0
  0
LINE
  8
LC-007-005-----0
  6
CONTINUOUS
  5
F0
 10
762.682229
 20
522.265923
 30
0.0
 11
766.928676
 21
526.51237
 31
0.0
  0
LINE
  8
LC-007-005-----0
  6
CONTINUOUS
  5
F1
 10
756.891989
 20
519.30411
 30
0.0
 11
758.728303
 21
521.140425
 31
0.0
  0
LINE
  8
LC-007-005-----0
  6
CONTINUOUS
  5
F2
 10
759.853802
 20
522.265923
 30
0.0
 11
764.100249
 21
526.51237
 31
0.0
  0
LINE
  8
LC-007-005-----0
  6
CONTINUOUS
  5
F3
 10
755.728303
 20
520.968852
 30
0.0
 11
761.271822
 21
526.51237
 31
0.0
  0
LINE
  8
LC-007-005-----0
  6
CONTINUOUS
  5
F4
 10
754.196947
 20
522.265923
 30
0.0
 11
758.443394
 21
526.51237
 31
0.0
  0
LINE
  8
LC-007-005-----0
  6
CONTINUOUS
  5
F5
 10
751.36852
 20
522.265923
 30
0.0
 11
755.614967
 21
526.51237
 31
0.0
  0
LINE
  8
LC-007-005-----0
  6
CONTINUOUS
  5
F6
 10
748.540093
 20
522.265923
 30
0.0
 11
752.78654
 21
526.51237
 31
0.0
  0
LINE
  8
LC-007-005-----0
  6
CONTINUOUS
  5
F7
 10
745.711666
 20
522.265923
 30
0.0
 11
749.958112
 21
526.51237
 31
0.0
  0
LINE
  8
LC-007-005-----0
  6
CONTINUOUS
  5
F8
 10
742.883239
 20
522.265923
 30
0.0
 11
747.129685
 21
526.512369
 31
0.0
  0
LINE
  8
LC-007-005-----0
  6
CONTINUOUS
  5
F9
 10
734.058489
 20
516.2696
 30
0.0
 11
734.559921
 21
516.771033
 31
0.0
  0
LINE
  8
LC-007-005-----0
  6
CONTINUOUS
  5
FA
 10
740.054811
 20
522.265923
 30
0.0
 11
744.301258
 21
526.512369
 31
0.0
  0
LINE
  8
LC-007-005-----0
  6
CONTINUOUS
  5
FB
 10
731.370912
 20
516.41045
 30
0.0
 11
741.472831
 21
526.512369
 31
0.0
  0
LINE
  8
LC-007-005-----0
  6
CONTINUOUS
  5
FC
 10
728.683334
 20
516.5513
 30
0.0
 11
738.644403
 21
526.512369
 31
0.0
  0
LINE
  8
LC-007-005-----0
  6
CONTINUOUS
  5
FD
 10
725.995757
 20
516.69215
 30
0.0
 11
729.867016
 21
520.563409
 31
0.0
  0
LINE
  8
LC-007-005-----0
  6
CONTINUOUS
  5
FE
 10
732.964643
 20
523.661036
 30
0.0
 11
735.815976
 21
526.512369
 31
0.0
  0
LINE
  8
LC-007-005-----0
  6
CONTINUOUS
  5
FF
 10
723.308179
 20
516.832999
 30
0.0
 11
727.179438
 21
520.704258
 31
0.0
  0
LINE
  8
LC-007-005-----0
  6
CONTINUOUS
  5
100
 10
732.964643
 20
526.489463
 30
0.0
 11
732.987549
 21
526.512369
 31
0.0
  0
LINE
  8
LC-007-005-----0
  6
CONTINUOUS
  5
101
 10
720.806752
 20
517.159999
 30
0.0
 11
724.49186
 21
520.845107
 31
0.0
  0
LINE
  8
LC-007-005-----0
  6
CONTINUOUS
  5
102
 10
719.042314
 20
518.223988
 30
0.0
 11
722.644117
 21
521.825791
 31
0.0
  0
LINE
  8
LC-007-005-----0
  6
CONTINUOUS
  5
103
 10
717.873262
 20
519.883363
 30
0.0
 11
721.229903
 21
523.240005
 31
0.0
  0
LINE
  8
LC-007-005-----0
  6
CONTINUOUS
  5
104
 10
717.422519
 20
522.261047
 30
0.0
 11
719.81569
 21
524.654218
 31
0.0
  0
LINE
  8
LC-007-005-----0
  6
CONTINUOUS
  5
105
 10
714.734941
 20
522.401897
 30
0.0
 11
717.651034
 21
525.31799
 31
0.0
  0
LINE
  8
LC-007-005-----0
  6
CONTINUOUS
  5
106
 10
713.965037
 20
524.46042
 30
0.0
 11
714.963457
 21
525.45884
 31
0.0
  0
ENDBLK
  8
0
  5
107
  0
BLOCK
  8
0
  5
109
  2
*X8
 70
    65
 10
947.660428
 20
619.641741
 30
0.0
  3
*X8
  0
LINE
  8
LC-007-005-----0
  6
CONTINUOUS
  5
10A
 10
1015.621539
 20
619.641741
 30
0.0
 11
1017.07373
 21
621.093933
 31
0.0
  0
LINE
  8
LC-007-005-----0
  6
CONTINUOUS
  5
10B
 10
1012.793112
 20
619.641741
 30
0.0
 11
1014.84302
 21
621.69165
 31
0.0
  0
LINE
  8
LC-007-005-----0
  6
CONTINUOUS
  5
10C
 10
1009.964684
 20
619.641741
 30
0.0
 11
1012.61231
 21
622.289367
 31
0.0
  0
LINE
  8
LC-007-005-----0
  6
CONTINUOUS
  5
10D
 10
1007.136257
 20
619.641741
 30
0.0
 11
1009.815441
 21
622.320925
 31
0.0
  0
LINE
  8
LC-007-005-----0
  6
CONTINUOUS
  5
10E
 10
1004.30783
 20
619.641741
 30
0.0
 11
1006.987014
 21
622.320925
 31
0.0
  0
LINE
  8
LC-007-005-----0
  6
CONTINUOUS
  5
10F
 10
1001.479403
 20
619.641741
 30
0.0
 11
1004.158586
 21
622.320925
 31
0.0
  0
LINE
  8
LC-007-005-----0
  6
CONTINUOUS
  5
110
 10
998.650976
 20
619.641741
 30
0.0
 11
1001.330159
 21
622.320925
 31
0.0
  0
LINE
  8
LC-007-005-----0
  6
CONTINUOUS
  5
111
 10
995.822549
 20
619.641741
 30
0.0
 11
998.501732
 21
622.320925
 31
0.0
  0
LINE
  8
LC-007-005-----0
  6
CONTINUOUS
  5
112
 10
992.994122
 20
619.641741
 30
0.0
 11
995.673305
 21
622.320925
 31
0.0
  0
LINE
  8
LC-007-005-----0
  6
CONTINUOUS
  5
113
 10
990.165695
 20
619.641741
 30
0.0
 11
992.844878
 21
622.320925
 31
0.0
  0
LINE
  8
LC-007-005-----0
  6
CONTINUOUS
  5
114
 10
987.337267
 20
619.641741
 30
0.0
 11
990.016451
 21
622.320925
 31
0.0
  0
LINE
  8
LC-007-005-----0
  6
CONTINUOUS
  5
115
 10
984.50884
 20
619.641741
 30
0.0
 11
987.188024
 21
622.320925
 31
0.0
  0
LINE
  8
LC-007-005-----0
  6
CONTINUOUS
  5
116
 10
981.680413
 20
619.641741
 30
0.0
 11
984.359597
 21
622.320925
 31
0.0
  0
LINE
  8
LC-007-005-----0
  6
CONTINUOUS
  5
117
 10
978.851986
 20
619.641741
 30
0.0
 11
981.531169
 21
622.320925
 31
0.0
  0
LINE
  8
LC-007-005-----0
  6
CONTINUOUS
  5
118
 10
976.023559
 20
619.641741
 30
0.0
 11
978.702742
 21
622.320925
 31
0.0
  0
LINE
  8
LC-007-005-----0
  6
CONTINUOUS
  5
119
 10
973.195132
 20
619.641741
 30
0.0
 11
975.874315
 21
622.320925
 31
0.0
  0
LINE
  8
LC-007-005-----0
  6
CONTINUOUS
  5
11A
 10
970.366705
 20
619.641741
 30
0.0
 11
973.045888
 21
622.320925
 31
0.0
  0
LINE
  8
LC-007-005-----0
  6
CONTINUOUS
  5
11B
 10
967.538278
 20
619.641741
 30
0.0
 11
970.217461
 21
622.320925
 31
0.0
  0
LINE
  8
LC-007-005-----0
  6
CONTINUOUS
  5
11C
 10
964.70985
 20
619.641741
 30
0.0
 11
967.389034
 21
622.320925
 31
0.0
  0
LINE
  8
LC-007-005-----0
  6
CONTINUOUS
  5
11D
 10
961.881423
 20
619.641741
 30
0.0
 11
964.560607
 21
622.320925
 31
0.0
  0
LINE
  8
LC-007-005-----0
  6
CONTINUOUS
  5
11E
 10
959.052996
 20
619.641741
 30
0.0
 11
961.73218
 21
622.320925
 31
0.0
  0
LINE
  8
LC-007-005-----0
  6
CONTINUOUS
  5
11F
 10
956.224569
 20
619.641741
 30
0.0
 11
958.903752
 21
622.320925
 31
0.0
  0
LINE
  8
LC-007-005-----0
  6
CONTINUOUS
  5
120
 10
953.396142
 20
619.641741
 30
0.0
 11
956.075325
 21
622.320925
 31
0.0
  0
LINE
  8
LC-007-005-----0
  6
CONTINUOUS
  5
121
 10
950.567715
 20
619.641741
 30
0.0
 11
953.246898
 21
622.320925
 31
0.0
  0
LINE
  8
LC-007-005-----0
  6
CONTINUOUS
  5
122
 10
947.739288
 20
619.641741
 30
0.0
 11
953.010123
 21
624.912576
 31
0.0
  0
LINE
  8
LC-007-005-----0
  6
CONTINUOUS
  5
123
 10
947.709217
 20
622.440098
 30
0.0
 11
953.060199
 21
627.791079
 31
0.0
  0
LINE
  8
LC-007-005-----0
  6
CONTINUOUS
  5
124
 10
947.759405
 20
625.318713
 30
0.0
 11
953.110275
 21
630.669582
 31
0.0
  0
LINE
  8
LC-007-005-----0
  6
CONTINUOUS
  5
125
 10
947.809593
 20
628.197328
 30
0.0
 11
953.160351
 21
633.548086
 31
0.0
  0
LINE
  8
LC-007-005-----0
  6
CONTINUOUS
  5
126
 10
947.859781
 20
631.075944
 30
0.0
 11
953.210427
 21
636.426589
 31
0.0
  0
LINE
  8
LC-007-005-----0
  6
CONTINUOUS
  5
127
 10
947.90997
 20
633.954559
 30
0.0
 11
953.260502
 21
639.305092
 31
0.0
  0
LINE
  8
LC-007-005-----0
  6
CONTINUOUS
  5
128
 10
947.960158
 20
636.833174
 30
0.0
 11
953.310578
 21
642.183595
 31
0.0
  0
LINE
  8
LC-007-005-----0
  6
CONTINUOUS
  5
129
 10
948.010346
 20
639.711789
 30
0.0
 11
953.360654
 21
645.062098
 31
0.0
  0
LINE
  8
LC-007-005-----0
  6
CONTINUOUS
  5
12A
 10
948.060534
 20
642.590405
 30
0.0
 11
953.41073
 21
647.940601
 31
0.0
  0
LINE
  8
LC-007-005-----0
  6
CONTINUOUS
  5
12B
 10
948.110722
 20
645.46902
 30
0.0
 11
953.460806
 21
650.819104
 31
0.0
  0
LINE
  8
LC-007-005-----0
  6
CONTINUOUS
  5
12C
 10
948.16091
 20
648.347635
 30
0.0
 11
953.510882
 21
653.697607
 31
0.0
  0
LINE
  8
LC-007-005-----0
  6
CONTINUOUS
  5
12D
 10
948.211099
 20
651.22625
 30
0.0
 11
953.560958
 21
656.57611
 31
0.0
  0
LINE
  8
LC-007-005-----0
  6
CONTINUOUS
  5
12E
 10
948.261287
 20
654.104866
 30
0.0
 11
953.611034
 21
659.454613
 31
0.0
  0
LINE
  8
LC-007-005-----0
  6
CONTINUOUS
  5
12F
 10
948.311475
 20
656.983481
 30
0.0
 11
953.66111
 21
662.333116
 31
0.0
  0
LINE
  8
LC-007-005-----0
  6
CONTINUOUS
  5
130
 10
948.361663
 20
659.862096
 30
0.0
 11
953.711186
 21
665.211619
 31
0.0
  0
LINE
  8
LC-007-005-----0
  6
CONTINUOUS
  5
131
 10
948.411851
 20
662.740712
 30
0.0
 11
953.761262
 21
668.090122
 31
0.0
  0
LINE
  8
LC-007-005-----0
  6
CONTINUOUS
  5
132
 10
948.462039
 20
665.619327
 30
0.0
 11
953.811338
 21
670.968625
 31
0.0
  0
LINE
  8
LC-007-005-----0
  6
CONTINUOUS
  5
133
 10
948.512228
 20
668.497942
 30
0.0
 11
953.861414
 21
673.847128
 31
0.0
  0
LINE
  8
LC-007-005-----0
  6
CONTINUOUS
  5
134
 10
948.562416
 20
671.376557
 30
0.0
 11
953.91149
 21
676.725632
 31
0.0
  0
LINE
  8
LC-007-005-----0
  6
CONTINUOUS
  5
135
 10
948.612604
 20
674.255173
 30
0.0
 11
953.961566
 21
679.604135
 31
0.0
  0
LINE
  8
LC-007-005-----0
  6
CONTINUOUS
  5
136
 10
948.662792
 20
677.133788
 30
0.0
 11
954.011642
 21
682.482638
 31
0.0
  0
LINE
  8
LC-007-005-----0
  6
CONTINUOUS
  5
137
 10
948.71298
 20
680.012403
 30
0.0
 11
954.061718
 21
685.361141
 31
0.0
  0
LINE
  8
LC-007-005-----0
  6
CONTINUOUS
  5
138
 10
948.763168
 20
682.891019
 30
0.0
 11
952.549865
 21
686.677715
 31
0.0
  0
LINE
  8
LC-007-005-----0
  6
CONTINUOUS
  5
139
 10
948.813356
 20
685.769634
 30
0.0
 11
952.39269
 21
689.348968
 31
0.0
  0
LINE
  8
LC-007-005-----0
  6
CONTINUOUS
  5
13A
 10
948.863545
 20
688.648249
 30
0.0
 11
952.235516
 21
692.02022
 31
0.0
  0
LINE
  8
LC-007-005-----0
  6
CONTINUOUS
  5
13B
 10
948.913733
 20
691.526864
 30
0.0
 11
952.078341
 21
694.691473
 31
0.0
  0
LINE
  8
LC-007-005-----0
  6
CONTINUOUS
  5
13C
 10
948.963921
 20
694.40548
 30
0.0
 11
949.419023
 21
694.860582
 31
0.0
  0
ENDBLK
  8
0
  5
13D
  0
BLOCK
  8
0
  5
13F
  2
*D9
 70
    65
 10
0.0
 20
0.0
 30
0.0
  3
*D9
  0
LINE
  8
LC-003-003-MTH-0
  6
CONTINUOUS
  5
140
 10
1012.465037
 20
512.341954
 30
0.0
 11
1060.8
 21
512.341954
 31
0.0
  0
LINE
  8
LC-003-003-MTH-0
  6
CONTINUOUS
  5
141
 10
1012.465037
 20
622.341954
 30
0.0
 11
1060.8
 21
622.341954
 31
0.0
  0
LINE
  8
LC-004-003-MTG-0
  6
CONTINUOUS
  5
142
 10
1050.0
 20
512.341954
 30
0.0
 11
1050.0
 21
622.341954
 31
0.0
  0
LINE
  8
LC-002-003-----0
  6
CONTINUOUS
  5
143
 10
1047.650529
 20
530.187961
 30
0.0
 11
1050.0
 21
512.341954
 31
0.0
  0
LINE
  8
LC-002-003-----0
  6
CONTINUOUS
  5
144
 10
1050.0
 20
512.341954
 30
0.0
 11
1052.349471
 21
530.187961
 31
0.0
  0
LINE
  8
LC-002-003-----0
  6
CONTINUOUS
  5
145
 10
1052.349471
 20
530.187961
 30
0.0
 11
1047.650529
 21
530.187961
 31
0.0
  0
LINE
  8
LC-002-003-----0
  6
CONTINUOUS
  5
146
 10
1048.261391
 20
530.227999
 30
0.0
 11
1050.0
 21
517.021954
 31
0.0
  0
LINE
  8
LC-002-003-----0
  6
CONTINUOUS
  5
147
 10
1050.0
 20
517.021954
 30
0.0
 11
1051.738609
 21
530.227999
 31
0.0
  0
LINE
  8
LC-002-003-----0
  6
CONTINUOUS
  5
148
 10
1048.872254
 20
530.268037
 30
0.0
 11
1050.0
 21
521.701954
 31
0.0
  0
LINE
  8
LC-002-003-----0
  6
CONTINUOUS
  5
149
 10
1050.0
 20
521.701954
 30
0.0
 11
1051.127746
 21
530.268037
 31
0.0
  0
LINE
  8
LC-002-003-----0
  6
CONTINUOUS
  5
14A
 10
1049.483116
 20
530.308075
 30
0.0
 11
1050.0
 21
526.381954
 31
0.0
  0
LINE
  8
LC-002-003-----0
  6
CONTINUOUS
  5
14B
 10
1050.0
 20
526.381954
 30
0.0
 11
1050.516884
 21
530.308075
 31
0.0
  0
LINE
  8
LC-002-003-----0
  6
CONTINUOUS
  5
14C
 10
1052.349471
 20
604.495946
 30
0.0
 11
1050.0
 21
622.341954
 31
0.0
  0
LINE
  8
LC-002-003-----0
  6
CONTINUOUS
  5
14D
 10
1050.0
 20
622.341954
 30
0.0
 11
1047.650529
 21
604.495946
 31
0.0
  0
LINE
  8
LC-002-003-----0
  6
CONTINUOUS
  5
14E
 10
1047.650529
 20
604.495946
 30
0.0
 11
1052.349471
 21
604.495946
 31
0.0
  0
LINE
  8
LC-002-003-----0
  6
CONTINUOUS
  5
14F
 10
1051.738609
 20
604.455908
 30
0.0
 11
1050.0
 21
617.661954
 31
0.0
  0
LINE
  8
LC-002-003-----0
  6
CONTINUOUS
  5
150
 10
1050.0
 20
617.661954
 30
0.0
 11
1048.261391
 21
604.455908
 31
0.0
  0
LINE
  8
LC-002-003-----0
  6
CONTINUOUS
  5
151
 10
1051.127746
 20
604.41587
 30
0.0
 11
1050.0
 21
612.981954
 31
0.0
  0
LINE
  8
LC-002-003-----0
  6
CONTINUOUS
  5
152
 10
1050.0
 20
612.981954
 30
0.0
 11
1048.872254
 21
604.41587
 31
0.0
  0
LINE
  8
LC-002-003-----0
  6
CONTINUOUS
  5
153
 10
1050.516884
 20
604.375832
 30
0.0
 11
1050.0
 21
608.301954
 31
0.0
  0
LINE
  8
LC-002-003-----0
  6
CONTINUOUS
  5
154
 10
1050.0
 20
608.301954
 30
0.0
 11
1049.483116
 21
604.375832
 31
0.0
  0
TEXT
  8
LC-002-003-----0
  6
CONTINUOUS
 62
     6
  5
155
 10
1039.568001
 20
535.176809
 30
0.0
 40
18.0
  1
DN100
 50
90.0
 51
15.0
  7
LC-TXTSTYLE-150-400-0-0-D0
 72
     1
 11
1039.568001
 21
568.852399
 31
0.0
  0
ENDBLK
  8
0
  5
156
  0
BLOCK
  8
0
  5
158
  2
*X10
 70
    65
 10
713.965037
 20
633.855428
 30
0.0
  3
*X10
  0
LINE
  8
LC-007-005-----0
  6
CONTINUOUS
  5
159
 10
775.276812
 20
633.855456
 30
0.0
 11
777.697313
 21
636.275957
 31
0.0
  0
LINE
  8
LC-007-005-----0
  6
CONTINUOUS
  5
15A
 10
774.178354
 20
635.585425
 30
0.0
 11
777.648789
 21
639.05586
 31
0.0
  0
LINE
  8
LC-007-005-----0
  6
CONTINUOUS
  5
15B
 10
771.947644
 20
636.183142
 30
0.0
 11
777.600266
 21
641.835764
 31
0.0
  0
LINE
  8
LC-007-005-----0
  6
CONTINUOUS
  5
15C
 10
769.716933
 20
636.780858
 30
0.0
 11
777.551743
 21
644.615668
 31
0.0
  0
LINE
  8
LC-007-005-----0
  6
CONTINUOUS
  5
15D
 10
767.020018
 20
636.91237
 30
0.0
 11
771.266465
 21
641.158818
 31
0.0
  0
LINE
  8
LC-007-005-----0
  6
CONTINUOUS
  5
15E
 10
772.594048
 20
642.4864
 30
0.0
 11
777.503219
 21
647.395572
 31
0.0
  0
LINE
  8
LC-007-005-----0
  6
CONTINUOUS
  5
15F
 10
764.191591
 20
636.91237
 30
0.0
 11
768.438038
 21
641.158818
 31
0.0
  0
LINE
  8
LC-007-005-----0
  6
CONTINUOUS
  5
160
 10
772.545525
 20
645.266304
 30
0.0
 11
777.454696
 21
650.175475
 31
0.0
  0
LINE
  8
LC-007-005-----0
  6
CONTINUOUS
  5
161
 10
761.363164
 20
636.91237
 30
0.0
 11
765.609611
 21
641.158818
 31
0.0
  0
LINE
  8
LC-007-005-----0
  6
CONTINUOUS
  5
162
 10
772.497001
 20
648.046208
 30
0.0
 11
777.406172
 21
652.955379
 31
0.0
  0
LINE
  8
LC-007-005-----0
  6
CONTINUOUS
  5
163
 10
758.534736
 20
636.91237
 30
0.0
 11
762.781184
 21
641.158818
 31
0.0
  0
LINE
  8
LC-007-005-----0
  6
CONTINUOUS
  5
164
 10
772.448478
 20
650.826111
 30
0.0
 11
777.357649
 21
655.735283
 31
0.0
  0
LINE
  8
LC-007-005-----0
  6
CONTINUOUS
  5
165
 10
755.706309
 20
636.91237
 30
0.0
 11
759.952757
 21
641.158818
 31
0.0
  0
LINE
  8
LC-007-005-----0
  6
CONTINUOUS
  5
166
 10
772.399954
 20
653.606015
 30
0.0
 11
777.309126
 21
658.515186
 31
0.0
  0
LINE
  8
LC-007-005-----0
  6
CONTINUOUS
  5
167
 10
752.877882
 20
636.91237
 30
0.0
 11
757.12433
 21
641.158818
 31
0.0
  0
LINE
  8
LC-007-005-----0
  6
CONTINUOUS
  5
168
 10
772.351431
 20
656.385919
 30
0.0
 11
777.260602
 21
661.29509
 31
0.0
  0
LINE
  8
LC-007-005-----0
  6
CONTINUOUS
  5
169
 10
750.049455
 20
636.91237
 30
0.0
 11
754.295903
 21
641.158818
 31
0.0
  0
LINE
  8
LC-007-005-----0
  6
CONTINUOUS
  5
16A
 10
772.302907
 20
659.165822
 30
0.0
 11
777.212079
 21
664.074994
 31
0.0
  0
LINE
  8
LC-007-005-----0
  6
CONTINUOUS
  5
16B
 10
747.221027
 20
636.912369
 30
0.0
 11
751.467476
 21
641.158818
 31
0.0
  0
LINE
  8
LC-007-005-----0
  6
CONTINUOUS
  5
16C
 10
772.254384
 20
661.945726
 30
0.0
 11
777.163555
 21
666.854898
 31
0.0
  0
LINE
  8
LC-007-005-----0
  6
CONTINUOUS
  5
16D
 10
744.3926
 20
636.912369
 30
0.0
 11
748.639049
 21
641.158818
 31
0.0
  0
LINE
  8
LC-007-005-----0
  6
CONTINUOUS
  5
16E
 10
772.20586
 20
664.72563
 30
0.0
 11
777.115032
 21
669.634801
 31
0.0
  0
LINE
  8
LC-007-005-----0
  6
CONTINUOUS
  5
16F
 10
741.564173
 20
636.912369
 30
0.0
 11
745.810622
 21
641.158818
 31
0.0
  0
LINE
  8
LC-007-005-----0
  6
CONTINUOUS
  5
170
 10
772.157337
 20
667.505533
 30
0.0
 11
777.066509
 21
672.414705
 31
0.0
  0
LINE
  8
LC-007-005-----0
  6
CONTINUOUS
  5
171
 10
738.735746
 20
636.912369
 30
0.0
 11
742.982195
 21
641.158819
 31
0.0
  0
LINE
  8
LC-007-005-----0
  6
CONTINUOUS
  5
172
 10
772.108814
 20
670.285437
 30
0.0
 11
777.017985
 21
675.194609
 31
0.0
  0
LINE
  8
LC-007-005-----0
  6
CONTINUOUS
  5
173
 10
735.907318
 20
636.912369
 30
0.0
 11
740.153768
 21
641.158819
 31
0.0
  0
LINE
  8
LC-007-005-----0
  6
CONTINUOUS
  5
174
 10
772.06029
 20
673.065341
 30
0.0
 11
776.969462
 21
677.974513
 31
0.0
  0
LINE
  8
LC-007-005-----0
  6
CONTINUOUS
  5
175
 10
733.078891
 20
636.912369
 30
0.0
 11
737.580805
 21
641.414283
 31
0.0
  0
LINE
  8
LC-007-005-----0
  6
CONTINUOUS
  5
176
 10
772.011767
 20
675.845244
 30
0.0
 11
776.920938
 21
680.754416
 31
0.0
  0
LINE
  8
LC-007-005-----0
  6
CONTINUOUS
  5
177
 10
732.964643
 20
639.626548
 30
0.0
 11
736.545529
 21
643.207434
 31
0.0
  0
LINE
  8
LC-007-005-----0
  6
CONTINUOUS
  5
178
 10
771.963243
 20
678.625148
 30
0.0
 11
776.872415
 21
683.53432
 31
0.0
  0
LINE
  8
LC-007-005-----0
  6
CONTINUOUS
  5
179
 10
732.592285
 20
642.082617
 30
0.0
 11
735.510253
 21
645.000585
 31
0.0
  0
LINE
  8
LC-007-005-----0
  6
CONTINUOUS
  5
17A
 10
771.91472
 20
681.405052
 30
0.0
 11
776.823892
 21
686.314224
 31
0.0
  0
LINE
  8
LC-007-005-----0
  6
CONTINUOUS
  5
17B
 10
730.572441
 20
642.8912
 30
0.0
 11
734.474976
 21
646.793736
 31
0.0
  0
LINE
  8
LC-007-005-----0
  6
CONTINUOUS
  5
17C
 10
771.866196
 20
684.184955
 30
0.0
 11
776.775368
 21
689.094127
 31
0.0
  0
LINE
  8
LC-007-005-----0
  6
CONTINUOUS
  5
17D
 10
727.587585
 20
642.734771
 30
0.0
 11
731.887053
 21
647.034239
 31
0.0
  0
LINE
  8
LC-007-005-----0
  6
CONTINUOUS
  5
17E
 10
773.078251
 20
688.225437
 30
0.0
 11
776.726845
 21
691.874031
 31
0.0
  0
LINE
  8
LC-007-005-----0
  6
CONTINUOUS
  5
17F
 10
724.602729
 20
642.578343
 30
0.0
 11
728.902197
 21
646.87781
 31
0.0
  0
LINE
  8
LC-007-005-----0
  6
CONTINUOUS
  5
180
 10
773.078251
 20
691.053864
 30
0.0
 11
776.678321
 21
694.653935
 31
0.0
  0
LINE
  8
LC-007-005-----0
  6
CONTINUOUS
  5
181
 10
717.275952
 20
638.079992
 30
0.0
 11
725.91734
 21
646.721381
 31
0.0
  0
LINE
  8
LC-007-005-----0
  6
CONTINUOUS
  5
182
 10
773.078251
 20
693.882292
 30
0.0
 11
774.054789
 21
694.85883
 31
0.0
  0
LINE
  8
LC-007-005-----0
  6
CONTINUOUS
  5
183
 10
714.291095
 20
637.923563
 30
0.0
 11
722.932484
 21
646.564952
 31
0.0
  0
LINE
  8
LC-007-005-----0
  6
CONTINUOUS
  5
184
 10
713.965037
 20
640.425932
 30
0.0
 11
714.544888
 21
641.005782
 31
0.0
  0
ENDBLK
  8
0
  5
185
  0
BLOCK
  8
0
  5
187
  2
BLK1
 70
    64
 10
0.0
 20
0.0
 30
0.0
  3
BLK1
  0
ENDBLK
  8
0
  5
188
  0
BLOCK
  8
0
  5
18A
  2
BLK2
 70
    64
 10
0.0
 20
0.0
 30
0.0
  3
BLK2
  0
ENDBLK
  8
0
  5
18B
  0
BLOCK
  8
0
  5
18D
  2
*X13
 70
    65
 10
722.8945
 20
637.025268
 30
0.0
  3
*X13
  0
LINE
  8
LC-007-005-----0
  6
CONTINUOUS
  5
18E
 10
730.625994
 20
637.287899
 30
0.0
 11
731.018892
 21
637.680797
 31
0.0
  0
LINE
  8
LC-007-005-----0
  6
CONTINUOUS
  5
18F
 10
731.877853
 20
638.539757
 30
0.0
 11
732.414712
 21
639.076617
 31
0.0
  0
LINE
  8
LC-007-005-----0
  6
CONTINUOUS
  5
190
 10
729.640351
 20
637.71647
 30
0.0
 11
732.405882
 21
640.482
 31
0.0
  0
LINE
  8
LC-007-005-----0
  6
CONTINUOUS
  5
191
 10
727.674635
 20
637.164967
 30
0.0
 11
727.926625
 21
637.416957
 31
0.0
  0
LINE
  8
LC-007-005-----0
  6
CONTINUOUS
  5
192
 10
728.654709
 20
638.145041
 30
0.0
 11
732.195019
 21
641.685351
 31
0.0
  0
LINE
  8
LC-007-005-----0
  6
CONTINUOUS
  5
193
 10
726.688993
 20
637.593538
 30
0.0
 11
730.771863
 21
641.676409
 31
0.0
  0
LINE
  8
LC-007-005-----0
  6
CONTINUOUS
  5
194
 10
725.70335
 20
638.022109
 30
0.0
 11
729.348707
 21
641.667466
 31
0.0
  0
LINE
  8
LC-007-005-----0
  6
CONTINUOUS
  5
195
 10
724.717707
 20
638.45068
 30
0.0
 11
727.925552
 21
641.658524
 31
0.0
  0
LINE
  8
LC-007-005-----0
  6
CONTINUOUS
  5
196
 10
723.338919
 20
638.486105
 30
0.0
 11
726.502396
 21
641.649582
 31
0.0
  0
LINE
  8
LC-007-005-----0
  6
CONTINUOUS
  5
197
 10
722.908056
 20
639.469456
 30
0.0
 11
725.07924
 21
641.64064
 31
0.0
  0
LINE
  8
LC-007-005-----0
  6
CONTINUOUS
  5
198
 10
722.899226
 20
640.874839
 30
0.0
 11
723.656085
 21
641.631698
 31
0.0
  0
ENDBLK
  8
0
  5
199
  0
BLOCK
  8
0
  5
19B
  2
BLK3
 70
    64
 10
0.0
 20
0.0
 30
0.0
  3
BLK3
  0
ENDBLK
  8
0
  5
19C
  0
BLOCK
  8
0
  5
19E
  2
*X15
 70
    65
 10
722.894506
 20
521.738109
 30
0.0
  3
*X15
  0
LINE
  8
LC-007-005-----0
  6
CONTINUOUS
  5
19F
 10
731.050187
 20
521.74658
 30
0.0
 11
732.406896
 21
523.103289
 31
0.0
  0
LINE
  8
LC-007-005-----0
  6
CONTINUOUS
  5
1A0
 10
729.644804
 20
521.75541
 30
0.0
 11
732.415838
 21
524.526445
 31
0.0
  0
LINE
  8
LC-007-005-----0
  6
CONTINUOUS
  5
1A1
 10
728.239421
 20
521.764241
 30
0.0
 11
731.363393
 21
524.888212
 31
0.0
  0
LINE
  8
LC-007-005-----0
  6
CONTINUOUS
  5
1A2
 10
726.834037
 20
521.773071
 30
0.0
 11
731.025385
 21
525.964419
 31
0.0
  0
LINE
  8
LC-007-005-----0
  6
CONTINUOUS
  5
1A3
 10
725.428654
 20
521.781901
 30
0.0
 11
729.135503
 21
525.48875
 31
0.0
  0
LINE
  8
LC-007-005-----0
  6
CONTINUOUS
  5
1A4
 10
724.023271
 20
521.790731
 30
0.0
 11
727.887801
 21
525.655262
 31
0.0
  0
LINE
  8
LC-007-005-----0
  6
CONTINUOUS
  5
1A5
 10
722.896266
 20
522.07794
 30
0.0
 11
726.619156
 21
525.80083
 31
0.0
  0
LINE
  8
LC-007-005-----0
  6
CONTINUOUS
  5
1A6
 10
722.905208
 20
523.501096
 30
0.0
 11
724.336476
 21
524.932364
 31
0.0
  0
LINE
  8
LC-007-005-----0
  6
CONTINUOUS
  5
1A7
 10
722.91415
 20
524.924251
 30
0.0
 11
722.931093
 21
524.941194
 31
0.0
  0
ENDBLK
  8
0
  5
1A8
  0
BLOCK
  8
0
  5
1AA
  2
BLK4
 70
    64
 10
0.0
 20
0.0
 30
0.0
  3
BLK4
  0
ENDBLK
  8
0
  5
1AB
  0
BLOCK
  8
0
  5
1AD
  2
*X17
 70
    65
 10
768.750778
 20
685.85883
 30
0.0
  3
*X17
  0
LINE
  8
LC-007-005-----0
  6
CONTINUOUS
  5
1AE
 10
957.061342
 20
697.568526
 30
0.0
 11
953.771038
 21
700.85883
 31
0.0
  0
LINE
  8
LC-007-005-----0
  6
CONTINUOUS
  5
1AF
 10
957.061342
 20
694.740099
 30
0.0
 11
950.942611
 21
700.85883
 31
0.0
  0
LINE
  8
LC-007-005-----0
  6
CONTINUOUS
  5
1B0
 10
957.061342
 20
691.911672
 30
0.0
 11
954.611029
 21
694.361985
 31
0.0
  0
LINE
  8
LC-007-005-----0
  6
CONTINUOUS
  5
1B1
 10
952.114184
 20
696.85883
 30
0.0
 11
948.114184
 21
700.85883
 31
0.0
  0
LINE
  8
LC-007-005-----0
  6
CONTINUOUS
  5
1B2
 10
957.061342
 20
689.083245
 30
0.0
 11
954.767459
 21
691.377128
 31
0.0
  0
LINE
  8
LC-007-005-----0
  6
CONTINUOUS
  5
1B3
 10
949.285757
 20
696.85883
 30
0.0
 11
945.285757
 21
700.85883
 31
0.0
  0
LINE
  8
LC-007-005-----0
  6
CONTINUOUS
  5
1B4
 10
957.05225
 20
686.26391
 30
0.0
 11
954.923888
 21
688.392271
 31
0.0
  0
LINE
  8
LC-007-005-----0
  6
CONTINUOUS
  5
1B5
 10
947.474387
 20
695.841772
 30
0.0
 11
942.45733
 21
700.85883
 31
0.0
  0
LINE
  8
LC-007-005-----0
  6
CONTINUOUS
  5
1B6
 10
947.333538
 20
693.154195
 30
0.0
 11
945.138889
 21
695.348843
 31
0.0
  0
LINE
  8
LC-007-005-----0
  6
CONTINUOUS
  5
1B7
 10
943.617014
 20
696.870718
 30
0.0
 11
939.628903
 21
700.85883
 31
0.0
  0
LINE
  8
LC-007-005-----0
  6
CONTINUOUS
  5
1B8
 10
947.192688
 20
690.466618
 30
0.0
 11
945.138889
 21
692.520416
 31
0.0
  0
LINE
  8
LC-007-005-----0
  6
CONTINUOUS
  5
1B9
 10
940.788794
 20
696.870511
 30
0.0
 11
936.800476
 21
700.85883
 31
0.0
  0
LINE
  8
LC-007-005-----0
  6
CONTINUOUS
  5
1BA
 10
945.423073
 20
689.407805
 30
0.0
 11
945.187865
 21
689.643013
 31
0.0
  0
LINE
  8
LC-007-005-----0
  6
CONTINUOUS
  5
1BB
 10
937.960574
 20
696.870304
 30
0.0
 11
933.972049
 21
700.85883
 31
0.0
  0
LINE
  8
LC-007-005-----0
  6
CONTINUOUS
  5
1BC
 10
935.132354
 20
696.870097
 30
0.0
 11
931.143621
 21
700.85883
 31
0.0
  0
LINE
  8
LC-007-005-----0
  6
CONTINUOUS
  5
1BD
 10
932.304134
 20
696.86989
 30
0.0
 11
928.315194
 21
700.85883
 31
0.0
  0
LINE
  8
LC-007-005-----0
  6
CONTINUOUS
  5
1BE
 10
929.475914
 20
696.869683
 30
0.0
 11
925.486767
 21
700.85883
 31
0.0
  0
LINE
  8
LC-007-005-----0
  6
CONTINUOUS
  5
1BF
 10
926.647693
 20
696.869476
 30
0.0
 11
922.65834
 21
700.85883
 31
0.0
  0
LINE
  8
LC-007-005-----0
  6
CONTINUOUS
  5
1C0
 10
923.819473
 20
696.869269
 30
0.0
 11
919.829913
 21
700.85883
 31
0.0
  0
LINE
  8
LC-007-005-----0
  6
CONTINUOUS
  5
1C1
 10
920.991253
 20
696.869062
 30
0.0
 11
917.001486
 21
700.85883
 31
0.0
  0
LINE
  8
LC-007-005-----0
  6
CONTINUOUS
  5
1C2
 10
918.163033
 20
696.868855
 30
0.0
 11
914.173059
 21
700.85883
 31
0.0
  0
LINE
  8
LC-007-005-----0
  6
CONTINUOUS
  5
1C3
 10
915.334813
 20
696.868648
 30
0.0
 11
911.344632
 21
700.85883
 31
0.0
  0
LINE
  8
LC-007-005-----0
  6
CONTINUOUS
  5
1C4
 10
912.506593
 20
696.868441
 30
0.0
 11
908.516204
 21
700.85883
 31
0.0
  0
LINE
  8
LC-007-005-----0
  6
CONTINUOUS
  5
1C5
 10
909.678373
 20
696.868234
 30
0.0
 11
905.687777
 21
700.85883
 31
0.0
  0
LINE
  8
LC-007-005-----0
  6
CONTINUOUS
  5
1C6
 10
906.850152
 20
696.868027
 30
0.0
 11
902.85935
 21
700.85883
 31
0.0
  0
LINE
  8
LC-007-005-----0
  6
CONTINUOUS
  5
1C7
 10
904.021932
 20
696.86782
 30
0.0
 11
900.030923
 21
700.85883
 31
0.0
  0
LINE
  8
LC-007-005-----0
  6
CONTINUOUS
  5
1C8
 10
901.193712
 20
696.867613
 30
0.0
 11
897.202496
 21
700.85883
 31
0.0
  0
LINE
  8
LC-007-005-----0
  6
CONTINUOUS
  5
1C9
 10
898.365492
 20
696.867406
 30
0.0
 11
894.374069
 21
700.85883
 31
0.0
  0
LINE
  8
LC-007-005-----0
  6
CONTINUOUS
  5
1CA
 10
895.537272
 20
696.867199
 30
0.0
 11
891.545642
 21
700.85883
 31
0.0
  0
LINE
  8
LC-007-005-----0
  6
CONTINUOUS
  5
1CB
 10
892.709052
 20
696.866992
 30
0.0
 11
888.717215
 21
700.85883
 31
0.0
  0
LINE
  8
LC-007-005-----0
  6
CONTINUOUS
  5
1CC
 10
889.880832
 20
696.866785
 30
0.0
 11
885.888787
 21
700.85883
 31
0.0
  0
LINE
  8
LC-007-005-----0
  6
CONTINUOUS
  5
1CD
 10
887.052611
 20
696.866578
 30
0.0
 11
883.06036
 21
700.85883
 31
0.0
  0
LINE
  8
LC-007-005-----0
  6
CONTINUOUS
  5
1CE
 10
884.224391
 20
696.866371
 30
0.0
 11
880.231933
 21
700.85883
 31
0.0
  0
LINE
  8
LC-007-005-----0
  6
CONTINUOUS
  5
1CF
 10
881.396171
 20
696.866164
 30
0.0
 11
877.403506
 21
700.85883
 31
0.0
  0
LINE
  8
LC-007-005-----0
  6
CONTINUOUS
  5
1D0
 10
878.567951
 20
696.865957
 30
0.0
 11
874.575079
 21
700.85883
 31
0.0
  0
LINE
  8
LC-007-005-----0
  6
CONTINUOUS
  5
1D1
 10
875.739731
 20
696.86575
 30
0.0
 11
871.746652
 21
700.85883
 31
0.0
  0
LINE
  8
LC-007-005-----0
  6
CONTINUOUS
  5
1D2
 10
872.911511
 20
696.865543
 30
0.0
 11
868.918225
 21
700.85883
 31
0.0
  0
LINE
  8
LC-007-005-----0
  6
CONTINUOUS
  5
1D3
 10
870.083291
 20
696.865336
 30
0.0
 11
866.089798
 21
700.85883
 31
0.0
  0
LINE
  8
LC-007-005-----0
  6
CONTINUOUS
  5
1D4
 10
867.25507
 20
696.86513
 30
0.0
 11
863.26137
 21
700.85883
 31
0.0
  0
LINE
  8
LC-007-005-----0
  6
CONTINUOUS
  5
1D5
 10
864.42685
 20
696.864923
 30
0.0
 11
860.432943
 21
700.85883
 31
0.0
  0
LINE
  8
LC-007-005-----0
  6
CONTINUOUS
  5
1D6
 10
861.59863
 20
696.864716
 30
0.0
 11
857.604516
 21
700.85883
 31
0.0
  0
LINE
  8
LC-007-005-----0
  6
CONTINUOUS
  5
1D7
 10
858.77041
 20
696.864509
 30
0.0
 11
854.776089
 21
700.85883
 31
0.0
  0
LINE
  8
LC-007-005-----0
  6
CONTINUOUS
  5
1D8
 10
855.94219
 20
696.864302
 30
0.0
 11
851.947662
 21
700.85883
 31
0.0
  0
LINE
  8
LC-007-005-----0
  6
CONTINUOUS
  5
1D9
 10
853.11397
 20
696.864095
 30
0.0
 11
849.119235
 21
700.85883
 31
0.0
  0
LINE
  8
LC-007-005-----0
  6
CONTINUOUS
  5
1DA
 10
850.28575
 20
696.863888
 30
0.0
 11
846.290808
 21
700.85883
 31
0.0
  0
LINE
  8
LC-007-005-----0
  6
CONTINUOUS
  5
1DB
 10
847.457529
 20
696.863681
 30
0.0
 11
843.462381
 21
700.85883
 31
0.0
  0
LINE
  8
LC-007-005-----0
  6
CONTINUOUS
  5
1DC
 10
844.629309
 20
696.863474
 30
0.0
 11
840.633953
 21
700.85883
 31
0.0
  0
LINE
  8
LC-007-005-----0
  6
CONTINUOUS
  5
1DD
 10
841.801089
 20
696.863267
 30
0.0
 11
837.805526
 21
700.85883
 31
0.0
  0
LINE
  8
LC-007-005-----0
  6
CONTINUOUS
  5
1DE
 10
838.972869
 20
696.86306
 30
0.0
 11
834.977099
 21
700.85883
 31
0.0
  0
LINE
  8
LC-007-005-----0
  6
CONTINUOUS
  5
1DF
 10
836.144649
 20
696.862853
 30
0.0
 11
832.148672
 21
700.85883
 31
0.0
  0
LINE
  8
LC-007-005-----0
  6
CONTINUOUS
  5
1E0
 10
833.316429
 20
696.862646
 30
0.0
 11
829.320245
 21
700.85883
 31
0.0
  0
LINE
  8
LC-007-005-----0
  6
CONTINUOUS
  5
1E1
 10
830.488209
 20
696.862439
 30
0.0
 11
826.491818
 21
700.85883
 31
0.0
  0
LINE
  8
LC-007-005-----0
  6
CONTINUOUS
  5
1E2
 10
827.659988
 20
696.862232
 30
0.0
 11
823.663391
 21
700.85883
 31
0.0
  0
LINE
  8
LC-007-005-----0
  6
CONTINUOUS
  5
1E3
 10
824.831768
 20
696.862025
 30
0.0
 11
820.834964
 21
700.85883
 31
0.0
  0
LINE
  8
LC-007-005-----0
  6
CONTINUOUS
  5
1E4
 10
822.003548
 20
696.861818
 30
0.0
 11
818.006536
 21
700.85883
 31
0.0
  0
LINE
  8
LC-007-005-----0
  6
CONTINUOUS
  5
1E5
 10
819.175328
 20
696.861611
 30
0.0
 11
815.178109
 21
700.85883
 31
0.0
  0
LINE
  8
LC-007-005-----0
  6
CONTINUOUS
  5
1E6
 10
816.347108
 20
696.861404
 30
0.0
 11
812.349682
 21
700.85883
 31
0.0
  0
LINE
  8
LC-007-005-----0
  6
CONTINUOUS
  5
1E7
 10
813.518888
 20
696.861197
 30
0.0
 11
809.521255
 21
700.85883
 31
0.0
  0
LINE
  8
LC-007-005-----0
  6
CONTINUOUS
  5
1E8
 10
810.690668
 20
696.86099
 30
0.0
 11
806.692828
 21
700.85883
 31
0.0
  0
LINE
  8
LC-007-005-----0
  6
CONTINUOUS
  5
1E9
 10
807.862447
 20
696.860783
 30
0.0
 11
803.864401
 21
700.85883
 31
0.0
  0
LINE
  8
LC-007-005-----0
  6
CONTINUOUS
  5
1EA
 10
805.034227
 20
696.860576
 30
0.0
 11
801.035974
 21
700.85883
 31
0.0
  0
LINE
  8
LC-007-005-----0
  6
CONTINUOUS
  5
1EB
 10
802.206007
 20
696.860369
 30
0.0
 11
798.207547
 21
700.85883
 31
0.0
  0
LINE
  8
LC-007-005-----0
  6
CONTINUOUS
  5
1EC
 10
799.377787
 20
696.860162
 30
0.0
 11
795.379119
 21
700.85883
 31
0.0
  0
LINE
  8
LC-007-005-----0
  6
CONTINUOUS
  5
1ED
 10
796.549567
 20
696.859955
 30
0.0
 11
792.550692
 21
700.85883
 31
0.0
  0
LINE
  8
LC-007-005-----0
  6
CONTINUOUS
  5
1EE
 10
793.721347
 20
696.859748
 30
0.0
 11
789.722265
 21
700.85883
 31
0.0
  0
LINE
  8
LC-007-005-----0
  6
CONTINUOUS
  5
1EF
 10
790.893127
 20
696.859541
 30
0.0
 11
786.893838
 21
700.85883
 31
0.0
  0
LINE
  8
LC-007-005-----0
  6
CONTINUOUS
  5
1F0
 10
788.064906
 20
696.859334
 30
0.0
 11
784.065411
 21
700.85883
 31
0.0
  0
LINE
  8
LC-007-005-----0
  6
CONTINUOUS
  5
1F1
 10
785.236686
 20
696.859127
 30
0.0
 11
781.236984
 21
700.85883
 31
0.0
  0
LINE
  8
LC-007-005-----0
  6
CONTINUOUS
  5
1F2
 10
782.408466
 20
696.85892
 30
0.0
 11
778.408557
 21
700.85883
 31
0.0
  0
LINE
  8
LC-007-005-----0
  6
CONTINUOUS
  5
1F3
 10
780.672004
 20
695.766955
 30
0.0
 11
775.58013
 21
700.85883
 31
0.0
  0
LINE
  8
LC-007-005-----0
  6
CONTINUOUS
  5
1F4
 10
780.672004
 20
692.938528
 30
0.0
 11
778.369201
 21
695.241331
 31
0.0
  0
LINE
  8
LC-007-005-----0
  6
CONTINUOUS
  5
1F5
 10
776.751702
 20
696.85883
 30
0.0
 11
772.751702
 21
700.85883
 31
0.0
  0
LINE
  8
LC-007-005-----0
  6
CONTINUOUS
  5
1F6
 10
780.672004
 20
690.110101
 30
0.0
 11
778.52563
 21
692.256474
 31
0.0
  0
LINE
  8
LC-007-005-----0
  6
CONTINUOUS
  5
1F7
 10
773.923275
 20
696.85883
 30
0.0
 11
770.298323
 21
700.483782
 31
0.0
  0
LINE
  8
LC-007-005-----0
  6
CONTINUOUS
  5
1F8
 10
771.363283
 20
696.590395
 30
0.0
 11
768.969745
 21
698.983932
 31
0.0
  0
LINE
  8
LC-007-005-----0
  6
CONTINUOUS
  5
1F9
 10
771.179289
 20
693.945962
 30
0.0
 11
768.750778
 21
696.374472
 31
0.0
  0
LINE
  8
LC-007-005-----0
  6
CONTINUOUS
  5
1FA
 10
771.038439
 20
691.258385
 30
0.0
 11
768.750778
 21
693.546045
 31
0.0
  0
LINE
  8
LC-007-005-----0
  6
CONTINUOUS
  5
1FB
 10
770.897589
 20
688.570808
 30
0.0
 11
768.750778
 21
690.717618
 31
0.0
  0
LINE
  8
LC-007-005-----0
  6
CONTINUOUS
  5
1FC
 10
770.634612
 20
686.005357
 30
0.0
 11
768.750778
 21
687.889191
 31
0.0
  0
ENDBLK
  8
0
  5
1FD
  0
BLOCK
  8
0
  5
1FF
  2
BLK5
 70
    64
 10
0.0
 20
0.0
 30
0.0
  3
BLK5
  0
ENDBLK
  8
0
  5
200
  0
BLOCK
  8
0
  5
202
  2
BLK6
 70
    64
 10
0.0
 20
0.0
 30
0.0
  3
BLK6
  0
ENDBLK
  8
0
  5
203
  0
BLOCK
  8
0
  5
205
  2
BLK7
 70
    64
 10
0.0
 20
0.0
 30
0.0
  3
BLK7
  0
ENDBLK
  8
0
  5
206
  0
BLOCK
  8
0
  5
208
  2
*X21
 70
    65
 10
771.221357
 20
686.35883
 30
0.0
  3
*X21
  0
LINE
  8
LC-007-005-----0
  6
CONTINUOUS
  5
209
 10
778.282711
 20
686.35883
 30
0.0
 11
778.700623
 21
686.776742
 31
0.0
  0
LINE
  8
LC-007-005-----0
  6
DASHED
  5
20B
 10
777.037252
 20
687.941797
 30
0.0
 11
778.566928
 21
689.471474
 31
0.0
  0
LINE
  8
LC-007-005-----0
  6
DASHED
  5
20C
 10
776.966827
 20
689.285586
 30
0.0
 11
778.500081
 21
690.81884
 31
0.0
  0
LINE
  8
LC-007-005-----0
  6
CONTINUOUS
  5
20D
 10
771.221864
 20
686.369051
 30
0.0
 11
772.911594
 21
688.05878
 31
0.0
  0
LINE
  8
LC-007-005-----0
  6
CONTINUOUS
  5
20E
 10
776.825977
 20
691.973163
 30
0.0
 11
778.366386
 21
693.513572
 31
0.0
  0
LINE
  8
LC-007-005-----0
  6
CONTINUOUS
  5
20F
 10
771.295691
 20
687.857091
 30
0.0
 11
772.989809
 21
689.551208
 31
0.0
  0
LINE
  8
LC-007-005-----0
  6
CONTINUOUS
  5
210
 10
776.755552
 20
693.316951
 30
0.0
 11
778.275281
 21
694.836681
 31
0.0
  0
LINE
  8
LC-007-005-----0
  6
DASHED
  5
211
 10
771.443345
 20
690.833172
 30
0.0
 11
773.146239
 21
692.536065
 31
0.0
  0
LINE
  8
LC-007-005-----0
  6
DASHED
  5
212
 10
775.469003
 20
694.85883
 30
0.0
 11
777.110813
 21
696.50064
 31
0.0
  0
LINE
  8
LC-007-005-----0
  6
DASHED
  5
213
 10
771.517172
 20
692.321212
 30
0.0
 11
773.224453
 21
694.028494
 31
0.0
  0
LINE
  8
LC-007-005-----0
  6
DASHED
  5
214
 10
774.054789
 20
694.85883
 30
0.0
 11
776.044786
 21
696.848827
 31
0.0
  0
LINE
  8
LC-007-005-----0
  6
CONTINUOUS
  5
215
 10
771.930362
 20
695.56283
 30
0.0
 11
772.91734
 21
696.549807
 31
0.0
  0
ENDBLK
  8
0
  5
216
  0
BLOCK
  8
0
  5
218
  2
*X22
 70
    65
 10
947.090763
 20
686.35883
 30
0.0
  3
*X22
  0
LINE
  8
LC-007-005-----0
  6
CONTINUOUS
  5
219
 10
953.645193
 20
686.35883
 30
0.0
 11
954.546068
 21
687.259704
 31
0.0
  0
LINE
  8
LC-007-005-----0
  6
DASHED
  5
21A
 10
952.881414
 20
688.423478
 30
0.0
 11
954.412373
 21
689.954436
 31
0.0
  0
LINE
  8
LC-007-005-----0
  6
DASHED
  5
21B
 10
952.810989
 20
689.767266
 30
0.0
 11
954.345525
 21
691.301803
 31
0.0
  0
LINE
  8
LC-007-005-----0
  6
CONTINUOUS
  5
21C
 10
947.117733
 20
686.902438
 30
0.0
 11
948.809036
 21
688.59374
 31
0.0
  0
LINE
  8
LC-007-005-----0
  6
CONTINUOUS
  5
21D
 10
952.670139
 20
692.454843
 30
0.0
 11
954.21183
 21
693.996535
 31
0.0
  0
LINE
  8
LC-007-005-----0
  6
CONTINUOUS
  5
21E
 10
947.19156
 20
688.390478
 30
0.0
 11
948.887251
 21
690.086169
 31
0.0
  0
LINE
  8
LC-007-005-----0
  6
CONTINUOUS
  5
21F
 10
952.599714
 20
693.798632
 30
0.0
 11
954.033268
 21
695.232186
 31
0.0
  0
LINE
  8
LC-007-005-----0
  6
DASHED
  5
220
 10
947.339214
 20
691.366559
 30
0.0
 11
949.04368
 21
693.071026
 31
0.0
  0
LINE
  8
LC-007-005-----0
  6
DASHED
  5
221
 10
950.831484
 20
694.85883
 30
0.0
 11
952.643027
 21
696.670372
 31
0.0
  0
ENDBLK
  8
0
  5
222
  0
BLOCK
  8
0
  5
224
  2
BLK8
 70
    64
 10
0.0
 20
0.0
 30
0.0
  3
BLK8
  0
ENDBLK
  8
0
  5
225
  0
BLOCK
  8
0
  5
227
  2
*X24
 70
    65
 10
776.323575
 20
647.824939
 30
0.0
  3
*X24
  0
LINE
  8
LC-007-005-----0
  6
CONTINUOUS
  5
228
 10
799.168979
 20
657.47099
 30
0.0
 11
798.00544
 21
658.634529
 31
0.0
  0
LINE
  8
LC-007-005-----0
  6
DASHED
  5
229
 10
795.635346
 20
655.347769
 30
0.0
 11
792.990334
 21
657.992781
 31
0.0
  0
LINE
  8
LC-007-005-----0
  6
DASHED
  5
22A
 10
793.868529
 20
654.286159
 30
0.0
 11
791.223517
 21
656.931171
 31
0.0
  0
LINE
  8
LC-007-005-----0
  6
CONTINUOUS
  5
22B
 10
790.334896
 20
652.162938
 30
0.0
 11
787.300653
 21
655.197181
 31
0.0
  0
LINE
  8
LC-007-005-----0
  6
CONTINUOUS
  5
22C
 10
784.316011
 20
658.181823
 30
0.0
 11
783.122928
 21
659.374906
 31
0.0
  0
LINE
  8
LC-007-005-----0
  6
CONTINUOUS
  5
22D
 10
788.568079
 20
651.101327
 30
0.0
 11
784.520749
 21
655.148658
 31
0.0
  0
LINE
  8
LC-007-005-----0
  6
CONTINUOUS
  5
22E
 10
782.554761
 20
657.114646
 30
0.0
 11
780.343024
 21
659.326383
 31
0.0
  0
LINE
  8
LC-007-005-----0
  6
DASHED
  5
22F
 10
785.034446
 20
648.978106
 30
0.0
 11
777.341312
 21
656.67124
 31
0.0
  0
LINE
  8
LC-007-005-----0
  6
DASHED
  5
230
 10
776.346785
 20
657.665767
 30
0.0
 11
776.330037
 21
657.682515
 31
0.0
  0
LINE
  8
LC-007-005-----0
  6
DASHED
  5
231
 10
783.258595
 20
647.92553
 30
0.0
 11
777.391559
 21
653.792566
 31
0.0
  0
LINE
  8
LC-007-005-----0
  6
CONTINUOUS
  5
232
 10
777.698788
 20
647.828483
 30
0.0
 11
777.492054
 21
648.035217
 31
0.0
  0
ENDBLK
  8
0
  5
233
  0
BLOCK
  8
0
  5
235
  2
*X25
 70
    65
 10
778.680523
 20
512.795507
 30
0.0
  3
*X25
  0
LINE
  8
LC-007-005-----0
  6
CONTINUOUS
  5
236
 10
801.052902
 20
514.165711
 30
0.0
 11
797.631288
 21
517.587325
 31
0.0
  0
LINE
  8
LC-007-005-----0
  6
DASHED
  5
237
 10
794.249907
 20
515.311852
 30
0.0
 11
785.220806
 21
524.340953
 31
0.0
  0
LINE
  8
LC-007-005-----0
  6
DASHED
  5
238
 10
789.51846
 20
517.214872
 30
0.0
 11
782.440902
 21
524.292429
 31
0.0
  0
LINE
  8
LC-007-005-----0
  6
CONTINUOUS
  5
239
 10
786.828383
 20
514.248094
 30
0.0
 11
785.924641
 21
515.151837
 31
0.0
  0
LINE
  8
LC-007-005-----0
  6
CONTINUOUS
  5
23A
 10
783.958652
 20
517.117825
 30
0.0
 11
779.702942
 21
521.373535
 31
0.0
  0
LINE
  8
LC-007-005-----0
  6
CONTINUOUS
  5
23B
 10
785.356474
 20
512.891577
 30
0.0
 11
779.753189
 21
518.494861
 31
0.0
  0
ENDBLK
  8
0
  5
23C
  0
BLOCK
  8
0
  5
23E
  2
BLK9
 70
    64
 10
0.0
 20
0.0
 30
0.0
  3
BLK9
  0
ENDBLK
  8
0
  5
23F
  0
BLOCK
  8
0
  5
241
  2
*X27
 70
    65
 10
776.98906
 20
655.093652
 30
0.0
  3
*X27
  0
LINE
  8
LC-007-005-----0
  6
CONTINUOUS
  5
242
 10
800.834494
 20
658.633903
 30
0.0
 11
797.099116
 21
662.36928
 31
0.0
  0
LINE
  8
LC-007-005-----0
  6
CONTINUOUS
  5
243
 10
785.855696
 20
673.6127
 30
0.0
 11
782.520122
 21
676.948274
 31
0.0
  0
LINE
  8
LC-007-005-----0
  6
CONTINUOUS
  5
244
 10
792.808145
 20
658.17497
 30
0.0
 11
788.759405
 21
662.22371
 31
0.0
  0
LINE
  8
LC-007-005-----0
  6
CONTINUOUS
  5
245
 10
780.907924
 20
670.075191
 30
0.0
 11
777.039827
 21
673.943288
 31
0.0
  0
LINE
  8
LC-007-005-----0
  6
CONTINUOUS
  5
246
 10
787.300653
 20
655.197181
 30
0.0
 11
784.316011
 21
658.181823
 31
0.0
  0
LINE
  8
LC-007-005-----0
  6
CONTINUOUS
  5
247
 10
783.122928
 20
659.374906
 30
0.0
 11
777.190569
 21
665.307264
 31
0.0
  0
ENDBLK
  8
0
  5
248
  0
BLOCK
  8
0
  5
24A
  2
*X28
 70
    65
 10
779.852672
 20
509.880557
 30
0.0
  3
*X28
  0
LINE
  8
LC-007-005-----0
  6
CONTINUOUS
  5
24B
 10
801.569644
 20
513.648969
 30
0.0
 11
801.003752
 21
514.214861
 31
0.0
  0
LINE
  8
LC-007-005-----0
  6
CONTINUOUS
  5
24C
 10
796.596017
 20
510.137314
 30
0.0
 11
789.51846
 21
517.214872
 31
0.0
  0
LINE
  8
LC-007-005-----0
  6
CONTINUOUS
  5
24D
 10
788.256306
 20
509.991744
 30
0.0
 11
785.356474
 21
512.891577
 31
0.0
  0
ENDBLK
  8
0
  5
24E
  0
BLOCK
  8
0
  5
250
  2
*X29
 70
    65
 10
537.043294
 20
443.651439
 30
0.0
  3
*X29
  0
LINE
  8
LC-007-005-----0
  6
CONTINUOUS
  5
251
 10
798.459476
 20
675.151056
 30
0.0
 11
797.558354
 21
676.052178
 31
0.0
  0
LINE
  8
LC-007-005-----0
  6
CONTINUOUS
  5
252
 10
800.415698
 20
670.366407
 30
0.0
 11
799.261785
 21
671.52032
 31
0.0
  0
LINE
  8
LC-007-005-----0
  6
CONTINUOUS
  5
253
 10
794.417966
 20
676.364139
 30
0.0
 11
793.72987
 21
677.052235
 31
0.0
  0
LINE
  8
LC-007-005-----0
  6
CONTINUOUS
  5
254
 10
801.979657
 20
665.974021
 30
0.0
 11
800.825744
 21
667.127934
 31
0.0
  0
LINE
  8
LC-007-005-----0
  6
CONTINUOUS
  5
255
 10
791.831982
 20
676.121696
 30
0.0
 11
791.288905
 21
676.664772
 31
0.0
  0
LINE
  8
LC-007-005-----0
  6
CONTINUOUS
  5
256
 10
802.988627
 20
662.136624
 30
0.0
 11
802.276083
 21
662.849168
 31
0.0
  0
LINE
  8
LC-007-005-----0
  6
CONTINUOUS
  5
257
 10
790.110273
 20
675.014978
 30
0.0
 11
789.61508
 21
675.51017
 31
0.0
  0
LINE
  8
LC-007-005-----0
  6
CONTINUOUS
  5
258
 10
803.038874
 20
659.257949
 30
0.0
 11
802.32633
 21
659.970493
 31
0.0
  0
LINE
  8
LC-007-005-----0
  6
CONTINUOUS
  5
259
 10
789.106672
 20
673.190151
 30
0.0
 11
788.545588
 21
673.751236
 31
0.0
  0
LINE
  8
LC-007-005-----0
  6
CONTINUOUS
  5
25A
 10
803.089122
 20
656.379275
 30
0.0
 11
802.376578
 21
657.091819
 31
0.0
  0
LINE
  8
LC-007-005-----0
  6
CONTINUOUS
  5
25B
 10
792.109694
 20
667.358702
 30
0.0
 11
790.7725
 21
668.695896
 31
0.0
  0
LINE
  8
LC-007-005-----0
  6
CONTINUOUS
  5
25C
 10
789.72784
 20
669.740556
 30
0.0
 11
788.390647
 21
671.07775
 31
0.0
  0
LINE
  8
LC-007-005-----0
  6
CONTINUOUS
  5
25D
 10
803.139369
 20
653.5006
 30
0.0
 11
802.426825
 21
654.213144
 31
0.0
  0
LINE
  8
LC-007-005-----0
  6
CONTINUOUS
  5
25E
 10
802.452794
 20
651.358748
 30
0.0
 11
801.947263
 21
651.864279
 31
0.0
  0
LINE
  8
LC-007-005-----0
  6
CONTINUOUS
  5
25F
 10
799.97584
 20
651.007275
 30
0.0
 11
799.287744
 21
651.695371
 31
0.0
  0
LINE
  8
LC-007-005-----0
  6
CONTINUOUS
  5
260
 10
797.195936
 20
650.958752
 30
0.0
 11
796.50784
 21
651.646847
 31
0.0
  0
LINE
  8
LC-007-005-----0
  6
CONTINUOUS
  5
261
 10
806.660724
 20
638.665537
 30
0.0
 11
805.639757
 21
639.686504
 31
0.0
  0
LINE
  8
LC-007-005-----0
  6
CONTINUOUS
  5
262
 10
801.744143
 20
643.582118
 30
0.0
 11
801.044143
 21
644.282118
 31
0.0
  0
LINE
  8
LC-007-005-----0
  6
CONTINUOUS
  5
263
 10
794.416033
 20
650.910228
 30
0.0
 11
793.727937
 21
651.598324
 31
0.0
  0
LINE
  8
LC-007-005-----0
  6
CONTINUOUS
  5
264
 10
807.797819
 20
634.700014
 30
0.0
 11
806.776853
 21
635.720981
 31
0.0
  0
LINE
  8
LC-007-005-----0
  6
CONTINUOUS
  5
265
 10
798.915716
 20
643.582118
 30
0.0
 11
798.215716
 21
644.282118
 31
0.0
  0
LINE
  8
LC-007-005-----0
  6
CONTINUOUS
  5
266
 10
791.636129
 20
650.861705
 30
0.0
 11
790.948033
 21
651.549801
 31
0.0
  0
LINE
  8
LC-007-005-----0
  6
CONTINUOUS
  5
267
 10
808.934915
 20
630.734492
 30
0.0
 11
807.913948
 21
631.755458
 31
0.0
  0
LINE
  8
LC-007-005-----0
  6
CONTINUOUS
  5
268
 10
796.087289
 20
643.582118
 30
0.0
 11
795.387289
 21
644.282118
 31
0.0
  0
LINE
  8
LC-007-005-----0
  6
CONTINUOUS
  5
269
 10
789.902515
 20
649.766891
 30
0.0
 11
789.189971
 21
650.479435
 31
0.0
  0
LINE
  8
LC-007-005-----0
  6
CONTINUOUS
  5
26A
 10
810.07201
 20
626.768969
 30
0.0
 11
809.051043
 21
627.789936
 31
0.0
  0
LINE
  8
LC-007-005-----0
  6
CONTINUOUS
  5
26B
 10
793.258862
 20
643.582118
 30
0.0
 11
792.558862
 21
644.282118
 31
0.0
  0
LINE
  8
LC-007-005-----0
  6
CONTINUOUS
  5
26C
 10
789.952763
 20
646.888217
 30
0.0
 11
789.240219
 21
647.600761
 31
0.0
  0
LINE
  8
LC-007-005-----0
  6
CONTINUOUS
  5
26D
 10
811.209105
 20
622.803447
 30
0.0
 11
810.188139
 21
623.824413
 31
0.0
  0
LINE
  8
LC-007-005-----0
  6
CONTINUOUS
  5
26E
 10
790.430434
 20
643.582118
 30
0.0
 11
789.290466
 21
644.722086
 31
0.0
  0
LINE
  8
LC-007-005-----0
  6
CONTINUOUS
  5
26F
 10
812.655868
 20
618.528257
 30
0.0
 11
812.158963
 21
619.025162
 31
0.0
  0
LINE
  8
LC-007-005-----0
  6
CONTINUOUS
  5
270
 10
813.483297
 20
614.872401
 30
0.0
 11
812.46233
 21
615.893368
 31
0.0
  0
LINE
  8
LC-007-005-----0
  6
CONTINUOUS
  5
271
 10
814.620393
 20
610.906878
 30
0.0
 11
813.599425
 21
611.927846
 31
0.0
  0
LINE
  8
LC-007-005-----0
  6
CONTINUOUS
  5
272
 10
815.757488
 20
606.941356
 30
0.0
 11
814.736521
 21
607.962323
 31
0.0
  0
LINE
  8
LC-007-005-----0
  6
CONTINUOUS
  5
273
 10
816.894584
 20
602.975833
 30
0.0
 11
815.873616
 21
603.996801
 31
0.0
  0
LINE
  8
LC-007-005-----0
  6
CONTINUOUS
  5
274
 10
818.03123
 20
599.01076
 30
0.0
 11
817.010711
 21
600.031278
 31
0.0
  0
LINE
  8
LC-007-005-----0
  6
CONTINUOUS
  5
275
 10
817.466912
 20
596.74665
 30
0.0
 11
816.931952
 21
597.281611
 31
0.0
  0
LINE
  8
LC-007-005-----0
  6
CONTINUOUS
  5
276
 10
816.632513
 20
594.752622
 30
0.0
 11
816.097553
 21
595.287583
 31
0.0
  0
LINE
  8
LC-007-005-----0
  6
CONTINUOUS
  5
277
 10
816.149471
 20
592.407237
 30
0.0
 11
815.396796
 21
593.159912
 31
0.0
  0
LINE
  8
LC-007-005-----0
  6
CONTINUOUS
  5
278
 10
816.311564
 20
589.416717
 30
0.0
 11
815.576864
 21
590.151417
 31
0.0
  0
LINE
  8
LC-007-005-----0
  6
CONTINUOUS
  5
279
 10
816.40799
 20
586.491864
 30
0.0
 11
815.689723
 21
587.21013
 31
0.0
  0
LINE
  8
LC-007-005-----0
  6
CONTINUOUS
  5
27A
 10
816.443018
 20
583.628408
 30
0.0
 11
815.739837
 21
584.331589
 31
0.0
  0
LINE
  8
LC-007-005-----0
  6
CONTINUOUS
  5
27B
 10
816.420402
 20
580.822597
 30
0.0
 11
815.73112
 21
581.51188
 31
0.0
  0
LINE
  8
LC-007-005-----0
  6
CONTINUOUS
  5
27C
 10
816.343465
 20
578.071107
 30
0.0
 11
815.667028
 21
578.747544
 31
0.0
  0
LINE
  8
LC-007-005-----0
  6
CONTINUOUS
  5
27D
 10
816.215162
 20
575.370983
 30
0.0
 11
815.550632
 21
576.035514
 31
0.0
  0
LINE
  8
LC-007-005-----0
  6
CONTINUOUS
  5
27E
 10
816.038137
 20
572.719581
 30
0.0
 11
815.384671
 21
573.373047
 31
0.0
  0
LINE
  8
LC-007-005-----0
  6
CONTINUOUS
  5
27F
 10
815.814764
 20
570.114527
 30
0.0
 11
815.171605
 21
570.757686
 31
0.0
  0
LINE
  8
LC-007-005-----0
  6
CONTINUOUS
  5
280
 10
815.547186
 20
567.553678
 30
0.0
 11
814.913646
 21
568.187218
 31
0.0
  0
LINE
  8
LC-007-005-----0
  6
CONTINUOUS
  5
281
 10
815.237342
 20
565.035095
 30
0.0
 11
814.612798
 21
565.659639
 31
0.0
  0
LINE
  8
LC-007-005-----0
  6
CONTINUOUS
  5
282
 10
814.886993
 20
562.557016
 30
0.0
 11
814.270876
 21
563.173134
 31
0.0
  0
LINE
  8
LC-007-005-----0
  6
CONTINUOUS
  5
283
 10
814.497747
 20
560.117835
 30
0.0
 11
813.889535
 21
560.726047
 31
0.0
  0
LINE
  8
LC-007-005-----0
  6
CONTINUOUS
  5
284
 10
814.071071
 20
557.716085
 30
0.0
 11
813.470285
 21
558.31687
 31
0.0
  0
LINE
  8
LC-007-005-----0
  6
CONTINUOUS
  5
285
 10
813.60831
 20
555.350418
 30
0.0
 11
813.014509
 21
555.944219
 31
0.0
  0
LINE
  8
LC-007-005-----0
  6
CONTINUOUS
  5
286
 10
813.1107
 20
553.019601
 30
0.0
 11
812.523476
 21
553.606825
 31
0.0
  0
LINE
  8
LC-007-005-----0
  6
CONTINUOUS
  5
287
 10
812.579378
 20
550.722496
 30
0.0
 11
811.998352
 21
551.303522
 31
0.0
  0
LINE
  8
LC-007-005-----0
  6
CONTINUOUS
  5
288
 10
812.015395
 20
548.458052
 30
0.0
 11
811.440215
 21
549.033232
 31
0.0
  0
LINE
  8
LC-007-005-----0
  6
CONTINUOUS
  5
289
 10
811.419719
 20
546.2253
 30
0.0
 11
810.850057
 21
546.794963
 31
0.0
  0
LINE
  8
LC-007-005-----0
  6
CONTINUOUS
  5
28A
 10
810.79325
 20
544.023343
 30
0.0
 11
810.228798
 21
544.587795
 31
0.0
  0
LINE
  8
LC-007-005-----0
  6
CONTINUOUS
  5
28B
 10
810.136818
 20
541.851348
 30
0.0
 11
809.577289
 21
542.410877
 31
0.0
  0
LINE
  8
LC-007-005-----0
  6
CONTINUOUS
  5
28C
 10
809.451196
 20
539.708542
 30
0.0
 11
808.89632
 21
540.263418
 31
0.0
  0
LINE
  8
LC-007-005-----0
  6
CONTINUOUS
  5
28D
 10
808.737103
 20
537.594208
 30
0.0
 11
808.186625
 21
538.144686
 31
0.0
  0
LINE
  8
LC-007-005-----0
  6
CONTINUOUS
  5
28E
 10
807.995206
 20
535.507678
 30
0.0
 11
807.448887
 21
536.053998
 31
0.0
  0
LINE
  8
LC-007-005-----0
  6
CONTINUOUS
  5
28F
 10
807.226126
 20
533.448331
 30
0.0
 11
806.683739
 21
533.990719
 31
0.0
  0
LINE
  8
LC-007-005-----0
  6
CONTINUOUS
  5
290
 10
806.430444
 20
531.415586
 30
0.0
 11
805.891773
 21
531.954257
 31
0.0
  0
LINE
  8
LC-007-005-----0
  6
CONTINUOUS
  5
291
 10
805.575366
 20
529.442237
 30
0.0
 11
805.062573
 21
529.95503
 31
0.0
  0
LINE
  8
LC-007-005-----0
  6
CONTINUOUS
  5
292
 10
804.109615
 20
528.079561
 30
0.0
 11
803.583419
 21
528.605757
 31
0.0
  0
LINE
  8
LC-007-005-----0
  6
CONTINUOUS
  5
293
 10
801.717673
 20
527.643076
 30
0.0
 11
801.04088
 21
528.319869
 31
0.0
  0
LINE
  8
LC-007-005-----0
  6
CONTINUOUS
  5
294
 10
798.984684
 20
527.547638
 30
0.0
 11
798.307891
 21
528.22443
 31
0.0
  0
LINE
  8
LC-007-005-----0
  6
CONTINUOUS
  5
295
 10
796.251695
 20
527.4522
 30
0.0
 11
795.574902
 21
528.128992
 31
0.0
  0
LINE
  8
LC-007-005-----0
  6
CONTINUOUS
  5
296
 10
793.518706
 20
527.356762
 30
0.0
 11
792.841913
 21
528.033554
 31
0.0
  0
LINE
  8
LC-007-005-----0
  6
CONTINUOUS
  5
297
 10
792.063156
 20
525.983884
 30
0.0
 11
791.350612
 21
526.696428
 31
0.0
  0
LINE
  8
LC-007-005-----0
  6
CONTINUOUS
  5
298
 10
795.11609
 20
520.102523
 30
0.0
 11
794.427994
 21
520.790619
 31
0.0
  0
LINE
  8
LC-007-005-----0
  6
CONTINUOUS
  5
299
 10
792.113403
 20
523.10521
 30
0.0
 11
791.400859
 21
523.817754
 31
0.0
  0
LINE
  8
LC-007-005-----0
  6
CONTINUOUS
  5
29A
 10
792.326503
 20
520.063683
 30
0.0
 11
791.456774
 21
520.933412
 31
0.0
  0
ENDBLK
  8
0
  5
29B
  0
BLOCK
  8
0
  5
29D
  2
BLK10
 70
    64
 10
0.0
 20
0.0
 30
0.0
  3
BLK10
  0
ENDBLK
  8
0
  5
29E
  0
ENDSEC
  0
SECTION
  2
ENTITIES
  0
VIEWPORT
  8
LC-000
  5
43C
 67
     1
 68
     1
 10
420.0
 20
297.0
 30
0.0
 40
840.0
 41
594.0
 69
     1
1001
ACAD
1000
MVIEW
1002
{
1070
    16
1010
0.0
1020
0.0
1030
0.0
1010
0.0
1020
0.0
1030
1.0
1040
0.0
1040
594.0
1040
420.0
1040
297.0
1040
50.0
1040
0.0
1040
0.0
1070
     0
1070
   100
1070
     1
1070
     1
1070
     0
1070
     0
1070
     0
1070
     0
1040
0.0
1040
0.0
1040
0.0
1040
1.0
1040
1.0
1040
0.0
1040
0.0
1070
     0
1002
{
1002
}
1002
}
  0
VIEWPORT
  8
0
  5
43D
 67
     1
 68
     1
 10
0.0
 20
0.0
 30
0.0
 40
0.0
 41
0.0
 69
     1
1001
ACAD
1000
MVIEW
1002
{
1070
    16
1010
0.0
1020
0.0
1030
0.0
1010
0.0
1020
0.0
1030
1.0
1040
0.0
1040
594.0
1040
0.0
1040
0.0
1040
50.0
1040
0.0
1040
0.0
1070
     0
1070
   100
1070
     0
1070
     1
1070
     0
1070
     0
1070
     0
1070
     0
1040
0.0
1040
0.0
1040
0.0
1040
0.5
1040
0.5
1040
0.5
1040
0.5
1070
     0
1002
{
1002
}
1002
}
  0
INSERT
  8
0
  5
2A0
  2
SYM1
 10
778.335274
 20
1865.143847
 30
0.0
  0
INSERT
  8
0
  5
2A1
  2
SYM2
 10
1356.381777
 20
827.598303
 30
0.0
  0
INSERT
  8
0
  5
2A2
  2
SYM3
 10
1356.381777
 20
827.598303
 30
0.0
  0
DIMENSION
  8
0
  5
2A3
  2
*D3
 10
861.343527
 20
462.0
 30
0.0
 11
861.343527
 21
462.0
 31
0.0
 13
1017.465037
 23
620.989083
 33
0.0
 14
713.965037
 24
581.712368
 34
0.0
  3
LC-DIM-L-0090-03-02
  0
INSERT
  8
0
  5
2A4
  2
*X4
 10
779.886656
 20
509.863105
 30
0.0
  0
DIMENSION
  8
0
  5
2A5
  2
*D5
 10
700.0
 20
582.609448
 30
0.0
 11
700.0
 21
582.609448
 31
0.0
  1
DN100
 13
732.964643
 23
636.912373
 33
0.0
 14
732.964649
 24
526.512365
 34
0.0
 50
90.0
  3
LC-DIM-L-0090-03-02
  0
DIMENSION
  8
0
  5
2A6
  2
*D6
 10
936.0
 20
650.818
 30
0.0
 11
936.0
 21
650.818
 31
0.0
  1
14,5
 13
778.649724
 23
581.712371
 33
0.0
 14
946.74859
 24
567.341954
 34
0.0
 50
90.0
  3
LC-DIM-L-0090-02-02
  0
INSERT
  8
0
  5
2A7
  2
*X7
 10
713.965037
 20
505.863105
 30
0.0
  0
INSERT
  8
0
  5
2A8
  2
*X8
 10
947.660428
 20
619.641741
 30
0.0
  0
DIMENSION
  8
0
  5
2A9
  2
*D9
 10
1050.0
 20
566.057154
 30
0.0
 11
1050.0
 21
566.057154
 31
0.0
  1
DN100
 13
1012.465037
 23
512.341954
 33
0.0
 14
1012.465037
 24
622.341954
 34
0.0
 50
90.0
  3
LC-DIM-L-0090-03-02
  0
INSERT
  8
0
  5
2AA
  2
*X10
 10
713.965037
 20
633.855428
 30
0.0
  0
INSERT
  8
0
  5
2AC
  2
BLK1
 10
0.0
 20
0.0
 30
0.0
  0
INSERT
  8
0
  5
2AD
  2
BLK2
 10
0.0
 20
0.0
 30
0.0
  0
INSERT
  8
0
  5
2AE
  2
*X13
 10
722.8945
 20
637.025268
 30
0.0
  0
INSERT
  8
0
  5
2AF
  2
BLK3
 10
0.0
 20
0.0
 30
0.0
  0
INSERT
  8
0
  5
2B0
  2
*X15
 10
722.894506
 20
521.738109
 30
0.0
  0
INSERT
  8
0
  5
2B1
  2
BLK4
 10
0.0
 20
0.0
 30
0.0
  0
INSERT
  8
0
  5
2B2
  2
*X17
 10
768.750778
 20
685.85883
 30
0.0
  0
INSERT
  8
0
  5
2B3
  2
BLK5
 10
0.0
 20
0.0
 30
0.0
  0
INSERT
  8
0
  5
2B4
  2
BLK6
 10
0.0
 20
0.0
 30
0.0
  0
INSERT
  8
0
  5
2B5
  2
BLK7
 10
0.0
 20
0.0
 30
0.0
  0
INSERT
  8
0
  5
2B6
  2
*X21
 10
771.221357
 20
686.35883
 30
0.0
  0
INSERT
  8
0
  5
2B7
  2
*X22
 10
947.090763
 20
686.35883
 30
0.0
  0
INSERT
  8
0
  5
2B8
  2
BLK8
 10
0.0
 20
0.0
 30
0.0
  0
INSERT
  8
0
  5
2B9
  2
*X24
 10
776.323575
 20
647.824939
 30
0.0
  0
INSERT
  8
0
  5
2BA
  2
*X25
 10
778.680523
 20
512.795507
 30
0.0
  0
INSERT
  8
0
  5
2BB
  2
BLK9
 10
0.0
 20
0.0
 30
0.0
  0
INSERT
  8
0
  5
2BC
  2
*X27
 10
776.98906
 20
655.093652
 30
0.0
  0
INSERT
  8
0
  5
2BD
  2
*X28
 10
779.852672
 20
509.880557
 30
0.0
  0
INSERT
  8
0
  5
2BE
  2
*X29
 10
537.043294
 20
443.651439
 30
0.0
  0
INSERT
  8
0
  5
2BF
  2
BLK10
 10
0.0
 20
0.0
 30
0.0
  0
LINE
  8
LC-005-002-----0
  6
CONTINUOUS
  5
2C1
 10
777.468989
 20
649.356646
 30
0.0
 11
779.559142
 21
529.611835
 31
0.0
  0
LINE
  8
LC-006-006-MLN-0
  6
DASHDOT
  5
2C5
 10
1027.465037
 20
567.341954
 30
0.0
 11
936.74859
 21
567.341954
 31
0.0
  0
LINE
  8
LC-008-001-----0
  6
CONTINUOUS
  5
2C7
 10
952.568521
 20
686.360645
 30
0.0
 11
954.079106
 21
686.360676
 31
0.0
  0
ARC
  8
LC-009-100-D01-0
  6
CONTINUOUS
  5
2C9
 10
780.886555
 20
510.863105
 30
0.0
 40
1.0
 50
181.0
 51
270.0
  0
LINE
  8
LC-006-006-MLN-0
  6
DASHDOT
  5
2CA
 10
703.965037
 20
581.712367
 30
0.0
 11
788.649724
 21
581.712372
 31
0.0
  0
ARC
  8
LC-009-100-D01-0
  6
CONTINUOUS
  5
2CB
 10
801.404422
 20
510.863105
 30
0.0
 40
1.0
 50
270.0
 51
0.0
  0
LINE
  8
LC-005-002-----0
  6
CONTINUOUS
  5
2CC
 10
952.965403
 20
622.341954
 30
0.0
 11
1012.465037
 21
622.341954
 31
0.0
  0
LINE
  8
LC-005-002-----0
  6
CONTINUOUS
  5
2CD
 10
951.051775
 20
512.341954
 30
0.0
 11
1012.465037
 21
512.341954
 31
0.0
  0
LINE
  8
LC-005-002-----0
  6
CONTINUOUS
  5
2CE
 10
1012.465037
 20
622.341954
 30
0.0
 11
1017.465037
 21
621.002208
 31
0.0
  0
LINE
  8
LC-005-002-----0
  6
CONTINUOUS
  5
2CF
 10
1012.465037
 20
512.341954
 30
0.0
 11
1017.465037
 21
513.6817
 31
0.0
  0
LINE
  8
LC-005-002-----0
  6
CONTINUOUS
  5
2D0
 10
719.264636
 20
638.212368
 30
0.0
 11
719.264636
 21
525.212368
 31
0.0
  0
LINE
  8
LC-005-002-----0
  6
CONTINUOUS
  5
2D1
 10
775.226123
 20
634.012371
 30
0.0
 11
777.736824
 21
634.012371
 31
0.0
  0
LINE
  8
LC-005-002-----0
  6
CONTINUOUS
  5
2D2
 10
775.226123
 20
529.412371
 30
0.0
 11
779.562624
 21
529.412371
 31
0.0
  0
LINE
  8
LC-005-002-----0
  6
CONTINUOUS
  5
2D3
 10
769.226123
 20
636.912371
 30
0.0
 11
732.964643
 21
636.912369
 31
0.0
  0
LINE
  8
LC-005-002-----0
  6
CONTINUOUS
  5
2D4
 10
714.344458
 20
522.430998
 30
0.0
 11
717.465043
 21
522.212368
 31
0.0
  0
LINE
  8
LC-005-002-----0
  6
CONTINUOUS
  5
2D5
 10
714.427349
 20
640.999545
 30
0.0
 11
717.465037
 21
641.212368
 31
0.0
  0
LINE
  8
LC-005-002-----0
  6
CONTINUOUS
  5
2D6
 10
719.257105
 20
525.212803
 30
0.0
 11
713.965043
 21
525.518261
 31
0.0
  0
LINE
  8
LC-005-002-----0
  6
CONTINUOUS
  5
2D7
 10
719.264636
 20
638.212368
 30
0.0
 11
713.965037
 21
637.906475
 31
0.0
  0
ARC
  8
LC-010-001-RND-0
  6
CONTINUOUS
  5
2D9
 10
949.551917
 20
512.362554
 30
0.0
 40
1.5
 50
269.999681
 51
359.213086
  0
LINE
  8
LC-011-100-D03-0
  6
CONTINUOUS
  5
2DB
 10
755.728297
 20
641.158818
 30
0.0
 11
737.728297
 21
641.158819
 31
0.0
  0
LINE
  8
LC-005-002-----0
  6
CONTINUOUS
  5
2DC
 10
755.728297
 20
641.158819
 30
0.0
 11
755.728297
 21
642.658818
 31
0.0
  0
LINE
  8
LC-005-002-----0
  6
CONTINUOUS
  5
2DD
 10
758.728297
 20
641.158819
 30
0.0
 11
758.728297
 21
642.658818
 31
0.0
  0
LINE
  8
LC-005-002-----0
  6
CONTINUOUS
  5
2DE
 10
755.728303
 20
522.265921
 30
0.0
 11
755.728303
 21
520.765922
 31
0.0
  0
ARC
  8
LC-005-002-----0
  6
CONTINUOUS
  5
2DF
 10
757.228297
 20
642.658818
 30
0.0
 40
1.5
 50
0.0
 51
180.0
  0
LINE
  8
LC-005-002-----0
  6
CONTINUOUS
  5
2E0
 10
758.728303
 20
522.265921
 30
0.0
 11
758.728303
 21
520.765922
 31
0.0
  0
ARC
  8
LC-005-002-----0
  6
CONTINUOUS
  5
2E1
 10
757.228303
 20
520.765922
 30
0.0
 40
1.5
 50
180.000006
 51
0.000006
  0
LINE
  8
LC-011-100-D03-0
  6
CONTINUOUS
  5
2E2
 10
755.728303
 20
522.265923
 30
0.0
 11
737.728297
 21
522.265923
 31
0.0
  0
LINE
  8
LC-005-002-----0
  6
CONTINUOUS
  5
2E3
 10
774.927672
 20
508.793357
 30
0.0
 11
735.278525
 21
518.01569
 31
0.0
  0
LINE
  8
LC-005-002-----0
  6
CONTINUOUS
  5
2E4
 10
773.078251
 20
686.35883
 30
0.0
 11
773.578251
 21
694.85948
 31
0.0
  0
LINE
  8
LC-005-002-----0
  6
CONTINUOUS
  5
2E5
 10
952.568521
 20
686.360645
 30
0.0
 11
952.068349
 21
694.861285
 31
0.0
  0
LINE
  8
LC-005-002-----0
  6
CONTINUOUS
  5
2E6
 10
947.660065
 20
619.641741
 30
0.0
 11
1017.465037
 21
619.641741
 31
0.0
  0
LINE
  8
LC-005-002-----0
  6
CONTINUOUS
  5
2E7
 10
945.837108
 20
515.042177
 30
0.0
 11
1017.465037
 21
515.041741
 31
0.0
  0
LINE
  8
LC-005-002-----0
  6
CONTINUOUS
  5
2E8
 10
802.404422
 20
513.86925
 30
0.0
 11
802.404422
 21
510.863105
 31
0.0
  0
LINE
  8
LC-009-100-D01-0
  6
CONTINUOUS
  5
2E9
 10
775.226123
 20
529.611835
 30
0.0
 11
775.226123
 21
635.304677
 31
0.0
  0
LINE
  8
LC-009-100-D01-0
  6
CONTINUOUS
  5
2EA
 10
945.837108
 20
515.062569
 30
0.0
 11
948.971855
 21
694.860573
 31
0.0
  0
LINE
  8
LC-009-100-D01-0
  6
CONTINUOUS
  5
2EB
 10
732.964643
 20
526.512369
 30
0.0
 11
732.964643
 21
522.50057
 31
0.0
  0
LINE
  8
LC-011-100-D03-0
  6
CONTINUOUS
  5
2EC
 10
1017.465037
 20
621.002208
 30
0.0
 11
1017.465037
 21
515.062133
 31
0.0
  0
LINE
  8
LC-011-100-D03-0
  6
CONTINUOUS
  5
2ED
 10
772.617221
 20
641.158818
 30
0.0
 11
771.828251
 21
686.35883
 31
0.0
  0
LINE
  8
LC-009-100-D01-0
  6
CONTINUOUS
  5
2EE
 10
779.559142
 20
529.611835
 30
0.0
 11
779.886707
 21
510.845652
 31
0.0
  0
LINE
  8
LC-009-100-D01-0
  6
CONTINUOUS
  5
2EF
 10
945.833635
 20
514.86335
 30
0.0
 11
945.837108
 21
515.062569
 31
0.0
  0
LINE
  8
LC-009-100-D01-0
  6
CONTINUOUS
  5
2F0
 10
776.674745
 20
694.85883
 30
0.0
 11
777.468989
 21
649.356646
 31
0.0
  0
LINE
  8
LC-011-100-D03-0
  6
CONTINUOUS
  5
2F1
 10
806.901474
 20
510.86335
 30
0.0
 11
949.551909
 21
510.862554
 31
0.0
  0
LINE
  8
LC-009-100-D01-0
  6
CONTINUOUS
  5
2F2
 10
803.398522
 20
514.86335
 30
0.0
 11
945.833635
 21
514.86335
 31
0.0
  0
ARC
  8
LC-009-100-D01-0
  6
CONTINUOUS
  5
2F3
 10
803.398522
 20
513.86925
 30
0.0
 40
0.9941
 50
90.0
 51
180.0
  0
ARC
  8
LC-011-100-D03-0
  6
CONTINUOUS
  5
2F4
 10
804.416221
 20
507.851305
 30
0.0
 40
1.9882
 50
270.0
 51
0.0
  0
ARC
  8
LC-011-100-D03-0
  6
CONTINUOUS
  5
2F5
 10
806.901472
 20
510.3663
 30
0.0
 40
0.49705
 50
89.99968
 51
180.0
  0
LINE
  8
LC-011-100-D03-0
  6
CONTINUOUS
  5
2F6
 10
806.404422
 20
507.851305
 30
0.0
 11
806.404422
 21
510.3663
 31
0.0
  0
LINE
  8
LC-011-100-D03-0
  6
CONTINUOUS
  5
2F7
 10
777.909518
 20
505.863105
 30
0.0
 11
804.416221
 21
505.863105
 31
0.0
  0
LINE
  8
LC-009-100-D01-0
  6
CONTINUOUS
  5
2F8
 10
780.886555
 20
509.863105
 30
0.0
 11
801.404422
 21
509.863105
 31
0.0
  0
LINE
  8
LC-008-001-----0
  6
CONTINUOUS
  5
2F9
 10
773.078251
 20
686.35883
 30
0.0
 11
771.828251
 21
686.35883
 31
0.0
  0
LINE
  8
LC-011-100-D03-0
  6
CONTINUOUS
  5
2FA
 10
773.578213
 20
694.85883
 30
0.0
 11
776.699578
 21
694.85883
 31
0.0
  0
LINE
  8
LC-011-100-D03-0
  6
CONTINUOUS
  5
2FB
 10
774.927672
 20
508.793357
 30
0.0
 11
774.692507
 21
522.265924
 31
0.0
  0
LINE
  8
LC-008-001-----0
  6
CONTINUOUS
  5
2FC
 10
952.965403
 20
622.341954
 30
0.0
 11
954.079106
 21
686.360676
 31
0.0
  0
ARC
  8
LC-011-100-D03-0
  6
CONTINUOUS
  5
2FD
 10
777.909518
 20
508.845406
 30
0.0
 40
2.9823
 50
181.000001
 51
270.0
  0
ARC
  8
LC-011-100-D03-0
  6
CONTINUOUS
  5
2FE
 10
722.435538
 20
521.856055
 30
0.0
 40
4.970501
 50
180.0
 51
267.000005
  0
LINE
  8
LC-011-100-D03-0
  6
CONTINUOUS
  5
2FF
 10
734.264195
 20
516.25882
 30
0.0
 11
737.728297
 21
522.258821
 31
0.0
  0
LINE
  8
LC-011-100-D03-0
  6
CONTINUOUS
  5
300
 10
734.264195
 20
516.25882
 30
0.0
 11
722.175402
 21
516.892366
 31
0.0
  0
LINE
  8
LC-009-100-D01-0
  6
CONTINUOUS
  5
301
 10
732.964643
 20
589.462369
 30
0.0
 11
732.964643
 21
640.924173
 31
0.0
  0
LINE
  8
LC-009-100-D01-0
  6
CONTINUOUS
  5
302
 10
732.964643
 20
589.462369
 30
0.0
 11
732.964643
 21
526.512369
 31
0.0
  0
ARC
  8
LC-009-100-D01-0
  6
CONTINUOUS
  5
303
 10
730.976443
 20
522.493467
 30
0.0
 40
1.9882
 50
270.000017
 51
0.0
  0
LINE
  8
LC-009-100-D01-0
  6
CONTINUOUS
  5
304
 10
730.976443
 20
520.505267
 30
0.0
 11
723.576847
 21
520.893061
 31
0.0
  0
LINE
  8
LC-009-100-D01-0
  6
CONTINUOUS
  5
305
 10
723.576847
 20
520.893061
 30
0.0
 11
719.257105
 21
525.212803
 31
0.0
  0
LINE
  8
LC-011-100-D03-0
  6
CONTINUOUS
  5
306
 10
713.965037
 20
522.913929
 30
0.0
 11
713.965037
 21
525.511165
 31
0.0
  0
ARC
  8
LC-011-100-D03-0
  6
CONTINUOUS
  5
307
 10
714.462087
 20
522.913929
 30
0.0
 40
0.49705
 50
180.0
 51
256.310779
  0
LINE
  8
LC-011-100-D03-0
  6
CONTINUOUS
  5
308
 10
717.465037
 20
521.856055
 30
0.0
 11
717.465037
 21
522.212368
 31
0.0
  0
ARC
  8
LC-009-100-D01-0
  6
CONTINUOUS
  5
309
 10
730.976443
 20
640.924173
 30
0.0
 40
1.9882
 50
0.0
 51
89.999983
  0
LINE
  8
LC-011-100-D03-0
  6
CONTINUOUS
  5
30A
 10
734.264195
 20
647.15882
 30
0.0
 11
722.172107
 21
646.525101
 31
0.0
  0
LINE
  8
LC-011-100-D03-0
  6
CONTINUOUS
  5
30B
 10
734.264195
 20
647.15882
 30
0.0
 11
737.728297
 21
641.158819
 31
0.0
  0
LINE
  8
LC-012-007-KH--0
  5
30D
 10
932.813572
 20
700.86883
 30
0.0
 11
932.888566
 21
700.86883
 31
0.0
  0
LINE
  8
LC-009-100-D01-0
  6
CONTINUOUS
  5
30E
 10
730.976443
 20
642.912373
 30
0.0
 11
723.576847
 21
642.524579
 31
0.0
  0
LINE
  8
LC-009-100-D01-0
  6
CONTINUOUS
  5
30F
 10
723.576847
 20
642.524579
 30
0.0
 11
719.264636
 21
638.212368
 31
0.0
  0
LINE
  8
LC-011-100-D03-0
  6
CONTINUOUS
  5
310
 10
713.965037
 20
640.503711
 30
0.0
 11
713.965037
 21
637.906475
 31
0.0
  0
ARC
  8
LC-011-100-D03-0
  6
CONTINUOUS
  5
311
 10
714.462087
 20
640.503711
 30
0.0
 40
0.49705
 50
94.007635
 51
180.0
  0
LINE
  8
LC-011-100-D03-0
  6
CONTINUOUS
  5
312
 10
717.465037
 20
641.561586
 30
0.0
 11
717.465037
 21
641.212368
 31
0.0
  0
ARC
  8
LC-011-100-D03-0
  6
CONTINUOUS
  5
313
 10
722.435538
 20
641.561586
 30
0.0
 40
4.970501
 50
92.999995
 51
180.0
  0
LINE
  8
LC-009-100-D01-0
  6
CONTINUOUS
  5
314
 10
769.226123
 20
636.912371
 30
0.0
 11
769.226123
 21
526.512371
 31
0.0
  0
LINE
  8
LC-009-100-D01-0
  6
CONTINUOUS
  5
315
 10
775.226123
 20
528.122922
 30
0.0
 11
775.226123
 21
529.611835
 31
0.0
  0
LINE
  8
LC-009-100-D01-0
  6
CONTINUOUS
  5
316
 10
769.226123
 20
526.505269
 30
0.0
 11
775.226123
 21
528.112963
 31
0.0
  0
LINE
  8
LC-009-100-D01-0
  6
CONTINUOUS
  5
317
 10
769.226123
 20
636.912371
 30
0.0
 11
775.226123
 21
635.304677
 31
0.0
  0
LINE
  8
LC-011-100-D03-0
  6
CONTINUOUS
  5
318
 10
774.692507
 20
522.265924
 30
0.0
 11
758.728303
 21
522.265923
 31
0.0
  0
LINE
  8
LC-009-100-D01-0
  6
CONTINUOUS
  5
319
 10
769.226123
 20
526.512371
 30
0.0
 11
732.964643
 21
526.512369
 31
0.0
  0
LINE
  8
LC-011-100-D03-0
  6
CONTINUOUS
  5
31A
 10
772.617221
 20
641.158818
 30
0.0
 11
758.728297
 21
641.158818
 31
0.0
  0
LINE
  8
LC-009-100-D01-0
  6
CONTINUOUS
  5
31B
 10
769.226123
 20
636.912371
 30
0.0
 11
732.964643
 21
636.912373
 31
0.0
  0
LINE
  8
LC-011-100-D03-0
  6
CONTINUOUS
  5
31C
 10
713.965037
 20
637.906475
 30
0.0
 11
713.965037
 21
525.511165
 31
0.0
  0
LINE
  8
LC-011-100-D03-0
  6
CONTINUOUS
  5
31D
 10
1017.465037
 20
513.6817
 30
0.0
 11
1017.465037
 21
515.062133
 31
0.0
  0
LINE
  8
LC-005-002-----0
  6
CONTINUOUS
  5
31E
 10
732.398313
 20
641.686628
 30
0.0
 11
722.8945
 21
641.686628
 31
0.0
  0
LINE
  8
LC-005-002-----0
  6
CONTINUOUS
  5
31F
 10
722.908072
 20
639.466956
 30
0.0
 11
722.894125
 21
641.686628
 31
0.0
  0
LINE
  8
LC-005-002-----0
  6
CONTINUOUS
  5
320
 10
732.411884
 20
639.526671
 30
0.0
 11
732.398313
 21
641.686628
 31
0.0
  0
LINE
  8
LC-005-002-----0
  6
CONTINUOUS
  5
321
 10
724.617756
 20
638.49414
 30
0.0
 11
722.914252
 21
638.483437
 31
0.0
  0
LINE
  8
LC-005-002-----0
  6
CONTINUOUS
  5
322
 10
731.352742
 20
637.227442
 30
0.0
 11
730.993781
 21
638.534203
 31
0.0
  0
LINE
  8
LC-005-002-----0
  6
CONTINUOUS
  5
323
 10
728.164729
 20
637.207411
 30
0.0
 11
727.805769
 21
638.514171
 31
0.0
  0
ARC
  8
LC-014-002-RND-0
  6
CONTINUOUS
  5
325
 10
731.213885
 20
637.189299
 30
0.0
 40
0.144
 50
246.499934
 51
15.36
  0
ARC
  8
LC-014-002-RND-0
  6
CONTINUOUS
  5
326
 10
728.025873
 20
637.169268
 30
0.0
 40
0.144
 50
246.499934
 51
15.36
  0
LINE
  8
LC-005-002-----0
  6
CONTINUOUS
  5
327
 10
722.914252
 20
638.483437
 30
0.0
 11
722.908072
 21
639.466956
 31
0.0
  0
LINE
  8
LC-005-002-----0
  6
CONTINUOUS
  5
328
 10
730.993781
 20
638.534203
 30
0.0
 11
732.418064
 21
638.543152
 31
0.0
  0
LINE
  8
LC-005-002-----0
  6
CONTINUOUS
  5
329
 10
732.418064
 20
638.543152
 30
0.0
 11
732.411884
 21
639.526671
 31
0.0
  0
LINE
  8
LC-005-002-----0
  6
CONTINUOUS
  5
32A
 10
724.617756
 20
638.49414
 30
0.0
 11
727.968453
 21
637.037211
 31
0.0
  0
LINE
  8
LC-005-002-----0
  6
CONTINUOUS
  5
32B
 10
727.805769
 20
638.514171
 30
0.0
 11
731.156465
 21
637.057243
 31
0.0
  0
LINE
  8
LC-005-002-----0
  6
CONTINUOUS
  5
32C
 10
732.398319
 20
521.738109
 30
0.0
 11
722.894506
 21
521.738109
 31
0.0
  0
LINE
  8
LC-005-002-----0
  6
CONTINUOUS
  5
32D
 10
722.908078
 20
523.957781
 30
0.0
 11
722.894131
 21
521.738109
 31
0.0
  0
LINE
  8
LC-005-002-----0
  6
CONTINUOUS
  5
32E
 10
732.41189
 20
523.898067
 30
0.0
 11
732.398319
 21
521.738109
 31
0.0
  0
LINE
  8
LC-005-002-----0
  6
CONTINUOUS
  5
32F
 10
724.617762
 20
524.930596
 30
0.0
 11
722.914257
 21
524.9413
 31
0.0
  0
LINE
  8
LC-005-002-----0
  6
CONTINUOUS
  5
330
 10
731.352747
 20
526.197295
 30
0.0
 11
730.993787
 21
524.890535
 31
0.0
  0
LINE
  8
LC-005-002-----0
  6
CONTINUOUS
  5
331
 10
728.164735
 20
526.217326
 30
0.0
 11
727.805774
 21
524.910566
 31
0.0
  0
ARC
  8
LC-014-002-RND-0
  6
CONTINUOUS
  5
332
 10
731.213891
 20
526.235438
 30
0.0
 40
0.144
 50
344.640006
 51
113.500072
  0
ARC
  8
LC-014-002-RND-0
  6
CONTINUOUS
  5
333
 10
728.025878
 20
526.255469
 30
0.0
 40
0.144
 50
344.640006
 51
113.500072
  0
LINE
  8
LC-005-002-----0
  6
CONTINUOUS
  5
334
 10
722.914257
 20
524.9413
 30
0.0
 11
722.908078
 21
523.957781
 31
0.0
  0
LINE
  8
LC-005-002-----0
  6
CONTINUOUS
  5
335
 10
730.993787
 20
524.890535
 30
0.0
 11
732.41807
 21
524.881586
 31
0.0
  0
LINE
  8
LC-005-002-----0
  6
CONTINUOUS
  5
336
 10
732.41807
 20
524.881586
 30
0.0
 11
732.41189
 21
523.898067
 31
0.0
  0
LINE
  8
LC-005-002-----0
  6
CONTINUOUS
  5
337
 10
724.617762
 20
524.930596
 30
0.0
 11
727.968458
 21
526.387526
 31
0.0
  0
LINE
  8
LC-005-002-----0
  6
CONTINUOUS
  5
338
 10
727.805774
 20
524.910566
 30
0.0
 11
731.156471
 21
526.367495
 31
0.0
  0
ARC
  8
LC-014-002-RND-0
  6
CONTINUOUS
  5
339
 10
944.638889
 20
696.370793
 30
0.0
 40
0.5
 50
0.0
 51
90.004193
  0
LINE
  8
LC-005-002-----0
  6
CONTINUOUS
  5
33A
 10
945.638889
 20
689.35883
 30
0.0
 11
946.660149
 21
689.35883
 31
0.0
  0
LINE
  8
LC-005-002-----0
  6
CONTINUOUS
  5
33B
 10
955.531143
 20
685.85883
 30
0.0
 11
956.561342
 21
685.85883
 31
0.0
  0
LINE
  8
LC-012-007-KH--0
  5
33C
 10
826.732074
 20
181.250521
 30
0.0
 11
826.807068
 21
181.250521
 31
0.0
  0
LINE
  8
LC-005-002-----0
  6
CONTINUOUS
  5
33D
 10
770.780292
 20
686.332662
 30
0.0
 11
771.307113
 21
696.384998
 31
0.0
  0
ARC
  8
LC-014-002-RND-0
  6
CONTINUOUS
  5
33E
 10
948.002172
 20
696.35883
 30
0.0
 40
0.5
 50
90.0
 51
177.0
  0
ARC
  8
LC-014-002-RND-0
  6
CONTINUOUS
  5
33F
 10
771.806428
 20
696.35883
 30
0.0
 40
0.5
 50
90.0
 51
177.0
  0
ARC
  8
LC-014-002-RND-0
  6
CONTINUOUS
  5
340
 10
777.809949
 20
696.35883
 30
0.0
 40
0.5
 50
3.0
 51
90.0
  0
ARC
  8
LC-014-002-RND-0
  6
CONTINUOUS
  5
341
 10
781.172004
 20
696.35883
 30
0.0
 40
0.5
 50
90.0
 51
180.0
  0
LINE
  8
LC-005-002-----0
  6
CONTINUOUS
  5
342
 10
779.151972
 20
689.35883
 30
0.0
 11
780.172004
 21
689.35883
 31
0.0
  0
LINE
  8
LC-005-002-----0
  6
CONTINUOUS
  5
343
 10
769.250778
 20
685.85883
 30
0.0
 11
770.280978
 21
685.85883
 31
0.0
  0
LINE
  8
LC-005-002-----0
  6
CONTINUOUS
  5
344
 10
778.652657
 20
689.832662
 30
0.0
 11
778.309264
 21
696.384998
 31
0.0
  0
LINE
  8
LC-005-002-----0
  6
CONTINUOUS
  5
345
 10
947.159463
 20
689.832662
 30
0.0
 11
947.502857
 21
696.384998
 31
0.0
  0
LINE
  8
LC-005-002-----0
  6
CONTINUOUS
  5
346
 10
771.806428
 20
696.85883
 30
0.0
 11
777.809949
 21
696.85883
 31
0.0
  0
LINE
  8
LC-005-002-----0
  6
CONTINUOUS
  5
347
 10
771.750778
 20
700.85883
 30
0.0
 11
832.980773
 21
700.85883
 31
0.0
  0
ARC
  8
LC-014-002-RND-0
  6
CONTINUOUS
  5
348
 10
769.250778
 20
686.35883
 30
0.0
 40
0.5
 50
180.0
 51
270.0
  0
LINE
  8
LC-005-002-----0
  6
CONTINUOUS
  5
349
 10
781.172004
 20
696.85883
 30
0.0
 11
944.638853
 21
696.870793
 31
0.0
  0
LINE
  8
LC-005-002-----0
  6
CONTINUOUS
  5
34A
 10
780.672004
 20
696.35883
 30
0.0
 11
780.672004
 21
689.85883
 31
0.0
  0
LINE
  8
LC-005-002-----0
  6
CONTINUOUS
  5
34B
 10
948.002172
 20
696.85883
 30
0.0
 11
954.005693
 21
696.85883
 31
0.0
  0
LINE
  8
LC-005-002-----0
  6
CONTINUOUS
  5
34C
 10
945.138889
 20
696.370793
 30
0.0
 11
945.138889
 21
689.85883
 31
0.0
  0
ARC
  8
LC-014-002-RND-0
  6
CONTINUOUS
  5
34D
 10
771.750778
 20
697.85883
 30
0.0
 40
3.0
 50
90.0
 51
180.0
  0
ARC
  8
LC-014-002-RND-0
  6
CONTINUOUS
  5
34E
 10
780.172004
 20
689.85883
 30
0.0
 40
0.5
 50
270.0
 51
0.0
  0
LINE
  8
LC-005-002-----0
  6
CONTINUOUS
  5
34F
 10
817.480773
 20
696.85883
 30
0.0
 11
826.480773
 21
696.85883
 31
0.0
  0
LINE
  8
LC-005-002-----0
  6
CONTINUOUS
  5
350
 10
832.980773
 20
700.85883
 30
0.0
 11
953.991342
 21
700.85883
 31
0.0
  0
ARC
  8
LC-014-002-RND-0
  6
CONTINUOUS
  5
351
 10
946.660149
 20
689.85883
 30
0.0
 40
0.5
 50
270.0
 51
357.0
  0
ARC
  8
LC-014-002-RND-0
  6
CONTINUOUS
  5
352
 10
779.151972
 20
689.85883
 30
0.0
 40
0.5
 50
183.0
 51
270.0
  0
ARC
  8
LC-014-002-RND-0
  6
CONTINUOUS
  5
353
 10
945.638889
 20
689.85883
 30
0.0
 40
0.5
 50
180.0
 51
270.0
  0
LINE
  8
LC-005-002-----0
  6
CONTINUOUS
  5
354
 10
768.750778
 20
697.85883
 30
0.0
 11
768.750778
 21
686.35883
 31
0.0
  0
ARC
  8
LC-014-002-RND-0
  6
CONTINUOUS
  5
355
 10
770.280978
 20
686.35883
 30
0.0
 40
0.5
 50
270.0
 51
357.0
  0
LINE
  8
LC-005-002-----0
  6
CONTINUOUS
  5
356
 10
957.061342
 20
697.85883
 30
0.0
 11
957.061342
 21
686.35883
 31
0.0
  0
ARC
  8
LC-014-002-RND-0
  6
CONTINUOUS
  5
357
 10
954.061342
 20
697.85883
 30
0.0
 40
3.0
 50
0.0
 51
90.0
  0
ARC
  8
LC-014-002-RND-0
  6
CONTINUOUS
  5
358
 10
956.561342
 20
686.35883
 30
0.0
 40
0.5
 50
270.0
 51
0.0
  0
LINE
  8
LC-005-002-----0
  6
CONTINUOUS
  5
359
 10
955.031828
 20
686.332662
 30
0.0
 11
954.505007
 21
696.384998
 31
0.0
  0
ARC
  8
LC-014-002-RND-0
  6
CONTINUOUS
  5
35A
 10
954.005693
 20
696.35883
 30
0.0
 40
0.5
 50
3.0
 51
90.0
  0
ARC
  8
LC-014-002-RND-0
  6
CONTINUOUS
  5
35B
 10
955.531143
 20
686.35883
 30
0.0
 40
0.5
 50
183.0
 51
270.0
  0
LINE
  8
LC-005-002-----0
  6
DASHDOT
 62
     2
  5
35C
 10
808.823672
 20
694.85883
 30
0.0
 11
808.823672
 21
728.35883
 31
0.0
  0
LINE
  8
LC-005-002-----0
  6
CONTINUOUS
  5
35D
 10
799.323672
 20
700.85883
 30
0.0
 11
799.323672
 21
717.543198
 31
0.0
  0
ARC
  8
LC-005-002-----0
  6
CONTINUOUS
  5
35E
 10
804.323672
 20
721.742177
 30
0.0
 40
2.0
 50
280.339949
 51
0.0
  0
ARC
  8
LC-005-002-----0
  6
CONTINUOUS
  5
35F
 10
797.323672
 20
685.10883
 30
0.0
 40
41.0
 50
79.660109
 51
100.339891
  0
ARC
  8
LC-005-002-----0
  6
CONTINUOUS
  5
360
 10
790.323672
 20
723.475482
 30
0.0
 40
2.0
 50
100.339872
 51
180.0
  0
ARC
  8
LC-005-002-----0
  6
CONTINUOUS
  5
361
 10
797.323672
 20
760.10883
 30
0.0
 40
41.0
 50
259.660109
 51
280.339949
  0
ARC
  8
LC-005-002-----0
  6
CONTINUOUS
  5
362
 10
790.323672
 20
721.742177
 30
0.0
 40
2.0
 50
180.0
 51
259.659957
  0
ARC
  8
LC-005-002-----0
  6
CONTINUOUS
  5
363
 10
790.323672
 20
723.639061
 30
0.0
 40
2.0
 50
106.726782
 51
180.0
  0
ARC
  8
LC-005-002-----0
  6
CONTINUOUS
  5
364
 10
790.323672
 20
721.578598
 30
0.0
 40
2.0
 50
180.0
 51
253.273047
  0
LINE
  8
LC-005-002-----0
  6
CONTINUOUS
  5
365
 10
788.323672
 20
721.578598
 30
0.0
 11
788.323672
 21
723.639061
 31
0.0
  0
LINE
  8
LC-005-002-----0
  6
CONTINUOUS
  5
366
 10
818.323876
 20
700.858997
 30
0.0
 11
818.323886
 21
717.543366
 31
0.0
  0
ARC
  8
LC-005-002-----0
  6
CONTINUOUS
  5
367
 10
820.323865
 20
685.108996
 30
0.0
 40
41.0
 50
79.660072
 51
100.339835
  0
ARC
  8
LC-005-002-----0
  6
CONTINUOUS
  5
368
 10
813.32389
 20
723.475653
 30
0.0
 40
2.0
 50
100.339835
 51
179.999963
  0
ARC
  8
LC-005-002-----0
  6
CONTINUOUS
  5
369
 10
813.323889
 20
721.742348
 30
0.0
 40
2.0
 50
179.999963
 51
259.659995
  0
ARC
  8
LC-005-002-----0
  6
CONTINUOUS
  5
36A
 10
820.323914
 20
760.108996
 30
0.0
 40
41.0
 50
259.65992
 51
280.339853
  0
ARC
  8
LC-005-002-----0
  6
CONTINUOUS
  5
36B
 10
827.32389
 20
723.475643
 30
0.0
 40
2.0
 50
359.999963
 51
79.659997
  0
ARC
  8
LC-005-002-----0
  6
CONTINUOUS
  5
36C
 10
808.823672
 20
662.079983
 30
0.0
 40
66.278846
 50
73.273199
 51
106.726782
  0
ARC
  8
LC-005-002-----0
  6
CONTINUOUS
  5
36D
 10
827.323672
 20
723.639061
 30
0.0
 40
2.0
 50
0.0
 51
73.273199
  0
ARC
  8
LC-005-002-----0
  6
CONTINUOUS
  5
36E
 10
827.323889
 20
721.742339
 30
0.0
 40
2.0
 50
280.339912
 51
359.999963
  0
ARC
  8
LC-005-002-----0
  6
CONTINUOUS
  5
36F
 10
808.823672
 20
783.137676
 30
0.0
 40
66.278846
 50
253.273047
 51
286.726801
  0
ARC
  8
LC-005-002-----0
  6
CONTINUOUS
  5
370
 10
827.323672
 20
721.578598
 30
0.0
 40
2.0
 50
286.72686
 51
0.0
  0
LINE
  8
LC-005-002-----0
  6
CONTINUOUS
  5
371
 10
829.323672
 20
721.578598
 30
0.0
 11
829.323672
 21
723.639061
 31
0.0
  0
ARC
  8
LC-005-002-----0
  6
CONTINUOUS
  5
372
 10
804.323672
 20
723.475482
 30
0.0
 40
2.0
 50
0.0
 51
79.660109
  0
ARC
  8
LC-005-002-----0
  6
CONTINUOUS
  5
373
 10
807.323672
 20
724.10883
 30
0.0
 40
1.0
 50
90.0
 51
179.999848
  0
LINE
  8
LC-005-002-----0
  6
CONTINUOUS
  5
374
 10
810.323672
 20
725.10883
 30
0.0
 11
807.323672
 21
725.10883
 31
0.0
  0
ARC
  8
LC-005-002-----0
  6
CONTINUOUS
  5
375
 10
810.323672
 20
724.10883
 30
0.0
 40
1.0
 50
0.0
 51
90.0
  0
LINE
  8
LC-005-002-----0
  6
CONTINUOUS
  5
376
 10
811.323672
 20
721.10883
 30
0.0
 11
811.323672
 21
724.10883
 31
0.0
  0
ARC
  8
LC-005-002-----0
  6
CONTINUOUS
  5
377
 10
810.323672
 20
721.10883
 30
0.0
 40
1.0
 50
270.000058
 51
0.0
  0
LINE
  8
LC-005-002-----0
  6
CONTINUOUS
  5
378
 10
806.323672
 20
724.10883
 30
0.0
 11
806.323672
 21
721.10883
 31
0.0
  0
ARC
  8
LC-005-002-----0
  6
CONTINUOUS
  5
379
 10
807.323672
 20
721.10883
 30
0.0
 40
1.0
 50
180.0
 51
270.000058
  0
LINE
  8
LC-005-002-----0
  6
CONTINUOUS
  5
37A
 10
807.323672
 20
720.10883
 30
0.0
 11
810.323672
 21
720.10883
 31
0.0
  0
LINE
  8
LC-005-002-----0
  6
DASHDOT
 62
     2
  5
37B
 10
916.822706
 20
694.85883
 30
0.0
 11
916.822706
 21
728.35883
 31
0.0
  0
LINE
  8
LC-005-002-----0
  6
CONTINUOUS
  5
37C
 10
907.822774
 20
700.85883
 30
0.0
 11
907.822774
 21
717.543198
 31
0.0
  0
ARC
  8
LC-005-002-----0
  6
CONTINUOUS
  5
37D
 10
912.822774
 20
721.742177
 30
0.0
 40
2.0
 50
280.339949
 51
0.0
  0
ARC
  8
LC-005-002-----0
  6
CONTINUOUS
  5
37E
 10
905.822774
 20
685.10883
 30
0.0
 40
41.0
 50
79.660109
 51
100.339891
  0
ARC
  8
LC-005-002-----0
  6
CONTINUOUS
  5
37F
 10
898.822774
 20
723.475482
 30
0.0
 40
2.0
 50
100.339872
 51
180.0
  0
ARC
  8
LC-005-002-----0
  6
CONTINUOUS
  5
380
 10
905.822774
 20
760.10883
 30
0.0
 40
41.0
 50
259.660109
 51
280.339949
  0
ARC
  8
LC-005-002-----0
  6
CONTINUOUS
  5
381
 10
898.822774
 20
721.742177
 30
0.0
 40
2.0
 50
180.0
 51
259.659957
  0
ARC
  8
LC-005-002-----0
  6
CONTINUOUS
  5
382
 10
898.822774
 20
723.639061
 30
0.0
 40
2.0
 50
106.726782
 51
180.0
  0
ARC
  8
LC-005-002-----0
  6
CONTINUOUS
  5
383
 10
898.822774
 20
721.578598
 30
0.0
 40
2.0
 50
180.0
 51
253.273047
  0
LINE
  8
LC-005-002-----0
  6
CONTINUOUS
  5
384
 10
896.822774
 20
721.578598
 30
0.0
 11
896.822774
 21
723.639061
 31
0.0
  0
LINE
  8
LC-005-002-----0
  6
CONTINUOUS
  5
385
 10
926.822977
 20
700.858997
 30
0.0
 11
926.822988
 21
717.543366
 31
0.0
  0
ARC
  8
LC-005-002-----0
  6
CONTINUOUS
  5
386
 10
928.822967
 20
685.108996
 30
0.0
 40
41.0
 50
79.660072
 51
100.339835
  0
ARC
  8
LC-005-002-----0
  6
CONTINUOUS
  5
387
 10
921.822992
 20
723.475653
 30
0.0
 40
2.0
 50
100.339835
 51
179.999963
  0
ARC
  8
LC-005-002-----0
  6
CONTINUOUS
  5
388
 10
921.822991
 20
721.742348
 30
0.0
 40
2.0
 50
179.999963
 51
259.659995
  0
ARC
  8
LC-005-002-----0
  6
CONTINUOUS
  5
389
 10
928.823016
 20
760.108996
 30
0.0
 40
41.0
 50
259.65992
 51
280.339853
  0
ARC
  8
LC-005-002-----0
  6
CONTINUOUS
  5
38A
 10
935.822992
 20
723.475643
 30
0.0
 40
2.0
 50
359.999963
 51
79.659997
  0
ARC
  8
LC-005-002-----0
  6
CONTINUOUS
  5
38B
 10
917.322774
 20
662.079983
 30
0.0
 40
66.278846
 50
73.273199
 51
106.726782
  0
ARC
  8
LC-005-002-----0
  6
CONTINUOUS
  5
38C
 10
935.822774
 20
723.639061
 30
0.0
 40
2.0
 50
0.0
 51
73.273199
  0
ARC
  8
LC-005-002-----0
  6
CONTINUOUS
  5
38D
 10
935.822991
 20
721.742339
 30
0.0
 40
2.0
 50
280.339912
 51
359.999963
  0
ARC
  8
LC-005-002-----0
  6
CONTINUOUS
  5
38E
 10
917.322774
 20
783.137676
 30
0.0
 40
66.278846
 50
253.273047
 51
286.726801
  0
ARC
  8
LC-005-002-----0
  6
CONTINUOUS
  5
38F
 10
935.822774
 20
721.578598
 30
0.0
 40
2.0
 50
286.72686
 51
0.0
  0
LINE
  8
LC-005-002-----0
  6
CONTINUOUS
  5
390
 10
937.822774
 20
721.578598
 30
0.0
 11
937.822774
 21
723.639061
 31
0.0
  0
ARC
  8
LC-005-002-----0
  6
CONTINUOUS
  5
391
 10
912.822774
 20
723.475482
 30
0.0
 40
2.0
 50
0.0
 51
79.660109
  0
ARC
  8
LC-005-002-----0
  6
CONTINUOUS
  5
392
 10
915.822774
 20
724.10883
 30
0.0
 40
1.0
 50
90.0
 51
179.999848
  0
LINE
  8
LC-005-002-----0
  6
CONTINUOUS
  5
393
 10
918.822774
 20
725.10883
 30
0.0
 11
915.822774
 21
725.10883
 31
0.0
  0
ARC
  8
LC-005-002-----0
  6
CONTINUOUS
  5
394
 10
918.822774
 20
724.10883
 30
0.0
 40
1.0
 50
0.0
 51
90.0
  0
LINE
  8
LC-005-002-----0
  6
CONTINUOUS
  5
395
 10
919.822774
 20
721.10883
 30
0.0
 11
919.822774
 21
724.10883
 31
0.0
  0
ARC
  8
LC-005-002-----0
  6
CONTINUOUS
  5
396
 10
918.822774
 20
721.10883
 30
0.0
 40
1.0
 50
270.000058
 51
0.0
  0
LINE
  8
LC-005-002-----0
  6
CONTINUOUS
  5
397
 10
914.822774
 20
724.10883
 30
0.0
 11
914.822774
 21
721.10883
 31
0.0
  0
ARC
  8
LC-005-002-----0
  6
CONTINUOUS
  5
398
 10
915.822774
 20
721.10883
 30
0.0
 40
1.0
 50
180.0
 51
270.000058
  0
LINE
  8
LC-005-002-----0
  6
CONTINUOUS
  5
399
 10
915.822774
 20
720.10883
 30
0.0
 11
918.822774
 21
720.10883
 31
0.0
  0
ARC
  8
LC-014-002-RND-0
  6
CONTINUOUS
  5
39A
 10
774.12134
 20
694.35883
 30
0.0
 40
2.5
 50
90.0
 51
177.159687
  0
LINE
  8
LC-005-002-----0
  6
CONTINUOUS
  5
39B
 10
771.221357
 20
686.35883
 30
0.0
 11
771.624411
 21
694.482711
 31
0.0
  0
ARC
  8
LC-014-002-RND-0
  6
CONTINUOUS
  5
39C
 10
775.821375
 20
694.35883
 30
0.0
 40
2.5
 50
2.840313
 51
90.0
  0
LINE
  8
LC-005-002-----0
  6
CONTINUOUS
  5
39D
 10
778.721357
 20
686.35883
 30
0.0
 11
778.318303
 21
694.482711
 31
0.0
  0
LINE
  8
LC-005-002-----0
  6
CONTINUOUS
  5
39E
 10
777.120212
 20
686.35883
 30
0.0
 11
778.721357
 21
686.35883
 31
0.0
  0
LINE
  8
LC-011-100-D03-0
  6
CONTINUOUS
  5
39F
 10
777.120212
 20
686.35883
 30
0.0
 11
776.699578
 21
694.384998
 31
0.0
  0
ARC
  8
LC-014-002-RND-0
  6
CONTINUOUS
  5
3A0
 10
951.69078
 20
694.35883
 30
0.0
 40
2.5
 50
2.840313
 51
90.0
  0
LINE
  8
LC-005-002-----0
  6
CONTINUOUS
  5
3A1
 10
954.590763
 20
686.35883
 30
0.0
 11
954.187709
 21
694.482711
 31
0.0
  0
LINE
  8
LC-005-002-----0
  6
CONTINUOUS
  5
3A2
 10
948.691909
 20
686.35883
 30
0.0
 11
947.090763
 21
686.35883
 31
0.0
  0
LINE
  8
LC-011-100-D03-0
  6
CONTINUOUS
  5
3A3
 10
948.691909
 20
686.35883
 30
0.0
 11
949.137375
 21
694.85883
 31
0.0
  0
LINE
  8
LC-005-002-----0
  6
CONTINUOUS
  5
3A4
 10
947.090763
 20
686.35883
 30
0.0
 11
947.493817
 21
694.482711
 31
0.0
  0
ARC
  8
LC-014-002-RND-0
  6
CONTINUOUS
  5
3A5
 10
949.990746
 20
694.35883
 30
0.0
 40
2.5
 50
90.0
 51
177.159687
  0
LINE
  8
LC-011-100-D03-0
  6
CONTINUOUS
  5
3A6
 10
948.971855
 20
694.85883
 30
0.0
 11
952.068494
 21
694.85883
 31
0.0
  0
LINE
  8
LC-005-002-----0
  6
CONTINUOUS
  5
3A7
 10
780.172004
 20
689.35883
 30
0.0
 11
945.638889
 21
689.35883
 31
0.0
  0
LINE
  8
LC-005-002-----0
  6
CONTINUOUS
  5
3A8
 10
799.82391
 20
657.864513
 30
0.0
 11
783.283386
 21
647.925963
 31
0.0
  0
LINE
  8
LC-005-002-----0
  6
CONTINUOUS
  5
3A9
 10
777.495725
 20
647.824939
 30
0.0
 11
783.283386
 21
647.925963
 31
0.0
  0
LINE
  8
LC-005-002-----0
  6
CONTINUOUS
  5
3AA
 10
784.334096
 20
657.145704
 30
0.0
 11
781.334553
 21
657.093347
 31
0.0
  0
LINE
  8
LC-005-002-----0
  6
CONTINUOUS
  5
3AB
 10
784.294828
 20
659.395362
 30
0.0
 11
777.295894
 21
659.273195
 31
0.0
  0
LINE
  8
LC-005-002-----0
  6
CONTINUOUS
  5
3AC
 10
784.294828
 20
659.395362
 30
0.0
 11
784.334096
 21
657.145704
 31
0.0
  0
LINE
  8
LC-005-002-----0
  6
CONTINUOUS
  5
3AD
 10
781.334553
 20
657.093347
 30
0.0
 11
781.369458
 21
655.093652
 31
0.0
  0
LINE
  8
LC-005-002-----0
  6
CONTINUOUS
  5
3AE
 10
788.368701
 20
655.215824
 30
0.0
 11
781.369458
 21
655.093652
 31
0.0
  0
LINE
  8
LC-005-002-----0
  6
CONTINUOUS
  5
3AF
 10
793.940288
 20
658.563571
 30
0.0
 11
788.368701
 21
655.215824
 31
0.0
  0
LINE
  8
LC-005-002-----0
  6
CONTINUOUS
  5
3B0
 10
783.283386
 20
647.925963
 30
0.0
 11
785.440503
 21
524.344788
 31
0.0
  0
LINE
  8
LC-005-002-----0
  6
CONTINUOUS
  5
3B1
 10
799.80992
 20
658.666026
 30
0.0
 11
793.940288
 21
658.563571
 31
0.0
  0
LINE
  8
LC-005-002-----0
  6
CONTINUOUS
  5
3B2
 10
779.852672
 20
512.795507
 30
0.0
 11
779.83522
 21
513.795355
 31
0.0
  0
LINE
  8
LC-005-002-----0
  6
CONTINUOUS
  5
3B3
 10
790.777133
 20
517.236842
 30
0.0
 11
783.77789
 21
517.11467
 31
0.0
  0
LINE
  8
LC-005-002-----0
  6
CONTINUOUS
  5
3B4
 10
783.812795
 20
515.114974
 30
0.0
 11
783.77789
 21
517.11467
 31
0.0
  0
LINE
  8
LC-005-002-----0
  6
CONTINUOUS
  5
3B5
 10
786.851606
 20
512.917674
 30
0.0
 11
786.812338
 21
515.167332
 31
0.0
  0
LINE
  8
LC-005-002-----0
  6
CONTINUOUS
  5
3B6
 10
786.851606
 20
512.917674
 30
0.0
 11
779.852672
 21
512.795507
 31
0.0
  0
LINE
  8
LC-005-002-----0
  6
CONTINUOUS
  5
3B7
 10
802.317802
 20
514.989548
 30
0.0
 11
785.440503
 21
524.344788
 31
0.0
  0
LINE
  8
LC-005-002-----0
  6
CONTINUOUS
  5
3B8
 10
779.652842
 20
524.243764
 30
0.0
 11
785.440503
 21
524.344788
 31
0.0
  0
LINE
  8
LC-005-002-----0
  6
CONTINUOUS
  5
3B9
 10
786.812338
 20
515.167332
 30
0.0
 11
783.812795
 21
515.114974
 31
0.0
  0
LINE
  8
LC-005-002-----0
  6
CONTINUOUS
  5
3BA
 10
802.331793
 20
514.188034
 30
0.0
 11
796.46216
 21
514.085579
 31
0.0
  0
LINE
  8
LC-006-006-MLN-0
  6
DASHDOT
  5
3BB
 10
768.575806
 20
585.859827
 30
0.0
 11
795.571694
 21
586.331042
 31
0.0
  0
LINE
  8
LC-005-002-----0
  6
CONTINUOUS
  5
3BC
 10
796.46216
 20
514.085579
 30
0.0
 11
790.777133
 21
517.236842
 31
0.0
  0
LINE
  8
LC-005-002-----0
  6
CONTINUOUS
  5
3BD
 10
779.83522
 20
513.795355
 30
0.0
 11
778.825296
 21
514.355165
 31
0.0
  0
LINE
  8
LC-005-002-----0
  6
CONTINUOUS
  5
3BE
 10
777.295894
 20
659.273195
 30
0.0
 11
777.313347
 21
658.273347
 31
0.0
  0
LINE
  8
LC-005-002-----0
  6
CONTINUOUS
  5
3BF
 10
777.313347
 20
658.273347
 30
0.0
 11
776.323575
 21
657.678632
 31
0.0
  0
LINE
  8
LC-005-002-----0
  6
CONTINUOUS
  5
3C0
 10
779.815067
 20
514.94988
 30
0.0
 11
778.825296
 21
514.355165
 31
0.0
  0
LINE
  8
LC-005-002-----0
  6
CONTINUOUS
  5
3C1
 10
779.670294
 20
523.243916
 30
0.0
 11
778.680523
 21
522.649201
 31
0.0
  0
LINE
  8
LC-005-002-----0
  6
CONTINUOUS
  5
3C2
 10
779.690447
 20
522.089391
 30
0.0
 11
778.680523
 21
522.649201
 31
0.0
  0
LINE
  8
LC-005-002-----0
  6
CONTINUOUS
  5
3C3
 10
779.786964
 20
516.559934
 30
0.0
 11
778.77704
 21
517.119744
 31
0.0
  0
LINE
  8
LC-005-002-----0
  6
CONTINUOUS
  5
3C4
 10
777.333499
 20
657.118822
 30
0.0
 11
776.323575
 21
657.678632
 31
0.0
  0
LINE
  8
LC-005-002-----0
  6
CONTINUOUS
  5
3C5
 10
779.766811
 20
517.714459
 30
0.0
 11
778.77704
 21
517.119744
 31
0.0
  0
LINE
  8
LC-005-002-----0
  6
CONTINUOUS
  5
3C6
 10
777.478272
 20
648.824786
 30
0.0
 11
776.468348
 21
649.384596
 31
0.0
  0
LINE
  8
LC-005-002-----0
  6
CONTINUOUS
  5
3C7
 10
777.45812
 20
649.979311
 30
0.0
 11
776.468348
 21
649.384596
 31
0.0
  0
LINE
  8
LC-005-002-----0
  6
CONTINUOUS
  5
3C8
 10
779.718556
 20
520.479038
 30
0.0
 11
778.728784
 21
519.884323
 31
0.0
  0
LINE
  8
LC-005-002-----0
  6
CONTINUOUS
  5
3C9
 10
779.738708
 20
519.324513
 30
0.0
 11
778.728784
 21
519.884323
 31
0.0
  0
LINE
  8
LC-005-002-----0
  6
CONTINUOUS
  5
3CA
 10
779.718556
 20
520.479038
 30
0.0
 11
779.690447
 21
522.089391
 31
0.0
  0
LINE
  8
LC-005-002-----0
  6
CONTINUOUS
  5
3CB
 10
779.815067
 20
514.94988
 30
0.0
 11
779.786964
 21
516.559934
 31
0.0
  0
LINE
  8
LC-005-002-----0
  6
CONTINUOUS
  5
3CC
 10
779.766811
 20
517.714459
 30
0.0
 11
779.738708
 21
519.324513
 31
0.0
  0
LINE
  8
LC-005-002-----0
  6
CONTINUOUS
  5
3CD
 10
799.80992
 20
658.666026
 30
0.0
 11
799.931397
 21
651.706606
 31
0.0
  0
LINE
  8
LC-005-002-----0
  6
CONTINUOUS
  5
3CE
 10
777.361603
 20
655.508768
 30
0.0
 11
776.371831
 21
654.914053
 31
0.0
  0
LINE
  8
LC-005-002-----0
  6
CONTINUOUS
  5
3CF
 10
777.381755
 20
654.354244
 30
0.0
 11
776.371831
 21
654.914053
 31
0.0
  0
LINE
  8
LC-005-002-----0
  6
CONTINUOUS
  5
3D0
 10
777.430011
 20
651.589665
 30
0.0
 11
776.420087
 21
652.149475
 31
0.0
  0
LINE
  8
LC-005-002-----0
  6
CONTINUOUS
  5
3D1
 10
777.409859
 20
652.744189
 30
0.0
 11
776.420087
 21
652.149475
 31
0.0
  0
LINE
  8
LC-005-002-----0
  6
CONTINUOUS
  5
3D2
 10
777.478272
 20
648.824786
 30
0.0
 11
779.670294
 21
523.243916
 31
0.0
  0
LINE
  8
LC-005-002-----0
  6
CONTINUOUS
  5
3D3
 10
777.430011
 20
651.589665
 30
0.0
 11
777.45812
 21
649.979311
 31
0.0
  0
LINE
  8
LC-005-002-----0
  6
CONTINUOUS
  5
3D4
 10
777.333499
 20
657.118822
 30
0.0
 11
777.361603
 21
655.508768
 31
0.0
  0
LINE
  8
LC-005-002-----0
  6
CONTINUOUS
  5
3D5
 10
777.381755
 20
654.354244
 30
0.0
 11
777.409859
 21
652.744189
 31
0.0
  0
LINE
  8
LC-005-002-----0
  6
CONTINUOUS
  5
3D6
 10
799.604549
 20
510.189828
 30
0.0
 11
781.903852
 21
509.880862
 31
0.0
  0
LINE
  8
LC-005-002-----0
  6
CONTINUOUS
  5
3D7
 10
776.98906
 20
676.851729
 30
0.0
 11
777.295894
 21
659.273195
 31
0.0
  0
LINE
  8
LC-005-002-----0
  6
CONTINUOUS
  5
3D8
 10
801.569645
 20
672.398855
 30
0.0
 11
801.569645
 21
658.696742
 31
0.0
  0
CIRCLE
  8
LC-005-002-----0
  6
CONTINUOUS
  5
3D9
 10
794.573512
 20
672.166214
 30
0.0
 40
4.2
  0
LINE
  8
LC-005-002-----0
  6
CONTINUOUS
  5
3DA
 10
784.334096
 20
657.145704
 30
0.0
 11
781.334553
 21
657.093347
 31
0.0
  0
LINE
  8
LC-005-002-----0
  6
CONTINUOUS
  5
3DB
 10
784.294828
 20
659.395362
 30
0.0
 11
777.295894
 21
659.273195
 31
0.0
  0
LINE
  8
LC-005-002-----0
  6
CONTINUOUS
  5
3DC
 10
784.294828
 20
659.395362
 30
0.0
 11
784.334096
 21
657.145704
 31
0.0
  0
LINE
  8
LC-005-002-----0
  6
CONTINUOUS
  5
3DD
 10
781.334553
 20
657.093347
 30
0.0
 11
781.369458
 21
655.093652
 31
0.0
  0
LINE
  8
LC-005-002-----0
  6
CONTINUOUS
  5
3DE
 10
787.868777
 20
655.207098
 30
0.0
 11
781.369458
 21
655.093652
 31
0.0
  0
LINE
  8
LC-005-002-----0
  6
CONTINUOUS
  5
3DF
 10
790.277209
 20
517.228116
 30
0.0
 11
783.77789
 21
517.11467
 31
0.0
  0
LINE
  8
LC-005-002-----0
  6
CONTINUOUS
  5
3E0
 10
783.812795
 20
515.114974
 30
0.0
 11
783.77789
 21
517.11467
 31
0.0
  0
LINE
  8
LC-005-002-----0
  6
CONTINUOUS
  5
3E1
 10
786.851606
 20
512.917674
 30
0.0
 11
786.812338
 21
515.167332
 31
0.0
  0
LINE
  8
LC-005-002-----0
  6
CONTINUOUS
  5
3E2
 10
786.851606
 20
512.917674
 30
0.0
 11
779.852672
 21
512.795507
 31
0.0
  0
LINE
  8
LC-005-002-----0
  6
CONTINUOUS
  5
3E3
 10
786.812338
 20
515.167332
 30
0.0
 11
783.812795
 21
515.114974
 31
0.0
  0
LINE
  8
LC-005-002-----0
  6
CONTINUOUS
  5
3E4
 10
801.570517
 20
514.174746
 30
0.0
 11
795.962237
 21
514.076853
 31
0.0
  0
LINE
  8
LC-005-002-----0
  6
CONTINUOUS
  5
3E5
 10
795.962237
 20
514.076853
 30
0.0
 11
790.277209
 21
517.228116
 31
0.0
  0
LINE
  8
LC-005-002-----0
  6
CONTINUOUS
  5
3E6
 10
793.440364
 20
658.554845
 30
0.0
 11
787.868777
 21
655.207098
 31
0.0
  0
LINE
  8
LC-006-006-MLN-0
  6
DASHDOT
  5
3E7
 10
794.897071
 20
653.629518
 30
0.0
 11
794.244351
 21
691.023822
 31
0.0
  0
ARC
  8
LC-005-002-----0
  6
CONTINUOUS
  5
3E8
 10
794.573512
 20
672.166214
 30
0.0
 40
7.0
 50
1.904541
 51
111.924832
  0
LINE
  8
LC-005-002-----0
  6
CONTINUOUS
  5
3E9
 10
776.98906
 20
676.851729
 30
0.0
 11
790.578984
 21
677.088942
 31
0.0
  0
LINE
  8
LC-005-002-----0
  6
CONTINUOUS
  5
3EA
 10
780.849565
 20
673.418581
 30
0.0
 11
781.047322
 21
662.089095
 31
0.0
  0
LINE
  8
LC-005-002-----0
  6
CONTINUOUS
  5
3EB
 10
801.569645
 20
662.447314
 30
0.0
 11
781.047322
 21
662.089095
 31
0.0
  0
LINE
  8
LC-005-002-----0
  6
CONTINUOUS
  5
3EC
 10
794.684152
 20
665.82766
 30
0.0
 11
797.009247
 21
665.868245
 31
0.0
  0
LINE
  8
LC-005-002-----0
  6
CONTINUOUS
  5
3ED
 10
800.271837
 20
662.717598
 30
0.0
 11
797.009247
 21
665.868245
 31
0.0
  0
ARC
  8
LC-005-002-----0
  6
CONTINUOUS
  5
3EE
 10
794.573512
 20
672.166214
 30
0.0
 40
6.339519
 50
114.225545
 51
271.0
  0
ARC
  8
LC-014-002-RND-0
  6
CONTINUOUS
  5
3EF
 10
800.966495
 20
663.436938
 30
0.0
 40
1.0
 50
226.0
 51
271.0
  0
LINE
  8
LC-005-002-----0
  6
CONTINUOUS
  5
3F0
 10
794.784744
 20
688.664106
 30
0.0
 11
804.783221
 21
688.83863
 31
0.0
  0
LINE
  8
LC-005-002-----0
  6
CONTINUOUS
  5
3F1
 10
801.569645
 20
672.398855
 30
0.0
 11
801.336111
 21
685.778003
 31
0.0
  0
LINE
  8
LC-005-002-----0
  6
CONTINUOUS
  5
3F2
 10
794.950708
 20
679.156044
 30
0.0
 11
794.784744
 21
688.664106
 31
0.0
  0
LINE
  8
LC-005-002-----0
  6
CONTINUOUS
  5
3F3
 10
801.336111
 20
685.778003
 30
0.0
 11
804.835578
 21
685.839087
 31
0.0
  0
LINE
  8
LC-005-002-----0
  6
CONTINUOUS
  5
3F4
 10
780.953546
 20
678.921234
 30
0.0
 11
791.951871
 21
679.113211
 31
0.0
  0
LINE
  8
LC-005-002-----0
  6
CONTINUOUS
  5
3F5
 10
780.988451
 20
676.921539
 30
0.0
 11
780.953546
 21
678.921234
 31
0.0
  0
LINE
  8
LC-005-002-----0
  6
CONTINUOUS
  5
3F6
 10
791.972219
 20
677.947458
 30
0.0
 11
791.951871
 21
679.113211
 31
0.0
  0
ARC
  8
LC-014-002-RND-0
  6
CONTINUOUS
  5
3F7
 10
785.540123
 20
674.000531
 30
0.0
 40
0.5
 50
271.0
 51
1.0
  0
ARC
  8
LC-014-002-RND-0
  6
CONTINUOUS
  5
3F8
 10
785.496492
 20
676.500151
 30
0.0
 40
0.5
 50
1.0
 51
91.0
  0
LINE
  8
LC-005-002-----0
  6
CONTINUOUS
  5
3F9
 10
780.849565
 20
673.418581
 30
0.0
 11
785.548849
 21
673.500608
 31
0.0
  0
ARC
  8
LC-014-002-RND-0
  6
CONTINUOUS
  5
3FA
 10
781.868947
 20
511.880557
 30
0.0
 40
2.0
 50
181.0
 51
271.0
  0
ARC
  8
LC-014-002-RND-0
  6
CONTINUOUS
  5
3FB
 10
799.569644
 20
512.189524
 30
0.0
 40
2.0
 50
271.0
 51
360.0
  0
LINE
  8
LC-005-002-----0
  6
CONTINUOUS
  5
3FC
 10
785.996415
 20
676.508877
 30
0.0
 11
786.040046
 21
674.009258
 31
0.0
  0
LINE
  8
LC-005-002-----0
  6
CONTINUOUS
  5
3FD
 10
801.569645
 20
658.696742
 30
0.0
 11
793.440364
 21
658.554845
 31
0.0
  0
ARC
  8
LC-014-002-RND-0
  6
CONTINUOUS
  5
3FE
 10
792.345193
 20
527.015599
 30
0.0
 40
0.3
 50
92.0
 51
181.0
  0
ARC
  8
LC-014-002-RND-0
  6
CONTINUOUS
  5
3FF
 10
792.449216
 20
521.056125
 30
0.0
 40
0.3
 50
181.0
 51
271.0
  0
ARC
  8
LC-014-002-RND-0
  6
CONTINUOUS
  5
400
 10
790.293062
 20
644.582118
 30
0.0
 40
0.3
 50
181.0
 51
270.0
  0
ARC
  8
LC-005-002-----0
  6
CONTINUOUS
  5
401
 10
812.81981
 20
618.274641
 30
0.0
 40
1.0
 50
128.885393
 51
196.000002
  0
ARC
  8
LC-014-002-RND-0
  6
CONTINUOUS
  5
402
 10
802.262046
 20
640.582118
 30
0.0
 40
3.0
 50
16.000002
 51
90.0
  0
ARC
  8
LC-014-002-RND-0
  6
CONTINUOUS
  5
403
 10
790.189129
 20
650.536402
 30
0.0
 40
0.3
 50
91.0
 51
181.0
  0
LINE
  8
LC-005-002-----0
  6
CONTINUOUS
  5
404
 10
810.830978
 20
621.582566
 30
0.0
 11
805.145831
 21
641.40903
 31
0.0
  0
LINE
  8
LC-005-002-----0
  6
CONTINUOUS
  5
405
 10
792.750887
 20
667.96312
 30
0.0
 11
792.680414
 21
667.266676
 31
0.0
  0
ARC
  8
LC-005-002-----0
  6
CONTINUOUS
  5
406
 10
794.573512
 20
672.166214
 30
0.0
 40
4.9
 50
19.598851
 51
91.0
  0
ARC
  8
LC-014-002-RND-0
  6
CONTINUOUS
  5
407
 10
802.417096
 20
531.369756
 30
0.0
 40
3.0
 50
272.0
 51
337.528846
  0
ARC
  8
LC-014-002-RND-0
  6
CONTINUOUS
  5
408
 10
802.417095
 20
531.369756
 30
0.0
 40
3.7
 50
272.0
 51
337.528846
  0
ARC
  8
LC-014-002-RND-0
  6
CONTINUOUS
  5
409
 10
792.345193
 20
527.015599
 30
0.0
 40
1.0
 50
92.0
 51
181.0
  0
LINE
  8
LC-005-002-----0
  6
CONTINUOUS
  5
40A
 10
816.106854
 20
593.496414
 30
0.0
 11
817.9567
 21
597.917133
 31
0.0
  0
ARC
  8
LC-005-002-----0
  6
CONTINUOUS
  5
40B
 10
676.743293
 20
583.351438
 30
0.0
 40
139.0
 50
4.206103
 51
25.678075
  0
LINE
  8
LC-005-002-----0
  6
CONTINUOUS
  5
40C
 10
815.36892
 20
593.546314
 30
0.0
 11
817.310955
 21
598.187344
 31
0.0
  0
ARC
  8
LC-014-002-RND-0
  6
CONTINUOUS
  5
40D
 10
816.383601
 20
593.380609
 30
0.0
 40
0.3
 50
157.293171
 51
184.108013
  0
ARC
  8
LC-014-002-RND-0
  6
CONTINUOUS
  5
40E
 10
802.262045
 20
640.582118
 30
0.0
 40
3.7
 50
16.0
 51
90.0
  0
ARC
  8
LC-014-002-RND-0
  6
CONTINUOUS
  5
40F
 10
816.388463
 20
598.57336
 30
0.0
 40
1.0
 50
337.293171
 51
16.000002
  0
ARC
  8
LC-005-002-----0
  6
CONTINUOUS
  5
410
 10
811.689834
 20
619.675767
 30
0.0
 40
0.8
 50
308.885393
 51
71.944213
  0
ARC
  8
LC-014-002-RND-0
  6
CONTINUOUS
  5
411
 10
816.388463
 20
598.573361
 30
0.0
 40
1.7
 50
337.293171
 51
16.000002
  0
ARC
  8
LC-005-002-----0
  6
CONTINUOUS
  5
412
 10
793.173725
 20
672.141781
 30
0.0
 40
4.9
 50
91.0
 51
264.221916
  0
LINE
  8
LC-005-002-----0
  6
CONTINUOUS
  5
413
 10
802.970204
 20
663.192064
 30
0.0
 11
799.189626
 21
673.809834
 31
0.0
  0
LINE
  8
LC-005-002-----0
  6
CONTINUOUS
  5
414
 10
803.300278
 20
644.282118
 30
0.0
 11
802.970204
 21
663.192064
 31
0.0
  0
ARC
  8
LC-005-002-----0
  6
CONTINUOUS
  5
415
 10
801.452503
 20
652.733309
 30
0.0
 40
1.7
 50
271.0
 51
1.0
  0
LINE
  8
LC-005-002-----0
  6
CONTINUOUS
  5
416
 10
790.183894
 20
650.836356
 30
0.0
 11
801.482172
 21
651.033568
 31
0.0
  0
LINE
  8
LC-005-002-----0
  6
CONTINUOUS
  5
417
 10
789.889175
 20
650.531166
 30
0.0
 11
789.993107
 21
644.576882
 31
0.0
  0
LINE
  8
LC-005-002-----0
  6
CONTINUOUS
  5
418
 10
790.293062
 20
644.282118
 30
0.0
 11
802.262045
 21
644.282118
 31
0.0
  0
ARC
  8
LC-005-002-----0
  6
CONTINUOUS
  5
419
 10
794.573512
 20
672.166214
 30
0.0
 40
4.2
 50
19.598853
 51
91.0
  0
LINE
  8
LC-005-002-----0
  6
CONTINUOUS
  5
41A
 10
811.503429
 20
621.777018
 30
0.0
 11
805.818714
 21
641.601976
 31
0.0
  0
LINE
  8
LC-005-002-----0
  6
CONTINUOUS
  5
41B
 10
818.022608
 20
599.041944
 30
0.0
 11
812.472823
 21
618.396342
 31
0.0
  0
LINE
  8
LC-005-002-----0
  6
CONTINUOUS
  5
41C
 10
793.088208
 20
677.041034
 30
0.0
 11
794.487995
 21
677.065468
 31
0.0
  0
LINE
  8
LC-005-002-----0
  6
CONTINUOUS
  5
41D
 10
793.100425
 20
676.341141
 30
0.0
 11
794.500212
 21
676.365574
 31
0.0
  0
LINE
  8
LC-005-002-----0
  6
CONTINUOUS
  5
41E
 10
792.334723
 20
527.315416
 30
0.0
 11
802.546224
 21
527.67201
 31
0.0
  0
LINE
  8
LC-005-002-----0
  6
CONTINUOUS
  5
41F
 10
792.149262
 20
521.050889
 30
0.0
 11
792.045239
 21
527.010363
 31
0.0
  0
LINE
  8
LC-005-002-----0
  6
CONTINUOUS
  5
420
 10
792.454452
 20
520.756171
 30
0.0
 11
795.453995
 21
520.808528
 31
0.0
  0
ARC
  8
LC-014-002-RND-0
  6
CONTINUOUS
  5
421
 10
812.464691
 20
622.052655
 30
0.0
 40
1.0
 50
196.0
 51
251.944213
  0
ARC
  8
LC-005-002-----0
  6
CONTINUOUS
  5
422
 10
812.464691
 20
622.052655
 30
0.0
 40
1.7
 50
196.054334
 51
251.944213
  0
LINE
  8
LC-005-002-----0
  6
CONTINUOUS
  5
423
 10
802.452351
 20
652.750762
 30
0.0
 11
802.272311
 21
663.065243
 31
0.0
  0
LINE
  8
LC-005-002-----0
  6
CONTINUOUS
  5
424
 10
789.189282
 20
650.518949
 30
0.0
 11
789.298359
 21
644.269901
 31
0.0
  0
LINE
  8
LC-005-002-----0
  6
CONTINUOUS
  5
425
 10
790.171677
 20
651.536249
 30
0.0
 11
801.469956
 21
651.733461
 31
0.0
  0
ARC
  8
LC-005-002-----0
  6
CONTINUOUS
  5
426
 10
790.189129
 20
650.536402
 30
0.0
 40
1.0
 50
91.0
 51
181.0
  0
ARC
  8
LC-005-002-----0
  6
CONTINUOUS
  5
427
 10
801.452503
 20
652.733309
 30
0.0
 40
1.0
 50
271.0
 51
1.0
  0
LINE
  8
LC-005-002-----0
  6
CONTINUOUS
  5
428
 10
790.298252
 20
643.582118
 30
0.0
 11
802.262046
 21
643.582118
 31
0.0
  0
ARC
  8
LC-005-002-----0
  6
CONTINUOUS
  5
429
 10
790.292971
 20
644.587308
 30
0.0
 40
1.0
 50
181.0
 51
271.0
  0
LINE
  8
LC-005-002-----0
  6
CONTINUOUS
  5
42A
 10
817.349725
 20
598.848998
 30
0.0
 11
811.858442
 21
617.999375
 31
0.0
  0
LINE
  8
LC-005-002-----0
  6
CONTINUOUS
  5
42B
 10
792.310293
 20
528.01499
 30
0.0
 11
802.521794
 21
528.371583
 31
0.0
  0
LINE
  8
LC-005-002-----0
  6
CONTINUOUS
  5
42C
 10
791.449368
 20
521.038673
 30
0.0
 11
791.345345
 21
526.998146
 31
0.0
  0
ARC
  8
LC-005-002-----0
  6
CONTINUOUS
  5
42D
 10
792.449216
 20
521.056125
 30
0.0
 40
1.0
 50
181.0
 51
271.0
  0
LINE
  8
LC-005-002-----0
  6
CONTINUOUS
  5
42E
 10
792.466668
 20
520.056277
 30
0.0
 11
795.466211
 21
520.108635
 31
0.0
  0
LINE
  8
LC-005-002-----0
  6
CONTINUOUS
  5
42F
 10
795.466211
 20
520.108635
 30
0.0
 11
795.338586
 21
527.420313
 31
0.0
  0
LINE
  8
LC-005-002-----0
  6
CONTINUOUS
  5
430
 10
802.272311
 20
663.065243
 30
0.0
 11
798.530181
 21
673.575031
 31
0.0
  0
ARC
  8
LC-005-002-----0
  6
CONTINUOUS
  5
431
 10
676.743293
 20
583.351438
 30
0.0
 40
139.7
 50
337.528846
 51
4.108013
  0
ARC
  8
LC-005-002-----0
  6
CONTINUOUS
  5
432
 10
676.743293
 20
583.351438
 30
0.0
 40
139.0
 50
337.528846
 51
4.206103
  0
ARC
  8
LC-005-002-----0
  6
CONTINUOUS
  5
433
 10
793.173725
 20
672.141781
 30
0.0
 40
4.2
 50
91.0
 51
264.221916
  0
LINE
  8
LC-006-006-MLN-0
  6
DASHDOT
  5
434
 10
779.675781
 20
671.906173
 30
0.0
 11
809.471242
 21
672.426255
 31
0.0
  0
LINE
  8
LC-005-002-----0
  6
CONTINUOUS
  5
435
 10
789.293123
 20
644.569855
 30
0.0
 11
791.345345
 21
526.998146
 31
0.0
  0
ARC
  8
LC-005-002-----0
  6
CONTINUOUS
  5
436
 10
811.689834
 20
619.675767
 30
0.0
 40
1.5
 50
301.466024
 51
71.944213
  0
LINE
  8
LC-005-002-----0
  6
CONTINUOUS
  5
437
 10
779.852672
 20
512.795507
 30
0.0
 11
779.869252
 21
511.845652
 31
0.0
  0
LINE
  8
LC-005-002-----0
  6
CONTINUOUS
  5
438
 10
801.569644
 20
514.174731
 30
0.0
 11
801.569644
 21
512.189524
 31
0.0
  0
LINE
  8
LC-005-002-----0
  6
CONTINUOUS
  5
439
 10
804.783221
 20
688.83863
 30
0.0
 11
804.835578
 21
685.839087
 31
0.0
  0
LINE
  8
LC-005-002-----0
  6
CONTINUOUS
  5
43A
 10
802.096703
 20
527.656312
 30
0.0
 11
802.331793
 21
514.188034
 31
0.0
  0
ENDSEC
  0
EOF
