  0
SECTION
  2
HEADER
  9
$ACADVER
  1
AC1015
  9
$ACADMAINTVER
 70
     6
  9
$DWGCODEPAGE
  3
DOS850
  9
$INSBASE
 10
0.0
 20
0.0
 30
0.0
  9
$EXTMIN
 10
-238.222046
 20
-233.13
 30
0.0
  9
$EXTMAX
 10
949.777954
 20
606.87
 30
0.0
  9
$LIMMIN
 10
-238.222046
 20
-233.13
  9
$LIMMAX
 10
949.777954
 20
606.87
  9
$ORTHOMODE
 70
     0
  9
$REGENMODE
 70
     1
  9
$FILLMODE
 70
     1
  9
$QTEXTMODE
 70
     0
  9
$MIRRTEXT
 70
     1
  9
$LTSCALE
 40
2.0
  9
$ATTMODE
 70
     1
  9
$TEXTSIZE
 40
2.5
  9
$TRACEWID
 40
1.0
  9
$TEXTSTYLE
  7
Standard
  9
$CLAYER
  8
0
  9
$CELTYPE
  6
ByLayer
  9
$CECOLOR
 62
     7
  9
$CELTSCALE
 40
1.0
  9
$DISPSILH
 70
     0
  9
$DIMSCALE
 40
2.0
  9
$DIMASZ
 40
3.5
  9
$DIMEXO
 40
0.625
  9
$DIMDLI
 40
3.75
  9
$DIMRND
 40
0.0
  9
$DIMDLE
 40
0.0
  9
$DIMEXE
 40
1.25
  9
$DIMTP
 40
0.0
  9
$DIMTM
 40
0.0
  9
$DIMTXT
 40
3.5
  9
$DIMCEN
 40
2.5
  9
$DIMTSZ
 40
0.0
  9
$DIMTOL
 70
     0
  9
$DIMLIM
 70
     0
  9
$DIMTIH
 70
     0
  9
$DIMTOH
 70
     0
  9
$DIMSE1
 70
     0
  9
$DIMSE2
 70
     0
  9
$DIMTAD
 70
     1
  9
$DIMZIN
 70
     8
  9
$DIMBLK
  1

  9
$DIMASO
 70
     1
  9
$DIMSHO
 70
     1
  9
$DIMPOST
  1

  9
$DIMAPOST
  1

  9
$DIMALT
 70
     0
  9
$DIMALTD
 70
     3
  9
$DIMALTF
 40
0.03937
  9
$DIMLFAC
 40
1.0
  9
$DIMTOFL
 70
     1
  9
$DIMTVP
 40
0.0
  9
$DIMTIX
 70
     0
  9
$DIMSOXD
 70
     0
  9
$DIMSAH
 70
     0
  9
$DIMBLK1
  1

  9
$DIMBLK2
  1

  9
$DIMSTYLE
  2
ISO-25
  9
$DIMCLRD
 70
     0
  9
$DIMCLRE
 70
     0
  9
$DIMCLRT
 70
     0
  9
$DIMTFAC
 40
1.0
  9
$DIMGAP
 40
0.625
  9
$DIMJUST
 70
     0
  9
$DIMSD1
 70
     0
  9
$DIMSD2
 70
     0
  9
$DIMTOLJ
 70
     0
  9
$DIMTZIN
 70
     8
  9
$DIMALTZ
 70
     0
  9
$DIMALTTZ
 70
     0
  9
$DIMUPT
 70
     0
  9
$DIMDEC
 70
     2
  9
$DIMTDEC
 70
     2
  9
$DIMALTU
 70
     2
  9
$DIMALTTD
 70
     3
  9
$DIMTXSTY
  7
Standard
  9
$DIMAUNIT
 70
     0
  9
$DIMADEC
 70
     0
  9
$DIMALTRND
 40
0.0
  9
$DIMAZIN
 70
     0
  9
$DIMDSEP
 70
    44
  9
$DIMATFIT
 70
     3
  9
$DIMFRAC
 70
     0
  9
$DIMLDRBLK
  1

  9
$DIMLUNIT
 70
     2
  9
$DIMLWD
 70
    -2
  9
$DIMLWE
 70
    -2
  9
$DIMTMOVE
 70
     0
  9
$LUNITS
 70
     2
  9
$LUPREC
 70
     4
  9
$SKETCHINC
 40
1.0
  9
$FILLETRAD
 40
10.0
  9
$AUNITS
 70
     0
  9
$AUPREC
 70
     0
  9
$MENU
  1
.
  9
$ELEVATION
 40
0.0
  9
$PELEVATION
 40
0.0
  9
$THICKNESS
 40
0.0
  9
$LIMCHECK
 70
     0
  9
$CHAMFERA
 40
10.0
  9
$CHAMFERB
 40
10.0
  9
$CHAMFERC
 40
20.0
  9
$CHAMFERD
 40
0.0
  9
$SKPOLY
 70
     0
  9
$TDCREATE
 40
2453775.382558357
  9
$TDUCREATE
 40
2453775.34089169
  9
$TDUPDATE
 40
2453775.382558368
  9
$TDUUPDATE
 40
2453775.340891701
  9
$TDINDWG
 40
0.0000000116
  9
$TDUSRTIMER
 40
0.0000000116
  9
$USRTIMER
 70
     1
  9
$ANGBASE
 50
0.0
  9
$ANGDIR
 70
     0
  9
$PDMODE
 70
     0
  9
$PDSIZE
 40
0.0
  9
$PLINEWID
 40
0.0
  9
$SPLFRAME
 70
     0
  9
$SPLINETYPE
 70
     6
  9
$SPLINESEGS
 70
     8
  9
$HANDSEED
  5
618
  9
$SURFTAB1
 70
     6
  9
$SURFTAB2
 70
     6
  9
$SURFTYPE
 70
     6
  9
$SURFU
 70
     6
  9
$SURFV
 70
     6
  9
$UCSBASE
  2

  9
$UCSNAME
  2

  9
$UCSORG
 10
0.0
 20
0.0
 30
0.0
  9
$UCSXDIR
 10
1.0
 20
0.0
 30
0.0
  9
$UCSYDIR
 10
0.0
 20
1.0
 30
0.0
  9
$UCSORTHOREF
  2

  9
$UCSORTHOVIEW
 70
     0
  9
$UCSORGTOP
 10
0.0
 20
0.0
 30
0.0
  9
$UCSORGBOTTOM
 10
0.0
 20
0.0
 30
0.0
  9
$UCSORGLEFT
 10
0.0
 20
0.0
 30
0.0
  9
$UCSORGRIGHT
 10
0.0
 20
0.0
 30
0.0
  9
$UCSORGFRONT
 10
0.0
 20
0.0
 30
0.0
  9
$UCSORGBACK
 10
0.0
 20
0.0
 30
0.0
  9
$PUCSBASE
  2

  9
$PUCSNAME
  2

  9
$PUCSORG
 10
0.0
 20
0.0
 30
0.0
  9
$PUCSXDIR
 10
1.0
 20
0.0
 30
0.0
  9
$PUCSYDIR
 10
0.0
 20
1.0
 30
0.0
  9
$PUCSORTHOREF
  2

  9
$PUCSORTHOVIEW
 70
     0
  9
$PUCSORGTOP
 10
0.0
 20
0.0
 30
0.0
  9
$PUCSORGBOTTOM
 10
0.0
 20
0.0
 30
0.0
  9
$PUCSORGLEFT
 10
0.0
 20
0.0
 30
0.0
  9
$PUCSORGRIGHT
 10
0.0
 20
0.0
 30
0.0
  9
$PUCSORGFRONT
 10
0.0
 20
0.0
 30
0.0
  9
$PUCSORGBACK
 10
0.0
 20
0.0
 30
0.0
  9
$USERI1
 70
     0
  9
$USERI2
 70
     0
  9
$USERI3
 70
     0
  9
$USERI4
 70
     0
  9
$USERI5
 70
     0
  9
$USERR1
 40
0.0
  9
$USERR2
 40
0.0
  9
$USERR3
 40
0.0
  9
$USERR4
 40
0.0
  9
$USERR5
 40
0.0
  9
$WORLDVIEW
 70
     1
  9
$SHADEDGE
 70
     3
  9
$SHADEDIF
 70
    70
  9
$TILEMODE
 70
     1
  9
$MAXACTVP
 70
    64
  9
$PINSBASE
 10
0.0
 20
0.0
 30
0.0
  9
$PLIMCHECK
 70
     0
  9
$PEXTMIN
 10
-238.222046
 20
-233.13
 30
0.0
  9
$PEXTMAX
 10
949.777954
 20
606.87
 30
0.0
  9
$PLIMMIN
 10
-238.222046
 20
-233.13
  9
$PLIMMAX
 10
949.777954
 20
606.87
  9
$UNITMODE
 70
     0
  9
$VISRETAIN
 70
     1
  9
$PLINEGEN
 70
     0
  9
$PSLTSCALE
 70
     1
  9
$TREEDEPTH
 70
  3020
  9
$CMLSTYLE
  2
Standard
  9
$CMLJUST
 70
     0
  9
$CMLSCALE
 40
20.0
  9
$PROXYGRAPHICS
 70
     1
  9
$MEASUREMENT
 70
     1
  9
$CELWEIGHT
370
    -1
  9
$ENDCAPS
280
     0
  9
$JOINSTYLE
280
     0
  9
$LWDISPLAY
290
     0
  9
$INSUNITS
 70
     4
  9
$HYPERLINKBASE
  1

  9
$STYLESHEET
  1

  9
$XEDIT
290
     1
  9
$CEPSNTYPE
380
     0
  9
$PSTYLEMODE
290
     1
  9
$FINGERPRINTGUID
  2
{FAEB1C30-E019-11D5-929B-00C0DF256EC4}
  9
$VERSIONGUID
  2
{FAEB1C32-E019-11D5-929B-00C0DF256EC4}
  9
$EXTNAMES
290
     1
  9
$PSVPSCALE
 40
0.0
  9
$OLESTARTUP
290
     0
  0
ENDSEC
  0
SECTION
  2
CLASSES
  0
CLASS
  1
ACDBDICTIONARYWDFLT
  2
AcDbDictionaryWithDefault
  3
ObjectDBX Classes
 90
        0
280
     0
281
     0
  0
CLASS
  1
ACDBPLACEHOLDER
  2
AcDbPlaceHolder
  3
ObjectDBX Classes
 90
        0
280
     0
281
     0
  0
CLASS
  1
LAYOUT
  2
AcDbLayout
  3
ObjectDBX Classes
 90
        0
280
     0
281
     0
  0
ENDSEC
  0
SECTION
  2
TABLES
  0
TABLE
  2
VPORT
  5
8
330
0
100
AcDbSymbolTable
 70
     2
  0
VPORT
  5
29
330
8
100
AcDbSymbolTableRecord
100
AcDbViewportTableRecord
  2
*ACTIVE
 70
     0
 10
0.0
 20
0.0
 11
1.0
 21
1.0
 12
355.777954
 22
186.87
 13
0.0
 23
0.0
 14
1.0
 24
1.0
 15
0.0
 25
0.0
 16
0.0
 26
0.0
 36
1.0
 17
0.0
 27
0.0
 37
0.0
 40
840.0
 41
1.414286
 42
50.0
 43
0.0
 44
0.0
 50
0.0
 51
0.0
 71
    16
 72
   100
 73
     1
 74
     0
 75
     0
 76
     0
 77
     0
 78
     0
281
     0
 65
     0
110
0.0
120
0.0
130
0.0
111
1.0
121
0.0
131
0.0
112
0.0
122
1.0
132
0.0
 79
     0
146
0.0
  0
ENDTAB
  0
TABLE
  2
LTYPE
  5
5
330
0
100
AcDbSymbolTable
 70
     3
  0
LTYPE
  5
14
330
5
100
AcDbSymbolTableRecord
100
AcDbLinetypeTableRecord
  2
ByBlock
 70
     0
  3

 72
    65
 73
     0
 40
0.0
  0
LTYPE
  5
15
330
5
100
AcDbSymbolTableRecord
100
AcDbLinetypeTableRecord
  2
ByLayer
 70
     0
  3

 72
    65
 73
     0
 40
0.0
  0
LTYPE
  5
16
330
5
100
AcDbSymbolTableRecord
100
AcDbLinetypeTableRecord
  2
Continuous
 70
     0
  3
Solid line
 72
    65
 73
     0
 40
0.0
  0
LTYPE
  5
2A
330
5
100
AcDbSymbolTableRecord
100
AcDbLinetypeTableRecord
  2
DASHED
 70
     0
  3
__ __ __ __ __
 72
    65
 73
     2
 40
6.25
 49
5.0
 74
     4
 75
     0
340
0
 46
1.0
 50
0.0
 44
0.0
 45
0.0
 49
-1.25
 74
     4
 75
     0
340
0
 46
1.0
 50
0.0
 44
0.0
 45
0.0
  0
LTYPE
  5
1E0
330
5
100
AcDbSymbolTableRecord
100
AcDbLinetypeTableRecord
  2
CENTER
 70
     0
  3
__ . __ . __ . __ . __
 72
    65
 73
     4
 40
7.5
 49
5.0
 74
     4
 75
     0
340
0
 46
1.0
 50
0.0
 44
0.0
 45
0.0
 49
-1.25
 74
     4
 75
     0
340
0
 46
1.0
 50
0.0
 44
0.0
 45
0.0
 49
0.0
 74
     4
 75
     0
340
0
 46
1.0
 50
0.0
 44
0.0
 45
0.0
 49
-1.25
 74
     4
 75
     0
340
0
 46
1.0
 50
0.0
 44
0.0
 45
0.0
  0
ENDTAB
  0
TABLE
  2
LAYER
  5
2
330
0
100
AcDbSymbolTable
 70
    12
  0
LAYER
  5
10
330
2
100
AcDbSymbolTableRecord
100
AcDbLayerTableRecord
  2
0
 70
     0
 62
     7
  6
Continuous
370
    -3
390
F
  0
LAYER
  5
2B
330
2
100
AcDbSymbolTableRecord
100
AcDbLayerTableRecord
  2
LC-INFO-1-2-mm-A2-0
 70
     1
 62
     7
  6
ByBlock
370
    -3
390
F
  0
LAYER
  5
2C
330
2
100
AcDbSymbolTableRecord
100
AcDbLayerTableRecord
  2
LC-CUT-HIDDEN
 70
     0
 62
     7
  6
DASHED
370
    -3
390
F
  0
LAYER
  5
2D
330
2
100
AcDbSymbolTableRecord
100
AcDbLayerTableRecord
  2
LC-VIEWPORT
 70
     0
 62
     7
  6
ByBlock
370
    -3
390
F
  0
LAYER
  5
2E
330
2
100
AcDbSymbolTableRecord
100
AcDbLayerTableRecord
  2
LC-3D-HIDDEN
 70
     0
 62
     9
  6
DASHED
370
    -3
390
F
  0
LAYER
  5
31
330
2
100
AcDbSymbolTableRecord
100
AcDbLayerTableRecord
  2
LC-001-002-----0
 70
     0
 62
     1
  6
ByBlock
370
    -3
390
F
  0
LAYER
  5
36
330
2
100
AcDbSymbolTableRecord
100
AcDbLayerTableRecord
  2
LC-002-002-RND-0
 70
     0
 62
     1
  6
ByBlock
370
    -3
390
F
  0
LAYER
  5
47
330
2
100
AcDbSymbolTableRecord
100
AcDbLayerTableRecord
  2
LC-003-005-----0
 70
     0
 62
     2
  6
ByBlock
370
    -3
390
F
  0
LAYER
  5
A5
330
2
100
AcDbSymbolTableRecord
100
AcDbLayerTableRecord
  2
LC-004-002-___-0
 70
     0
 62
     2
  6
DASHED
370
    -3
390
F
  0
LAYER
  5
1E1
330
2
100
AcDbSymbolTableRecord
100
AcDbLayerTableRecord
  2
LC-005-006-MLN-0
 70
     0
 62
     2
  6
CENTER
370
    -3
390
F
  0
LAYER
  5
3D7
330
2
100
AcDbSymbolTableRecord
100
AcDbLayerTableRecord
  2
LC-006-003-----0
 70
     0
 62
     2
  6
ByBlock
370
    -3
390
F
  0
LAYER
  5
412
330
2
100
AcDbSymbolTableRecord
100
AcDbLayerTableRecord
  2
Defpoints
 70
     0
 62
     7
  6
Continuous
290
     0
370
    -3
390
F
  0
ENDTAB
  0
TABLE
  2
STYLE
  5
3
330
0
100
AcDbSymbolTable
 70
     4
  0
STYLE
  5
11
330
3
100
AcDbSymbolTableRecord
100
AcDbTextStyleTableRecord
  2
Standard
 70
     0
 40
0.0
 41
1.0
 50
0.0
 71
     0
 42
2.5
  3
txt
  4

  0
STYLE
  5
2F
330
3
100
AcDbSymbolTableRecord
100
AcDbTextStyleTableRecord
  2
LCTX0-400-0-0-DIN-Schrift
 70
     0
 40
0.0
 41
0.8
 50
0.0
 71
     0
 42
3.5
  3
MONOTXT
  4

  0
STYLE
  5
30
330
3
100
AcDbSymbolTableRecord
100
AcDbTextStyleTableRecord
  2
LCTX15-400-0-0-Arial
 70
     0
 40
0.0
 41
0.8
 50
0.0
 71
     0
 42
3.5
  3

  4

1001
ACAD
1000
Arial
1071
 16777218
  0
STYLE
  5
40F
330
3
100
AcDbSymbolTableRecord
100
AcDbTextStyleTableRecord
  2
LCTX15-400-0-0pDIN-Schrift
 70
     0
 40
2.5
 41
0.8
 50
15.0
 71
     0
 42
3.5
  3
STANDARD
  4

  0
ENDTAB
  0
TABLE
  2
VIEW
  5
6
330
0
100
AcDbSymbolTable
 70
     0
  0
ENDTAB
  0
TABLE
  2
UCS
  5
7
330
0
100
AcDbSymbolTable
 70
     0
  0
ENDTAB
  0
TABLE
  2
APPID
  5
9
330
0
100
AcDbSymbolTable
 70
     1
  0
APPID
  5
12
330
9
100
AcDbSymbolTableRecord
100
AcDbRegAppTableRecord
  2
ACAD
 70
     0
  0
ENDTAB
  0
TABLE
  2
DIMSTYLE
  5
A
330
0
100
AcDbSymbolTable
 70
     3
100
AcDbDimStyleTable
  0
DIMSTYLE
105
27
330
A
100
AcDbSymbolTableRecord
100
AcDbDimStyleTableRecord
  2
ISO-25
 70
     0
 41
2.5
 42
0.625
 43
3.75
 44
1.25
 73
     0
 74
     0
 77
     1
 78
     8
140
2.5
141
2.5
143
0.03937
147
0.625
171
     3
172
     1
271
     2
272
     2
274
     3
278
    44
283
     0
284
     8
340
11
  0
DIMSTYLE
105
410
102
{ACAD_REACTORS
330
411
330
41F
330
42D
330
43A
330
4AF
330
4BC
102
}
330
A
100
AcDbSymbolTableRecord
100
AcDbDimStyleTableRecord
  2
LC-DIM-L-0140-02-02
 70
     0
 40
2.0
 41
14.0
 42
0.0
 43
7.5
 44
1.8
 73
     0
 74
     0
 77
     1
 78
     8
 79
     2
140
14.0
141
0.0
146
0.71
147
1.5
176
     2
177
     2
178
     2
179
     2
271
     2
278
    44
289
     1
340
40F
  0
DIMSTYLE
105
607
102
{ACAD_REACTORS
330
608
102
}
330
A
100
AcDbSymbolTableRecord
100
AcDbDimStyleTableRecord
  2
LC-DIM-L-0140-01-02
 70
     0
 40
2.0
 41
14.0
 42
0.0
 43
7.5
 44
1.8
 73
     0
 74
     0
 77
     1
 78
     8
 79
     2
140
14.0
141
0.0
146
0.71
147
1.5
176
     2
177
     2
178
     2
179
     1
271
     1
278
    44
289
     1
340
40F
  0
ENDTAB
  0
TABLE
  2
BLOCK_RECORD
  5
1
330
0
100
AcDbSymbolTable
 70
    27
  0
BLOCK_RECORD
  5
1F
330
1
100
AcDbSymbolTableRecord
100
AcDbBlockTableRecord
  2
*Model_Space
340
22
  0
BLOCK_RECORD
  5
1B
330
1
100
AcDbSymbolTableRecord
100
AcDbBlockTableRecord
  2
*Paper_Space
340
1E
  0
BLOCK_RECORD
  5
23
330
1
100
AcDbSymbolTableRecord
100
AcDbBlockTableRecord
  2
*Paper_Space0
340
26
  0
BLOCK_RECORD
  5
44
330
1
100
AcDbSymbolTableRecord
100
AcDbBlockTableRecord
  2
*X11
340
0
102
{BLKREFS
331
53
102
}
  0
BLOCK_RECORD
  5
76
330
1
100
AcDbSymbolTableRecord
100
AcDbBlockTableRecord
  2
*X22
340
0
102
{BLKREFS
331
7D
102
}
  0
BLOCK_RECORD
  5
94
330
1
100
AcDbSymbolTableRecord
100
AcDbBlockTableRecord
  2
*X33
340
0
102
{BLKREFS
331
A3
102
}
  0
BLOCK_RECORD
  5
C7
330
1
100
AcDbSymbolTableRecord
100
AcDbBlockTableRecord
  2
*X44
340
0
102
{BLKREFS
331
CF
102
}
  0
BLOCK_RECORD
  5
F5
330
1
100
AcDbSymbolTableRecord
100
AcDbBlockTableRecord
  2
*X55
340
0
102
{BLKREFS
331
107
102
}
  0
BLOCK_RECORD
  5
10C
330
1
100
AcDbSymbolTableRecord
100
AcDbBlockTableRecord
  2
*X66
340
0
102
{BLKREFS
331
11A
102
}
  0
BLOCK_RECORD
  5
140
330
1
100
AcDbSymbolTableRecord
100
AcDbBlockTableRecord
  2
*X77
340
0
102
{BLKREFS
331
14E
102
}
  0
BLOCK_RECORD
  5
14F
330
1
100
AcDbSymbolTableRecord
100
AcDbBlockTableRecord
  2
*X88
340
0
102
{BLKREFS
331
15A
102
}
  0
BLOCK_RECORD
  5
183
330
1
100
AcDbSymbolTableRecord
100
AcDbBlockTableRecord
  2
*X99
340
0
102
{BLKREFS
331
198
102
}
  0
BLOCK_RECORD
  5
199
330
1
100
AcDbSymbolTableRecord
100
AcDbBlockTableRecord
  2
*X1010
340
0
102
{BLKREFS
331
19D
102
}
  0
BLOCK_RECORD
  5
1BD
330
1
100
AcDbSymbolTableRecord
100
AcDbBlockTableRecord
  2
*X1111
340
0
102
{BLKREFS
331
1CC
102
}
  0
BLOCK_RECORD
  5
1CD
330
1
100
AcDbSymbolTableRecord
100
AcDbBlockTableRecord
  2
*X1212
340
0
102
{BLKREFS
331
1D1
102
}
  0
BLOCK_RECORD
  5
214
330
1
100
AcDbSymbolTableRecord
100
AcDbBlockTableRecord
  2
*X1313
340
0
102
{BLKREFS
331
2C7
102
}
  0
BLOCK_RECORD
  5
2C8
330
1
100
AcDbSymbolTableRecord
100
AcDbBlockTableRecord
  2
*X1414
340
0
102
{BLKREFS
331
373
102
}
  0
BLOCK_RECORD
  5
37D
330
1
100
AcDbSymbolTableRecord
100
AcDbBlockTableRecord
  2
*X1515
340
0
102
{BLKREFS
331
3A5
102
}
  0
BLOCK_RECORD
  5
3A6
330
1
100
AcDbSymbolTableRecord
100
AcDbBlockTableRecord
  2
*X1616
340
0
102
{BLKREFS
331
3C9
102
}
  0
BLOCK_RECORD
  5
413
330
1
100
AcDbSymbolTableRecord
100
AcDbBlockTableRecord
  2
*D17
340
0
  0
BLOCK_RECORD
  5
420
330
1
100
AcDbSymbolTableRecord
100
AcDbBlockTableRecord
  2
*D18
340
0
  0
BLOCK_RECORD
  5
42E
330
1
100
AcDbSymbolTableRecord
100
AcDbBlockTableRecord
  2
*D19
340
0
  0
BLOCK_RECORD
  5
43B
330
1
100
AcDbSymbolTableRecord
100
AcDbBlockTableRecord
  2
*D20
340
0
  0
BLOCK_RECORD
  5
46A
330
1
100
AcDbSymbolTableRecord
100
AcDbBlockTableRecord
  2
*X1721
340
0
102
{BLKREFS
331
478
102
}
  0
BLOCK_RECORD
  5
48F
330
1
100
AcDbSymbolTableRecord
100
AcDbBlockTableRecord
  2
*X1822
340
0
102
{BLKREFS
331
499
102
}
  0
BLOCK_RECORD
  5
4B0
330
1
100
AcDbSymbolTableRecord
100
AcDbBlockTableRecord
  2
*D23
340
0
  0
BLOCK_RECORD
  5
4BD
330
1
100
AcDbSymbolTableRecord
100
AcDbBlockTableRecord
  2
*D24
340
0
  0
BLOCK_RECORD
  5
569
330
1
100
AcDbSymbolTableRecord
100
AcDbBlockTableRecord
  2
*X1925
340
0
102
{BLKREFS
331
606
102
}
  0
BLOCK_RECORD
  5
609
330
1
100
AcDbSymbolTableRecord
100
AcDbBlockTableRecord
  2
*D26
340
0
  0
ENDTAB
  0
ENDSEC
  0
SECTION
  2
BLOCKS
  0
BLOCK
  5
20
330
1F
100
AcDbEntity
  8
0
100
AcDbBlockBegin
  2
*Model_Space
 70
     0
 71
     0
 10
0.0
 20
0.0
 30
0.0
  3
*Model_Space
  1

  0
ENDBLK
  5
21
330
1F
100
AcDbEntity
  8
0
100
AcDbBlockEnd
  0
BLOCK
  5
1C
330
1B
100
AcDbEntity
 67
     1
  8
0
100
AcDbBlockBegin
  2
*Paper_Space
 70
     0
 71
     0
 10
0.0
 20
0.0
 30
0.0
  3
*Paper_Space
  1

  0
ENDBLK
  5
1D
330
1B
100
AcDbEntity
 67
     1
  8
0
100
AcDbBlockEnd
  0
BLOCK
  5
24
330
23
100
AcDbEntity
  8
0
100
AcDbBlockBegin
  2
*Paper_Space0
 70
     0
 71
     0
 10
0.0
 20
0.0
 30
0.0
  3
*Paper_Space0
  1

  0
ENDBLK
  5
25
330
23
100
AcDbEntity
  8
0
100
AcDbBlockEnd
  0
BLOCK
  5
45
330
44
100
AcDbEntity
  8
0
100
AcDbBlockBegin
  2
*X11
 70
     1
 71
     0
 10
0.0
 20
0.0
 30
0.0
  3
*X11
  1

  4
*X1
  0
LINE
  5
48
330
44
100
AcDbEntity
  8
LC-003-005-----0
 62
     7
370
    25
100
AcDbLine
 10
223.105425
 20
392.811053
 30
0.0
 11
225.113499
 21
394.819126
 31
0.0
  0
LINE
  5
49
330
44
100
AcDbEntity
  8
LC-003-005-----0
 62
     7
370
    25
100
AcDbLine
 10
220.822667
 20
393.356722
 30
0.0
 11
225.113495
 21
397.647549
 31
0.0
  0
LINE
  5
4A
330
44
100
AcDbEntity
  8
LC-003-005-----0
 62
     7
370
    25
100
AcDbLine
 10
222.213495
 20
397.575977
 30
0.0
 11
225.113491
 21
400.475973
 31
0.0
  0
LINE
  5
4B
330
44
100
AcDbEntity
  8
LC-003-005-----0
 62
     7
370
    25
100
AcDbLine
 10
222.213491
 20
400.4044
 30
0.0
 11
225.113487
 21
403.304396
 31
0.0
  0
LINE
  5
4C
330
44
100
AcDbEntity
  8
LC-003-005-----0
 62
     7
370
    25
100
AcDbLine
 10
222.213487
 20
403.232823
 30
0.0
 11
225.113483
 21
406.132819
 31
0.0
  0
LINE
  5
4D
330
44
100
AcDbEntity
  8
LC-003-005-----0
 62
     7
370
    25
100
AcDbLine
 10
222.213483
 20
406.061246
 30
0.0
 11
225.113479
 21
408.961242
 31
0.0
  0
LINE
  5
4E
330
44
100
AcDbEntity
  8
LC-003-005-----0
 62
     7
370
    25
100
AcDbLine
 10
222.213479
 20
408.88967
 30
0.0
 11
225.113475
 21
411.789666
 31
0.0
  0
LINE
  5
4F
330
44
100
AcDbEntity
  8
LC-003-005-----0
 62
     7
370
    25
100
AcDbLine
 10
222.213475
 20
411.718093
 30
0.0
 11
225.613471
 21
415.118088
 31
0.0
  0
LINE
  5
50
330
44
100
AcDbEntity
  8
LC-003-005-----0
 62
     7
370
    25
100
AcDbLine
 10
222.213472
 20
414.546516
 30
0.0
 11
225.613467
 21
417.946511
 31
0.0
  0
LINE
  5
51
330
44
100
AcDbEntity
  8
LC-003-005-----0
 62
     7
370
    25
100
AcDbLine
 10
222.213468
 20
417.374939
 30
0.0
 11
225.613463
 21
420.774935
 31
0.0
  0
LINE
  5
52
330
44
100
AcDbEntity
  8
LC-003-005-----0
 62
     7
370
    25
100
AcDbLine
 10
222.213464
 20
420.203363
 30
0.0
 11
223.821154
 21
421.811053
 31
0.0
  0
ENDBLK
  5
46
330
44
100
AcDbEntity
  8
0
100
AcDbBlockEnd
  0
BLOCK
  5
77
330
76
100
AcDbEntity
  8
0
100
AcDbBlockBegin
  2
*X22
 70
     1
 71
     0
 10
0.0
 20
0.0
 30
0.0
  3
*X22
  1

  4
*X2
  0
LINE
  5
79
330
76
100
AcDbEntity
  8
LC-003-005-----0
 62
     7
370
    25
100
AcDbLine
 10
238.753889
 20
456.542778
 30
0.0
 11
239.917492
 21
457.70638
 31
0.0
  0
LINE
  5
7A
330
76
100
AcDbEntity
  8
LC-003-005-----0
 62
     7
370
    25
100
AcDbLine
 10
239.587733
 20
460.205049
 30
0.0
 11
239.917492
 21
460.534808
 31
0.0
  0
LINE
  5
7B
330
76
100
AcDbEntity
  8
LC-003-005-----0
 62
     7
370
    25
100
AcDbLine
 10
252.02777
 20
492.444075
 30
0.0
 11
254.379661
 21
494.795966
 31
0.0
  0
LINE
  5
7C
330
76
100
AcDbEntity
  8
LC-003-005-----0
 62
     7
370
    25
100
AcDbLine
 10
252.536351
 20
495.781084
 30
0.0
 11
253.566327
 21
496.81106
 31
0.0
  0
ENDBLK
  5
78
330
76
100
AcDbEntity
  8
0
100
AcDbBlockEnd
  0
BLOCK
  5
95
330
94
100
AcDbEntity
  8
0
100
AcDbBlockBegin
  2
*X33
 70
     1
 71
     0
 10
0.0
 20
0.0
 30
0.0
  3
*X33
  1

  4
*X3
  0
LINE
  5
97
330
94
100
AcDbEntity
  8
LC-003-005-----0
 62
     7
370
    25
100
AcDbLine
 10
370.183839
 20
392.811256
 30
0.0
 11
371.47089
 21
394.098307
 31
0.0
  0
LINE
  5
98
330
94
100
AcDbEntity
  8
LC-003-005-----0
 62
     7
370
    25
100
AcDbLine
 10
367.355404
 20
392.811248
 30
0.0
 11
370.012972
 21
395.468816
 31
0.0
  0
LINE
  5
99
330
94
100
AcDbEntity
  8
LC-003-005-----0
 62
     7
370
    25
100
AcDbLine
 10
367.112972
 20
395.397243
 30
0.0
 11
370.012968
 21
398.297239
 31
0.0
  0
LINE
  5
9A
330
94
100
AcDbEntity
  8
LC-003-005-----0
 62
     7
370
    25
100
AcDbLine
 10
367.112968
 20
398.225666
 30
0.0
 11
370.012964
 21
401.125662
 31
0.0
  0
LINE
  5
9B
330
94
100
AcDbEntity
  8
LC-003-005-----0
 62
     7
370
    25
100
AcDbLine
 10
367.112964
 20
401.054089
 30
0.0
 11
370.01296
 21
403.954085
 31
0.0
  0
LINE
  5
9C
330
94
100
AcDbEntity
  8
LC-003-005-----0
 62
     7
370
    25
100
AcDbLine
 10
367.11296
 20
403.882513
 30
0.0
 11
370.012956
 21
406.782509
 31
0.0
  0
LINE
  5
9D
330
94
100
AcDbEntity
  8
LC-003-005-----0
 62
     7
370
    25
100
AcDbLine
 10
367.112956
 20
406.710936
 30
0.0
 11
370.012952
 21
409.610932
 31
0.0
  0
LINE
  5
9E
330
94
100
AcDbEntity
  8
LC-003-005-----0
 62
     7
370
    25
100
AcDbLine
 10
367.112952
 20
409.539359
 30
0.0
 11
370.012948
 21
412.439355
 31
0.0
  0
LINE
  5
9F
330
94
100
AcDbEntity
  8
LC-003-005-----0
 62
     7
370
    25
100
AcDbLine
 10
367.112948
 20
412.367782
 30
0.0
 11
370.012944
 21
415.267778
 31
0.0
  0
LINE
  5
A0
330
94
100
AcDbEntity
  8
LC-003-005-----0
 62
     7
370
    25
100
AcDbLine
 10
366.612945
 20
414.696206
 30
0.0
 11
370.01294
 21
418.096202
 31
0.0
  0
LINE
  5
A1
330
94
100
AcDbEntity
  8
LC-003-005-----0
 62
     7
370
    25
100
AcDbLine
 10
366.612941
 20
417.52463
 30
0.0
 11
370.012937
 21
420.924625
 31
0.0
  0
LINE
  5
A2
330
94
100
AcDbEntity
  8
LC-003-005-----0
 62
     7
370
    25
100
AcDbLine
 10
366.612937
 20
420.353053
 30
0.0
 11
368.071135
 21
421.81125
 31
0.0
  0
ENDBLK
  5
96
330
94
100
AcDbEntity
  8
0
100
AcDbBlockEnd
  0
BLOCK
  5
C8
330
C7
100
AcDbEntity
  8
0
100
AcDbBlockBegin
  2
*X44
 70
     1
 71
     0
 10
0.0
 20
0.0
 30
0.0
  3
*X44
  1

  4
*X4
  0
LINE
  5
CA
330
C7
100
AcDbEntity
  8
LC-003-005-----0
 62
     7
370
    25
100
AcDbLine
 10
352.308809
 20
456.960612
 30
0.0
 11
353.416378
 21
458.068181
 31
0.0
  0
LINE
  5
CB
330
C7
100
AcDbEntity
  8
LC-003-005-----0
 62
     7
370
    25
100
AcDbLine
 10
352.308801
 20
459.789032
 30
0.0
 11
352.661618
 21
460.141849
 31
0.0
  0
LINE
  5
CC
330
C7
100
AcDbEntity
  8
LC-003-005-----0
 62
     7
370
    25
100
AcDbLine
 10
339.782475
 20
492.51754
 30
0.0
 11
340.585463
 21
493.320528
 31
0.0
  0
LINE
  5
CD
330
C7
100
AcDbEntity
  8
LC-003-005-----0
 62
     7
370
    25
100
AcDbLine
 10
338.216401
 20
493.779893
 30
0.0
 11
339.830704
 21
495.394195
 31
0.0
  0
LINE
  5
CE
330
C7
100
AcDbEntity
  8
LC-003-005-----0
 62
     7
370
    25
100
AcDbLine
 10
337.461642
 20
495.853561
 30
0.0
 11
338.419257
 21
496.811176
 31
0.0
  0
ENDBLK
  5
C9
330
C7
100
AcDbEntity
  8
0
100
AcDbBlockEnd
  0
BLOCK
  5
F6
330
F5
100
AcDbEntity
  8
0
100
AcDbBlockBegin
  2
*X55
 70
     1
 71
     0
 10
0.0
 20
0.0
 30
0.0
  3
*X55
  1

  4
*X5
  0
LINE
  5
F8
330
F5
100
AcDbEntity
  8
LC-003-005-----0
 62
     7
370
    25
100
AcDbLine
 10
386.590423
 20
422.339735
 30
0.0
 11
385.590422
 21
423.339735
 31
0.0
  0
LINE
  5
F9
330
F5
100
AcDbEntity
  8
LC-003-005-----0
 62
     7
370
    25
100
AcDbLine
 10
384.445209
 20
421.656522
 30
0.0
 11
383.738102
 21
422.363628
 31
0.0
  0
LINE
  5
FA
330
F5
100
AcDbEntity
  8
LC-003-005-----0
 62
     7
370
    25
100
AcDbLine
 10
382.433569
 20
420.839735
 30
0.0
 11
381.433544
 21
421.839759
 31
0.0
  0
LINE
  5
FB
330
F5
100
AcDbEntity
  8
LC-003-005-----0
 62
     7
370
    25
100
AcDbLine
 10
379.605143
 20
420.839734
 30
0.0
 11
378.605129
 21
421.839747
 31
0.0
  0
LINE
  5
FC
330
F5
100
AcDbEntity
  8
LC-003-005-----0
 62
     7
370
    25
100
AcDbLine
 10
377.067926
 20
420.548523
 30
0.0
 11
376.3472
 21
421.269249
 31
0.0
  0
LINE
  5
FD
330
F5
100
AcDbEntity
  8
LC-003-005-----0
 62
     7
370
    25
100
AcDbLine
 10
376.107175
 20
418.680847
 30
0.0
 11
375.201585
 21
419.586437
 31
0.0
  0
LINE
  5
FE
330
F5
100
AcDbEntity
  8
LC-003-005-----0
 62
     7
370
    25
100
AcDbLine
 10
376.107181
 20
415.852414
 30
0.0
 11
375.107179
 21
416.852416
 31
0.0
  0
LINE
  5
FF
330
F5
100
AcDbEntity
  8
LC-003-005-----0
 62
     7
370
    25
100
AcDbLine
 10
376.107187
 20
413.023981
 30
0.0
 11
375.107185
 21
414.023983
 31
0.0
  0
LINE
  5
100
330
F5
100
AcDbEntity
  8
LC-003-005-----0
 62
     7
370
    25
100
AcDbLine
 10
376.107193
 20
410.195548
 30
0.0
 11
375.10719
 21
411.19555
 31
0.0
  0
LINE
  5
101
330
F5
100
AcDbEntity
  8
LC-003-005-----0
 62
     7
370
    25
100
AcDbLine
 10
376.107198
 20
407.367115
 30
0.0
 11
375.107196
 21
408.367117
 31
0.0
  0
LINE
  5
102
330
F5
100
AcDbEntity
  8
LC-003-005-----0
 62
     7
370
    25
100
AcDbLine
 10
376.107204
 20
404.538683
 30
0.0
 11
375.107202
 21
405.538685
 31
0.0
  0
LINE
  5
103
330
F5
100
AcDbEntity
  8
LC-003-005-----0
 62
     7
370
    25
100
AcDbLine
 10
375.94649
 20
401.87097
 30
0.0
 11
375.103264
 21
402.714196
 31
0.0
  0
LINE
  5
104
330
F5
100
AcDbEntity
  8
LC-003-005-----0
 62
     7
370
    25
100
AcDbLine
 10
374.694805
 20
400.294227
 30
0.0
 11
373.958894
 21
401.030138
 31
0.0
  0
LINE
  5
105
330
F5
100
AcDbEntity
  8
LC-003-005-----0
 62
     7
370
    25
100
AcDbLine
 10
372.377147
 20
399.783458
 30
0.0
 11
371.658937
 21
400.501668
 31
0.0
  0
LINE
  5
106
330
F5
100
AcDbEntity
  8
LC-003-005-----0
 62
     7
370
    25
100
AcDbLine
 10
372.107577
 20
397.224601
 30
0.0
 11
371.107573
 21
398.224605
 31
0.0
  0
ENDBLK
  5
F7
330
F5
100
AcDbEntity
  8
0
100
AcDbBlockEnd
  0
BLOCK
  5
10D
330
10C
100
AcDbEntity
  8
0
100
AcDbBlockBegin
  2
*X66
 70
     1
 71
     0
 10
0.0
 20
0.0
 30
0.0
  3
*X66
  1

  4
*X6
  0
LINE
  5
10F
330
10C
100
AcDbEntity
  8
LC-003-005-----0
 62
     7
370
    25
100
AcDbLine
 10
419.81335
 20
425.886361
 30
0.0
 11
419.104977
 21
426.594733
 31
0.0
  0
LINE
  5
110
330
10C
100
AcDbEntity
  8
LC-003-005-----0
 62
     7
370
    25
100
AcDbLine
 10
417.824118
 20
425.047166
 30
0.0
 11
416.980992
 21
425.890291
 31
0.0
  0
LINE
  5
111
330
10C
100
AcDbEntity
  8
LC-003-005-----0
 62
     7
370
    25
100
AcDbLine
 10
415.491512
 20
424.551344
 30
0.0
 11
414.648386
 21
425.39447
 31
0.0
  0
LINE
  5
112
330
10C
100
AcDbEntity
  8
LC-003-005-----0
 62
     7
370
    25
100
AcDbLine
 10
413.158906
 20
424.055523
 30
0.0
 11
412.31578
 21
424.898649
 31
0.0
  0
LINE
  5
113
330
10C
100
AcDbEntity
  8
LC-003-005-----0
 62
     7
370
    25
100
AcDbLine
 10
410.8263
 20
423.559702
 30
0.0
 11
409.983174
 21
424.402828
 31
0.0
  0
LINE
  5
114
330
10C
100
AcDbEntity
  8
LC-003-005-----0
 62
     7
370
    25
100
AcDbLine
 10
408.493694
 20
423.063881
 30
0.0
 11
407.650568
 21
423.907007
 31
0.0
  0
LINE
  5
115
330
10C
100
AcDbEntity
  8
LC-003-005-----0
 62
     7
370
    25
100
AcDbLine
 10
406.161088
 20
422.56806
 30
0.0
 11
405.317962
 21
423.411185
 31
0.0
  0
LINE
  5
116
330
10C
100
AcDbEntity
  8
LC-003-005-----0
 62
     7
370
    25
100
AcDbLine
 10
403.828482
 20
422.072238
 30
0.0
 11
402.985356
 21
422.915364
 31
0.0
  0
LINE
  5
117
330
10C
100
AcDbEntity
  8
LC-003-005-----0
 62
     7
370
    25
100
AcDbLine
 10
401.495876
 20
421.576417
 30
0.0
 11
400.65275
 21
422.419543
 31
0.0
  0
LINE
  5
118
330
10C
100
AcDbEntity
  8
LC-003-005-----0
 62
     7
370
    25
100
AcDbLine
 10
399.16327
 20
421.080596
 30
0.0
 11
398.320145
 21
421.923722
 31
0.0
  0
LINE
  5
119
330
10C
100
AcDbEntity
  8
LC-003-005-----0
 62
     7
370
    25
100
AcDbLine
 10
395.075703
 20
422.339736
 30
0.0
 11
394.075704
 21
423.339735
 31
0.0
  0
ENDBLK
  5
10E
330
10C
100
AcDbEntity
  8
0
100
AcDbBlockEnd
  0
BLOCK
  5
141
330
140
100
AcDbEntity
  8
0
100
AcDbBlockBegin
  2
*X77
 70
     1
 71
     0
 10
0.0
 20
0.0
 30
0.0
  3
*X77
  1

  4
*X7
  0
LINE
  5
143
330
140
100
AcDbEntity
  8
LC-003-005-----0
 62
     7
370
    25
100
AcDbLine
 10
217.067608
 20
419.328495
 30
0.0
 11
214.596852
 21
421.799251
 31
0.0
  0
LINE
  5
144
330
140
100
AcDbEntity
  8
LC-003-005-----0
 62
     7
370
    25
100
AcDbLine
 10
217.107753
 20
416.459923
 30
0.0
 11
216.107751
 21
417.459925
 31
0.0
  0
LINE
  5
145
330
140
100
AcDbEntity
  8
LC-003-005-----0
 62
     7
370
    25
100
AcDbLine
 10
212.728303
 20
420.839373
 30
0.0
 11
211.728286
 21
421.83939
 31
0.0
  0
LINE
  5
146
330
140
100
AcDbEntity
  8
LC-003-005-----0
 62
     7
370
    25
100
AcDbLine
 10
217.107759
 20
413.631489
 30
0.0
 11
216.107757
 21
414.631492
 31
0.0
  0
LINE
  5
147
330
140
100
AcDbEntity
  8
LC-003-005-----0
 62
     7
370
    25
100
AcDbLine
 10
209.899887
 20
420.839362
 30
0.0
 11
207.481016
 21
423.258233
 31
0.0
  0
LINE
  5
148
330
140
100
AcDbEntity
  8
LC-003-005-----0
 62
     7
370
    25
100
AcDbLine
 10
217.107766
 20
410.803056
 30
0.0
 11
216.107764
 21
411.803058
 31
0.0
  0
LINE
  5
149
330
140
100
AcDbEntity
  8
LC-003-005-----0
 62
     7
370
    25
100
AcDbLine
 10
217.107772
 20
407.974622
 30
0.0
 11
216.10777
 21
408.974624
 31
0.0
  0
LINE
  5
14A
330
140
100
AcDbEntity
  8
LC-003-005-----0
 62
     7
370
    25
100
AcDbLine
 10
217.107779
 20
405.146188
 30
0.0
 11
216.107777
 21
406.146191
 31
0.0
  0
LINE
  5
14B
330
140
100
AcDbEntity
  8
LC-003-005-----0
 62
     7
370
    25
100
AcDbLine
 10
221.107439
 20
398.318102
 30
0.0
 11
220.107439
 21
399.318102
 31
0.0
  0
LINE
  5
14C
330
140
100
AcDbEntity
  8
LC-003-005-----0
 62
     7
370
    25
100
AcDbLine
 10
219.586154
 20
399.839386
 30
0.0
 11
218.487533
 21
400.938007
 31
0.0
  0
LINE
  5
14D
330
140
100
AcDbEntity
  8
LC-003-005-----0
 62
     7
370
    25
100
AcDbLine
 10
217.206393
 20
402.219147
 30
0.0
 11
216.107783
 21
403.317757
 31
0.0
  0
ENDBLK
  5
142
330
140
100
AcDbEntity
  8
0
100
AcDbBlockEnd
  0
BLOCK
  5
150
330
14F
100
AcDbEntity
  8
0
100
AcDbBlockBegin
  2
*X88
 70
     1
 71
     0
 10
0.0
 20
0.0
 30
0.0
  3
*X88
  1

  4
*X8
  0
LINE
  5
152
330
14F
100
AcDbEntity
  8
LC-003-005-----0
 62
     7
370
    25
100
AcDbLine
 10
197.107679
 20
422.317861
 30
0.0
 11
196.399722
 21
423.025818
 31
0.0
  0
LINE
  5
153
330
14F
100
AcDbEntity
  8
LC-003-005-----0
 62
     7
370
    25
100
AcDbLine
 10
195.655516
 20
420.941597
 30
0.0
 11
194.757819
 21
421.839294
 31
0.0
  0
LINE
  5
154
330
14F
100
AcDbEntity
  8
LC-003-005-----0
 62
     7
370
    25
100
AcDbLine
 10
192.590522
 20
421.178164
 30
0.0
 11
191.292219
 21
422.476468
 31
0.0
  0
LINE
  5
155
330
14F
100
AcDbEntity
  8
LC-003-005-----0
 62
     7
370
    25
100
AcDbLine
 10
188.998611
 20
421.941648
 30
0.0
 11
187.700307
 21
423.239952
 31
0.0
  0
LINE
  5
156
330
14F
100
AcDbEntity
  8
LC-003-005-----0
 62
     7
370
    25
100
AcDbLine
 10
185.406699
 20
422.705133
 30
0.0
 11
184.108396
 21
424.003436
 31
0.0
  0
LINE
  5
157
330
14F
100
AcDbEntity
  8
LC-003-005-----0
 62
     7
370
    25
100
AcDbLine
 10
181.814788
 20
423.468617
 30
0.0
 11
180.516484
 21
424.766921
 31
0.0
  0
LINE
  5
158
330
14F
100
AcDbEntity
  8
LC-003-005-----0
 62
     7
370
    25
100
AcDbLine
 10
178.222876
 20
424.232101
 30
0.0
 11
176.924573
 21
425.530405
 31
0.0
  0
LINE
  5
159
330
14F
100
AcDbEntity
  8
LC-003-005-----0
 62
     7
370
    25
100
AcDbLine
 10
174.630965
 20
424.995586
 30
0.0
 11
172.585016
 21
427.041535
 31
0.0
  0
ENDBLK
  5
151
330
14F
100
AcDbEntity
  8
0
100
AcDbBlockEnd
  0
BLOCK
  5
184
330
183
100
AcDbEntity
  8
0
100
AcDbBlockBegin
  2
*X99
 70
     1
 71
     0
 10
0.0
 20
0.0
 30
0.0
  3
*X99
  1

  4
*X9
  0
LINE
  5
186
330
183
100
AcDbEntity
  8
LC-003-005-----0
 62
     7
370
    25
100
AcDbLine
 10
197.848877
 20
395.838775
 30
0.0
 11
198.60971
 21
396.599609
 31
0.0
  0
LINE
  5
187
330
183
100
AcDbEntity
  8
LC-003-005-----0
 62
     7
370
    25
100
AcDbLine
 10
195.274492
 20
396.092818
 30
0.0
 11
196.027289
 21
396.845615
 31
0.0
  0
LINE
  5
188
330
183
100
AcDbEntity
  8
LC-003-005-----0
 62
     7
370
    25
100
AcDbLine
 10
194.60971
 20
398.256463
 30
0.0
 11
195.60971
 21
399.256463
 31
0.0
  0
LINE
  5
189
330
183
100
AcDbEntity
  8
LC-003-005-----0
 62
     7
370
    25
100
AcDbLine
 10
194.60971
 20
401.08489
 30
0.0
 11
195.60971
 21
402.08489
 31
0.0
  0
LINE
  5
18A
330
183
100
AcDbEntity
  8
LC-003-005-----0
 62
     7
370
    25
100
AcDbLine
 10
194.60971
 20
403.913317
 30
0.0
 11
195.60971
 21
404.913317
 31
0.0
  0
LINE
  5
18B
330
183
100
AcDbEntity
  8
LC-003-005-----0
 62
     7
370
    25
100
AcDbLine
 10
194.60971
 20
406.741744
 30
0.0
 11
195.60971
 21
407.741744
 31
0.0
  0
LINE
  5
18C
330
183
100
AcDbEntity
  8
LC-003-005-----0
 62
     7
370
    25
100
AcDbLine
 10
194.60971
 20
409.570171
 30
0.0
 11
195.60971
 21
410.570171
 31
0.0
  0
LINE
  5
18D
330
183
100
AcDbEntity
  8
LC-003-005-----0
 62
     7
370
    25
100
AcDbLine
 10
194.049887
 20
411.838775
 30
0.0
 11
194.852857
 21
412.641746
 31
0.0
  0
LINE
  5
18E
330
183
100
AcDbEntity
  8
LC-003-005-----0
 62
     7
370
    25
100
AcDbLine
 10
191.22146
 20
411.838775
 30
0.0
 11
192.22146
 21
412.838775
 31
0.0
  0
LINE
  5
18F
330
183
100
AcDbEntity
  8
LC-003-005-----0
 62
     7
370
    25
100
AcDbLine
 10
189.107324
 20
412.553067
 30
0.0
 11
189.777633
 21
413.223376
 31
0.0
  0
LINE
  5
190
330
183
100
AcDbEntity
  8
LC-003-005-----0
 62
     7
370
    25
100
AcDbLine
 10
187.033652
 20
413.307822
 30
0.0
 11
187.703961
 21
413.978131
 31
0.0
  0
LINE
  5
191
330
183
100
AcDbEntity
  8
LC-003-005-----0
 62
     7
370
    25
100
AcDbLine
 10
184.959979
 20
414.062577
 30
0.0
 11
185.630288
 21
414.732886
 31
0.0
  0
LINE
  5
192
330
183
100
AcDbEntity
  8
LC-003-005-----0
 62
     7
370
    25
100
AcDbLine
 10
182.886307
 20
414.817331
 30
0.0
 11
183.556616
 21
415.48764
 31
0.0
  0
LINE
  5
193
330
183
100
AcDbEntity
  8
LC-003-005-----0
 62
     7
370
    25
100
AcDbLine
 10
180.812635
 20
415.572086
 30
0.0
 11
181.482944
 21
416.242395
 31
0.0
  0
LINE
  5
194
330
183
100
AcDbEntity
  8
LC-003-005-----0
 62
     7
370
    25
100
AcDbLine
 10
178.738963
 20
416.326841
 30
0.0
 11
179.409272
 21
416.99715
 31
0.0
  0
LINE
  5
195
330
183
100
AcDbEntity
  8
LC-003-005-----0
 62
     7
370
    25
100
AcDbLine
 10
176.665291
 20
417.081596
 30
0.0
 11
177.3356
 21
417.751905
 31
0.0
  0
LINE
  5
196
330
183
100
AcDbEntity
  8
LC-003-005-----0
 62
     7
370
    25
100
AcDbLine
 10
174.591619
 20
417.836351
 30
0.0
 11
175.261928
 21
418.50666
 31
0.0
  0
LINE
  5
197
330
183
100
AcDbEntity
  8
LC-003-005-----0
 62
     7
370
    25
100
AcDbLine
 10
172.517946
 20
418.591106
 30
0.0
 11
173.188255
 21
419.261415
 31
0.0
  0
ENDBLK
  5
185
330
183
100
AcDbEntity
  8
0
100
AcDbBlockEnd
  0
BLOCK
  5
19A
330
199
100
AcDbEntity
  8
0
100
AcDbBlockBegin
  2
*X1010
 70
     1
 71
     0
 10
0.0
 20
0.0
 30
0.0
  3
*X1010
  1

  4
*X10
  0
LINE
  5
19C
330
199
100
AcDbEntity
  8
LC-003-005-----0
 62
     7
370
    25
100
AcDbLine
 10
206.334158
 20
395.838775
 30
0.0
 11
207.334158
 21
396.838775
 31
0.0
  0
ENDBLK
  5
19B
330
199
100
AcDbEntity
  8
0
100
AcDbBlockEnd
  0
BLOCK
  5
1BE
330
1BD
100
AcDbEntity
  8
0
100
AcDbBlockBegin
  2
*X1111
 70
     1
 71
     0
 10
0.0
 20
0.0
 30
0.0
  3
*X1111
  1

  4
*X11
  0
LINE
  5
1C0
330
1BD
100
AcDbEntity
  8
LC-003-005-----0
 62
     7
370
    25
100
AcDbLine
 10
395.839049
 20
395.839049
 30
0.0
 11
397.616753
 21
397.616753
 31
0.0
  0
LINE
  5
1C1
330
1BD
100
AcDbEntity
  8
LC-003-005-----0
 62
     7
370
    25
100
AcDbLine
 10
417.952221
 20
417.952221
 30
0.0
 11
419.389712
 21
419.389712
 31
0.0
  0
LINE
  5
1C2
330
1BD
100
AcDbEntity
  8
LC-003-005-----0
 62
     7
370
    25
100
AcDbLine
 10
393.616757
 20
396.445184
 30
0.0
 11
394.010617
 21
396.839044
 31
0.0
  0
LINE
  5
1C3
330
1BD
100
AcDbEntity
  8
LC-003-005-----0
 62
     7
370
    25
100
AcDbLine
 10
396.616748
 20
399.445175
 30
0.0
 11
397.616746
 21
400.445173
 31
0.0
  0
LINE
  5
1C4
330
1BD
100
AcDbEntity
  8
LC-003-005-----0
 62
     7
370
    25
100
AcDbLine
 10
413.505195
 20
416.333623
 30
0.0
 11
414.942686
 21
417.771113
 31
0.0
  0
LINE
  5
1C5
330
1BD
100
AcDbEntity
  8
LC-003-005-----0
 62
     7
370
    25
100
AcDbLine
 10
396.616741
 20
402.273595
 30
0.0
 11
397.616738
 21
403.273592
 31
0.0
  0
LINE
  5
1C6
330
1BD
100
AcDbEntity
  8
LC-003-005-----0
 62
     7
370
    25
100
AcDbLine
 10
409.058169
 20
414.715024
 30
0.0
 11
410.49566
 21
416.152514
 31
0.0
  0
LINE
  5
1C7
330
1BD
100
AcDbEntity
  8
LC-003-005-----0
 62
     7
370
    25
100
AcDbLine
 10
396.616733
 20
405.102014
 30
0.0
 11
397.61673
 21
406.102011
 31
0.0
  0
LINE
  5
1C8
330
1BD
100
AcDbEntity
  8
LC-003-005-----0
 62
     7
370
    25
100
AcDbLine
 10
404.611143
 20
413.096425
 30
0.0
 11
406.048634
 21
414.533915
 31
0.0
  0
LINE
  5
1C9
330
1BD
100
AcDbEntity
  8
LC-003-005-----0
 62
     7
370
    25
100
AcDbLine
 10
396.616725
 20
407.930434
 30
0.0
 11
397.616722
 21
408.930431
 31
0.0
  0
LINE
  5
1CA
330
1BD
100
AcDbEntity
  8
LC-003-005-----0
 62
     7
370
    25
100
AcDbLine
 10
400.525353
 20
411.839062
 30
0.0
 11
401.601608
 21
412.915316
 31
0.0
  0
LINE
  5
1CB
330
1BD
100
AcDbEntity
  8
LC-003-005-----0
 62
     7
370
    25
100
AcDbLine
 10
396.616717
 20
410.758853
 30
0.0
 11
398.696921
 21
412.839057
 31
0.0
  0
ENDBLK
  5
1BF
330
1BD
100
AcDbEntity
  8
0
100
AcDbBlockEnd
  0
BLOCK
  5
1CE
330
1CD
100
AcDbEntity
  8
0
100
AcDbBlockBegin
  2
*X1212
 70
     1
 71
     0
 10
0.0
 20
0.0
 30
0.0
  3
*X1212
  1

  4
*X12
  0
LINE
  5
1D0
330
1CD
100
AcDbEntity
  8
LC-003-005-----0
 62
     7
370
    25
100
AcDbLine
 10
384.525309
 20
395.839018
 30
0.0
 11
385.525312
 21
396.839021
 31
0.0
  0
ENDBLK
  5
1CF
330
1CD
100
AcDbEntity
  8
0
100
AcDbBlockEnd
  0
BLOCK
  5
215
330
214
100
AcDbEntity
  8
0
100
AcDbBlockBegin
  2
*X1313
 70
     1
 71
     0
 10
0.0
 20
0.0
 30
0.0
  3
*X1313
  1

  4
*X13
  0
LINE
  5
217
330
214
100
AcDbEntity
  8
LC-003-005-----0
 62
     7
370
    25
100
AcDbLine
 10
252.105736
 20
-33.565404
 30
0.0
 11
254.111268
 21
-31.559871
 31
0.0
  0
LINE
  5
218
330
214
100
AcDbEntity
  8
LC-003-005-----0
 62
     7
370
    25
100
AcDbLine
 10
251.508019
 20
-31.334694
 30
0.0
 11
254.111268
 21
-28.731444
 31
0.0
  0
LINE
  5
219
330
214
100
AcDbEntity
  8
LC-003-005-----0
 62
     7
370
    25
100
AcDbLine
 10
251.111268
 20
-28.903017
 30
0.0
 11
254.111268
 21
-25.903017
 31
0.0
  0
LINE
  5
21A
330
214
100
AcDbEntity
  8
LC-003-005-----0
 62
     7
370
    25
100
AcDbLine
 10
251.111268
 20
-26.07459
 30
0.0
 11
254.111268
 21
-23.07459
 31
0.0
  0
LINE
  5
21B
330
214
100
AcDbEntity
  8
LC-003-005-----0
 62
     7
370
    25
100
AcDbLine
 10
251.111268
 20
-23.246163
 30
0.0
 11
254.111268
 21
-20.246163
 31
0.0
  0
LINE
  5
21C
330
214
100
AcDbEntity
  8
LC-003-005-----0
 62
     7
370
    25
100
AcDbLine
 10
251.111268
 20
-20.417736
 30
0.0
 11
254.111268
 21
-17.417736
 31
0.0
  0
LINE
  5
21D
330
214
100
AcDbEntity
  8
LC-003-005-----0
 62
     7
370
    25
100
AcDbLine
 10
251.111268
 20
-17.589309
 30
0.0
 11
254.111268
 21
-14.589309
 31
0.0
  0
LINE
  5
21E
330
214
100
AcDbEntity
  8
LC-003-005-----0
 62
     7
370
    25
100
AcDbLine
 10
251.111268
 20
-14.760882
 30
0.0
 11
254.111268
 21
-11.760882
 31
0.0
  0
LINE
  5
21F
330
214
100
AcDbEntity
  8
LC-003-005-----0
 62
     7
370
    25
100
AcDbLine
 10
251.111268
 20
-11.932454
 30
0.0
 11
254.111268
 21
-8.932454
 31
0.0
  0
LINE
  5
220
330
214
100
AcDbEntity
  8
LC-003-005-----0
 62
     7
370
    25
100
AcDbLine
 10
251.111268
 20
-9.104027
 30
0.0
 11
254.111268
 21
-6.104027
 31
0.0
  0
LINE
  5
221
330
214
100
AcDbEntity
  8
LC-003-005-----0
 62
     7
370
    25
100
AcDbLine
 10
251.111268
 20
-6.2756
 30
0.0
 11
254.111268
 21
-3.2756
 31
0.0
  0
LINE
  5
222
330
214
100
AcDbEntity
  8
LC-003-005-----0
 62
     7
370
    25
100
AcDbLine
 10
251.111268
 20
-3.447173
 30
0.0
 11
254.111268
 21
-0.447173
 31
0.0
  0
LINE
  5
223
330
214
100
AcDbEntity
  8
LC-003-005-----0
 62
     7
370
    25
100
AcDbLine
 10
251.111268
 20
-0.618746
 30
0.0
 11
254.111268
 21
2.381254
 31
0.0
  0
LINE
  5
224
330
214
100
AcDbEntity
  8
LC-003-005-----0
 62
     7
370
    25
100
AcDbLine
 10
251.111268
 20
2.209681
 30
0.0
 11
254.111268
 21
5.209681
 31
0.0
  0
LINE
  5
225
330
214
100
AcDbEntity
  8
LC-003-005-----0
 62
     7
370
    25
100
AcDbLine
 10
251.111268
 20
5.038108
 30
0.0
 11
254.111268
 21
8.038108
 31
0.0
  0
LINE
  5
226
330
214
100
AcDbEntity
  8
LC-003-005-----0
 62
     7
370
    25
100
AcDbLine
 10
251.111268
 20
7.866535
 30
0.0
 11
254.111268
 21
10.866535
 31
0.0
  0
LINE
  5
227
330
214
100
AcDbEntity
  8
LC-003-005-----0
 62
     7
370
    25
100
AcDbLine
 10
251.111268
 20
10.694963
 30
0.0
 11
254.111268
 21
13.694963
 31
0.0
  0
LINE
  5
228
330
214
100
AcDbEntity
  8
LC-003-005-----0
 62
     7
370
    25
100
AcDbLine
 10
251.111268
 20
13.52339
 30
0.0
 11
254.111268
 21
16.52339
 31
0.0
  0
LINE
  5
229
330
214
100
AcDbEntity
  8
LC-003-005-----0
 62
     7
370
    25
100
AcDbLine
 10
251.111268
 20
16.351817
 30
0.0
 11
254.111268
 21
19.351817
 31
0.0
  0
LINE
  5
22A
330
214
100
AcDbEntity
  8
LC-003-005-----0
 62
     7
370
    25
100
AcDbLine
 10
251.111268
 20
19.180244
 30
0.0
 11
254.111268
 21
22.180244
 31
0.0
  0
LINE
  5
22B
330
214
100
AcDbEntity
  8
LC-003-005-----0
 62
     7
370
    25
100
AcDbLine
 10
251.111268
 20
22.008671
 30
0.0
 11
254.111268
 21
25.008671
 31
0.0
  0
LINE
  5
22C
330
214
100
AcDbEntity
  8
LC-003-005-----0
 62
     7
370
    25
100
AcDbLine
 10
251.111268
 20
24.837098
 30
0.0
 11
254.111268
 21
27.837098
 31
0.0
  0
LINE
  5
22D
330
214
100
AcDbEntity
  8
LC-003-005-----0
 62
     7
370
    25
100
AcDbLine
 10
251.111268
 20
27.665525
 30
0.0
 11
254.111268
 21
30.665525
 31
0.0
  0
LINE
  5
22E
330
214
100
AcDbEntity
  8
LC-003-005-----0
 62
     7
370
    25
100
AcDbLine
 10
251.111268
 20
30.493952
 30
0.0
 11
254.111268
 21
33.493952
 31
0.0
  0
LINE
  5
22F
330
214
100
AcDbEntity
  8
LC-003-005-----0
 62
     7
370
    25
100
AcDbLine
 10
251.111268
 20
33.32238
 30
0.0
 11
254.111268
 21
36.32238
 31
0.0
  0
LINE
  5
230
330
214
100
AcDbEntity
  8
LC-003-005-----0
 62
     7
370
    25
100
AcDbLine
 10
251.111268
 20
36.150807
 30
0.0
 11
254.111268
 21
39.150807
 31
0.0
  0
LINE
  5
231
330
214
100
AcDbEntity
  8
LC-003-005-----0
 62
     7
370
    25
100
AcDbLine
 10
251.111268
 20
38.979234
 30
0.0
 11
254.111268
 21
41.979234
 31
0.0
  0
LINE
  5
232
330
214
100
AcDbEntity
  8
LC-003-005-----0
 62
     7
370
    25
100
AcDbLine
 10
251.111268
 20
41.807661
 30
0.0
 11
254.111268
 21
44.807661
 31
0.0
  0
LINE
  5
233
330
214
100
AcDbEntity
  8
LC-003-005-----0
 62
     7
370
    25
100
AcDbLine
 10
251.111268
 20
44.636088
 30
0.0
 11
254.111268
 21
47.636088
 31
0.0
  0
LINE
  5
234
330
214
100
AcDbEntity
  8
LC-003-005-----0
 62
     7
370
    25
100
AcDbLine
 10
251.111268
 20
47.464515
 30
0.0
 11
254.111268
 21
50.464515
 31
0.0
  0
LINE
  5
235
330
214
100
AcDbEntity
  8
LC-003-005-----0
 62
     7
370
    25
100
AcDbLine
 10
251.111268
 20
50.292942
 30
0.0
 11
254.111268
 21
53.292942
 31
0.0
  0
LINE
  5
236
330
214
100
AcDbEntity
  8
LC-003-005-----0
 62
     7
370
    25
100
AcDbLine
 10
251.111268
 20
53.121369
 30
0.0
 11
254.111268
 21
56.121369
 31
0.0
  0
LINE
  5
237
330
214
100
AcDbEntity
  8
LC-003-005-----0
 62
     7
370
    25
100
AcDbLine
 10
251.111268
 20
55.949797
 30
0.0
 11
254.111268
 21
58.949797
 31
0.0
  0
LINE
  5
238
330
214
100
AcDbEntity
  8
LC-003-005-----0
 62
     7
370
    25
100
AcDbLine
 10
251.111268
 20
58.778224
 30
0.0
 11
254.111268
 21
61.778224
 31
0.0
  0
LINE
  5
239
330
214
100
AcDbEntity
  8
LC-003-005-----0
 62
     7
370
    25
100
AcDbLine
 10
251.111268
 20
61.606651
 30
0.0
 11
254.111268
 21
64.606651
 31
0.0
  0
LINE
  5
23A
330
214
100
AcDbEntity
  8
LC-003-005-----0
 62
     7
370
    25
100
AcDbLine
 10
251.111268
 20
64.435078
 30
0.0
 11
254.111268
 21
67.435078
 31
0.0
  0
LINE
  5
23B
330
214
100
AcDbEntity
  8
LC-003-005-----0
 62
     7
370
    25
100
AcDbLine
 10
251.111268
 20
67.263505
 30
0.0
 11
254.111268
 21
70.263505
 31
0.0
  0
LINE
  5
23C
330
214
100
AcDbEntity
  8
LC-003-005-----0
 62
     7
370
    25
100
AcDbLine
 10
251.111268
 20
70.091932
 30
0.0
 11
254.111268
 21
73.091932
 31
0.0
  0
LINE
  5
23D
330
214
100
AcDbEntity
  8
LC-003-005-----0
 62
     7
370
    25
100
AcDbLine
 10
251.111268
 20
72.920359
 30
0.0
 11
254.111268
 21
75.920359
 31
0.0
  0
LINE
  5
23E
330
214
100
AcDbEntity
  8
LC-003-005-----0
 62
     7
370
    25
100
AcDbLine
 10
251.111268
 20
75.748786
 30
0.0
 11
254.111268
 21
78.748786
 31
0.0
  0
LINE
  5
23F
330
214
100
AcDbEntity
  8
LC-003-005-----0
 62
     7
370
    25
100
AcDbLine
 10
251.111268
 20
78.577214
 30
0.0
 11
254.111268
 21
81.577214
 31
0.0
  0
LINE
  5
240
330
214
100
AcDbEntity
  8
LC-003-005-----0
 62
     7
370
    25
100
AcDbLine
 10
251.111268
 20
81.405641
 30
0.0
 11
254.111268
 21
84.405641
 31
0.0
  0
LINE
  5
241
330
214
100
AcDbEntity
  8
LC-003-005-----0
 62
     7
370
    25
100
AcDbLine
 10
251.111268
 20
84.234068
 30
0.0
 11
254.111268
 21
87.234068
 31
0.0
  0
LINE
  5
242
330
214
100
AcDbEntity
  8
LC-003-005-----0
 62
     7
370
    25
100
AcDbLine
 10
251.111268
 20
87.062495
 30
0.0
 11
254.111268
 21
90.062495
 31
0.0
  0
LINE
  5
243
330
214
100
AcDbEntity
  8
LC-003-005-----0
 62
     7
370
    25
100
AcDbLine
 10
251.111268
 20
89.890922
 30
0.0
 11
254.111268
 21
92.890922
 31
0.0
  0
LINE
  5
244
330
214
100
AcDbEntity
  8
LC-003-005-----0
 62
     7
370
    25
100
AcDbLine
 10
251.111268
 20
92.719349
 30
0.0
 11
254.111268
 21
95.719349
 31
0.0
  0
LINE
  5
245
330
214
100
AcDbEntity
  8
LC-003-005-----0
 62
     7
370
    25
100
AcDbLine
 10
251.111268
 20
95.547776
 30
0.0
 11
254.111268
 21
98.547776
 31
0.0
  0
LINE
  5
246
330
214
100
AcDbEntity
  8
LC-003-005-----0
 62
     7
370
    25
100
AcDbLine
 10
251.111268
 20
98.376203
 30
0.0
 11
254.111268
 21
101.376203
 31
0.0
  0
LINE
  5
247
330
214
100
AcDbEntity
  8
LC-003-005-----0
 62
     7
370
    25
100
AcDbLine
 10
251.111268
 20
101.204631
 30
0.0
 11
254.111268
 21
104.204631
 31
0.0
  0
LINE
  5
248
330
214
100
AcDbEntity
  8
LC-003-005-----0
 62
     7
370
    25
100
AcDbLine
 10
251.111268
 20
104.033058
 30
0.0
 11
254.111268
 21
107.033058
 31
0.0
  0
LINE
  5
249
330
214
100
AcDbEntity
  8
LC-003-005-----0
 62
     7
370
    25
100
AcDbLine
 10
251.111268
 20
106.861485
 30
0.0
 11
254.111268
 21
109.861485
 31
0.0
  0
LINE
  5
24A
330
214
100
AcDbEntity
  8
LC-003-005-----0
 62
     7
370
    25
100
AcDbLine
 10
251.111268
 20
109.689912
 30
0.0
 11
254.111268
 21
112.689912
 31
0.0
  0
LINE
  5
24B
330
214
100
AcDbEntity
  8
LC-003-005-----0
 62
     7
370
    25
100
AcDbLine
 10
251.111268
 20
112.518339
 30
0.0
 11
254.111268
 21
115.518339
 31
0.0
  0
LINE
  5
24C
330
214
100
AcDbEntity
  8
LC-003-005-----0
 62
     7
370
    25
100
AcDbLine
 10
251.111268
 20
115.346766
 30
0.0
 11
254.111268
 21
118.346766
 31
0.0
  0
LINE
  5
24D
330
214
100
AcDbEntity
  8
LC-003-005-----0
 62
     7
370
    25
100
AcDbLine
 10
251.111268
 20
118.175193
 30
0.0
 11
254.111268
 21
121.175193
 31
0.0
  0
LINE
  5
24E
330
214
100
AcDbEntity
  8
LC-003-005-----0
 62
     7
370
    25
100
AcDbLine
 10
251.111268
 20
121.00362
 30
0.0
 11
254.111268
 21
124.00362
 31
0.0
  0
LINE
  5
24F
330
214
100
AcDbEntity
  8
LC-003-005-----0
 62
     7
370
    25
100
AcDbLine
 10
251.111268
 20
123.832048
 30
0.0
 11
254.111268
 21
126.832048
 31
0.0
  0
LINE
  5
250
330
214
100
AcDbEntity
  8
LC-003-005-----0
 62
     7
370
    25
100
AcDbLine
 10
251.111268
 20
126.660475
 30
0.0
 11
254.111268
 21
129.660475
 31
0.0
  0
LINE
  5
251
330
214
100
AcDbEntity
  8
LC-003-005-----0
 62
     7
370
    25
100
AcDbLine
 10
251.111268
 20
129.488902
 30
0.0
 11
254.111268
 21
132.488902
 31
0.0
  0
LINE
  5
252
330
214
100
AcDbEntity
  8
LC-003-005-----0
 62
     7
370
    25
100
AcDbLine
 10
251.111268
 20
132.317329
 30
0.0
 11
254.111268
 21
135.317329
 31
0.0
  0
LINE
  5
253
330
214
100
AcDbEntity
  8
LC-003-005-----0
 62
     7
370
    25
100
AcDbLine
 10
251.111268
 20
135.145756
 30
0.0
 11
254.111268
 21
138.145756
 31
0.0
  0
LINE
  5
254
330
214
100
AcDbEntity
  8
LC-003-005-----0
 62
     7
370
    25
100
AcDbLine
 10
251.111268
 20
137.974183
 30
0.0
 11
254.111268
 21
140.974183
 31
0.0
  0
LINE
  5
255
330
214
100
AcDbEntity
  8
LC-003-005-----0
 62
     7
370
    25
100
AcDbLine
 10
251.111268
 20
140.80261
 30
0.0
 11
254.111268
 21
143.80261
 31
0.0
  0
LINE
  5
256
330
214
100
AcDbEntity
  8
LC-003-005-----0
 62
     7
370
    25
100
AcDbLine
 10
251.111268
 20
143.631037
 30
0.0
 11
254.111268
 21
146.631037
 31
0.0
  0
LINE
  5
257
330
214
100
AcDbEntity
  8
LC-003-005-----0
 62
     7
370
    25
100
AcDbLine
 10
251.111268
 20
146.459465
 30
0.0
 11
254.111268
 21
149.459465
 31
0.0
  0
LINE
  5
258
330
214
100
AcDbEntity
  8
LC-003-005-----0
 62
     7
370
    25
100
AcDbLine
 10
251.111268
 20
149.287892
 30
0.0
 11
254.111268
 21
152.287892
 31
0.0
  0
LINE
  5
259
330
214
100
AcDbEntity
  8
LC-003-005-----0
 62
     7
370
    25
100
AcDbLine
 10
251.111268
 20
152.116319
 30
0.0
 11
254.111268
 21
155.116319
 31
0.0
  0
LINE
  5
25A
330
214
100
AcDbEntity
  8
LC-003-005-----0
 62
     7
370
    25
100
AcDbLine
 10
251.111268
 20
154.944746
 30
0.0
 11
254.111268
 21
157.944746
 31
0.0
  0
LINE
  5
25B
330
214
100
AcDbEntity
  8
LC-003-005-----0
 62
     7
370
    25
100
AcDbLine
 10
251.111268
 20
157.773173
 30
0.0
 11
254.111268
 21
160.773173
 31
0.0
  0
LINE
  5
25C
330
214
100
AcDbEntity
  8
LC-003-005-----0
 62
     7
370
    25
100
AcDbLine
 10
251.111268
 20
160.6016
 30
0.0
 11
254.111268
 21
163.6016
 31
0.0
  0
LINE
  5
25D
330
214
100
AcDbEntity
  8
LC-003-005-----0
 62
     7
370
    25
100
AcDbLine
 10
251.111268
 20
163.430027
 30
0.0
 11
254.111268
 21
166.430027
 31
0.0
  0
LINE
  5
25E
330
214
100
AcDbEntity
  8
LC-003-005-----0
 62
     7
370
    25
100
AcDbLine
 10
251.111268
 20
166.258454
 30
0.0
 11
254.111268
 21
169.258454
 31
0.0
  0
LINE
  5
25F
330
214
100
AcDbEntity
  8
LC-003-005-----0
 62
     7
370
    25
100
AcDbLine
 10
251.111268
 20
169.086882
 30
0.0
 11
254.111268
 21
172.086882
 31
0.0
  0
LINE
  5
260
330
214
100
AcDbEntity
  8
LC-003-005-----0
 62
     7
370
    25
100
AcDbLine
 10
251.111268
 20
171.915309
 30
0.0
 11
254.111268
 21
174.915309
 31
0.0
  0
LINE
  5
261
330
214
100
AcDbEntity
  8
LC-003-005-----0
 62
     7
370
    25
100
AcDbLine
 10
251.111268
 20
174.743736
 30
0.0
 11
254.111268
 21
177.743736
 31
0.0
  0
LINE
  5
262
330
214
100
AcDbEntity
  8
LC-003-005-----0
 62
     7
370
    25
100
AcDbLine
 10
251.111268
 20
177.572163
 30
0.0
 11
254.111268
 21
180.572163
 31
0.0
  0
LINE
  5
263
330
214
100
AcDbEntity
  8
LC-003-005-----0
 62
     7
370
    25
100
AcDbLine
 10
251.111268
 20
180.40059
 30
0.0
 11
254.111268
 21
183.40059
 31
0.0
  0
LINE
  5
264
330
214
100
AcDbEntity
  8
LC-003-005-----0
 62
     7
370
    25
100
AcDbLine
 10
251.111268
 20
183.229017
 30
0.0
 11
254.111268
 21
186.229017
 31
0.0
  0
LINE
  5
265
330
214
100
AcDbEntity
  8
LC-003-005-----0
 62
     7
370
    25
100
AcDbLine
 10
251.111268
 20
186.057444
 30
0.0
 11
254.111268
 21
189.057444
 31
0.0
  0
LINE
  5
266
330
214
100
AcDbEntity
  8
LC-003-005-----0
 62
     7
370
    25
100
AcDbLine
 10
251.111268
 20
188.885871
 30
0.0
 11
254.111268
 21
191.885871
 31
0.0
  0
LINE
  5
267
330
214
100
AcDbEntity
  8
LC-003-005-----0
 62
     7
370
    25
100
AcDbLine
 10
251.111268
 20
191.714299
 30
0.0
 11
254.111268
 21
194.714299
 31
0.0
  0
LINE
  5
268
330
214
100
AcDbEntity
  8
LC-003-005-----0
 62
     7
370
    25
100
AcDbLine
 10
251.111268
 20
194.542726
 30
0.0
 11
254.111268
 21
197.542726
 31
0.0
  0
LINE
  5
269
330
214
100
AcDbEntity
  8
LC-003-005-----0
 62
     7
370
    25
100
AcDbLine
 10
251.111268
 20
197.371153
 30
0.0
 11
254.111268
 21
200.371153
 31
0.0
  0
LINE
  5
26A
330
214
100
AcDbEntity
  8
LC-003-005-----0
 62
     7
370
    25
100
AcDbLine
 10
251.111268
 20
200.19958
 30
0.0
 11
254.111268
 21
203.19958
 31
0.0
  0
LINE
  5
26B
330
214
100
AcDbEntity
  8
LC-003-005-----0
 62
     7
370
    25
100
AcDbLine
 10
251.111268
 20
203.028007
 30
0.0
 11
254.111268
 21
206.028007
 31
0.0
  0
LINE
  5
26C
330
214
100
AcDbEntity
  8
LC-003-005-----0
 62
     7
370
    25
100
AcDbLine
 10
251.111268
 20
205.856434
 30
0.0
 11
254.111268
 21
208.856434
 31
0.0
  0
LINE
  5
26D
330
214
100
AcDbEntity
  8
LC-003-005-----0
 62
     7
370
    25
100
AcDbLine
 10
251.111268
 20
208.684861
 30
0.0
 11
254.111268
 21
211.684861
 31
0.0
  0
LINE
  5
26E
330
214
100
AcDbEntity
  8
LC-003-005-----0
 62
     7
370
    25
100
AcDbLine
 10
251.111268
 20
211.513288
 30
0.0
 11
254.111268
 21
214.513288
 31
0.0
  0
LINE
  5
26F
330
214
100
AcDbEntity
  8
LC-003-005-----0
 62
     7
370
    25
100
AcDbLine
 10
251.111268
 20
214.341716
 30
0.0
 11
254.111268
 21
217.341716
 31
0.0
  0
LINE
  5
270
330
214
100
AcDbEntity
  8
LC-003-005-----0
 62
     7
370
    25
100
AcDbLine
 10
251.111268
 20
217.170143
 30
0.0
 11
254.111268
 21
220.170143
 31
0.0
  0
LINE
  5
271
330
214
100
AcDbEntity
  8
LC-003-005-----0
 62
     7
370
    25
100
AcDbLine
 10
251.111268
 20
219.99857
 30
0.0
 11
254.111268
 21
222.99857
 31
0.0
  0
LINE
  5
272
330
214
100
AcDbEntity
  8
LC-003-005-----0
 62
     7
370
    25
100
AcDbLine
 10
251.111268
 20
222.826997
 30
0.0
 11
254.111268
 21
225.826997
 31
0.0
  0
LINE
  5
273
330
214
100
AcDbEntity
  8
LC-003-005-----0
 62
     7
370
    25
100
AcDbLine
 10
251.111268
 20
225.655424
 30
0.0
 11
254.111268
 21
228.655424
 31
0.0
  0
LINE
  5
274
330
214
100
AcDbEntity
  8
LC-003-005-----0
 62
     7
370
    25
100
AcDbLine
 10
251.111268
 20
228.483851
 30
0.0
 11
254.111268
 21
231.483851
 31
0.0
  0
LINE
  5
275
330
214
100
AcDbEntity
  8
LC-003-005-----0
 62
     7
370
    25
100
AcDbLine
 10
251.111268
 20
231.312278
 30
0.0
 11
254.111268
 21
234.312278
 31
0.0
  0
LINE
  5
276
330
214
100
AcDbEntity
  8
LC-003-005-----0
 62
     7
370
    25
100
AcDbLine
 10
251.111268
 20
234.140705
 30
0.0
 11
254.111268
 21
237.140705
 31
0.0
  0
LINE
  5
277
330
214
100
AcDbEntity
  8
LC-003-005-----0
 62
     7
370
    25
100
AcDbLine
 10
251.111268
 20
236.969133
 30
0.0
 11
254.111268
 21
239.969133
 31
0.0
  0
LINE
  5
278
330
214
100
AcDbEntity
  8
LC-003-005-----0
 62
     7
370
    25
100
AcDbLine
 10
251.111268
 20
239.79756
 30
0.0
 11
254.111268
 21
242.79756
 31
0.0
  0
LINE
  5
279
330
214
100
AcDbEntity
  8
LC-003-005-----0
 62
     7
370
    25
100
AcDbLine
 10
251.111268
 20
242.625987
 30
0.0
 11
254.111268
 21
245.625987
 31
0.0
  0
LINE
  5
27A
330
214
100
AcDbEntity
  8
LC-003-005-----0
 62
     7
370
    25
100
AcDbLine
 10
251.111268
 20
245.454414
 30
0.0
 11
254.111268
 21
248.454414
 31
0.0
  0
LINE
  5
27B
330
214
100
AcDbEntity
  8
LC-003-005-----0
 62
     7
370
    25
100
AcDbLine
 10
251.111268
 20
248.282841
 30
0.0
 11
254.111268
 21
251.282841
 31
0.0
  0
LINE
  5
27C
330
214
100
AcDbEntity
  8
LC-003-005-----0
 62
     7
370
    25
100
AcDbLine
 10
251.111268
 20
251.111268
 30
0.0
 11
254.111268
 21
254.111268
 31
0.0
  0
LINE
  5
27D
330
214
100
AcDbEntity
  8
LC-003-005-----0
 62
     7
370
    25
100
AcDbLine
 10
251.111268
 20
253.939695
 30
0.0
 11
254.111268
 21
256.939695
 31
0.0
  0
LINE
  5
27E
330
214
100
AcDbEntity
  8
LC-003-005-----0
 62
     7
370
    25
100
AcDbLine
 10
251.111268
 20
256.768122
 30
0.0
 11
254.111268
 21
259.768122
 31
0.0
  0
LINE
  5
27F
330
214
100
AcDbEntity
  8
LC-003-005-----0
 62
     7
370
    25
100
AcDbLine
 10
251.111268
 20
259.59655
 30
0.0
 11
254.111268
 21
262.59655
 31
0.0
  0
LINE
  5
280
330
214
100
AcDbEntity
  8
LC-003-005-----0
 62
     7
370
    25
100
AcDbLine
 10
251.111268
 20
262.424977
 30
0.0
 11
254.111268
 21
265.424977
 31
0.0
  0
LINE
  5
281
330
214
100
AcDbEntity
  8
LC-003-005-----0
 62
     7
370
    25
100
AcDbLine
 10
251.111268
 20
265.253404
 30
0.0
 11
254.111268
 21
268.253404
 31
0.0
  0
LINE
  5
282
330
214
100
AcDbEntity
  8
LC-003-005-----0
 62
     7
370
    25
100
AcDbLine
 10
251.111268
 20
268.081831
 30
0.0
 11
254.111268
 21
271.081831
 31
0.0
  0
LINE
  5
283
330
214
100
AcDbEntity
  8
LC-003-005-----0
 62
     7
370
    25
100
AcDbLine
 10
251.111268
 20
270.910258
 30
0.0
 11
254.111268
 21
273.910258
 31
0.0
  0
LINE
  5
284
330
214
100
AcDbEntity
  8
LC-003-005-----0
 62
     7
370
    25
100
AcDbLine
 10
251.111268
 20
273.738685
 30
0.0
 11
254.111268
 21
276.738685
 31
0.0
  0
LINE
  5
285
330
214
100
AcDbEntity
  8
LC-003-005-----0
 62
     7
370
    25
100
AcDbLine
 10
251.111268
 20
276.567112
 30
0.0
 11
254.111268
 21
279.567112
 31
0.0
  0
LINE
  5
286
330
214
100
AcDbEntity
  8
LC-003-005-----0
 62
     7
370
    25
100
AcDbLine
 10
251.111268
 20
279.395539
 30
0.0
 11
254.111268
 21
282.395539
 31
0.0
  0
LINE
  5
287
330
214
100
AcDbEntity
  8
LC-003-005-----0
 62
     7
370
    25
100
AcDbLine
 10
251.111268
 20
282.223967
 30
0.0
 11
254.111268
 21
285.223967
 31
0.0
  0
LINE
  5
288
330
214
100
AcDbEntity
  8
LC-003-005-----0
 62
     7
370
    25
100
AcDbLine
 10
251.111268
 20
285.052394
 30
0.0
 11
254.111268
 21
288.052394
 31
0.0
  0
LINE
  5
289
330
214
100
AcDbEntity
  8
LC-003-005-----0
 62
     7
370
    25
100
AcDbLine
 10
251.111268
 20
287.880821
 30
0.0
 11
254.111268
 21
290.880821
 31
0.0
  0
LINE
  5
28A
330
214
100
AcDbEntity
  8
LC-003-005-----0
 62
     7
370
    25
100
AcDbLine
 10
251.111268
 20
290.709248
 30
0.0
 11
254.111268
 21
293.709248
 31
0.0
  0
LINE
  5
28B
330
214
100
AcDbEntity
  8
LC-003-005-----0
 62
     7
370
    25
100
AcDbLine
 10
251.111268
 20
293.537675
 30
0.0
 11
254.111268
 21
296.537675
 31
0.0
  0
LINE
  5
28C
330
214
100
AcDbEntity
  8
LC-003-005-----0
 62
     7
370
    25
100
AcDbLine
 10
251.111268
 20
296.366102
 30
0.0
 11
254.111268
 21
299.366102
 31
0.0
  0
LINE
  5
28D
330
214
100
AcDbEntity
  8
LC-003-005-----0
 62
     7
370
    25
100
AcDbLine
 10
251.111268
 20
299.194529
 30
0.0
 11
254.111268
 21
302.194529
 31
0.0
  0
LINE
  5
28E
330
214
100
AcDbEntity
  8
LC-003-005-----0
 62
     7
370
    25
100
AcDbLine
 10
251.111268
 20
302.022956
 30
0.0
 11
254.111268
 21
305.022956
 31
0.0
  0
LINE
  5
28F
330
214
100
AcDbEntity
  8
LC-003-005-----0
 62
     7
370
    25
100
AcDbLine
 10
251.111268
 20
304.851383
 30
0.0
 11
254.111268
 21
307.851383
 31
0.0
  0
LINE
  5
290
330
214
100
AcDbEntity
  8
LC-003-005-----0
 62
     7
370
    25
100
AcDbLine
 10
251.111268
 20
307.679811
 30
0.0
 11
254.111268
 21
310.679811
 31
0.0
  0
LINE
  5
291
330
214
100
AcDbEntity
  8
LC-003-005-----0
 62
     7
370
    25
100
AcDbLine
 10
251.111268
 20
310.508238
 30
0.0
 11
254.111268
 21
313.508238
 31
0.0
  0
LINE
  5
292
330
214
100
AcDbEntity
  8
LC-003-005-----0
 62
     7
370
    25
100
AcDbLine
 10
251.111268
 20
313.336665
 30
0.0
 11
254.111268
 21
316.336665
 31
0.0
  0
LINE
  5
293
330
214
100
AcDbEntity
  8
LC-003-005-----0
 62
     7
370
    25
100
AcDbLine
 10
251.111268
 20
316.165092
 30
0.0
 11
254.111268
 21
319.165092
 31
0.0
  0
LINE
  5
294
330
214
100
AcDbEntity
  8
LC-003-005-----0
 62
     7
370
    25
100
AcDbLine
 10
251.111268
 20
318.993519
 30
0.0
 11
254.111268
 21
321.993519
 31
0.0
  0
LINE
  5
295
330
214
100
AcDbEntity
  8
LC-003-005-----0
 62
     7
370
    25
100
AcDbLine
 10
251.111268
 20
321.821946
 30
0.0
 11
254.111268
 21
324.821946
 31
0.0
  0
LINE
  5
296
330
214
100
AcDbEntity
  8
LC-003-005-----0
 62
     7
370
    25
100
AcDbLine
 10
251.111268
 20
324.650373
 30
0.0
 11
254.111268
 21
327.650373
 31
0.0
  0
LINE
  5
297
330
214
100
AcDbEntity
  8
LC-003-005-----0
 62
     7
370
    25
100
AcDbLine
 10
250.278122
 20
326.645654
 30
0.0
 11
253.278122
 21
329.645654
 31
0.0
  0
LINE
  5
298
330
214
100
AcDbEntity
  8
LC-003-005-----0
 62
     7
370
    25
100
AcDbLine
 10
247.449695
 20
326.645654
 30
0.0
 11
250.449695
 21
329.645654
 31
0.0
  0
LINE
  5
299
330
214
100
AcDbEntity
  8
LC-003-005-----0
 62
     7
370
    25
100
AcDbLine
 10
244.621268
 20
326.645654
 30
0.0
 11
247.621268
 21
329.645654
 31
0.0
  0
LINE
  5
29A
330
214
100
AcDbEntity
  8
LC-003-005-----0
 62
     7
370
    25
100
AcDbLine
 10
241.792841
 20
326.645654
 30
0.0
 11
244.792841
 21
329.645654
 31
0.0
  0
LINE
  5
29B
330
214
100
AcDbEntity
  8
LC-003-005-----0
 62
     7
370
    25
100
AcDbLine
 10
238.964413
 20
326.645654
 30
0.0
 11
241.964413
 21
329.645654
 31
0.0
  0
LINE
  5
29C
330
214
100
AcDbEntity
  8
LC-003-005-----0
 62
     7
370
    25
100
AcDbLine
 10
236.135986
 20
326.645654
 30
0.0
 11
239.135986
 21
329.645654
 31
0.0
  0
LINE
  5
29D
330
214
100
AcDbEntity
  8
LC-003-005-----0
 62
     7
370
    25
100
AcDbLine
 10
234.090363
 20
327.428458
 30
0.0
 11
236.307559
 21
329.645654
 31
0.0
  0
LINE
  5
29E
330
214
100
AcDbEntity
  8
LC-003-005-----0
 62
     7
370
    25
100
AcDbLine
 10
233.131475
 20
329.297998
 30
0.0
 11
236.111263
 21
332.277785
 31
0.0
  0
LINE
  5
29F
330
214
100
AcDbEntity
  8
LC-003-005-----0
 62
     7
370
    25
100
AcDbLine
 10
233.111263
 20
332.106212
 30
0.0
 11
236.111263
 21
335.106212
 31
0.0
  0
LINE
  5
2A0
330
214
100
AcDbEntity
  8
LC-003-005-----0
 62
     7
370
    25
100
AcDbLine
 10
233.111263
 20
334.93464
 30
0.0
 11
236.111263
 21
337.93464
 31
0.0
  0
LINE
  5
2A1
330
214
100
AcDbEntity
  8
LC-003-005-----0
 62
     7
370
    25
100
AcDbLine
 10
233.111263
 20
337.763067
 30
0.0
 11
236.111263
 21
340.763067
 31
0.0
  0
LINE
  5
2A2
330
214
100
AcDbEntity
  8
LC-003-005-----0
 62
     7
370
    25
100
AcDbLine
 10
233.111263
 20
340.591494
 30
0.0
 11
236.111263
 21
343.591494
 31
0.0
  0
LINE
  5
2A3
330
214
100
AcDbEntity
  8
LC-003-005-----0
 62
     7
370
    25
100
AcDbLine
 10
233.111263
 20
343.419921
 30
0.0
 11
236.111263
 21
346.419921
 31
0.0
  0
LINE
  5
2A4
330
214
100
AcDbEntity
  8
LC-003-005-----0
 62
     7
370
    25
100
AcDbLine
 10
233.111263
 20
346.248348
 30
0.0
 11
236.111263
 21
349.248348
 31
0.0
  0
LINE
  5
2A5
330
214
100
AcDbEntity
  8
LC-003-005-----0
 62
     7
370
    25
100
AcDbLine
 10
233.111263
 20
349.076775
 30
0.0
 11
236.111263
 21
352.076775
 31
0.0
  0
LINE
  5
2A6
330
214
100
AcDbEntity
  8
LC-003-005-----0
 62
     7
370
    25
100
AcDbLine
 10
233.111263
 20
351.905202
 30
0.0
 11
236.111263
 21
354.905202
 31
0.0
  0
LINE
  5
2A7
330
214
100
AcDbEntity
  8
LC-003-005-----0
 62
     7
370
    25
100
AcDbLine
 10
233.111263
 20
354.733629
 30
0.0
 11
236.111263
 21
357.733629
 31
0.0
  0
LINE
  5
2A8
330
214
100
AcDbEntity
  8
LC-003-005-----0
 62
     7
370
    25
100
AcDbLine
 10
233.111263
 20
357.562057
 30
0.0
 11
236.111263
 21
360.562057
 31
0.0
  0
LINE
  5
2A9
330
214
100
AcDbEntity
  8
LC-003-005-----0
 62
     7
370
    25
100
AcDbLine
 10
233.111263
 20
360.390484
 30
0.0
 11
236.064719
 21
363.34394
 31
0.0
  0
LINE
  5
2AA
330
214
100
AcDbEntity
  8
LC-003-005-----0
 62
     7
370
    25
100
AcDbLine
 10
232.83329
 20
362.940938
 30
0.0
 11
235.029443
 21
365.137091
 31
0.0
  0
LINE
  5
2AB
330
214
100
AcDbEntity
  8
LC-003-005-----0
 62
     7
370
    25
100
AcDbLine
 10
231.798014
 20
364.734089
 30
0.0
 11
233.994167
 21
366.930241
 31
0.0
  0
LINE
  5
2AC
330
214
100
AcDbEntity
  8
LC-003-005-----0
 62
     7
370
    25
100
AcDbLine
 10
230.762738
 20
366.52724
 30
0.0
 11
232.95889
 21
368.723392
 31
0.0
  0
LINE
  5
2AD
330
214
100
AcDbEntity
  8
LC-003-005-----0
 62
     7
370
    25
100
AcDbLine
 10
229.727462
 20
368.320391
 30
0.0
 11
231.923614
 21
370.516543
 31
0.0
  0
LINE
  5
2AE
330
214
100
AcDbEntity
  8
LC-003-005-----0
 62
     7
370
    25
100
AcDbLine
 10
228.692186
 20
370.113542
 30
0.0
 11
230.888338
 21
372.309694
 31
0.0
  0
LINE
  5
2AF
330
214
100
AcDbEntity
  8
LC-003-005-----0
 62
     7
370
    25
100
AcDbLine
 10
227.656909
 20
371.906693
 30
0.0
 11
229.853062
 21
374.102845
 31
0.0
  0
LINE
  5
2B0
330
214
100
AcDbEntity
  8
LC-003-005-----0
 62
     7
370
    25
100
AcDbLine
 10
226.621633
 20
373.699844
 30
0.0
 11
228.817786
 21
375.895996
 31
0.0
  0
LINE
  5
2B1
330
214
100
AcDbEntity
  8
LC-003-005-----0
 62
     7
370
    25
100
AcDbLine
 10
225.586357
 20
375.492995
 30
0.0
 11
227.78251
 21
377.689147
 31
0.0
  0
LINE
  5
2B2
330
214
100
AcDbEntity
  8
LC-003-005-----0
 62
     7
370
    25
100
AcDbLine
 10
224.551081
 20
377.286146
 30
0.0
 11
226.747233
 21
379.482298
 31
0.0
  0
LINE
  5
2B3
330
214
100
AcDbEntity
  8
LC-003-005-----0
 62
     7
370
    25
100
AcDbLine
 10
223.515805
 20
379.079297
 30
0.0
 11
225.711957
 21
381.275449
 31
0.0
  0
LINE
  5
2B4
330
214
100
AcDbEntity
  8
LC-003-005-----0
 62
     7
370
    25
100
AcDbLine
 10
222.254081
 20
380.646
 30
0.0
 11
224.676681
 21
383.0686
 31
0.0
  0
LINE
  5
2B5
330
214
100
AcDbEntity
  8
LC-003-005-----0
 62
     7
370
    25
100
AcDbLine
 10
219.425654
 20
380.646
 30
0.0
 11
222.425654
 21
383.646
 31
0.0
  0
LINE
  5
2B6
330
214
100
AcDbEntity
  8
LC-003-005-----0
 62
     7
370
    25
100
AcDbLine
 10
216.949937
 20
380.99871
 30
0.0
 11
219.597227
 21
383.646
 31
0.0
  0
LINE
  5
2B7
330
214
100
AcDbEntity
  8
LC-003-005-----0
 62
     7
370
    25
100
AcDbLine
 10
215.598816
 20
382.476017
 30
0.0
 11
218.361268
 21
385.238468
 31
0.0
  0
LINE
  5
2B8
330
214
100
AcDbEntity
  8
LC-003-005-----0
 62
     7
370
    25
100
AcDbLine
 10
215.361268
 20
385.066896
 30
0.0
 11
218.361268
 21
388.066896
 31
0.0
  0
LINE
  5
2B9
330
214
100
AcDbEntity
  8
LC-003-005-----0
 62
     7
370
    25
100
AcDbLine
 10
215.361268
 20
387.895323
 30
0.0
 11
218.361268
 21
390.895323
 31
0.0
  0
LINE
  5
2BA
330
214
100
AcDbEntity
  8
LC-003-005-----0
 62
     7
370
    25
100
AcDbLine
 10
215.361268
 20
390.72375
 30
0.0
 11
218.361268
 21
393.72375
 31
0.0
  0
LINE
  5
2BB
330
214
100
AcDbEntity
  8
LC-003-005-----0
 62
     7
370
    25
100
AcDbLine
 10
215.361268
 20
393.552177
 30
0.0
 11
218.361268
 21
396.552177
 31
0.0
  0
LINE
  5
2BC
330
214
100
AcDbEntity
  8
LC-003-005-----0
 62
     7
370
    25
100
AcDbLine
 10
215.243966
 20
396.263302
 30
0.0
 11
218.361268
 21
399.380604
 31
0.0
  0
LINE
  5
2BD
330
214
100
AcDbEntity
  8
LC-003-005-----0
 62
     7
370
    25
100
AcDbLine
 10
213.298237
 20
397.146
 30
0.0
 11
216.298237
 21
400.146
 31
0.0
  0
LINE
  5
2BE
330
214
100
AcDbEntity
  8
LC-003-005-----0
 62
     7
370
    25
100
AcDbLine
 10
210.611267
 20
397.287457
 30
0.0
 11
213.611267
 21
400.287457
 31
0.0
  0
LINE
  5
2BF
330
214
100
AcDbEntity
  8
LC-003-005-----0
 62
     7
370
    25
100
AcDbLine
 10
209.141607
 20
398.646224
 30
0.0
 11
213.611267
 21
403.115884
 31
0.0
  0
LINE
  5
2C0
330
214
100
AcDbEntity
  8
LC-003-005-----0
 62
     7
370
    25
100
AcDbLine
 10
206.313043
 20
398.646087
 30
0.0
 11
213.611267
 21
405.944312
 31
0.0
  0
LINE
  5
2C1
330
214
100
AcDbEntity
  8
LC-003-005-----0
 62
     7
370
    25
100
AcDbLine
 10
204.857658
 20
400.01913
 30
0.0
 11
213.611267
 21
408.772739
 31
0.0
  0
LINE
  5
2C2
330
214
100
AcDbEntity
  8
LC-003-005-----0
 62
     7
370
    25
100
AcDbLine
 10
204.857387
 20
402.847286
 30
0.0
 11
213.611267
 21
411.601166
 31
0.0
  0
LINE
  5
2C3
330
214
100
AcDbEntity
  8
LC-003-005-----0
 62
     7
370
    25
100
AcDbLine
 10
204.857117
 20
405.675443
 30
0.0
 11
213.611267
 21
414.429593
 31
0.0
  0
LINE
  5
2C4
330
214
100
AcDbEntity
  8
LC-003-005-----0
 62
     7
370
    25
100
AcDbLine
 10
204.856846
 20
408.503599
 30
0.0
 11
213.242672
 21
416.889425
 31
0.0
  0
LINE
  5
2C5
330
214
100
AcDbEntity
  8
LC-003-005-----0
 62
     7
370
    25
100
AcDbLine
 10
204.856576
 20
411.331756
 30
0.0
 11
210.41397
 21
416.88915
 31
0.0
  0
LINE
  5
2C6
330
214
100
AcDbEntity
  8
LC-003-005-----0
 62
     7
370
    25
100
AcDbLine
 10
204.856305
 20
414.159912
 30
0.0
 11
207.585268
 21
416.888876
 31
0.0
  0
ENDBLK
  5
216
330
214
100
AcDbEntity
  8
0
100
AcDbBlockEnd
  0
BLOCK
  5
2C9
330
2C8
100
AcDbEntity
  8
0
100
AcDbBlockBegin
  2
*X1414
 70
     1
 71
     0
 10
0.0
 20
0.0
 30
0.0
  3
*X1414
  1

  4
*X14
  0
LINE
  5
2CB
330
2C8
100
AcDbEntity
  8
LC-003-005-----0
 62
     7
370
    25
100
AcDbLine
 10
338.99838
 20
-34.354
 30
0.0
 11
340.237524
 21
-33.114856
 31
0.0
  0
LINE
  5
2CC
330
2C8
100
AcDbEntity
  8
LC-003-005-----0
 62
     7
370
    25
100
AcDbLine
 10
338.111268
 20
-32.412685
 30
0.0
 11
341.111268
 21
-29.412685
 31
0.0
  0
LINE
  5
2CD
330
2C8
100
AcDbEntity
  8
LC-003-005-----0
 62
     7
370
    25
100
AcDbLine
 10
338.111268
 20
-29.584258
 30
0.0
 11
341.111268
 21
-26.584258
 31
0.0
  0
LINE
  5
2CE
330
2C8
100
AcDbEntity
  8
LC-003-005-----0
 62
     7
370
    25
100
AcDbLine
 10
338.111268
 20
-26.755831
 30
0.0
 11
341.111268
 21
-23.755831
 31
0.0
  0
LINE
  5
2CF
330
2C8
100
AcDbEntity
  8
LC-003-005-----0
 62
     7
370
    25
100
AcDbLine
 10
338.111268
 20
-23.927404
 30
0.0
 11
341.111268
 21
-20.927404
 31
0.0
  0
LINE
  5
2D0
330
2C8
100
AcDbEntity
  8
LC-003-005-----0
 62
     7
370
    25
100
AcDbLine
 10
338.111268
 20
-21.098977
 30
0.0
 11
341.111268
 21
-18.098977
 31
0.0
  0
LINE
  5
2D1
330
2C8
100
AcDbEntity
  8
LC-003-005-----0
 62
     7
370
    25
100
AcDbLine
 10
338.111268
 20
-18.27055
 30
0.0
 11
341.111268
 21
-15.27055
 31
0.0
  0
LINE
  5
2D2
330
2C8
100
AcDbEntity
  8
LC-003-005-----0
 62
     7
370
    25
100
AcDbLine
 10
338.111268
 20
-15.442122
 30
0.0
 11
341.111268
 21
-12.442122
 31
0.0
  0
LINE
  5
2D3
330
2C8
100
AcDbEntity
  8
LC-003-005-----0
 62
     7
370
    25
100
AcDbLine
 10
338.111268
 20
-12.613695
 30
0.0
 11
341.111268
 21
-9.613695
 31
0.0
  0
LINE
  5
2D4
330
2C8
100
AcDbEntity
  8
LC-003-005-----0
 62
     7
370
    25
100
AcDbLine
 10
338.111268
 20
-9.785268
 30
0.0
 11
341.111268
 21
-6.785268
 31
0.0
  0
LINE
  5
2D5
330
2C8
100
AcDbEntity
  8
LC-003-005-----0
 62
     7
370
    25
100
AcDbLine
 10
338.111268
 20
-6.956841
 30
0.0
 11
341.111268
 21
-3.956841
 31
0.0
  0
LINE
  5
2D6
330
2C8
100
AcDbEntity
  8
LC-003-005-----0
 62
     7
370
    25
100
AcDbLine
 10
338.111268
 20
-4.128414
 30
0.0
 11
341.111268
 21
-1.128414
 31
0.0
  0
LINE
  5
2D7
330
2C8
100
AcDbEntity
  8
LC-003-005-----0
 62
     7
370
    25
100
AcDbLine
 10
338.111268
 20
-1.299987
 30
0.0
 11
341.111268
 21
1.700013
 31
0.0
  0
LINE
  5
2D8
330
2C8
100
AcDbEntity
  8
LC-003-005-----0
 62
     7
370
    25
100
AcDbLine
 10
338.111268
 20
1.52844
 30
0.0
 11
341.111268
 21
4.52844
 31
0.0
  0
LINE
  5
2D9
330
2C8
100
AcDbEntity
  8
LC-003-005-----0
 62
     7
370
    25
100
AcDbLine
 10
338.111268
 20
4.356867
 30
0.0
 11
341.111268
 21
7.356867
 31
0.0
  0
LINE
  5
2DA
330
2C8
100
AcDbEntity
  8
LC-003-005-----0
 62
     7
370
    25
100
AcDbLine
 10
338.111268
 20
7.185295
 30
0.0
 11
341.111268
 21
10.185295
 31
0.0
  0
LINE
  5
2DB
330
2C8
100
AcDbEntity
  8
LC-003-005-----0
 62
     7
370
    25
100
AcDbLine
 10
338.111268
 20
10.013722
 30
0.0
 11
341.111268
 21
13.013722
 31
0.0
  0
LINE
  5
2DC
330
2C8
100
AcDbEntity
  8
LC-003-005-----0
 62
     7
370
    25
100
AcDbLine
 10
338.111268
 20
12.842149
 30
0.0
 11
341.111268
 21
15.842149
 31
0.0
  0
LINE
  5
2DD
330
2C8
100
AcDbEntity
  8
LC-003-005-----0
 62
     7
370
    25
100
AcDbLine
 10
338.111268
 20
15.670576
 30
0.0
 11
341.111268
 21
18.670576
 31
0.0
  0
LINE
  5
2DE
330
2C8
100
AcDbEntity
  8
LC-003-005-----0
 62
     7
370
    25
100
AcDbLine
 10
338.111268
 20
18.499003
 30
0.0
 11
341.111268
 21
21.499003
 31
0.0
  0
LINE
  5
2DF
330
2C8
100
AcDbEntity
  8
LC-003-005-----0
 62
     7
370
    25
100
AcDbLine
 10
338.111268
 20
21.32743
 30
0.0
 11
341.111268
 21
24.32743
 31
0.0
  0
LINE
  5
2E0
330
2C8
100
AcDbEntity
  8
LC-003-005-----0
 62
     7
370
    25
100
AcDbLine
 10
338.111268
 20
24.155857
 30
0.0
 11
341.111268
 21
27.155857
 31
0.0
  0
LINE
  5
2E1
330
2C8
100
AcDbEntity
  8
LC-003-005-----0
 62
     7
370
    25
100
AcDbLine
 10
338.111268
 20
26.984284
 30
0.0
 11
341.111268
 21
29.984284
 31
0.0
  0
LINE
  5
2E2
330
2C8
100
AcDbEntity
  8
LC-003-005-----0
 62
     7
370
    25
100
AcDbLine
 10
338.111268
 20
29.812712
 30
0.0
 11
341.111268
 21
32.812712
 31
0.0
  0
LINE
  5
2E3
330
2C8
100
AcDbEntity
  8
LC-003-005-----0
 62
     7
370
    25
100
AcDbLine
 10
338.111268
 20
32.641139
 30
0.0
 11
341.111268
 21
35.641139
 31
0.0
  0
LINE
  5
2E4
330
2C8
100
AcDbEntity
  8
LC-003-005-----0
 62
     7
370
    25
100
AcDbLine
 10
338.111268
 20
35.469566
 30
0.0
 11
341.111268
 21
38.469566
 31
0.0
  0
LINE
  5
2E5
330
2C8
100
AcDbEntity
  8
LC-003-005-----0
 62
     7
370
    25
100
AcDbLine
 10
338.111268
 20
38.297993
 30
0.0
 11
341.111268
 21
41.297993
 31
0.0
  0
LINE
  5
2E6
330
2C8
100
AcDbEntity
  8
LC-003-005-----0
 62
     7
370
    25
100
AcDbLine
 10
338.111268
 20
41.12642
 30
0.0
 11
341.111268
 21
44.12642
 31
0.0
  0
LINE
  5
2E7
330
2C8
100
AcDbEntity
  8
LC-003-005-----0
 62
     7
370
    25
100
AcDbLine
 10
338.111268
 20
43.954847
 30
0.0
 11
341.111268
 21
46.954847
 31
0.0
  0
LINE
  5
2E8
330
2C8
100
AcDbEntity
  8
LC-003-005-----0
 62
     7
370
    25
100
AcDbLine
 10
338.111268
 20
46.783274
 30
0.0
 11
341.111268
 21
49.783274
 31
0.0
  0
LINE
  5
2E9
330
2C8
100
AcDbEntity
  8
LC-003-005-----0
 62
     7
370
    25
100
AcDbLine
 10
338.111268
 20
49.611701
 30
0.0
 11
341.111268
 21
52.611701
 31
0.0
  0
LINE
  5
2EA
330
2C8
100
AcDbEntity
  8
LC-003-005-----0
 62
     7
370
    25
100
AcDbLine
 10
338.111268
 20
52.440129
 30
0.0
 11
341.111268
 21
55.440129
 31
0.0
  0
LINE
  5
2EB
330
2C8
100
AcDbEntity
  8
LC-003-005-----0
 62
     7
370
    25
100
AcDbLine
 10
338.111268
 20
55.268556
 30
0.0
 11
341.111268
 21
58.268556
 31
0.0
  0
LINE
  5
2EC
330
2C8
100
AcDbEntity
  8
LC-003-005-----0
 62
     7
370
    25
100
AcDbLine
 10
338.111268
 20
58.096983
 30
0.0
 11
341.111268
 21
61.096983
 31
0.0
  0
LINE
  5
2ED
330
2C8
100
AcDbEntity
  8
LC-003-005-----0
 62
     7
370
    25
100
AcDbLine
 10
338.111268
 20
60.92541
 30
0.0
 11
341.111268
 21
63.92541
 31
0.0
  0
LINE
  5
2EE
330
2C8
100
AcDbEntity
  8
LC-003-005-----0
 62
     7
370
    25
100
AcDbLine
 10
338.111268
 20
63.753837
 30
0.0
 11
341.111268
 21
66.753837
 31
0.0
  0
LINE
  5
2EF
330
2C8
100
AcDbEntity
  8
LC-003-005-----0
 62
     7
370
    25
100
AcDbLine
 10
338.111268
 20
66.582264
 30
0.0
 11
341.111268
 21
69.582264
 31
0.0
  0
LINE
  5
2F0
330
2C8
100
AcDbEntity
  8
LC-003-005-----0
 62
     7
370
    25
100
AcDbLine
 10
338.111268
 20
69.410691
 30
0.0
 11
341.111268
 21
72.410691
 31
0.0
  0
LINE
  5
2F1
330
2C8
100
AcDbEntity
  8
LC-003-005-----0
 62
     7
370
    25
100
AcDbLine
 10
338.111268
 20
72.239118
 30
0.0
 11
341.111268
 21
75.239118
 31
0.0
  0
LINE
  5
2F2
330
2C8
100
AcDbEntity
  8
LC-003-005-----0
 62
     7
370
    25
100
AcDbLine
 10
338.111268
 20
75.067546
 30
0.0
 11
341.111268
 21
78.067546
 31
0.0
  0
LINE
  5
2F3
330
2C8
100
AcDbEntity
  8
LC-003-005-----0
 62
     7
370
    25
100
AcDbLine
 10
338.111268
 20
77.895973
 30
0.0
 11
341.111268
 21
80.895973
 31
0.0
  0
LINE
  5
2F4
330
2C8
100
AcDbEntity
  8
LC-003-005-----0
 62
     7
370
    25
100
AcDbLine
 10
338.111268
 20
80.7244
 30
0.0
 11
341.111268
 21
83.7244
 31
0.0
  0
LINE
  5
2F5
330
2C8
100
AcDbEntity
  8
LC-003-005-----0
 62
     7
370
    25
100
AcDbLine
 10
338.111268
 20
83.552827
 30
0.0
 11
341.111268
 21
86.552827
 31
0.0
  0
LINE
  5
2F6
330
2C8
100
AcDbEntity
  8
LC-003-005-----0
 62
     7
370
    25
100
AcDbLine
 10
338.111268
 20
86.381254
 30
0.0
 11
341.111268
 21
89.381254
 31
0.0
  0
LINE
  5
2F7
330
2C8
100
AcDbEntity
  8
LC-003-005-----0
 62
     7
370
    25
100
AcDbLine
 10
338.111268
 20
89.209681
 30
0.0
 11
341.111268
 21
92.209681
 31
0.0
  0
LINE
  5
2F8
330
2C8
100
AcDbEntity
  8
LC-003-005-----0
 62
     7
370
    25
100
AcDbLine
 10
338.111268
 20
92.038108
 30
0.0
 11
341.111268
 21
95.038108
 31
0.0
  0
LINE
  5
2F9
330
2C8
100
AcDbEntity
  8
LC-003-005-----0
 62
     7
370
    25
100
AcDbLine
 10
338.111268
 20
94.866535
 30
0.0
 11
341.111268
 21
97.866535
 31
0.0
  0
LINE
  5
2FA
330
2C8
100
AcDbEntity
  8
LC-003-005-----0
 62
     7
370
    25
100
AcDbLine
 10
338.111268
 20
97.694963
 30
0.0
 11
341.111268
 21
100.694963
 31
0.0
  0
LINE
  5
2FB
330
2C8
100
AcDbEntity
  8
LC-003-005-----0
 62
     7
370
    25
100
AcDbLine
 10
338.111268
 20
100.52339
 30
0.0
 11
341.111268
 21
103.52339
 31
0.0
  0
LINE
  5
2FC
330
2C8
100
AcDbEntity
  8
LC-003-005-----0
 62
     7
370
    25
100
AcDbLine
 10
338.111268
 20
103.351817
 30
0.0
 11
341.111268
 21
106.351817
 31
0.0
  0
LINE
  5
2FD
330
2C8
100
AcDbEntity
  8
LC-003-005-----0
 62
     7
370
    25
100
AcDbLine
 10
338.111268
 20
106.180244
 30
0.0
 11
341.111268
 21
109.180244
 31
0.0
  0
LINE
  5
2FE
330
2C8
100
AcDbEntity
  8
LC-003-005-----0
 62
     7
370
    25
100
AcDbLine
 10
338.111268
 20
109.008671
 30
0.0
 11
341.111268
 21
112.008671
 31
0.0
  0
LINE
  5
2FF
330
2C8
100
AcDbEntity
  8
LC-003-005-----0
 62
     7
370
    25
100
AcDbLine
 10
338.111268
 20
111.837098
 30
0.0
 11
341.111268
 21
114.837098
 31
0.0
  0
LINE
  5
300
330
2C8
100
AcDbEntity
  8
LC-003-005-----0
 62
     7
370
    25
100
AcDbLine
 10
338.111268
 20
114.665525
 30
0.0
 11
341.111268
 21
117.665525
 31
0.0
  0
LINE
  5
301
330
2C8
100
AcDbEntity
  8
LC-003-005-----0
 62
     7
370
    25
100
AcDbLine
 10
338.111268
 20
117.493952
 30
0.0
 11
341.111268
 21
120.493952
 31
0.0
  0
LINE
  5
302
330
2C8
100
AcDbEntity
  8
LC-003-005-----0
 62
     7
370
    25
100
AcDbLine
 10
338.111268
 20
120.32238
 30
0.0
 11
341.111268
 21
123.32238
 31
0.0
  0
LINE
  5
303
330
2C8
100
AcDbEntity
  8
LC-003-005-----0
 62
     7
370
    25
100
AcDbLine
 10
338.111268
 20
123.150807
 30
0.0
 11
341.111268
 21
126.150807
 31
0.0
  0
LINE
  5
304
330
2C8
100
AcDbEntity
  8
LC-003-005-----0
 62
     7
370
    25
100
AcDbLine
 10
338.111268
 20
125.979234
 30
0.0
 11
341.111268
 21
128.979234
 31
0.0
  0
LINE
  5
305
330
2C8
100
AcDbEntity
  8
LC-003-005-----0
 62
     7
370
    25
100
AcDbLine
 10
338.111268
 20
128.807661
 30
0.0
 11
341.111268
 21
131.807661
 31
0.0
  0
LINE
  5
306
330
2C8
100
AcDbEntity
  8
LC-003-005-----0
 62
     7
370
    25
100
AcDbLine
 10
338.111268
 20
131.636088
 30
0.0
 11
341.111268
 21
134.636088
 31
0.0
  0
LINE
  5
307
330
2C8
100
AcDbEntity
  8
LC-003-005-----0
 62
     7
370
    25
100
AcDbLine
 10
338.111268
 20
134.464515
 30
0.0
 11
341.111268
 21
137.464515
 31
0.0
  0
LINE
  5
308
330
2C8
100
AcDbEntity
  8
LC-003-005-----0
 62
     7
370
    25
100
AcDbLine
 10
338.111268
 20
137.292942
 30
0.0
 11
341.111268
 21
140.292942
 31
0.0
  0
LINE
  5
309
330
2C8
100
AcDbEntity
  8
LC-003-005-----0
 62
     7
370
    25
100
AcDbLine
 10
338.111268
 20
140.121369
 30
0.0
 11
341.111268
 21
143.121369
 31
0.0
  0
LINE
  5
30A
330
2C8
100
AcDbEntity
  8
LC-003-005-----0
 62
     7
370
    25
100
AcDbLine
 10
338.111268
 20
142.949797
 30
0.0
 11
341.111268
 21
145.949797
 31
0.0
  0
LINE
  5
30B
330
2C8
100
AcDbEntity
  8
LC-003-005-----0
 62
     7
370
    25
100
AcDbLine
 10
338.111268
 20
145.778224
 30
0.0
 11
341.111268
 21
148.778224
 31
0.0
  0
LINE
  5
30C
330
2C8
100
AcDbEntity
  8
LC-003-005-----0
 62
     7
370
    25
100
AcDbLine
 10
338.111268
 20
148.606651
 30
0.0
 11
341.111268
 21
151.606651
 31
0.0
  0
LINE
  5
30D
330
2C8
100
AcDbEntity
  8
LC-003-005-----0
 62
     7
370
    25
100
AcDbLine
 10
338.111268
 20
151.435078
 30
0.0
 11
341.111268
 21
154.435078
 31
0.0
  0
LINE
  5
30E
330
2C8
100
AcDbEntity
  8
LC-003-005-----0
 62
     7
370
    25
100
AcDbLine
 10
338.111268
 20
154.263505
 30
0.0
 11
341.111268
 21
157.263505
 31
0.0
  0
LINE
  5
30F
330
2C8
100
AcDbEntity
  8
LC-003-005-----0
 62
     7
370
    25
100
AcDbLine
 10
338.111268
 20
157.091932
 30
0.0
 11
341.111268
 21
160.091932
 31
0.0
  0
LINE
  5
310
330
2C8
100
AcDbEntity
  8
LC-003-005-----0
 62
     7
370
    25
100
AcDbLine
 10
338.111268
 20
159.920359
 30
0.0
 11
341.111268
 21
162.920359
 31
0.0
  0
LINE
  5
311
330
2C8
100
AcDbEntity
  8
LC-003-005-----0
 62
     7
370
    25
100
AcDbLine
 10
338.111268
 20
162.748786
 30
0.0
 11
341.111268
 21
165.748786
 31
0.0
  0
LINE
  5
312
330
2C8
100
AcDbEntity
  8
LC-003-005-----0
 62
     7
370
    25
100
AcDbLine
 10
338.111268
 20
165.577214
 30
0.0
 11
341.111268
 21
168.577214
 31
0.0
  0
LINE
  5
313
330
2C8
100
AcDbEntity
  8
LC-003-005-----0
 62
     7
370
    25
100
AcDbLine
 10
338.111268
 20
168.405641
 30
0.0
 11
341.111268
 21
171.405641
 31
0.0
  0
LINE
  5
314
330
2C8
100
AcDbEntity
  8
LC-003-005-----0
 62
     7
370
    25
100
AcDbLine
 10
338.111268
 20
171.234068
 30
0.0
 11
341.111268
 21
174.234068
 31
0.0
  0
LINE
  5
315
330
2C8
100
AcDbEntity
  8
LC-003-005-----0
 62
     7
370
    25
100
AcDbLine
 10
338.111268
 20
174.062495
 30
0.0
 11
341.111268
 21
177.062495
 31
0.0
  0
LINE
  5
316
330
2C8
100
AcDbEntity
  8
LC-003-005-----0
 62
     7
370
    25
100
AcDbLine
 10
338.111268
 20
176.890922
 30
0.0
 11
341.111268
 21
179.890922
 31
0.0
  0
LINE
  5
317
330
2C8
100
AcDbEntity
  8
LC-003-005-----0
 62
     7
370
    25
100
AcDbLine
 10
338.111268
 20
179.719349
 30
0.0
 11
341.111268
 21
182.719349
 31
0.0
  0
LINE
  5
318
330
2C8
100
AcDbEntity
  8
LC-003-005-----0
 62
     7
370
    25
100
AcDbLine
 10
338.111268
 20
182.547776
 30
0.0
 11
341.111268
 21
185.547776
 31
0.0
  0
LINE
  5
319
330
2C8
100
AcDbEntity
  8
LC-003-005-----0
 62
     7
370
    25
100
AcDbLine
 10
338.111268
 20
185.376203
 30
0.0
 11
341.111268
 21
188.376203
 31
0.0
  0
LINE
  5
31A
330
2C8
100
AcDbEntity
  8
LC-003-005-----0
 62
     7
370
    25
100
AcDbLine
 10
338.111268
 20
188.204631
 30
0.0
 11
341.111268
 21
191.204631
 31
0.0
  0
LINE
  5
31B
330
2C8
100
AcDbEntity
  8
LC-003-005-----0
 62
     7
370
    25
100
AcDbLine
 10
338.111268
 20
191.033058
 30
0.0
 11
341.111268
 21
194.033058
 31
0.0
  0
LINE
  5
31C
330
2C8
100
AcDbEntity
  8
LC-003-005-----0
 62
     7
370
    25
100
AcDbLine
 10
338.111268
 20
193.861485
 30
0.0
 11
341.111268
 21
196.861485
 31
0.0
  0
LINE
  5
31D
330
2C8
100
AcDbEntity
  8
LC-003-005-----0
 62
     7
370
    25
100
AcDbLine
 10
338.111268
 20
196.689912
 30
0.0
 11
341.111268
 21
199.689912
 31
0.0
  0
LINE
  5
31E
330
2C8
100
AcDbEntity
  8
LC-003-005-----0
 62
     7
370
    25
100
AcDbLine
 10
338.111268
 20
199.518339
 30
0.0
 11
341.111268
 21
202.518339
 31
0.0
  0
LINE
  5
31F
330
2C8
100
AcDbEntity
  8
LC-003-005-----0
 62
     7
370
    25
100
AcDbLine
 10
338.111268
 20
202.346766
 30
0.0
 11
341.111268
 21
205.346766
 31
0.0
  0
LINE
  5
320
330
2C8
100
AcDbEntity
  8
LC-003-005-----0
 62
     7
370
    25
100
AcDbLine
 10
338.111268
 20
205.175193
 30
0.0
 11
341.111268
 21
208.175193
 31
0.0
  0
LINE
  5
321
330
2C8
100
AcDbEntity
  8
LC-003-005-----0
 62
     7
370
    25
100
AcDbLine
 10
338.111268
 20
208.00362
 30
0.0
 11
341.111268
 21
211.00362
 31
0.0
  0
LINE
  5
322
330
2C8
100
AcDbEntity
  8
LC-003-005-----0
 62
     7
370
    25
100
AcDbLine
 10
338.111268
 20
210.832048
 30
0.0
 11
341.111268
 21
213.832048
 31
0.0
  0
LINE
  5
323
330
2C8
100
AcDbEntity
  8
LC-003-005-----0
 62
     7
370
    25
100
AcDbLine
 10
338.111268
 20
213.660475
 30
0.0
 11
341.111268
 21
216.660475
 31
0.0
  0
LINE
  5
324
330
2C8
100
AcDbEntity
  8
LC-003-005-----0
 62
     7
370
    25
100
AcDbLine
 10
338.111268
 20
216.488902
 30
0.0
 11
341.111268
 21
219.488902
 31
0.0
  0
LINE
  5
325
330
2C8
100
AcDbEntity
  8
LC-003-005-----0
 62
     7
370
    25
100
AcDbLine
 10
338.111268
 20
219.317329
 30
0.0
 11
341.111268
 21
222.317329
 31
0.0
  0
LINE
  5
326
330
2C8
100
AcDbEntity
  8
LC-003-005-----0
 62
     7
370
    25
100
AcDbLine
 10
338.111268
 20
222.145756
 30
0.0
 11
341.111268
 21
225.145756
 31
0.0
  0
LINE
  5
327
330
2C8
100
AcDbEntity
  8
LC-003-005-----0
 62
     7
370
    25
100
AcDbLine
 10
338.111268
 20
224.974183
 30
0.0
 11
341.111268
 21
227.974183
 31
0.0
  0
LINE
  5
328
330
2C8
100
AcDbEntity
  8
LC-003-005-----0
 62
     7
370
    25
100
AcDbLine
 10
338.111268
 20
227.80261
 30
0.0
 11
341.111268
 21
230.80261
 31
0.0
  0
LINE
  5
329
330
2C8
100
AcDbEntity
  8
LC-003-005-----0
 62
     7
370
    25
100
AcDbLine
 10
338.111268
 20
230.631037
 30
0.0
 11
341.111268
 21
233.631037
 31
0.0
  0
LINE
  5
32A
330
2C8
100
AcDbEntity
  8
LC-003-005-----0
 62
     7
370
    25
100
AcDbLine
 10
338.111268
 20
233.459465
 30
0.0
 11
341.111268
 21
236.459465
 31
0.0
  0
LINE
  5
32B
330
2C8
100
AcDbEntity
  8
LC-003-005-----0
 62
     7
370
    25
100
AcDbLine
 10
338.111268
 20
236.287892
 30
0.0
 11
341.111268
 21
239.287892
 31
0.0
  0
LINE
  5
32C
330
2C8
100
AcDbEntity
  8
LC-003-005-----0
 62
     7
370
    25
100
AcDbLine
 10
338.111268
 20
239.116319
 30
0.0
 11
341.111268
 21
242.116319
 31
0.0
  0
LINE
  5
32D
330
2C8
100
AcDbEntity
  8
LC-003-005-----0
 62
     7
370
    25
100
AcDbLine
 10
338.111268
 20
241.944746
 30
0.0
 11
341.111268
 21
244.944746
 31
0.0
  0
LINE
  5
32E
330
2C8
100
AcDbEntity
  8
LC-003-005-----0
 62
     7
370
    25
100
AcDbLine
 10
338.111268
 20
244.773173
 30
0.0
 11
341.111268
 21
247.773173
 31
0.0
  0
LINE
  5
32F
330
2C8
100
AcDbEntity
  8
LC-003-005-----0
 62
     7
370
    25
100
AcDbLine
 10
338.111268
 20
247.6016
 30
0.0
 11
341.111268
 21
250.6016
 31
0.0
  0
LINE
  5
330
330
2C8
100
AcDbEntity
  8
LC-003-005-----0
 62
     7
370
    25
100
AcDbLine
 10
338.111268
 20
250.430027
 30
0.0
 11
341.111268
 21
253.430027
 31
0.0
  0
LINE
  5
331
330
2C8
100
AcDbEntity
  8
LC-003-005-----0
 62
     7
370
    25
100
AcDbLine
 10
338.111268
 20
253.258454
 30
0.0
 11
341.111268
 21
256.258454
 31
0.0
  0
LINE
  5
332
330
2C8
100
AcDbEntity
  8
LC-003-005-----0
 62
     7
370
    25
100
AcDbLine
 10
338.111268
 20
256.086882
 30
0.0
 11
341.111268
 21
259.086882
 31
0.0
  0
LINE
  5
333
330
2C8
100
AcDbEntity
  8
LC-003-005-----0
 62
     7
370
    25
100
AcDbLine
 10
338.111268
 20
258.915309
 30
0.0
 11
341.111268
 21
261.915309
 31
0.0
  0
LINE
  5
334
330
2C8
100
AcDbEntity
  8
LC-003-005-----0
 62
     7
370
    25
100
AcDbLine
 10
338.111268
 20
261.743736
 30
0.0
 11
341.111268
 21
264.743736
 31
0.0
  0
LINE
  5
335
330
2C8
100
AcDbEntity
  8
LC-003-005-----0
 62
     7
370
    25
100
AcDbLine
 10
338.111268
 20
264.572163
 30
0.0
 11
341.111268
 21
267.572163
 31
0.0
  0
LINE
  5
336
330
2C8
100
AcDbEntity
  8
LC-003-005-----0
 62
     7
370
    25
100
AcDbLine
 10
338.111268
 20
267.40059
 30
0.0
 11
341.111268
 21
270.40059
 31
0.0
  0
LINE
  5
337
330
2C8
100
AcDbEntity
  8
LC-003-005-----0
 62
     7
370
    25
100
AcDbLine
 10
338.111268
 20
270.229017
 30
0.0
 11
341.111268
 21
273.229017
 31
0.0
  0
LINE
  5
338
330
2C8
100
AcDbEntity
  8
LC-003-005-----0
 62
     7
370
    25
100
AcDbLine
 10
338.111268
 20
273.057444
 30
0.0
 11
341.111268
 21
276.057444
 31
0.0
  0
LINE
  5
339
330
2C8
100
AcDbEntity
  8
LC-003-005-----0
 62
     7
370
    25
100
AcDbLine
 10
338.111268
 20
275.885871
 30
0.0
 11
341.111268
 21
278.885871
 31
0.0
  0
LINE
  5
33A
330
2C8
100
AcDbEntity
  8
LC-003-005-----0
 62
     7
370
    25
100
AcDbLine
 10
338.111268
 20
278.714299
 30
0.0
 11
341.111268
 21
281.714299
 31
0.0
  0
LINE
  5
33B
330
2C8
100
AcDbEntity
  8
LC-003-005-----0
 62
     7
370
    25
100
AcDbLine
 10
338.111268
 20
281.542726
 30
0.0
 11
341.111268
 21
284.542726
 31
0.0
  0
LINE
  5
33C
330
2C8
100
AcDbEntity
  8
LC-003-005-----0
 62
     7
370
    25
100
AcDbLine
 10
338.111268
 20
284.371153
 30
0.0
 11
341.111268
 21
287.371153
 31
0.0
  0
LINE
  5
33D
330
2C8
100
AcDbEntity
  8
LC-003-005-----0
 62
     7
370
    25
100
AcDbLine
 10
338.111268
 20
287.19958
 30
0.0
 11
341.111268
 21
290.19958
 31
0.0
  0
LINE
  5
33E
330
2C8
100
AcDbEntity
  8
LC-003-005-----0
 62
     7
370
    25
100
AcDbLine
 10
338.111268
 20
290.028007
 30
0.0
 11
341.111268
 21
293.028007
 31
0.0
  0
LINE
  5
33F
330
2C8
100
AcDbEntity
  8
LC-003-005-----0
 62
     7
370
    25
100
AcDbLine
 10
338.111268
 20
292.856434
 30
0.0
 11
341.111268
 21
295.856434
 31
0.0
  0
LINE
  5
340
330
2C8
100
AcDbEntity
  8
LC-003-005-----0
 62
     7
370
    25
100
AcDbLine
 10
338.111268
 20
295.684861
 30
0.0
 11
341.111268
 21
298.684861
 31
0.0
  0
LINE
  5
341
330
2C8
100
AcDbEntity
  8
LC-003-005-----0
 62
     7
370
    25
100
AcDbLine
 10
338.111268
 20
298.513288
 30
0.0
 11
341.111268
 21
301.513288
 31
0.0
  0
LINE
  5
342
330
2C8
100
AcDbEntity
  8
LC-003-005-----0
 62
     7
370
    25
100
AcDbLine
 10
338.111268
 20
301.341716
 30
0.0
 11
341.111268
 21
304.341716
 31
0.0
  0
LINE
  5
343
330
2C8
100
AcDbEntity
  8
LC-003-005-----0
 62
     7
370
    25
100
AcDbLine
 10
338.111268
 20
304.170143
 30
0.0
 11
341.111268
 21
307.170143
 31
0.0
  0
LINE
  5
344
330
2C8
100
AcDbEntity
  8
LC-003-005-----0
 62
     7
370
    25
100
AcDbLine
 10
338.111268
 20
306.99857
 30
0.0
 11
341.111268
 21
309.99857
 31
0.0
  0
LINE
  5
345
330
2C8
100
AcDbEntity
  8
LC-003-005-----0
 62
     7
370
    25
100
AcDbLine
 10
338.111268
 20
309.826997
 30
0.0
 11
341.111268
 21
312.826997
 31
0.0
  0
LINE
  5
346
330
2C8
100
AcDbEntity
  8
LC-003-005-----0
 62
     7
370
    25
100
AcDbLine
 10
354.929926
 20
326.645654
 30
0.0
 11
359.111273
 21
330.827002
 31
0.0
  0
LINE
  5
347
330
2C8
100
AcDbEntity
  8
LC-003-005-----0
 62
     7
370
    25
100
AcDbLine
 10
338.111268
 20
312.655424
 30
0.0
 11
341.111268
 21
315.655424
 31
0.0
  0
LINE
  5
348
330
2C8
100
AcDbEntity
  8
LC-003-005-----0
 62
     7
370
    25
100
AcDbLine
 10
352.101498
 20
326.645654
 30
0.0
 11
355.101498
 21
329.645654
 31
0.0
  0
LINE
  5
349
330
2C8
100
AcDbEntity
  8
LC-003-005-----0
 62
     7
370
    25
100
AcDbLine
 10
356.111273
 20
330.655429
 30
0.0
 11
359.111273
 21
333.655429
 31
0.0
  0
LINE
  5
34A
330
2C8
100
AcDbEntity
  8
LC-003-005-----0
 62
     7
370
    25
100
AcDbLine
 10
338.111268
 20
315.483851
 30
0.0
 11
341.111268
 21
318.483851
 31
0.0
  0
LINE
  5
34B
330
2C8
100
AcDbEntity
  8
LC-003-005-----0
 62
     7
370
    25
100
AcDbLine
 10
349.273071
 20
326.645654
 30
0.0
 11
352.273071
 21
329.645654
 31
0.0
  0
LINE
  5
34C
330
2C8
100
AcDbEntity
  8
LC-003-005-----0
 62
     7
370
    25
100
AcDbLine
 10
356.111273
 20
333.483856
 30
0.0
 11
359.111273
 21
336.483856
 31
0.0
  0
LINE
  5
34D
330
2C8
100
AcDbEntity
  8
LC-003-005-----0
 62
     7
370
    25
100
AcDbLine
 10
338.111268
 20
318.312278
 30
0.0
 11
341.111268
 21
321.312278
 31
0.0
  0
LINE
  5
34E
330
2C8
100
AcDbEntity
  8
LC-003-005-----0
 62
     7
370
    25
100
AcDbLine
 10
346.444644
 20
326.645654
 30
0.0
 11
349.444644
 21
329.645654
 31
0.0
  0
LINE
  5
34F
330
2C8
100
AcDbEntity
  8
LC-003-005-----0
 62
     7
370
    25
100
AcDbLine
 10
356.111273
 20
336.312283
 30
0.0
 11
359.111273
 21
339.312283
 31
0.0
  0
LINE
  5
350
330
2C8
100
AcDbEntity
  8
LC-003-005-----0
 62
     7
370
    25
100
AcDbLine
 10
338.111268
 20
321.140705
 30
0.0
 11
341.111268
 21
324.140705
 31
0.0
  0
LINE
  5
351
330
2C8
100
AcDbEntity
  8
LC-003-005-----0
 62
     7
370
    25
100
AcDbLine
 10
343.616217
 20
326.645654
 30
0.0
 11
346.616217
 21
329.645654
 31
0.0
  0
LINE
  5
352
330
2C8
100
AcDbEntity
  8
LC-003-005-----0
 62
     7
370
    25
100
AcDbLine
 10
356.111273
 20
339.14071
 30
0.0
 11
359.111273
 21
342.14071
 31
0.0
  0
LINE
  5
353
330
2C8
100
AcDbEntity
  8
LC-003-005-----0
 62
     7
370
    25
100
AcDbLine
 10
338.111268
 20
323.969133
 30
0.0
 11
343.78779
 21
329.645654
 31
0.0
  0
LINE
  5
354
330
2C8
100
AcDbEntity
  8
LC-003-005-----0
 62
     7
370
    25
100
AcDbLine
 10
356.111273
 20
341.969138
 30
0.0
 11
359.111273
 21
344.969138
 31
0.0
  0
LINE
  5
355
330
2C8
100
AcDbEntity
  8
LC-003-005-----0
 62
     7
370
    25
100
AcDbLine
 10
338.111268
 20
326.79756
 30
0.0
 11
340.959363
 21
329.645654
 31
0.0
  0
LINE
  5
356
330
2C8
100
AcDbEntity
  8
LC-003-005-----0
 62
     7
370
    25
100
AcDbLine
 10
356.111273
 20
344.797565
 30
0.0
 11
359.111273
 21
347.797565
 31
0.0
  0
LINE
  5
357
330
2C8
100
AcDbEntity
  8
LC-003-005-----0
 62
     7
370
    25
100
AcDbLine
 10
338.111268
 20
329.625987
 30
0.0
 11
338.130936
 21
329.645654
 31
0.0
  0
LINE
  5
358
330
2C8
100
AcDbEntity
  8
LC-003-005-----0
 62
     7
370
    25
100
AcDbLine
 10
356.111273
 20
347.625992
 30
0.0
 11
359.111273
 21
350.625992
 31
0.0
  0
LINE
  5
359
330
2C8
100
AcDbEntity
  8
LC-003-005-----0
 62
     7
370
    25
100
AcDbLine
 10
356.111273
 20
350.454419
 30
0.0
 11
359.111273
 21
353.454419
 31
0.0
  0
LINE
  5
35A
330
2C8
100
AcDbEntity
  8
LC-003-005-----0
 62
     7
370
    25
100
AcDbLine
 10
356.111273
 20
353.282846
 30
0.0
 11
359.111273
 21
356.282846
 31
0.0
  0
LINE
  5
35B
330
2C8
100
AcDbEntity
  8
LC-003-005-----0
 62
     7
370
    25
100
AcDbLine
 10
356.111273
 20
356.111273
 30
0.0
 11
359.111273
 21
359.111273
 31
0.0
  0
LINE
  5
35C
330
2C8
100
AcDbEntity
  8
LC-003-005-----0
 62
     7
370
    25
100
AcDbLine
 10
356.111273
 20
358.9397
 30
0.0
 11
359.111273
 21
361.9397
 31
0.0
  0
LINE
  5
35D
330
2C8
100
AcDbEntity
  8
LC-003-005-----0
 62
     7
370
    25
100
AcDbLine
 10
356.111273
 20
361.768127
 30
0.0
 11
362.264951
 21
367.921805
 31
0.0
  0
LINE
  5
35E
330
2C8
100
AcDbEntity
  8
LC-003-005-----0
 62
     7
370
    25
100
AcDbLine
 10
375.435149
 20
381.092003
 30
0.0
 11
376.415265
 21
382.072119
 31
0.0
  0
LINE
  5
35F
330
2C8
100
AcDbEntity
  8
LC-003-005-----0
 62
     7
370
    25
100
AcDbLine
 10
357.932502
 20
366.417783
 30
0.0
 11
366.128654
 21
374.613935
 31
0.0
  0
LINE
  5
360
330
2C8
100
AcDbEntity
  8
LC-003-005-----0
 62
     7
370
    25
100
AcDbLine
 10
372.160719
 20
380.646
 30
0.0
 11
376.861268
 21
385.34655
 31
0.0
  0
LINE
  5
361
330
2C8
100
AcDbEntity
  8
LC-003-005-----0
 62
     7
370
    25
100
AcDbLine
 10
361.796205
 20
373.109913
 30
0.0
 11
372.332292
 21
383.646
 31
0.0
  0
LINE
  5
362
330
2C8
100
AcDbEntity
  8
LC-003-005-----0
 62
     7
370
    25
100
AcDbLine
 10
373.861268
 20
385.174977
 30
0.0
 11
376.861268
 21
388.174977
 31
0.0
  0
LINE
  5
363
330
2C8
100
AcDbEntity
  8
LC-003-005-----0
 62
     7
370
    25
100
AcDbLine
 10
387.33231
 20
398.646018
 30
0.0
 11
387.36475
 21
398.678459
 31
0.0
  0
LINE
  5
364
330
2C8
100
AcDbEntity
  8
LC-003-005-----0
 62
     7
370
    25
100
AcDbLine
 10
365.659908
 20
379.802044
 30
0.0
 11
369.503864
 21
383.646
 31
0.0
  0
LINE
  5
365
330
2C8
100
AcDbEntity
  8
LC-003-005-----0
 62
     7
370
    25
100
AcDbLine
 10
373.861268
 20
388.003404
 30
0.0
 11
376.861268
 21
391.003404
 31
0.0
  0
LINE
  5
366
330
2C8
100
AcDbEntity
  8
LC-003-005-----0
 62
     7
370
    25
100
AcDbLine
 10
384.50402
 20
398.646156
 30
0.0
 11
387.365021
 21
401.507156
 31
0.0
  0
LINE
  5
367
330
2C8
100
AcDbEntity
  8
LC-003-005-----0
 62
     7
370
    25
100
AcDbLine
 10
373.861268
 20
390.831831
 30
0.0
 11
376.861268
 21
393.831831
 31
0.0
  0
LINE
  5
368
330
2C8
100
AcDbEntity
  8
LC-003-005-----0
 62
     7
370
    25
100
AcDbLine
 10
380.175437
 20
397.146
 30
0.0
 11
381.611269
 21
398.581832
 31
0.0
  0
LINE
  5
369
330
2C8
100
AcDbEntity
  8
LC-003-005-----0
 62
     7
370
    25
100
AcDbLine
 10
381.67573
 20
398.646293
 30
0.0
 11
387.365291
 21
404.335854
 31
0.0
  0
LINE
  5
36A
330
2C8
100
AcDbEntity
  8
LC-003-005-----0
 62
     7
370
    25
100
AcDbLine
 10
373.861268
 20
393.660258
 30
0.0
 11
387.365562
 21
407.164552
 31
0.0
  0
LINE
  5
36B
330
2C8
100
AcDbEntity
  8
LC-003-005-----0
 62
     7
370
    25
100
AcDbLine
 10
373.861268
 20
396.488685
 30
0.0
 11
377.518583
 21
400.146
 31
0.0
  0
LINE
  5
36C
330
2C8
100
AcDbEntity
  8
LC-003-005-----0
 62
     7
370
    25
100
AcDbLine
 10
378.611269
 20
401.238686
 30
0.0
 11
387.365833
 21
409.99325
 31
0.0
  0
LINE
  5
36D
330
2C8
100
AcDbEntity
  8
LC-003-005-----0
 62
     7
370
    25
100
AcDbLine
 10
373.861268
 20
399.317112
 30
0.0
 11
374.690156
 21
400.146
 31
0.0
  0
LINE
  5
36E
330
2C8
100
AcDbEntity
  8
LC-003-005-----0
 62
     7
370
    25
100
AcDbLine
 10
378.611269
 20
404.067113
 30
0.0
 11
387.366103
 21
412.821947
 31
0.0
  0
LINE
  5
36F
330
2C8
100
AcDbEntity
  8
LC-003-005-----0
 62
     7
370
    25
100
AcDbLine
 10
378.611269
 20
406.89554
 30
0.0
 11
387.366374
 21
415.650645
 31
0.0
  0
LINE
  5
370
330
2C8
100
AcDbEntity
  8
LC-003-005-----0
 62
     7
370
    25
100
AcDbLine
 10
378.611269
 20
409.723968
 30
0.0
 11
385.776067
 21
416.888765
 31
0.0
  0
LINE
  5
371
330
2C8
100
AcDbEntity
  8
LC-003-005-----0
 62
     7
370
    25
100
AcDbLine
 10
378.611269
 20
412.552395
 30
0.0
 11
382.947914
 21
416.88904
 31
0.0
  0
LINE
  5
372
330
2C8
100
AcDbEntity
  8
LC-003-005-----0
 62
     7
370
    25
100
AcDbLine
 10
378.611269
 20
415.380822
 30
0.0
 11
380.119761
 21
416.889314
 31
0.0
  0
ENDBLK
  5
2CA
330
2C8
100
AcDbEntity
  8
0
100
AcDbBlockEnd
  0
BLOCK
  5
37E
330
37D
100
AcDbEntity
  8
0
100
AcDbBlockBegin
  2
*X1515
 70
     1
 71
     0
 10
0.0
 20
0.0
 30
0.0
  3
*X1515
  1

  4
*X15
  0
LINE
  5
380
330
37D
100
AcDbEntity
  8
LC-003-005-----0
 62
     7
370
    25
100
AcDbLine
 10
197.827658
 20
398.645984
 30
0.0
 11
199.357643
 21
400.175969
 31
0.0
  0
LINE
  5
381
330
37D
100
AcDbEntity
  8
LC-003-005-----0
 62
     7
370
    25
100
AcDbLine
 10
196.106166
 20
399.752919
 30
0.0
 11
199.357372
 21
403.004125
 31
0.0
  0
LINE
  5
382
330
37D
100
AcDbEntity
  8
LC-003-005-----0
 62
     7
370
    25
100
AcDbLine
 10
196.10615
 20
402.58133
 30
0.0
 11
199.357102
 21
405.832282
 31
0.0
  0
LINE
  5
383
330
37D
100
AcDbEntity
  8
LC-003-005-----0
 62
     7
370
    25
100
AcDbLine
 10
196.106133
 20
405.40974
 30
0.0
 11
199.356831
 21
408.660438
 31
0.0
  0
LINE
  5
384
330
37D
100
AcDbEntity
  8
LC-003-005-----0
 62
     7
370
    25
100
AcDbLine
 10
196.106116
 20
408.23815
 30
0.0
 11
199.356561
 21
411.488595
 31
0.0
  0
LINE
  5
385
330
37D
100
AcDbEntity
  8
LC-003-005-----0
 62
     7
370
    25
100
AcDbLine
 10
196.106099
 20
411.066561
 30
0.0
 11
199.35629
 21
414.316751
 31
0.0
  0
LINE
  5
386
330
37D
100
AcDbEntity
  8
LC-003-005-----0
 62
     7
370
    25
100
AcDbLine
 10
195.603145
 20
413.392033
 30
0.0
 11
199.099269
 21
416.888157
 31
0.0
  0
LINE
  5
387
330
37D
100
AcDbEntity
  8
LC-003-005-----0
 62
     7
370
    25
100
AcDbLine
 10
193.272668
 20
413.889983
 30
0.0
 11
196.271728
 21
416.889043
 31
0.0
  0
LINE
  5
388
330
37D
100
AcDbEntity
  8
LC-003-005-----0
 62
     7
370
    25
100
AcDbLine
 10
190.832144
 20
414.277886
 30
0.0
 11
193.444187
 21
416.88993
 31
0.0
  0
LINE
  5
389
330
37D
100
AcDbEntity
  8
LC-003-005-----0
 62
     7
370
    25
100
AcDbLine
 10
188.758464
 20
415.032634
 30
0.0
 11
191.099087
 21
417.373257
 31
0.0
  0
LINE
  5
38A
330
37D
100
AcDbEntity
  8
LC-003-005-----0
 62
     7
370
    25
100
AcDbLine
 10
186.684784
 20
415.787381
 30
0.0
 11
189.025407
 21
418.128004
 31
0.0
  0
LINE
  5
38B
330
37D
100
AcDbEntity
  8
LC-003-005-----0
 62
     7
370
    25
100
AcDbLine
 10
184.611105
 20
416.542129
 30
0.0
 11
186.951727
 21
418.882752
 31
0.0
  0
LINE
  5
38C
330
37D
100
AcDbEntity
  8
LC-003-005-----0
 62
     7
370
    25
100
AcDbLine
 10
182.537425
 20
417.296876
 30
0.0
 11
184.878048
 21
419.637499
 31
0.0
  0
LINE
  5
38D
330
37D
100
AcDbEntity
  8
LC-003-005-----0
 62
     7
370
    25
100
AcDbLine
 10
180.463745
 20
418.051624
 30
0.0
 11
182.804368
 21
420.392247
 31
0.0
  0
LINE
  5
38E
330
37D
100
AcDbEntity
  8
LC-003-005-----0
 62
     7
370
    25
100
AcDbLine
 10
178.390066
 20
418.806371
 30
0.0
 11
180.730689
 21
421.146994
 31
0.0
  0
LINE
  5
38F
330
37D
100
AcDbEntity
  8
LC-003-005-----0
 62
     7
370
    25
100
AcDbLine
 10
176.316386
 20
419.561119
 30
0.0
 11
178.657009
 21
421.901742
 31
0.0
  0
LINE
  5
390
330
37D
100
AcDbEntity
  8
LC-003-005-----0
 62
     7
370
    25
100
AcDbLine
 10
174.242707
 20
420.315866
 30
0.0
 11
176.583329
 21
422.656489
 31
0.0
  0
LINE
  5
391
330
37D
100
AcDbEntity
  8
LC-003-005-----0
 62
     7
370
    25
100
AcDbLine
 10
172.169027
 20
421.070614
 30
0.0
 11
174.50965
 21
423.411237
 31
0.0
  0
LINE
  5
392
330
37D
100
AcDbEntity
  8
LC-003-005-----0
 62
     7
370
    25
100
AcDbLine
 10
170.095347
 20
421.825361
 30
0.0
 11
172.43597
 21
424.165984
 31
0.0
  0
LINE
  5
393
330
37D
100
AcDbEntity
  8
LC-003-005-----0
 62
     7
370
    25
100
AcDbLine
 10
168.021668
 20
422.580109
 30
0.0
 11
170.36229
 21
424.920732
 31
0.0
  0
LINE
  5
394
330
37D
100
AcDbEntity
  8
LC-003-005-----0
 62
     7
370
    25
100
AcDbLine
 10
165.259132
 20
422.646
 30
0.0
 11
168.259132
 21
425.646
 31
0.0
  0
LINE
  5
395
330
37D
100
AcDbEntity
  8
LC-003-005-----0
 62
     7
370
    25
100
AcDbLine
 10
162.430705
 20
422.646
 30
0.0
 11
165.430705
 21
425.646
 31
0.0
  0
LINE
  5
396
330
37D
100
AcDbEntity
  8
LC-003-005-----0
 62
     7
370
    25
100
AcDbLine
 10
159.602277
 20
422.646
 30
0.0
 11
162.602277
 21
425.646
 31
0.0
  0
LINE
  5
397
330
37D
100
AcDbEntity
  8
LC-003-005-----0
 62
     7
370
    25
100
AcDbLine
 10
156.77385
 20
422.646
 30
0.0
 11
159.77385
 21
425.646
 31
0.0
  0
LINE
  5
398
330
37D
100
AcDbEntity
  8
LC-003-005-----0
 62
     7
370
    25
100
AcDbLine
 10
153.945423
 20
422.646
 30
0.0
 11
156.945423
 21
425.646
 31
0.0
  0
LINE
  5
399
330
37D
100
AcDbEntity
  8
LC-003-005-----0
 62
     7
370
    25
100
AcDbLine
 10
151.116996
 20
422.646
 30
0.0
 11
154.116996
 21
425.646
 31
0.0
  0
LINE
  5
39A
330
37D
100
AcDbEntity
  8
LC-003-005-----0
 62
     7
370
    25
100
AcDbLine
 10
148.288569
 20
422.646
 30
0.0
 11
151.288569
 21
425.646
 31
0.0
  0
LINE
  5
39B
330
37D
100
AcDbEntity
  8
LC-003-005-----0
 62
     7
370
    25
100
AcDbLine
 10
145.460142
 20
422.646
 30
0.0
 11
148.460142
 21
425.646
 31
0.0
  0
LINE
  5
39C
330
37D
100
AcDbEntity
  8
LC-003-005-----0
 62
     7
370
    25
100
AcDbLine
 10
142.631715
 20
422.646
 30
0.0
 11
145.631715
 21
425.646
 31
0.0
  0
LINE
  5
39D
330
37D
100
AcDbEntity
  8
LC-003-005-----0
 62
     7
370
    25
100
AcDbLine
 10
139.803288
 20
422.646
 30
0.0
 11
142.803288
 21
425.646
 31
0.0
  0
LINE
  5
39E
330
37D
100
AcDbEntity
  8
LC-003-005-----0
 62
     7
370
    25
100
AcDbLine
 10
136.97486
 20
422.646
 30
0.0
 11
139.97486
 21
425.646
 31
0.0
  0
LINE
  5
39F
330
37D
100
AcDbEntity
  8
LC-003-005-----0
 62
     7
370
    25
100
AcDbLine
 10
134.146433
 20
422.646
 30
0.0
 11
137.146433
 21
425.646
 31
0.0
  0
LINE
  5
3A0
330
37D
100
AcDbEntity
  8
LC-003-005-----0
 62
     7
370
    25
100
AcDbLine
 10
131.318006
 20
422.646
 30
0.0
 11
134.318006
 21
425.646
 31
0.0
  0
LINE
  5
3A1
330
37D
100
AcDbEntity
  8
LC-003-005-----0
 62
     7
370
    25
100
AcDbLine
 10
128.489579
 20
422.646
 30
0.0
 11
131.489579
 21
425.646
 31
0.0
  0
LINE
  5
3A2
330
37D
100
AcDbEntity
  8
LC-003-005-----0
 62
     7
370
    25
100
AcDbLine
 10
125.661152
 20
422.646
 30
0.0
 11
128.661152
 21
425.646
 31
0.0
  0
LINE
  5
3A3
330
37D
100
AcDbEntity
  8
LC-003-005-----0
 62
     7
370
    25
100
AcDbLine
 10
122.832725
 20
422.646
 30
0.0
 11
125.832725
 21
425.646
 31
0.0
  0
LINE
  5
3A4
330
37D
100
AcDbEntity
  8
LC-003-005-----0
 62
     7
370
    25
100
AcDbLine
 10
120.004298
 20
422.646
 30
0.0
 11
123.004298
 21
425.646
 31
0.0
  0
ENDBLK
  5
37F
330
37D
100
AcDbEntity
  8
0
100
AcDbBlockEnd
  0
BLOCK
  5
3A7
330
3A6
100
AcDbEntity
  8
0
100
AcDbBlockBegin
  2
*X1616
 70
     1
 71
     0
 10
0.0
 20
0.0
 30
0.0
  3
*X1616
  1

  4
*X16
  0
LINE
  5
3A9
330
3A6
100
AcDbEntity
  8
LC-003-005-----0
 62
     7
370
    25
100
AcDbLine
 10
470.729261
 20
422.646
 30
0.0
 11
472.800309
 21
424.717047
 31
0.0
  0
LINE
  5
3AA
330
3A6
100
AcDbEntity
  8
LC-003-005-----0
 62
     7
370
    25
100
AcDbLine
 10
467.900834
 20
422.646
 30
0.0
 11
470.900834
 21
425.646
 31
0.0
  0
LINE
  5
3AB
330
3A6
100
AcDbEntity
  8
LC-003-005-----0
 62
     7
370
    25
100
AcDbLine
 10
465.072407
 20
422.646
 30
0.0
 11
468.072407
 21
425.646
 31
0.0
  0
LINE
  5
3AC
330
3A6
100
AcDbEntity
  8
LC-003-005-----0
 62
     7
370
    25
100
AcDbLine
 10
462.24398
 20
422.646
 30
0.0
 11
465.24398
 21
425.646
 31
0.0
  0
LINE
  5
3AD
330
3A6
100
AcDbEntity
  8
LC-003-005-----0
 62
     7
370
    25
100
AcDbLine
 10
459.415553
 20
422.646
 30
0.0
 11
462.415553
 21
425.646
 31
0.0
  0
LINE
  5
3AE
330
3A6
100
AcDbEntity
  8
LC-003-005-----0
 62
     7
370
    25
100
AcDbLine
 10
456.587125
 20
422.646
 30
0.0
 11
459.587125
 21
425.646
 31
0.0
  0
LINE
  5
3AF
330
3A6
100
AcDbEntity
  8
LC-003-005-----0
 62
     7
370
    25
100
AcDbLine
 10
453.758698
 20
422.646
 30
0.0
 11
456.758698
 21
425.646
 31
0.0
  0
LINE
  5
3B0
330
3A6
100
AcDbEntity
  8
LC-003-005-----0
 62
     7
370
    25
100
AcDbLine
 10
450.930271
 20
422.646
 30
0.0
 11
453.930271
 21
425.646
 31
0.0
  0
LINE
  5
3B1
330
3A6
100
AcDbEntity
  8
LC-003-005-----0
 62
     7
370
    25
100
AcDbLine
 10
448.101844
 20
422.646
 30
0.0
 11
451.101844
 21
425.646
 31
0.0
  0
LINE
  5
3B2
330
3A6
100
AcDbEntity
  8
LC-003-005-----0
 62
     7
370
    25
100
AcDbLine
 10
445.273417
 20
422.646
 30
0.0
 11
448.273417
 21
425.646
 31
0.0
  0
LINE
  5
3B3
330
3A6
100
AcDbEntity
  8
LC-003-005-----0
 62
     7
370
    25
100
AcDbLine
 10
442.44499
 20
422.646
 30
0.0
 11
445.44499
 21
425.646
 31
0.0
  0
LINE
  5
3B4
330
3A6
100
AcDbEntity
  8
LC-003-005-----0
 62
     7
370
    25
100
AcDbLine
 10
439.616563
 20
422.646
 30
0.0
 11
442.616563
 21
425.646
 31
0.0
  0
LINE
  5
3B5
330
3A6
100
AcDbEntity
  8
LC-003-005-----0
 62
     7
370
    25
100
AcDbLine
 10
436.788136
 20
422.646
 30
0.0
 11
439.788136
 21
425.646
 31
0.0
  0
LINE
  5
3B6
330
3A6
100
AcDbEntity
  8
LC-003-005-----0
 62
     7
370
    25
100
AcDbLine
 10
433.959708
 20
422.646
 30
0.0
 11
436.959708
 21
425.646
 31
0.0
  0
LINE
  5
3B7
330
3A6
100
AcDbEntity
  8
LC-003-005-----0
 62
     7
370
    25
100
AcDbLine
 10
431.131281
 20
422.646
 30
0.0
 11
434.131281
 21
425.646
 31
0.0
  0
LINE
  5
3B8
330
3A6
100
AcDbEntity
  8
LC-003-005-----0
 62
     7
370
    25
100
AcDbLine
 10
428.302854
 20
422.646
 30
0.0
 11
431.302854
 21
425.646
 31
0.0
  0
LINE
  5
3B9
330
3A6
100
AcDbEntity
  8
LC-003-005-----0
 62
     7
370
    25
100
AcDbLine
 10
425.474427
 20
422.646
 30
0.0
 11
428.474427
 21
425.646
 31
0.0
  0
LINE
  5
3BA
330
3A6
100
AcDbEntity
  8
LC-003-005-----0
 62
     7
370
    25
100
AcDbLine
 10
421.652643
 20
421.652643
 30
0.0
 11
425.646
 21
425.646
 31
0.0
  0
LINE
  5
3BB
330
3A6
100
AcDbEntity
  8
LC-003-005-----0
 62
     7
370
    25
100
AcDbLine
 10
395.921061
 20
398.749488
 30
0.0
 11
396.012977
 21
398.841405
 31
0.0
  0
LINE
  5
3BC
330
3A6
100
AcDbEntity
  8
LC-003-005-----0
 62
     7
370
    25
100
AcDbLine
 10
417.205673
 20
420.0341
 30
0.0
 11
422.228485
 21
425.056912
 31
0.0
  0
LINE
  5
3BD
330
3A6
100
AcDbEntity
  8
LC-003-005-----0
 62
     7
370
    25
100
AcDbLine
 10
392.989151
 20
398.646005
 30
0.0
 11
396.116464
 21
401.773318
 31
0.0
  0
LINE
  5
3BE
330
3A6
100
AcDbEntity
  8
LC-003-005-----0
 62
     7
370
    25
100
AcDbLine
 10
412.758703
 20
418.415557
 30
0.0
 11
417.782242
 21
423.439097
 31
0.0
  0
LINE
  5
3BF
330
3A6
100
AcDbEntity
  8
LC-003-005-----0
 62
     7
370
    25
100
AcDbLine
 10
392.865161
 20
401.350442
 30
0.0
 11
396.116461
 21
404.601743
 31
0.0
  0
LINE
  5
3C0
330
3A6
100
AcDbEntity
  8
LC-003-005-----0
 62
     7
370
    25
100
AcDbLine
 10
408.311733
 20
416.797014
 30
0.0
 11
413.336
 21
421.821281
 31
0.0
  0
LINE
  5
3C1
330
3A6
100
AcDbEntity
  8
LC-003-005-----0
 62
     7
370
    25
100
AcDbLine
 10
392.865413
 20
404.179122
 30
0.0
 11
396.116459
 21
407.430167
 31
0.0
  0
LINE
  5
3C2
330
3A6
100
AcDbEntity
  8
LC-003-005-----0
 62
     7
370
    25
100
AcDbLine
 10
403.864763
 20
415.178471
 30
0.0
 11
408.889757
 21
420.203466
 31
0.0
  0
LINE
  5
3C3
330
3A6
100
AcDbEntity
  8
LC-003-005-----0
 62
     7
370
    25
100
AcDbLine
 10
392.865666
 20
407.007802
 30
0.0
 11
396.116457
 21
410.258592
 31
0.0
  0
LINE
  5
3C4
330
3A6
100
AcDbEntity
  8
LC-003-005-----0
 62
     7
370
    25
100
AcDbLine
 10
399.748098
 20
413.890234
 30
0.0
 11
404.443515
 21
418.585651
 31
0.0
  0
LINE
  5
3C5
330
3A6
100
AcDbEntity
  8
LC-003-005-----0
 62
     7
370
    25
100
AcDbLine
 10
392.865918
 20
409.836481
 30
0.0
 11
396.116454
 21
413.087017
 31
0.0
  0
LINE
  5
3C6
330
3A6
100
AcDbEntity
  8
LC-003-005-----0
 62
     7
370
    25
100
AcDbLine
 10
396.918784
 20
413.889347
 30
0.0
 11
399.997272
 21
416.967835
 31
0.0
  0
LINE
  5
3C7
330
3A6
100
AcDbEntity
  8
LC-003-005-----0
 62
     7
370
    25
100
AcDbLine
 10
392.866171
 20
412.665161
 30
0.0
 11
397.089505
 21
416.888495
 31
0.0
  0
LINE
  5
3C8
330
3A6
100
AcDbEntity
  8
LC-003-005-----0
 62
     7
370
    25
100
AcDbLine
 10
392.866424
 20
415.493841
 30
0.0
 11
394.261078
 21
416.888495
 31
0.0
  0
ENDBLK
  5
3A8
330
3A6
100
AcDbEntity
  8
0
100
AcDbBlockEnd
  0
BLOCK
  5
41D
330
413
100
AcDbEntity
  8
0
100
AcDbBlockBegin
  2
*D17
 70
     1
 71
     0
 10
0.0
 20
0.0
 30
0.0
  3
*D17
  1

  0
LINE
  5
414
330
413
100
AcDbEntity
  8
LC-006-003-----0
 62
     2
370
    -2
100
AcDbLine
 10
471.111268
 20
425.646
 30
0.0
 11
534.342717
 21
425.646
 31
0.0
  0
LINE
  5
415
330
413
100
AcDbEntity
  8
LC-006-003-----0
 62
     2
370
    -2
100
AcDbLine
 10
297.008382
 20
-34.354
 30
0.0
 11
534.342717
 21
-34.354
 31
0.0
  0
LINE
  5
416
330
413
100
AcDbEntity
  8
LC-006-003-----0
 62
     2
370
    -2
100
AcDbLine
 10
530.742717
 20
397.646
 30
0.0
 11
530.742717
 21
-6.354
 31
0.0
  0
SOLID
  5
417
330
413
100
AcDbEntity
  8
LC-006-003-----0
 62
     2
100
AcDbTrace
 10
535.409384
 20
397.646
 30
0.0
 11
526.07605
 21
397.646
 31
0.0
 12
530.742717
 22
425.646
 32
0.0
 13
530.742717
 23
425.646
 33
0.0
  0
SOLID
  5
418
330
413
100
AcDbEntity
  8
LC-006-003-----0
 62
     2
100
AcDbTrace
 10
526.07605
 20
-6.354
 30
0.0
 11
535.409384
 21
-6.354
 31
0.0
 12
530.742717
 22
-34.354
 32
0.0
 13
530.742717
 23
-34.354
 33
0.0
  0
MTEXT
  5
419
330
413
100
AcDbEntity
  8
LC-006-003-----0
 62
     2
100
AcDbMText
 10
499.942717
 20
195.646
 30
0.0
 40
28.0
 41
0.0
 71
     5
 72
     1
  1
\A1;460
  7
LCTX15-400-0-0pDIN-Schrift
 11
6.123031769111886E-17
 21
1.0
 31
0.0
 73
     1
 44
1.0
  0
POINT
  5
41A
330
413
100
AcDbEntity
  8
Defpoints
 62
     0
100
AcDbPoint
 10
471.111268
 20
425.646
 30
0.0
  0
POINT
  5
41B
330
413
100
AcDbEntity
  8
Defpoints
 62
     0
100
AcDbPoint
 10
297.008382
 20
-34.354
 30
0.0
  0
POINT
  5
41C
330
413
100
AcDbEntity
  8
Defpoints
 62
     0
100
AcDbPoint
 10
530.742717
 20
-34.354
 30
0.0
  0
ENDBLK
  5
41E
330
413
100
AcDbEntity
  8
0
100
AcDbBlockEnd
  0
BLOCK
  5
42A
330
420
100
AcDbEntity
  8
0
100
AcDbBlockBegin
  2
*D18
 70
     1
 71
     0
 10
0.0
 20
0.0
 30
0.0
  3
*D18
  1

  0
LINE
  5
421
330
420
100
AcDbEntity
  8
LC-006-003-----0
 62
     2
370
    -2
100
AcDbLine
 10
373.861268
 20
380.646
 30
0.0
 11
474.0
 21
380.646
 31
0.0
  0
LINE
  5
422
330
420
100
AcDbEntity
  8
LC-006-003-----0
 62
     2
370
    -2
100
AcDbLine
 10
297.008382
 20
-34.354
 30
0.0
 11
474.0
 21
-34.354
 31
0.0
  0
LINE
  5
423
330
420
100
AcDbEntity
  8
LC-006-003-----0
 62
     2
370
    -2
100
AcDbLine
 10
470.4
 20
352.646
 30
0.0
 11
470.4
 21
-6.354
 31
0.0
  0
SOLID
  5
424
330
420
100
AcDbEntity
  8
LC-006-003-----0
 62
     2
100
AcDbTrace
 10
475.066667
 20
352.646
 30
0.0
 11
465.733333
 21
352.646
 31
0.0
 12
470.4
 22
380.646
 32
0.0
 13
470.4
 23
380.646
 33
0.0
  0
SOLID
  5
425
330
420
100
AcDbEntity
  8
LC-006-003-----0
 62
     2
100
AcDbTrace
 10
465.733333
 20
-6.354
 30
0.0
 11
475.066667
 21
-6.354
 31
0.0
 12
470.4
 22
-34.354
 32
0.0
 13
470.4
 23
-34.354
 33
0.0
  0
MTEXT
  5
426
330
420
100
AcDbEntity
  8
LC-006-003-----0
 62
     2
100
AcDbMText
 10
439.6
 20
173.146
 30
0.0
 40
28.0
 41
0.0
 71
     5
 72
     1
  1
\A1;415
  7
LCTX15-400-0-0pDIN-Schrift
 11
6.123031769111886E-17
 21
1.0
 31
0.0
 73
     1
 44
1.0
  0
POINT
  5
427
330
420
100
AcDbEntity
  8
Defpoints
 62
     0
100
AcDbPoint
 10
373.861268
 20
380.646
 30
0.0
  0
POINT
  5
428
330
420
100
AcDbEntity
  8
Defpoints
 62
     0
100
AcDbPoint
 10
297.008382
 20
-34.354
 30
0.0
  0
POINT
  5
429
330
420
100
AcDbEntity
  8
Defpoints
 62
     0
100
AcDbPoint
 10
470.4
 20
-34.354
 30
0.0
  0
ENDBLK
  5
42B
330
420
100
AcDbEntity
  8
0
100
AcDbBlockEnd
  0
BLOCK
  5
438
330
42E
100
AcDbEntity
  8
0
100
AcDbBlockBegin
  2
*D19
 70
     1
 71
     0
 10
0.0
 20
0.0
 30
0.0
  3
*D19
  1

  0
LINE
  5
42F
330
42E
100
AcDbEntity
  8
LC-006-003-----0
 62
     2
370
    -2
100
AcDbLine
 10
119.111268
 20
422.646
 30
0.0
 11
119.111268
 21
521.6
 31
0.0
  0
LINE
  5
430
330
42E
100
AcDbEntity
  8
LC-006-003-----0
 62
     2
370
    -2
100
AcDbLine
 10
473.111268
 20
422.646
 30
0.0
 11
473.111268
 21
521.6
 31
0.0
  0
LINE
  5
431
330
42E
100
AcDbEntity
  8
LC-006-003-----0
 62
     2
370
    -2
100
AcDbLine
 10
147.111268
 20
518.0
 30
0.0
 11
445.111268
 21
518.0
 31
0.0
  0
SOLID
  5
432
330
42E
100
AcDbEntity
  8
LC-006-003-----0
 62
     2
100
AcDbTrace
 10
147.111268
 20
522.666667
 30
0.0
 11
147.111268
 21
513.333333
 31
0.0
 12
119.111268
 22
518.0
 32
0.0
 13
119.111268
 23
518.0
 33
0.0
  0
SOLID
  5
433
330
42E
100
AcDbEntity
  8
LC-006-003-----0
 62
     2
100
AcDbTrace
 10
445.111268
 20
513.333333
 30
0.0
 11
445.111268
 21
522.666667
 31
0.0
 12
473.111268
 22
518.0
 32
0.0
 13
473.111268
 23
518.0
 33
0.0
  0
MTEXT
  5
434
330
42E
100
AcDbEntity
  8
LC-006-003-----0
 62
     2
100
AcDbMText
 10
296.111268
 20
548.8
 30
0.0
 40
28.0
 41
0.0
 71
     5
 72
     1
  1
%%c\A1;354
  7
LCTX15-400-0-0pDIN-Schrift
 73
     1
 44
1.0
  0
POINT
  5
435
330
42E
100
AcDbEntity
  8
Defpoints
 62
     0
100
AcDbPoint
 10
119.111268
 20
422.646
 30
0.0
  0
POINT
  5
436
330
42E
100
AcDbEntity
  8
Defpoints
 62
     0
100
AcDbPoint
 10
473.111268
 20
422.646
 30
0.0
  0
POINT
  5
437
330
42E
100
AcDbEntity
  8
Defpoints
 62
     0
100
AcDbPoint
 10
473.111268
 20
518.0
 30
0.0
  0
ENDBLK
  5
439
330
42E
100
AcDbEntity
  8
0
100
AcDbBlockEnd
  0
BLOCK
  5
445
330
43B
100
AcDbEntity
  8
0
100
AcDbBlockBegin
  2
*D20
 70
     1
 71
     0
 10
0.0
 20
0.0
 30
0.0
  3
*D20
  1

  0
LINE
  5
43C
330
43B
100
AcDbEntity
  8
LC-006-003-----0
 62
     2
370
    -2
100
AcDbLine
 10
222.611268
 20
380.646
 30
0.0
 11
222.611268
 21
332.4
 31
0.0
  0
LINE
  5
43D
330
43B
100
AcDbEntity
  8
LC-006-003-----0
 62
     2
370
    -2
100
AcDbLine
 10
369.611268
 20
380.646
 30
0.0
 11
369.611268
 21
332.4
 31
0.0
  0
LINE
  5
43E
330
43B
100
AcDbEntity
  8
LC-006-003-----0
 62
     2
370
    -2
100
AcDbLine
 10
250.611268
 20
336.0
 30
0.0
 11
341.611268
 21
336.0
 31
0.0
  0
SOLID
  5
43F
330
43B
100
AcDbEntity
  8
LC-006-003-----0
 62
     2
100
AcDbTrace
 10
250.611268
 20
340.666667
 30
0.0
 11
250.611268
 21
331.333333
 31
0.0
 12
222.611268
 22
336.0
 32
0.0
 13
222.611268
 23
336.0
 33
0.0
  0
SOLID
  5
440
330
43B
100
AcDbEntity
  8
LC-006-003-----0
 62
     2
100
AcDbTrace
 10
341.611268
 20
331.333333
 30
0.0
 11
341.611268
 21
340.666667
 31
0.0
 12
369.611268
 22
336.0
 32
0.0
 13
369.611268
 23
336.0
 33
0.0
  0
MTEXT
  5
441
330
43B
100
AcDbEntity
  8
LC-006-003-----0
 62
     2
100
AcDbMText
 10
296.111268
 20
366.8
 30
0.0
 40
28.0
 41
0.0
 71
     5
 72
     1
  1
%%c\A1;147
  7
LCTX15-400-0-0pDIN-Schrift
 73
     1
 44
1.0
  0
POINT
  5
442
330
43B
100
AcDbEntity
  8
Defpoints
 62
     0
100
AcDbPoint
 10
222.611268
 20
380.646
 30
0.0
  0
POINT
  5
443
330
43B
100
AcDbEntity
  8
Defpoints
 62
     0
100
AcDbPoint
 10
369.611268
 20
380.646
 30
0.0
  0
POINT
  5
444
330
43B
100
AcDbEntity
  8
Defpoints
 62
     0
100
AcDbPoint
 10
369.611268
 20
336.0
 30
0.0
  0
ENDBLK
  5
446
330
43B
100
AcDbEntity
  8
0
100
AcDbBlockEnd
  0
BLOCK
  5
46B
330
46A
100
AcDbEntity
  8
0
100
AcDbBlockBegin
  2
*X1721
 70
     1
 71
     0
 10
0.0
 20
0.0
 30
0.0
  3
*X1721
  1

  4
*X17
  0
LINE
  5
46D
330
46A
100
AcDbEntity
  8
LC-003-005-----0
 62
     7
370
    25
100
AcDbLine
 10
207.638133
 20
425.222436
 30
0.0
 11
207.495564
 21
425.365005
 31
0.0
  0
LINE
  5
46E
330
46A
100
AcDbEntity
  8
LC-003-005-----0
 62
     7
370
    25
100
AcDbLine
 10
207.490901
 20
424.662561
 30
0.0
 11
207.031635
 21
425.121828
 31
0.0
  0
LINE
  5
46F
330
46A
100
AcDbEntity
  8
LC-003-005-----0
 62
     7
370
    25
100
AcDbLine
 10
207.026972
 20
424.419384
 30
0.0
 11
206.567705
 21
424.87865
 31
0.0
  0
LINE
  5
470
330
46A
100
AcDbEntity
  8
LC-003-005-----0
 62
     7
370
    25
100
AcDbLine
 10
206.563043
 20
424.176206
 30
0.0
 11
205.999514
 21
424.739735
 31
0.0
  0
LINE
  5
471
330
46A
100
AcDbEntity
  8
LC-003-005-----0
 62
     7
370
    25
100
AcDbLine
 10
205.992407
 20
424.039735
 30
0.0
 11
205.357759
 21
424.674383
 31
0.0
  0
LINE
  5
472
330
46A
100
AcDbEntity
  8
LC-003-005-----0
 62
     7
370
    25
100
AcDbLine
 10
198.957759
 20
424.710422
 30
0.0
 11
198.928446
 21
424.739735
 31
0.0
  0
LINE
  5
473
330
46A
100
AcDbEntity
  8
LC-003-005-----0
 62
     7
370
    25
100
AcDbLine
 10
198.921339
 20
424.039735
 30
0.0
 11
198.221339
 21
424.739735
 31
0.0
  0
LINE
  5
474
330
46A
100
AcDbEntity
  8
LC-003-005-----0
 62
     7
370
    25
100
AcDbLine
 10
198.214232
 20
424.039735
 30
0.0
 11
197.685703
 21
424.568264
 31
0.0
  0
LINE
  5
475
330
46A
100
AcDbEntity
  8
LC-003-005-----0
 62
     7
370
    25
100
AcDbLine
 10
197.68104
 20
423.86582
 30
0.0
 11
197.221774
 21
424.325087
 31
0.0
  0
LINE
  5
476
330
46A
100
AcDbEntity
  8
LC-003-005-----0
 62
     7
370
    25
100
AcDbLine
 10
197.217111
 20
423.622643
 30
0.0
 11
196.757844
 21
424.08191
 31
0.0
  0
LINE
  5
477
330
46A
100
AcDbEntity
  8
LC-003-005-----0
 62
     7
370
    25
100
AcDbLine
 10
196.753182
 20
423.379466
 30
0.0
 11
196.677385
 21
423.455262
 31
0.0
  0
ENDBLK
  5
46C
330
46A
100
AcDbEntity
  8
0
100
AcDbBlockEnd
  0
BLOCK
  5
490
330
48F
100
AcDbEntity
  8
0
100
AcDbBlockBegin
  2
*X1822
 70
     1
 71
     0
 10
0.0
 20
0.0
 30
0.0
  3
*X1822
  1

  4
*X18
  0
LINE
  5
492
330
48F
100
AcDbEntity
  8
LC-003-005-----0
 62
     7
370
    25
100
AcDbLine
 10
395.545151
 20
423.991608
 30
0.0
 11
395.444008
 21
424.092751
 31
0.0
  0
LINE
  5
493
330
48F
100
AcDbEntity
  8
LC-003-005-----0
 62
     7
370
    25
100
AcDbLine
 10
395.429072
 20
423.40058
 30
0.0
 11
394.089917
 21
424.739735
 31
0.0
  0
LINE
  5
494
330
48F
100
AcDbEntity
  8
LC-003-005-----0
 62
     7
370
    25
100
AcDbLine
 10
394.082811
 20
424.039735
 30
0.0
 11
393.382811
 21
424.739735
 31
0.0
  0
LINE
  5
495
330
48F
100
AcDbEntity
  8
LC-003-005-----0
 62
     7
370
    25
100
AcDbLine
 10
393.375704
 20
424.039735
 30
0.0
 11
393.264777
 21
424.150662
 31
0.0
  0
LINE
  5
496
330
48F
100
AcDbEntity
  8
LC-003-005-----0
 62
     7
370
    25
100
AcDbLine
 10
386.864777
 20
424.186701
 30
0.0
 11
386.311743
 21
424.739735
 31
0.0
  0
LINE
  5
497
330
48F
100
AcDbEntity
  8
LC-003-005-----0
 62
     7
370
    25
100
AcDbLine
 10
386.304636
 20
424.039735
 30
0.0
 11
385.2574
 21
425.086971
 31
0.0
  0
LINE
  5
498
330
48F
100
AcDbEntity
  8
LC-003-005-----0
 62
     7
370
    25
100
AcDbLine
 10
385.242464
 20
424.3948
 30
0.0
 11
384.584404
 21
425.052861
 31
0.0
  0
ENDBLK
  5
491
330
48F
100
AcDbEntity
  8
0
100
AcDbBlockEnd
  0
BLOCK
  5
4BA
330
4B0
100
AcDbEntity
  8
0
100
AcDbBlockBegin
  2
*D23
 70
     1
 71
     0
 10
0.0
 20
0.0
 30
0.0
  3
*D23
  1

  0
LINE
  5
4B1
330
4B0
100
AcDbEntity
  8
LC-006-003-----0
 62
     2
370
    -2
100
AcDbLine
 10
251.111268
 20
-29.854
 30
0.0
 11
251.111268
 21
-94.954713
 31
0.0
  0
LINE
  5
4B2
330
4B0
100
AcDbEntity
  8
LC-006-003-----0
 62
     2
370
    -2
100
AcDbLine
 10
341.111268
 20
-29.854
 30
0.0
 11
341.111268
 21
-94.954713
 31
0.0
  0
LINE
  5
4B3
330
4B0
100
AcDbEntity
  8
LC-006-003-----0
 62
     2
370
    -2
100
AcDbLine
 10
279.111268
 20
-91.354713
 30
0.0
 11
313.111268
 21
-91.354713
 31
0.0
  0
SOLID
  5
4B4
330
4B0
100
AcDbEntity
  8
LC-006-003-----0
 62
     2
100
AcDbTrace
 10
279.111268
 20
-86.688046
 30
0.0
 11
279.111268
 21
-96.021379
 31
0.0
 12
251.111268
 22
-91.354713
 32
0.0
 13
251.111268
 23
-91.354713
 33
0.0
  0
SOLID
  5
4B5
330
4B0
100
AcDbEntity
  8
LC-006-003-----0
 62
     2
100
AcDbTrace
 10
313.111268
 20
-96.021379
 30
0.0
 11
313.111268
 21
-86.688046
 31
0.0
 12
341.111268
 22
-91.354713
 32
0.0
 13
341.111268
 23
-91.354713
 33
0.0
  0
MTEXT
  5
4B6
330
4B0
100
AcDbEntity
  8
LC-006-003-----0
 62
     2
100
AcDbMText
 10
291.745914
 20
-60.554713
 30
0.0
 40
28.0
 41
0.0
 71
     5
 72
     1
  1
%%c\A1;90
  7
LCTX15-400-0-0pDIN-Schrift
 73
     1
 44
1.0
  0
POINT
  5
4B7
330
4B0
100
AcDbEntity
  8
Defpoints
 62
     0
100
AcDbPoint
 10
251.111268
 20
-29.854
 30
0.0
  0
POINT
  5
4B8
330
4B0
100
AcDbEntity
  8
Defpoints
 62
     0
100
AcDbPoint
 10
341.111268
 20
-29.854
 30
0.0
  0
POINT
  5
4B9
330
4B0
100
AcDbEntity
  8
Defpoints
 62
     0
100
AcDbPoint
 10
341.111268
 20
-91.354713
 30
0.0
  0
ENDBLK
  5
4BB
330
4B0
100
AcDbEntity
  8
0
100
AcDbBlockEnd
  0
BLOCK
  5
4C7
330
4BD
100
AcDbEntity
  8
0
100
AcDbBlockBegin
  2
*D24
 70
     1
 71
     0
 10
0.0
 20
0.0
 30
0.0
  3
*D24
  1

  0
LINE
  5
4BE
330
4BD
100
AcDbEntity
  8
LC-006-003-----0
 62
     2
370
    -2
100
AcDbLine
 10
234.611268
 20
-20.796834
 30
0.0
 11
234.639149
 21
-151.84908
 31
0.0
  0
LINE
  5
4BF
330
4BD
100
AcDbEntity
  8
LC-006-003-----0
 62
     2
370
    -2
100
AcDbLine
 10
357.610583
 20
-20.770666
 30
0.0
 11
357.638464
 21
-151.822912
 31
0.0
  0
LINE
  5
4C0
330
4BD
100
AcDbEntity
  8
LC-006-003-----0
 62
     2
370
    -2
100
AcDbLine
 10
262.638383
 20
-148.243124
 30
0.0
 11
329.637699
 21
-148.228869
 31
0.0
  0
SOLID
  5
4C1
330
4BD
100
AcDbEntity
  8
LC-006-003-----0
 62
     2
100
AcDbTrace
 10
262.63739
 20
-143.576457
 30
0.0
 11
262.639376
 21
-152.90979
 31
0.0
 12
234.638383
 22
-148.249081
 32
0.0
 13
234.638383
 23
-148.249081
 33
0.0
  0
SOLID
  5
4C2
330
4BD
100
AcDbEntity
  8
LC-006-003-----0
 62
     2
100
AcDbTrace
 10
329.638692
 20
-152.895536
 30
0.0
 11
329.636706
 21
-143.562203
 31
0.0
 12
357.637698
 22
-148.222913
 32
0.0
 13
357.637698
 23
-148.222913
 33
0.0
  0
MTEXT
  5
4C3
330
4BD
100
AcDbEntity
  8
LC-006-003-----0
 62
     2
100
AcDbMText
 10
294.111995
 20
-117.436427
 30
0.0
 40
28.0
 41
0.0
 71
     5
 72
     1
  1
%%c\A1;123
  7
LCTX15-400-0-0pDIN-Schrift
 11
0.9999999773689371
 21
0.0002127489724977822
 31
0.0
 73
     1
 44
1.0
  0
POINT
  5
4C4
330
4BD
100
AcDbEntity
  8
Defpoints
 62
     0
100
AcDbPoint
 10
234.611268
 20
-20.796834
 30
0.0
  0
POINT
  5
4C5
330
4BD
100
AcDbEntity
  8
Defpoints
 62
     0
100
AcDbPoint
 10
357.610583
 20
-20.770666
 30
0.0
  0
POINT
  5
4C6
330
4BD
100
AcDbEntity
  8
Defpoints
 62
     0
100
AcDbPoint
 10
357.637698
 20
-148.222913
 30
0.0
  0
ENDBLK
  5
4C8
330
4BD
100
AcDbEntity
  8
0
100
AcDbBlockEnd
  0
BLOCK
  5
56A
330
569
100
AcDbEntity
  8
0
100
AcDbBlockBegin
  2
*X1925
 70
     1
 71
     0
 10
0.0
 20
0.0
 30
0.0
  3
*X1925
  1

  4
*X19
  0
LINE
  5
56C
330
569
100
AcDbEntity
  8
LC-003-005-----0
  6
DASHED
 62
     7
370
    25
100
AcDbLine
 10
353.650207
 20
274.260615
 30
0.0
 11
352.28368
 21
275.627142
 31
0.0
  0
LINE
  5
56D
330
569
100
AcDbEntity
  8
LC-003-005-----0
  6
DASHED
 62
     7
370
    25
100
AcDbLine
 10
349.811075
 20
273.857106
 30
0.0
 11
348.041039
 21
275.627142
 31
0.0
  0
LINE
  5
56E
330
569
100
AcDbEntity
  8
LC-003-005-----0
 62
     7
370
    25
100
AcDbLine
 10
342.367283
 20
272.815616
 30
0.0
 11
341.111268
 21
274.071632
 31
0.0
  0
LINE
  5
56F
330
569
100
AcDbEntity
  8
LC-003-005-----0
 62
     7
370
    25
100
AcDbLine
 10
342.111268
 20
268.828991
 30
0.0
 11
341.111268
 21
269.828991
 31
0.0
  0
LINE
  5
570
330
569
100
AcDbEntity
  8
LC-003-005-----0
  6
DASHED
 62
     7
370
    25
100
AcDbLine
 10
352.930353
 20
249.524624
 30
0.0
 11
351.488167
 21
250.96681
 31
0.0
  0
LINE
  5
571
330
569
100
AcDbEntity
  8
LC-003-005-----0
  6
DASHED
 62
     7
370
    25
100
AcDbLine
 10
342.111268
 20
260.343709
 30
0.0
 11
341.111268
 21
261.343709
 31
0.0
  0
LINE
  5
572
330
569
100
AcDbEntity
  8
LC-003-005-----0
  6
DASHED
 62
     7
370
    25
100
AcDbLine
 10
349.091222
 20
249.121115
 30
0.0
 11
347.245527
 21
250.96681
 31
0.0
  0
LINE
  5
573
330
569
100
AcDbEntity
  8
LC-003-005-----0
  6
DASHED
 62
     7
370
    25
100
AcDbLine
 10
342.111268
 20
256.101069
 30
0.0
 11
341.111268
 21
257.101069
 31
0.0
  0
LINE
  5
574
330
569
100
AcDbEntity
  8
LC-003-005-----0
 62
     7
370
    25
100
AcDbLine
 10
342.118654
 20
247.608402
 30
0.0
 11
341.111268
 21
248.615787
 31
0.0
  0
LINE
  5
575
330
569
100
AcDbEntity
  8
LC-003-005-----0
 62
     7
370
    25
100
AcDbLine
 10
342.111268
 20
243.373147
 30
0.0
 11
341.111268
 21
244.373147
 31
0.0
  0
LINE
  5
576
330
569
100
AcDbEntity
  8
LC-003-005-----0
  6
DASHED
 62
     7
370
    25
100
AcDbLine
 10
352.2105
 20
224.788633
 30
0.0
 11
350.692655
 21
226.306479
 31
0.0
  0
LINE
  5
577
330
569
100
AcDbEntity
  8
LC-003-005-----0
  6
DASHED
 62
     7
370
    25
100
AcDbLine
 10
342.111268
 20
234.887865
 30
0.0
 11
341.111268
 21
235.887865
 31
0.0
  0
LINE
  5
578
330
569
100
AcDbEntity
  8
LC-003-005-----0
  6
DASHED
 62
     7
370
    25
100
AcDbLine
 10
348.371368
 20
224.385124
 30
0.0
 11
346.450014
 21
226.306479
 31
0.0
  0
LINE
  5
579
330
569
100
AcDbEntity
  8
LC-003-005-----0
  6
DASHED
 62
     7
370
    25
100
AcDbLine
 10
342.111268
 20
230.645225
 30
0.0
 11
341.111268
 21
231.645225
 31
0.0
  0
LINE
  5
57A
330
569
100
AcDbEntity
  8
LC-003-005-----0
 62
     7
370
    25
100
AcDbLine
 10
342.111268
 20
222.159943
 30
0.0
 11
341.111268
 21
223.159943
 31
0.0
  0
LINE
  5
57B
330
569
100
AcDbEntity
  8
LC-003-005-----0
 62
     7
370
    25
100
AcDbLine
 10
342.111268
 20
217.917303
 30
0.0
 11
341.111268
 21
218.917303
 31
0.0
  0
LINE
  5
57C
330
569
100
AcDbEntity
  8
LC-003-005-----0
  6
DASHED
 62
     7
370
    25
100
AcDbLine
 10
351.490647
 20
200.052642
 30
0.0
 11
349.897142
 21
201.646148
 31
0.0
  0
LINE
  5
57D
330
569
100
AcDbEntity
  8
LC-003-005-----0
  6
DASHED
 62
     7
370
    25
100
AcDbLine
 10
342.111268
 20
209.432021
 30
0.0
 11
341.111268
 21
210.432021
 31
0.0
  0
LINE
  5
57E
330
569
100
AcDbEntity
  8
LC-003-005-----0
  6
DASHED
 62
     7
370
    25
100
AcDbLine
 10
347.651515
 20
199.649133
 30
0.0
 11
345.654501
 21
201.646148
 31
0.0
  0
LINE
  5
57F
330
569
100
AcDbEntity
  8
LC-003-005-----0
  6
DASHED
 62
     7
370
    25
100
AcDbLine
 10
342.111268
 20
205.189381
 30
0.0
 11
341.111268
 21
206.189381
 31
0.0
  0
LINE
  5
580
330
569
100
AcDbEntity
  8
LC-003-005-----0
 62
     7
370
    25
100
AcDbLine
 10
342.111268
 20
196.704099
 30
0.0
 11
341.111268
 21
197.704099
 31
0.0
  0
LINE
  5
581
330
569
100
AcDbEntity
  8
LC-003-005-----0
 62
     7
370
    25
100
AcDbLine
 10
342.111268
 20
192.461458
 30
0.0
 11
341.111268
 21
193.461458
 31
0.0
  0
LINE
  5
582
330
569
100
AcDbEntity
  8
LC-003-005-----0
  6
DASHED
 62
     7
370
    25
100
AcDbLine
 10
350.770794
 20
175.316651
 30
0.0
 11
349.101629
 21
176.985816
 31
0.0
  0
LINE
  5
583
330
569
100
AcDbEntity
  8
LC-003-005-----0
  6
DASHED
 62
     7
370
    25
100
AcDbLine
 10
342.111268
 20
183.976177
 30
0.0
 11
341.111268
 21
184.976177
 31
0.0
  0
LINE
  5
584
330
569
100
AcDbEntity
  8
LC-003-005-----0
  6
DASHED
 62
     7
370
    25
100
AcDbLine
 10
251.111268
 20
274.976177
 30
0.0
 11
250.460304
 21
275.627142
 31
0.0
  0
LINE
  5
585
330
569
100
AcDbEntity
  8
LC-003-005-----0
  6
DASHED
 62
     7
370
    25
100
AcDbLine
 10
346.931662
 20
174.913142
 30
0.0
 11
344.858988
 21
176.985816
 31
0.0
  0
LINE
  5
586
330
569
100
AcDbEntity
  8
LC-003-005-----0
  6
DASHED
 62
     7
370
    25
100
AcDbLine
 10
342.111268
 20
179.733536
 30
0.0
 11
341.111268
 21
180.733536
 31
0.0
  0
LINE
  5
587
330
569
100
AcDbEntity
  8
LC-003-005-----0
  6
DASHED
 62
     7
370
    25
100
AcDbLine
 10
251.111268
 20
270.733536
 30
0.0
 11
250.111268
 21
271.733536
 31
0.0
  0
LINE
  5
588
330
569
100
AcDbEntity
  8
LC-003-005-----0
  6
DASHED
 62
     7
370
    25
100
AcDbLine
 10
248.642619
 20
273.202185
 30
0.0
 11
246.217663
 21
275.627142
 31
0.0
  0
LINE
  5
589
330
569
100
AcDbEntity
  8
LC-003-005-----0
 62
     7
370
    25
100
AcDbLine
 10
342.111268
 20
171.248255
 30
0.0
 11
341.111268
 21
172.248255
 31
0.0
  0
LINE
  5
58A
330
569
100
AcDbEntity
  8
LC-003-005-----0
 62
     7
370
    25
100
AcDbLine
 10
251.111268
 20
262.248255
 30
0.0
 11
250.111268
 21
263.248255
 31
0.0
  0
LINE
  5
58B
330
569
100
AcDbEntity
  8
LC-003-005-----0
 62
     7
370
    25
100
AcDbLine
 10
239.160754
 20
274.198769
 30
0.0
 11
237.732382
 21
275.627142
 31
0.0
  0
LINE
  5
58C
330
569
100
AcDbEntity
  8
LC-003-005-----0
 62
     7
370
    25
100
AcDbLine
 10
357.543222
 20
151.57366
 30
0.0
 11
356.791398
 21
152.325485
 31
0.0
  0
LINE
  5
58D
330
569
100
AcDbEntity
  8
LC-003-005-----0
 62
     7
370
    25
100
AcDbLine
 10
342.111268
 20
167.005614
 30
0.0
 11
341.111268
 21
168.005614
 31
0.0
  0
LINE
  5
58E
330
569
100
AcDbEntity
  8
LC-003-005-----0
 62
     7
370
    25
100
AcDbLine
 10
251.111268
 20
258.005614
 30
0.0
 11
250.111268
 21
259.005614
 31
0.0
  0
LINE
  5
58F
330
569
100
AcDbEntity
  8
LC-003-005-----0
  6
DASHED
 62
     7
370
    25
100
AcDbLine
 10
350.050941
 20
150.58066
 30
0.0
 11
348.306116
 21
152.325485
 31
0.0
  0
LINE
  5
590
330
569
100
AcDbEntity
  8
LC-003-005-----0
  6
DASHED
 62
     7
370
    25
100
AcDbLine
 10
342.111268
 20
158.520333
 30
0.0
 11
341.111268
 21
159.520333
 31
0.0
  0
LINE
  5
591
330
569
100
AcDbEntity
  8
LC-003-005-----0
  6
DASHED
 62
     7
370
    25
100
AcDbLine
 10
251.111268
 20
249.520333
 30
0.0
 11
249.662191
 21
250.96941
 31
0.0
  0
LINE
  5
592
330
569
100
AcDbEntity
  8
LC-003-005-----0
  6
DASHED
 62
     7
370
    25
100
AcDbLine
 10
346.211809
 20
150.177151
 30
0.0
 11
344.063475
 21
152.325485
 31
0.0
  0
LINE
  5
593
330
569
100
AcDbEntity
  8
LC-003-005-----0
  6
DASHED
 62
     7
370
    25
100
AcDbLine
 10
342.111268
 20
154.277692
 30
0.0
 11
341.111268
 21
155.277692
 31
0.0
  0
LINE
  5
594
330
569
100
AcDbEntity
  8
LC-003-005-----0
  6
DASHED
 62
     7
370
    25
100
AcDbLine
 10
251.111268
 20
245.277692
 30
0.0
 11
250.111268
 21
246.277692
 31
0.0
  0
LINE
  5
595
330
569
100
AcDbEntity
  8
LC-003-005-----0
  6
DASHED
 62
     7
370
    25
100
AcDbLine
 10
247.753675
 20
248.635286
 30
0.0
 11
245.42215
 21
250.96681
 31
0.0
  0
LINE
  5
596
330
569
100
AcDbEntity
  8
LC-003-005-----0
 62
     7
370
    25
100
AcDbLine
 10
342.111268
 20
145.792411
 30
0.0
 11
341.111268
 21
146.792411
 31
0.0
  0
LINE
  5
597
330
569
100
AcDbEntity
  8
LC-003-005-----0
 62
     7
370
    25
100
AcDbLine
 10
251.111268
 20
236.792411
 30
0.0
 11
250.111268
 21
237.792411
 31
0.0
  0
LINE
  5
598
330
569
100
AcDbEntity
  8
LC-003-005-----0
 62
     7
370
    25
100
AcDbLine
 10
238.271809
 20
249.63187
 30
0.0
 11
236.936869
 21
250.96681
 31
0.0
  0
LINE
  5
599
330
569
100
AcDbEntity
  8
LC-003-005-----0
 62
     7
370
    25
100
AcDbLine
 10
357.009351
 20
126.651688
 30
0.0
 11
355.995885
 21
127.665154
 31
0.0
  0
LINE
  5
59A
330
569
100
AcDbEntity
  8
LC-003-005-----0
 62
     7
370
    25
100
AcDbLine
 10
342.111268
 20
141.54977
 30
0.0
 11
341.111268
 21
142.54977
 31
0.0
  0
LINE
  5
59B
330
569
100
AcDbEntity
  8
LC-003-005-----0
 62
     7
370
    25
100
AcDbLine
 10
251.111268
 20
232.54977
 30
0.0
 11
250.111268
 21
233.54977
 31
0.0
  0
LINE
  5
59C
330
569
100
AcDbEntity
  8
LC-003-005-----0
  6
DASHED
 62
     7
370
    25
100
AcDbLine
 10
349.331087
 20
125.84467
 30
0.0
 11
347.510603
 21
127.665154
 31
0.0
  0
LINE
  5
59D
330
569
100
AcDbEntity
  8
LC-003-005-----0
  6
DASHED
 62
     7
370
    25
100
AcDbLine
 10
342.111268
 20
133.064489
 30
0.0
 11
341.111268
 21
134.064489
 31
0.0
  0
LINE
  5
59E
330
569
100
AcDbEntity
  8
LC-003-005-----0
  6
DASHED
 62
     7
370
    25
100
AcDbLine
 10
251.111268
 20
224.064489
 30
0.0
 11
248.869278
 21
226.306479
 31
0.0
  0
LINE
  5
59F
330
569
100
AcDbEntity
  8
LC-003-005-----0
  6
DASHED
 62
     7
370
    25
100
AcDbLine
 10
345.491956
 20
125.441161
 30
0.0
 11
343.267963
 21
127.665154
 31
0.0
  0
LINE
  5
5A0
330
569
100
AcDbEntity
  8
LC-003-005-----0
  6
DASHED
 62
     7
370
    25
100
AcDbLine
 10
342.111268
 20
128.821848
 30
0.0
 11
341.111268
 21
129.821848
 31
0.0
  0
LINE
  5
5A1
330
569
100
AcDbEntity
  8
LC-003-005-----0
  6
DASHED
 62
     7
370
    25
100
AcDbLine
 10
251.111268
 20
219.821848
 30
0.0
 11
250.111268
 21
220.821848
 31
0.0
  0
LINE
  5
5A2
330
569
100
AcDbEntity
  8
LC-003-005-----0
  6
DASHED
 62
     7
370
    25
100
AcDbLine
 10
246.86473
 20
224.068386
 30
0.0
 11
244.626637
 21
226.306479
 31
0.0
  0
LINE
  5
5A3
330
569
100
AcDbEntity
  8
LC-003-005-----0
 62
     7
370
    25
100
AcDbLine
 10
342.111268
 20
120.336567
 30
0.0
 11
341.111268
 21
121.336567
 31
0.0
  0
LINE
  5
5A4
330
569
100
AcDbEntity
  8
LC-003-005-----0
 62
     7
370
    25
100
AcDbLine
 10
251.111268
 20
211.336567
 30
0.0
 11
250.111268
 21
212.336567
 31
0.0
  0
LINE
  5
5A5
330
569
100
AcDbEntity
  8
LC-003-005-----0
 62
     7
370
    25
100
AcDbLine
 10
237.382865
 20
225.06497
 30
0.0
 11
236.141356
 21
226.306479
 31
0.0
  0
LINE
  5
5A6
330
569
100
AcDbEntity
  8
LC-003-005-----0
 62
     7
370
    25
100
AcDbLine
 10
356.289498
 20
101.915697
 30
0.0
 11
355.200372
 21
103.004822
 31
0.0
  0
LINE
  5
5A7
330
569
100
AcDbEntity
  8
LC-003-005-----0
 62
     7
370
    25
100
AcDbLine
 10
342.111268
 20
116.093926
 30
0.0
 11
341.111268
 21
117.093926
 31
0.0
  0
LINE
  5
5A8
330
569
100
AcDbEntity
  8
LC-003-005-----0
 62
     7
370
    25
100
AcDbLine
 10
251.111268
 20
207.093926
 30
0.0
 11
250.111268
 21
208.093926
 31
0.0
  0
LINE
  5
5A9
330
569
100
AcDbEntity
  8
LC-003-005-----0
  6
DASHED
 62
     7
370
    25
100
AcDbLine
 10
348.611234
 20
101.108679
 30
0.0
 11
346.715091
 21
103.004822
 31
0.0
  0
LINE
  5
5AA
330
569
100
AcDbEntity
  8
LC-003-005-----0
  6
DASHED
 62
     7
370
    25
100
AcDbLine
 10
342.111268
 20
107.608645
 30
0.0
 11
341.111268
 21
108.608645
 31
0.0
  0
LINE
  5
5AB
330
569
100
AcDbEntity
  8
LC-003-005-----0
  6
DASHED
 62
     7
370
    25
100
AcDbLine
 10
251.111268
 20
198.608645
 30
0.0
 11
248.073765
 21
201.646148
 31
0.0
  0
LINE
  5
5AC
330
569
100
AcDbEntity
  8
LC-003-005-----0
  6
DASHED
 62
     7
370
    25
100
AcDbLine
 10
344.772103
 20
100.70517
 30
0.0
 11
342.443443
 21
103.033829
 31
0.0
  0
LINE
  5
5AD
330
569
100
AcDbEntity
  8
LC-003-005-----0
  6
DASHED
 62
     7
370
    25
100
AcDbLine
 10
342.140275
 20
103.336997
 30
0.0
 11
341.111268
 21
104.366004
 31
0.0
  0
LINE
  5
5AE
330
569
100
AcDbEntity
  8
LC-003-005-----0
  6
DASHED
 62
     7
370
    25
100
AcDbLine
 10
251.111268
 20
194.366004
 30
0.0
 11
250.111268
 21
195.366004
 31
0.0
  0
LINE
  5
5AF
330
569
100
AcDbEntity
  8
LC-003-005-----0
  6
DASHED
 62
     7
370
    25
100
AcDbLine
 10
245.975786
 20
199.501487
 30
0.0
 11
243.831125
 21
201.646148
 31
0.0
  0
LINE
  5
5B0
330
569
100
AcDbEntity
  8
LC-003-005-----0
 62
     7
370
    25
100
AcDbLine
 10
342.111268
 20
94.880723
 30
0.0
 11
341.111268
 21
95.880723
 31
0.0
  0
LINE
  5
5B1
330
569
100
AcDbEntity
  8
LC-003-005-----0
 62
     7
370
    25
100
AcDbLine
 10
251.111268
 20
185.880723
 30
0.0
 11
250.111268
 21
186.880723
 31
0.0
  0
LINE
  5
5B2
330
569
100
AcDbEntity
  8
LC-003-005-----0
 62
     7
370
    25
100
AcDbLine
 10
236.49392
 20
200.498071
 30
0.0
 11
235.345843
 21
201.646148
 31
0.0
  0
LINE
  5
5B3
330
569
100
AcDbEntity
  8
LC-003-005-----0
 62
     7
370
    25
100
AcDbLine
 10
355.569644
 20
77.179706
 30
0.0
 11
354.404859
 21
78.344491
 31
0.0
  0
LINE
  5
5B4
330
569
100
AcDbEntity
  8
LC-003-005-----0
 62
     7
370
    25
100
AcDbLine
 10
342.111268
 20
90.638082
 30
0.0
 11
341.111268
 21
91.638082
 31
0.0
  0
LINE
  5
5B5
330
569
100
AcDbEntity
  8
LC-003-005-----0
 62
     7
370
    25
100
AcDbLine
 10
251.111268
 20
181.638082
 30
0.0
 11
250.111268
 21
182.638082
 31
0.0
  0
LINE
  5
5B6
330
569
100
AcDbEntity
  8
LC-003-005-----0
  6
DASHED
 62
     7
370
    25
100
AcDbLine
 10
347.891381
 20
76.372688
 30
0.0
 11
345.919578
 21
78.344491
 31
0.0
  0
LINE
  5
5B7
330
569
100
AcDbEntity
  8
LC-003-005-----0
  6
DASHED
 62
     7
370
    25
100
AcDbLine
 10
342.111268
 20
82.152801
 30
0.0
 11
341.111268
 21
83.152801
 31
0.0
  0
LINE
  5
5B8
330
569
100
AcDbEntity
  8
LC-003-005-----0
  6
DASHED
 62
     7
370
    25
100
AcDbLine
 10
251.111268
 20
173.152801
 30
0.0
 11
247.278252
 21
176.985816
 31
0.0
  0
LINE
  5
5B9
330
569
100
AcDbEntity
  8
LC-003-005-----0
  6
DASHED
 62
     7
370
    25
100
AcDbLine
 10
344.052249
 20
75.969179
 30
0.0
 11
341.111268
 21
78.91016
 31
0.0
  0
LINE
  5
5BA
330
569
100
AcDbEntity
  8
LC-003-005-----0
  6
DASHED
 62
     7
370
    25
100
AcDbLine
 10
251.111268
 20
168.91016
 30
0.0
 11
250.111268
 21
169.91016
 31
0.0
  0
LINE
  5
5BB
330
569
100
AcDbEntity
  8
LC-003-005-----0
  6
DASHED
 62
     7
370
    25
100
AcDbLine
 10
245.086841
 20
174.934587
 30
0.0
 11
243.035612
 21
176.985816
 31
0.0
  0
LINE
  5
5BC
330
569
100
AcDbEntity
  8
LC-003-005-----0
 62
     7
370
    25
100
AcDbLine
 10
342.111268
 20
69.424879
 30
0.0
 11
341.111268
 21
70.424879
 31
0.0
  0
LINE
  5
5BD
330
569
100
AcDbEntity
  8
LC-003-005-----0
 62
     7
370
    25
100
AcDbLine
 10
251.111268
 20
160.424879
 30
0.0
 11
250.111268
 21
161.424879
 31
0.0
  0
LINE
  5
5BE
330
569
100
AcDbEntity
  8
LC-003-005-----0
 62
     7
370
    25
100
AcDbLine
 10
235.604975
 20
175.931171
 30
0.0
 11
234.728561
 21
176.807585
 31
0.0
  0
LINE
  5
5BF
330
569
100
AcDbEntity
  8
LC-003-005-----0
 62
     7
370
    25
100
AcDbLine
 10
354.849791
 20
52.443715
 30
0.0
 11
353.609346
 21
53.68416
 31
0.0
  0
LINE
  5
5C0
330
569
100
AcDbEntity
  8
LC-003-005-----0
 62
     7
370
    25
100
AcDbLine
 10
342.111268
 20
65.182238
 30
0.0
 11
341.111268
 21
66.182238
 31
0.0
  0
LINE
  5
5C1
330
569
100
AcDbEntity
  8
LC-003-005-----0
 62
     7
370
    25
100
AcDbLine
 10
251.111268
 20
156.182238
 30
0.0
 11
250.111268
 21
157.182238
 31
0.0
  0
LINE
  5
5C2
330
569
100
AcDbEntity
  8
LC-003-005-----0
  6
DASHED
 62
     7
370
    25
100
AcDbLine
 10
347.171528
 20
51.636697
 30
0.0
 11
345.124065
 21
53.68416
 31
0.0
  0
LINE
  5
5C3
330
569
100
AcDbEntity
  8
LC-003-005-----0
  6
DASHED
 62
     7
370
    25
100
AcDbLine
 10
342.111268
 20
56.696956
 30
0.0
 11
341.111268
 21
57.696956
 31
0.0
  0
LINE
  5
5C4
330
569
100
AcDbEntity
  8
LC-003-005-----0
  6
DASHED
 62
     7
370
    25
100
AcDbLine
 10
251.111268
 20
147.696956
 30
0.0
 11
250.111268
 21
148.696956
 31
0.0
  0
LINE
  5
5C5
330
569
100
AcDbEntity
  8
LC-003-005-----0
  6
DASHED
 62
     7
370
    25
100
AcDbLine
 10
248.938829
 20
149.869396
 30
0.0
 11
246.48274
 21
152.325485
 31
0.0
  0
LINE
  5
5C6
330
569
100
AcDbEntity
  8
LC-003-005-----0
  6
DASHED
 62
     7
370
    25
100
AcDbLine
 10
343.332396
 20
51.233188
 30
0.0
 11
341.111268
 21
53.454316
 31
0.0
  0
LINE
  5
5C7
330
569
100
AcDbEntity
  8
LC-003-005-----0
  6
DASHED
 62
     7
370
    25
100
AcDbLine
 10
251.111268
 20
143.454316
 30
0.0
 11
250.111268
 21
144.454316
 31
0.0
  0
LINE
  5
5C8
330
569
100
AcDbEntity
  8
LC-003-005-----0
  6
DASHED
 62
     7
370
    25
100
AcDbLine
 10
244.197896
 20
150.367688
 30
0.0
 11
242.240099
 21
152.325485
 31
0.0
  0
LINE
  5
5C9
330
569
100
AcDbEntity
  8
LC-003-005-----0
 62
     7
370
    25
100
AcDbLine
 10
357.608549
 20
28.471754
 30
0.0
 11
357.056474
 21
29.023828
 31
0.0
  0
LINE
  5
5CA
330
569
100
AcDbEntity
  8
LC-003-005-----0
 62
     7
370
    25
100
AcDbLine
 10
342.111268
 20
43.969034
 30
0.0
 11
341.111268
 21
44.969034
 31
0.0
  0
LINE
  5
5CB
330
569
100
AcDbEntity
  8
LC-003-005-----0
 62
     7
370
    25
100
AcDbLine
 10
251.111268
 20
134.969034
 30
0.0
 11
250.111268
 21
135.969034
 31
0.0
  0
LINE
  5
5CC
330
569
100
AcDbEntity
  8
LC-003-005-----0
 62
     7
370
    25
100
AcDbLine
 10
354.129938
 20
27.707724
 30
0.0
 11
352.813834
 21
29.023828
 31
0.0
  0
LINE
  5
5CD
330
569
100
AcDbEntity
  8
LC-003-005-----0
 62
     7
370
    25
100
AcDbLine
 10
342.111268
 20
39.726394
 30
0.0
 11
341.111268
 21
40.726394
 31
0.0
  0
LINE
  5
5CE
330
569
100
AcDbEntity
  8
LC-003-005-----0
 62
     7
370
    25
100
AcDbLine
 10
251.111268
 20
130.726394
 30
0.0
 11
250.111268
 21
131.726394
 31
0.0
  0
LINE
  5
5CF
330
569
100
AcDbEntity
  8
LC-003-005-----0
  6
DASHED
 62
     7
370
    25
100
AcDbLine
 10
346.451675
 20
26.900706
 30
0.0
 11
344.328552
 21
29.023828
 31
0.0
  0
LINE
  5
5D0
330
569
100
AcDbEntity
  8
LC-003-005-----0
  6
DASHED
 62
     7
370
    25
100
AcDbLine
 10
342.111268
 20
31.241112
 30
0.0
 11
341.111268
 21
32.241112
 31
0.0
  0
LINE
  5
5D1
330
569
100
AcDbEntity
  8
LC-003-005-----0
  6
DASHED
 62
     7
370
    25
100
AcDbLine
 10
251.111268
 20
122.241112
 30
0.0
 11
250.111268
 21
123.241112
 31
0.0
  0
LINE
  5
5D2
330
569
100
AcDbEntity
  8
LC-003-005-----0
  6
DASHED
 62
     7
370
    25
100
AcDbLine
 10
248.049884
 20
125.302496
 30
0.0
 11
245.687227
 21
127.665154
 31
0.0
  0
LINE
  5
5D3
330
569
100
AcDbEntity
  8
LC-003-005-----0
  6
DASHED
 62
     7
370
    25
100
AcDbLine
 10
342.668833
 20
26.440907
 30
0.0
 11
341.111268
 21
27.998472
 31
0.0
  0
LINE
  5
5D4
330
569
100
AcDbEntity
  8
LC-003-005-----0
  6
DASHED
 62
     7
370
    25
100
AcDbLine
 10
251.111268
 20
117.998472
 30
0.0
 11
250.111268
 21
118.998472
 31
0.0
  0
LINE
  5
5D5
330
569
100
AcDbEntity
  8
LC-003-005-----0
  6
DASHED
 62
     7
370
    25
100
AcDbLine
 10
243.308952
 20
125.800788
 30
0.0
 11
241.444586
 21
127.665154
 31
0.0
  0
LINE
  5
5D6
330
569
100
AcDbEntity
  8
LC-003-005-----0
 62
     7
370
    25
100
AcDbLine
 10
357.243233
 20
3.381226
 30
0.0
 11
356.260961
 21
4.363497
 31
0.0
  0
LINE
  5
5D7
330
569
100
AcDbEntity
  8
LC-003-005-----0
 62
     7
370
    25
100
AcDbLine
 10
342.111268
 20
18.51319
 30
0.0
 11
341.111268
 21
19.51319
 31
0.0
  0
LINE
  5
5D8
330
569
100
AcDbEntity
  8
LC-003-005-----0
 62
     7
370
    25
100
AcDbLine
 10
251.111268
 20
109.51319
 30
0.0
 11
250.111268
 21
110.51319
 31
0.0
  0
LINE
  5
5D9
330
569
100
AcDbEntity
  8
LC-003-005-----0
 62
     7
370
    25
100
AcDbLine
 10
353.410085
 20
2.971733
 30
0.0
 11
352.018321
 21
4.363497
 31
0.0
  0
LINE
  5
5DA
330
569
100
AcDbEntity
  8
LC-003-005-----0
 62
     7
370
    25
100
AcDbLine
 10
342.111268
 20
14.27055
 30
0.0
 11
341.111268
 21
15.27055
 31
0.0
  0
LINE
  5
5DB
330
569
100
AcDbEntity
  8
LC-003-005-----0
 62
     7
370
    25
100
AcDbLine
 10
251.111268
 20
105.27055
 30
0.0
 11
250.111268
 21
106.27055
 31
0.0
  0
LINE
  5
5DC
330
569
100
AcDbEntity
  8
LC-003-005-----0
  6
DASHED
 62
     7
370
    25
100
AcDbLine
 10
345.731822
 20
2.164715
 30
0.0
 11
343.533039
 21
4.363497
 31
0.0
  0
LINE
  5
5DD
330
569
100
AcDbEntity
  8
LC-003-005-----0
  6
DASHED
 62
     7
370
    25
100
AcDbLine
 10
342.111268
 20
5.785268
 30
0.0
 11
341.111268
 21
6.785268
 31
0.0
  0
LINE
  5
5DE
330
569
100
AcDbEntity
  8
LC-003-005-----0
  6
DASHED
 62
     7
370
    25
100
AcDbLine
 10
251.111268
 20
96.785268
 30
0.0
 11
250.111268
 21
97.785268
 31
0.0
  0
LINE
  5
5DF
330
569
100
AcDbEntity
  8
LC-003-005-----0
  6
DASHED
 62
     7
370
    25
100
AcDbLine
 10
247.16094
 20
100.735597
 30
0.0
 11
244.891714
 21
103.004822
 31
0.0
  0
LINE
  5
5E0
330
569
100
AcDbEntity
  8
LC-003-005-----0
  6
DASHED
 62
     7
370
    25
100
AcDbLine
 10
342.254469
 20
1.399426
 30
0.0
 11
341.111268
 21
2.542628
 31
0.0
  0
LINE
  5
5E1
330
569
100
AcDbEntity
  8
LC-003-005-----0
  6
DASHED
 62
     7
370
    25
100
AcDbLine
 10
251.111268
 20
92.542628
 30
0.0
 11
250.111268
 21
93.542628
 31
0.0
  0
LINE
  5
5E2
330
569
100
AcDbEntity
  8
LC-003-005-----0
  6
DASHED
 62
     7
370
    25
100
AcDbLine
 10
242.420007
 20
101.233889
 30
0.0
 11
240.649073
 21
103.004822
 31
0.0
  0
LINE
  5
5E3
330
569
100
AcDbEntity
  8
LC-003-005-----0
 62
     7
370
    25
100
AcDbLine
 10
356.529363
 20
-21.360749
 30
0.0
 11
355.465449
 21
-20.296834
 31
0.0
  0
LINE
  5
5E4
330
569
100
AcDbEntity
  8
LC-003-005-----0
 62
     7
370
    25
100
AcDbLine
 10
342.111268
 20
-6.942654
 30
0.0
 11
341.111268
 21
-5.942654
 31
0.0
  0
LINE
  5
5E5
330
569
100
AcDbEntity
  8
LC-003-005-----0
 62
     7
370
    25
100
AcDbLine
 10
251.111268
 20
84.057346
 30
0.0
 11
250.111268
 21
85.057346
 31
0.0
  0
LINE
  5
5E6
330
569
100
AcDbEntity
  8
LC-003-005-----0
 62
     7
370
    25
100
AcDbLine
 10
352.690232
 20
-21.764258
 30
0.0
 11
351.222808
 21
-20.296834
 31
0.0
  0
LINE
  5
5E7
330
569
100
AcDbEntity
  8
LC-003-005-----0
 62
     7
370
    25
100
AcDbLine
 10
342.111268
 20
-11.185295
 30
0.0
 11
341.111268
 21
-10.185295
 31
0.0
  0
LINE
  5
5E8
330
569
100
AcDbEntity
  8
LC-003-005-----0
 62
     7
370
    25
100
AcDbLine
 10
251.111268
 20
79.814705
 30
0.0
 11
250.111268
 21
80.814705
 31
0.0
  0
LINE
  5
5E9
330
569
100
AcDbEntity
  8
LC-003-005-----0
  6
DASHED
 62
     7
370
    25
100
AcDbLine
 10
345.011968
 20
-22.571276
 30
0.0
 11
342.737527
 21
-20.296834
 31
0.0
  0
LINE
  5
5EA
330
569
100
AcDbEntity
  8
LC-003-005-----0
  6
DASHED
 62
     7
370
    25
100
AcDbLine
 10
342.111268
 20
-19.670576
 30
0.0
 11
341.111268
 21
-18.670576
 31
0.0
  0
LINE
  5
5EB
330
569
100
AcDbEntity
  8
LC-003-005-----0
  6
DASHED
 62
     7
370
    25
100
AcDbLine
 10
251.111268
 20
71.329424
 30
0.0
 11
250.111268
 21
72.329424
 31
0.0
  0
LINE
  5
5EC
330
569
100
AcDbEntity
  8
LC-003-005-----0
  6
DASHED
 62
     7
370
    25
100
AcDbLine
 10
246.271995
 20
76.168697
 30
0.0
 11
244.096201
 21
78.344491
 31
0.0
  0
LINE
  5
5ED
330
569
100
AcDbEntity
  8
LC-003-005-----0
  6
DASHED
 62
     7
370
    25
100
AcDbLine
 10
342.08166
 20
-23.883608
 30
0.0
 11
341.111268
 21
-22.913217
 31
0.0
  0
LINE
  5
5EE
330
569
100
AcDbEntity
  8
LC-003-005-----0
  6
DASHED
 62
     7
370
    25
100
AcDbLine
 10
251.111268
 20
67.086783
 30
0.0
 11
250.111268
 21
68.086783
 31
0.0
  0
LINE
  5
5EF
330
569
100
AcDbEntity
  8
LC-003-005-----0
  6
DASHED
 62
     7
370
    25
100
AcDbLine
 10
241.531062
 20
76.666989
 30
0.0
 11
239.853561
 21
78.344491
 31
0.0
  0
LINE
  5
5F0
330
569
100
AcDbEntity
  8
LC-003-005-----0
 62
     7
370
    25
100
AcDbLine
 10
251.111268
 20
58.601502
 30
0.0
 11
250.111268
 21
59.601502
 31
0.0
  0
LINE
  5
5F1
330
569
100
AcDbEntity
  8
LC-003-005-----0
 62
     7
370
    25
100
AcDbLine
 10
251.111268
 20
54.358861
 30
0.0
 11
250.111268
 21
55.358861
 31
0.0
  0
LINE
  5
5F2
330
569
100
AcDbEntity
  8
LC-003-005-----0
  6
DASHED
 62
     7
370
    25
100
AcDbLine
 10
251.111268
 20
45.87358
 30
0.0
 11
250.111268
 21
46.87358
 31
0.0
  0
LINE
  5
5F3
330
569
100
AcDbEntity
  8
LC-003-005-----0
  6
DASHED
 62
     7
370
    25
100
AcDbLine
 10
245.38305
 20
51.601798
 30
0.0
 11
243.300688
 21
53.68416
 31
0.0
  0
LINE
  5
5F4
330
569
100
AcDbEntity
  8
LC-003-005-----0
  6
DASHED
 62
     7
370
    25
100
AcDbLine
 10
251.111268
 20
41.630939
 30
0.0
 11
250.111268
 21
42.630939
 31
0.0
  0
LINE
  5
5F5
330
569
100
AcDbEntity
  8
LC-003-005-----0
  6
DASHED
 62
     7
370
    25
100
AcDbLine
 10
240.642118
 20
52.10009
 30
0.0
 11
239.058048
 21
53.68416
 31
0.0
  0
LINE
  5
5F6
330
569
100
AcDbEntity
  8
LC-003-005-----0
 62
     7
370
    25
100
AcDbLine
 10
251.111268
 20
33.145658
 30
0.0
 11
250.111268
 21
34.145658
 31
0.0
  0
LINE
  5
5F7
330
569
100
AcDbEntity
  8
LC-003-005-----0
 62
     7
370
    25
100
AcDbLine
 10
251.111268
 20
28.903017
 30
0.0
 11
250.111268
 21
29.903017
 31
0.0
  0
LINE
  5
5F8
330
569
100
AcDbEntity
  8
LC-003-005-----0
  6
DASHED
 62
     7
370
    25
100
AcDbLine
 10
251.111268
 20
20.417736
 30
0.0
 11
250.111268
 21
21.417736
 31
0.0
  0
LINE
  5
5F9
330
569
100
AcDbEntity
  8
LC-003-005-----0
  6
DASHED
 62
     7
370
    25
100
AcDbLine
 10
244.494106
 20
27.034898
 30
0.0
 11
242.505176
 21
29.023828
 31
0.0
  0
LINE
  5
5FA
330
569
100
AcDbEntity
  8
LC-003-005-----0
  6
DASHED
 62
     7
370
    25
100
AcDbLine
 10
251.111268
 20
16.175095
 30
0.0
 11
250.111268
 21
17.175095
 31
0.0
  0
LINE
  5
5FB
330
569
100
AcDbEntity
  8
LC-003-005-----0
  6
DASHED
 62
     7
370
    25
100
AcDbLine
 10
239.753173
 20
27.53319
 30
0.0
 11
238.262535
 21
29.023828
 31
0.0
  0
LINE
  5
5FC
330
569
100
AcDbEntity
  8
LC-003-005-----0
 62
     7
370
    25
100
AcDbLine
 10
251.111268
 20
7.689814
 30
0.0
 11
250.111268
 21
8.689814
 31
0.0
  0
LINE
  5
5FD
330
569
100
AcDbEntity
  8
LC-003-005-----0
 62
     7
370
    25
100
AcDbLine
 10
251.111268
 20
3.447173
 30
0.0
 11
250.004175
 21
4.554266
 31
0.0
  0
LINE
  5
5FE
330
569
100
AcDbEntity
  8
LC-003-005-----0
  6
DASHED
 62
     7
370
    25
100
AcDbLine
 10
251.111268
 20
-5.038108
 30
0.0
 11
250.111268
 21
-4.038108
 31
0.0
  0
LINE
  5
5FF
330
569
100
AcDbEntity
  8
LC-003-005-----0
  6
DASHED
 62
     7
370
    25
100
AcDbLine
 10
243.605161
 20
2.467999
 30
0.0
 11
241.709663
 21
4.363497
 31
0.0
  0
LINE
  5
600
330
569
100
AcDbEntity
  8
LC-003-005-----0
  6
DASHED
 62
     7
370
    25
100
AcDbLine
 10
251.111268
 20
-9.280749
 30
0.0
 11
250.111268
 21
-8.280749
 31
0.0
  0
LINE
  5
601
330
569
100
AcDbEntity
  8
LC-003-005-----0
  6
DASHED
 62
     7
370
    25
100
AcDbLine
 10
238.864228
 20
2.966291
 30
0.0
 11
237.467022
 21
4.363497
 31
0.0
  0
LINE
  5
602
330
569
100
AcDbEntity
  8
LC-003-005-----0
 62
     7
370
    25
100
AcDbLine
 10
251.111268
 20
-17.76603
 30
0.0
 11
250.111268
 21
-16.76603
 31
0.0
  0
LINE
  5
603
330
569
100
AcDbEntity
  8
LC-003-005-----0
 62
     7
370
    25
100
AcDbLine
 10
251.111268
 20
-22.008671
 30
0.0
 11
249.399431
 21
-20.296834
 31
0.0
  0
LINE
  5
604
330
569
100
AcDbEntity
  8
LC-003-005-----0
  6
DASHED
 62
     7
370
    25
100
AcDbLine
 10
242.716216
 20
-22.098901
 30
0.0
 11
240.91415
 21
-20.296834
 31
0.0
  0
LINE
  5
605
330
569
100
AcDbEntity
  8
LC-003-005-----0
  6
DASHED
 62
     7
370
    25
100
AcDbLine
 10
237.975284
 20
-21.600609
 30
0.0
 11
236.671509
 21
-20.296834
 31
0.0
  0
ENDBLK
  5
56B
330
569
100
AcDbEntity
  8
0
100
AcDbBlockEnd
  0
BLOCK
  5
613
330
609
100
AcDbEntity
  8
0
100
AcDbBlockBegin
  2
*D26
 70
     1
 71
     0
 10
0.0
 20
0.0
 30
0.0
  3
*D26
  1

  0
LINE
  5
60A
330
609
100
AcDbEntity
  8
LC-006-003-----0
 62
     2
370
    -2
100
AcDbLine
 10
339.905497
 20
-34.354
 30
0.0
 11
414.666037
 21
-34.354
 31
0.0
  0
LINE
  5
60B
330
609
100
AcDbEntity
  8
LC-006-003-----0
 62
     2
370
    -2
100
AcDbLine
 10
349.568379
 20
275.62597
 30
0.0
 11
414.666037
 21
275.62597
 31
0.0
  0
LINE
  5
60C
330
609
100
AcDbEntity
  8
LC-006-003-----0
 62
     2
370
    -2
100
AcDbLine
 10
411.066037
 20
-6.354
 30
0.0
 11
411.066037
 21
247.62597
 31
0.0
  0
SOLID
  5
60D
330
609
100
AcDbEntity
  8
LC-006-003-----0
 62
     2
100
AcDbTrace
 10
406.399371
 20
-6.354
 30
0.0
 11
415.732704
 21
-6.354
 31
0.0
 12
411.066037
 22
-34.354
 32
0.0
 13
411.066037
 23
-34.354
 33
0.0
  0
SOLID
  5
60E
330
609
100
AcDbEntity
  8
LC-006-003-----0
 62
     2
100
AcDbTrace
 10
415.732704
 20
247.62597
 30
0.0
 11
406.399371
 21
247.62597
 31
0.0
 12
411.066037
 22
275.62597
 32
0.0
 13
411.066037
 23
275.62597
 33
0.0
  0
MTEXT
  5
60F
330
609
100
AcDbEntity
  8
LC-006-003-----0
 62
     2
100
AcDbMText
 10
380.266037
 20
120.635985
 30
0.0
 40
28.0
 41
0.0
 71
     5
 72
     1
  1
\A1;310
  7
LCTX15-400-0-0pDIN-Schrift
 11
6.123031769111886E-17
 21
1.0
 31
0.0
 73
     1
 44
1.0
  0
POINT
  5
610
330
609
100
AcDbEntity
  8
Defpoints
 62
     0
100
AcDbPoint
 10
339.905497
 20
-34.354
 30
0.0
  0
POINT
  5
611
330
609
100
AcDbEntity
  8
Defpoints
 62
     0
100
AcDbPoint
 10
349.568379
 20
275.62597
 30
0.0
  0
POINT
  5
612
330
609
100
AcDbEntity
  8
Defpoints
 62
     0
100
AcDbPoint
 10
411.066037
 20
275.62597
 30
0.0
  0
ENDBLK
  5
614
330
609
100
AcDbEntity
  8
0
100
AcDbBlockEnd
  0
ENDSEC
  0
SECTION
  2
ENTITIES
  0
LINE
  5
32
330
1F
100
AcDbEntity
  8
LC-001-002-----0
 62
     7
370
    50
100
AcDbLine
 10
292.807782
 20
482.011114
 30
0.0
 11
292.807782
 21
496.811114
 31
0.0
  0
LINE
  5
33
330
1F
100
AcDbEntity
  8
LC-001-002-----0
 62
     7
370
    50
100
AcDbLine
 10
238.220547
 20
456.448735
 30
0.0
 11
296.113151
 21
456.448735
 31
0.0
  0
LINE
  5
34
330
1F
100
AcDbEntity
  8
LC-001-002-----0
 62
     7
370
    50
100
AcDbLine
 10
284.31321
 20
413.111054
 30
0.0
 11
284.313238
 21
392.811053
 31
0.0
  0
LINE
  5
35
330
1F
100
AcDbEntity
  8
LC-001-002-----0
 62
     7
370
    50
100
AcDbLine
 10
227.727107
 20
421.811053
 30
0.0
 11
241.991181
 21
456.448735
 31
0.0
  0
ARC
  5
37
330
1F
100
AcDbEntity
  8
LC-002-002-RND-0
 62
     7
370
    50
100
AcDbCircle
 10
247.664511
 20
481.811052
 30
0.0
 40
15.00000000000001
100
AcDbArc
 50
90.000079
 51
160.0
  0
LINE
  5
38
330
1F
100
AcDbEntity
  8
LC-001-002-----0
 62
     7
370
    50
100
AcDbLine
 10
284.313238
 20
392.811053
 30
0.0
 11
296.077495
 21
392.811053
 31
0.0
  0
LINE
  5
39
330
1F
100
AcDbEntity
  8
LC-001-002-----0
 62
     7
370
    50
100
AcDbLine
 10
270.241557
 20
461.111053
 30
0.0
 11
274.696763
 21
482.011089
 31
0.0
  0
LINE
  5
3A
330
1F
100
AcDbEntity
  8
LC-001-002-----0
 62
     7
370
    50
100
AcDbLine
 10
210.52763
 20
423.635377
 30
0.0
 11
213.451412
 21
431.668402
 31
0.0
  0
LINE
  5
3B
330
1F
100
AcDbEntity
  8
LC-001-002-----0
 62
     7
370
    50
100
AcDbLine
 10
225.613472
 20
414.111053
 30
0.0
 11
283.464127
 21
414.111053
 31
0.0
  0
LINE
  5
3C
330
1F
100
AcDbEntity
  8
LC-001-002-----0
 62
     7
370
    50
100
AcDbLine
 10
282.31321
 20
413.111052
 30
0.0
 11
282.313221
 21
405.111053
 31
0.0
  0
ARC
  5
3D
330
1F
100
AcDbEntity
  8
LC-002-002-RND-0
 62
     7
370
    50
100
AcDbCircle
 10
283.31321
 20
413.111053
 30
0.0
 40
1.000000000000031
100
AcDbArc
 50
0.000079
 51
90.0
  0
LINE
  5
3E
330
1F
100
AcDbEntity
  8
LC-001-002-----0
 62
     7
370
    50
100
AcDbLine
 10
225.613462
 20
421.811053
 30
0.0
 11
252.911231
 21
496.811059
 31
0.0
  0
LINE
  5
3F
330
1F
100
AcDbEntity
  8
LC-001-002-----0
 62
     7
370
    50
100
AcDbLine
 10
253.626228
 20
492.725926
 30
0.0
 11
255.113096
 21
496.811062
 31
0.0
  0
LINE
  5
40
330
1F
100
AcDbEntity
  8
LC-001-002-----0
 62
     7
370
    50
100
AcDbLine
 10
251.273363
 20
492.311053
 30
0.0
 11
253.626228
 21
492.725926
 31
0.0
  0
LINE
  5
41
330
1F
100
AcDbEntity
  8
LC-001-002-----0
 62
     7
370
    50
100
AcDbLine
 10
216.667738
 20
440.505184
 30
0.0
 11
233.569121
 21
486.941354
 31
0.0
  0
LINE
  5
42
330
1F
100
AcDbEntity
  8
LC-001-002-----0
 62
     7
370
    50
100
AcDbLine
 10
228.322391
 20
421.811053
 30
0.0
 11
242.586465
 21
456.448735
 31
0.0
  0
LINE
  5
43
330
1F
100
AcDbEntity
  8
LC-001-002-----0
 62
     7
370
    50
100
AcDbLine
 10
250.152015
 20
461.111053
 30
0.0
 11
257.868653
 21
482.011066
 31
0.0
  0
INSERT
  5
53
330
1F
100
AcDbEntity
  8
LC-003-005-----0
 62
     7
370
    25
100
AcDbBlockReference
  2
*X11
 10
0.0
 20
0.0
 30
0.0
  0
LINE
  5
54
330
1F
100
AcDbEntity
  8
LC-001-002-----0
 62
     7
370
    50
100
AcDbLine
 10
249.002016
 20
461.111053
 30
0.0
 11
256.718653
 21
482.011064
 31
0.0
  0
LINE
  5
55
330
1F
100
AcDbEntity
  8
LC-001-002-----0
 62
     7
370
    50
100
AcDbLine
 10
281.094831
 20
461.111053
 30
0.0
 11
283.401016
 21
482.011101
 31
0.0
  0
LINE
  5
56
330
1F
100
AcDbEntity
  8
LC-001-002-----0
 62
     7
370
    50
100
AcDbLine
 10
245.455891
 20
421.811053
 30
0.0
 11
255.897915
 21
456.448735
 31
0.0
  0
LINE
  5
57
330
1F
100
AcDbEntity
  8
LC-001-002-----0
 62
     7
370
    50
100
AcDbLine
 10
247.082237
 20
421.811053
 30
0.0
 11
257.542487
 21
456.448735
 31
0.0
  0
LINE
  5
58
330
1F
100
AcDbEntity
  8
LC-001-002-----0
 62
     7
370
    50
100
AcDbLine
 10
243.911161
 20
461.111053
 30
0.0
 11
252.51795
 21
482.011058
 31
0.0
  0
LINE
  5
59
330
1F
100
AcDbEntity
  8
LC-001-002-----0
 62
     7
370
    50
100
AcDbLine
 10
213.720197
 20
421.811053
 30
0.0
 11
210.52763
 21
423.635377
 31
0.0
  0
LINE
  5
5A
330
1F
100
AcDbEntity
  8
LC-001-002-----0
 62
     7
370
    50
100
AcDbLine
 10
234.491792
 20
421.811053
 30
0.0
 11
247.280609
 21
456.448735
 31
0.0
  0
LINE
  5
5B
330
1F
100
AcDbEntity
  8
LC-001-002-----0
 62
     7
370
    50
100
AcDbLine
 10
278.979959
 20
421.811053
 30
0.0
 11
282.802003
 21
456.448735
 31
0.0
  0
LINE
  5
5C
330
1F
100
AcDbEntity
  8
LC-001-002-----0
 62
     7
370
    50
100
AcDbLine
 10
276.758329
 20
421.811053
 30
0.0
 11
280.580374
 21
456.448735
 31
0.0
  0
LINE
  5
5D
330
1F
100
AcDbEntity
  8
LC-001-002-----0
 62
     7
370
    50
100
AcDbLine
 10
259.87222
 20
421.811053
 30
0.0
 11
267.255845
 21
456.448735
 31
0.0
  0
LINE
  5
5E
330
1F
100
AcDbEntity
  8
LC-001-002-----0
 62
     7
370
    50
100
AcDbLine
 10
261.864078
 20
421.811053
 30
0.0
 11
269.247703
 21
456.448735
 31
0.0
  0
LINE
  5
5F
330
1F
100
AcDbEntity
  8
LC-001-002-----0
 62
     7
370
    50
100
AcDbLine
 10
235.641792
 20
421.811053
 30
0.0
 11
248.430609
 21
456.448735
 31
0.0
  0
LINE
  5
60
330
1F
100
AcDbEntity
  8
LC-001-002-----0
 62
     7
370
    50
100
AcDbLine
 10
244.506444
 20
461.111053
 30
0.0
 11
253.113234
 21
482.011059
 31
0.0
  0
LINE
  5
61
330
1F
100
AcDbEntity
  8
LC-001-002-----0
 62
     7
370
    50
100
AcDbLine
 10
222.213462
 20
421.811053
 30
0.0
 11
222.213498
 21
395.311054
 31
0.0
  0
LINE
  5
62
330
1F
100
AcDbEntity
  8
LC-001-002-----0
 62
     7
370
    50
100
AcDbLine
 10
225.613462
 20
421.811053
 30
0.0
 11
225.613472
 21
414.111053
 31
0.0
  0
LINE
  5
63
330
1F
100
AcDbEntity
  8
LC-001-002-----0
 62
     7
370
    50
100
AcDbLine
 10
282.575308
 20
414.111053
 30
0.0
 11
296.113226
 21
414.111053
 31
0.0
  0
LINE
  5
64
330
1F
100
AcDbEntity
  8
LC-001-002-----0
 62
     7
370
    50
100
AcDbLine
 10
225.113472
 20
414.111053
 30
0.0
 11
225.613472
 21
414.111053
 31
0.0
  0
ARC
  5
65
330
1F
100
AcDbEntity
  8
LC-002-002-RND-0
 62
     7
370
    50
100
AcDbCircle
 10
283.31321
 20
413.111053
 30
0.0
 40
1.0
100
AcDbArc
 50
90.0
 51
180.000079
  0
LINE
  5
66
330
1F
100
AcDbEntity
  8
LC-001-002-----0
 62
     7
370
    50
100
AcDbLine
 10
294.963459
 20
482.011117
 30
0.0
 11
294.963459
 21
461.111053
 31
0.0
  0
ARC
  5
67
330
1F
100
AcDbEntity
  8
LC-002-002-RND-0
 62
     7
370
    50
100
AcDbCircle
 10
221.7135
 20
393.811053
 30
0.0
 40
1.0
100
AcDbArc
 50
90.0
 51
180.000079
  0
LINE
  5
68
330
1F
100
AcDbEntity
  8
LC-001-002-----0
 62
     7
370
    50
100
AcDbLine
 10
239.917492
 20
461.111053
 30
0.0
 11
239.917492
 21
456.747952
 31
0.0
  0
ARC
  5
69
330
1F
100
AcDbEntity
  8
LC-002-002-RND-0
 62
     7
370
    50
100
AcDbCircle
 10
221.7135
 20
393.811053
 30
0.0
 40
1.000000000000031
100
AcDbArc
 50
180.000079
 51
270.0
  0
LINE
  5
6A
330
1F
100
AcDbEntity
  8
LC-001-002-----0
 62
     7
370
    50
100
AcDbLine
 10
221.6135
 20
392.811053
 30
0.0
 11
223.113502
 21
392.811053
 31
0.0
  0
LINE
  5
6B
330
1F
100
AcDbEntity
  8
LC-001-002-----0
 62
     7
370
    50
100
AcDbLine
 10
218.213484
 20
405.111053
 30
0.0
 11
222.213484
 21
405.111053
 31
0.0
  0
ARC
  5
6C
330
1F
100
AcDbEntity
  8
LC-002-002-RND-0
 62
     7
370
    50
100
AcDbCircle
 10
221.713498
 20
395.311053
 30
0.0
 40
0.5
100
AcDbArc
 50
270.0
 51
0.000079
  0
LINE
  5
6D
330
1F
100
AcDbEntity
  8
LC-001-002-----0
 62
     7
370
    50
100
AcDbLine
 10
221.7135
 20
392.811053
 30
0.0
 11
225.113501
 21
392.811053
 31
0.0
  0
LINE
  5
6E
330
1F
100
AcDbEntity
  8
LC-001-002-----0
 62
     7
370
    50
100
AcDbLine
 10
258.950463
 20
461.111053
 30
0.0
 11
265.262071
 21
482.011076
 31
0.0
  0
LINE
  5
6F
330
1F
100
AcDbEntity
  8
LC-001-002-----0
 62
     7
370
    50
100
AcDbLine
 10
238.220547
 20
456.448735
 30
0.0
 11
239.917492
 21
456.747952
 31
0.0
  0
ARC
  5
70
330
1F
100
AcDbEntity
  8
LC-002-002-RND-0
 62
     7
370
    50
100
AcDbCircle
 10
218.213484
 20
405.611053
 30
0.0
 40
0.5000000000000155
100
AcDbArc
 50
180.000079
 51
270.0
  0
LINE
  5
71
330
1F
100
AcDbEntity
  8
LC-001-002-----0
 62
     7
370
    50
100
AcDbLine
 10
257.303438
 20
461.111053
 30
0.0
 11
263.604048
 21
482.011074
 31
0.0
  0
LINE
  5
72
330
1F
100
AcDbEntity
  8
LC-001-002-----0
 62
     7
370
    50
100
AcDbLine
 10
225.113472
 20
414.111053
 30
0.0
 11
225.113501
 21
392.811053
 31
0.0
  0
LINE
  5
73
330
1F
100
AcDbEntity
  8
LC-001-002-----0
 62
     7
370
    50
100
AcDbLine
 10
225.113484
 20
405.111053
 30
0.0
 11
282.313221
 21
405.111053
 31
0.0
  0
LINE
  5
74
330
1F
100
AcDbEntity
  8
LC-001-002-----0
 62
     7
370
    50
100
AcDbLine
 10
217.713462
 20
421.811053
 30
0.0
 11
217.713484
 21
405.611052
 31
0.0
  0
LINE
  5
75
330
1F
100
AcDbEntity
  8
LC-001-002-----0
 62
     7
370
    50
100
AcDbLine
 10
247.66449
 20
496.811052
 30
0.0
 11
296.113096
 21
496.811118
 31
0.0
  0
INSERT
  5
7D
330
1F
100
AcDbEntity
  8
LC-003-005-----0
 62
     7
370
    25
100
AcDbBlockReference
  2
*X22
 10
0.0
 20
0.0
 30
0.0
  0
LINE
  5
7E
330
1F
100
AcDbEntity
  8
LC-001-002-----0
 62
     7
370
    50
100
AcDbLine
 10
268.249699
 20
461.111053
 30
0.0
 11
272.704905
 21
482.011086
 31
0.0
  0
LINE
  5
7F
330
1F
100
AcDbEntity
  8
LC-001-002-----0
 62
     7
370
    50
100
AcDbLine
 10
247.524469
 20
482.011052
 30
0.0
 11
296.113116
 21
482.011118
 31
0.0
  0
LINE
  5
80
330
1F
100
AcDbEntity
  8
LC-001-002-----0
 62
     7
370
    50
100
AcDbLine
 10
239.917492
 20
461.111053
 30
0.0
 11
296.113145
 21
461.111053
 31
0.0
  0
LINE
  5
81
330
1F
100
AcDbEntity
  8
LC-001-002-----0
 62
     7
370
    50
100
AcDbLine
 10
294.963459
 20
456.448735
 30
0.0
 11
294.963459
 21
421.811053
 31
0.0
  0
LINE
  5
82
330
1F
100
AcDbEntity
  8
LC-001-002-----0
 62
     7
370
    50
100
AcDbLine
 10
283.31646
 20
461.111053
 30
0.0
 11
285.622645
 21
482.011104
 31
0.0
  0
LINE
  5
83
330
1F
100
AcDbEntity
  8
LC-001-002-----0
 62
     7
370
    50
100
AcDbLine
 10
299.41845
 20
482.011123
 30
0.0
 11
299.418409
 21
496.811123
 31
0.0
  0
LINE
  5
84
330
1F
100
AcDbEntity
  8
LC-001-002-----0
 62
     7
370
    50
100
AcDbLine
 10
354.005755
 20
456.448894
 30
0.0
 11
296.113151
 21
456.448735
 31
0.0
  0
LINE
  5
85
330
1F
100
AcDbEntity
  8
LC-001-002-----0
 62
     7
370
    50
100
AcDbLine
 10
307.91321
 20
413.111087
 30
0.0
 11
307.913238
 21
392.811085
 31
0.0
  0
LINE
  5
86
330
1F
100
AcDbEntity
  8
LC-001-002-----0
 62
     7
370
    50
100
AcDbLine
 10
364.49929
 20
421.811241
 30
0.0
 11
350.235121
 21
456.448884
 31
0.0
  0
ARC
  5
87
330
1F
100
AcDbEntity
  8
LC-002-002-RND-0
 62
     7
370
    50
100
AcDbCircle
 10
344.561722
 20
481.811185
 30
0.0
 40
14.99999999999987
100
AcDbArc
 50
20.000157
 51
90.000079
  0
LINE
  5
88
330
1F
100
AcDbEntity
  8
LC-001-002-----0
 62
     7
370
    50
100
AcDbLine
 10
307.913238
 20
392.811085
 30
0.0
 11
296.148981
 21
392.811053
 31
0.0
  0
LINE
  5
89
330
1F
100
AcDbEntity
  8
LC-001-002-----0
 62
     7
370
    50
100
AcDbLine
 10
321.984732
 20
461.111124
 30
0.0
 11
317.529469
 21
482.011148
 31
0.0
  0
LINE
  5
8A
330
1F
100
AcDbEntity
  8
LC-001-002-----0
 62
     7
370
    50
100
AcDbLine
 10
381.698762
 20
423.635612
 30
0.0
 11
378.780106
 21
431.654483
 31
0.0
  0
LINE
  5
8B
330
1F
100
AcDbEntity
  8
LC-001-002-----0
 62
     7
370
    50
100
AcDbLine
 10
366.612946
 20
414.111246
 30
0.0
 11
308.762291
 21
414.111088
 31
0.0
  0
LINE
  5
8C
330
1F
100
AcDbEntity
  8
LC-001-002-----0
 62
     7
370
    50
100
AcDbLine
 10
309.91321
 20
413.111089
 30
0.0
 11
309.913221
 21
405.111091
 31
0.0
  0
ARC
  5
8D
330
1F
100
AcDbEntity
  8
LC-002-002-RND-0
 62
     7
370
    50
100
AcDbCircle
 10
308.91321
 20
413.111088
 30
0.0
 40
1.000000000000011
100
AcDbArc
 50
90.000157
 51
180.000079
  0
LINE
  5
8E
330
1F
100
AcDbEntity
  8
LC-001-002-----0
 62
     7
370
    50
100
AcDbLine
 10
366.612935
 20
421.811246
 30
0.0
 11
339.31496
 21
496.811177
 31
0.0
  0
LINE
  5
8F
330
1F
100
AcDbEntity
  8
LC-001-002-----0
 62
     7
370
    50
100
AcDbLine
 10
338.599975
 20
492.726043
 30
0.0
 11
337.113096
 21
496.811174
 31
0.0
  0
LINE
  5
90
330
1F
100
AcDbEntity
  8
LC-001-002-----0
 62
     7
370
    50
100
AcDbLine
 10
340.95284
 20
492.311176
 30
0.0
 11
338.599975
 21
492.726043
 31
0.0
  0
LINE
  5
91
330
1F
100
AcDbEntity
  8
LC-001-002-----0
 62
     7
370
    50
100
AcDbLine
 10
375.552413
 20
440.522421
 30
0.0
 11
358.657097
 21
486.941525
 31
0.0
  0
LINE
  5
92
330
1F
100
AcDbEntity
  8
LC-001-002-----0
 62
     7
370
    50
100
AcDbLine
 10
363.904006
 20
421.811239
 30
0.0
 11
349.639837
 21
456.448882
 31
0.0
  0
LINE
  5
93
330
1F
100
AcDbEntity
  8
LC-001-002-----0
 62
     7
370
    50
100
AcDbLine
 10
342.074274
 20
461.111179
 30
0.0
 11
334.357579
 21
482.011171
 31
0.0
  0
INSERT
  5
A3
330
1F
100
AcDbEntity
  8
LC-003-005-----0
 62
     7
370
    25
100
AcDbBlockReference
  2
*X33
 10
0.0
 20
0.0
 30
0.0
  0
LINE
  5
A4
330
1F
100
AcDbEntity
  8
LC-001-002-----0
 62
     7
370
    50
100
AcDbLine
 10
343.224273
 20
461.111182
 30
0.0
 11
335.507579
 21
482.011172
 31
0.0
  0
LINE
  5
A6
330
1F
100
AcDbEntity
  8
LC-004-002-___-0
 62
     7
370
    25
100
AcDbLine
 10
365.095147
 20
405.111242
 30
0.0
 11
367.112958
 21
405.111248
 31
0.0
  0
LINE
  5
A7
330
1F
100
AcDbEntity
  8
LC-001-002-----0
 62
     7
370
    50
100
AcDbLine
 10
346.770506
 20
421.811192
 30
0.0
 11
336.328387
 21
456.448846
 31
0.0
  0
LINE
  5
A8
330
1F
100
AcDbEntity
  8
LC-001-002-----0
 62
     7
370
    50
100
AcDbLine
 10
345.14416
 20
421.811187
 30
0.0
 11
334.683815
 21
456.448841
 31
0.0
  0
LINE
  5
A9
330
1F
100
AcDbEntity
  8
LC-001-002-----0
 62
     7
370
    50
100
AcDbLine
 10
348.315128
 20
461.111196
 30
0.0
 11
339.708282
 21
482.011178
 31
0.0
  0
LINE
  5
AA
330
1F
100
AcDbEntity
  8
LC-001-002-----0
 62
     7
370
    50
100
AcDbLine
 10
311.131459
 20
461.111094
 30
0.0
 11
308.825216
 21
482.011136
 31
0.0
  0
LINE
  5
AB
330
1F
100
AcDbEntity
  8
LC-001-002-----0
 62
     7
370
    50
100
AcDbLine
 10
357.734605
 20
421.811222
 30
0.0
 11
344.945693
 21
456.448869
 31
0.0
  0
LINE
  5
AC
330
1F
100
AcDbEntity
  8
LC-001-002-----0
 62
     7
370
    50
100
AcDbLine
 10
313.246438
 20
421.8111
 30
0.0
 11
309.424299
 21
456.448772
 31
0.0
  0
LINE
  5
AD
330
1F
100
AcDbEntity
  8
LC-001-002-----0
 62
     7
370
    50
100
AcDbLine
 10
315.468067
 20
421.811106
 30
0.0
 11
311.645928
 21
456.448778
 31
0.0
  0
LINE
  5
AE
330
1F
100
AcDbEntity
  8
LC-001-002-----0
 62
     7
370
    50
100
AcDbLine
 10
332.354177
 20
421.811152
 30
0.0
 11
324.970457
 21
456.448814
 31
0.0
  0
LINE
  5
AF
330
1F
100
AcDbEntity
  8
LC-001-002-----0
 62
     7
370
    50
100
AcDbLine
 10
330.362319
 20
421.811147
 30
0.0
 11
322.978599
 21
456.448809
 31
0.0
  0
LINE
  5
B0
330
1F
100
AcDbEntity
  8
LC-001-002-----0
 62
     7
370
    50
100
AcDbLine
 10
356.584605
 20
421.811219
 30
0.0
 11
343.795693
 21
456.448866
 31
0.0
  0
LINE
  5
B1
330
1F
100
AcDbEntity
  8
LC-001-002-----0
 62
     7
370
    50
100
AcDbLine
 10
347.719845
 20
461.111195
 30
0.0
 11
339.112998
 21
482.011177
 31
0.0
  0
LINE
  5
B2
330
1F
100
AcDbEntity
  8
LC-001-002-----0
 62
     7
370
    50
100
AcDbLine
 10
370.012935
 20
421.811256
 30
0.0
 11
370.012972
 21
395.311256
 31
0.0
  0
LINE
  5
B3
330
1F
100
AcDbEntity
  8
LC-001-002-----0
 62
     7
370
    50
100
AcDbLine
 10
366.612935
 20
421.811246
 30
0.0
 11
366.612946
 21
414.111246
 31
0.0
  0
LINE
  5
B4
330
1F
100
AcDbEntity
  8
LC-001-002-----0
 62
     7
370
    50
100
AcDbLine
 10
309.65111
 20
414.11109
 30
0.0
 11
296.113192
 21
414.111053
 31
0.0
  0
LINE
  5
B5
330
1F
100
AcDbEntity
  8
LC-001-002-----0
 62
     7
370
    50
100
AcDbLine
 10
367.112946
 20
414.111248
 30
0.0
 11
366.612946
 21
414.111246
 31
0.0
  0
ARC
  5
B6
330
1F
100
AcDbEntity
  8
LC-002-002-RND-0
 62
     7
370
    50
100
AcDbCircle
 10
308.91321
 20
413.111088
 30
0.0
 40
1.000000000000031
100
AcDbArc
 50
0.000079
 51
90.000157
  0
LINE
  5
B7
330
1F
100
AcDbEntity
  8
LC-001-002-----0
 62
     7
370
    50
100
AcDbLine
 10
297.262773
 20
482.01112
 30
0.0
 11
297.26283
 21
461.111056
 31
0.0
  0
ARC
  5
B8
330
1F
100
AcDbEntity
  8
LC-002-002-RND-0
 62
     7
370
    50
100
AcDbCircle
 10
370.512974
 20
393.811257
 30
0.0
 40
1.000000000000031
100
AcDbArc
 50
0.000079
 51
90.000157
  0
LINE
  5
B9
330
1F
100
AcDbEntity
  8
LC-001-002-----0
 62
     7
370
    50
100
AcDbLine
 10
352.308797
 20
461.111207
 30
0.0
 11
352.308809
 21
456.748107
 31
0.0
  0
ARC
  5
BA
330
1F
100
AcDbEntity
  8
LC-002-002-RND-0
 62
     7
370
    50
100
AcDbCircle
 10
370.512974
 20
393.811257
 30
0.0
 40
0.9999999999998975
100
AcDbArc
 50
270.000157
 51
0.000079
  0
LINE
  5
BB
330
1F
100
AcDbEntity
  8
LC-001-002-----0
 62
     7
370
    50
100
AcDbLine
 10
370.612977
 20
392.811257
 30
0.0
 11
369.112974
 21
392.811253
 31
0.0
  0
LINE
  5
BC
330
1F
100
AcDbEntity
  8
LC-001-002-----0
 62
     7
370
    50
100
AcDbLine
 10
374.012958
 20
405.111267
 30
0.0
 11
370.012958
 21
405.111256
 31
0.0
  0
ARC
  5
BD
330
1F
100
AcDbEntity
  8
LC-002-002-RND-0
 62
     7
370
    50
100
AcDbCircle
 10
370.512972
 20
395.311257
 30
0.0
 40
0.5000000000000155
100
AcDbArc
 50
180.000079
 51
270.000157
  0
LINE
  5
BE
330
1F
100
AcDbEntity
  8
LC-001-002-----0
 62
     7
370
    50
100
AcDbLine
 10
370.512977
 20
392.811257
 30
0.0
 11
367.112975
 21
392.811248
 31
0.0
  0
LINE
  5
BF
330
1F
100
AcDbEntity
  8
LC-001-002-----0
 62
     7
370
    50
100
AcDbLine
 10
333.275827
 20
461.111155
 30
0.0
 11
326.964161
 21
482.01116
 31
0.0
  0
LINE
  5
C0
330
1F
100
AcDbEntity
  8
LC-001-002-----0
 62
     7
370
    50
100
AcDbLine
 10
354.005755
 20
456.448894
 30
0.0
 11
352.308809
 21
456.748107
 31
0.0
  0
ARC
  5
C1
330
1F
100
AcDbEntity
  8
LC-002-002-RND-0
 62
     7
370
    50
100
AcDbCircle
 10
374.012957
 20
405.611267
 30
0.0
 40
0.5000000000000625
100
AcDbArc
 50
270.000157
 51
0.000079
  0
LINE
  5
C2
330
1F
100
AcDbEntity
  8
LC-001-002-----0
 62
     7
370
    50
100
AcDbLine
 10
334.922852
 20
461.111159
 30
0.0
 11
328.622184
 21
482.011163
 31
0.0
  0
LINE
  5
C3
330
1F
100
AcDbEntity
  8
LC-001-002-----0
 62
     7
370
    50
100
AcDbLine
 10
367.112946
 20
414.111248
 30
0.0
 11
367.112975
 21
392.811248
 31
0.0
  0
LINE
  5
C4
330
1F
100
AcDbEntity
  8
LC-001-002-----0
 62
     7
370
    50
100
AcDbLine
 10
367.112958
 20
405.111248
 30
0.0
 11
309.913221
 21
405.111091
 31
0.0
  0
LINE
  5
C5
330
1F
100
AcDbEntity
  8
LC-001-002-----0
 62
     7
370
    50
100
AcDbLine
 10
374.512935
 20
421.811268
 30
0.0
 11
374.512957
 21
405.611267
 31
0.0
  0
LINE
  5
C6
330
1F
100
AcDbEntity
  8
LC-001-002-----0
 62
     7
370
    50
100
AcDbLine
 10
344.561701
 20
496.811185
 30
0.0
 11
296.113096
 21
496.811118
 31
0.0
  0
INSERT
  5
CF
330
1F
100
AcDbEntity
  8
LC-003-005-----0
 62
     7
370
    25
100
AcDbBlockReference
  2
*X44
 10
0.0
 20
0.0
 30
0.0
  0
LINE
  5
D0
330
1F
100
AcDbEntity
  8
LC-001-002-----0
 62
     7
370
    50
100
AcDbLine
 10
323.97659
 20
461.111129
 30
0.0
 11
319.521327
 21
482.01115
 31
0.0
  0
LINE
  5
D1
330
1F
100
AcDbEntity
  8
LC-001-002-----0
 62
     7
370
    50
100
AcDbLine
 10
344.701763
 20
482.011185
 30
0.0
 11
296.113116
 21
482.011118
 31
0.0
  0
LINE
  5
D2
330
1F
100
AcDbEntity
  8
LC-001-002-----0
 62
     7
370
    50
100
AcDbLine
 10
352.308797
 20
461.111207
 30
0.0
 11
296.113145
 21
461.111053
 31
0.0
  0
LINE
  5
D3
330
1F
100
AcDbEntity
  8
LC-001-002-----0
 62
     7
370
    50
100
AcDbLine
 10
297.262843
 20
456.448738
 30
0.0
 11
297.262938
 21
421.811056
 31
0.0
  0
LINE
  5
D4
330
1F
100
AcDbEntity
  8
LC-001-002-----0
 62
     7
370
    50
100
AcDbLine
 10
308.909829
 20
461.111088
 30
0.0
 11
306.603587
 21
482.011133
 31
0.0
  0
LINE
  5
D5
330
1F
100
AcDbEntity
  8
LC-001-002-----0
 62
     7
370
    50
100
AcDbLine
 10
378.556018
 20
421.839747
 30
0.0
 11
381.698762
 21
423.635612
 31
0.0
  0
LINE
  5
D6
330
1F
100
AcDbEntity
  8
LC-001-002-----0
 62
     7
370
    50
100
AcDbLine
 10
208.109696
 20
425.439735
 30
0.0
 11
207.638133
 21
425.439735
 31
0.0
  0
LINE
  5
D7
330
1F
100
AcDbEntity
  8
LC-001-002-----0
 62
     7
370
    50
100
AcDbLine
 10
199.109696
 20
423.339735
 30
0.0
 11
199.109696
 21
423.339735
 31
0.0
  0
LINE
  5
D8
330
1F
100
AcDbEntity
  8
LC-001-002-----0
 62
     7
370
    50
100
AcDbLine
 10
207.109696
 20
434.439735
 30
0.0
 11
205.111332
 21
434.439735
 31
0.0
  0
LINE
  5
D9
330
1F
100
AcDbEntity
  8
LC-001-002-----0
 62
     7
370
    50
100
AcDbLine
 10
195.421797
 20
440.127561
 30
0.0
 11
197.109696
 21
434.439735
 31
0.0
  0
LINE
  5
DA
330
1F
100
AcDbEntity
  8
LC-001-002-----0
 62
     7
370
    50
100
AcDbLine
 10
208.109696
 20
425.439735
 30
0.0
 11
207.109696
 21
434.439735
 31
0.0
  0
LINE
  5
DB
330
1F
100
AcDbEntity
  8
LC-001-002-----0
 62
     7
370
    50
100
AcDbLine
 10
197.109696
 20
434.439735
 30
0.0
 11
196.109696
 21
425.439735
 31
0.0
  0
ARC
  5
DC
330
1F
100
AcDbEntity
  8
LC-002-002-RND-0
 62
     7
370
    50
100
AcDbCircle
 10
191.80623
 20
438.514745
 30
0.0
 40
3.924999999999993
100
AcDbArc
 50
24.105895
 51
90.12741
  0
ARC
  5
DD
330
1F
100
AcDbEntity
  8
LC-001-002-----0
 62
     7
370
    50
100
AcDbCircle
 10
191.797406
 20
436.906977
 30
0.0
 40
5.576109255812885
100
AcDbArc
 50
89.908616
 51
139.911749
  0
ARC
  5
DE
330
1F
100
AcDbEntity
  8
LC-002-002-RND-0
 62
     7
370
    50
100
AcDbCircle
 10
190.534219
 20
437.970237
 30
0.0
 40
3.924999999999973
100
AcDbArc
 50
139.911749
 51
224.495814
  0
LINE
  5
DF
330
1F
100
AcDbEntity
  8
LC-001-002-----0
 62
     7
370
    50
100
AcDbLine
 10
208.797596
 20
440.127561
 30
0.0
 11
207.109696
 21
434.439735
 31
0.0
  0
ARC
  5
E0
330
1F
100
AcDbEntity
  8
LC-002-002-RND-0
 62
     7
370
    50
100
AcDbCircle
 10
213.685174
 20
437.970237
 30
0.0
 40
3.925000000000325
100
AcDbArc
 50
315.504186
 51
40.088251
  0
LINE
  5
E1
330
1F
100
AcDbEntity
  8
LC-001-002-----0
 62
     7
370
    50
100
AcDbLine
 10
216.66458
 20
435.415093
 30
0.0
 11
208.109696
 21
425.439735
 31
0.0
  0
LINE
  5
E2
330
1F
100
AcDbEntity
  8
LC-001-002-----0
 62
     7
370
    50
100
AcDbLine
 10
187.554812
 20
435.415093
 30
0.0
 11
196.109696
 21
425.439735
 31
0.0
  0
ARC
  5
E3
330
1F
100
AcDbEntity
  8
LC-002-002-RND-0
 62
     7
370
    50
100
AcDbCircle
 10
212.413163
 20
438.514745
 30
0.0
 40
3.925000000000125
100
AcDbArc
 50
89.87259
 51
155.894105
  0
ARC
  5
E4
330
1F
100
AcDbEntity
  8
LC-001-002-----0
 62
     7
370
    50
100
AcDbCircle
 10
212.421987
 20
436.906977
 30
0.0
 40
5.576109255812547
100
AcDbArc
 50
40.088251
 51
90.091384
  0
LINE
  5
E5
330
1F
100
AcDbEntity
  8
LC-001-002-----0
 62
     7
370
    50
100
AcDbLine
 10
396.109885
 20
425.439735
 30
0.0
 11
393.111394
 21
425.439735
 31
0.0
  0
LINE
  5
E6
330
1F
100
AcDbEntity
  8
LC-001-002-----0
 62
     7
370
    50
100
AcDbLine
 10
387.109696
 20
423.339735
 30
0.0
 11
387.109696
 21
423.339735
 31
0.0
  0
LINE
  5
E7
330
1F
100
AcDbEntity
  8
LC-001-002-----0
 62
     7
370
    50
100
AcDbLine
 10
395.109885
 20
434.439735
 30
0.0
 11
393.111394
 21
434.439735
 31
0.0
  0
LINE
  5
E8
330
1F
100
AcDbEntity
  8
LC-001-002-----0
 62
     7
370
    50
100
AcDbLine
 10
383.421986
 20
440.127561
 30
0.0
 11
385.109885
 21
434.439735
 31
0.0
  0
LINE
  5
E9
330
1F
100
AcDbEntity
  8
LC-001-002-----0
 62
     7
370
    50
100
AcDbLine
 10
396.109885
 20
425.439735
 30
0.0
 11
395.109885
 21
434.439735
 31
0.0
  0
LINE
  5
EA
330
1F
100
AcDbEntity
  8
LC-001-002-----0
 62
     7
370
    50
100
AcDbLine
 10
385.109885
 20
434.439735
 30
0.0
 11
384.109885
 21
425.439735
 31
0.0
  0
ARC
  5
EB
330
1F
100
AcDbEntity
  8
LC-002-002-RND-0
 62
     7
370
    50
100
AcDbCircle
 10
379.806419
 20
438.514745
 30
0.0
 40
3.924999999999993
100
AcDbArc
 50
24.105895
 51
90.12741
  0
ARC
  5
EC
330
1F
100
AcDbEntity
  8
LC-001-002-----0
 62
     7
370
    50
100
AcDbCircle
 10
379.797594
 20
436.906977
 30
0.0
 40
5.576109255812885
100
AcDbArc
 50
89.908616
 51
139.911749
  0
ARC
  5
ED
330
1F
100
AcDbEntity
  8
LC-002-002-RND-0
 62
     7
370
    50
100
AcDbCircle
 10
378.534408
 20
437.970237
 30
0.0
 40
3.924999999999973
100
AcDbArc
 50
139.911749
 51
224.495814
  0
LINE
  5
EE
330
1F
100
AcDbEntity
  8
LC-001-002-----0
 62
     7
370
    50
100
AcDbLine
 10
396.797785
 20
440.127561
 30
0.0
 11
395.109885
 21
434.439735
 31
0.0
  0
ARC
  5
EF
330
1F
100
AcDbEntity
  8
LC-002-002-RND-0
 62
     7
370
    50
100
AcDbCircle
 10
401.685363
 20
437.970237
 30
0.0
 40
3.925000000000325
100
AcDbArc
 50
315.504186
 51
40.088251
  0
LINE
  5
F0
330
1F
100
AcDbEntity
  8
LC-001-002-----0
 62
     7
370
    50
100
AcDbLine
 10
404.664769
 20
435.415093
 30
0.0
 11
396.109885
 21
425.439735
 31
0.0
  0
LINE
  5
F1
330
1F
100
AcDbEntity
  8
LC-001-002-----0
 62
     7
370
    50
100
AcDbLine
 10
375.555001
 20
435.415093
 30
0.0
 11
384.109885
 21
425.439735
 31
0.0
  0
ARC
  5
F2
330
1F
100
AcDbEntity
  8
LC-002-002-RND-0
 62
     7
370
    50
100
AcDbCircle
 10
400.413351
 20
438.514745
 30
0.0
 40
3.925000000000125
100
AcDbArc
 50
89.87259
 51
155.894105
  0
ARC
  5
F3
330
1F
100
AcDbEntity
  8
LC-001-002-----0
 62
     7
370
    50
100
AcDbCircle
 10
400.422176
 20
436.906977
 30
0.0
 40
5.576109255812547
100
AcDbArc
 50
40.088251
 51
90.091384
  0
ARC
  5
F4
330
1F
100
AcDbEntity
  8
LC-002-002-RND-0
 62
     7
370
    50
100
AcDbCircle
 10
395.085782
 20
422.339735
 30
0.0
 40
0.9999999999998473
100
AcDbArc
 50
45.0
 51
90.0
  0
INSERT
  5
107
330
1F
100
AcDbEntity
  8
LC-003-005-----0
 62
     7
370
    25
100
AcDbBlockReference
  2
*X55
 10
0.0
 20
0.0
 30
0.0
  0
LINE
  5
108
330
1F
100
AcDbEntity
  8
LC-001-002-----0
 62
     7
370
    50
100
AcDbLine
 10
383.214209
 20
421.839735
 30
0.0
 11
384.421316
 21
423.046842
 31
0.0
  0
LINE
  5
109
330
1F
100
AcDbEntity
  8
LC-001-002-----0
 62
     7
370
    50
100
AcDbLine
 10
373.107208
 20
400.839731
 30
0.0
 11
372.607568
 21
400.839731
 31
0.0
  0
ARC
  5
10A
330
1F
100
AcDbEntity
  8
LC-001-002-----0
 62
     7
370
    50
100
AcDbCircle
 10
417.79805
 20
428.108649
 30
0.0
 40
2.000000000000171
100
AcDbArc
 50
282.000248
 51
327.70757
  0
ARC
  5
10B
330
1F
100
AcDbEntity
  8
LC-002-002-RND-0
 62
     7
370
    50
100
AcDbCircle
 10
372.607568
 20
399.339731
 30
0.0
 40
1.49999999999998
100
AcDbArc
 50
90.00002
 51
180.000248
  0
INSERT
  5
11A
330
1F
100
AcDbEntity
  8
LC-003-005-----0
 62
     7
370
    25
100
AcDbBlockReference
  2
*X66
 10
0.0
 20
0.0
 30
0.0
  0
ARC
  5
11B
330
1F
100
AcDbEntity
  8
LC-002-002-RND-0
 62
     7
370
    50
100
AcDbCircle
 10
219.107784
 20
402.839386
 30
0.0
 40
2.999999999999977
100
AcDbArc
 50
180.000136
 51
270.0
  0
LINE
  5
11C
330
1F
100
AcDbEntity
  8
LC-001-002-----0
 62
     7
370
    50
100
AcDbLine
 10
216.107747
 20
418.839387
 30
0.0
 11
216.107784
 21
402.839379
 31
0.0
  0
ARC
  5
11D
330
1F
100
AcDbEntity
  8
LC-002-002-RND-0
 62
     7
370
    50
100
AcDbCircle
 10
214.107747
 20
418.839379
 30
0.0
 40
2.000000000000055
100
AcDbArc
 50
0.000248
 51
90.000248
  0
LINE
  5
11E
330
1F
100
AcDbEntity
  8
LC-001-002-----0
 62
     7
370
    50
100
AcDbLine
 10
209.000705
 20
420.839358
 30
0.0
 11
214.107739
 21
420.839379
 31
0.0
  0
LINE
  5
11F
330
1F
100
AcDbEntity
  8
LC-001-002-----0
 62
     7
370
    50
100
AcDbLine
 10
205.107806
 20
422.339342
 30
0.0
 11
207.086485
 21
422.33935
 31
0.0
  0
LINE
  5
120
330
1F
100
AcDbEntity
  8
LC-001-002-----0
 62
     7
370
    50
100
AcDbLine
 10
194.18482
 20
420.839286
 30
0.0
 11
195.214931
 21
420.839301
 31
0.0
  0
LINE
  5
121
330
1F
100
AcDbEntity
  8
LC-001-002-----0
 62
     7
370
    50
100
AcDbLine
 10
194.18482
 20
420.839286
 30
0.0
 11
173.793097
 21
425.17368
 31
0.0
  0
LINE
  5
122
330
1F
100
AcDbEntity
  8
LC-001-002-----0
 62
     7
370
    50
100
AcDbLine
 10
198.607801
 20
423.339314
 30
0.0
 11
198.607806
 21
422.339314
 31
0.0
  0
LINE
  5
123
330
1F
100
AcDbEntity
  8
LC-001-002-----0
 62
     7
370
    50
100
AcDbLine
 10
205.607801
 20
423.339344
 30
0.0
 11
205.607806
 21
422.339344
 31
0.0
  0
ARC
  5
124
330
1F
100
AcDbEntity
  8
LC-002-002-RND-0
 62
     7
370
    50
100
AcDbCircle
 10
209.000701
 20
421.839358
 30
0.0
 40
0.9999999999999525
100
AcDbArc
 50
225.000248
 51
270.000228
  0
ARC
  5
125
330
1F
100
AcDbEntity
  8
LC-002-002-RND-0
 62
     7
370
    50
100
AcDbCircle
 10
195.214917
 20
421.839301
 30
0.0
 40
1.000000000000006
100
AcDbArc
 50
270.000823
 51
315.000248
  0
ARC
  5
126
330
1F
100
AcDbEntity
  8
LC-002-002-RND-0
 62
     7
370
    50
100
AcDbCircle
 10
192.09789
 20
420.253313
 30
0.0
 40
0.9999999999999186
100
AcDbArc
 50
71.979964
 51
78.771454
  0
LINE
  5
127
330
1F
100
AcDbEntity
  8
LC-001-002-----0
 62
     7
370
    50
100
AcDbLine
 10
197.129126
 20
422.339308
 30
0.0
 11
199.107806
 21
422.339316
 31
0.0
  0
LINE
  5
128
330
1F
100
AcDbEntity
  8
LC-001-002-----0
 62
     7
370
    50
100
AcDbLine
 10
208.293597
 20
421.132248
 30
0.0
 11
207.086485
 21
422.33935
 31
0.0
  0
LINE
  5
129
330
1F
100
AcDbEntity
  8
LC-001-002-----0
 62
     7
370
    50
100
AcDbLine
 10
197.129126
 20
422.339308
 30
0.0
 11
195.922027
 21
421.132198
 31
0.0
  0
LINE
  5
12A
330
1F
100
AcDbEntity
  8
LC-001-002-----0
 62
     7
370
    50
100
AcDbLine
 10
397.924993
 20
421.839728
 30
0.0
 11
396.999993
 21
421.839738
 31
0.0
  0
LINE
  5
12B
330
1F
100
AcDbEntity
  8
LC-001-002-----0
 62
     7
370
    50
100
AcDbLine
 10
171.607867
 20
427.054692
 30
0.0
 11
172.726172
 21
427.039634
 31
0.0
  0
LINE
  5
12C
330
1F
100
AcDbEntity
  8
LC-001-002-----0
 62
     7
370
    50
100
AcDbLine
 10
219.107784
 20
399.839386
 30
0.0
 11
219.607439
 21
399.839386
 31
0.0
  0
LINE
  5
12D
330
1F
100
AcDbEntity
  8
LC-001-002-----0
 62
     7
370
    50
100
AcDbLine
 10
214.107747
 20
421.83939
 30
0.0
 11
209.000669
 21
421.83939
 31
0.0
  0
LINE
  5
12E
330
1F
100
AcDbEntity
  8
LC-001-002-----0
 62
     7
370
    50
100
AcDbLine
 10
221.107439
 20
399.3394
 30
0.0
 11
221.107439
 21
396.839402
 31
0.0
  0
ARC
  5
12F
330
1F
100
AcDbEntity
  8
LC-002-002-RND-0
 62
     7
370
    50
100
AcDbCircle
 10
219.107784
 20
402.839398
 30
0.0
 40
1.999999999999984
100
AcDbArc
 50
180.000136
 51
270.000228
  0
ARC
  5
130
330
1F
100
AcDbEntity
  8
LC-002-002-RND-0
 62
     7
370
    50
100
AcDbCircle
 10
214.107747
 20
418.83939
 30
0.0
 40
2.999999999999977
100
AcDbArc
 50
0.000136
 51
90.0
  0
ARC
  5
131
330
1F
100
AcDbEntity
  8
LC-001-002-----0
 62
     7
370
    50
100
AcDbCircle
 10
174.416832
 20
428.108123
 30
0.0
 40
2.99999999999504
100
AcDbArc
 50
200.557271
 51
258.0
  0
ARC
  5
132
330
1F
100
AcDbEntity
  8
LC-001-002-----0
 62
     7
370
    50
100
AcDbCircle
 10
174.416832
 20
428.108123
 30
0.0
 40
2.000000000000164
100
AcDbArc
 50
212.292677
 51
258.0
  0
ARC
  5
133
330
1F
100
AcDbEntity
  8
LC-002-002-RND-0
 62
     7
370
    50
100
AcDbCircle
 10
219.607439
 20
399.339386
 30
0.0
 40
0.5
100
AcDbArc
 50
0.0
 51
90.0
  0
ARC
  5
134
330
1F
100
AcDbEntity
  8
LC-002-002-RND-0
 62
     7
370
    50
100
AcDbCircle
 10
219.607439
 20
399.3394
 30
0.0
 40
1.5
100
AcDbArc
 50
0.0
 51
90.000228
  0
LINE
  5
135
330
1F
100
AcDbEntity
  8
LC-001-002-----0
 62
     7
370
    50
100
AcDbLine
 10
220.107439
 20
399.339386
 30
0.0
 11
220.107439
 21
396.839402
 31
0.0
  0
LINE
  5
136
330
1F
100
AcDbEntity
  8
LC-001-002-----0
 62
     7
370
    50
100
AcDbLine
 10
220.107439
 20
396.839402
 30
0.0
 11
221.107439
 21
396.839402
 31
0.0
  0
LINE
  5
137
330
1F
100
AcDbEntity
  8
LC-001-002-----0
 62
     7
370
    50
100
AcDbLine
 10
219.107792
 20
400.839398
 30
0.0
 11
219.607433
 21
400.8394
 31
0.0
  0
LINE
  5
138
330
1F
100
AcDbEntity
  8
LC-001-002-----0
 62
     7
370
    50
100
AcDbLine
 10
217.107747
 20
418.839398
 30
0.0
 11
217.107784
 21
402.839394
 31
0.0
  0
LINE
  5
139
330
1F
100
AcDbEntity
  8
LC-001-002-----0
 62
     7
370
    50
100
AcDbLine
 10
207.086481
 20
423.33935
 30
0.0
 11
205.111332
 21
423.339342
 31
0.0
  0
LINE
  5
13A
330
1F
100
AcDbEntity
  8
LC-001-002-----0
 62
     7
370
    50
100
AcDbLine
 10
209.000701
 20
421.839358
 30
0.0
 11
207.793589
 21
423.04646
 31
0.0
  0
LINE
  5
13B
330
1F
100
AcDbEntity
  8
LC-001-002-----0
 62
     7
370
    50
100
AcDbLine
 10
194.289917
 20
421.839287
 30
0.0
 11
195.214917
 21
421.839301
 31
0.0
  0
LINE
  5
13C
330
1F
100
AcDbEntity
  8
LC-001-002-----0
 62
     7
370
    50
100
AcDbLine
 10
196.422016
 20
423.046411
 30
0.0
 11
195.214917
 21
421.839301
 31
0.0
  0
LINE
  5
13D
330
1F
100
AcDbEntity
  8
LC-001-002-----0
 62
     7
370
    50
100
AcDbLine
 10
194.289917
 20
421.839287
 30
0.0
 11
174.001009
 21
426.151828
 31
0.0
  0
ARC
  5
13E
330
1F
100
AcDbEntity
  8
LC-002-002-RND-0
 62
     7
370
    50
100
AcDbCircle
 10
207.086485
 20
422.33935
 30
0.0
 40
0.9999999999999525
100
AcDbArc
 50
45.000248
 51
90.000248
  0
ARC
  5
13F
330
1F
100
AcDbEntity
  8
LC-002-002-RND-0
 62
     7
370
    50
100
AcDbCircle
 10
197.129126
 20
422.339307
 30
0.0
 40
1.000000000000028
100
AcDbArc
 50
90.000248
 51
135.000248
  0
INSERT
  5
14E
330
1F
100
AcDbEntity
  8
LC-003-005-----0
 62
     7
370
    25
100
AcDbBlockReference
  2
*X77
 10
0.0
 20
0.0
 30
0.0
  0
INSERT
  5
15A
330
1F
100
AcDbEntity
  8
LC-003-005-----0
 62
     7
370
    25
100
AcDbBlockReference
  2
*X88
 10
0.0
 20
0.0
 30
0.0
  0
LINE
  5
15B
330
1F
100
AcDbEntity
  8
LC-001-002-----0
 62
     7
370
    50
100
AcDbLine
 10
199.109697
 20
422.339316
 30
0.0
 11
199.107806
 21
422.339316
 31
0.0
  0
LINE
  5
15C
330
1F
100
AcDbEntity
  8
LC-001-002-----0
 62
     7
370
    50
100
AcDbLine
 10
375.107175
 20
418.839739
 30
0.0
 11
375.107207
 21
402.839735
 31
0.0
  0
LINE
  5
15D
330
1F
100
AcDbEntity
  8
LC-001-002-----0
 62
     7
370
    50
100
AcDbLine
 10
372.107579
 20
396.839731
 30
0.0
 11
371.107579
 21
396.839727
 31
0.0
  0
ARC
  5
15E
330
1F
100
AcDbEntity
  8
LC-002-002-RND-0
 62
     7
370
    50
100
AcDbCircle
 10
372.607568
 20
399.339717
 30
0.0
 40
0.4999999999999001
100
AcDbArc
 50
90.000248
 51
180.000248
  0
ARC
  5
15F
330
1F
100
AcDbEntity
  8
LC-002-002-RND-0
 62
     7
370
    50
100
AcDbCircle
 10
385.128422
 20
422.339735
 30
0.0
 40
1.0
100
AcDbArc
 50
90.0
 51
135.0
  0
LINE
  5
160
330
1F
100
AcDbEntity
  8
LC-001-002-----0
 62
     7
370
    50
100
AcDbLine
 10
387.107102
 20
422.339735
 30
0.0
 11
387.109697
 21
422.339735
 31
0.0
  0
ARC
  5
161
330
1F
100
AcDbEntity
  8
LC-002-002-RND-0
 62
     7
370
    50
100
AcDbCircle
 10
373.107207
 20
402.839719
 30
0.0
 40
2.999999999999969
100
AcDbArc
 50
270.000248
 51
0.000111
  0
LINE
  5
162
330
1F
100
AcDbEntity
  8
LC-001-002-----0
 62
     7
370
    50
100
AcDbLine
 10
376.107175
 20
418.839733
 30
0.0
 11
376.107207
 21
402.839725
 31
0.0
  0
ARC
  5
163
330
1F
100
AcDbEntity
  8
LC-002-002-RND-0
 62
     7
370
    50
100
AcDbCircle
 10
378.107175
 20
418.839733
 30
0.0
 40
2.0
100
AcDbArc
 50
90.0
 51
180.0
  0
LINE
  5
164
330
1F
100
AcDbEntity
  8
LC-001-002-----0
 62
     7
370
    50
100
AcDbLine
 10
383.214209
 20
420.839735
 30
0.0
 11
378.107175
 21
420.839733
 31
0.0
  0
LINE
  5
165
330
1F
100
AcDbEntity
  8
LC-001-002-----0
 62
     7
370
    50
100
AcDbLine
 10
387.107102
 20
422.339735
 30
0.0
 11
385.128422
 21
422.339735
 31
0.0
  0
LINE
  5
166
330
1F
100
AcDbEntity
  8
LC-001-002-----0
 62
     7
370
    50
100
AcDbLine
 10
398.030094
 20
420.839727
 30
0.0
 11
396.999983
 21
420.839738
 31
0.0
  0
LINE
  5
167
330
1F
100
AcDbEntity
  8
LC-001-002-----0
 62
     7
370
    50
100
AcDbLine
 10
398.030094
 20
420.839727
 30
0.0
 11
418.421798
 21
425.174209
 31
0.0
  0
LINE
  5
168
330
1F
100
AcDbEntity
  8
LC-001-002-----0
 62
     7
370
    50
100
AcDbLine
 10
372.107568
 20
399.339715
 30
0.0
 11
372.107579
 21
396.839731
 31
0.0
  0
LINE
  5
169
330
1F
100
AcDbEntity
  8
LC-001-002-----0
 62
     7
370
    50
100
AcDbLine
 10
393.607102
 20
423.339735
 30
0.0
 11
393.607102
 21
422.339735
 31
0.0
  0
LINE
  5
16A
330
1F
100
AcDbEntity
  8
LC-001-002-----0
 62
     7
370
    50
100
AcDbLine
 10
386.607102
 20
423.339735
 30
0.0
 11
386.607102
 21
422.339735
 31
0.0
  0
ARC
  5
16B
330
1F
100
AcDbEntity
  8
LC-002-002-RND-0
 62
     7
370
    50
100
AcDbCircle
 10
383.214209
 20
421.839735
 30
0.0
 40
0.9999999999999486
100
AcDbArc
 50
270.00002
 51
315.0
  0
ARC
  5
16C
330
1F
100
AcDbEntity
  8
LC-002-002-RND-0
 62
     7
370
    50
100
AcDbCircle
 10
396.999993
 20
421.839738
 30
0.0
 40
0.9999999999998473
100
AcDbArc
 50
225.0
 51
269.999425
  0
ARC
  5
16D
330
1F
100
AcDbEntity
  8
LC-002-002-RND-0
 62
     7
370
    50
100
AcDbCircle
 10
400.117027
 20
420.253763
 30
0.0
 40
0.9999999999999352
100
AcDbArc
 50
101.228794
 51
108.020284
  0
LINE
  5
16E
330
1F
100
AcDbEntity
  8
LC-001-002-----0
 62
     7
370
    50
100
AcDbLine
 10
395.085781
 20
422.339736
 30
0.0
 11
393.107102
 21
422.339735
 31
0.0
  0
LINE
  5
16F
330
1F
100
AcDbEntity
  8
LC-001-002-----0
 62
     7
370
    50
100
AcDbLine
 10
383.921315
 20
421.132628
 30
0.0
 11
385.128422
 21
422.339735
 31
0.0
  0
LINE
  5
170
330
1F
100
AcDbEntity
  8
LC-001-002-----0
 62
     7
370
    50
100
AcDbLine
 10
395.085781
 20
422.339736
 30
0.0
 11
396.292886
 21
421.132631
 31
0.0
  0
LINE
  5
171
330
1F
100
AcDbEntity
  8
LC-001-002-----0
 62
     7
370
    50
100
AcDbLine
 10
395.792889
 20
423.046842
 30
0.0
 11
396.999993
 21
421.839738
 31
0.0
  0
LINE
  5
172
330
1F
100
AcDbEntity
  8
LC-001-002-----0
 62
     7
370
    50
100
AcDbLine
 10
397.924993
 20
421.839728
 30
0.0
 11
418.213882
 21
426.152356
 31
0.0
  0
LINE
  5
173
330
1F
100
AcDbEntity
  8
LC-001-002-----0
 62
     7
370
    50
100
AcDbLine
 10
420.60702
 20
427.055231
 30
0.0
 11
419.488715
 21
427.040168
 31
0.0
  0
LINE
  5
174
330
1F
100
AcDbEntity
  8
LC-001-002-----0
 62
     7
370
    50
100
AcDbLine
 10
373.10722
 20
399.839719
 30
0.0
 11
372.607566
 21
399.839717
 31
0.0
  0
LINE
  5
175
330
1F
100
AcDbEntity
  8
LC-001-002-----0
 62
     7
370
    50
100
AcDbLine
 10
378.107162
 20
421.839745
 30
0.0
 11
383.214241
 21
421.839767
 31
0.0
  0
LINE
  5
176
330
1F
100
AcDbEntity
  8
LC-001-002-----0
 62
     7
370
    50
100
AcDbLine
 10
371.107568
 20
399.339725
 30
0.0
 11
371.107579
 21
396.839727
 31
0.0
  0
ARC
  5
177
330
1F
100
AcDbEntity
  8
LC-002-002-RND-0
 62
     7
370
    50
100
AcDbCircle
 10
373.107207
 20
402.839731
 30
0.0
 40
1.999999999999897
100
AcDbArc
 50
270.00002
 51
0.000111
  0
ARC
  5
178
330
1F
100
AcDbEntity
  8
LC-002-002-RND-0
 62
     7
370
    50
100
AcDbCircle
 10
378.107175
 20
418.839745
 30
0.0
 40
2.999999999999969
100
AcDbArc
 50
90.000248
 51
180.000111
  0
ARC
  5
179
330
1F
100
AcDbEntity
  8
LC-001-002-----0
 62
     7
370
    50
100
AcDbCircle
 10
417.79805
 20
428.108649
 30
0.0
 40
2.999999999994985
100
AcDbArc
 50
282.000248
 51
339.442977
  0
LINE
  5
17A
330
1F
100
AcDbEntity
  8
LC-001-002-----0
 62
     7
370
    50
100
AcDbLine
 10
378.112894
 20
421.839615
 30
0.0
 11
296.113211
 21
421.839568
 31
0.0
  0
LINE
  5
17B
330
1F
100
AcDbEntity
  8
LC-001-002-----0
 62
     7
370
    50
100
AcDbLine
 10
214.113502
 20
421.83939
 30
0.0
 11
296.113185
 21
421.839568
 31
0.0
  0
LINE
  5
17C
330
1F
100
AcDbEntity
  8
LC-001-002-----0
 62
     7
370
    50
100
AcDbLine
 10
199.109697
 20
436.138775
 30
0.0
 11
199.111332
 21
436.14041
 31
0.0
  0
LINE
  5
17D
330
1F
100
AcDbEntity
  8
LC-001-002-----0
 62
     7
370
    50
100
AcDbLine
 10
199.109697
 20
436.138775
 30
0.0
 11
199.111332
 21
436.138775
 31
0.0
  0
LINE
  5
17E
330
1F
100
AcDbEntity
  8
LC-001-002-----0
 62
     7
370
    50
100
AcDbLine
 10
196.10971
 20
396.838775
 30
0.0
 11
198.60971
 21
396.838775
 31
0.0
  0
LINE
  5
17F
330
1F
100
AcDbEntity
  8
LC-001-002-----0
 62
     7
370
    50
100
AcDbLine
 10
199.109697
 20
432.339735
 30
0.0
 11
199.109697
 21
436.138775
 31
0.0
  0
LINE
  5
180
330
1F
100
AcDbEntity
  8
LC-001-002-----0
 62
     7
370
    50
100
AcDbLine
 10
199.109697
 20
395.838775
 30
0.0
 11
199.109697
 21
423.339316
 31
0.0
  0
LINE
  5
181
330
1F
100
AcDbEntity
  8
LC-001-002-----0
 62
     7
370
    50
100
AcDbLine
 10
209.160315
 20
396.838775
 30
0.0
 11
209.160315
 21
395.838775
 31
0.0
  0
LINE
  5
182
330
1F
100
AcDbEntity
  8
LC-001-002-----0
 62
     7
370
    50
100
AcDbLine
 10
205.60971
 20
396.838775
 30
0.0
 11
209.160315
 21
396.838775
 31
0.0
  0
INSERT
  5
198
330
1F
100
AcDbEntity
  8
LC-003-005-----0
 62
     7
370
    25
100
AcDbBlockReference
  2
*X99
 10
0.0
 20
0.0
 30
0.0
  0
INSERT
  5
19D
330
1F
100
AcDbEntity
  8
LC-003-005-----0
 62
     7
370
    25
100
AcDbBlockReference
  2
*X1010
 10
0.0
 20
0.0
 30
0.0
  0
LINE
  5
19E
330
1F
100
AcDbEntity
  8
LC-001-002-----0
 62
     7
370
    50
100
AcDbLine
 10
420.846979
 20
419.005836
 30
0.0
 11
420.553133
 21
419.813166
 31
0.0
  0
LINE
  5
19F
330
1F
100
AcDbEntity
  8
LC-001-002-----0
 62
     7
370
    50
100
AcDbLine
 10
420.553133
 20
419.813166
 30
0.0
 11
401.392108
 21
412.839064
 31
0.0
  0
LINE
  5
1A0
330
1F
100
AcDbEntity
  8
LC-001-002-----0
 62
     7
370
    50
100
AcDbLine
 10
420.846979
 20
419.005836
 30
0.0
 11
401.156601
 21
411.839063
 31
0.0
  0
LINE
  5
1A1
330
1F
100
AcDbEntity
  8
LC-001-002-----0
 62
     7
370
    50
100
AcDbLine
 10
398.116712
 20
412.839055
 30
0.0
 11
401.392108
 21
412.839064
 31
0.0
  0
LINE
  5
1A2
330
1F
100
AcDbEntity
  8
LC-001-002-----0
 62
     7
370
    50
100
AcDbLine
 10
398.116714
 20
411.839055
 30
0.0
 11
401.156601
 21
411.839063
 31
0.0
  0
ARC
  5
1A3
330
1F
100
AcDbEntity
  8
LC-002-002-RND-0
 62
     7
370
    50
100
AcDbCircle
 10
398.116716
 20
411.339055
 30
0.0
 40
1.500000000000074
100
AcDbArc
 50
90.000157
 51
180.000157
  0
ARC
  5
1A4
330
1F
100
AcDbEntity
  8
LC-002-002-RND-0
 62
     7
370
    50
100
AcDbCircle
 10
398.116716
 20
411.339055
 30
0.0
 40
0.5000000000000625
100
AcDbArc
 50
90.000157
 51
180.000157
  0
LINE
  5
1A5
330
1F
100
AcDbEntity
  8
LC-001-002-----0
 62
     7
370
    50
100
AcDbLine
 10
397.616754
 20
397.339054
 30
0.0
 11
397.616716
 21
411.339054
 31
0.0
  0
LINE
  5
1A6
330
1F
100
AcDbEntity
  8
LC-001-002-----0
 62
     7
370
    50
100
AcDbLine
 10
396.616754
 20
397.339051
 30
0.0
 11
396.616716
 21
411.339051
 31
0.0
  0
ARC
  5
1A7
330
1F
100
AcDbEntity
  8
LC-002-002-RND-0
 62
     7
370
    50
100
AcDbCircle
 10
396.116754
 20
397.33905
 30
0.0
 40
1.49999999999996
100
AcDbArc
 50
270.000157
 51
0.000157
  0
ARC
  5
1A8
330
1F
100
AcDbEntity
  8
LC-002-002-RND-0
 62
     7
370
    50
100
AcDbCircle
 10
396.116754
 20
397.33905
 30
0.0
 40
0.4999999999999488
100
AcDbArc
 50
270.000157
 51
0.000157
  0
LINE
  5
1A9
330
1F
100
AcDbEntity
  8
LC-001-002-----0
 62
     7
370
    50
100
AcDbLine
 10
396.116755
 20
396.83905
 30
0.0
 11
393.616755
 21
396.839043
 31
0.0
  0
LINE
  5
1AA
330
1F
100
AcDbEntity
  8
LC-001-002-----0
 62
     7
370
    50
100
AcDbLine
 10
393.616755
 20
396.839043
 30
0.0
 11
393.616758
 21
395.839043
 31
0.0
  0
LINE
  5
1AB
330
1F
100
AcDbEntity
  8
LC-001-002-----0
 62
     7
370
    50
100
AcDbLine
 10
194.60971
 20
397.338775
 30
0.0
 11
194.60971
 21
411.338775
 31
0.0
  0
LINE
  5
1AC
330
1F
100
AcDbEntity
  8
LC-001-002-----0
 62
     7
370
    50
100
AcDbLine
 10
195.60971
 20
397.338775
 30
0.0
 11
195.60971
 21
411.338775
 31
0.0
  0
LINE
  5
1AD
330
1F
100
AcDbEntity
  8
LC-001-002-----0
 62
     7
370
    50
100
AcDbLine
 10
205.60971
 20
396.838775
 30
0.0
 11
205.60971
 21
395.838775
 31
0.0
  0
LINE
  5
1AE
330
1F
100
AcDbEntity
  8
LC-001-002-----0
 62
     7
370
    50
100
AcDbLine
 10
196.10971
 20
395.838775
 30
0.0
 11
199.111332
 21
395.838775
 31
0.0
  0
ARC
  5
1AF
330
1F
100
AcDbEntity
  8
LC-002-002-RND-0
 62
     7
370
    50
100
AcDbCircle
 10
194.10971
 20
411.338775
 30
0.0
 40
1.5
100
AcDbArc
 50
0.0
 51
90.0
  0
ARC
  5
1B0
330
1F
100
AcDbEntity
  8
LC-002-002-RND-0
 62
     7
370
    50
100
AcDbCircle
 10
196.10971
 20
397.338775
 30
0.0
 40
1.5
100
AcDbArc
 50
180.0
 51
270.0
  0
ARC
  5
1B1
330
1F
100
AcDbEntity
  8
LC-002-002-RND-0
 62
     7
370
    50
100
AcDbCircle
 10
194.10971
 20
411.338775
 30
0.0
 40
0.5
100
AcDbArc
 50
0.0
 51
90.0
  0
LINE
  5
1B2
330
1F
100
AcDbEntity
  8
LC-001-002-----0
 62
     7
370
    50
100
AcDbLine
 10
194.10971
 20
412.838775
 30
0.0
 11
190.834314
 21
412.838775
 31
0.0
  0
LINE
  5
1B3
330
1F
100
AcDbEntity
  8
LC-001-002-----0
 62
     7
370
    50
100
AcDbLine
 10
171.379425
 20
419.005494
 30
0.0
 11
191.069823
 21
411.838775
 31
0.0
  0
LINE
  5
1B4
330
1F
100
AcDbEntity
  8
LC-001-002-----0
 62
     7
370
    50
100
AcDbLine
 10
194.10971
 20
411.838775
 30
0.0
 11
191.069823
 21
411.838775
 31
0.0
  0
ARC
  5
1B5
330
1F
100
AcDbEntity
  8
LC-002-002-RND-0
 62
     7
370
    50
100
AcDbCircle
 10
196.10971
 20
397.338775
 30
0.0
 40
0.5
100
AcDbArc
 50
180.0
 51
270.0
  0
LINE
  5
1B6
330
1F
100
AcDbEntity
  8
LC-001-002-----0
 62
     7
370
    50
100
AcDbLine
 10
171.379425
 20
419.005494
 30
0.0
 11
171.67327
 21
419.812825
 31
0.0
  0
LINE
  5
1B7
330
1F
100
AcDbEntity
  8
LC-001-002-----0
 62
     7
370
    50
100
AcDbLine
 10
198.60971
 20
396.838775
 30
0.0
 11
198.60971
 21
395.838775
 31
0.0
  0
LINE
  5
1B8
330
1F
100
AcDbEntity
  8
LC-001-002-----0
 62
     7
370
    50
100
AcDbLine
 10
171.67327
 20
419.812825
 30
0.0
 11
190.834314
 21
412.838775
 31
0.0
  0
LINE
  5
1B9
330
1F
100
AcDbEntity
  8
LC-001-002-----0
 62
     7
370
    50
100
AcDbLine
 10
386.616755
 20
396.839024
 30
0.0
 11
383.06615
 21
396.839014
 31
0.0
  0
LINE
  5
1BA
330
1F
100
AcDbEntity
  8
LC-001-002-----0
 62
     7
370
    50
100
AcDbLine
 10
386.616755
 20
396.839024
 30
0.0
 11
386.616758
 21
395.839024
 31
0.0
  0
LINE
  5
1BB
330
1F
100
AcDbEntity
  8
LC-001-002-----0
 62
     7
370
    50
100
AcDbLine
 10
383.06615
 20
396.839014
 30
0.0
 11
383.066153
 21
395.839014
 31
0.0
  0
LINE
  5
1BC
330
1F
100
AcDbEntity
  8
LC-001-002-----0
 62
     7
370
    50
100
AcDbLine
 10
396.116758
 20
395.83905
 30
0.0
 11
393.111205
 21
395.839041
 31
0.0
  0
INSERT
  5
1CC
330
1F
100
AcDbEntity
  8
LC-003-005-----0
 62
     7
370
    25
100
AcDbBlockReference
  2
*X1111
 10
0.0
 20
0.0
 30
0.0
  0
INSERT
  5
1D1
330
1F
100
AcDbEntity
  8
LC-003-005-----0
 62
     7
370
    25
100
AcDbBlockReference
  2
*X1212
 10
0.0
 20
0.0
 30
0.0
  0
LINE
  5
1D2
330
1F
100
AcDbEntity
  8
LC-001-002-----0
 62
     7
370
    50
100
AcDbLine
 10
393.116772
 20
395.839041
 30
0.0
 11
393.116696
 21
423.339582
 31
0.0
  0
LINE
  5
1D3
330
1F
100
AcDbEntity
  8
LC-001-002-----0
 62
     7
370
    50
100
AcDbLine
 10
393.116671
 20
432.340001
 30
0.0
 11
393.116661
 21
436.139041
 31
0.0
  0
ARC
  5
1D4
330
1F
100
AcDbEntity
  8
LC-002-002-RND-0
 62
     7
370
    50
100
AcDbCircle
 10
356.111273
 20
329.645654
 30
0.0
 40
3.0
100
AcDbArc
 50
270.0
 51
0.0
  0
LINE
  5
1D5
330
1F
100
AcDbEntity
  8
LC-001-002-----0
 62
     7
370
    50
100
AcDbLine
 10
369.611268
 20
380.646
 30
0.0
 11
373.861268
 21
380.646
 31
0.0
  0
LINE
  5
1D6
330
1F
100
AcDbEntity
  8
LC-001-002-----0
 62
     7
370
    50
100
AcDbLine
 10
296.111268
 20
-34.354
 30
0.0
 11
338.111268
 21
-34.354
 31
0.0
  0
ARC
  5
1D7
330
1F
100
AcDbEntity
  8
LC-002-002-RND-0
 62
     7
370
    50
100
AcDbCircle
 10
196.60617
 20
399.145976
 30
0.0
 40
0.5000000000000742
100
AcDbArc
 50
180.000334
 51
270.000248
  0
LINE
  5
1D8
330
1F
100
AcDbEntity
  8
LC-001-002-----0
 62
     7
370
    50
100
AcDbLine
 10
210.611267
 20
397.146
 30
0.0
 11
214.361268
 21
397.146
 31
0.0
  0
LINE
  5
1D9
330
1F
100
AcDbEntity
  8
LC-001-002-----0
 62
     7
370
    50
100
AcDbLine
 10
215.361268
 20
396.146
 30
0.0
 11
215.361268
 21
383.646
 31
0.0
  0
LINE
  5
1DA
330
1F
100
AcDbEntity
  8
LC-001-002-----0
 62
     7
370
    50
100
AcDbLine
 10
210.611267
 20
397.146
 30
0.0
 11
210.611267
 21
398.646296
 31
0.0
  0
LINE
  5
1DB
330
1F
100
AcDbEntity
  8
LC-001-002-----0
 62
     7
370
    50
100
AcDbLine
 10
213.611267
 20
400.146
 30
0.0
 11
213.611267
 21
416.889817
 31
0.0
  0
LINE
  5
1DC
330
1F
100
AcDbEntity
  8
LC-001-002-----0
 62
     7
370
    50
100
AcDbLine
 10
378.611267
 20
416.889817
 30
0.0
 11
378.611267
 21
400.146
 31
0.0
  0
LINE
  5
1DD
330
1F
100
AcDbEntity
  8
LC-001-002-----0
 62
     7
370
    50
100
AcDbLine
 10
378.611267
 20
400.146
 30
0.0
 11
373.861268
 21
400.146
 31
0.0
  0
LINE
  5
1DE
330
1F
100
AcDbEntity
  8
LC-001-002-----0
 62
     7
370
    50
100
AcDbLine
 10
214.361268
 20
397.146
 30
0.0
 11
215.361268
 21
396.146
 31
0.0
  0
LINE
  5
1DF
330
1F
100
AcDbEntity
  8
LC-001-002-----0
 62
     7
370
    50
100
AcDbLine
 10
251.111268
 20
326.645654
 30
0.0
 11
251.111268
 21
-29.854
 31
0.0
  0
LINE
  5
1E2
330
1F
100
AcDbEntity
  8
LC-005-006-MLN-0
 62
     7
370
    25
100
AcDbLine
 10
296.111268
 20
506.811118
 30
0.0
 11
296.111268
 21
360.968
 31
0.0
  0
LINE
  5
1E3
330
1F
100
AcDbEntity
  8
LC-001-002-----0
 62
     7
370
    50
100
AcDbLine
 10
381.611269
 20
397.146
 30
0.0
 11
381.611269
 21
398.646259
 31
0.0
  0
LINE
  5
1E4
330
1F
100
AcDbEntity
  8
LC-001-002-----0
 62
     7
370
    50
100
AcDbLine
 10
381.611269
 20
397.146
 30
0.0
 11
377.861268
 21
397.146
 31
0.0
  0
LINE
  5
1E5
330
1F
100
AcDbEntity
  8
LC-001-002-----0
 62
     7
370
    50
100
AcDbLine
 10
377.861268
 20
397.146
 30
0.0
 11
376.861268
 21
396.146
 31
0.0
  0
LINE
  5
1E6
330
1F
100
AcDbEntity
  8
LC-001-002-----0
 62
     7
370
    50
100
AcDbLine
 10
376.861268
 20
396.146
 30
0.0
 11
376.861268
 21
383.646
 31
0.0
  0
LINE
  5
1E7
330
1F
100
AcDbEntity
  8
LC-001-002-----0
 62
     7
370
    50
100
AcDbLine
 10
168.369605
 20
425.646
 30
0.0
 11
192.426158
 21
416.890249
 31
0.0
  0
LINE
  5
1E8
330
1F
100
AcDbEntity
  8
LC-001-002-----0
 62
     7
370
    50
100
AcDbLine
 10
199.109697
 20
416.888154
 30
0.0
 11
192.426158
 21
416.890249
 31
0.0
  0
LINE
  5
1E9
330
1F
100
AcDbEntity
  8
LC-001-002-----0
 62
     7
370
    50
100
AcDbLine
 10
213.611267
 20
400.146
 30
0.0
 11
218.361268
 21
400.146
 31
0.0
  0
LINE
  5
1EA
330
1F
100
AcDbEntity
  8
LC-001-002-----0
 62
     7
370
    50
100
AcDbLine
 10
196.10617
 20
399.145974
 30
0.0
 11
196.106088
 21
412.889095
 31
0.0
  0
LINE
  5
1EB
330
1F
100
AcDbEntity
  8
LC-001-002-----0
 62
     7
370
    50
100
AcDbLine
 10
196.606172
 20
398.645976
 30
0.0
 11
199.111332
 21
398.645992
 31
0.0
  0
LINE
  5
1EC
330
1F
100
AcDbEntity
  8
LC-001-002-----0
 62
     7
370
    50
100
AcDbLine
 10
213.604348
 20
416.88946
 30
0.0
 11
205.111332
 21
416.888635
 31
0.0
  0
LINE
  5
1ED
330
1F
100
AcDbEntity
  8
LC-001-002-----0
 62
     7
370
    50
100
AcDbLine
 10
205.111332
 20
398.646029
 30
0.0
 11
210.611267
 21
398.646296
 31
0.0
  0
LINE
  5
1EE
330
1F
100
AcDbEntity
  8
LC-001-002-----0
 62
     7
370
    50
100
AcDbLine
 10
423.847476
 20
425.646
 30
0.0
 11
399.779222
 21
416.888495
 31
0.0
  0
LINE
  5
1EF
330
1F
100
AcDbEntity
  8
LC-005-006-MLN-0
 62
     7
370
    25
100
AcDbLine
 10
390.119595
 20
451.146043
 30
0.0
 11
390.11372
 21
385.839033
 31
0.0
  0
LINE
  5
1F0
330
1F
100
AcDbEntity
  8
LC-001-002-----0
 62
     7
370
    50
100
AcDbLine
 10
393.111205
 20
416.888495
 30
0.0
 11
399.779222
 21
416.888495
 31
0.0
  0
LINE
  5
1F1
330
1F
100
AcDbEntity
  8
LC-001-002-----0
 62
     7
370
    50
100
AcDbLine
 10
396.116466
 20
399.146
 30
0.0
 11
396.116455
 21
412.889095
 31
0.0
  0
LINE
  5
1F2
330
1F
100
AcDbEntity
  8
LC-001-002-----0
 62
     7
370
    50
100
AcDbLine
 10
395.616466
 20
398.646
 30
0.0
 11
393.111205
 21
398.646005
 31
0.0
  0
LINE
  5
1F3
330
1F
100
AcDbEntity
  8
LC-001-002-----0
 62
     7
370
    50
100
AcDbLine
 10
387.111205
 20
398.646135
 30
0.0
 11
381.611269
 21
398.646259
 31
0.0
  0
LINE
  5
1F4
330
1F
100
AcDbEntity
  8
LC-001-002-----0
 62
     7
370
    50
100
AcDbLine
 10
218.361268
 20
383.646
 30
0.0
 11
218.361268
 21
400.146
 31
0.0
  0
LINE
  5
1F5
330
1F
100
AcDbEntity
  8
LC-001-002-----0
 62
     7
370
    50
100
AcDbLine
 10
373.861268
 20
383.646
 30
0.0
 11
373.861268
 21
400.146
 31
0.0
  0
LINE
  5
1F6
330
1F
100
AcDbEntity
  8
LC-001-002-----0
 62
     7
370
    50
100
AcDbLine
 10
254.111268
 20
329.645654
 30
0.0
 11
254.111268
 21
-34.354
 31
0.0
  0
LINE
  5
1F7
330
1F
100
AcDbEntity
  8
LC-001-002-----0
 62
     7
370
    50
100
AcDbLine
 10
378.618244
 20
416.889817
 30
0.0
 11
387.111205
 21
416.889029
 31
0.0
  0
LINE
  5
1F8
330
1F
100
AcDbEntity
  8
LC-001-002-----0
 62
     7
370
    50
100
AcDbLine
 10
341.111273
 20
326.645654
 30
0.0
 11
341.111268
 21
-29.854
 31
0.0
  0
LINE
  5
1F9
330
1F
100
AcDbEntity
  8
LC-001-002-----0
 62
     7
370
    50
100
AcDbLine
 10
339.905497
 20
-34.354
 30
0.0
 11
341.111268
 21
-29.854
 31
0.0
  0
LINE
  5
1FA
330
1F
100
AcDbEntity
  8
LC-001-002-----0
 62
     7
370
    50
100
AcDbLine
 10
252.317039
 20
-34.354
 30
0.0
 11
251.111268
 21
-29.854
 31
0.0
  0
LINE
  5
1FB
330
1F
100
AcDbEntity
  8
LC-001-002-----0
 62
     7
370
    50
100
AcDbLine
 10
339.905497
 20
-34.354
 30
0.0
 11
296.111268
 21
-34.354
 31
0.0
  0
LINE
  5
1FC
330
1F
100
AcDbEntity
  8
LC-001-002-----0
 62
     7
370
    50
100
AcDbLine
 10
254.111268
 20
-34.354
 30
0.0
 11
252.317039
 21
-34.354
 31
0.0
  0
LINE
  5
1FD
330
1F
100
AcDbEntity
  8
LC-001-002-----0
 62
     7
370
    50
100
AcDbLine
 10
338.111268
 20
-34.354
 30
0.0
 11
339.905497
 21
-34.354
 31
0.0
  0
LINE
  5
1FE
330
1F
100
AcDbEntity
  8
LC-001-002-----0
 62
     7
370
    50
100
AcDbLine
 10
338.111273
 20
329.645654
 30
0.0
 11
338.111268
 21
-34.354
 31
0.0
  0
ARC
  5
1FF
330
1F
100
AcDbEntity
  8
LC-002-002-RND-0
 62
     7
370
    50
100
AcDbCircle
 10
395.616466
 20
399.146
 30
0.0
 40
0.5
100
AcDbArc
 50
270.0
 51
0.000045
  0
LINE
  5
200
330
1F
100
AcDbEntity
  8
LC-001-002-----0
 62
     7
370
    50
100
AcDbLine
 10
218.361268
 20
383.646
 30
0.0
 11
224.343319
 21
383.646
 31
0.0
  0
ARC
  5
201
330
1F
100
AcDbEntity
  8
LC-002-002-RND-0
 62
     7
370
    50
100
AcDbCircle
 10
373.861268
 20
383.646
 30
0.0
 40
3.0
100
AcDbArc
 50
270.0
 51
360.0
  0
LINE
  5
202
330
1F
100
AcDbEntity
  8
LC-001-002-----0
 62
     7
370
    50
100
AcDbLine
 10
359.111273
 20
362.459475
 30
0.0
 11
369.611268
 21
380.646
 31
0.0
  0
LINE
  5
203
330
1F
100
AcDbEntity
  8
LC-001-002-----0
 62
     7
370
    50
100
AcDbLine
 10
359.111273
 20
329.645654
 30
0.0
 11
359.111273
 21
362.459475
 31
0.0
  0
LINE
  5
204
330
1F
100
AcDbEntity
  8
LC-001-002-----0
 62
     7
370
    50
100
AcDbLine
 10
356.111273
 20
329.645654
 30
0.0
 11
356.111273
 21
363.263323
 31
0.0
  0
LINE
  5
205
330
1F
100
AcDbEntity
  8
LC-001-002-----0
 62
     7
370
    50
100
AcDbLine
 10
341.111273
 20
326.645654
 30
0.0
 11
356.111273
 21
326.645654
 31
0.0
  0
LINE
  5
206
330
1F
100
AcDbEntity
  8
LC-001-002-----0
 62
     7
370
    50
100
AcDbLine
 10
254.111268
 20
329.645654
 30
0.0
 11
356.111273
 21
329.645654
 31
0.0
  0
LINE
  5
207
330
1F
100
AcDbEntity
  8
LC-001-002-----0
 62
     7
370
    50
100
AcDbLine
 10
356.111273
 20
363.263323
 30
0.0
 11
367.879217
 21
383.646
 31
0.0
  0
LINE
  5
208
330
1F
100
AcDbEntity
  8
LC-001-002-----0
 62
     7
370
    50
100
AcDbLine
 10
356.111273
 20
363.263323
 30
0.0
 11
336.289067
 21
363.263323
 31
0.0
  0
LINE
  5
209
330
1F
100
AcDbEntity
  8
LC-001-002-----0
 62
     7
370
    50
100
AcDbLine
 10
254.111268
 20
329.645654
 30
0.0
 11
236.111263
 21
329.645654
 31
0.0
  0
LINE
  5
20A
330
1F
100
AcDbEntity
  8
LC-001-002-----0
 62
     7
370
    50
100
AcDbLine
 10
251.111263
 20
326.645654
 30
0.0
 11
236.111263
 21
326.645654
 31
0.0
  0
ARC
  5
20B
330
1F
100
AcDbEntity
  8
LC-002-002-RND-0
 62
     7
370
    50
100
AcDbCircle
 10
236.111263
 20
329.645654
 30
0.0
 40
3.0
100
AcDbArc
 50
180.0
 51
270.0
  0
LINE
  5
20C
330
1F
100
AcDbEntity
  8
LC-001-002-----0
 62
     7
370
    50
100
AcDbLine
 10
236.111263
 20
329.645654
 30
0.0
 11
236.111263
 21
363.263323
 31
0.0
  0
LINE
  5
20D
330
1F
100
AcDbEntity
  8
LC-001-002-----0
 62
     7
370
    50
100
AcDbLine
 10
233.111263
 20
329.645654
 30
0.0
 11
233.111263
 21
362.459475
 31
0.0
  0
LINE
  5
20E
330
1F
100
AcDbEntity
  8
LC-001-002-----0
 62
     7
370
    50
100
AcDbLine
 10
236.111263
 20
363.263323
 30
0.0
 11
262.904788
 21
363.263323
 31
0.0
  0
LINE
  5
20F
330
1F
100
AcDbEntity
  8
LC-001-002-----0
 62
     7
370
    50
100
AcDbLine
 10
236.111263
 20
363.263323
 30
0.0
 11
224.343319
 21
383.646
 31
0.0
  0
LINE
  5
210
330
1F
100
AcDbEntity
  8
LC-001-002-----0
 62
     7
370
    50
100
AcDbLine
 10
233.111263
 20
362.459475
 30
0.0
 11
222.611268
 21
380.646
 31
0.0
  0
LINE
  5
211
330
1F
100
AcDbEntity
  8
LC-001-002-----0
 62
     7
370
    50
100
AcDbLine
 10
222.611268
 20
380.646
 30
0.0
 11
218.361268
 21
380.646
 31
0.0
  0
ARC
  5
212
330
1F
100
AcDbEntity
  8
LC-002-002-RND-0
 62
     7
370
    50
100
AcDbCircle
 10
218.361268
 20
383.646
 30
0.0
 40
3.0
100
AcDbArc
 50
180.0
 51
270.0
  0
LINE
  5
213
330
1F
100
AcDbEntity
  8
LC-001-002-----0
 62
     7
370
    50
100
AcDbLine
 10
224.343319
 20
383.646
 30
0.0
 11
373.861268
 21
383.646
 31
0.0
  0
INSERT
  5
2C7
330
1F
100
AcDbEntity
  8
LC-003-005-----0
 62
     7
370
    25
100
AcDbBlockReference
  2
*X1313
 10
0.0
 20
0.0
 30
0.0
  0
INSERT
  5
373
330
1F
100
AcDbEntity
  8
LC-003-005-----0
 62
     7
370
    25
100
AcDbBlockReference
  2
*X1414
 10
0.0
 20
0.0
 30
0.0
  0
LINE
  5
374
330
1F
100
AcDbEntity
  8
LC-001-002-----0
 62
     7
370
    50
100
AcDbLine
 10
473.111268
 20
422.646
 30
0.0
 11
473.111268
 21
423.646
 31
0.0
  0
LINE
  5
375
330
1F
100
AcDbEntity
  8
LC-001-002-----0
 62
     7
370
    50
100
AcDbLine
 10
119.111268
 20
422.646
 30
0.0
 11
119.111268
 21
423.646
 31
0.0
  0
LINE
  5
376
330
1F
100
AcDbEntity
  8
LC-001-002-----0
 62
     7
370
    50
100
AcDbLine
 10
121.111268
 20
425.646
 30
0.0
 11
168.369605
 21
425.646
 31
0.0
  0
LINE
  5
377
330
1F
100
AcDbEntity
  8
LC-001-002-----0
 62
     7
370
    50
100
AcDbLine
 10
119.111268
 20
422.646
 30
0.0
 11
167.840631
 21
422.646
 31
0.0
  0
LINE
  5
378
330
1F
100
AcDbEntity
  8
LC-001-002-----0
 62
     7
370
    50
100
AcDbLine
 10
473.111268
 20
422.646
 30
0.0
 11
424.381905
 21
422.646
 31
0.0
  0
LINE
  5
379
330
1F
100
AcDbEntity
  8
LC-001-002-----0
 62
     7
370
    50
100
AcDbLine
 10
167.840631
 20
422.646
 30
0.0
 11
191.896728
 21
413.890415
 31
0.0
  0
LINE
  5
37A
330
1F
100
AcDbEntity
  8
LC-001-002-----0
 62
     7
370
    50
100
AcDbLine
 10
195.105763
 20
413.889409
 30
0.0
 11
191.896728
 21
413.890415
 31
0.0
  0
LINE
  5
37B
330
1F
100
AcDbEntity
  8
LC-001-002-----0
 62
     7
370
    50
100
AcDbLine
 10
424.381905
 20
422.646
 30
0.0
 11
400.325808
 21
413.890415
 31
0.0
  0
LINE
  5
37C
330
1F
100
AcDbEntity
  8
LC-001-002-----0
 62
     7
370
    50
100
AcDbLine
 10
397.116767
 20
413.889409
 30
0.0
 11
400.325808
 21
413.890415
 31
0.0
  0
INSERT
  5
3A5
330
1F
100
AcDbEntity
  8
LC-003-005-----0
 62
     7
370
    25
100
AcDbBlockReference
  2
*X1515
 10
0.0
 20
0.0
 30
0.0
  0
INSERT
  5
3C9
330
1F
100
AcDbEntity
  8
LC-003-005-----0
 62
     7
370
    25
100
AcDbBlockReference
  2
*X1616
 10
0.0
 20
0.0
 30
0.0
  0
ARC
  5
3CA
330
1F
100
AcDbEntity
  8
LC-002-002-RND-0
 62
     7
370
    50
100
AcDbCircle
 10
471.111268
 20
423.646
 30
0.0
 40
2.0
100
AcDbArc
 50
0.0
 51
90.0
  0
LINE
  5
3CB
330
1F
100
AcDbEntity
  8
LC-001-002-----0
 62
     7
370
    50
100
AcDbLine
 10
396.116455
 20
412.889095
 30
0.0
 11
397.116767
 21
413.889409
 31
0.0
  0
LINE
  5
3CC
330
1F
100
AcDbEntity
  8
LC-001-002-----0
 62
     7
370
    50
100
AcDbLine
 10
196.106088
 20
412.889095
 30
0.0
 11
195.105763
 21
413.889409
 31
0.0
  0
LINE
  5
3CD
330
1F
100
AcDbEntity
  8
LC-001-002-----0
 62
     7
370
    50
100
AcDbLine
 10
205.111332
 20
389.646043
 30
0.0
 11
205.111332
 21
403.146043
 31
0.0
  0
LINE
  5
3CE
330
1F
100
AcDbEntity
  8
LC-001-002-----0
 62
     7
370
    50
100
AcDbLine
 10
199.611332
 20
389.146043
 30
0.0
 11
204.611332
 21
389.146043
 31
0.0
  0
LINE
  5
3CF
330
1F
100
AcDbEntity
  8
LC-001-002-----0
 62
     7
370
    50
100
AcDbLine
 10
199.111332
 20
389.646043
 30
0.0
 11
199.111332
 21
403.146043
 31
0.0
  0
LINE
  5
3D0
330
1F
100
AcDbEntity
  8
LC-001-002-----0
 62
     7
370
    50
100
AcDbLine
 10
204.611332
 20
441.146043
 30
0.0
 11
199.611332
 21
441.146043
 31
0.0
  0
LINE
  5
3D1
330
1F
100
AcDbEntity
  8
LC-001-002-----0
 62
     7
370
    50
100
AcDbLine
 10
204.611332
 20
441.146043
 30
0.0
 11
205.111332
 21
440.646043
 31
0.0
  0
LINE
  5
3D2
330
1F
100
AcDbEntity
  8
LC-001-002-----0
 62
     7
370
    50
100
AcDbLine
 10
199.611332
 20
441.146043
 30
0.0
 11
199.111332
 21
440.646043
 31
0.0
  0
LINE
  5
3D3
330
1F
100
AcDbEntity
  8
LC-001-002-----0
 62
     7
370
    50
100
AcDbLine
 10
205.111332
 20
440.646043
 30
0.0
 11
199.111332
 21
440.646043
 31
0.0
  0
LINE
  5
3D4
330
1F
100
AcDbEntity
  8
LC-001-002-----0
 62
     7
370
    50
100
AcDbLine
 10
199.611332
 20
389.146043
 30
0.0
 11
199.111332
 21
389.646043
 31
0.0
  0
LINE
  5
3D5
330
1F
100
AcDbEntity
  8
LC-001-002-----0
 62
     7
370
    50
100
AcDbLine
 10
204.611332
 20
389.146043
 30
0.0
 11
205.111332
 21
389.646043
 31
0.0
  0
LINE
  5
3D6
330
1F
100
AcDbEntity
  8
LC-001-002-----0
 62
     7
370
    50
100
AcDbLine
 10
199.111332
 20
389.646043
 30
0.0
 11
205.111332
 21
389.646043
 31
0.0
  0
LINE
  5
3D8
330
1F
100
AcDbEntity
  8
LC-006-003-----0
 62
     7
370
    25
100
AcDbLine
 10
204.611332
 20
389.646043
 30
0.0
 11
204.611332
 21
403.146043
 31
0.0
  0
LINE
  5
3D9
330
1F
100
AcDbEntity
  8
LC-006-003-----0
 62
     7
370
    25
100
AcDbLine
 10
199.611332
 20
389.646043
 30
0.0
 11
199.611332
 21
403.146043
 31
0.0
  0
LINE
  5
3DA
330
1F
100
AcDbEntity
  8
LC-005-006-MLN-0
 62
     7
370
    25
100
AcDbLine
 10
202.111332
 20
451.146043
 30
0.0
 11
202.111332
 21
381.146043
 31
0.0
  0
LINE
  5
3DB
330
1F
100
AcDbEntity
  8
LC-001-002-----0
 62
     7
370
    50
100
AcDbLine
 10
199.111332
 20
403.146043
 30
0.0
 11
201.111332
 21
403.146043
 31
0.0
  0
LINE
  5
3DC
330
1F
100
AcDbEntity
  8
LC-001-002-----0
 62
     7
370
    50
100
AcDbLine
 10
197.111332
 20
409.146043
 30
0.0
 11
197.111332
 21
405.146043
 31
0.0
  0
LINE
  5
3DD
330
1F
100
AcDbEntity
  8
LC-001-002-----0
 62
     7
370
    50
100
AcDbLine
 10
207.111332
 20
409.146043
 30
0.0
 11
207.111332
 21
405.146043
 31
0.0
  0
LINE
  5
3DE
330
1F
100
AcDbEntity
  8
LC-001-002-----0
 62
     7
370
    50
100
AcDbLine
 10
199.111332
 20
411.146043
 30
0.0
 11
201.111332
 21
411.146043
 31
0.0
  0
LINE
  5
3DF
330
1F
100
AcDbEntity
  8
LC-001-002-----0
 62
     7
370
    50
100
AcDbLine
 10
203.111332
 20
411.146043
 30
0.0
 11
205.111332
 21
411.146043
 31
0.0
  0
LINE
  5
3E0
330
1F
100
AcDbEntity
  8
LC-001-002-----0
 62
     7
370
    50
100
AcDbLine
 10
203.111332
 20
403.146043
 30
0.0
 11
205.111332
 21
403.146043
 31
0.0
  0
LINE
  5
3E1
330
1F
100
AcDbEntity
  8
LC-001-002-----0
 62
     7
370
    50
100
AcDbLine
 10
205.111332
 20
403.146043
 30
0.0
 11
205.111332
 21
423.339735
 31
0.0
  0
LINE
  5
3E2
330
1F
100
AcDbEntity
  8
LC-001-002-----0
 62
     7
370
    50
100
AcDbLine
 10
205.111332
 20
425.439735
 30
0.0
 11
205.111332
 21
440.646043
 31
0.0
  0
LINE
  5
3E3
330
1F
100
AcDbEntity
  8
LC-001-002-----0
 62
     7
370
    50
100
AcDbLine
 10
199.111332
 20
411.146043
 30
0.0
 11
199.111332
 21
423.339735
 31
0.0
  0
LINE
  5
3E4
330
1F
100
AcDbEntity
  8
LC-001-002-----0
 62
     7
370
    50
100
AcDbLine
 10
199.111332
 20
425.439735
 30
0.0
 11
199.111332
 21
440.646043
 31
0.0
  0
LINE
  5
3E5
330
1F
100
AcDbEntity
  8
LC-006-003-----0
 62
     7
370
    25
100
AcDbLine
 10
199.611332
 20
411.146043
 30
0.0
 11
199.611332
 21
423.339735
 31
0.0
  0
LINE
  5
3E6
330
1F
100
AcDbEntity
  8
LC-006-003-----0
 62
     7
370
    25
100
AcDbLine
 10
199.611332
 20
425.439735
 30
0.0
 11
199.611332
 21
441.146043
 31
0.0
  0
LINE
  5
3E7
330
1F
100
AcDbEntity
  8
LC-006-003-----0
 62
     7
370
    25
100
AcDbLine
 10
204.611332
 20
411.146043
 30
0.0
 11
204.611332
 21
423.339735
 31
0.0
  0
LINE
  5
3E8
330
1F
100
AcDbEntity
  8
LC-006-003-----0
 62
     7
370
    25
100
AcDbLine
 10
204.611332
 20
425.439735
 30
0.0
 11
204.611332
 21
441.146043
 31
0.0
  0
LINE
  5
3E9
330
1F
100
AcDbEntity
  8
LC-001-002-----0
 62
     7
370
    50
100
AcDbLine
 10
203.111332
 20
411.146043
 30
0.0
 11
203.111332
 21
403.146043
 31
0.0
  0
LINE
  5
3EA
330
1F
100
AcDbEntity
  8
LC-001-002-----0
 62
     7
370
    50
100
AcDbLine
 10
201.111332
 20
411.146043
 30
0.0
 11
201.111332
 21
403.146043
 31
0.0
  0
ARC
  5
3EB
330
1F
100
AcDbEntity
  8
LC-002-002-RND-0
 62
     7
370
    50
100
AcDbCircle
 10
205.111332
 20
409.146043
 30
0.0
 40
2.0
100
AcDbArc
 50
360.0
 51
90.0
  0
ARC
  5
3EC
330
1F
100
AcDbEntity
  8
LC-002-002-RND-0
 62
     7
370
    50
100
AcDbCircle
 10
205.111332
 20
405.146043
 30
0.0
 40
2.0
100
AcDbArc
 50
270.0
 51
360.0
  0
ARC
  5
3ED
330
1F
100
AcDbEntity
  8
LC-002-002-RND-0
 62
     7
370
    50
100
AcDbCircle
 10
199.111332
 20
405.146043
 30
0.0
 40
2.0
100
AcDbArc
 50
180.0
 51
270.0
  0
ARC
  5
3EE
330
1F
100
AcDbEntity
  8
LC-002-002-RND-0
 62
     7
370
    50
100
AcDbCircle
 10
199.111332
 20
409.146043
 30
0.0
 40
2.0
100
AcDbArc
 50
90.0
 51
180.0
  0
LINE
  5
3EF
330
1F
100
AcDbEntity
  8
LC-001-002-----0
 62
     7
370
    50
100
AcDbLine
 10
387.111205
 20
389.646043
 30
0.0
 11
387.111205
 21
403.146043
 31
0.0
  0
LINE
  5
3F0
330
1F
100
AcDbEntity
  8
LC-001-002-----0
 62
     7
370
    50
100
AcDbLine
 10
392.61121
 20
389.146043
 30
0.0
 11
387.61121
 21
389.146043
 31
0.0
  0
LINE
  5
3F1
330
1F
100
AcDbEntity
  8
LC-001-002-----0
 62
     7
370
    50
100
AcDbLine
 10
393.111205
 20
389.646043
 30
0.0
 11
393.111205
 21
403.146043
 31
0.0
  0
LINE
  5
3F2
330
1F
100
AcDbEntity
  8
LC-001-002-----0
 62
     7
370
    50
100
AcDbLine
 10
387.611205
 20
441.146043
 30
0.0
 11
392.611205
 21
441.146043
 31
0.0
  0
LINE
  5
3F3
330
1F
100
AcDbEntity
  8
LC-001-002-----0
 62
     7
370
    50
100
AcDbLine
 10
387.611205
 20
441.146043
 30
0.0
 11
387.111205
 21
440.646043
 31
0.0
  0
LINE
  5
3F4
330
1F
100
AcDbEntity
  8
LC-001-002-----0
 62
     7
370
    50
100
AcDbLine
 10
392.611205
 20
441.146043
 30
0.0
 11
393.111205
 21
440.646043
 31
0.0
  0
LINE
  5
3F5
330
1F
100
AcDbEntity
  8
LC-001-002-----0
 62
     7
370
    50
100
AcDbLine
 10
387.111205
 20
440.646043
 30
0.0
 11
393.111205
 21
440.646043
 31
0.0
  0
LINE
  5
3F6
330
1F
100
AcDbEntity
  8
LC-001-002-----0
 62
     7
370
    50
100
AcDbLine
 10
392.61121
 20
389.146043
 30
0.0
 11
393.11121
 21
389.646043
 31
0.0
  0
LINE
  5
3F7
330
1F
100
AcDbEntity
  8
LC-001-002-----0
 62
     7
370
    50
100
AcDbLine
 10
387.61121
 20
389.146043
 30
0.0
 11
387.11121
 21
389.646043
 31
0.0
  0
LINE
  5
3F8
330
1F
100
AcDbEntity
  8
LC-001-002-----0
 62
     7
370
    50
100
AcDbLine
 10
393.11121
 20
389.646043
 30
0.0
 11
387.11121
 21
389.646043
 31
0.0
  0
LINE
  5
3F9
330
1F
100
AcDbEntity
  8
LC-006-003-----0
 62
     7
370
    25
100
AcDbLine
 10
387.611205
 20
389.646043
 30
0.0
 11
387.611205
 21
403.146043
 31
0.0
  0
LINE
  5
3FA
330
1F
100
AcDbEntity
  8
LC-006-003-----0
 62
     7
370
    25
100
AcDbLine
 10
392.611205
 20
389.646043
 30
0.0
 11
392.611205
 21
403.146043
 31
0.0
  0
LINE
  5
3FB
330
1F
100
AcDbEntity
  8
LC-001-002-----0
 62
     7
370
    50
100
AcDbLine
 10
393.111205
 20
403.146043
 30
0.0
 11
391.111205
 21
403.146043
 31
0.0
  0
LINE
  5
3FC
330
1F
100
AcDbEntity
  8
LC-001-002-----0
 62
     7
370
    50
100
AcDbLine
 10
395.111205
 20
409.146043
 30
0.0
 11
395.111205
 21
405.146043
 31
0.0
  0
LINE
  5
3FD
330
1F
100
AcDbEntity
  8
LC-001-002-----0
 62
     7
370
    50
100
AcDbLine
 10
385.111205
 20
409.146043
 30
0.0
 11
385.111205
 21
405.146043
 31
0.0
  0
LINE
  5
3FE
330
1F
100
AcDbEntity
  8
LC-001-002-----0
 62
     7
370
    50
100
AcDbLine
 10
393.111205
 20
411.146043
 30
0.0
 11
391.111205
 21
411.146043
 31
0.0
  0
LINE
  5
3FF
330
1F
100
AcDbEntity
  8
LC-001-002-----0
 62
     7
370
    50
100
AcDbLine
 10
389.111205
 20
411.146043
 30
0.0
 11
387.111205
 21
411.146043
 31
0.0
  0
LINE
  5
400
330
1F
100
AcDbEntity
  8
LC-001-002-----0
 62
     7
370
    50
100
AcDbLine
 10
389.111205
 20
403.146043
 30
0.0
 11
387.111205
 21
403.146043
 31
0.0
  0
LINE
  5
401
330
1F
100
AcDbEntity
  8
LC-001-002-----0
 62
     7
370
    50
100
AcDbLine
 10
387.111205
 20
411.146043
 30
0.0
 11
387.111205
 21
423.339735
 31
0.0
  0
LINE
  5
402
330
1F
100
AcDbEntity
  8
LC-001-002-----0
 62
     7
370
    50
100
AcDbLine
 10
387.111205
 20
425.439735
 30
0.0
 11
387.111205
 21
440.646043
 31
0.0
  0
LINE
  5
403
330
1F
100
AcDbEntity
  8
LC-001-002-----0
 62
     7
370
    50
100
AcDbLine
 10
393.111205
 20
411.146043
 30
0.0
 11
393.111205
 21
423.339735
 31
0.0
  0
LINE
  5
404
330
1F
100
AcDbEntity
  8
LC-001-002-----0
 62
     7
370
    50
100
AcDbLine
 10
393.111205
 20
425.439735
 30
0.0
 11
393.111205
 21
440.646043
 31
0.0
  0
LINE
  5
405
330
1F
100
AcDbEntity
  8
LC-006-003-----0
 62
     7
370
    25
100
AcDbLine
 10
392.611205
 20
411.146043
 30
0.0
 11
392.611205
 21
423.339735
 31
0.0
  0
LINE
  5
406
330
1F
100
AcDbEntity
  8
LC-006-003-----0
 62
     7
370
    25
100
AcDbLine
 10
392.611205
 20
425.439735
 30
0.0
 11
392.611205
 21
441.146043
 31
0.0
  0
LINE
  5
407
330
1F
100
AcDbEntity
  8
LC-006-003-----0
 62
     7
370
    25
100
AcDbLine
 10
387.611205
 20
411.146043
 30
0.0
 11
387.611205
 21
423.339735
 31
0.0
  0
LINE
  5
408
330
1F
100
AcDbEntity
  8
LC-006-003-----0
 62
     7
370
    25
100
AcDbLine
 10
387.611205
 20
425.439735
 30
0.0
 11
387.611205
 21
441.146043
 31
0.0
  0
LINE
  5
409
330
1F
100
AcDbEntity
  8
LC-001-002-----0
 62
     7
370
    50
100
AcDbLine
 10
389.111205
 20
411.146043
 30
0.0
 11
389.111205
 21
403.146043
 31
0.0
  0
LINE
  5
40A
330
1F
100
AcDbEntity
  8
LC-001-002-----0
 62
     7
370
    50
100
AcDbLine
 10
391.111205
 20
411.146043
 30
0.0
 11
391.111205
 21
403.146043
 31
0.0
  0
ARC
  5
40B
330
1F
100
AcDbEntity
  8
LC-002-002-RND-0
 62
     7
370
    50
100
AcDbCircle
 10
387.111205
 20
409.146043
 30
0.0
 40
2.0
100
AcDbArc
 50
90.0
 51
180.0
  0
ARC
  5
40C
330
1F
100
AcDbEntity
  8
LC-002-002-RND-0
 62
     7
370
    50
100
AcDbCircle
 10
387.111205
 20
405.146043
 30
0.0
 40
2.0
100
AcDbArc
 50
180.0
 51
270.0
  0
ARC
  5
40D
330
1F
100
AcDbEntity
  8
LC-002-002-RND-0
 62
     7
370
    50
100
AcDbCircle
 10
393.111205
 20
405.146043
 30
0.0
 40
2.0
100
AcDbArc
 50
270.0
 51
0.0
  0
ARC
  5
40E
330
1F
100
AcDbEntity
  8
LC-002-002-RND-0
 62
     7
370
    50
100
AcDbCircle
 10
393.111205
 20
409.146043
 30
0.0
 40
2.0
100
AcDbArc
 50
0.0
 51
90.0
  0
DIMENSION
  5
411
330
1F
100
AcDbEntity
  8
LC-006-003-----0
 62
     7
370
    25
100
AcDbDimension
  2
*D17
 10
530.742717
 20
-34.354
 30
0.0
 11
499.942717
 21
195.646
 31
0.0
 70
   160
 71
     5
 42
460.0
 53
90.0
  3
LC-DIM-L-0140-02-02
100
AcDbAlignedDimension
 13
471.111268
 23
425.646
 33
0.0
 14
297.008382
 24
-34.354
 34
0.0
 50
90.0
100
AcDbRotatedDimension
  0
DIMENSION
  5
41F
330
1F
100
AcDbEntity
  8
LC-006-003-----0
 62
     7
370
    25
100
AcDbDimension
  2
*D18
 10
470.4
 20
-34.354
 30
0.0
 11
439.6
 21
173.146
 31
0.0
 70
   160
 71
     5
 42
415.0
 53
90.0
  3
LC-DIM-L-0140-02-02
100
AcDbAlignedDimension
 13
373.861268
 23
380.646
 33
0.0
 14
297.008382
 24
-34.354
 34
0.0
 50
90.0
100
AcDbRotatedDimension
  0
LINE
  5
42C
330
1F
100
AcDbEntity
  8
LC-001-002-----0
 62
     7
370
    50
100
AcDbLine
 10
423.847476
 20
425.646
 30
0.0
 11
471.111268
 21
425.646
 31
0.0
  0
DIMENSION
  5
42D
330
1F
100
AcDbEntity
  8
LC-006-003-----0
 62
     7
370
    25
100
AcDbDimension
  2
*D19
 10
473.111268
 20
518.0
 30
0.0
 11
296.111268
 21
548.8
 31
0.0
 70
   160
  1
%%c<>
 71
     5
 42
354.0
  3
LC-DIM-L-0140-02-02
100
AcDbAlignedDimension
 13
119.111268
 23
422.646
 33
0.0
 14
473.111268
 24
422.646
 34
0.0
100
AcDbRotatedDimension
  0
DIMENSION
  5
43A
330
1F
100
AcDbEntity
  8
LC-006-003-----0
 62
     7
370
    25
100
AcDbDimension
  2
*D20
 10
369.611268
 20
336.0
 30
0.0
 11
296.111268
 21
366.8
 31
0.0
 70
   160
  1
%%c<>
 71
     5
 42
147.0
  3
LC-DIM-L-0140-02-02
100
AcDbAlignedDimension
 13
222.611268
 23
380.646
 33
0.0
 14
369.611268
 24
380.646
 34
0.0
100
AcDbRotatedDimension
  0
LINE
  5
447
330
1F
100
AcDbEntity
  8
LC-005-006-MLN-0
 62
     7
370
    25
100
AcDbLine
 10
296.111268
 20
327.07
 30
0.0
 11
296.111268
 21
-44.354
 31
0.0
  0
LINE
  5
448
330
1F
100
AcDbEntity
  8
LC-001-002-----0
 62
     7
370
    50
100
AcDbLine
 10
199.111332
 20
434.439735
 30
0.0
 11
197.109696
 21
434.439735
 31
0.0
  0
LINE
  5
449
330
1F
100
AcDbEntity
  8
LC-001-002-----0
 62
     7
370
    50
100
AcDbLine
 10
199.111332
 20
423.339316
 30
0.0
 11
197.129121
 21
423.339307
 31
0.0
  0
LINE
  5
44A
330
1F
100
AcDbEntity
  8
LC-001-002-----0
 62
     7
370
    50
100
AcDbLine
 10
196.677385
 20
425.439735
 30
0.0
 11
196.109696
 21
425.439735
 31
0.0
  0
LINE
  5
44B
330
1F
100
AcDbEntity
  8
LC-001-002-----0
 62
     7
370
    50
100
AcDbLine
 10
205.111332
 20
395.838775
 30
0.0
 11
209.160315
 21
395.838775
 31
0.0
  0
LINE
  5
44C
330
1F
100
AcDbEntity
  8
LC-001-002-----0
 62
     7
370
    50
100
AcDbLine
 10
387.111394
 20
434.439735
 30
0.0
 11
385.109885
 21
434.439735
 31
0.0
  0
LINE
  5
44D
330
1F
100
AcDbEntity
  8
LC-001-002-----0
 62
     7
370
    50
100
AcDbLine
 10
387.111394
 20
425.439735
 30
0.0
 11
384.109885
 21
425.439735
 31
0.0
  0
LINE
  5
44E
330
1F
100
AcDbEntity
  8
LC-001-002-----0
 62
     7
370
    50
100
AcDbLine
 10
387.111205
 20
395.839025
 30
0.0
 11
383.066153
 21
395.839014
 31
0.0
  0
ELLIPSE
  5
44F
330
1F
100
AcDbEntity
  8
LC-001-002-----0
 62
     7
370
    50
100
AcDbEllipse
 10
394.4446
 20
395.170376
 30
0.0
 11
1.443375672968621
 21
3.959668022571464E-6
 31
0.0
210
0.0
220
0.0
230
1.0
 40
0.463586
 41
1.647985246585767
 42
2.748692389366476
  0
LINE
  5
450
330
1F
100
AcDbEntity
  8
LC-001-002-----0
 62
     7
370
    50
100
AcDbLine
 10
395.887975
 20
395.170381
 30
0.0
 11
395.887986
 21
391.308638
 31
0.0
  0
LINE
  5
451
330
1F
100
AcDbEntity
  8
LC-001-002-----0
 62
     7
370
    50
100
AcDbLine
 10
394.444613
 20
390.639505
 30
0.0
 11
393.11111
 21
390.639502
 31
0.0
  0
ELLIPSE
  5
452
330
1F
100
AcDbEntity
  8
LC-001-002-----0
 62
     7
370
    50
100
AcDbEllipse
 10
385.784356
 20
391.308611
 30
0.0
 11
1.443375673071841
 21
3.959668022854630E-6
 31
0.0
210
0.0
220
0.0
230
1.0
 40
0.463586
 41
4.752819604156715
 42
5.87860379777471
  0
LINE
  5
453
330
1F
100
AcDbEntity
  8
LC-001-002-----0
 62
     7
370
    50
100
AcDbLine
 10
384.34097
 20
395.170349
 30
0.0
 11
384.34098
 21
391.308607
 31
0.0
  0
ELLIPSE
  5
454
330
1F
100
AcDbEntity
  8
LC-001-002-----0
 62
     7
370
    50
100
AcDbEllipse
 10
385.784346
 20
395.170353
 30
0.0
 11
1.443375672762115
 21
3.959668022004947E-6
 31
0.0
210
0.0
220
0.0
230
1.0
 40
0.463586
 41
1.570795167761681
 42
3.141590908631133
  0
ELLIPSE
  5
455
330
1F
100
AcDbEntity
  8
LC-001-002-----0
 62
     7
370
    50
100
AcDbEllipse
 10
394.44461
 20
391.308634
 30
0.0
 11
1.443375672865394
 21
3.959668022288276E-6
 31
0.0
210
0.0
220
0.0
230
1.0
 40
0.463586
 41
3.534471203188036
 42
4.651422213007427
  0
ELLIPSE
  5
456
330
1F
100
AcDbEntity
  8
LC-001-002-----0
 62
     7
370
    50
100
AcDbEllipse
 10
385.784356
 20
391.308611
 30
0.0
 11
1.443375673071841
 21
3.959668022854630E-6
 31
0.0
210
0.0
220
0.0
230
1.0
 40
0.463586
 41
3.141592653589918
 42
4.712388980384651
  0
ELLIPSE
  5
457
330
1F
100
AcDbEntity
  8
LC-001-002-----0
 62
     7
370
    50
100
AcDbEllipse
 10
394.444069
 20
391.307832
 30
0.0
 11
1.443375648866393
 21
-0.0002636160465072707
 31
0.0
210
0.0
220
0.0
230
0.9999999999999999
 40
0.463586
 41
4.712388980384699
 42
6.283185307179462
  0
ELLIPSE
  5
458
330
1F
100
AcDbEntity
  8
LC-001-002-----0
 62
     7
370
    50
100
AcDbEllipse
 10
394.444774
 20
395.169574
 30
0.0
 11
1.443375648625493
 21
-0.0002636160464632731
 31
0.0
210
0.0
220
0.0
230
1.0
 40
0.463586
 41
0.0000017449586442
 42
1.570797485828053
  0
ELLIPSE
  5
459
330
1F
100
AcDbEntity
  8
LC-001-002-----0
 62
     7
370
    50
100
AcDbEllipse
 10
385.78452
 20
395.171155
 30
0.0
 11
1.443375648900825
 21
-0.0002636160465135593
 31
0.0
210
0.0
220
0.0
230
1.0
 40
0.463586
 41
0.4049531758796361
 42
1.493607407003946
  0
LINE
  5
45A
330
1F
100
AcDbEntity
  8
LC-001-002-----0
 62
     7
370
    50
100
AcDbLine
 10
387.11111
 20
390.639485
 30
0.0
 11
385.784358
 21
390.639482
 31
0.0
  0
ELLIPSE
  5
45B
330
1F
100
AcDbEntity
  8
LC-001-002-----0
 62
     7
370
    50
100
AcDbEllipse
 10
197.777937
 20
395.170376
 30
0.0
 11
1.443375672968621
 21
-3.959668241965966E-6
 31
0.0
210
0.0
220
0.0
230
1.0
 40
0.463586
 41
0.3929002642233685
 42
1.493607407004013
  0
ELLIPSE
  5
45C
330
1F
100
AcDbEntity
  8
LC-001-002-----0
 62
     7
370
    50
100
AcDbEllipse
 10
197.777762
 20
395.169574
 30
0.0
 11
1.443375648763144
 21
0.0002636160462690189
 31
0.0
210
0.0
220
0.0
230
0.9999999999999999
 40
0.463586
 41
1.57079516776173
 42
3.141590908631126
  0
LINE
  5
45D
330
1F
100
AcDbEntity
  8
LC-001-002-----0
 62
     7
370
    50
100
AcDbLine
 10
196.334561
 20
395.170381
 30
0.0
 11
196.33455
 21
391.308638
 31
0.0
  0
ELLIPSE
  5
45E
330
1F
100
AcDbEntity
  8
LC-001-002-----0
 62
     7
370
    50
100
AcDbEllipse
 10
197.778468
 20
391.307832
 30
0.0
 11
1.443375648831981
 21
0.0002636160462815911
 31
0.0
210
0.0
220
0.0
230
1.0
 40
0.463586
 41
3.141592653589829
 42
4.712388980384674
  0
ELLIPSE
  5
45F
330
1F
100
AcDbEntity
  8
LC-001-002-----0
 62
     7
370
    50
100
AcDbEllipse
 10
197.777926
 20
391.308634
 30
0.0
 11
1.44337567307187
 21
-3.959668242249213E-6
 31
0.0
210
0.0
220
0.0
230
1.0
 40
0.463586
 41
4.773355747761945
 42
5.890306757581264
  0
LINE
  5
460
330
1F
100
AcDbEntity
  8
LC-001-002-----0
 62
     7
370
    50
100
AcDbLine
 10
197.777923
 20
390.639505
 30
0.0
 11
199.111426
 21
390.639502
 31
0.0
  0
LINE
  5
461
330
1F
100
AcDbEntity
  8
LC-001-002-----0
 62
     7
370
    50
100
AcDbLine
 10
205.111426
 20
390.639485
 30
0.0
 11
206.438178
 21
390.639482
 31
0.0
  0
ELLIPSE
  5
462
330
1F
100
AcDbEntity
  8
LC-001-002-----0
 62
     7
370
    50
100
AcDbEllipse
 10
206.43818
 20
391.308611
 30
0.0
 11
1.443375673071841
 21
-3.959668242249132E-6
 31
0.0
210
0.0
220
0.0
230
1.0
 40
0.463586
 41
3.546174162994715
 42
4.671958356612637
  0
ELLIPSE
  5
463
330
1F
100
AcDbEntity
  8
LC-001-002-----0
 62
     7
370
    50
100
AcDbEllipse
 10
206.43818
 20
391.308611
 30
0.0
 11
1.443375673071841
 21
-3.959668242249132E-6
 31
0.0
210
0.0
220
0.0
230
1.0
 40
0.463586
 41
4.712388980384701
 42
6.28318530717945
  0
LINE
  5
464
330
1F
100
AcDbEntity
  8
LC-001-002-----0
 62
     7
370
    50
100
AcDbLine
 10
207.881566
 20
395.170349
 30
0.0
 11
207.881556
 21
391.308607
 31
0.0
  0
ELLIPSE
  5
465
330
1F
100
AcDbEntity
  8
LC-001-002-----0
 62
     7
370
    50
100
AcDbEllipse
 10
206.438191
 20
395.170353
 30
0.0
 11
1.443375672796527
 21
-3.959668241493855E-6
 31
0.0
210
0.0
220
0.0
230
1.0
 40
0.463586
 41
0.000001744958563
 42
1.570797485828124
  0
ELLIPSE
  5
466
330
1F
100
AcDbEntity
  8
LC-001-002-----0
 62
     7
370
    50
100
AcDbEllipse
 10
206.438016
 20
395.171155
 30
0.0
 11
1.443375648900825
 21
0.0002636160462941647
 31
0.0
210
0.0
220
0.0
230
1.0
 40
0.463586
 41
1.647985246585841
 42
2.736639477710151
  0
ARC
  5
467
330
1F
100
AcDbEntity
  8
LC-002-002-RND-0
 62
     7
370
    50
100
AcDbCircle
 10
121.111268
 20
423.646
 30
0.0
 40
2.0
100
AcDbArc
 50
90.0
 51
180.0
  0
LINE
  5
468
102
{ACAD_REACTORS
330
616
102
}
330
1F
100
AcDbEntity
  8
LC-001-002-----0
 62
     7
370
    50
100
AcDbLine
 10
205.357759
 20
424.739735
 30
0.0
 11
206.302686
 21
424.739735
 31
0.0
  0
LINE
  5
469
102
{ACAD_REACTORS
330
616
102
}
330
1F
100
AcDbEntity
  8
LC-001-002-----0
 62
     7
370
    50
100
AcDbLine
 10
205.357759
 20
424.039735
 30
0.0
 11
206.302686
 21
424.039735
 31
0.0
  0
INSERT
  5
478
102
{ACAD_REACTORS
330
616
102
}
330
1F
100
AcDbEntity
  8
LC-003-005-----0
 62
     7
370
    25
100
AcDbBlockReference
  2
*X1721
 10
0.0
 20
0.0
 30
0.0
  0
LINE
  5
479
102
{ACAD_REACTORS
330
616
102
}
330
1F
100
AcDbEntity
  8
LC-001-002-----0
 62
     7
370
    50
100
AcDbLine
 10
196.677385
 20
423.339735
 30
0.0
 11
207.638133
 21
423.339735
 31
0.0
  0
LINE
  5
47A
102
{ACAD_REACTORS
330
616
102
}
330
1F
100
AcDbEntity
  8
LC-001-002-----0
 62
     7
370
    50
100
AcDbLine
 10
196.677385
 20
425.439735
 30
0.0
 11
207.638133
 21
425.439735
 31
0.0
  0
LINE
  5
47B
102
{ACAD_REACTORS
330
616
102
}
330
1F
100
AcDbEntity
  8
LC-001-002-----0
 62
     7
370
    50
100
AcDbLine
 10
198.957759
 20
424.739735
 30
0.0
 11
198.957759
 21
424.039735
 31
0.0
  0
LINE
  5
47C
102
{ACAD_REACTORS
330
616
102
}
330
1F
100
AcDbEntity
  8
LC-001-002-----0
 62
     7
370
    50
100
AcDbLine
 10
198.957759
 20
424.039735
 30
0.0
 11
205.357759
 21
424.039735
 31
0.0
  0
LINE
  5
47D
102
{ACAD_REACTORS
330
616
102
}
330
1F
100
AcDbEntity
  8
LC-001-002-----0
 62
     7
370
    50
100
AcDbLine
 10
205.357759
 20
424.039735
 30
0.0
 11
205.357759
 21
424.739735
 31
0.0
  0
LINE
  5
47E
102
{ACAD_REACTORS
330
616
102
}
330
1F
100
AcDbEntity
  8
LC-001-002-----0
 62
     7
370
    50
100
AcDbLine
 10
205.357759
 20
424.739735
 30
0.0
 11
198.957759
 21
424.739735
 31
0.0
  0
LINE
  5
47F
102
{ACAD_REACTORS
330
616
102
}
330
1F
100
AcDbEntity
  8
LC-001-002-----0
 62
     7
370
    50
100
AcDbLine
 10
196.677385
 20
423.339735
 30
0.0
 11
198.012832
 21
424.039735
 31
0.0
  0
LINE
  5
480
102
{ACAD_REACTORS
330
616
102
}
330
1F
100
AcDbEntity
  8
LC-001-002-----0
 62
     7
370
    50
100
AcDbLine
 10
196.677385
 20
424.739735
 30
0.0
 11
197.345108
 21
424.389735
 31
0.0
  0
LINE
  5
481
102
{ACAD_REACTORS
330
616
102
}
330
1F
100
AcDbEntity
  8
LC-001-002-----0
 62
     7
370
    50
100
AcDbLine
 10
196.677385
 20
424.739735
 30
0.0
 11
196.677385
 21
425.439735
 31
0.0
  0
LINE
  5
482
102
{ACAD_REACTORS
330
616
102
}
330
1F
100
AcDbEntity
  8
LC-001-002-----0
 62
     7
370
    50
100
AcDbLine
 10
196.677385
 20
425.439735
 30
0.0
 11
198.012832
 21
424.739735
 31
0.0
  0
LINE
  5
483
102
{ACAD_REACTORS
330
616
102
}
330
1F
100
AcDbEntity
  8
LC-001-002-----0
 62
     7
370
    50
100
AcDbLine
 10
207.638133
 20
425.439735
 30
0.0
 11
206.302686
 21
424.739735
 31
0.0
  0
LINE
  5
484
102
{ACAD_REACTORS
330
616
102
}
330
1F
100
AcDbEntity
  8
LC-001-002-----0
 62
     7
370
    50
100
AcDbLine
 10
207.638133
 20
424.739735
 30
0.0
 11
206.302686
 21
424.039735
 31
0.0
  0
LINE
  5
485
102
{ACAD_REACTORS
330
616
102
}
330
1F
100
AcDbEntity
  8
LC-001-002-----0
 62
     7
370
    50
100
AcDbLine
 10
207.638133
 20
424.039735
 30
0.0
 11
206.970409
 21
424.389735
 31
0.0
  0
LINE
  5
486
102
{ACAD_REACTORS
330
616
102
}
330
1F
100
AcDbEntity
  8
LC-001-002-----0
 62
     7
370
    50
100
AcDbLine
 10
207.638133
 20
423.339735
 30
0.0
 11
206.302686
 21
424.039735
 31
0.0
  0
LINE
  5
487
102
{ACAD_REACTORS
330
616
102
}
330
1F
100
AcDbEntity
  8
LC-001-002-----0
 62
     7
370
    50
100
AcDbLine
 10
198.012832
 20
424.739735
 30
0.0
 11
198.957759
 21
424.739735
 31
0.0
  0
LINE
  5
488
102
{ACAD_REACTORS
330
616
102
}
330
1F
100
AcDbEntity
  8
LC-001-002-----0
 62
     7
370
    50
100
AcDbLine
 10
198.012832
 20
424.039735
 30
0.0
 11
198.957759
 21
424.039735
 31
0.0
  0
LINE
  5
489
102
{ACAD_REACTORS
330
616
102
}
330
1F
100
AcDbEntity
  8
LC-001-002-----0
 62
     7
370
    50
100
AcDbLine
 10
196.677385
 20
424.039735
 30
0.0
 11
198.012832
 21
424.739735
 31
0.0
  0
LINE
  5
48A
102
{ACAD_REACTORS
330
616
102
}
330
1F
100
AcDbEntity
  8
LC-001-002-----0
 62
     7
370
    50
100
AcDbLine
 10
196.677385
 20
424.039735
 30
0.0
 11
196.677385
 21
423.339735
 31
0.0
  0
LINE
  5
48B
102
{ACAD_REACTORS
330
616
102
}
330
1F
100
AcDbEntity
  8
LC-001-002-----0
 62
     7
370
    50
100
AcDbLine
 10
207.638133
 20
424.039735
 30
0.0
 11
207.638133
 21
423.339735
 31
0.0
  0
LINE
  5
48C
102
{ACAD_REACTORS
330
616
102
}
330
1F
100
AcDbEntity
  8
LC-001-002-----0
 62
     7
370
    50
100
AcDbLine
 10
207.638133
 20
424.739735
 30
0.0
 11
207.638133
 21
425.439735
 31
0.0
  0
LINE
  5
48D
102
{ACAD_REACTORS
330
617
102
}
330
1F
100
AcDbEntity
  8
LC-001-002-----0
 62
     7
370
    50
100
AcDbLine
 10
386.864777
 20
424.739735
 30
0.0
 11
385.91985
 21
424.739735
 31
0.0
  0
LINE
  5
48E
102
{ACAD_REACTORS
330
617
102
}
330
1F
100
AcDbEntity
  8
LC-001-002-----0
 62
     7
370
    50
100
AcDbLine
 10
386.864777
 20
424.039735
 30
0.0
 11
385.91985
 21
424.039735
 31
0.0
  0
INSERT
  5
499
102
{ACAD_REACTORS
330
617
102
}
330
1F
100
AcDbEntity
  8
LC-003-005-----0
 62
     7
370
    25
100
AcDbBlockReference
  2
*X1822
 10
0.0
 20
0.0
 30
0.0
  0
LINE
  5
49A
102
{ACAD_REACTORS
330
617
102
}
330
1F
100
AcDbEntity
  8
LC-001-002-----0
 62
     7
370
    50
100
AcDbLine
 10
395.545151
 20
423.339735
 30
0.0
 11
384.584404
 21
423.339735
 31
0.0
  0
LINE
  5
49B
102
{ACAD_REACTORS
330
617
102
}
330
1F
100
AcDbEntity
  8
LC-001-002-----0
 62
     7
370
    50
100
AcDbLine
 10
395.545151
 20
425.439735
 30
0.0
 11
384.584404
 21
425.439735
 31
0.0
  0
LINE
  5
49C
102
{ACAD_REACTORS
330
617
102
}
330
1F
100
AcDbEntity
  8
LC-001-002-----0
 62
     7
370
    50
100
AcDbLine
 10
393.264777
 20
424.739735
 30
0.0
 11
393.264777
 21
424.039735
 31
0.0
  0
LINE
  5
49D
102
{ACAD_REACTORS
330
617
102
}
330
1F
100
AcDbEntity
  8
LC-001-002-----0
 62
     7
370
    50
100
AcDbLine
 10
393.264777
 20
424.039735
 30
0.0
 11
386.864777
 21
424.039735
 31
0.0
  0
LINE
  5
49E
102
{ACAD_REACTORS
330
617
102
}
330
1F
100
AcDbEntity
  8
LC-001-002-----0
 62
     7
370
    50
100
AcDbLine
 10
386.864777
 20
424.039735
 30
0.0
 11
386.864777
 21
424.739735
 31
0.0
  0
LINE
  5
49F
102
{ACAD_REACTORS
330
617
102
}
330
1F
100
AcDbEntity
  8
LC-001-002-----0
 62
     7
370
    50
100
AcDbLine
 10
386.864777
 20
424.739735
 30
0.0
 11
393.264777
 21
424.739735
 31
0.0
  0
LINE
  5
4A0
102
{ACAD_REACTORS
330
617
102
}
330
1F
100
AcDbEntity
  8
LC-001-002-----0
 62
     7
370
    50
100
AcDbLine
 10
395.545151
 20
423.339735
 30
0.0
 11
394.209705
 21
424.039735
 31
0.0
  0
LINE
  5
4A1
102
{ACAD_REACTORS
330
617
102
}
330
1F
100
AcDbEntity
  8
LC-001-002-----0
 62
     7
370
    50
100
AcDbLine
 10
395.545151
 20
424.739735
 30
0.0
 11
394.877428
 21
424.389735
 31
0.0
  0
LINE
  5
4A2
102
{ACAD_REACTORS
330
617
102
}
330
1F
100
AcDbEntity
  8
LC-001-002-----0
 62
     7
370
    50
100
AcDbLine
 10
395.545151
 20
424.739735
 30
0.0
 11
395.545151
 21
425.439735
 31
0.0
  0
LINE
  5
4A3
102
{ACAD_REACTORS
330
617
102
}
330
1F
100
AcDbEntity
  8
LC-001-002-----0
 62
     7
370
    50
100
AcDbLine
 10
395.545151
 20
425.439735
 30
0.0
 11
394.209705
 21
424.739735
 31
0.0
  0
LINE
  5
4A4
102
{ACAD_REACTORS
330
617
102
}
330
1F
100
AcDbEntity
  8
LC-001-002-----0
 62
     7
370
    50
100
AcDbLine
 10
384.584404
 20
425.439735
 30
0.0
 11
385.91985
 21
424.739735
 31
0.0
  0
LINE
  5
4A5
102
{ACAD_REACTORS
330
617
102
}
330
1F
100
AcDbEntity
  8
LC-001-002-----0
 62
     7
370
    50
100
AcDbLine
 10
384.584404
 20
424.739735
 30
0.0
 11
385.91985
 21
424.039735
 31
0.0
  0
LINE
  5
4A6
102
{ACAD_REACTORS
330
617
102
}
330
1F
100
AcDbEntity
  8
LC-001-002-----0
 62
     7
370
    50
100
AcDbLine
 10
384.584404
 20
424.039735
 30
0.0
 11
385.252127
 21
424.389735
 31
0.0
  0
LINE
  5
4A7
102
{ACAD_REACTORS
330
617
102
}
330
1F
100
AcDbEntity
  8
LC-001-002-----0
 62
     7
370
    50
100
AcDbLine
 10
384.584404
 20
423.339735
 30
0.0
 11
385.91985
 21
424.039735
 31
0.0
  0
LINE
  5
4A8
102
{ACAD_REACTORS
330
617
102
}
330
1F
100
AcDbEntity
  8
LC-001-002-----0
 62
     7
370
    50
100
AcDbLine
 10
394.209705
 20
424.739735
 30
0.0
 11
393.264777
 21
424.739735
 31
0.0
  0
LINE
  5
4A9
102
{ACAD_REACTORS
330
617
102
}
330
1F
100
AcDbEntity
  8
LC-001-002-----0
 62
     7
370
    50
100
AcDbLine
 10
394.209705
 20
424.039735
 30
0.0
 11
393.264777
 21
424.039735
 31
0.0
  0
LINE
  5
4AA
102
{ACAD_REACTORS
330
617
102
}
330
1F
100
AcDbEntity
  8
LC-001-002-----0
 62
     7
370
    50
100
AcDbLine
 10
395.545151
 20
424.039735
 30
0.0
 11
394.209705
 21
424.739735
 31
0.0
  0
LINE
  5
4AB
102
{ACAD_REACTORS
330
617
102
}
330
1F
100
AcDbEntity
  8
LC-001-002-----0
 62
     7
370
    50
100
AcDbLine
 10
395.545151
 20
424.039735
 30
0.0
 11
395.545151
 21
423.339735
 31
0.0
  0
LINE
  5
4AC
102
{ACAD_REACTORS
330
617
102
}
330
1F
100
AcDbEntity
  8
LC-001-002-----0
 62
     7
370
    50
100
AcDbLine
 10
384.584404
 20
424.039735
 30
0.0
 11
384.584404
 21
423.339735
 31
0.0
  0
LINE
  5
4AD
102
{ACAD_REACTORS
330
617
102
}
330
1F
100
AcDbEntity
  8
LC-001-002-----0
 62
     7
370
    50
100
AcDbLine
 10
384.584404
 20
424.739735
 30
0.0
 11
384.584404
 21
425.439735
 31
0.0
  0
LINE
  5
4AE
330
1F
100
AcDbEntity
  8
LC-001-002-----0
 62
     7
370
    50
100
AcDbLine
 10
296.111268
 20
-34.354
 30
0.0
 11
254.111268
 21
-34.354
 31
0.0
  0
DIMENSION
  5
4AF
330
1F
100
AcDbEntity
  8
LC-006-003-----0
 62
     7
370
    25
100
AcDbDimension
  2
*D23
 10
341.111268
 20
-91.354713
 30
0.0
 11
291.745914
 21
-60.554713
 31
0.0
 70
   160
  1
%%c<>
 71
     5
 42
90.0
  3
LC-DIM-L-0140-02-02
100
AcDbAlignedDimension
 13
251.111268
 23
-29.854
 33
0.0
 14
341.111268
 24
-29.854
 34
0.0
100
AcDbRotatedDimension
  0
DIMENSION
  5
4BC
330
1F
100
AcDbEntity
  8
LC-006-003-----0
 62
     7
370
    25
100
AcDbDimension
  2
*D24
 10
357.637698
 20
-148.222913
 30
0.0
 11
294.111995
 21
-117.436427
 31
0.0
 70
   160
  1
%%c<>
 71
     5
 42
122.999318
 53
0.01219
  3
LC-DIM-L-0140-02-02
100
AcDbAlignedDimension
 13
234.611268
 23
-20.796834
 33
0.0
 14
357.610583
 24
-20.770666
 34
0.0
 50
0.01219
100
AcDbRotatedDimension
  0
ARC
  5
4C9
102
{ACAD_REACTORS
330
615
102
}
330
1F
100
AcDbEntity
  8
LC-002-002-RND-0
 62
     7
370
    50
100
AcDbCircle
 10
249.611268
 20
251.46681
 30
0.0
 40
0.5
100
AcDbArc
 50
270.0
 51
360.0
  0
ARC
  5
4CA
102
{ACAD_REACTORS
330
615
102
}
330
1F
100
AcDbEntity
  8
LC-002-002-RND-0
 62
     7
370
    50
100
AcDbCircle
 10
249.611268
 20
202.146148
 30
0.0
 40
0.5
100
AcDbArc
 50
270.0
 51
360.0
  0
ARC
  5
4CB
102
{ACAD_REACTORS
330
615
102
}
330
1F
100
AcDbEntity
  8
LC-002-002-RND-0
 62
     7
370
    50
100
AcDbCircle
 10
249.611268
 20
226.806479
 30
0.0
 40
0.5
100
AcDbArc
 50
270.0
 51
360.0
  0
ARC
  5
4CC
102
{ACAD_REACTORS
330
615
102
}
330
1F
100
AcDbEntity
  8
LC-002-002-RND-0
 62
     7
370
    50
100
AcDbCircle
 10
249.111268
 20
198.166426
 30
0.0
 40
1.0
100
AcDbArc
 50
360.0
 51
84.0
  0
LINE
  5
4CD
102
{ACAD_REACTORS
330
615
102
}
330
1F
100
AcDbEntity
  8
LC-001-002-----0
 62
     7
370
    50
100
AcDbLine
 10
250.111268
 20
-23.776556
 30
0.0
 11
250.111268
 21
-23.854
 31
0.0
  0
LINE
  5
4CE
102
{ACAD_REACTORS
330
615
102
}
330
1F
100
AcDbEntity
  8
LC-001-002-----0
 62
     7
370
    50
100
AcDbLine
 10
235.059004
 20
151.328224
 30
0.0
 11
249.215797
 21
149.840285
 31
0.0
  0
ARC
  5
4CF
102
{ACAD_REACTORS
330
615
102
}
330
1F
100
AcDbEntity
  8
LC-002-002-RND-0
 62
     7
370
    50
100
AcDbCircle
 10
235.111268
 20
201.146148
 30
0.0
 40
0.5
100
AcDbArc
 50
90.0
 51
264.0
  0
ARC
  5
4D0
102
{ACAD_REACTORS
330
615
102
}
330
1F
100
AcDbEntity
  8
LC-002-002-RND-0
 62
     7
370
    50
100
AcDbCircle
 10
249.111268
 20
148.845763
 30
0.0
 40
1.0
100
AcDbArc
 50
360.0
 51
84.0
  0
LINE
  5
4D1
102
{ACAD_REACTORS
330
615
102
}
330
1F
100
AcDbEntity
  8
LC-001-002-----0
 62
     7
370
    50
100
AcDbLine
 10
235.059004
 20
175.988555
 30
0.0
 11
249.215797
 21
174.500616
 31
0.0
  0
ARC
  5
4D2
102
{ACAD_REACTORS
330
615
102
}
330
1F
100
AcDbEntity
  8
LC-002-002-RND-0
 62
     7
370
    50
100
AcDbCircle
 10
249.111268
 20
173.506095
 30
0.0
 40
1.0
100
AcDbArc
 50
360.0
 51
84.0
  0
ARC
  5
4D3
102
{ACAD_REACTORS
330
615
102
}
330
1F
100
AcDbEntity
  8
LC-002-002-RND-0
 62
     7
370
    50
100
AcDbCircle
 10
235.111268
 20
151.825485
 30
0.0
 40
0.499999999928832
100
AcDbArc
 50
90.0
 51
264.0
  0
ARC
  5
4D4
102
{ACAD_REACTORS
330
615
102
}
330
1F
100
AcDbEntity
  8
LC-002-002-RND-0
 62
     7
370
    50
100
AcDbCircle
 10
235.111268
 20
176.485816
 30
0.0
 40
0.499999999928832
100
AcDbArc
 50
90.0
 51
264.0
  0
LINE
  5
4D5
102
{ACAD_REACTORS
330
615
102
}
330
1F
100
AcDbEntity
  8
LC-001-002-----0
 62
     7
370
    50
100
AcDbLine
 10
235.059004
 20
126.667893
 30
0.0
 11
249.215797
 21
125.179954
 31
0.0
  0
ARC
  5
4D6
102
{ACAD_REACTORS
330
615
102
}
330
1F
100
AcDbEntity
  8
LC-002-002-RND-0
 62
     7
370
    50
100
AcDbCircle
 10
249.111268
 20
124.185432
 30
0.0
 40
1.0
100
AcDbArc
 50
360.0
 51
84.0
  0
ARC
  5
4D7
102
{ACAD_REACTORS
330
615
102
}
330
1F
100
AcDbEntity
  8
LC-002-002-RND-0
 62
     7
370
    50
100
AcDbCircle
 10
235.111268
 20
127.165154
 30
0.0
 40
0.499999999928832
100
AcDbArc
 50
90.0
 51
264.0
  0
LINE
  5
4D8
102
{ACAD_REACTORS
330
615
102
}
330
1F
100
AcDbEntity
  8
LC-001-002-----0
 62
     7
370
    50
100
AcDbLine
 10
235.059004
 20
102.007561
 30
0.0
 11
249.215797
 21
100.519622
 31
0.0
  0
ARC
  5
4D9
102
{ACAD_REACTORS
330
615
102
}
330
1F
100
AcDbEntity
  8
LC-002-002-RND-0
 62
     7
370
    50
100
AcDbCircle
 10
249.111268
 20
99.525101
 30
0.0
 40
1.0
100
AcDbArc
 50
360.0
 51
84.0
  0
ARC
  5
4DA
102
{ACAD_REACTORS
330
615
102
}
330
1F
100
AcDbEntity
  8
LC-002-002-RND-0
 62
     7
370
    50
100
AcDbCircle
 10
235.111268
 20
102.504822
 30
0.0
 40
0.499999999928832
100
AcDbArc
 50
90.0
 51
264.0
  0
LINE
  5
4DB
102
{ACAD_REACTORS
330
615
102
}
330
1F
100
AcDbEntity
  8
LC-001-002-----0
 62
     7
370
    50
100
AcDbLine
 10
235.111268
 20
176.985816
 30
0.0
 11
249.611268
 21
176.985816
 31
0.0
  0
LINE
  5
4DC
102
{ACAD_REACTORS
330
615
102
}
330
1F
100
AcDbEntity
  8
LC-001-002-----0
 62
     7
370
    50
100
AcDbLine
 10
235.059004
 20
77.34723
 30
0.0
 11
249.215797
 21
75.859291
 31
0.0
  0
LINE
  5
4DD
102
{ACAD_REACTORS
330
615
102
}
330
1F
100
AcDbEntity
  8
LC-001-002-----0
 62
     7
370
    50
100
AcDbLine
 10
235.111268
 20
201.646148
 30
0.0
 11
249.611268
 21
201.646148
 31
0.0
  0
ARC
  5
4DE
102
{ACAD_REACTORS
330
615
102
}
330
1F
100
AcDbEntity
  8
LC-002-002-RND-0
 62
     7
370
    50
100
AcDbCircle
 10
235.111268
 20
77.844491
 30
0.0
 40
0.499999999928832
100
AcDbArc
 50
90.0
 51
264.0
  0
ARC
  5
4DF
102
{ACAD_REACTORS
330
615
102
}
330
1F
100
AcDbEntity
  8
LC-002-002-RND-0
 62
     7
370
    50
100
AcDbCircle
 10
249.111268
 20
74.864769
 30
0.0
 40
1.0
100
AcDbArc
 50
360.0
 51
84.0
  0
LINE
  5
4E0
102
{ACAD_REACTORS
330
615
102
}
330
1F
100
AcDbEntity
  8
LC-001-002-----0
 62
     7
370
    50
100
AcDbLine
 10
235.059004
 20
52.686899
 30
0.0
 11
249.215797
 21
51.19896
 31
0.0
  0
ARC
  5
4E1
102
{ACAD_REACTORS
330
615
102
}
330
1F
100
AcDbEntity
  8
LC-002-002-RND-0
 62
     7
370
    50
100
AcDbCircle
 10
249.111268
 20
50.204438
 30
0.0
 40
1.0
100
AcDbArc
 50
360.0
 51
84.0
  0
ARC
  5
4E2
102
{ACAD_REACTORS
330
615
102
}
330
1F
100
AcDbEntity
  8
LC-002-002-RND-0
 62
     7
370
    50
100
AcDbCircle
 10
235.111268
 20
53.18416
 30
0.0
 40
0.499999999928832
100
AcDbArc
 50
90.0
 51
264.0
  0
LINE
  5
4E3
102
{ACAD_REACTORS
330
615
102
}
330
1F
100
AcDbEntity
  8
LC-001-002-----0
 62
     7
370
    50
100
AcDbLine
 10
235.059004
 20
28.026567
 30
0.0
 11
249.215797
 21
26.538628
 31
0.0
  0
ARC
  5
4E4
102
{ACAD_REACTORS
330
615
102
}
330
1F
100
AcDbEntity
  8
LC-002-002-RND-0
 62
     7
370
    50
100
AcDbCircle
 10
249.111268
 20
25.544107
 30
0.0
 40
1.0
100
AcDbArc
 50
360.0
 51
84.0
  0
ARC
  5
4E5
102
{ACAD_REACTORS
330
615
102
}
330
1F
100
AcDbEntity
  8
LC-002-002-RND-0
 62
     7
370
    50
100
AcDbCircle
 10
235.111268
 20
28.523828
 30
0.0
 40
0.499999999928832
100
AcDbArc
 50
90.0
 51
264.0
  0
LINE
  5
4E6
102
{ACAD_REACTORS
330
615
102
}
330
1F
100
AcDbEntity
  8
LC-001-002-----0
 62
     7
370
    50
100
AcDbLine
 10
235.059004
 20
3.366236
 30
0.0
 11
249.215797
 21
1.878297
 31
0.0
  0
ARC
  5
4E7
102
{ACAD_REACTORS
330
615
102
}
330
1F
100
AcDbEntity
  8
LC-002-002-RND-0
 62
     7
370
    50
100
AcDbCircle
 10
249.111268
 20
0.883775
 30
0.0
 40
1.0
100
AcDbArc
 50
360.0
 51
84.0
  0
ARC
  5
4E8
102
{ACAD_REACTORS
330
615
102
}
330
1F
100
AcDbEntity
  8
LC-002-002-RND-0
 62
     7
370
    50
100
AcDbCircle
 10
235.111268
 20
3.863497
 30
0.0
 40
0.499999999928832
100
AcDbArc
 50
90.0
 51
264.0
  0
LINE
  5
4E9
102
{ACAD_REACTORS
330
615
102
}
330
1F
100
AcDbEntity
  8
LC-001-002-----0
 62
     7
370
    50
100
AcDbLine
 10
235.059004
 20
-21.294095
 30
0.0
 11
249.215797
 21
-22.782034
 31
0.0
  0
LINE
  5
4EA
102
{ACAD_REACTORS
330
615
102
}
330
1F
100
AcDbEntity
  8
LC-001-002-----0
 62
     7
370
    50
100
AcDbLine
 10
250.111268
 20
152.825485
 30
0.0
 11
250.111268
 21
173.506095
 31
0.0
  0
ARC
  5
4EB
102
{ACAD_REACTORS
330
615
102
}
330
1F
100
AcDbEntity
  8
LC-002-002-RND-0
 62
     7
370
    50
100
AcDbCircle
 10
249.111268
 20
-23.776556
 30
0.0
 40
1.0
100
AcDbArc
 50
360.0
 51
84.0
  0
LINE
  5
4EC
102
{ACAD_REACTORS
330
615
102
}
330
1F
100
AcDbEntity
  8
LC-001-002-----0
 62
     7
370
    50
100
AcDbLine
 10
250.111268
 20
177.485816
 30
0.0
 11
250.111268
 21
198.166426
 31
0.0
  0
ARC
  5
4ED
102
{ACAD_REACTORS
330
615
102
}
330
1F
100
AcDbEntity
  8
LC-002-002-RND-0
 62
     7
370
    50
100
AcDbCircle
 10
235.111268
 20
-20.796834
 30
0.0
 40
0.499999999928832
100
AcDbArc
 50
90.0
 51
264.0
  0
ARC
  5
4EE
102
{ACAD_REACTORS
330
615
102
}
330
1F
100
AcDbEntity
  8
LC-002-002-RND-0
 62
     7
370
    50
100
AcDbCircle
 10
249.611268
 20
152.825485
 30
0.0
 40
0.5
100
AcDbArc
 50
270.0
 51
360.0
  0
ARC
  5
4EF
102
{ACAD_REACTORS
330
615
102
}
330
1F
100
AcDbEntity
  8
LC-002-002-RND-0
 62
     7
370
    50
100
AcDbCircle
 10
249.611268
 20
177.485816
 30
0.0
 40
0.5
100
AcDbArc
 50
270.0
 51
360.0
  0
LINE
  5
4F0
102
{ACAD_REACTORS
330
615
102
}
330
1F
100
AcDbEntity
  8
LC-001-002-----0
 62
     7
370
    50
100
AcDbLine
 10
250.111268
 20
-19.796834
 30
0.0
 11
250.111268
 21
0.883775
 31
0.0
  0
LINE
  5
4F1
102
{ACAD_REACTORS
330
615
102
}
330
1F
100
AcDbEntity
  8
LC-001-002-----0
 62
     7
370
    50
100
AcDbLine
 10
249.611268
 20
-20.296834
 30
0.0
 11
235.111268
 21
-20.296834
 31
0.0
  0
LINE
  5
4F2
102
{ACAD_REACTORS
330
615
102
}
330
1F
100
AcDbEntity
  8
LC-001-002-----0
 62
     7
370
    50
100
AcDbLine
 10
250.111268
 20
128.165154
 30
0.0
 11
250.111268
 21
148.845763
 31
0.0
  0
LINE
  5
4F3
102
{ACAD_REACTORS
330
615
102
}
330
1F
100
AcDbEntity
  8
LC-001-002-----0
 62
     7
370
    50
100
AcDbLine
 10
250.111268
 20
103.504822
 30
0.0
 11
250.111268
 21
124.185432
 31
0.0
  0
LINE
  5
4F4
102
{ACAD_REACTORS
330
615
102
}
330
1F
100
AcDbEntity
  8
LC-001-002-----0
 62
     7
370
    50
100
AcDbLine
 10
249.611268
 20
4.363497
 30
0.0
 11
235.111268
 21
4.363497
 31
0.0
  0
LINE
  5
4F5
102
{ACAD_REACTORS
330
615
102
}
330
1F
100
AcDbEntity
  8
LC-001-002-----0
 62
     7
370
    50
100
AcDbLine
 10
249.611268
 20
29.023828
 30
0.0
 11
235.111268
 21
29.023828
 31
0.0
  0
LINE
  5
4F6
102
{ACAD_REACTORS
330
615
102
}
330
1F
100
AcDbEntity
  8
LC-001-002-----0
 62
     7
370
    50
100
AcDbLine
 10
249.611268
 20
53.68416
 30
0.0
 11
235.111268
 21
53.68416
 31
0.0
  0
LINE
  5
4F7
102
{ACAD_REACTORS
330
615
102
}
330
1F
100
AcDbEntity
  8
LC-001-002-----0
 62
     7
370
    50
100
AcDbLine
 10
250.111268
 20
78.844491
 30
0.0
 11
250.111268
 21
99.525101
 31
0.0
  0
LINE
  5
4F8
102
{ACAD_REACTORS
330
615
102
}
330
1F
100
AcDbEntity
  8
LC-001-002-----0
 62
     7
370
    50
100
AcDbLine
 10
249.611268
 20
78.344491
 30
0.0
 11
235.111268
 21
78.344491
 31
0.0
  0
LINE
  5
4F9
102
{ACAD_REACTORS
330
615
102
}
330
1F
100
AcDbEntity
  8
LC-001-002-----0
 62
     7
370
    50
100
AcDbLine
 10
250.111268
 20
54.18416
 30
0.0
 11
250.111268
 21
74.864769
 31
0.0
  0
LINE
  5
4FA
102
{ACAD_REACTORS
330
615
102
}
330
1F
100
AcDbEntity
  8
LC-001-002-----0
 62
     7
370
    50
100
AcDbLine
 10
250.111268
 20
29.523828
 30
0.0
 11
250.111268
 21
50.204438
 31
0.0
  0
LINE
  5
4FB
102
{ACAD_REACTORS
330
615
102
}
330
1F
100
AcDbEntity
  8
LC-001-002-----0
 62
     7
370
    50
100
AcDbLine
 10
250.111268
 20
4.863497
 30
0.0
 11
250.111268
 21
25.544107
 31
0.0
  0
LINE
  5
4FC
102
{ACAD_REACTORS
330
615
102
}
330
1F
100
AcDbEntity
  8
LC-001-002-----0
 62
     7
370
    50
100
AcDbLine
 10
250.611268
 20
-24.354
 30
0.0
 11
251.111268
 21
-24.354
 31
0.0
  0
LINE
  5
4FD
102
{ACAD_REACTORS
330
615
102
}
330
1F
100
AcDbEntity
  8
LC-001-002-----0
 62
     7
370
    50
100
AcDbLine
 10
250.111268
 20
-23.854
 30
0.0
 11
250.611268
 21
-24.354
 31
0.0
  0
LINE
  5
4FE
102
{ACAD_REACTORS
330
615
102
}
330
1F
100
AcDbEntity
  8
LC-001-002-----0
 62
     7
370
    50
100
AcDbLine
 10
249.611268
 20
103.004822
 30
0.0
 11
235.111268
 21
103.004822
 31
0.0
  0
LINE
  5
4FF
102
{ACAD_REACTORS
330
615
102
}
330
1F
100
AcDbEntity
  8
LC-001-002-----0
 62
     7
370
    50
100
AcDbLine
 10
249.611268
 20
127.665154
 30
0.0
 11
235.111268
 21
127.665154
 31
0.0
  0
ARC
  5
500
102
{ACAD_REACTORS
330
615
102
}
330
1F
100
AcDbEntity
  8
LC-002-002-RND-0
 62
     7
370
    50
100
AcDbCircle
 10
249.611268
 20
-19.796834
 30
0.0
 40
0.5
100
AcDbArc
 50
270.0
 51
360.0
  0
ARC
  5
501
102
{ACAD_REACTORS
330
615
102
}
330
1F
100
AcDbEntity
  8
LC-002-002-RND-0
 62
     7
370
    50
100
AcDbCircle
 10
249.611268
 20
4.863497
 30
0.0
 40
0.5
100
AcDbArc
 50
270.0
 51
360.0
  0
ARC
  5
502
102
{ACAD_REACTORS
330
615
102
}
330
1F
100
AcDbEntity
  8
LC-002-002-RND-0
 62
     7
370
    50
100
AcDbCircle
 10
249.611268
 20
29.523828
 30
0.0
 40
0.5
100
AcDbArc
 50
270.0
 51
360.0
  0
ARC
  5
503
102
{ACAD_REACTORS
330
615
102
}
330
1F
100
AcDbEntity
  8
LC-002-002-RND-0
 62
     7
370
    50
100
AcDbCircle
 10
249.611268
 20
54.18416
 30
0.0
 40
0.5
100
AcDbArc
 50
270.0
 51
360.0
  0
ARC
  5
504
102
{ACAD_REACTORS
330
615
102
}
330
1F
100
AcDbEntity
  8
LC-002-002-RND-0
 62
     7
370
    50
100
AcDbCircle
 10
249.611268
 20
78.844491
 30
0.0
 40
0.5
100
AcDbArc
 50
270.0
 51
360.0
  0
ARC
  5
505
102
{ACAD_REACTORS
330
615
102
}
330
1F
100
AcDbEntity
  8
LC-002-002-RND-0
 62
     7
370
    50
100
AcDbCircle
 10
249.611268
 20
103.504822
 30
0.0
 40
0.5
100
AcDbArc
 50
270.0
 51
360.0
  0
ARC
  5
506
102
{ACAD_REACTORS
330
615
102
}
330
1F
100
AcDbEntity
  8
LC-002-002-RND-0
 62
     7
370
    50
100
AcDbCircle
 10
249.611268
 20
128.165154
 30
0.0
 40
0.5
100
AcDbArc
 50
270.0
 51
360.0
  0
LINE
  5
507
102
{ACAD_REACTORS
330
615
102
}
330
1F
100
AcDbEntity
  8
LC-001-002-----0
 62
     7
370
    50
100
AcDbLine
 10
251.111268
 20
-24.354
 30
0.0
 11
251.111268
 21
275.627142
 31
0.0
  0
LINE
  5
508
102
{ACAD_REACTORS
330
615
102
}
330
1F
100
AcDbEntity
  8
LC-001-002-----0
 62
     7
370
    50
100
AcDbLine
 10
235.059004
 20
200.648887
 30
0.0
 11
249.215797
 21
199.160948
 31
0.0
  0
LINE
  5
509
102
{ACAD_REACTORS
330
615
102
}
330
1F
100
AcDbEntity
  8
LC-001-002-----0
 62
     7
370
    50
100
AcDbLine
 10
235.111268
 20
152.325485
 30
0.0
 11
249.611268
 21
152.325485
 31
0.0
  0
LINE
  5
50A
102
{ACAD_REACTORS
330
615
102
}
330
1F
100
AcDbEntity
  8
LC-001-002-----0
 62
     7
370
    50
100
AcDbLine
 10
235.111268
 20
226.306479
 30
0.0
 11
249.611268
 21
226.306479
 31
0.0
  0
LINE
  5
50B
102
{ACAD_REACTORS
330
615
102
}
330
1F
100
AcDbEntity
  8
LC-001-002-----0
 62
     7
370
    50
100
AcDbLine
 10
235.059004
 20
225.309218
 30
0.0
 11
249.215797
 21
223.821279
 31
0.0
  0
ARC
  5
50C
102
{ACAD_REACTORS
330
615
102
}
330
1F
100
AcDbEntity
  8
LC-002-002-RND-0
 62
     7
370
    50
100
AcDbCircle
 10
235.111268
 20
225.806479
 30
0.0
 40
0.5
100
AcDbArc
 50
90.0
 51
264.0
  0
LINE
  5
50D
102
{ACAD_REACTORS
330
615
102
}
330
1F
100
AcDbEntity
  8
LC-001-002-----0
 62
     7
370
    50
100
AcDbLine
 10
250.111268
 20
202.146148
 30
0.0
 11
250.111268
 21
222.826757
 31
0.0
  0
ARC
  5
50E
102
{ACAD_REACTORS
330
615
102
}
330
1F
100
AcDbEntity
  8
LC-002-002-RND-0
 62
     7
370
    50
100
AcDbCircle
 10
249.111268
 20
222.826757
 30
0.0
 40
1.0
100
AcDbArc
 50
360.0
 51
84.0
  0
LINE
  5
50F
102
{ACAD_REACTORS
330
615
102
}
330
1F
100
AcDbEntity
  8
LC-001-002-----0
 62
     7
370
    50
100
AcDbLine
 10
235.111268
 20
250.96681
 30
0.0
 11
249.611268
 21
250.96681
 31
0.0
  0
LINE
  5
510
102
{ACAD_REACTORS
330
615
102
}
330
1F
100
AcDbEntity
  8
LC-001-002-----0
 62
     7
370
    50
100
AcDbLine
 10
235.059004
 20
249.969549
 30
0.0
 11
249.215797
 21
248.48161
 31
0.0
  0
ARC
  5
511
102
{ACAD_REACTORS
330
615
102
}
330
1F
100
AcDbEntity
  8
LC-002-002-RND-0
 62
     7
370
    50
100
AcDbCircle
 10
235.111268
 20
250.46681
 30
0.0
 40
0.5
100
AcDbArc
 50
90.0
 51
264.0
  0
ARC
  5
512
102
{ACAD_REACTORS
330
615
102
}
330
1F
100
AcDbEntity
  8
LC-002-002-RND-0
 62
     7
370
    50
100
AcDbCircle
 10
249.111268
 20
247.487088
 30
0.0
 40
1.0
100
AcDbArc
 50
360.0
 51
84.0
  0
LINE
  5
513
102
{ACAD_REACTORS
330
615
102
}
330
1F
100
AcDbEntity
  8
LC-001-002-----0
 62
     7
370
    50
100
AcDbLine
 10
235.111268
 20
275.627142
 30
0.0
 11
251.111268
 21
275.627142
 31
0.0
  0
LINE
  5
514
102
{ACAD_REACTORS
330
615
102
}
330
1F
100
AcDbEntity
  8
LC-001-002-----0
 62
     7
370
    50
100
AcDbLine
 10
235.059004
 20
274.629881
 30
0.0
 11
249.215797
 21
273.141942
 31
0.0
  0
ARC
  5
515
102
{ACAD_REACTORS
330
615
102
}
330
1F
100
AcDbEntity
  8
LC-002-002-RND-0
 62
     7
370
    50
100
AcDbCircle
 10
235.111268
 20
275.127142
 30
0.0
 40
0.5
100
AcDbArc
 50
90.0
 51
264.0
  0
ARC
  5
516
102
{ACAD_REACTORS
330
615
102
}
330
1F
100
AcDbEntity
  8
LC-002-002-RND-0
 62
     7
370
    50
100
AcDbCircle
 10
249.111268
 20
272.14742
 30
0.0
 40
1.0
100
AcDbArc
 50
360.0
 51
84.0
  0
LINE
  5
517
102
{ACAD_REACTORS
330
615
102
}
330
1F
100
AcDbEntity
  8
LC-001-002-----0
 62
     7
370
    50
100
AcDbLine
 10
250.111268
 20
251.46681
 30
0.0
 11
250.111268
 21
272.14742
 31
0.0
  0
ARC
  5
518
102
{ACAD_REACTORS
330
615
102
}
330
1F
100
AcDbEntity
  8
LC-002-002-RND-0
 62
     7
370
    50
100
AcDbCircle
 10
342.611268
 20
251.46681
 30
0.0
 40
0.5
100
AcDbArc
 50
180.0
 51
270.0
  0
ARC
  5
519
102
{ACAD_REACTORS
330
615
102
}
330
1F
100
AcDbEntity
  8
LC-002-002-RND-0
 62
     7
370
    50
100
AcDbCircle
 10
342.611268
 20
202.146148
 30
0.0
 40
0.5
100
AcDbArc
 50
180.0
 51
270.0
  0
ARC
  5
51A
102
{ACAD_REACTORS
330
615
102
}
330
1F
100
AcDbEntity
  8
LC-002-002-RND-0
 62
     7
370
    50
100
AcDbCircle
 10
342.611268
 20
226.806479
 30
0.0
 40
0.5
100
AcDbArc
 50
180.0
 51
270.0
  0
ARC
  5
51B
102
{ACAD_REACTORS
330
615
102
}
330
1F
100
AcDbEntity
  8
LC-002-002-RND-0
 62
     7
370
    50
100
AcDbCircle
 10
343.111268
 20
198.166426
 30
0.0
 40
1.000000000000099
100
AcDbArc
 50
96.0
 51
180.0
  0
LINE
  5
51C
102
{ACAD_REACTORS
330
615
102
}
330
1F
100
AcDbEntity
  8
LC-001-002-----0
 62
     7
370
    50
100
AcDbLine
 10
342.111268
 20
-23.776556
 30
0.0
 11
342.111268
 21
-23.854
 31
0.0
  0
LINE
  5
51D
102
{ACAD_REACTORS
330
615
102
}
330
1F
100
AcDbEntity
  8
LC-001-002-----0
 62
     7
370
    50
100
AcDbLine
 10
357.163532
 20
151.328224
 30
0.0
 11
343.00674
 21
149.840285
 31
0.0
  0
ARC
  5
51E
102
{ACAD_REACTORS
330
615
102
}
330
1F
100
AcDbEntity
  8
LC-002-002-RND-0
 62
     7
370
    50
100
AcDbCircle
 10
357.111268
 20
201.146148
 30
0.0
 40
0.499999999999975
100
AcDbArc
 50
276.0
 51
90.0
  0
ARC
  5
51F
102
{ACAD_REACTORS
330
615
102
}
330
1F
100
AcDbEntity
  8
LC-002-002-RND-0
 62
     7
370
    50
100
AcDbCircle
 10
343.111268
 20
148.845763
 30
0.0
 40
0.9999999999999857
100
AcDbArc
 50
96.0
 51
180.0
  0
LINE
  5
520
102
{ACAD_REACTORS
330
615
102
}
330
1F
100
AcDbEntity
  8
LC-001-002-----0
 62
     7
370
    50
100
AcDbLine
 10
357.163532
 20
175.988555
 30
0.0
 11
343.00674
 21
174.500616
 31
0.0
  0
ARC
  5
521
102
{ACAD_REACTORS
330
615
102
}
330
1F
100
AcDbEntity
  8
LC-002-002-RND-0
 62
     7
370
    50
100
AcDbCircle
 10
343.111268
 20
173.506095
 30
0.0
 40
0.9999999999999857
100
AcDbArc
 50
96.0
 51
180.0
  0
ARC
  5
522
102
{ACAD_REACTORS
330
615
102
}
330
1F
100
AcDbEntity
  8
LC-002-002-RND-0
 62
     7
370
    50
100
AcDbCircle
 10
357.111268
 20
151.825485
 30
0.0
 40
0.4999999999288768
100
AcDbArc
 50
276.0
 51
90.0
  0
ARC
  5
523
102
{ACAD_REACTORS
330
615
102
}
330
1F
100
AcDbEntity
  8
LC-002-002-RND-0
 62
     7
370
    50
100
AcDbCircle
 10
357.111268
 20
176.485816
 30
0.0
 40
0.4999999999288768
100
AcDbArc
 50
276.0
 51
90.0
  0
LINE
  5
524
102
{ACAD_REACTORS
330
615
102
}
330
1F
100
AcDbEntity
  8
LC-001-002-----0
 62
     7
370
    50
100
AcDbLine
 10
357.163532
 20
126.667893
 30
0.0
 11
343.00674
 21
125.179954
 31
0.0
  0
ARC
  5
525
102
{ACAD_REACTORS
330
615
102
}
330
1F
100
AcDbEntity
  8
LC-002-002-RND-0
 62
     7
370
    50
100
AcDbCircle
 10
343.111268
 20
124.185432
 30
0.0
 40
0.9999999999999857
100
AcDbArc
 50
96.0
 51
180.0
  0
ARC
  5
526
102
{ACAD_REACTORS
330
615
102
}
330
1F
100
AcDbEntity
  8
LC-002-002-RND-0
 62
     7
370
    50
100
AcDbCircle
 10
357.111268
 20
127.165154
 30
0.0
 40
0.4999999999288768
100
AcDbArc
 50
276.0
 51
90.0
  0
LINE
  5
527
102
{ACAD_REACTORS
330
615
102
}
330
1F
100
AcDbEntity
  8
LC-001-002-----0
 62
     7
370
    50
100
AcDbLine
 10
357.163532
 20
102.007561
 30
0.0
 11
343.00674
 21
100.519622
 31
0.0
  0
ARC
  5
528
102
{ACAD_REACTORS
330
615
102
}
330
1F
100
AcDbEntity
  8
LC-002-002-RND-0
 62
     7
370
    50
100
AcDbCircle
 10
343.111268
 20
99.525101
 30
0.0
 40
0.9999999999999857
100
AcDbArc
 50
96.0
 51
180.0
  0
ARC
  5
529
102
{ACAD_REACTORS
330
615
102
}
330
1F
100
AcDbEntity
  8
LC-002-002-RND-0
 62
     7
370
    50
100
AcDbCircle
 10
357.111268
 20
102.504822
 30
0.0
 40
0.4999999999288768
100
AcDbArc
 50
276.0
 51
90.0
  0
LINE
  5
52A
102
{ACAD_REACTORS
330
615
102
}
330
1F
100
AcDbEntity
  8
LC-001-002-----0
 62
     7
370
    50
100
AcDbLine
 10
357.111268
 20
176.985816
 30
0.0
 11
342.611268
 21
176.985816
 31
0.0
  0
LINE
  5
52B
102
{ACAD_REACTORS
330
615
102
}
330
1F
100
AcDbEntity
  8
LC-001-002-----0
 62
     7
370
    50
100
AcDbLine
 10
357.163532
 20
77.34723
 30
0.0
 11
343.00674
 21
75.859291
 31
0.0
  0
LINE
  5
52C
102
{ACAD_REACTORS
330
615
102
}
330
1F
100
AcDbEntity
  8
LC-001-002-----0
 62
     7
370
    50
100
AcDbLine
 10
357.111268
 20
201.646148
 30
0.0
 11
342.611268
 21
201.646148
 31
0.0
  0
ARC
  5
52D
102
{ACAD_REACTORS
330
615
102
}
330
1F
100
AcDbEntity
  8
LC-002-002-RND-0
 62
     7
370
    50
100
AcDbCircle
 10
357.111268
 20
77.844491
 30
0.0
 40
0.4999999999288768
100
AcDbArc
 50
276.0
 51
90.0
  0
ARC
  5
52E
102
{ACAD_REACTORS
330
615
102
}
330
1F
100
AcDbEntity
  8
LC-002-002-RND-0
 62
     7
370
    50
100
AcDbCircle
 10
343.111268
 20
74.864769
 30
0.0
 40
0.9999999999999857
100
AcDbArc
 50
96.0
 51
180.0
  0
LINE
  5
52F
102
{ACAD_REACTORS
330
615
102
}
330
1F
100
AcDbEntity
  8
LC-001-002-----0
 62
     7
370
    50
100
AcDbLine
 10
357.163532
 20
52.686899
 30
0.0
 11
343.00674
 21
51.19896
 31
0.0
  0
ARC
  5
530
102
{ACAD_REACTORS
330
615
102
}
330
1F
100
AcDbEntity
  8
LC-002-002-RND-0
 62
     7
370
    50
100
AcDbCircle
 10
343.111268
 20
50.204438
 30
0.0
 40
0.9999999999999857
100
AcDbArc
 50
96.0
 51
180.0
  0
ARC
  5
531
102
{ACAD_REACTORS
330
615
102
}
330
1F
100
AcDbEntity
  8
LC-002-002-RND-0
 62
     7
370
    50
100
AcDbCircle
 10
357.111268
 20
53.18416
 30
0.0
 40
0.4999999999287756
100
AcDbArc
 50
276.0
 51
90.0
  0
LINE
  5
532
102
{ACAD_REACTORS
330
615
102
}
330
1F
100
AcDbEntity
  8
LC-001-002-----0
 62
     7
370
    50
100
AcDbLine
 10
357.163532
 20
28.026567
 30
0.0
 11
343.00674
 21
26.538628
 31
0.0
  0
ARC
  5
533
102
{ACAD_REACTORS
330
615
102
}
330
1F
100
AcDbEntity
  8
LC-002-002-RND-0
 62
     7
370
    50
100
AcDbCircle
 10
343.111268
 20
25.544107
 30
0.0
 40
0.9999999999999857
100
AcDbArc
 50
96.0
 51
180.0
  0
ARC
  5
534
102
{ACAD_REACTORS
330
615
102
}
330
1F
100
AcDbEntity
  8
LC-002-002-RND-0
 62
     7
370
    50
100
AcDbCircle
 10
357.111268
 20
28.523828
 30
0.0
 40
0.4999999999288887
100
AcDbArc
 50
276.0
 51
90.0
  0
LINE
  5
535
102
{ACAD_REACTORS
330
615
102
}
330
1F
100
AcDbEntity
  8
LC-001-002-----0
 62
     7
370
    50
100
AcDbLine
 10
357.163532
 20
3.366236
 30
0.0
 11
343.00674
 21
1.878297
 31
0.0
  0
ARC
  5
536
102
{ACAD_REACTORS
330
615
102
}
330
1F
100
AcDbEntity
  8
LC-002-002-RND-0
 62
     7
370
    50
100
AcDbCircle
 10
343.111268
 20
0.883775
 30
0.0
 40
0.9999999999999857
100
AcDbArc
 50
96.0
 51
180.0
  0
ARC
  5
537
102
{ACAD_REACTORS
330
615
102
}
330
1F
100
AcDbEntity
  8
LC-002-002-RND-0
 62
     7
370
    50
100
AcDbCircle
 10
357.111268
 20
3.863497
 30
0.0
 40
0.4999999999287756
100
AcDbArc
 50
276.0
 51
90.0
  0
LINE
  5
538
102
{ACAD_REACTORS
330
615
102
}
330
1F
100
AcDbEntity
  8
LC-001-002-----0
 62
     7
370
    50
100
AcDbLine
 10
357.163532
 20
-21.294095
 30
0.0
 11
343.00674
 21
-22.782034
 31
0.0
  0
LINE
  5
539
102
{ACAD_REACTORS
330
615
102
}
330
1F
100
AcDbEntity
  8
LC-001-002-----0
 62
     7
370
    50
100
AcDbLine
 10
342.111268
 20
152.825485
 30
0.0
 11
342.111268
 21
173.506095
 31
0.0
  0
ARC
  5
53A
102
{ACAD_REACTORS
330
615
102
}
330
1F
100
AcDbEntity
  8
LC-002-002-RND-0
 62
     7
370
    50
100
AcDbCircle
 10
343.111268
 20
-23.776556
 30
0.0
 40
0.9999999999999857
100
AcDbArc
 50
96.0
 51
180.0
  0
LINE
  5
53B
102
{ACAD_REACTORS
330
615
102
}
330
1F
100
AcDbEntity
  8
LC-001-002-----0
 62
     7
370
    50
100
AcDbLine
 10
342.111268
 20
177.485816
 30
0.0
 11
342.111268
 21
198.166426
 31
0.0
  0
ARC
  5
53C
102
{ACAD_REACTORS
330
615
102
}
330
1F
100
AcDbEntity
  8
LC-002-002-RND-0
 62
     7
370
    50
100
AcDbCircle
 10
357.111268
 20
-20.796834
 30
0.0
 40
0.4999999999288887
100
AcDbArc
 50
276.0
 51
90.0
  0
ARC
  5
53D
102
{ACAD_REACTORS
330
615
102
}
330
1F
100
AcDbEntity
  8
LC-002-002-RND-0
 62
     7
370
    50
100
AcDbCircle
 10
342.611268
 20
152.825485
 30
0.0
 40
0.5
100
AcDbArc
 50
180.0
 51
270.0
  0
ARC
  5
53E
102
{ACAD_REACTORS
330
615
102
}
330
1F
100
AcDbEntity
  8
LC-002-002-RND-0
 62
     7
370
    50
100
AcDbCircle
 10
342.611268
 20
177.485816
 30
0.0
 40
0.5
100
AcDbArc
 50
180.0
 51
270.0
  0
LINE
  5
53F
102
{ACAD_REACTORS
330
615
102
}
330
1F
100
AcDbEntity
  8
LC-001-002-----0
 62
     7
370
    50
100
AcDbLine
 10
342.111268
 20
-19.796834
 30
0.0
 11
342.111268
 21
0.883775
 31
0.0
  0
LINE
  5
540
102
{ACAD_REACTORS
330
615
102
}
330
1F
100
AcDbEntity
  8
LC-001-002-----0
 62
     7
370
    50
100
AcDbLine
 10
342.611268
 20
-20.296834
 30
0.0
 11
357.111268
 21
-20.296834
 31
0.0
  0
LINE
  5
541
102
{ACAD_REACTORS
330
615
102
}
330
1F
100
AcDbEntity
  8
LC-001-002-----0
 62
     7
370
    50
100
AcDbLine
 10
342.111268
 20
128.165154
 30
0.0
 11
342.111268
 21
148.845763
 31
0.0
  0
LINE
  5
542
102
{ACAD_REACTORS
330
615
102
}
330
1F
100
AcDbEntity
  8
LC-001-002-----0
 62
     7
370
    50
100
AcDbLine
 10
342.111268
 20
103.504822
 30
0.0
 11
342.111268
 21
124.185432
 31
0.0
  0
LINE
  5
543
102
{ACAD_REACTORS
330
615
102
}
330
1F
100
AcDbEntity
  8
LC-001-002-----0
 62
     7
370
    50
100
AcDbLine
 10
342.611268
 20
4.363497
 30
0.0
 11
357.111268
 21
4.363497
 31
0.0
  0
LINE
  5
544
102
{ACAD_REACTORS
330
615
102
}
330
1F
100
AcDbEntity
  8
LC-001-002-----0
 62
     7
370
    50
100
AcDbLine
 10
342.611268
 20
29.023828
 30
0.0
 11
357.111268
 21
29.023828
 31
0.0
  0
LINE
  5
545
102
{ACAD_REACTORS
330
615
102
}
330
1F
100
AcDbEntity
  8
LC-001-002-----0
 62
     7
370
    50
100
AcDbLine
 10
342.611268
 20
53.68416
 30
0.0
 11
357.111268
 21
53.68416
 31
0.0
  0
LINE
  5
546
102
{ACAD_REACTORS
330
615
102
}
330
1F
100
AcDbEntity
  8
LC-001-002-----0
 62
     7
370
    50
100
AcDbLine
 10
342.111268
 20
78.844491
 30
0.0
 11
342.111268
 21
99.525101
 31
0.0
  0
LINE
  5
547
102
{ACAD_REACTORS
330
615
102
}
330
1F
100
AcDbEntity
  8
LC-001-002-----0
 62
     7
370
    50
100
AcDbLine
 10
342.611268
 20
78.344491
 30
0.0
 11
357.111268
 21
78.344491
 31
0.0
  0
LINE
  5
548
102
{ACAD_REACTORS
330
615
102
}
330
1F
100
AcDbEntity
  8
LC-001-002-----0
 62
     7
370
    50
100
AcDbLine
 10
342.111268
 20
54.18416
 30
0.0
 11
342.111268
 21
74.864769
 31
0.0
  0
LINE
  5
549
102
{ACAD_REACTORS
330
615
102
}
330
1F
100
AcDbEntity
  8
LC-001-002-----0
 62
     7
370
    50
100
AcDbLine
 10
342.111268
 20
29.523828
 30
0.0
 11
342.111268
 21
50.204438
 31
0.0
  0
LINE
  5
54A
102
{ACAD_REACTORS
330
615
102
}
330
1F
100
AcDbEntity
  8
LC-001-002-----0
 62
     7
370
    50
100
AcDbLine
 10
342.111268
 20
4.863497
 30
0.0
 11
342.111268
 21
25.544107
 31
0.0
  0
LINE
  5
54B
102
{ACAD_REACTORS
330
615
102
}
330
1F
100
AcDbEntity
  8
LC-001-002-----0
 62
     7
370
    50
100
AcDbLine
 10
341.611268
 20
-24.354
 30
0.0
 11
341.111268
 21
-24.354
 31
0.0
  0
LINE
  5
54C
102
{ACAD_REACTORS
330
615
102
}
330
1F
100
AcDbEntity
  8
LC-001-002-----0
 62
     7
370
    50
100
AcDbLine
 10
342.111268
 20
-23.854
 30
0.0
 11
341.611268
 21
-24.354
 31
0.0
  0
LINE
  5
54D
102
{ACAD_REACTORS
330
615
102
}
330
1F
100
AcDbEntity
  8
LC-001-002-----0
 62
     7
370
    50
100
AcDbLine
 10
342.611268
 20
103.004822
 30
0.0
 11
357.111268
 21
103.004822
 31
0.0
  0
LINE
  5
54E
102
{ACAD_REACTORS
330
615
102
}
330
1F
100
AcDbEntity
  8
LC-001-002-----0
 62
     7
370
    50
100
AcDbLine
 10
342.611268
 20
127.665154
 30
0.0
 11
357.111268
 21
127.665154
 31
0.0
  0
ARC
  5
54F
102
{ACAD_REACTORS
330
615
102
}
330
1F
100
AcDbEntity
  8
LC-002-002-RND-0
 62
     7
370
    50
100
AcDbCircle
 10
342.611268
 20
-19.796834
 30
0.0
 40
0.5
100
AcDbArc
 50
180.0
 51
270.0
  0
ARC
  5
550
102
{ACAD_REACTORS
330
615
102
}
330
1F
100
AcDbEntity
  8
LC-002-002-RND-0
 62
     7
370
    50
100
AcDbCircle
 10
342.611268
 20
4.863497
 30
0.0
 40
0.5
100
AcDbArc
 50
180.0
 51
270.0
  0
ARC
  5
551
102
{ACAD_REACTORS
330
615
102
}
330
1F
100
AcDbEntity
  8
LC-002-002-RND-0
 62
     7
370
    50
100
AcDbCircle
 10
342.611268
 20
29.523828
 30
0.0
 40
0.5
100
AcDbArc
 50
180.0
 51
270.0
  0
ARC
  5
552
102
{ACAD_REACTORS
330
615
102
}
330
1F
100
AcDbEntity
  8
LC-002-002-RND-0
 62
     7
370
    50
100
AcDbCircle
 10
342.611268
 20
54.18416
 30
0.0
 40
0.5
100
AcDbArc
 50
180.0
 51
270.0
  0
ARC
  5
553
102
{ACAD_REACTORS
330
615
102
}
330
1F
100
AcDbEntity
  8
LC-002-002-RND-0
 62
     7
370
    50
100
AcDbCircle
 10
342.611268
 20
78.844491
 30
0.0
 40
0.5
100
AcDbArc
 50
180.0
 51
270.0
  0
ARC
  5
554
102
{ACAD_REACTORS
330
615
102
}
330
1F
100
AcDbEntity
  8
LC-002-002-RND-0
 62
     7
370
    50
100
AcDbCircle
 10
342.611268
 20
103.504822
 30
0.0
 40
0.5
100
AcDbArc
 50
180.0
 51
270.0
  0
ARC
  5
555
102
{ACAD_REACTORS
330
615
102
}
330
1F
100
AcDbEntity
  8
LC-002-002-RND-0
 62
     7
370
    50
100
AcDbCircle
 10
342.611268
 20
128.165154
 30
0.0
 40
0.5
100
AcDbArc
 50
180.0
 51
270.0
  0
LINE
  5
556
102
{ACAD_REACTORS
330
615
102
}
330
1F
100
AcDbEntity
  8
LC-001-002-----0
 62
     7
370
    50
100
AcDbLine
 10
341.111268
 20
-24.354
 30
0.0
 11
341.111268
 21
275.627142
 31
0.0
  0
LINE
  5
557
102
{ACAD_REACTORS
330
615
102
}
330
1F
100
AcDbEntity
  8
LC-001-002-----0
 62
     7
370
    50
100
AcDbLine
 10
357.163532
 20
200.648887
 30
0.0
 11
343.00674
 21
199.160948
 31
0.0
  0
LINE
  5
558
102
{ACAD_REACTORS
330
615
102
}
330
1F
100
AcDbEntity
  8
LC-001-002-----0
 62
     7
370
    50
100
AcDbLine
 10
357.111268
 20
152.325485
 30
0.0
 11
342.611268
 21
152.325485
 31
0.0
  0
LINE
  5
559
102
{ACAD_REACTORS
330
615
102
}
330
1F
100
AcDbEntity
  8
LC-001-002-----0
 62
     7
370
    50
100
AcDbLine
 10
357.111268
 20
226.306479
 30
0.0
 11
342.611268
 21
226.306479
 31
0.0
  0
LINE
  5
55A
102
{ACAD_REACTORS
330
615
102
}
330
1F
100
AcDbEntity
  8
LC-001-002-----0
 62
     7
370
    50
100
AcDbLine
 10
357.163532
 20
225.309218
 30
0.0
 11
343.00674
 21
223.821279
 31
0.0
  0
ARC
  5
55B
102
{ACAD_REACTORS
330
615
102
}
330
1F
100
AcDbEntity
  8
LC-002-002-RND-0
 62
     7
370
    50
100
AcDbCircle
 10
357.111268
 20
225.806479
 30
0.0
 40
0.499999999999975
100
AcDbArc
 50
276.0
 51
90.0
  0
LINE
  5
55C
102
{ACAD_REACTORS
330
615
102
}
330
1F
100
AcDbEntity
  8
LC-001-002-----0
 62
     7
370
    50
100
AcDbLine
 10
342.111268
 20
202.146148
 30
0.0
 11
342.111268
 21
222.826757
 31
0.0
  0
ARC
  5
55D
102
{ACAD_REACTORS
330
615
102
}
330
1F
100
AcDbEntity
  8
LC-002-002-RND-0
 62
     7
370
    50
100
AcDbCircle
 10
343.111268
 20
222.826757
 30
0.0
 40
0.9999999999999857
100
AcDbArc
 50
96.0
 51
180.0
  0
LINE
  5
55E
102
{ACAD_REACTORS
330
615
102
}
330
1F
100
AcDbEntity
  8
LC-001-002-----0
 62
     7
370
    50
100
AcDbLine
 10
357.111268
 20
250.96681
 30
0.0
 11
342.611268
 21
250.96681
 31
0.0
  0
LINE
  5
55F
102
{ACAD_REACTORS
330
615
102
}
330
1F
100
AcDbEntity
  8
LC-001-002-----0
 62
     7
370
    50
100
AcDbLine
 10
357.163532
 20
249.969549
 30
0.0
 11
343.00674
 21
248.48161
 31
0.0
  0
ARC
  5
560
102
{ACAD_REACTORS
330
615
102
}
330
1F
100
AcDbEntity
  8
LC-002-002-RND-0
 62
     7
370
    50
100
AcDbCircle
 10
357.111268
 20
250.46681
 30
0.0
 40
0.499999999999975
100
AcDbArc
 50
276.0
 51
90.0
  0
ARC
  5
561
102
{ACAD_REACTORS
330
615
102
}
330
1F
100
AcDbEntity
  8
LC-002-002-RND-0
 62
     7
370
    50
100
AcDbCircle
 10
343.111268
 20
247.487088
 30
0.0
 40
1.000000000000042
100
AcDbArc
 50
96.0
 51
180.0
  0
LINE
  5
562
102
{ACAD_REACTORS
330
615
102
}
330
1F
100
AcDbEntity
  8
LC-001-002-----0
 62
     7
370
    50
100
AcDbLine
 10
357.111268
 20
275.627142
 30
0.0
 11
341.111268
 21
275.627142
 31
0.0
  0
LINE
  5
563
102
{ACAD_REACTORS
330
615
102
}
330
1F
100
AcDbEntity
  8
LC-001-002-----0
 62
     7
370
    50
100
AcDbLine
 10
357.163532
 20
274.629881
 30
0.0
 11
343.00674
 21
273.141942
 31
0.0
  0
ARC
  5
564
102
{ACAD_REACTORS
330
615
102
}
330
1F
100
AcDbEntity
  8
LC-002-002-RND-0
 62
     7
370
    50
100
AcDbCircle
 10
357.111268
 20
275.127142
 30
0.0
 40
0.5000000000000315
100
AcDbArc
 50
276.0
 51
90.0
  0
ARC
  5
565
102
{ACAD_REACTORS
330
615
102
}
330
1F
100
AcDbEntity
  8
LC-002-002-RND-0
 62
     7
370
    50
100
AcDbCircle
 10
343.111268
 20
272.14742
 30
0.0
 40
0.9999999999999857
100
AcDbArc
 50
96.0
 51
180.0
  0
LINE
  5
566
102
{ACAD_REACTORS
330
615
102
}
330
1F
100
AcDbEntity
  8
LC-001-002-----0
 62
     7
370
    50
100
AcDbLine
 10
342.111268
 20
251.46681
 30
0.0
 11
342.111268
 21
272.14742
 31
0.0
  0
LINE
  5
567
102
{ACAD_REACTORS
330
615
102
}
330
1F
100
AcDbEntity
  8
LC-001-002-----0
 62
     7
370
    50
100
AcDbLine
 10
250.111268
 20
226.806479
 30
0.0
 11
250.111268
 21
247.487088
 31
0.0
  0
LINE
  5
568
102
{ACAD_REACTORS
330
615
102
}
330
1F
100
AcDbEntity
  8
LC-001-002-----0
 62
     7
370
    50
100
AcDbLine
 10
342.111268
 20
226.806479
 30
0.0
 11
342.111268
 21
247.487088
 31
0.0
  0
INSERT
  5
606
102
{ACAD_REACTORS
330
615
102
}
330
1F
100
AcDbEntity
  8
LC-003-005-----0
 62
     7
370
    25
100
AcDbBlockReference
  2
*X1925
 10
0.0
 20
0.0
 30
0.0
  0
DIMENSION
  5
608
330
1F
100
AcDbEntity
  8
LC-006-003-----0
 62
     7
370
    25
100
AcDbDimension
  2
*D26
 10
411.066037
 20
275.62597
 30
0.0
 11
380.266037
 21
120.635985
 31
0.0
 70
   160
 71
     5
 42
309.97997
 53
90.0
  3
LC-DIM-L-0140-01-02
100
AcDbAlignedDimension
 13
339.905497
 23
-34.354
 33
0.0
 14
349.568379
 24
275.62597
 34
0.0
 50
90.0
100
AcDbRotatedDimension
  0
ENDSEC
  0
SECTION
  2
OBJECTS
  0
DICTIONARY
  5
C
330
0
100
AcDbDictionary
281
     1
  3
ACAD_GROUP
350
D
  3
ACAD_LAYOUT
350
1A
  3
ACAD_MLINESTYLE
350
17
  3
ACAD_PLOTSETTINGS
350
19
  3
ACAD_PLOTSTYLENAME
350
E
  0
DICTIONARY
  5
D
102
{ACAD_REACTORS
330
C
102
}
330
C
100
AcDbDictionary
281
     1
  3
LCGROUP1583
350
616
  3
LCGROUP1620
350
617
  3
LCGROUP1671
350
615
  0
DICTIONARY
  5
1A
102
{ACAD_REACTORS
330
C
102
}
330
C
100
AcDbDictionary
281
     1
  3
Layout1
350
1E
  3
Layout2
350
26
  3
Model
350
22
  0
DICTIONARY
  5
17
102
{ACAD_REACTORS
330
C
102
}
330
C
100
AcDbDictionary
281
     1
  3
Standard
350
18
  0
DICTIONARY
  5
19
102
{ACAD_REACTORS
330
C
102
}
330
C
100
AcDbDictionary
281
     1
  0
ACDBDICTIONARYWDFLT
  5
E
102
{ACAD_REACTORS
330
C
102
}
330
C
100
AcDbDictionary
281
     1
  3
Normal
350
F
100
AcDbDictionaryWithDefault
340
F
  0
GROUP
  5
616
102
{ACAD_REACTORS
330
D
102
}
330
D
100
AcDbGroup
300
GRP1583
 70
     1
 71
     1
340
468
340
469
340
478
340
479
340
47A
340
47B
340
47C
340
47D
340
47E
340
47F
340
480
340
481
340
482
340
483
340
484
340
485
340
486
340
487
340
488
340
489
340
48A
340
48B
340
48C
  0
GROUP
  5
617
102
{ACAD_REACTORS
330
D
102
}
330
D
100
AcDbGroup
300
GRP1620
 70
     1
 71
     1
340
48D
340
48E
340
499
340
49A
340
49B
340
49C
340
49D
340
49E
340
49F
340
4A0
340
4A1
340
4A2
340
4A3
340
4A4
340
4A5
340
4A6
340
4A7
340
4A8
340
4A9
340
4AA
340
4AB
340
4AC
340
4AD
  0
GROUP
  5
615
102
{ACAD_REACTORS
330
D
102
}
330
D
100
AcDbGroup
300
GRP1671
 70
     1
 71
     1
340
4C9
340
4CA
340
4CB
340
4CC
340
4CD
340
4CE
340
4CF
340
4D0
340
4D1
340
4D2
340
4D3
340
4D4
340
4D5
340
4D6
340
4D7
340
4D8
340
4D9
340
4DA
340
4DB
340
4DC
340
4DD
340
4DE
340
4DF
340
4E0
340
4E1
340
4E2
340
4E3
340
4E4
340
4E5
340
4E6
340
4E7
340
4E8
340
4E9
340
4EA
340
4EB
340
4EC
340
4ED
340
4EE
340
4EF
340
4F0
340
4F1
340
4F2
340
4F3
340
4F4
340
4F5
340
4F6
340
4F7
340
4F8
340
4F9
340
4FA
340
4FB
340
4FC
340
4FD
340
4FE
340
4FF
340
500
340
501
340
502
340
503
340
504
340
505
340
506
340
507
340
508
340
509
340
50A
340
50B
340
50C
340
50D
340
50E
340
50F
340
510
340
511
340
512
340
513
340
514
340
515
340
516
340
517
340
518
340
519
340
51A
340
51B
340
51C
340
51D
340
51E
340
51F
340
520
340
521
340
522
340
523
340
524
340
525
340
526
340
527
340
528
340
529
340
52A
340
52B
340
52C
340
52D
340
52E
340
52F
340
530
340
531
340
532
340
533
340
534
340
535
340
536
340
537
340
538
340
539
340
53A
340
53B
340
53C
340
53D
340
53E
340
53F
340
540
340
541
340
542
340
543
340
544
340
545
340
546
340
547
340
548
340
549
340
54A
340
54B
340
54C
340
54D
340
54E
340
54F
340
550
340
551
340
552
340
553
340
554
340
555
340
556
340
557
340
558
340
559
340
55A
340
55B
340
55C
340
55D
340
55E
340
55F
340
560
340
561
340
562
340
563
340
564
340
565
340
566
340
567
340
568
340
606
  0
LAYOUT
  5
1E
102
{ACAD_REACTORS
330
1A
102
}
330
1A
100
AcDbPlotSettings
  1

  2

  4

  6

 40
0.0
 41
0.0
 42
0.0
 43
0.0
 44
0.0
 45
0.0
 46
0.0
 47
0.0
 48
0.0
 49
0.0
140
0.0
141
0.0
142
1.0
143
1.0
 70
   688
 72
     0
 73
     0
 74
     5
  7

 75
    16
147
1.0
148
0.0
149
0.0
100
AcDbLayout
  1
Layout1
 70
     1
 71
     1
 10
-238.222046
 20
-233.13
 11
949.777954
 21
606.87
 12
0.0
 22
0.0
 32
0.0
 14
-238.222046
 24
-233.13
 34
0.0
 15
949.777954
 25
606.87
 35
0.0
146
0.0
 13
0.0
 23
0.0
 33
0.0
 16
1.0
 26
0.0
 36
0.0
 17
0.0
 27
1.0
 37
0.0
 76
     0
330
1B
  0
LAYOUT
  5
26
102
{ACAD_REACTORS
330
1A
102
}
330
1A
100
AcDbPlotSettings
  1

  2

  4

  6

 40
0.0
 41
0.0
 42
0.0
 43
0.0
 44
0.0
 45
0.0
 46
0.0
 47
0.0
 48
0.0
 49
0.0
140
0.0
141
0.0
142
1.0
143
1.0
 70
   688
 72
     0
 73
     0
 74
     5
  7

 75
    16
147
1.0
148
0.0
149
0.0
100
AcDbLayout
  1
Layout2
 70
     1
 71
     2
 10
0.0
 20
0.0
 11
0.0
 21
0.0
 12
0.0
 22
0.0
 32
0.0
 14
0.0
 24
0.0
 34
0.0
 15
0.0
 25
0.0
 35
0.0
146
0.0
 13
0.0
 23
0.0
 33
0.0
 16
1.0
 26
0.0
 36
0.0
 17
0.0
 27
1.0
 37
0.0
 76
     0
330
23
  0
LAYOUT
  5
22
102
{ACAD_REACTORS
330
1A
102
}
330
1A
100
AcDbPlotSettings
  1

  2

  4

  6

 40
0.0
 41
0.0
 42
0.0
 43
0.0
 44
0.0
 45
0.0
 46
0.0
 47
0.0
 48
0.0
 49
0.0
140
0.0
141
0.0
142
1.0
143
1.0
 70
  1776
 72
     0
 73
     0
 74
     0
  7

 75
     0
147
1.0
148
0.0
149
0.0
100
AcDbLayout
  1
Model
 70
     1
 71
     0
 10
-238.222046
 20
-233.13
 11
949.777954
 21
606.87
 12
0.0
 22
0.0
 32
0.0
 14
-238.222046
 24
-233.13
 34
0.0
 15
949.777954
 25
606.87
 35
0.0
146
0.0
 13
0.0
 23
0.0
 33
0.0
 16
1.0
 26
0.0
 36
0.0
 17
0.0
 27
1.0
 37
0.0
 76
     0
330
1F
  0
MLINESTYLE
  5
18
102
{ACAD_REACTORS
330
17
102
}
330
17
100
AcDbMlineStyle
  2
Standard
 70
     0
  3

 62
   256
 51
90.0
 52
90.0
 71
     2
 49
0.5
 62
   256
  6
BYLAYER
 49
-0.5
 62
   256
  6
BYLAYER
  0
ACDBPLACEHOLDER
  5
F
102
{ACAD_REACTORS
330
E
102
}
330
E
  0
ENDSEC
  0
EOF
