  0
SECTION
  2
HEADER
  9
$ACADVER
  1
AC1015
  9
$ACADMAINTVER
 70
     6
  9
$DWGCODEPAGE
  3
ANSI_1252
  9
$INSBASE
 10
0.0
 20
0.0
 30
0.0
  9
$EXTMIN
 10
-298.891165
 20
-154.363261
 30
0.0
  9
$EXTMAX
 10
541.108835
 20
439.636739
 30
0.0
  9
$LIMMIN
 10
-298.891165
 20
-154.363261
  9
$LIMMAX
 10
541.108835
 20
439.636739
  9
$ORTHOMODE
 70
     0
  9
$REGENMODE
 70
     1
  9
$FILLMODE
 70
     1
  9
$QTEXTMODE
 70
     0
  9
$MIRRTEXT
 70
     1
  9
$LTSCALE
 40
2.0
  9
$ATTMODE
 70
     1
  9
$TEXTSIZE
 40
2.5
  9
$TRACEWID
 40
1.0
  9
$TEXTSTYLE
  7
Standard
  9
$CLAYER
  8
0
  9
$CELTYPE
  6
ByLayer
  9
$CECOLOR
 62
     7
  9
$CELTSCALE
 40
1.0
  9
$DISPSILH
 70
     0
  9
$DIMSCALE
 40
2.0
  9
$DIMASZ
 40
3.5
  9
$DIMEXO
 40
0.625
  9
$DIMDLI
 40
3.75
  9
$DIMRND
 40
0.0
  9
$DIMDLE
 40
0.0
  9
$DIMEXE
 40
1.25
  9
$DIMTP
 40
0.0
  9
$DIMTM
 40
0.0
  9
$DIMTXT
 40
3.5
  9
$DIMCEN
 40
2.5
  9
$DIMTSZ
 40
0.0
  9
$DIMTOL
 70
     0
  9
$DIMLIM
 70
     0
  9
$DIMTIH
 70
     0
  9
$DIMTOH
 70
     0
  9
$DIMSE1
 70
     0
  9
$DIMSE2
 70
     0
  9
$DIMTAD
 70
     1
  9
$DIMZIN
 70
     8
  9
$DIMBLK
  1

  9
$DIMASO
 70
     1
  9
$DIMSHO
 70
     1
  9
$DIMPOST
  1

  9
$DIMAPOST
  1

  9
$DIMALT
 70
     0
  9
$DIMALTD
 70
     3
  9
$DIMALTF
 40
0.03937
  9
$DIMLFAC
 40
1.0
  9
$DIMTOFL
 70
     1
  9
$DIMTVP
 40
0.0
  9
$DIMTIX
 70
     0
  9
$DIMSOXD
 70
     0
  9
$DIMSAH
 70
     0
  9
$DIMBLK1
  1

  9
$DIMBLK2
  1

  9
$DIMSTYLE
  2
ISO-25
  9
$DIMCLRD
 70
     0
  9
$DIMCLRE
 70
     0
  9
$DIMCLRT
 70
     0
  9
$DIMTFAC
 40
1.0
  9
$DIMGAP
 40
0.625
  9
$DIMJUST
 70
     0
  9
$DIMSD1
 70
     0
  9
$DIMSD2
 70
     0
  9
$DIMTOLJ
 70
     0
  9
$DIMTZIN
 70
     8
  9
$DIMALTZ
 70
     0
  9
$DIMALTTZ
 70
     0
  9
$DIMUPT
 70
     0
  9
$DIMDEC
 70
     2
  9
$DIMTDEC
 70
     2
  9
$DIMALTU
 70
     2
  9
$DIMALTTD
 70
     3
  9
$DIMTXSTY
  7
Standard
  9
$DIMAUNIT
 70
     0
  9
$DIMADEC
 70
     0
  9
$DIMALTRND
 40
0.0
  9
$DIMAZIN
 70
     0
  9
$DIMDSEP
 70
    44
  9
$DIMATFIT
 70
     3
  9
$DIMFRAC
 70
     0
  9
$DIMLDRBLK
  1

  9
$DIMLUNIT
 70
     2
  9
$DIMLWD
 70
    -2
  9
$DIMLWE
 70
    -2
  9
$DIMTMOVE
 70
     0
  9
$LUNITS
 70
     2
  9
$LUPREC
 70
     4
  9
$SKETCHINC
 40
1.0
  9
$FILLETRAD
 40
10.0
  9
$AUNITS
 70
     0
  9
$AUPREC
 70
     0
  9
$MENU
  1
.
  9
$ELEVATION
 40
0.0
  9
$PELEVATION
 40
0.0
  9
$THICKNESS
 40
0.0
  9
$LIMCHECK
 70
     0
  9
$CHAMFERA
 40
10.0
  9
$CHAMFERB
 40
10.0
  9
$CHAMFERC
 40
20.0
  9
$CHAMFERD
 40
0.0
  9
$SKPOLY
 70
     0
  9
$TDCREATE
 40
2455285.454189966
  9
$TDUCREATE
 40
2455285.370856632
  9
$TDUPDATE
 40
2455285.454189977
  9
$TDUUPDATE
 40
2455285.370856644
  9
$TDINDWG
 40
0.0000000116
  9
$TDUSRTIMER
 40
0.0000000116
  9
$USRTIMER
 70
     1
  9
$ANGBASE
 50
0.0
  9
$ANGDIR
 70
     0
  9
$PDMODE
 70
     0
  9
$PDSIZE
 40
0.0
  9
$PLINEWID
 40
0.0
  9
$SPLFRAME
 70
     0
  9
$SPLINETYPE
 70
     6
  9
$SPLINESEGS
 70
     8
  9
$HANDSEED
  5
470
  9
$SURFTAB1
 70
     6
  9
$SURFTAB2
 70
     6
  9
$SURFTYPE
 70
     6
  9
$SURFU
 70
     6
  9
$SURFV
 70
     6
  9
$UCSBASE
  2

  9
$UCSNAME
  2

  9
$UCSORG
 10
0.0
 20
0.0
 30
0.0
  9
$UCSXDIR
 10
1.0
 20
0.0
 30
0.0
  9
$UCSYDIR
 10
0.0
 20
1.0
 30
0.0
  9
$UCSORTHOREF
  2

  9
$UCSORTHOVIEW
 70
     0
  9
$UCSORGTOP
 10
0.0
 20
0.0
 30
0.0
  9
$UCSORGBOTTOM
 10
0.0
 20
0.0
 30
0.0
  9
$UCSORGLEFT
 10
0.0
 20
0.0
 30
0.0
  9
$UCSORGRIGHT
 10
0.0
 20
0.0
 30
0.0
  9
$UCSORGFRONT
 10
0.0
 20
0.0
 30
0.0
  9
$UCSORGBACK
 10
0.0
 20
0.0
 30
0.0
  9
$PUCSBASE
  2

  9
$PUCSNAME
  2

  9
$PUCSORG
 10
0.0
 20
0.0
 30
0.0
  9
$PUCSXDIR
 10
1.0
 20
0.0
 30
0.0
  9
$PUCSYDIR
 10
0.0
 20
1.0
 30
0.0
  9
$PUCSORTHOREF
  2

  9
$PUCSORTHOVIEW
 70
     0
  9
$PUCSORGTOP
 10
0.0
 20
0.0
 30
0.0
  9
$PUCSORGBOTTOM
 10
0.0
 20
0.0
 30
0.0
  9
$PUCSORGLEFT
 10
0.0
 20
0.0
 30
0.0
  9
$PUCSORGRIGHT
 10
0.0
 20
0.0
 30
0.0
  9
$PUCSORGFRONT
 10
0.0
 20
0.0
 30
0.0
  9
$PUCSORGBACK
 10
0.0
 20
0.0
 30
0.0
  9
$USERI1
 70
     0
  9
$USERI2
 70
     0
  9
$USERI3
 70
     0
  9
$USERI4
 70
     0
  9
$USERI5
 70
     0
  9
$USERR1
 40
0.0
  9
$USERR2
 40
0.0
  9
$USERR3
 40
0.0
  9
$USERR4
 40
0.0
  9
$USERR5
 40
0.0
  9
$WORLDVIEW
 70
     1
  9
$SHADEDGE
 70
     3
  9
$SHADEDIF
 70
    70
  9
$TILEMODE
 70
     1
  9
$MAXACTVP
 70
    64
  9
$PINSBASE
 10
0.0
 20
0.0
 30
0.0
  9
$PLIMCHECK
 70
     0
  9
$PEXTMIN
 10
-298.891165
 20
-154.363261
 30
0.0
  9
$PEXTMAX
 10
541.108835
 20
439.636739
 30
0.0
  9
$PLIMMIN
 10
-298.891165
 20
-154.363261
  9
$PLIMMAX
 10
541.108835
 20
439.636739
  9
$UNITMODE
 70
     0
  9
$VISRETAIN
 70
     1
  9
$PLINEGEN
 70
     0
  9
$PSLTSCALE
 70
     1
  9
$TREEDEPTH
 70
  3020
  9
$CMLSTYLE
  2
Standard
  9
$CMLJUST
 70
     0
  9
$CMLSCALE
 40
20.0
  9
$PROXYGRAPHICS
 70
     1
  9
$MEASUREMENT
 70
     1
  9
$CELWEIGHT
370
    -1
  9
$ENDCAPS
280
     0
  9
$JOINSTYLE
280
     0
  9
$LWDISPLAY
290
     0
  9
$INSUNITS
 70
     4
  9
$HYPERLINKBASE
  1

  9
$STYLESHEET
  1

  9
$XEDIT
290
     1
  9
$CEPSNTYPE
380
     0
  9
$PSTYLEMODE
290
     1
  9
$FINGERPRINTGUID
  2
{FAEB1C30-E019-11D5-929B-00C0DF256EC4}
  9
$VERSIONGUID
  2
{FAEB1C32-E019-11D5-929B-00C0DF256EC4}
  9
$EXTNAMES
290
     1
  9
$PSVPSCALE
 40
0.0
  9
$OLESTARTUP
290
     0
  0
ENDSEC
  0
SECTION
  2
CLASSES
  0
CLASS
  1
ACDBDICTIONARYWDFLT
  2
AcDbDictionaryWithDefault
  3
ObjectDBX Classes
 90
        0
280
     0
281
     0
  0
CLASS
  1
ACDBPLACEHOLDER
  2
AcDbPlaceHolder
  3
ObjectDBX Classes
 90
        0
280
     0
281
     0
  0
CLASS
  1
LAYOUT
  2
AcDbLayout
  3
ObjectDBX Classes
 90
        0
280
     0
281
     0
  0
ENDSEC
  0
SECTION
  2
TABLES
  0
TABLE
  2
VPORT
  5
8
330
0
100
AcDbSymbolTable
 70
     2
  0
VPORT
  5
29
330
8
100
AcDbSymbolTableRecord
100
AcDbViewportTableRecord
  2
*ACTIVE
 70
     0
 10
0.0
 20
0.0
 11
1.0
 21
1.0
 12
121.108835
 22
142.636739
 13
0.0
 23
0.0
 14
1.0
 24
1.0
 15
0.0
 25
0.0
 16
0.0
 26
0.0
 36
1.0
 17
0.0
 27
0.0
 37
0.0
 40
594.0
 41
1.414141
 42
50.0
 43
0.0
 44
0.0
 50
0.0
 51
0.0
 71
    16
 72
   100
 73
     1
 74
     0
 75
     0
 76
     0
 77
     0
 78
     0
281
     0
 65
     0
110
0.0
120
0.0
130
0.0
111
1.0
121
0.0
131
0.0
112
0.0
122
1.0
132
0.0
 79
     0
146
0.0
  0
ENDTAB
  0
TABLE
  2
LTYPE
  5
5
330
0
100
AcDbSymbolTable
 70
     3
  0
LTYPE
  5
14
330
5
100
AcDbSymbolTableRecord
100
AcDbLinetypeTableRecord
  2
ByBlock
 70
     0
  3

 72
    65
 73
     0
 40
0.0
  0
LTYPE
  5
15
330
5
100
AcDbSymbolTableRecord
100
AcDbLinetypeTableRecord
  2
ByLayer
 70
     0
  3

 72
    65
 73
     0
 40
0.0
  0
LTYPE
  5
16
330
5
100
AcDbSymbolTableRecord
100
AcDbLinetypeTableRecord
  2
Continuous
 70
     0
  3
Solid line
 72
    65
 73
     0
 40
0.0
  0
LTYPE
  5
2A
330
5
100
AcDbSymbolTableRecord
100
AcDbLinetypeTableRecord
  2
DASHED
 70
     0
  3
__ __ __ __ __
 72
    65
 73
     2
 40
6.25
 49
5.0
 74
     4
 75
     0
340
0
 46
1.0
 50
0.0
 44
0.0
 45
0.0
 49
-1.25
 74
     4
 75
     0
340
0
 46
1.0
 50
0.0
 44
0.0
 45
0.0
  0
LTYPE
  5
337
330
5
100
AcDbSymbolTableRecord
100
AcDbLinetypeTableRecord
  2
DASHDOT
 70
     0
  3
__ . __ . __ . __ . __
 72
    65
 73
     4
 40
7.5
 49
5.0
 74
     4
 75
     0
340
0
 46
1.0
 50
0.0
 44
0.0
 45
0.0
 49
-1.25
 74
     4
 75
     0
340
0
 46
1.0
 50
0.0
 44
0.0
 45
0.0
 49
0.0
 74
     4
 75
     0
340
0
 46
1.0
 50
0.0
 44
0.0
 45
0.0
 49
-1.25
 74
     4
 75
     0
340
0
 46
1.0
 50
0.0
 44
0.0
 45
0.0
  0
ENDTAB
  0
TABLE
  2
LAYER
  5
2
330
0
100
AcDbSymbolTable
 70
     8
  0
LAYER
  5
10
330
2
100
AcDbSymbolTableRecord
100
AcDbLayerTableRecord
  2
0
 70
     0
 62
     7
  6
Continuous
370
    -3
390
F
  0
LAYER
  5
2B
330
2
100
AcDbSymbolTableRecord
100
AcDbLayerTableRecord
  2
LC-INFO-1-2-mm-A3-0
 70
     1
 62
     7
  6
ByBlock
370
    -3
390
F
  0
LAYER
  5
2C
330
2
100
AcDbSymbolTableRecord
100
AcDbLayerTableRecord
  2
LC-CUT-HIDDEN
 70
     0
 62
     7
  6
DASHED
370
    -3
390
F
  0
LAYER
  5
2D
330
2
100
AcDbSymbolTableRecord
100
AcDbLayerTableRecord
  2
LC-VIEWPORT
 70
     0
 62
     7
  6
ByBlock
370
    -3
390
F
  0
LAYER
  5
2E
330
2
100
AcDbSymbolTableRecord
100
AcDbLayerTableRecord
  2
LC-3D-HIDDEN
 70
     0
 62
     9
  6
DASHED
370
    -3
390
F
  0
LAYER
  5
30
330
2
100
AcDbSymbolTableRecord
100
AcDbLayerTableRecord
  2
LC-001-100-D00-0
 70
     0
 62
     1
  6
ByBlock
370
    -3
390
F
  0
LAYER
  5
33B
330
2
100
AcDbSymbolTableRecord
100
AcDbLayerTableRecord
  2
LC-002-003-----0
 70
     0
 62
     2
  6
ByBlock
370
    -3
390
F
  0
LAYER
  5
33D
330
2
100
AcDbSymbolTableRecord
100
AcDbLayerTableRecord
  2
Defpoints
 70
     0
 62
     7
  6
Continuous
290
     0
370
    -3
390
F
  0
ENDTAB
  0
TABLE
  2
STYLE
  5
3
330
0
100
AcDbSymbolTable
 70
     3
  0
STYLE
  5
11
330
3
100
AcDbSymbolTableRecord
100
AcDbTextStyleTableRecord
  2
Standard
 70
     0
 40
0.0
 41
1.0
 50
0.0
 71
     0
 42
2.5
  3
txt
  4

  0
STYLE
  5
2F
330
3
100
AcDbSymbolTableRecord
100
AcDbTextStyleTableRecord
  2
LCTX15-400-0-0-Arial
 70
     0
 40
0.0
 41
0.8
 50
0.0
 71
     0
 42
3.5
  3

  4

1001
ACAD
1000
Arial
1071
 16777218
  0
STYLE
  5
339
330
3
100
AcDbSymbolTableRecord
100
AcDbTextStyleTableRecord
  2
LCTX15-400-0-0pDIN-Schrift
 70
     0
 40
2.5
 41
0.8
 50
15.0
 71
     0
 42
3.5
  3
STANDARD
  4

  0
ENDTAB
  0
TABLE
  2
VIEW
  5
6
330
0
100
AcDbSymbolTable
 70
     0
  0
ENDTAB
  0
TABLE
  2
UCS
  5
7
330
0
100
AcDbSymbolTable
 70
     0
  0
ENDTAB
  0
TABLE
  2
APPID
  5
9
330
0
100
AcDbSymbolTable
 70
     1
  0
APPID
  5
12
330
9
100
AcDbSymbolTableRecord
100
AcDbRegAppTableRecord
  2
ACAD
 70
     0
  0
ENDTAB
  0
TABLE
  2
DIMSTYLE
  5
A
330
0
100
AcDbSymbolTable
 70
     2
100
AcDbDimStyleTable
  0
DIMSTYLE
105
27
330
A
100
AcDbSymbolTableRecord
100
AcDbDimStyleTableRecord
  2
ISO-25
 70
     0
 41
2.5
 42
0.625
 43
3.75
 44
1.25
 73
     0
 74
     0
 77
     1
 78
     8
140
2.5
141
2.5
143
0.03937
147
0.625
171
     3
172
     1
271
     2
272
     2
274
     3
278
    44
283
     0
284
     8
340
11
  0
DIMSTYLE
105
33A
102
{ACAD_REACTORS
330
33C
330
34A
330
357
102
}
330
A
100
AcDbSymbolTableRecord
100
AcDbDimStyleTableRecord
  2
LC-DIM-L-0140-02-02
 70
     0
 40
2.0
 41
14.0
 42
0.0
 43
7.5
 44
1.8
 73
     0
 74
     0
 77
     1
 78
     8
 79
     2
140
14.0
141
0.0
146
0.71
147
1.5
176
     2
177
     2
178
     2
179
     2
271
     2
278
    44
289
     1
340
339
  0
ENDTAB
  0
TABLE
  2
BLOCK_RECORD
  5
1
330
0
100
AcDbSymbolTable
 70
    42
  0
BLOCK_RECORD
  5
1F
330
1
100
AcDbSymbolTableRecord
100
AcDbBlockTableRecord
  2
*Model_Space
340
22
  0
BLOCK_RECORD
  5
1B
330
1
100
AcDbSymbolTableRecord
100
AcDbBlockTableRecord
  2
*Paper_Space
340
1E
  0
BLOCK_RECORD
  5
23
330
1
100
AcDbSymbolTableRecord
100
AcDbBlockTableRecord
  2
*Paper_Space0
340
26
  0
BLOCK_RECORD
  5
A9
330
1
100
AcDbSymbolTableRecord
100
AcDbBlockTableRecord
  2
POLY1
340
0
102
{BLKREFS
331
BC
102
}
  0
BLOCK_RECORD
  5
BE
330
1
100
AcDbSymbolTableRecord
100
AcDbBlockTableRecord
  2
POLY2
340
0
102
{BLKREFS
331
CB
102
}
  0
BLOCK_RECORD
  5
CC
330
1
100
AcDbSymbolTableRecord
100
AcDbBlockTableRecord
  2
POLY3
340
0
102
{BLKREFS
331
D7
102
}
  0
BLOCK_RECORD
  5
DA
330
1
100
AcDbSymbolTableRecord
100
AcDbBlockTableRecord
  2
POLY4
340
0
102
{BLKREFS
331
E9
102
}
  0
BLOCK_RECORD
  5
EA
330
1
100
AcDbSymbolTableRecord
100
AcDbBlockTableRecord
  2
POLY5
340
0
102
{BLKREFS
331
F9
102
}
  0
BLOCK_RECORD
  5
FA
330
1
100
AcDbSymbolTableRecord
100
AcDbBlockTableRecord
  2
KLON1
340
0
102
{BLKREFS
331
FF
102
}
  0
BLOCK_RECORD
  5
100
330
1
100
AcDbSymbolTableRecord
100
AcDbBlockTableRecord
  2
POLY6
340
0
102
{BLKREFS
331
113
102
}
  0
BLOCK_RECORD
  5
114
330
1
100
AcDbSymbolTableRecord
100
AcDbBlockTableRecord
  2
POLY7
340
0
102
{BLKREFS
331
121
102
}
  0
BLOCK_RECORD
  5
125
330
1
100
AcDbSymbolTableRecord
100
AcDbBlockTableRecord
  2
POLY8
340
0
102
{BLKREFS
331
132
102
}
  0
BLOCK_RECORD
  5
134
330
1
100
AcDbSymbolTableRecord
100
AcDbBlockTableRecord
  2
POLY9
340
0
102
{BLKREFS
331
13F
102
}
  0
BLOCK_RECORD
  5
19B
330
1
100
AcDbSymbolTableRecord
100
AcDbBlockTableRecord
  2
POLY10
340
0
102
{BLKREFS
331
1AC
102
}
  0
BLOCK_RECORD
  5
1B0
330
1
100
AcDbSymbolTableRecord
100
AcDbBlockTableRecord
  2
POLY11
340
0
102
{BLKREFS
331
1C1
102
}
  0
BLOCK_RECORD
  5
1FF
330
1
100
AcDbSymbolTableRecord
100
AcDbBlockTableRecord
  2
POLY12
340
0
102
{BLKREFS
331
210
102
}
  0
BLOCK_RECORD
  5
211
330
1
100
AcDbSymbolTableRecord
100
AcDbBlockTableRecord
  2
POLY13
340
0
102
{BLKREFS
331
222
102
}
  0
BLOCK_RECORD
  5
226
330
1
100
AcDbSymbolTableRecord
100
AcDbBlockTableRecord
  2
POLY14
340
0
102
{BLKREFS
331
237
102
}
  0
BLOCK_RECORD
  5
238
330
1
100
AcDbSymbolTableRecord
100
AcDbBlockTableRecord
  2
POLY15
340
0
102
{BLKREFS
331
249
102
}
  0
BLOCK_RECORD
  5
288
330
1
100
AcDbSymbolTableRecord
100
AcDbBlockTableRecord
  2
POLY16
340
0
102
{BLKREFS
331
299
102
}
  0
BLOCK_RECORD
  5
29D
330
1
100
AcDbSymbolTableRecord
100
AcDbBlockTableRecord
  2
POLY17
340
0
102
{BLKREFS
331
2AE
102
}
  0
BLOCK_RECORD
  5
2B4
330
1
100
AcDbSymbolTableRecord
100
AcDbBlockTableRecord
  2
POLY18
340
0
102
{BLKREFS
331
2BF
102
}
  0
BLOCK_RECORD
  5
2C0
330
1
100
AcDbSymbolTableRecord
100
AcDbBlockTableRecord
  2
KLON2
340
0
102
{BLKREFS
331
2C5
102
}
  0
BLOCK_RECORD
  5
2C6
330
1
100
AcDbSymbolTableRecord
100
AcDbBlockTableRecord
  2
KLON3
340
0
102
{BLKREFS
331
2CB
102
}
  0
BLOCK_RECORD
  5
2CC
330
1
100
AcDbSymbolTableRecord
100
AcDbBlockTableRecord
  2
POLY19
340
0
102
{BLKREFS
331
2D7
102
}
  0
BLOCK_RECORD
  5
2F8
330
1
100
AcDbSymbolTableRecord
100
AcDbBlockTableRecord
  2
KLON4
340
0
102
{BLKREFS
331
2FD
102
}
  0
BLOCK_RECORD
  5
2FF
330
1
100
AcDbSymbolTableRecord
100
AcDbBlockTableRecord
  2
KLON5
340
0
102
{BLKREFS
331
311
102
}
  0
BLOCK_RECORD
  5
312
330
1
100
AcDbSymbolTableRecord
100
AcDbBlockTableRecord
  2
KLON6
340
0
102
{BLKREFS
331
321
102
}
  0
BLOCK_RECORD
  5
323
330
1
100
AcDbSymbolTableRecord
100
AcDbBlockTableRecord
  2
KLON7
340
0
102
{BLKREFS
331
334
102
}
  0
BLOCK_RECORD
  5
33E
330
1
100
AcDbSymbolTableRecord
100
AcDbBlockTableRecord
  2
*D27
340
0
  0
BLOCK_RECORD
  5
34B
330
1
100
AcDbSymbolTableRecord
100
AcDbBlockTableRecord
  2
*D28
340
0
  0
BLOCK_RECORD
  5
358
330
1
100
AcDbSymbolTableRecord
100
AcDbBlockTableRecord
  2
*D29
340
0
  0
BLOCK_RECORD
  5
36A
330
1
100
AcDbSymbolTableRecord
100
AcDbBlockTableRecord
  2
POLY20
340
0
102
{BLKREFS
331
377
102
}
  0
BLOCK_RECORD
  5
378
330
1
100
AcDbSymbolTableRecord
100
AcDbBlockTableRecord
  2
POLY21
340
0
102
{BLKREFS
331
393
102
}
  0
BLOCK_RECORD
  5
395
330
1
100
AcDbSymbolTableRecord
100
AcDbBlockTableRecord
  2
POLY22
340
0
102
{BLKREFS
331
3A0
102
}
  0
BLOCK_RECORD
  5
3A1
330
1
100
AcDbSymbolTableRecord
100
AcDbBlockTableRecord
  2
POLY23
340
0
102
{BLKREFS
331
3AE
102
}
  0
BLOCK_RECORD
  5
3AF
330
1
100
AcDbSymbolTableRecord
100
AcDbBlockTableRecord
  2
POLY24
340
0
102
{BLKREFS
331
3BC
102
}
  0
BLOCK_RECORD
  5
3BD
330
1
100
AcDbSymbolTableRecord
100
AcDbBlockTableRecord
  2
POLY25
340
0
102
{BLKREFS
331
3D2
102
}
  0
BLOCK_RECORD
  5
3DC
330
1
100
AcDbSymbolTableRecord
100
AcDbBlockTableRecord
  2
KLON8
340
0
102
{BLKREFS
331
3E2
102
}
  0
BLOCK_RECORD
  5
3E3
330
1
100
AcDbSymbolTableRecord
100
AcDbBlockTableRecord
  2
KLON9
340
0
102
{BLKREFS
331
3E8
102
}
  0
BLOCK_RECORD
  5
40D
330
1
100
AcDbSymbolTableRecord
100
AcDbBlockTableRecord
  2
POLY26
340
0
102
{BLKREFS
331
41E
102
}
  0
BLOCK_RECORD
  5
420
330
1
100
AcDbSymbolTableRecord
100
AcDbBlockTableRecord
  2
POLY27
340
0
102
{BLKREFS
331
431
102
}
  0
BLOCK_RECORD
  5
435
330
1
100
AcDbSymbolTableRecord
100
AcDbBlockTableRecord
  2
POLY28
340
0
102
{BLKREFS
331
44E
102
}
  0
BLOCK_RECORD
  5
450
330
1
100
AcDbSymbolTableRecord
100
AcDbBlockTableRecord
  2
POLY29
340
0
102
{BLKREFS
331
461
102
}
  0
ENDTAB
  0
ENDSEC
  0
SECTION
  2
BLOCKS
  0
BLOCK
  5
20
330
1F
100
AcDbEntity
  8
0
100
AcDbBlockBegin
  2
*Model_Space
 70
     0
 71
     0
 10
0.0
 20
0.0
 30
0.0
  3
*Model_Space
  1

  0
ENDBLK
  5
21
330
1F
100
AcDbEntity
  8
0
100
AcDbBlockEnd
  0
BLOCK
  5
1C
330
1B
100
AcDbEntity
 67
     1
  8
0
100
AcDbBlockBegin
  2
*Paper_Space
 70
     0
 71
     0
 10
0.0
 20
0.0
 30
0.0
  3
*Paper_Space
  1

  0
ENDBLK
  5
1D
330
1B
100
AcDbEntity
 67
     1
  8
0
100
AcDbBlockEnd
  0
BLOCK
  5
24
330
23
100
AcDbEntity
  8
0
100
AcDbBlockBegin
  2
*Paper_Space0
 70
     0
 71
     0
 10
0.0
 20
0.0
 30
0.0
  3
*Paper_Space0
  1

  0
ENDBLK
  5
25
330
23
100
AcDbEntity
  8
0
100
AcDbBlockEnd
  0
BLOCK
  5
AA
330
A9
100
AcDbEntity
  8
0
100
AcDbBlockBegin
  2
POLY1
 70
     0
 71
     0
 10
0.0
 20
0.0
 30
0.0
  3
POLY1
  1

  4
POLY1
  0
LINE
  5
AC
330
A9
100
AcDbEntity
  8
LC-001-100-D00-0
 62
     7
370
    50
100
AcDbLine
 10
75.619928
 20
198.516499
 30
0.0
 11
75.619928
 21
198.516499
 31
0.0
  0
LINE
  5
AD
330
A9
100
AcDbEntity
  8
LC-001-100-D00-0
 62
     7
370
    50
100
AcDbLine
 10
75.619928
 20
198.516499
 30
0.0
 11
75.662048
 21
198.513819
 31
0.0
  0
LINE
  5
AE
330
A9
100
AcDbEntity
  8
LC-001-100-D00-0
 62
     7
370
    50
100
AcDbLine
 10
75.662048
 20
198.513819
 30
0.0
 11
75.662048
 21
198.513819
 31
0.0
  0
LINE
  5
AF
330
A9
100
AcDbEntity
  8
LC-001-100-D00-0
 62
     7
370
    50
100
AcDbLine
 10
75.662048
 20
198.513819
 30
0.0
 11
75.765799
 21
198.507218
 31
0.0
  0
LINE
  5
B0
330
A9
100
AcDbEntity
  8
LC-001-100-D00-0
 62
     7
370
    50
100
AcDbLine
 10
75.765799
 20
198.507218
 30
0.0
 11
75.765799
 21
198.507218
 31
0.0
  0
LINE
  5
B1
330
A9
100
AcDbEntity
  8
LC-001-100-D00-0
 62
     7
370
    50
100
AcDbLine
 10
75.765799
 20
198.507218
 30
0.0
 11
75.920845
 21
198.445546
 31
0.0
  0
LINE
  5
B2
330
A9
100
AcDbEntity
  8
LC-001-100-D00-0
 62
     7
370
    50
100
AcDbLine
 10
75.920845
 20
198.445546
 30
0.0
 11
75.920845
 21
198.445546
 31
0.0
  0
LINE
  5
B3
330
A9
100
AcDbEntity
  8
LC-001-100-D00-0
 62
     7
370
    50
100
AcDbLine
 10
75.920845
 20
198.445546
 30
0.0
 11
76.070616
 21
198.328548
 31
0.0
  0
LINE
  5
B4
330
A9
100
AcDbEntity
  8
LC-001-100-D00-0
 62
     7
370
    50
100
AcDbLine
 10
76.070616
 20
198.328548
 30
0.0
 11
76.070616
 21
198.328548
 31
0.0
  0
LINE
  5
B5
330
A9
100
AcDbEntity
  8
LC-001-100-D00-0
 62
     7
370
    50
100
AcDbLine
 10
76.070616
 20
198.328548
 30
0.0
 11
76.183535
 21
198.156586
 31
0.0
  0
LINE
  5
B6
330
A9
100
AcDbEntity
  8
LC-001-100-D00-0
 62
     7
370
    50
100
AcDbLine
 10
76.183535
 20
198.156586
 30
0.0
 11
76.183535
 21
198.156586
 31
0.0
  0
LINE
  5
B7
330
A9
100
AcDbEntity
  8
LC-001-100-D00-0
 62
     7
370
    50
100
AcDbLine
 10
76.183535
 20
198.156586
 30
0.0
 11
76.21875
 21
198.00785
 31
0.0
  0
LINE
  5
B8
330
A9
100
AcDbEntity
  8
LC-001-100-D00-0
 62
     7
370
    50
100
AcDbLine
 10
76.21875
 20
198.00785
 30
0.0
 11
76.21875
 21
198.00785
 31
0.0
  0
LINE
  5
B9
330
A9
100
AcDbEntity
  8
LC-001-100-D00-0
 62
     7
370
    50
100
AcDbLine
 10
76.21875
 20
198.00785
 30
0.0
 11
76.219807
 21
197.924335
 31
0.0
  0
LINE
  5
BA
330
A9
100
AcDbEntity
  8
LC-001-100-D00-0
 62
     7
370
    50
100
AcDbLine
 10
76.219807
 20
197.924335
 30
0.0
 11
76.219807
 21
197.924335
 31
0.0
  0
LINE
  5
BB
330
A9
100
AcDbEntity
  8
LC-001-100-D00-0
 62
     7
370
    50
100
AcDbLine
 10
76.219807
 20
197.924335
 30
0.0
 11
76.219906
 21
197.916518
 31
0.0
  0
ENDBLK
  5
AB
330
A9
100
AcDbEntity
  8
0
100
AcDbBlockEnd
  0
BLOCK
  5
BF
330
BE
100
AcDbEntity
  8
0
100
AcDbBlockBegin
  2
POLY2
 70
     0
 71
     0
 10
0.0
 20
0.0
 30
0.0
  3
POLY2
  1

  4
POLY2
  0
LINE
  5
C1
330
BE
100
AcDbEntity
  8
LC-001-100-D00-0
 62
     7
370
    50
100
AcDbLine
 10
76.219906
 20
197.172846
 30
0.0
 11
76.219906
 21
197.172846
 31
0.0
  0
LINE
  5
C2
330
BE
100
AcDbEntity
  8
LC-001-100-D00-0
 62
     7
370
    50
100
AcDbLine
 10
76.219906
 20
197.172846
 30
0.0
 11
76.214657
 21
197.1121
 31
0.0
  0
LINE
  5
C3
330
BE
100
AcDbEntity
  8
LC-001-100-D00-0
 62
     7
370
    50
100
AcDbLine
 10
76.214657
 20
197.1121
 30
0.0
 11
76.214657
 21
197.1121
 31
0.0
  0
LINE
  5
C4
330
BE
100
AcDbEntity
  8
LC-001-100-D00-0
 62
     7
370
    50
100
AcDbLine
 10
76.214657
 20
197.1121
 30
0.0
 11
76.202984
 21
196.977033
 31
0.0
  0
LINE
  5
C5
330
BE
100
AcDbEntity
  8
LC-001-100-D00-0
 62
     7
370
    50
100
AcDbLine
 10
76.202984
 20
196.977033
 30
0.0
 11
76.202984
 21
196.977033
 31
0.0
  0
LINE
  5
C6
330
BE
100
AcDbEntity
  8
LC-001-100-D00-0
 62
     7
370
    50
100
AcDbLine
 10
76.202984
 20
196.977033
 30
0.0
 11
76.128962
 21
196.844221
 31
0.0
  0
LINE
  5
C7
330
BE
100
AcDbEntity
  8
LC-001-100-D00-0
 62
     7
370
    50
100
AcDbLine
 10
76.128962
 20
196.844221
 30
0.0
 11
76.128962
 21
196.844221
 31
0.0
  0
LINE
  5
C8
330
BE
100
AcDbEntity
  8
LC-001-100-D00-0
 62
     7
370
    50
100
AcDbLine
 10
76.128962
 20
196.844221
 30
0.0
 11
76.073573
 21
196.780219
 31
0.0
  0
LINE
  5
C9
330
BE
100
AcDbEntity
  8
LC-001-100-D00-0
 62
     7
370
    50
100
AcDbLine
 10
76.073573
 20
196.780219
 30
0.0
 11
76.073573
 21
196.780219
 31
0.0
  0
LINE
  5
CA
330
BE
100
AcDbEntity
  8
LC-001-100-D00-0
 62
     7
370
    50
100
AcDbLine
 10
76.073573
 20
196.780219
 30
0.0
 11
76.071158
 21
196.777429
 31
0.0
  0
ENDBLK
  5
C0
330
BE
100
AcDbEntity
  8
0
100
AcDbBlockEnd
  0
BLOCK
  5
CD
330
CC
100
AcDbEntity
  8
0
100
AcDbBlockBegin
  2
POLY3
 70
     0
 71
     0
 10
0.0
 20
0.0
 30
0.0
  3
POLY3
  1

  4
POLY3
  0
LINE
  5
CF
330
CC
100
AcDbEntity
  8
LC-001-100-D00-0
 62
     7
370
    50
100
AcDbLine
 10
76.071158
 20
196.777429
 30
0.0
 11
76.071158
 21
196.777429
 31
0.0
  0
LINE
  5
D0
330
CC
100
AcDbEntity
  8
LC-001-100-D00-0
 62
     7
370
    50
100
AcDbLine
 10
76.071158
 20
196.777429
 30
0.0
 11
76.118666
 21
196.709844
 31
0.0
  0
LINE
  5
D1
330
CC
100
AcDbEntity
  8
LC-001-100-D00-0
 62
     7
370
    50
100
AcDbLine
 10
76.118666
 20
196.709844
 30
0.0
 11
76.118666
 21
196.709844
 31
0.0
  0
LINE
  5
D2
330
CC
100
AcDbEntity
  8
LC-001-100-D00-0
 62
     7
370
    50
100
AcDbLine
 10
76.118666
 20
196.709844
 30
0.0
 11
76.203194
 21
196.589596
 31
0.0
  0
LINE
  5
D3
330
CC
100
AcDbEntity
  8
LC-001-100-D00-0
 62
     7
370
    50
100
AcDbLine
 10
76.203194
 20
196.589596
 30
0.0
 11
76.203194
 21
196.589596
 31
0.0
  0
LINE
  5
D4
330
CC
100
AcDbEntity
  8
LC-001-100-D00-0
 62
     7
370
    50
100
AcDbLine
 10
76.203194
 20
196.589596
 30
0.0
 11
76.214816
 21
196.445225
 31
0.0
  0
LINE
  5
D5
330
CC
100
AcDbEntity
  8
LC-001-100-D00-0
 62
     7
370
    50
100
AcDbLine
 10
76.214816
 20
196.445225
 30
0.0
 11
76.214816
 21
196.445225
 31
0.0
  0
LINE
  5
D6
330
CC
100
AcDbEntity
  8
LC-001-100-D00-0
 62
     7
370
    50
100
AcDbLine
 10
76.214816
 20
196.445225
 30
0.0
 11
76.219906
 21
196.381997
 31
0.0
  0
ENDBLK
  5
CE
330
CC
100
AcDbEntity
  8
0
100
AcDbBlockEnd
  0
BLOCK
  5
DB
330
DA
100
AcDbEntity
  8
0
100
AcDbBlockBegin
  2
POLY4
 70
     0
 71
     0
 10
0.0
 20
0.0
 30
0.0
  3
POLY4
  1

  4
POLY4
  0
LINE
  5
DD
330
DA
100
AcDbEntity
  8
LC-001-100-D00-0
 62
     7
370
    50
100
AcDbLine
 10
75.785141
 20
196.777429
 30
0.0
 11
75.785141
 21
196.777429
 31
0.0
  0
LINE
  5
DE
330
DA
100
AcDbEntity
  8
LC-001-100-D00-0
 62
     7
370
    50
100
AcDbLine
 10
75.785141
 20
196.777429
 30
0.0
 11
75.821325
 21
196.758529
 31
0.0
  0
LINE
  5
DF
330
DA
100
AcDbEntity
  8
LC-001-100-D00-0
 62
     7
370
    50
100
AcDbLine
 10
75.821325
 20
196.758529
 30
0.0
 11
75.821325
 21
196.758529
 31
0.0
  0
LINE
  5
E0
330
DA
100
AcDbEntity
  8
LC-001-100-D00-0
 62
     7
370
    50
100
AcDbLine
 10
75.821325
 20
196.758529
 30
0.0
 11
75.901684
 21
196.716555
 31
0.0
  0
LINE
  5
E1
330
DA
100
AcDbEntity
  8
LC-001-100-D00-0
 62
     7
370
    50
100
AcDbLine
 10
75.901684
 20
196.716555
 30
0.0
 11
75.901684
 21
196.716555
 31
0.0
  0
LINE
  5
E2
330
DA
100
AcDbEntity
  8
LC-001-100-D00-0
 62
     7
370
    50
100
AcDbLine
 10
75.901684
 20
196.716555
 30
0.0
 11
75.992392
 21
196.608852
 31
0.0
  0
LINE
  5
E3
330
DA
100
AcDbEntity
  8
LC-001-100-D00-0
 62
     7
370
    50
100
AcDbLine
 10
75.992392
 20
196.608852
 30
0.0
 11
75.992392
 21
196.608852
 31
0.0
  0
LINE
  5
E4
330
DA
100
AcDbEntity
  8
LC-001-100-D00-0
 62
     7
370
    50
100
AcDbLine
 10
75.992392
 20
196.608852
 30
0.0
 11
76.041965
 21
196.490795
 31
0.0
  0
LINE
  5
E5
330
DA
100
AcDbEntity
  8
LC-001-100-D00-0
 62
     7
370
    50
100
AcDbLine
 10
76.041965
 20
196.490795
 30
0.0
 11
76.041965
 21
196.490795
 31
0.0
  0
LINE
  5
E6
330
DA
100
AcDbEntity
  8
LC-001-100-D00-0
 62
     7
370
    50
100
AcDbLine
 10
76.041965
 20
196.490795
 30
0.0
 11
76.046775
 21
196.410516
 31
0.0
  0
LINE
  5
E7
330
DA
100
AcDbEntity
  8
LC-001-100-D00-0
 62
     7
370
    50
100
AcDbLine
 10
76.046775
 20
196.410516
 30
0.0
 11
76.046775
 21
196.410516
 31
0.0
  0
LINE
  5
E8
330
DA
100
AcDbEntity
  8
LC-001-100-D00-0
 62
     7
370
    50
100
AcDbLine
 10
76.046775
 20
196.410516
 30
0.0
 11
76.048483
 21
196.381997
 31
0.0
  0
ENDBLK
  5
DC
330
DA
100
AcDbEntity
  8
0
100
AcDbBlockEnd
  0
BLOCK
  5
EB
330
EA
100
AcDbEntity
  8
0
100
AcDbBlockBegin
  2
POLY5
 70
     0
 71
     0
 10
0.0
 20
0.0
 30
0.0
  3
POLY5
  1

  4
POLY5
  0
LINE
  5
ED
330
EA
100
AcDbEntity
  8
LC-001-100-D00-0
 62
     7
370
    50
100
AcDbLine
 10
76.048484
 20
197.172846
 30
0.0
 11
76.048484
 21
197.172846
 31
0.0
  0
LINE
  5
EE
330
EA
100
AcDbEntity
  8
LC-001-100-D00-0
 62
     7
370
    50
100
AcDbLine
 10
76.048484
 20
197.172846
 30
0.0
 11
76.045256
 21
197.132782
 31
0.0
  0
LINE
  5
EF
330
EA
100
AcDbEntity
  8
LC-001-100-D00-0
 62
     7
370
    50
100
AcDbLine
 10
76.045256
 20
197.132782
 30
0.0
 11
76.045256
 21
197.132782
 31
0.0
  0
LINE
  5
F0
330
EA
100
AcDbEntity
  8
LC-001-100-D00-0
 62
     7
370
    50
100
AcDbLine
 10
76.045256
 20
197.132782
 30
0.0
 11
76.037709
 21
197.039138
 31
0.0
  0
LINE
  5
F1
330
EA
100
AcDbEntity
  8
LC-001-100-D00-0
 62
     7
370
    50
100
AcDbLine
 10
76.037709
 20
197.039138
 30
0.0
 11
76.037709
 21
197.039138
 31
0.0
  0
LINE
  5
F2
330
EA
100
AcDbEntity
  8
LC-001-100-D00-0
 62
     7
370
    50
100
AcDbLine
 10
76.037709
 20
197.039138
 30
0.0
 11
75.970231
 21
196.911672
 31
0.0
  0
LINE
  5
F3
330
EA
100
AcDbEntity
  8
LC-001-100-D00-0
 62
     7
370
    50
100
AcDbLine
 10
75.970231
 20
196.911672
 30
0.0
 11
75.970231
 21
196.911672
 31
0.0
  0
LINE
  5
F4
330
EA
100
AcDbEntity
  8
LC-001-100-D00-0
 62
     7
370
    50
100
AcDbLine
 10
75.970231
 20
196.911672
 30
0.0
 11
75.87458
 21
196.820921
 31
0.0
  0
LINE
  5
F5
330
EA
100
AcDbEntity
  8
LC-001-100-D00-0
 62
     7
370
    50
100
AcDbLine
 10
75.87458
 20
196.820921
 30
0.0
 11
75.87458
 21
196.820921
 31
0.0
  0
LINE
  5
F6
330
EA
100
AcDbEntity
  8
LC-001-100-D00-0
 62
     7
370
    50
100
AcDbLine
 10
75.87458
 20
196.820921
 30
0.0
 11
75.809502
 21
196.789275
 31
0.0
  0
LINE
  5
F7
330
EA
100
AcDbEntity
  8
LC-001-100-D00-0
 62
     7
370
    50
100
AcDbLine
 10
75.809502
 20
196.789275
 30
0.0
 11
75.809502
 21
196.789275
 31
0.0
  0
LINE
  5
F8
330
EA
100
AcDbEntity
  8
LC-001-100-D00-0
 62
     7
370
    50
100
AcDbLine
 10
75.809502
 20
196.789275
 30
0.0
 11
75.785141
 21
196.777429
 31
0.0
  0
ENDBLK
  5
EC
330
EA
100
AcDbEntity
  8
0
100
AcDbBlockEnd
  0
BLOCK
  5
FB
330
FA
100
AcDbEntity
  8
0
100
AcDbBlockBegin
  2
KLON1
 70
     0
 71
     0
 10
0.0
 20
0.0
 30
0.0
  3
KLON1
  1

  4
KLON1
  0
LINE
  5
FD
330
FA
100
AcDbEntity
  8
LC-001-100-D00-0
 62
     7
370
    15
100
AcDbLine
 10
76.048483
 20
197.916518
 30
0.0
 11
76.048483
 21
197.394128
 31
0.0
  0
LINE
  5
FE
330
FA
100
AcDbEntity
  8
LC-001-100-D00-0
 62
     7
370
    15
100
AcDbLine
 10
76.048483
 20
197.394128
 30
0.0
 11
76.048484
 21
197.172846
 31
0.0
  0
ENDBLK
  5
FC
330
FA
100
AcDbEntity
  8
0
100
AcDbBlockEnd
  0
BLOCK
  5
101
330
100
100
AcDbEntity
  8
0
100
AcDbBlockBegin
  2
POLY6
 70
     0
 71
     0
 10
0.0
 20
0.0
 30
0.0
  3
POLY6
  1

  4
POLY6
  0
LINE
  5
103
330
100
100
AcDbEntity
  8
LC-001-100-D00-0
 62
     7
370
    50
100
AcDbLine
 10
75.619928
 20
198.345076
 30
0.0
 11
75.619928
 21
198.345076
 31
0.0
  0
LINE
  5
104
330
100
100
AcDbEntity
  8
LC-001-100-D00-0
 62
     7
370
    50
100
AcDbLine
 10
75.619928
 20
198.345076
 30
0.0
 11
75.650026
 21
198.343159
 31
0.0
  0
LINE
  5
105
330
100
100
AcDbEntity
  8
LC-001-100-D00-0
 62
     7
370
    50
100
AcDbLine
 10
75.650026
 20
198.343159
 30
0.0
 11
75.650026
 21
198.343159
 31
0.0
  0
LINE
  5
106
330
100
100
AcDbEntity
  8
LC-001-100-D00-0
 62
     7
370
    50
100
AcDbLine
 10
75.650026
 20
198.343159
 30
0.0
 11
75.724175
 21
198.338436
 31
0.0
  0
LINE
  5
107
330
100
100
AcDbEntity
  8
LC-001-100-D00-0
 62
     7
370
    50
100
AcDbLine
 10
75.724175
 20
198.338436
 30
0.0
 11
75.724175
 21
198.338436
 31
0.0
  0
LINE
  5
108
330
100
100
AcDbEntity
  8
LC-001-100-D00-0
 62
     7
370
    50
100
AcDbLine
 10
75.724175
 20
198.338436
 30
0.0
 11
75.835
 21
198.294339
 31
0.0
  0
LINE
  5
109
330
100
100
AcDbEntity
  8
LC-001-100-D00-0
 62
     7
370
    50
100
AcDbLine
 10
75.835
 20
198.294339
 30
0.0
 11
75.835
 21
198.294339
 31
0.0
  0
LINE
  5
10A
330
100
100
AcDbEntity
  8
LC-001-100-D00-0
 62
     7
370
    50
100
AcDbLine
 10
75.835
 20
198.294339
 30
0.0
 11
75.941998
 21
198.210661
 31
0.0
  0
LINE
  5
10B
330
100
100
AcDbEntity
  8
LC-001-100-D00-0
 62
     7
370
    50
100
AcDbLine
 10
75.941998
 20
198.210661
 30
0.0
 11
75.941998
 21
198.210661
 31
0.0
  0
LINE
  5
10C
330
100
100
AcDbEntity
  8
LC-001-100-D00-0
 62
     7
370
    50
100
AcDbLine
 10
75.941998
 20
198.210661
 30
0.0
 11
76.022601
 21
198.087764
 31
0.0
  0
LINE
  5
10D
330
100
100
AcDbEntity
  8
LC-001-100-D00-0
 62
     7
370
    50
100
AcDbLine
 10
76.022601
 20
198.087764
 30
0.0
 11
76.022601
 21
198.087764
 31
0.0
  0
LINE
  5
10E
330
100
100
AcDbEntity
  8
LC-001-100-D00-0
 62
     7
370
    50
100
AcDbLine
 10
76.022601
 20
198.087764
 30
0.0
 11
76.047669
 21
197.981599
 31
0.0
  0
LINE
  5
10F
330
100
100
AcDbEntity
  8
LC-001-100-D00-0
 62
     7
370
    50
100
AcDbLine
 10
76.047669
 20
197.981599
 30
0.0
 11
76.047669
 21
197.981599
 31
0.0
  0
LINE
  5
110
330
100
100
AcDbEntity
  8
LC-001-100-D00-0
 62
     7
370
    50
100
AcDbLine
 10
76.047669
 20
197.981599
 30
0.0
 11
76.048414
 21
197.922044
 31
0.0
  0
LINE
  5
111
330
100
100
AcDbEntity
  8
LC-001-100-D00-0
 62
     7
370
    50
100
AcDbLine
 10
76.048414
 20
197.922044
 30
0.0
 11
76.048414
 21
197.922044
 31
0.0
  0
LINE
  5
112
330
100
100
AcDbEntity
  8
LC-001-100-D00-0
 62
     7
370
    50
100
AcDbLine
 10
76.048414
 20
197.922044
 30
0.0
 11
76.048483
 21
197.916518
 31
0.0
  0
ENDBLK
  5
102
330
100
100
AcDbEntity
  8
0
100
AcDbBlockEnd
  0
BLOCK
  5
115
330
114
100
AcDbEntity
  8
0
100
AcDbBlockBegin
  2
POLY7
 70
     0
 71
     0
 10
0.0
 20
0.0
 30
0.0
  3
POLY7
  1

  4
POLY7
  0
LINE
  5
117
330
114
100
AcDbEntity
  8
LC-001-100-D00-0
 62
     7
370
    50
100
AcDbLine
 10
75.55964
 20
196.324136
 30
0.0
 11
75.55964
 21
196.324136
 31
0.0
  0
LINE
  5
118
330
114
100
AcDbEntity
  8
LC-001-100-D00-0
 62
     7
370
    50
100
AcDbLine
 10
75.55964
 20
196.324136
 30
0.0
 11
75.567851
 21
196.312832
 31
0.0
  0
LINE
  5
119
330
114
100
AcDbEntity
  8
LC-001-100-D00-0
 62
     7
370
    50
100
AcDbLine
 10
75.567851
 20
196.312832
 30
0.0
 11
75.567851
 21
196.312832
 31
0.0
  0
LINE
  5
11A
330
114
100
AcDbEntity
  8
LC-001-100-D00-0
 62
     7
370
    50
100
AcDbLine
 10
75.567851
 20
196.312832
 30
0.0
 11
75.598856
 21
196.270146
 31
0.0
  0
LINE
  5
11B
330
114
100
AcDbEntity
  8
LC-001-100-D00-0
 62
     7
370
    50
100
AcDbLine
 10
75.598856
 20
196.270146
 30
0.0
 11
75.598856
 21
196.270146
 31
0.0
  0
LINE
  5
11C
330
114
100
AcDbEntity
  8
LC-001-100-D00-0
 62
     7
370
    50
100
AcDbLine
 10
75.598856
 20
196.270146
 30
0.0
 11
75.608038
 21
196.212628
 31
0.0
  0
LINE
  5
11D
330
114
100
AcDbEntity
  8
LC-001-100-D00-0
 62
     7
370
    50
100
AcDbLine
 10
75.608038
 20
196.212628
 30
0.0
 11
75.608038
 21
196.212628
 31
0.0
  0
LINE
  5
11E
330
114
100
AcDbEntity
  8
LC-001-100-D00-0
 62
     7
370
    50
100
AcDbLine
 10
75.608038
 20
196.212628
 30
0.0
 11
75.608688
 21
196.170332
 31
0.0
  0
LINE
  5
11F
330
114
100
AcDbEntity
  8
LC-001-100-D00-0
 62
     7
370
    50
100
AcDbLine
 10
75.608688
 20
196.170332
 30
0.0
 11
75.608688
 21
196.170332
 31
0.0
  0
LINE
  5
120
330
114
100
AcDbEntity
  8
LC-001-100-D00-0
 62
     7
370
    50
100
AcDbLine
 10
75.608688
 20
196.170332
 30
0.0
 11
75.60875
 21
196.166273
 31
0.0
  0
ENDBLK
  5
116
330
114
100
AcDbEntity
  8
0
100
AcDbBlockEnd
  0
BLOCK
  5
126
330
125
100
AcDbEntity
  8
0
100
AcDbBlockBegin
  2
POLY8
 70
     0
 71
     0
 10
0.0
 20
0.0
 30
0.0
  3
POLY8
  1

  4
POLY8
  0
LINE
  5
128
330
125
100
AcDbEntity
  8
LC-001-100-D00-0
 62
     7
370
    50
100
AcDbLine
 10
75.55964
 20
197.758894
 30
0.0
 11
75.55964
 21
197.758894
 31
0.0
  0
LINE
  5
129
330
125
100
AcDbEntity
  8
LC-001-100-D00-0
 62
     7
370
    50
100
AcDbLine
 10
75.55964
 20
197.758894
 30
0.0
 11
75.567813
 21
197.747652
 31
0.0
  0
LINE
  5
12A
330
125
100
AcDbEntity
  8
LC-001-100-D00-0
 62
     7
370
    50
100
AcDbLine
 10
75.567813
 20
197.747652
 30
0.0
 11
75.567813
 21
197.747652
 31
0.0
  0
LINE
  5
12B
330
125
100
AcDbEntity
  8
LC-001-100-D00-0
 62
     7
370
    50
100
AcDbLine
 10
75.567813
 20
197.747652
 30
0.0
 11
75.598774
 21
197.705064
 31
0.0
  0
LINE
  5
12C
330
125
100
AcDbEntity
  8
LC-001-100-D00-0
 62
     7
370
    50
100
AcDbLine
 10
75.598774
 20
197.705064
 30
0.0
 11
75.598774
 21
197.705064
 31
0.0
  0
LINE
  5
12D
330
125
100
AcDbEntity
  8
LC-001-100-D00-0
 62
     7
370
    50
100
AcDbLine
 10
75.598774
 20
197.705064
 30
0.0
 11
75.608018
 21
197.647556
 31
0.0
  0
LINE
  5
12E
330
125
100
AcDbEntity
  8
LC-001-100-D00-0
 62
     7
370
    50
100
AcDbLine
 10
75.608018
 20
197.647556
 30
0.0
 11
75.608018
 21
197.647556
 31
0.0
  0
LINE
  5
12F
330
125
100
AcDbEntity
  8
LC-001-100-D00-0
 62
     7
370
    50
100
AcDbLine
 10
75.608018
 20
197.647556
 30
0.0
 11
75.608684
 21
197.605185
 31
0.0
  0
LINE
  5
130
330
125
100
AcDbEntity
  8
LC-001-100-D00-0
 62
     7
370
    50
100
AcDbLine
 10
75.608684
 20
197.605185
 30
0.0
 11
75.608684
 21
197.605185
 31
0.0
  0
LINE
  5
131
330
125
100
AcDbEntity
  8
LC-001-100-D00-0
 62
     7
370
    50
100
AcDbLine
 10
75.608684
 20
197.605185
 30
0.0
 11
75.60875
 21
197.601001
 31
0.0
  0
ENDBLK
  5
127
330
125
100
AcDbEntity
  8
0
100
AcDbBlockEnd
  0
BLOCK
  5
135
330
134
100
AcDbEntity
  8
0
100
AcDbBlockBegin
  2
POLY9
 70
     0
 71
     0
 10
0.0
 20
0.0
 30
0.0
  3
POLY9
  1

  4
POLY9
  0
LINE
  5
137
330
134
100
AcDbEntity
  8
LC-001-100-D00-0
 62
     7
370
    50
100
AcDbLine
 10
75.60875
 20
197.301622
 30
0.0
 11
75.60875
 21
197.301622
 31
0.0
  0
LINE
  5
138
330
134
100
AcDbEntity
  8
LC-001-100-D00-0
 62
     7
370
    50
100
AcDbLine
 10
75.60875
 20
197.301622
 30
0.0
 11
75.607355
 21
197.27357
 31
0.0
  0
LINE
  5
139
330
134
100
AcDbEntity
  8
LC-001-100-D00-0
 62
     7
370
    50
100
AcDbLine
 10
75.607355
 20
197.27357
 30
0.0
 11
75.607355
 21
197.27357
 31
0.0
  0
LINE
  5
13A
330
134
100
AcDbEntity
  8
LC-001-100-D00-0
 62
     7
370
    50
100
AcDbLine
 10
75.607355
 20
197.27357
 30
0.0
 11
75.604645
 21
197.219064
 31
0.0
  0
LINE
  5
13B
330
134
100
AcDbEntity
  8
LC-001-100-D00-0
 62
     7
370
    50
100
AcDbLine
 10
75.604645
 20
197.219064
 30
0.0
 11
75.604645
 21
197.219064
 31
0.0
  0
LINE
  5
13C
330
134
100
AcDbEntity
  8
LC-001-100-D00-0
 62
     7
370
    50
100
AcDbLine
 10
75.604645
 20
197.219064
 30
0.0
 11
75.574346
 21
197.169539
 31
0.0
  0
LINE
  5
13D
330
134
100
AcDbEntity
  8
LC-001-100-D00-0
 62
     7
370
    50
100
AcDbLine
 10
75.574346
 20
197.169539
 30
0.0
 11
75.574346
 21
197.169539
 31
0.0
  0
LINE
  5
13E
330
134
100
AcDbEntity
  8
LC-001-100-D00-0
 62
     7
370
    50
100
AcDbLine
 10
75.574346
 20
197.169539
 30
0.0
 11
75.55964
 21
197.145502
 31
0.0
  0
ENDBLK
  5
136
330
134
100
AcDbEntity
  8
0
100
AcDbBlockEnd
  0
BLOCK
  5
19C
330
19B
100
AcDbEntity
  8
0
100
AcDbBlockBegin
  2
POLY10
 70
     0
 71
     0
 10
0.0
 20
0.0
 30
0.0
  3
POLY10
  1

  4
POLY10
  0
LINE
  5
19E
330
19B
100
AcDbEntity
  8
LC-001-100-D00-0
 62
     7
370
    50
100
AcDbLine
 10
-6.253011
 20
208.122324
 30
0.0
 11
-6.253011
 21
208.122324
 31
0.0
  0
LINE
  5
19F
330
19B
100
AcDbEntity
  8
LC-001-100-D00-0
 62
     7
370
    50
100
AcDbLine
 10
-6.253011
 20
208.122324
 30
0.0
 11
-6.25119
 21
208.233555
 31
0.0
  0
LINE
  5
1A0
330
19B
100
AcDbEntity
  8
LC-001-100-D00-0
 62
     7
370
    50
100
AcDbLine
 10
-6.25119
 20
208.233555
 30
0.0
 11
-6.25119
 21
208.233555
 31
0.0
  0
LINE
  5
1A1
330
19B
100
AcDbEntity
  8
LC-001-100-D00-0
 62
     7
370
    50
100
AcDbLine
 10
-6.25119
 20
208.233555
 30
0.0
 11
-6.247549
 21
208.456001
 31
0.0
  0
LINE
  5
1A2
330
19B
100
AcDbEntity
  8
LC-001-100-D00-0
 62
     7
370
    50
100
AcDbLine
 10
-6.247549
 20
208.456001
 30
0.0
 11
-6.247549
 21
208.456001
 31
0.0
  0
LINE
  5
1A3
330
19B
100
AcDbEntity
  8
LC-001-100-D00-0
 62
     7
370
    50
100
AcDbLine
 10
-6.247549
 20
208.456001
 30
0.0
 11
-6.218931
 21
208.752891
 31
0.0
  0
LINE
  5
1A4
330
19B
100
AcDbEntity
  8
LC-001-100-D00-0
 62
     7
370
    50
100
AcDbLine
 10
-6.218931
 20
208.752891
 30
0.0
 11
-6.218931
 21
208.752891
 31
0.0
  0
LINE
  5
1A5
330
19B
100
AcDbEntity
  8
LC-001-100-D00-0
 62
     7
370
    50
100
AcDbLine
 10
-6.218931
 20
208.752891
 30
0.0
 11
-6.175876
 21
208.978983
 31
0.0
  0
LINE
  5
1A6
330
19B
100
AcDbEntity
  8
LC-001-100-D00-0
 62
     7
370
    50
100
AcDbLine
 10
-6.175876
 20
208.978983
 30
0.0
 11
-6.175876
 21
208.978983
 31
0.0
  0
LINE
  5
1A7
330
19B
100
AcDbEntity
  8
LC-001-100-D00-0
 62
     7
370
    50
100
AcDbLine
 10
-6.175876
 20
208.978983
 30
0.0
 11
-6.126003
 21
209.103595
 31
0.0
  0
LINE
  5
1A8
330
19B
100
AcDbEntity
  8
LC-001-100-D00-0
 62
     7
370
    50
100
AcDbLine
 10
-6.126003
 20
209.103595
 30
0.0
 11
-6.126003
 21
209.103595
 31
0.0
  0
LINE
  5
1A9
330
19B
100
AcDbEntity
  8
LC-001-100-D00-0
 62
     7
370
    50
100
AcDbLine
 10
-6.126003
 20
209.103595
 30
0.0
 11
-6.09142
 21
209.116831
 31
0.0
  0
LINE
  5
1AA
330
19B
100
AcDbEntity
  8
LC-001-100-D00-0
 62
     7
370
    50
100
AcDbLine
 10
-6.09142
 20
209.116831
 30
0.0
 11
-6.09142
 21
209.116831
 31
0.0
  0
LINE
  5
1AB
330
19B
100
AcDbEntity
  8
LC-001-100-D00-0
 62
     7
370
    50
100
AcDbLine
 10
-6.09142
 20
209.116831
 30
0.0
 11
-6.077103
 21
209.122311
 31
0.0
  0
ENDBLK
  5
19D
330
19B
100
AcDbEntity
  8
0
100
AcDbBlockEnd
  0
BLOCK
  5
1B1
330
1B0
100
AcDbEntity
  8
0
100
AcDbBlockBegin
  2
POLY11
 70
     0
 71
     0
 10
0.0
 20
0.0
 30
0.0
  3
POLY11
  1

  4
POLY11
  0
LINE
  5
1B3
330
1B0
100
AcDbEntity
  8
LC-001-100-D00-0
 62
     7
370
    50
100
AcDbLine
 10
133.596212
 20
209.122311
 30
0.0
 11
133.596212
 21
209.122311
 31
0.0
  0
LINE
  5
1B4
330
1B0
100
AcDbEntity
  8
LC-001-100-D00-0
 62
     7
370
    50
100
AcDbLine
 10
133.596212
 20
209.122311
 30
0.0
 11
133.616874
 21
209.111031
 31
0.0
  0
LINE
  5
1B5
330
1B0
100
AcDbEntity
  8
LC-001-100-D00-0
 62
     7
370
    50
100
AcDbLine
 10
133.616874
 20
209.111031
 30
0.0
 11
133.616874
 21
209.111031
 31
0.0
  0
LINE
  5
1B6
330
1B0
100
AcDbEntity
  8
LC-001-100-D00-0
 62
     7
370
    50
100
AcDbLine
 10
133.616874
 20
209.111031
 30
0.0
 11
133.658204
 21
209.088469
 31
0.0
  0
LINE
  5
1B7
330
1B0
100
AcDbEntity
  8
LC-001-100-D00-0
 62
     7
370
    50
100
AcDbLine
 10
133.658204
 20
209.088469
 30
0.0
 11
133.658204
 21
209.088469
 31
0.0
  0
LINE
  5
1B8
330
1B0
100
AcDbEntity
  8
LC-001-100-D00-0
 62
     7
370
    50
100
AcDbLine
 10
133.658204
 20
209.088469
 30
0.0
 11
133.711305
 21
208.911927
 31
0.0
  0
LINE
  5
1B9
330
1B0
100
AcDbEntity
  8
LC-001-100-D00-0
 62
     7
370
    50
100
AcDbLine
 10
133.711305
 20
208.911927
 30
0.0
 11
133.711305
 21
208.911927
 31
0.0
  0
LINE
  5
1BA
330
1B0
100
AcDbEntity
  8
LC-001-100-D00-0
 62
     7
370
    50
100
AcDbLine
 10
133.711305
 20
208.911927
 30
0.0
 11
133.750122
 21
208.652875
 31
0.0
  0
LINE
  5
1BB
330
1B0
100
AcDbEntity
  8
LC-001-100-D00-0
 62
     7
370
    50
100
AcDbLine
 10
133.750122
 20
208.652875
 30
0.0
 11
133.750122
 21
208.652875
 31
0.0
  0
LINE
  5
1BC
330
1B0
100
AcDbEntity
  8
LC-001-100-D00-0
 62
     7
370
    50
100
AcDbLine
 10
133.750122
 20
208.652875
 30
0.0
 11
133.76951
 21
208.372611
 31
0.0
  0
LINE
  5
1BD
330
1B0
100
AcDbEntity
  8
LC-001-100-D00-0
 62
     7
370
    50
100
AcDbLine
 10
133.76951
 20
208.372611
 30
0.0
 11
133.76951
 21
208.372611
 31
0.0
  0
LINE
  5
1BE
330
1B0
100
AcDbEntity
  8
LC-001-100-D00-0
 62
     7
370
    50
100
AcDbLine
 10
133.76951
 20
208.372611
 30
0.0
 11
133.771402
 21
208.191217
 31
0.0
  0
LINE
  5
1BF
330
1B0
100
AcDbEntity
  8
LC-001-100-D00-0
 62
     7
370
    50
100
AcDbLine
 10
133.771402
 20
208.191217
 30
0.0
 11
133.771402
 21
208.191217
 31
0.0
  0
LINE
  5
1C0
330
1B0
100
AcDbEntity
  8
LC-001-100-D00-0
 62
     7
370
    50
100
AcDbLine
 10
133.771402
 20
208.191217
 30
0.0
 11
133.77212
 21
208.122324
 31
0.0
  0
ENDBLK
  5
1B2
330
1B0
100
AcDbEntity
  8
0
100
AcDbBlockEnd
  0
BLOCK
  5
200
330
1FF
100
AcDbEntity
  8
0
100
AcDbBlockBegin
  2
POLY12
 70
     0
 71
     0
 10
0.0
 20
0.0
 30
0.0
  3
POLY12
  1

  4
POLY12
  0
LINE
  5
202
330
1FF
100
AcDbEntity
  8
LC-001-100-D00-0
 62
     7
370
    50
100
AcDbLine
 10
-6.077103
 20
209.122311
 30
0.0
 11
-6.077103
 21
209.122311
 31
0.0
  0
LINE
  5
203
330
1FF
100
AcDbEntity
  8
LC-001-100-D00-0
 62
     7
370
    50
100
AcDbLine
 10
-6.077103
 20
209.122311
 30
0.0
 11
-6.056039
 21
209.110958
 31
0.0
  0
LINE
  5
204
330
1FF
100
AcDbEntity
  8
LC-001-100-D00-0
 62
     7
370
    50
100
AcDbLine
 10
-6.056039
 20
209.110958
 30
0.0
 11
-6.056039
 21
209.110958
 31
0.0
  0
LINE
  5
205
330
1FF
100
AcDbEntity
  8
LC-001-100-D00-0
 62
     7
370
    50
100
AcDbLine
 10
-6.056039
 20
209.110958
 30
0.0
 11
-6.013905
 21
209.08825
 31
0.0
  0
LINE
  5
206
330
1FF
100
AcDbEntity
  8
LC-001-100-D00-0
 62
     7
370
    50
100
AcDbLine
 10
-6.013905
 20
209.08825
 30
0.0
 11
-6.013905
 21
209.08825
 31
0.0
  0
LINE
  5
207
330
1FF
100
AcDbEntity
  8
LC-001-100-D00-0
 62
     7
370
    50
100
AcDbLine
 10
-6.013905
 20
209.08825
 30
0.0
 11
-5.955962
 21
208.91102
 31
0.0
  0
LINE
  5
208
330
1FF
100
AcDbEntity
  8
LC-001-100-D00-0
 62
     7
370
    50
100
AcDbLine
 10
-5.955962
 20
208.91102
 30
0.0
 11
-5.955962
 21
208.91102
 31
0.0
  0
LINE
  5
209
330
1FF
100
AcDbEntity
  8
LC-001-100-D00-0
 62
     7
370
    50
100
AcDbLine
 10
-5.955962
 20
208.91102
 30
0.0
 11
-5.911921
 21
208.651079
 31
0.0
  0
LINE
  5
20A
330
1FF
100
AcDbEntity
  8
LC-001-100-D00-0
 62
     7
370
    50
100
AcDbLine
 10
-5.911921
 20
208.651079
 30
0.0
 11
-5.911921
 21
208.651079
 31
0.0
  0
LINE
  5
20B
330
1FF
100
AcDbEntity
  8
LC-001-100-D00-0
 62
     7
370
    50
100
AcDbLine
 10
-5.911921
 20
208.651079
 30
0.0
 11
-5.889398
 21
208.370783
 31
0.0
  0
LINE
  5
20C
330
1FF
100
AcDbEntity
  8
LC-001-100-D00-0
 62
     7
370
    50
100
AcDbLine
 10
-5.889398
 20
208.370783
 30
0.0
 11
-5.889398
 21
208.370783
 31
0.0
  0
LINE
  5
20D
330
1FF
100
AcDbEntity
  8
LC-001-100-D00-0
 62
     7
370
    50
100
AcDbLine
 10
-5.889398
 20
208.370783
 30
0.0
 11
-5.887217
 21
208.190141
 31
0.0
  0
LINE
  5
20E
330
1FF
100
AcDbEntity
  8
LC-001-100-D00-0
 62
     7
370
    50
100
AcDbLine
 10
-5.887217
 20
208.190141
 30
0.0
 11
-5.887217
 21
208.190141
 31
0.0
  0
LINE
  5
20F
330
1FF
100
AcDbEntity
  8
LC-001-100-D00-0
 62
     7
370
    50
100
AcDbLine
 10
-5.887217
 20
208.190141
 30
0.0
 11
-5.886398
 21
208.122324
 31
0.0
  0
ENDBLK
  5
201
330
1FF
100
AcDbEntity
  8
0
100
AcDbBlockEnd
  0
BLOCK
  5
212
330
211
100
AcDbEntity
  8
0
100
AcDbBlockBegin
  2
POLY13
 70
     0
 71
     0
 10
0.0
 20
0.0
 30
0.0
  3
POLY13
  1

  4
POLY13
  0
LINE
  5
214
330
211
100
AcDbEntity
  8
LC-001-100-D00-0
 62
     7
370
    50
100
AcDbLine
 10
49.959561
 20
208.122324
 30
0.0
 11
49.959561
 21
208.122324
 31
0.0
  0
LINE
  5
215
330
211
100
AcDbEntity
  8
LC-001-100-D00-0
 62
     7
370
    50
100
AcDbLine
 10
49.959561
 20
208.122324
 30
0.0
 11
49.970328
 21
208.233185
 31
0.0
  0
LINE
  5
216
330
211
100
AcDbEntity
  8
LC-001-100-D00-0
 62
     7
370
    50
100
AcDbLine
 10
49.970328
 20
208.233185
 30
0.0
 11
49.970328
 21
208.233185
 31
0.0
  0
LINE
  5
217
330
211
100
AcDbEntity
  8
LC-001-100-D00-0
 62
     7
370
    50
100
AcDbLine
 10
49.970328
 20
208.233185
 30
0.0
 11
49.991858
 21
208.454879
 31
0.0
  0
LINE
  5
218
330
211
100
AcDbEntity
  8
LC-001-100-D00-0
 62
     7
370
    50
100
AcDbLine
 10
49.991858
 20
208.454879
 30
0.0
 11
49.991858
 21
208.454879
 31
0.0
  0
LINE
  5
219
330
211
100
AcDbEntity
  8
LC-001-100-D00-0
 62
     7
370
    50
100
AcDbLine
 10
49.991858
 20
208.454879
 30
0.0
 11
50.159357
 21
208.750965
 31
0.0
  0
LINE
  5
21A
330
211
100
AcDbEntity
  8
LC-001-100-D00-0
 62
     7
370
    50
100
AcDbLine
 10
50.159357
 20
208.750965
 30
0.0
 11
50.159357
 21
208.750965
 31
0.0
  0
LINE
  5
21B
330
211
100
AcDbEntity
  8
LC-001-100-D00-0
 62
     7
370
    50
100
AcDbLine
 10
50.159357
 20
208.750965
 30
0.0
 11
50.40687
 21
208.977312
 31
0.0
  0
LINE
  5
21C
330
211
100
AcDbEntity
  8
LC-001-100-D00-0
 62
     7
370
    50
100
AcDbLine
 10
50.40687
 20
208.977312
 30
0.0
 11
50.40687
 21
208.977312
 31
0.0
  0
LINE
  5
21D
330
211
100
AcDbEntity
  8
LC-001-100-D00-0
 62
     7
370
    50
100
AcDbLine
 10
50.40687
 20
208.977312
 30
0.0
 11
50.689
 21
209.103207
 31
0.0
  0
LINE
  5
21E
330
211
100
AcDbEntity
  8
LC-001-100-D00-0
 62
     7
370
    50
100
AcDbLine
 10
50.689
 20
209.103207
 30
0.0
 11
50.689
 21
209.103207
 31
0.0
  0
LINE
  5
21F
330
211
100
AcDbEntity
  8
LC-001-100-D00-0
 62
     7
370
    50
100
AcDbLine
 10
50.689
 20
209.103207
 30
0.0
 11
50.88008
 21
209.116699
 31
0.0
  0
LINE
  5
220
330
211
100
AcDbEntity
  8
LC-001-100-D00-0
 62
     7
370
    50
100
AcDbLine
 10
50.88008
 20
209.116699
 30
0.0
 11
50.88008
 21
209.116699
 31
0.0
  0
LINE
  5
221
330
211
100
AcDbEntity
  8
LC-001-100-D00-0
 62
     7
370
    50
100
AcDbLine
 10
50.88008
 20
209.116699
 30
0.0
 11
50.95956
 21
209.122311
 31
0.0
  0
ENDBLK
  5
213
330
211
100
AcDbEntity
  8
0
100
AcDbBlockEnd
  0
BLOCK
  5
227
330
226
100
AcDbEntity
  8
0
100
AcDbBlockBegin
  2
POLY14
 70
     0
 71
     0
 10
0.0
 20
0.0
 30
0.0
  3
POLY14
  1

  4
POLY14
  0
LINE
  5
229
330
226
100
AcDbEntity
  8
LC-001-100-D00-0
 62
     7
370
    50
100
AcDbLine
 10
133.405507
 20
208.122324
 30
0.0
 11
133.405507
 21
208.122324
 31
0.0
  0
LINE
  5
22A
330
226
100
AcDbEntity
  8
LC-001-100-D00-0
 62
     7
370
    50
100
AcDbLine
 10
133.405507
 20
208.122324
 30
0.0
 11
133.407647
 21
208.233185
 31
0.0
  0
LINE
  5
22B
330
226
100
AcDbEntity
  8
LC-001-100-D00-0
 62
     7
370
    50
100
AcDbLine
 10
133.407647
 20
208.233185
 30
0.0
 11
133.407647
 21
208.233185
 31
0.0
  0
LINE
  5
22C
330
226
100
AcDbEntity
  8
LC-001-100-D00-0
 62
     7
370
    50
100
AcDbLine
 10
133.407647
 20
208.233185
 30
0.0
 11
133.411927
 21
208.454879
 31
0.0
  0
LINE
  5
22D
330
226
100
AcDbEntity
  8
LC-001-100-D00-0
 62
     7
370
    50
100
AcDbLine
 10
133.411927
 20
208.454879
 30
0.0
 11
133.411927
 21
208.454879
 31
0.0
  0
LINE
  5
22E
330
226
100
AcDbEntity
  8
LC-001-100-D00-0
 62
     7
370
    50
100
AcDbLine
 10
133.411927
 20
208.454879
 30
0.0
 11
133.444908
 21
208.750965
 31
0.0
  0
LINE
  5
22F
330
226
100
AcDbEntity
  8
LC-001-100-D00-0
 62
     7
370
    50
100
AcDbLine
 10
133.444908
 20
208.750965
 30
0.0
 11
133.444908
 21
208.750965
 31
0.0
  0
LINE
  5
230
330
226
100
AcDbEntity
  8
LC-001-100-D00-0
 62
     7
370
    50
100
AcDbLine
 10
133.444908
 20
208.750965
 30
0.0
 11
133.492837
 21
208.977312
 31
0.0
  0
LINE
  5
231
330
226
100
AcDbEntity
  8
LC-001-100-D00-0
 62
     7
370
    50
100
AcDbLine
 10
133.492837
 20
208.977312
 30
0.0
 11
133.492837
 21
208.977312
 31
0.0
  0
LINE
  5
232
330
226
100
AcDbEntity
  8
LC-001-100-D00-0
 62
     7
370
    50
100
AcDbLine
 10
133.492837
 20
208.977312
 30
0.0
 11
133.546336
 21
209.103207
 31
0.0
  0
LINE
  5
233
330
226
100
AcDbEntity
  8
LC-001-100-D00-0
 62
     7
370
    50
100
AcDbLine
 10
133.546336
 20
209.103207
 30
0.0
 11
133.546336
 21
209.103207
 31
0.0
  0
LINE
  5
234
330
226
100
AcDbEntity
  8
LC-001-100-D00-0
 62
     7
370
    50
100
AcDbLine
 10
133.546336
 20
209.103207
 30
0.0
 11
133.58156
 21
209.116699
 31
0.0
  0
LINE
  5
235
330
226
100
AcDbEntity
  8
LC-001-100-D00-0
 62
     7
370
    50
100
AcDbLine
 10
133.58156
 20
209.116699
 30
0.0
 11
133.58156
 21
209.116699
 31
0.0
  0
LINE
  5
236
330
226
100
AcDbEntity
  8
LC-001-100-D00-0
 62
     7
370
    50
100
AcDbLine
 10
133.58156
 20
209.116699
 30
0.0
 11
133.596212
 21
209.122311
 31
0.0
  0
ENDBLK
  5
228
330
226
100
AcDbEntity
  8
0
100
AcDbBlockEnd
  0
BLOCK
  5
239
330
238
100
AcDbEntity
  8
0
100
AcDbBlockBegin
  2
POLY15
 70
     0
 71
     0
 10
0.0
 20
0.0
 30
0.0
  3
POLY15
  1

  4
POLY15
  0
LINE
  5
23B
330
238
100
AcDbEntity
  8
LC-001-100-D00-0
 62
     7
370
    50
100
AcDbLine
 10
76.55964
 20
209.122311
 30
0.0
 11
76.55964
 21
209.122311
 31
0.0
  0
LINE
  5
23C
330
238
100
AcDbEntity
  8
LC-001-100-D00-0
 62
     7
370
    50
100
AcDbLine
 10
76.55964
 20
209.122311
 30
0.0
 11
76.673626
 21
209.110958
 31
0.0
  0
LINE
  5
23D
330
238
100
AcDbEntity
  8
LC-001-100-D00-0
 62
     7
370
    50
100
AcDbLine
 10
76.673626
 20
209.110958
 30
0.0
 11
76.673626
 21
209.110958
 31
0.0
  0
LINE
  5
23E
330
238
100
AcDbEntity
  8
LC-001-100-D00-0
 62
     7
370
    50
100
AcDbLine
 10
76.673626
 20
209.110958
 30
0.0
 11
76.901623
 21
209.08825
 31
0.0
  0
LINE
  5
23F
330
238
100
AcDbEntity
  8
LC-001-100-D00-0
 62
     7
370
    50
100
AcDbLine
 10
76.901623
 20
209.08825
 30
0.0
 11
76.901623
 21
209.08825
 31
0.0
  0
LINE
  5
240
330
238
100
AcDbEntity
  8
LC-001-100-D00-0
 62
     7
370
    50
100
AcDbLine
 10
76.901623
 20
209.08825
 30
0.0
 11
77.204631
 21
208.91102
 31
0.0
  0
LINE
  5
241
330
238
100
AcDbEntity
  8
LC-001-100-D00-0
 62
     7
370
    50
100
AcDbLine
 10
77.204631
 20
208.91102
 30
0.0
 11
77.204631
 21
208.91102
 31
0.0
  0
LINE
  5
242
330
238
100
AcDbEntity
  8
LC-001-100-D00-0
 62
     7
370
    50
100
AcDbLine
 10
77.204631
 20
208.91102
 30
0.0
 11
77.430623
 21
208.651079
 31
0.0
  0
LINE
  5
243
330
238
100
AcDbEntity
  8
LC-001-100-D00-0
 62
     7
370
    50
100
AcDbLine
 10
77.430623
 20
208.651079
 30
0.0
 11
77.430623
 21
208.651079
 31
0.0
  0
LINE
  5
244
330
238
100
AcDbEntity
  8
LC-001-100-D00-0
 62
     7
370
    50
100
AcDbLine
 10
77.430623
 20
208.651079
 30
0.0
 11
77.544524
 21
208.370783
 31
0.0
  0
LINE
  5
245
330
238
100
AcDbEntity
  8
LC-001-100-D00-0
 62
     7
370
    50
100
AcDbLine
 10
77.544524
 20
208.370783
 30
0.0
 11
77.544524
 21
208.370783
 31
0.0
  0
LINE
  5
246
330
238
100
AcDbEntity
  8
LC-001-100-D00-0
 62
     7
370
    50
100
AcDbLine
 10
77.544524
 20
208.370783
 30
0.0
 11
77.555514
 21
208.190141
 31
0.0
  0
LINE
  5
247
330
238
100
AcDbEntity
  8
LC-001-100-D00-0
 62
     7
370
    50
100
AcDbLine
 10
77.555514
 20
208.190141
 30
0.0
 11
77.555514
 21
208.190141
 31
0.0
  0
LINE
  5
248
330
238
100
AcDbEntity
  8
LC-001-100-D00-0
 62
     7
370
    50
100
AcDbLine
 10
77.555514
 20
208.190141
 30
0.0
 11
77.55964
 21
208.122324
 31
0.0
  0
ENDBLK
  5
23A
330
238
100
AcDbEntity
  8
0
100
AcDbBlockEnd
  0
BLOCK
  5
289
330
288
100
AcDbEntity
  8
0
100
AcDbBlockBegin
  2
POLY16
 70
     0
 71
     0
 10
0.0
 20
0.0
 30
0.0
  3
POLY16
  1

  4
POLY16
  0
LINE
  5
28B
330
288
100
AcDbEntity
  8
LC-001-100-D00-0
 62
     7
370
    50
100
AcDbLine
 10
75.55964
 20
208.122324
 30
0.0
 11
75.55964
 21
208.122324
 31
0.0
  0
LINE
  5
28C
330
288
100
AcDbEntity
  8
LC-001-100-D00-0
 62
     7
370
    50
100
AcDbLine
 10
75.55964
 20
208.122324
 30
0.0
 11
75.570475
 21
208.233555
 31
0.0
  0
LINE
  5
28D
330
288
100
AcDbEntity
  8
LC-001-100-D00-0
 62
     7
370
    50
100
AcDbLine
 10
75.570475
 20
208.233555
 30
0.0
 11
75.570475
 21
208.233555
 31
0.0
  0
LINE
  5
28E
330
288
100
AcDbEntity
  8
LC-001-100-D00-0
 62
     7
370
    50
100
AcDbLine
 10
75.570475
 20
208.233555
 30
0.0
 11
75.592142
 21
208.456001
 31
0.0
  0
LINE
  5
28F
330
288
100
AcDbEntity
  8
LC-001-100-D00-0
 62
     7
370
    50
100
AcDbLine
 10
75.592142
 20
208.456001
 30
0.0
 11
75.592142
 21
208.456001
 31
0.0
  0
LINE
  5
290
330
288
100
AcDbEntity
  8
LC-001-100-D00-0
 62
     7
370
    50
100
AcDbLine
 10
75.592142
 20
208.456001
 30
0.0
 11
75.760778
 21
208.752891
 31
0.0
  0
LINE
  5
291
330
288
100
AcDbEntity
  8
LC-001-100-D00-0
 62
     7
370
    50
100
AcDbLine
 10
75.760778
 20
208.752891
 30
0.0
 11
75.760778
 21
208.752891
 31
0.0
  0
LINE
  5
292
330
288
100
AcDbEntity
  8
LC-001-100-D00-0
 62
     7
370
    50
100
AcDbLine
 10
75.760778
 20
208.752891
 30
0.0
 11
76.009513
 21
208.978983
 31
0.0
  0
LINE
  5
293
330
288
100
AcDbEntity
  8
LC-001-100-D00-0
 62
     7
370
    50
100
AcDbLine
 10
76.009513
 20
208.978983
 30
0.0
 11
76.009513
 21
208.978983
 31
0.0
  0
LINE
  5
294
330
288
100
AcDbEntity
  8
LC-001-100-D00-0
 62
     7
370
    50
100
AcDbLine
 10
76.009513
 20
208.978983
 30
0.0
 11
76.291325
 21
209.103595
 31
0.0
  0
LINE
  5
295
330
288
100
AcDbEntity
  8
LC-001-100-D00-0
 62
     7
370
    50
100
AcDbLine
 10
76.291325
 20
209.103595
 30
0.0
 11
76.291325
 21
209.103595
 31
0.0
  0
LINE
  5
296
330
288
100
AcDbEntity
  8
LC-001-100-D00-0
 62
     7
370
    50
100
AcDbLine
 10
76.291325
 20
209.103595
 30
0.0
 11
76.481084
 21
209.116831
 31
0.0
  0
LINE
  5
297
330
288
100
AcDbEntity
  8
LC-001-100-D00-0
 62
     7
370
    50
100
AcDbLine
 10
76.481084
 20
209.116831
 30
0.0
 11
76.481084
 21
209.116831
 31
0.0
  0
LINE
  5
298
330
288
100
AcDbEntity
  8
LC-001-100-D00-0
 62
     7
370
    50
100
AcDbLine
 10
76.481084
 20
209.116831
 30
0.0
 11
76.55964
 21
209.122311
 31
0.0
  0
ENDBLK
  5
28A
330
288
100
AcDbEntity
  8
0
100
AcDbBlockEnd
  0
BLOCK
  5
29E
330
29D
100
AcDbEntity
  8
0
100
AcDbBlockBegin
  2
POLY17
 70
     0
 71
     0
 10
0.0
 20
0.0
 30
0.0
  3
POLY17
  1

  4
POLY17
  0
LINE
  5
2A0
330
29D
100
AcDbEntity
  8
LC-001-100-D00-0
 62
     7
370
    50
100
AcDbLine
 10
50.95956
 20
209.122311
 30
0.0
 11
50.95956
 21
209.122311
 31
0.0
  0
LINE
  5
2A1
330
29D
100
AcDbEntity
  8
LC-001-100-D00-0
 62
     7
370
    50
100
AcDbLine
 10
50.95956
 20
209.122311
 30
0.0
 11
51.073233
 21
209.111031
 31
0.0
  0
LINE
  5
2A2
330
29D
100
AcDbEntity
  8
LC-001-100-D00-0
 62
     7
370
    50
100
AcDbLine
 10
51.073233
 20
209.111031
 30
0.0
 11
51.073233
 21
209.111031
 31
0.0
  0
LINE
  5
2A3
330
29D
100
AcDbEntity
  8
LC-001-100-D00-0
 62
     7
370
    50
100
AcDbLine
 10
51.073233
 20
209.111031
 30
0.0
 11
51.300615
 21
209.088469
 31
0.0
  0
LINE
  5
2A4
330
29D
100
AcDbEntity
  8
LC-001-100-D00-0
 62
     7
370
    50
100
AcDbLine
 10
51.300615
 20
209.088469
 30
0.0
 11
51.300615
 21
209.088469
 31
0.0
  0
LINE
  5
2A5
330
29D
100
AcDbEntity
  8
LC-001-100-D00-0
 62
     7
370
    50
100
AcDbLine
 10
51.300615
 20
209.088469
 30
0.0
 11
51.603347
 21
208.911927
 31
0.0
  0
LINE
  5
2A6
330
29D
100
AcDbEntity
  8
LC-001-100-D00-0
 62
     7
370
    50
100
AcDbLine
 10
51.603347
 20
208.911927
 30
0.0
 11
51.603347
 21
208.911927
 31
0.0
  0
LINE
  5
2A7
330
29D
100
AcDbEntity
  8
LC-001-100-D00-0
 62
     7
370
    50
100
AcDbLine
 10
51.603347
 20
208.911927
 30
0.0
 11
51.829299
 21
208.652875
 31
0.0
  0
LINE
  5
2A8
330
29D
100
AcDbEntity
  8
LC-001-100-D00-0
 62
     7
370
    50
100
AcDbLine
 10
51.829299
 20
208.652875
 30
0.0
 11
51.829299
 21
208.652875
 31
0.0
  0
LINE
  5
2A9
330
29D
100
AcDbEntity
  8
LC-001-100-D00-0
 62
     7
370
    50
100
AcDbLine
 10
51.829299
 20
208.652875
 30
0.0
 11
51.944111
 21
208.372611
 31
0.0
  0
LINE
  5
2AA
330
29D
100
AcDbEntity
  8
LC-001-100-D00-0
 62
     7
370
    50
100
AcDbLine
 10
51.944111
 20
208.372611
 30
0.0
 11
51.944111
 21
208.372611
 31
0.0
  0
LINE
  5
2AB
330
29D
100
AcDbEntity
  8
LC-001-100-D00-0
 62
     7
370
    50
100
AcDbLine
 10
51.944111
 20
208.372611
 30
0.0
 11
51.955308
 21
208.191217
 31
0.0
  0
LINE
  5
2AC
330
29D
100
AcDbEntity
  8
LC-001-100-D00-0
 62
     7
370
    50
100
AcDbLine
 10
51.955308
 20
208.191217
 30
0.0
 11
51.955308
 21
208.191217
 31
0.0
  0
LINE
  5
2AD
330
29D
100
AcDbEntity
  8
LC-001-100-D00-0
 62
     7
370
    50
100
AcDbLine
 10
51.955308
 20
208.191217
 30
0.0
 11
51.95956
 21
208.122324
 31
0.0
  0
ENDBLK
  5
29F
330
29D
100
AcDbEntity
  8
0
100
AcDbBlockEnd
  0
BLOCK
  5
2B5
330
2B4
100
AcDbEntity
  8
0
100
AcDbBlockBegin
  2
POLY18
 70
     0
 71
     0
 10
0.0
 20
0.0
 30
0.0
  3
POLY18
  1

  4
POLY18
  0
LINE
  5
2B7
330
2B4
100
AcDbEntity
  8
LC-001-100-D00-0
 62
     7
370
    50
100
AcDbLine
 10
7.183664
 20
126.205511
 30
0.0
 11
7.183664
 21
126.205511
 31
0.0
  0
LINE
  5
2B8
330
2B4
100
AcDbEntity
  8
LC-001-100-D00-0
 62
     7
370
    50
100
AcDbLine
 10
7.183664
 20
126.205511
 30
0.0
 11
7.66334
 21
126.216598
 31
0.0
  0
LINE
  5
2B9
330
2B4
100
AcDbEntity
  8
LC-001-100-D00-0
 62
     7
370
    50
100
AcDbLine
 10
7.66334
 20
126.216598
 30
0.0
 11
7.66334
 21
126.216598
 31
0.0
  0
LINE
  5
2BA
330
2B4
100
AcDbEntity
  8
LC-001-100-D00-0
 62
     7
370
    50
100
AcDbLine
 10
7.66334
 20
126.216598
 30
0.0
 11
8.210343
 21
126.229241
 31
0.0
  0
LINE
  5
2BB
330
2B4
100
AcDbEntity
  8
LC-001-100-D00-0
 62
     7
370
    50
100
AcDbLine
 10
8.210343
 20
126.229241
 30
0.0
 11
8.210343
 21
126.229241
 31
0.0
  0
LINE
  5
2BC
330
2B4
100
AcDbEntity
  8
LC-001-100-D00-0
 62
     7
370
    50
100
AcDbLine
 10
8.210343
 20
126.229241
 30
0.0
 11
8.75719
 21
126.208112
 31
0.0
  0
LINE
  5
2BD
330
2B4
100
AcDbEntity
  8
LC-001-100-D00-0
 62
     7
370
    50
100
AcDbLine
 10
8.75719
 20
126.208112
 30
0.0
 11
8.75719
 21
126.208112
 31
0.0
  0
LINE
  5
2BE
330
2B4
100
AcDbEntity
  8
LC-001-100-D00-0
 62
     7
370
    50
100
AcDbLine
 10
8.75719
 20
126.208112
 30
0.0
 11
8.824498
 21
126.205511
 31
0.0
  0
ENDBLK
  5
2B6
330
2B4
100
AcDbEntity
  8
0
100
AcDbBlockEnd
  0
BLOCK
  5
2C1
330
2C0
100
AcDbEntity
  8
0
100
AcDbBlockBegin
  2
KLON2
 70
     0
 71
     0
 10
0.0
 20
0.0
 30
0.0
  3
KLON2
  1

  4
KLON2
  0
LINE
  5
2C3
330
2C0
100
AcDbEntity
  8
LC-001-100-D00-0
 62
     7
370
    15
100
AcDbLine
 10
7.183664
 20
126.205511
 30
0.0
 11
6.228674
 21
125.065058
 31
0.0
  0
LINE
  5
2C4
330
2C0
100
AcDbEntity
  8
LC-001-100-D00-0
 62
     7
370
    15
100
AcDbLine
 10
6.228674
 20
125.065058
 30
0.0
 11
0.086323
 21
117.729626
 31
0.0
  0
ENDBLK
  5
2C2
330
2C0
100
AcDbEntity
  8
0
100
AcDbBlockEnd
  0
BLOCK
  5
2C7
330
2C6
100
AcDbEntity
  8
0
100
AcDbBlockBegin
  2
KLON3
 70
     0
 71
     0
 10
0.0
 20
0.0
 30
0.0
  3
KLON3
  1

  4
KLON3
  0
LINE
  5
2C9
330
2C6
100
AcDbEntity
  8
LC-001-100-D00-0
 62
     7
370
    15
100
AcDbLine
 10
101.441775
 20
126.205511
 30
0.0
 11
103.903152
 21
121.706344
 31
0.0
  0
LINE
  5
2CA
330
2C6
100
AcDbEntity
  8
LC-001-100-D00-0
 62
     7
370
    15
100
AcDbLine
 10
103.903152
 20
121.706344
 30
0.0
 11
106.07893
 21
117.729123
 31
0.0
  0
ENDBLK
  5
2C8
330
2C6
100
AcDbEntity
  8
0
100
AcDbBlockEnd
  0
BLOCK
  5
2CD
330
2CC
100
AcDbEntity
  8
0
100
AcDbBlockBegin
  2
POLY19
 70
     0
 71
     0
 10
0.0
 20
0.0
 30
0.0
  3
POLY19
  1

  4
POLY19
  0
LINE
  5
2CF
330
2CC
100
AcDbEntity
  8
LC-001-100-D00-0
 62
     7
370
    50
100
AcDbLine
 10
98.93027
 20
126.205511
 30
0.0
 11
98.93027
 21
126.205511
 31
0.0
  0
LINE
  5
2D0
330
2CC
100
AcDbEntity
  8
LC-001-100-D00-0
 62
     7
370
    50
100
AcDbLine
 10
98.93027
 20
126.205511
 30
0.0
 11
99.664476
 21
126.216598
 31
0.0
  0
LINE
  5
2D1
330
2CC
100
AcDbEntity
  8
LC-001-100-D00-0
 62
     7
370
    50
100
AcDbLine
 10
99.664476
 20
126.216598
 30
0.0
 11
99.664476
 21
126.216598
 31
0.0
  0
LINE
  5
2D2
330
2CC
100
AcDbEntity
  8
LC-001-100-D00-0
 62
     7
370
    50
100
AcDbLine
 10
99.664476
 20
126.216598
 30
0.0
 11
100.501734
 21
126.229241
 31
0.0
  0
LINE
  5
2D3
330
2CC
100
AcDbEntity
  8
LC-001-100-D00-0
 62
     7
370
    50
100
AcDbLine
 10
100.501734
 20
126.229241
 30
0.0
 11
100.501734
 21
126.229241
 31
0.0
  0
LINE
  5
2D4
330
2CC
100
AcDbEntity
  8
LC-001-100-D00-0
 62
     7
370
    50
100
AcDbLine
 10
100.501734
 20
126.229241
 30
0.0
 11
101.338752
 21
126.208112
 31
0.0
  0
LINE
  5
2D5
330
2CC
100
AcDbEntity
  8
LC-001-100-D00-0
 62
     7
370
    50
100
AcDbLine
 10
101.338752
 20
126.208112
 30
0.0
 11
101.338752
 21
126.208112
 31
0.0
  0
LINE
  5
2D6
330
2CC
100
AcDbEntity
  8
LC-001-100-D00-0
 62
     7
370
    50
100
AcDbLine
 10
101.338752
 20
126.208112
 30
0.0
 11
101.441775
 21
126.205511
 31
0.0
  0
ENDBLK
  5
2CE
330
2CC
100
AcDbEntity
  8
0
100
AcDbBlockEnd
  0
BLOCK
  5
2F9
330
2F8
100
AcDbEntity
  8
0
100
AcDbBlockBegin
  2
KLON4
 70
     0
 71
     0
 10
0.0
 20
0.0
 30
0.0
  3
KLON4
  1

  4
KLON4
  0
LINE
  5
2FB
330
2F8
100
AcDbEntity
  8
LC-001-100-D00-0
 62
     7
370
    50
100
AcDbLine
 10
136.051532
 20
120.530411
 30
0.0
 11
137.465745
 21
121.944624
 31
0.0
  0
LINE
  5
2FC
330
2F8
100
AcDbEntity
  8
LC-001-100-D00-0
 62
     7
370
    50
100
AcDbLine
 10
130.211377
 20
137.140896
 30
0.0
 11
132.009543
 21
138.939063
 31
0.0
  0
ENDBLK
  5
2FA
330
2F8
100
AcDbEntity
  8
0
100
AcDbBlockEnd
  0
BLOCK
  5
300
330
2FF
100
AcDbEntity
  8
0
100
AcDbBlockBegin
  2
KLON5
 70
     0
 71
     0
 10
0.0
 20
0.0
 30
0.0
  3
KLON5
  1

  4
KLON5
  0
LINE
  5
302
330
2FF
100
AcDbEntity
  8
LC-001-100-D00-0
 62
     1
370
    25
100
AcDbLine
 10
135.991517
 20
187.822317
 30
0.0
 11
137.991517
 21
189.822317
 31
0.0
  0
LINE
  5
303
330
2FF
100
AcDbEntity
  8
LC-001-100-D00-0
 62
     1
370
    25
100
AcDbLine
 10
134.759543
 20
209.040984
 30
0.0
 11
137.659543
 21
211.940984
 31
0.0
  0
LINE
  5
304
330
2FF
100
AcDbEntity
  8
LC-001-100-D00-0
 62
     1
370
    25
100
AcDbLine
 10
142.540877
 20
216.822317
 30
0.0
 11
148.016166
 21
222.297606
 31
0.0
  0
LINE
  5
305
330
2FF
100
AcDbEntity
  8
LC-001-100-D00-0
 62
     1
370
    25
100
AcDbLine
 10
130.478246
 20
227.210327
 30
0.0
 11
142.025298
 21
238.757379
 31
0.0
  0
LINE
  5
306
330
2FF
100
AcDbEntity
  8
LC-001-100-D00-0
 62
     1
370
    25
100
AcDbLine
 10
124.487379
 20
243.6701
 30
0.0
 11
136.034431
 21
255.217152
 31
0.0
  0
LINE
  5
307
330
2FF
100
AcDbEntity
  8
LC-001-100-D00-0
 62
     1
370
    25
100
AcDbLine
 10
118.496513
 20
260.129874
 30
0.0
 11
130.043564
 21
271.676925
 31
0.0
  0
LINE
  5
308
330
2FF
100
AcDbEntity
  8
LC-001-100-D00-0
 62
     1
370
    25
100
AcDbLine
 10
112.505646
 20
276.589648
 30
0.0
 11
123.076512
 21
287.160513
 31
0.0
  0
LINE
  5
309
330
2FF
100
AcDbEntity
  8
LC-001-100-D00-0
 62
     1
370
    25
100
AcDbLine
 10
90.487681
 20
277.022323
 30
0.0
 11
105.287681
 21
291.822323
 31
0.0
  0
LINE
  5
30A
330
2FF
100
AcDbEntity
  8
LC-001-100-D00-0
 62
     1
370
    25
100
AcDbLine
 10
-10.140457
 20
198.844825
 30
0.0
 11
-7.240457
 21
201.744825
 31
0.0
  0
LINE
  5
30B
330
2FF
100
AcDbEntity
  8
LC-001-100-D00-0
 62
     1
370
    25
100
AcDbLine
 10
68.037041
 20
277.022323
 30
0.0
 11
82.937041
 21
291.922323
 31
0.0
  0
LINE
  5
30C
330
2FF
100
AcDbEntity
  8
LC-001-100-D00-0
 62
     1
370
    25
100
AcDbLine
 10
-14.613605
 20
216.822317
 30
0.0
 11
-2.234437
 21
229.201486
 31
0.0
  0
LINE
  5
30D
330
2FF
100
AcDbEntity
  8
LC-001-100-D00-0
 62
     1
370
    25
100
AcDbLine
 10
45.586401
 20
277.022323
 30
0.0
 11
60.386401
 21
291.822323
 31
0.0
  0
LINE
  5
30E
330
2FF
100
AcDbEntity
  8
LC-001-100-D00-0
 62
     1
370
    25
100
AcDbLine
 10
-14.149714
 20
239.736849
 30
0.0
 11
10.613016
 21
264.499578
 31
0.0
  0
LINE
  5
30F
330
2FF
100
AcDbEntity
  8
LC-001-100-D00-0
 62
     1
370
    25
100
AcDbLine
 10
23.13576
 20
277.022323
 30
0.0
 11
37.93576
 21
291.822323
 31
0.0
  0
LINE
  5
310
330
2FF
100
AcDbEntity
  8
LC-001-100-D00-0
 62
     1
370
    25
100
AcDbLine
 10
-1.302258
 20
275.034946
 30
0.0
 11
15.48512
 21
291.822323
 31
0.0
  0
ENDBLK
  5
301
330
2FF
100
AcDbEntity
  8
0
100
AcDbBlockEnd
  0
BLOCK
  5
313
330
312
100
AcDbEntity
  8
0
100
AcDbBlockBegin
  2
KLON6
 70
     0
 71
     0
 10
0.0
 20
0.0
 30
0.0
  3
KLON6
  1

  4
KLON6
  0
LINE
  5
315
330
312
100
AcDbEntity
  8
LC-001-100-D00-0
 62
     1
370
    25
100
AcDbLine
 10
141.002562
 20
58.12952
 30
0.0
 11
143.553584
 21
60.680542
 31
0.0
  0
LINE
  5
316
330
312
100
AcDbEntity
  8
LC-001-100-D00-0
 62
     1
370
    25
100
AcDbLine
 10
140.883292
 20
80.460891
 30
0.0
 11
143.859543
 21
83.437142
 31
0.0
  0
LINE
  5
317
330
312
100
AcDbEntity
  8
LC-001-100-D00-0
 62
     1
370
    25
100
AcDbLine
 10
140.764022
 20
102.792261
 30
0.0
 11
143.859543
 21
105.887782
 31
0.0
  0
LINE
  5
318
330
312
100
AcDbEntity
  8
LC-001-100-D00-0
 62
     1
370
    25
100
AcDbLine
 10
140.644752
 20
125.123631
 30
0.0
 11
143.859543
 21
128.338422
 31
0.0
  0
LINE
  5
319
330
312
100
AcDbEntity
  8
LC-001-100-D00-0
 62
     1
370
    25
100
AcDbLine
 10
127.259543
 20
134.189063
 30
0.0
 11
130.759543
 21
137.689063
 31
0.0
  0
LINE
  5
31A
330
312
100
AcDbEntity
  8
LC-001-100-D00-0
 62
     1
370
    25
100
AcDbLine
 10
140.525482
 20
147.455002
 30
0.0
 11
143.859543
 21
150.789063
 31
0.0
  0
LINE
  5
31B
330
312
100
AcDbEntity
  8
LC-001-100-D00-0
 62
     1
370
    25
100
AcDbLine
 10
206.393219
 20
213.322738
 30
0.0
 11
209.892798
 21
216.822317
 31
0.0
  0
LINE
  5
31C
330
312
100
AcDbEntity
  8
LC-001-100-D00-0
 62
     1
370
    25
100
AcDbLine
 10
127.259543
 20
156.639703
 30
0.0
 11
130.759543
 21
160.139703
 31
0.0
  0
LINE
  5
31D
330
312
100
AcDbEntity
  8
LC-001-100-D00-0
 62
     1
370
    25
100
AcDbLine
 10
140.406212
 20
169.786372
 30
0.0
 11
143.859543
 21
173.239703
 31
0.0
  0
LINE
  5
31E
330
312
100
AcDbEntity
  8
LC-001-100-D00-0
 62
     1
370
    25
100
AcDbLine
 10
183.942578
 20
213.322738
 30
0.0
 11
187.442158
 21
216.822317
 31
0.0
  0
LINE
  5
31F
330
312
100
AcDbEntity
  8
LC-001-100-D00-0
 62
     1
370
    25
100
AcDbLine
 10
139.259543
 20
191.090343
 30
0.0
 11
144.208678
 21
196.039478
 31
0.0
  0
LINE
  5
320
330
312
100
AcDbEntity
  8
LC-001-100-D00-0
 62
     1
370
    25
100
AcDbLine
 10
161.491938
 20
213.322738
 30
0.0
 11
164.991517
 21
216.822317
 31
0.0
  0
ENDBLK
  5
314
330
312
100
AcDbEntity
  8
0
100
AcDbBlockEnd
  0
BLOCK
  5
324
330
323
100
AcDbEntity
  8
0
100
AcDbBlockBegin
  2
KLON7
 70
     0
 71
     0
 10
0.0
 20
0.0
 30
0.0
  3
KLON7
  1

  4
KLON7
  0
LINE
  5
326
330
323
100
AcDbEntity
  8
LC-001-100-D00-0
 62
     1
370
    25
100
AcDbLine
 10
-15.520218
 20
58.761223
 30
0.0
 11
-13.469147
 21
60.812293
 31
0.0
  0
LINE
  5
327
330
323
100
AcDbEntity
  8
LC-001-100-D00-0
 62
     1
370
    25
100
AcDbLine
 10
-16.340457
 20
80.391624
 30
0.0
 11
-13.348596
 21
83.383485
 31
0.0
  0
LINE
  5
328
330
323
100
AcDbEntity
  8
LC-001-100-D00-0
 62
     1
370
    25
100
AcDbLine
 10
-16.340457
 20
102.842264
 30
0.0
 11
-13.228045
 21
105.954676
 31
0.0
  0
LINE
  5
329
330
323
100
AcDbEntity
  8
LC-001-100-D00-0
 62
     1
370
    25
100
AcDbLine
 10
-16.340457
 20
125.292905
 30
0.0
 11
-13.107495
 21
128.525867
 31
0.0
  0
LINE
  5
32A
330
323
100
AcDbEntity
  8
LC-001-100-D00-0
 62
     1
370
    25
100
AcDbLine
 10
-3.240457
 20
138.392905
 30
0.0
 11
0.259543
 21
141.892905
 31
0.0
  0
LINE
  5
32B
330
323
100
AcDbEntity
  8
LC-001-100-D00-0
 62
     1
370
    25
100
AcDbLine
 10
-16.340457
 20
147.743545
 30
0.0
 11
-12.986944
 21
151.097058
 31
0.0
  0
LINE
  5
32C
330
323
100
AcDbEntity
  8
LC-001-100-D00-0
 62
     1
370
    25
100
AcDbLine
 10
-3.240457
 20
160.843545
 30
0.0
 11
0.259543
 21
164.343545
 31
0.0
  0
LINE
  5
32D
330
323
100
AcDbEntity
  8
LC-001-100-D00-0
 62
     1
370
    25
100
AcDbLine
 10
-16.340457
 20
170.194185
 30
0.0
 11
-12.866393
 21
173.668249
 31
0.0
  0
LINE
  5
32E
330
323
100
AcDbEntity
  8
LC-001-100-D00-0
 62
     1
370
    25
100
AcDbLine
 10
-9.140457
 20
177.394185
 30
0.0
 11
-5.640457
 21
180.894185
 31
0.0
  0
LINE
  5
32F
330
323
100
AcDbEntity
  8
LC-001-100-D00-0
 62
     1
370
    25
100
AcDbLine
 10
-16.340457
 20
192.644825
 30
0.0
 11
-12.74153
 21
196.243752
 31
0.0
  0
LINE
  5
330
330
323
100
AcDbEntity
  8
LC-001-100-D00-0
 62
     1
370
    25
100
AcDbLine
 10
-18.490456
 20
212.945466
 30
0.0
 11
-15.12049
 21
216.315433
 31
0.0
  0
LINE
  5
331
330
323
100
AcDbEntity
  8
LC-001-100-D00-0
 62
     1
370
    25
100
AcDbLine
 10
-40.563825
 20
213.322738
 30
0.0
 11
-37.064246
 21
216.822317
 31
0.0
  0
LINE
  5
332
330
323
100
AcDbEntity
  8
LC-001-100-D00-0
 62
     1
370
    25
100
AcDbLine
 10
-63.014465
 20
213.322738
 30
0.0
 11
-59.514886
 21
216.822317
 31
0.0
  0
LINE
  5
333
330
323
100
AcDbEntity
  8
LC-001-100-D00-0
 62
     1
370
    25
100
AcDbLine
 10
-85.465105
 20
213.322738
 30
0.0
 11
-81.965526
 21
216.822317
 31
0.0
  0
ENDBLK
  5
325
330
323
100
AcDbEntity
  8
0
100
AcDbBlockEnd
  0
BLOCK
  5
348
330
33E
100
AcDbEntity
  8
0
100
AcDbBlockBegin
  2
*D27
 70
     1
 71
     0
 10
0.0
 20
0.0
 30
0.0
  3
*D27
  1

  0
LINE
  5
33F
330
33E
100
AcDbEntity
  8
LC-002-003-----0
 62
     2
370
    -2
100
AcDbLine
 10
-114.24046
 20
216.822322
 30
0.0
 11
-131.268393
 21
216.822322
 31
0.0
  0
LINE
  5
340
330
33E
100
AcDbEntity
  8
LC-002-003-----0
 62
     2
370
    -2
100
AcDbLine
 10
-13.490453
 20
56.822397
 30
0.0
 11
-131.268393
 21
56.822397
 31
0.0
  0
LINE
  5
341
330
33E
100
AcDbEntity
  8
LC-002-003-----0
 62
     2
370
    -2
100
AcDbLine
 10
-127.668393
 20
188.822322
 30
0.0
 11
-127.668393
 21
84.822397
 31
0.0
  0
SOLID
  5
342
330
33E
100
AcDbEntity
  8
LC-002-003-----0
 62
     2
100
AcDbTrace
 10
-123.001726
 20
188.822322
 30
0.0
 11
-132.33506
 21
188.822322
 31
0.0
 12
-127.668393
 22
216.822322
 32
0.0
 13
-127.668393
 23
216.822322
 33
0.0
  0
SOLID
  5
343
330
33E
100
AcDbEntity
  8
LC-002-003-----0
 62
     2
100
AcDbTrace
 10
-132.33506
 20
84.822397
 30
0.0
 11
-123.001726
 21
84.822397
 31
0.0
 12
-127.668393
 22
56.822397
 32
0.0
 13
-127.668393
 23
56.822397
 33
0.0
  0
MTEXT
  5
344
330
33E
100
AcDbEntity
  8
LC-002-003-----0
 62
     2
100
AcDbMText
 10
-158.468393
 20
139.666739
 30
0.0
 40
28.0
 41
0.0
 71
     5
 72
     1
  1
\A1;160
  7
LCTX15-400-0-0pDIN-Schrift
 11
6.123031769111886E-17
 21
1.0
 31
0.0
 73
     1
 44
1.0
  0
POINT
  5
345
330
33E
100
AcDbEntity
  8
Defpoints
 62
     0
100
AcDbPoint
 10
-114.24046
 20
216.822322
 30
0.0
  0
POINT
  5
346
330
33E
100
AcDbEntity
  8
Defpoints
 62
     0
100
AcDbPoint
 10
-13.490453
 20
56.822397
 30
0.0
  0
POINT
  5
347
330
33E
100
AcDbEntity
  8
Defpoints
 62
     0
100
AcDbPoint
 10
-127.668393
 20
56.822397
 30
0.0
  0
ENDBLK
  5
349
330
33E
100
AcDbEntity
  8
0
100
AcDbBlockEnd
  0
BLOCK
  5
355
330
34B
100
AcDbEntity
  8
0
100
AcDbBlockBegin
  2
*D28
 70
     1
 71
     0
 10
0.0
 20
0.0
 30
0.0
  3
*D28
  1

  0
LINE
  5
34C
330
34B
100
AcDbEntity
  8
LC-002-003-----0
 62
     2
370
    -2
100
AcDbLine
 10
-16.340457
 20
61.822397
 30
0.0
 11
-16.340457
 21
4.792739
 31
0.0
  0
LINE
  5
34D
330
34B
100
AcDbEntity
  8
LC-002-003-----0
 62
     2
370
    -2
100
AcDbLine
 10
143.859543
 20
61.822397
 30
0.0
 11
143.859543
 21
4.792739
 31
0.0
  0
LINE
  5
34E
330
34B
100
AcDbEntity
  8
LC-002-003-----0
 62
     2
370
    -2
100
AcDbLine
 10
11.659543
 20
8.392739
 30
0.0
 11
115.859543
 21
8.392739
 31
0.0
  0
SOLID
  5
34F
330
34B
100
AcDbEntity
  8
LC-002-003-----0
 62
     2
100
AcDbTrace
 10
11.659543
 20
13.059406
 30
0.0
 11
11.659543
 21
3.726073
 31
0.0
 12
-16.340457
 22
8.392739
 32
0.0
 13
-16.340457
 23
8.392739
 33
0.0
  0
SOLID
  5
350
330
34B
100
AcDbEntity
  8
LC-002-003-----0
 62
     2
100
AcDbTrace
 10
115.859543
 20
3.726073
 30
0.0
 11
115.859543
 21
13.059406
 31
0.0
 12
143.859543
 22
8.392739
 32
0.0
 13
143.859543
 23
8.392739
 33
0.0
  0
MTEXT
  5
351
330
34B
100
AcDbEntity
  8
LC-002-003-----0
 62
     2
100
AcDbMText
 10
63.969189
 20
39.192739
 30
0.0
 40
28.0
 41
0.0
 71
     5
 72
     1
  1
\A1;DN150
  7
LCTX15-400-0-0pDIN-Schrift
 73
     1
 44
1.0
  0
POINT
  5
352
330
34B
100
AcDbEntity
  8
Defpoints
 62
     0
100
AcDbPoint
 10
-16.340457
 20
61.822397
 30
0.0
  0
POINT
  5
353
330
34B
100
AcDbEntity
  8
Defpoints
 62
     0
100
AcDbPoint
 10
143.859543
 20
61.822397
 30
0.0
  0
POINT
  5
354
330
34B
100
AcDbEntity
  8
Defpoints
 62
     0
100
AcDbPoint
 10
143.859543
 20
8.392739
 30
0.0
  0
ENDBLK
  5
356
330
34B
100
AcDbEntity
  8
0
100
AcDbBlockEnd
  0
BLOCK
  5
362
330
358
100
AcDbEntity
  8
0
100
AcDbBlockBegin
  2
*D29
 70
     1
 71
     0
 10
0.0
 20
0.0
 30
0.0
  3
*D29
  1

  0
LINE
  5
359
330
358
100
AcDbEntity
  8
LC-002-003-----0
 62
     2
370
    -2
100
AcDbLine
 10
-116.240464
 20
213.322739
 30
0.0
 11
-116.240464
 21
326.812739
 31
0.0
  0
LINE
  5
35A
330
358
100
AcDbEntity
  8
LC-002-003-----0
 62
     2
370
    -2
100
AcDbLine
 10
243.75955
 20
213.322739
 30
0.0
 11
243.75955
 21
326.812739
 31
0.0
  0
LINE
  5
35B
330
358
100
AcDbEntity
  8
LC-002-003-----0
 62
     2
370
    -2
100
AcDbLine
 10
-88.240464
 20
323.212739
 30
0.0
 11
215.75955
 21
323.212739
 31
0.0
  0
SOLID
  5
35C
330
358
100
AcDbEntity
  8
LC-002-003-----0
 62
     2
100
AcDbTrace
 10
-88.240464
 20
327.879406
 30
0.0
 11
-88.240464
 21
318.546073
 31
0.0
 12
-116.240464
 22
323.212739
 32
0.0
 13
-116.240464
 23
323.212739
 33
0.0
  0
SOLID
  5
35D
330
358
100
AcDbEntity
  8
LC-002-003-----0
 62
     2
100
AcDbTrace
 10
215.75955
 20
318.546073
 30
0.0
 11
215.75955
 21
327.879406
 31
0.0
 12
243.75955
 22
323.212739
 32
0.0
 13
243.75955
 23
323.212739
 33
0.0
  0
MTEXT
  5
35E
330
358
100
AcDbEntity
  8
LC-002-003-----0
 62
     2
100
AcDbMText
 10
55.178474
 20
354.012739
 30
0.0
 40
28.0
 41
0.0
 71
     5
 72
     1
  1
%%c\A1;360
  7
LCTX15-400-0-0pDIN-Schrift
 73
     1
 44
1.0
  0
POINT
  5
35F
330
358
100
AcDbEntity
  8
Defpoints
 62
     0
100
AcDbPoint
 10
-116.240464
 20
213.322739
 30
0.0
  0
POINT
  5
360
330
358
100
AcDbEntity
  8
Defpoints
 62
     0
100
AcDbPoint
 10
243.75955
 20
213.322739
 30
0.0
  0
POINT
  5
361
330
358
100
AcDbEntity
  8
Defpoints
 62
     0
100
AcDbPoint
 10
243.75955
 20
323.212739
 30
0.0
  0
ENDBLK
  5
363
330
358
100
AcDbEntity
  8
0
100
AcDbBlockEnd
  0
BLOCK
  5
36B
330
36A
100
AcDbEntity
  8
0
100
AcDbBlockBegin
  2
POLY20
 70
     0
 71
     0
 10
0.0
 20
0.0
 30
0.0
  3
POLY20
  1

  4
POLY20
  0
LINE
  5
36D
330
36A
100
AcDbEntity
  8
LC-001-100-D00-0
 62
     7
370
    15
100
AcDbLine
 10
-49.487456
 20
123.351391
 30
0.0
 11
-49.487456
 21
123.351391
 31
0.0
  0
LINE
  5
36E
330
36A
100
AcDbEntity
  8
LC-001-100-D00-0
 62
     7
370
    15
100
AcDbLine
 10
-49.487456
 20
123.351391
 30
0.0
 11
-49.557513
 21
123.156153
 31
0.0
  0
LINE
  5
36F
330
36A
100
AcDbEntity
  8
LC-001-100-D00-0
 62
     7
370
    15
100
AcDbLine
 10
-49.557513
 20
123.156153
 30
0.0
 11
-49.557513
 21
123.156153
 31
0.0
  0
LINE
  5
370
330
36A
100
AcDbEntity
  8
LC-001-100-D00-0
 62
     7
370
    15
100
AcDbLine
 10
-49.557513
 20
123.156153
 30
0.0
 11
-49.888544
 21
122.233619
 31
0.0
  0
LINE
  5
371
330
36A
100
AcDbEntity
  8
LC-001-100-D00-0
 62
     7
370
    15
100
AcDbLine
 10
-49.888544
 20
122.233619
 30
0.0
 11
-49.888544
 21
122.233619
 31
0.0
  0
LINE
  5
372
330
36A
100
AcDbEntity
  8
LC-001-100-D00-0
 62
     7
370
    15
100
AcDbLine
 10
-49.888544
 20
122.233619
 30
0.0
 11
-50.186047
 21
120.540489
 31
0.0
  0
LINE
  5
373
330
36A
100
AcDbEntity
  8
LC-001-100-D00-0
 62
     7
370
    15
100
AcDbLine
 10
-50.186047
 20
120.540489
 30
0.0
 11
-50.186047
 21
120.540489
 31
0.0
  0
LINE
  5
374
330
36A
100
AcDbEntity
  8
LC-001-100-D00-0
 62
     7
370
    15
100
AcDbLine
 10
-50.186047
 20
120.540489
 30
0.0
 11
-50.249793
 21
119.045692
 31
0.0
  0
LINE
  5
375
330
36A
100
AcDbEntity
  8
LC-001-100-D00-0
 62
     7
370
    15
100
AcDbLine
 10
-50.249793
 20
119.045692
 30
0.0
 11
-50.249793
 21
119.045692
 31
0.0
  0
LINE
  5
376
330
36A
100
AcDbEntity
  8
LC-001-100-D00-0
 62
     7
370
    15
100
AcDbLine
 10
-50.249793
 20
119.045692
 30
0.0
 11
-50.280638
 21
118.322398
 31
0.0
  0
ENDBLK
  5
36C
330
36A
100
AcDbEntity
  8
0
100
AcDbBlockEnd
  0
BLOCK
  5
379
330
378
100
AcDbEntity
  8
0
100
AcDbBlockBegin
  2
POLY21
 70
     0
 71
     0
 10
0.0
 20
0.0
 30
0.0
  3
POLY21
  1

  4
POLY21
  0
LINE
  5
37B
330
378
100
AcDbEntity
  8
LC-001-100-D00-0
 62
     7
370
    15
100
AcDbLine
 10
-33.284835
 20
135.322395
 30
0.0
 11
-33.284835
 21
135.322395
 31
0.0
  0
LINE
  5
37C
330
378
100
AcDbEntity
  8
LC-001-100-D00-0
 62
     7
370
    15
100
AcDbLine
 10
-33.284835
 20
135.322395
 30
0.0
 11
-33.731291
 21
135.311841
 31
0.0
  0
LINE
  5
37D
330
378
100
AcDbEntity
  8
LC-001-100-D00-0
 62
     7
370
    15
100
AcDbLine
 10
-33.731291
 20
135.311841
 30
0.0
 11
-33.731291
 21
135.311841
 31
0.0
  0
LINE
  5
37E
330
378
100
AcDbEntity
  8
LC-001-100-D00-0
 62
     7
370
    15
100
AcDbLine
 10
-33.731291
 20
135.311841
 30
0.0
 11
-34.94971
 21
135.28304
 31
0.0
  0
LINE
  5
37F
330
378
100
AcDbEntity
  8
LC-001-100-D00-0
 62
     7
370
    15
100
AcDbLine
 10
-34.94971
 20
135.28304
 30
0.0
 11
-34.94971
 21
135.28304
 31
0.0
  0
LINE
  5
380
330
378
100
AcDbEntity
  8
LC-001-100-D00-0
 62
     7
370
    15
100
AcDbLine
 10
-34.94971
 20
135.28304
 30
0.0
 11
-36.925272
 21
134.97907
 31
0.0
  0
LINE
  5
381
330
378
100
AcDbEntity
  8
LC-001-100-D00-0
 62
     7
370
    15
100
AcDbLine
 10
-36.925272
 20
134.97907
 30
0.0
 11
-36.925272
 21
134.97907
 31
0.0
  0
LINE
  5
382
330
378
100
AcDbEntity
  8
LC-001-100-D00-0
 62
     7
370
    15
100
AcDbLine
 10
-36.925272
 20
134.97907
 30
0.0
 11
-39.155988
 21
134.332853
 31
0.0
  0
LINE
  5
383
330
378
100
AcDbEntity
  8
LC-001-100-D00-0
 62
     7
370
    15
100
AcDbLine
 10
-39.155988
 20
134.332853
 30
0.0
 11
-39.155988
 21
134.332853
 31
0.0
  0
LINE
  5
384
330
378
100
AcDbEntity
  8
LC-001-100-D00-0
 62
     7
370
    15
100
AcDbLine
 10
-39.155988
 20
134.332853
 30
0.0
 11
-41.278121
 21
133.38451
 31
0.0
  0
LINE
  5
385
330
378
100
AcDbEntity
  8
LC-001-100-D00-0
 62
     7
370
    15
100
AcDbLine
 10
-41.278121
 20
133.38451
 30
0.0
 11
-41.278121
 21
133.38451
 31
0.0
  0
LINE
  5
386
330
378
100
AcDbEntity
  8
LC-001-100-D00-0
 62
     7
370
    15
100
AcDbLine
 10
-41.278121
 20
133.38451
 30
0.0
 11
-43.251885
 21
132.157582
 31
0.0
  0
LINE
  5
387
330
378
100
AcDbEntity
  8
LC-001-100-D00-0
 62
     7
370
    15
100
AcDbLine
 10
-43.251885
 20
132.157582
 30
0.0
 11
-43.251885
 21
132.157582
 31
0.0
  0
LINE
  5
388
330
378
100
AcDbEntity
  8
LC-001-100-D00-0
 62
     7
370
    15
100
AcDbLine
 10
-43.251885
 20
132.157582
 30
0.0
 11
-45.039718
 21
130.673012
 31
0.0
  0
LINE
  5
389
330
378
100
AcDbEntity
  8
LC-001-100-D00-0
 62
     7
370
    15
100
AcDbLine
 10
-45.039718
 20
130.673012
 30
0.0
 11
-45.039718
 21
130.673012
 31
0.0
  0
LINE
  5
38A
330
378
100
AcDbEntity
  8
LC-001-100-D00-0
 62
     7
370
    15
100
AcDbLine
 10
-45.039718
 20
130.673012
 30
0.0
 11
-46.611919
 21
128.959947
 31
0.0
  0
LINE
  5
38B
330
378
100
AcDbEntity
  8
LC-001-100-D00-0
 62
     7
370
    15
100
AcDbLine
 10
-46.611919
 20
128.959947
 30
0.0
 11
-46.611919
 21
128.959947
 31
0.0
  0
LINE
  5
38C
330
378
100
AcDbEntity
  8
LC-001-100-D00-0
 62
     7
370
    15
100
AcDbLine
 10
-46.611919
 20
128.959947
 30
0.0
 11
-47.926138
 21
127.045857
 31
0.0
  0
LINE
  5
38D
330
378
100
AcDbEntity
  8
LC-001-100-D00-0
 62
     7
370
    15
100
AcDbLine
 10
-47.926138
 20
127.045857
 30
0.0
 11
-47.926138
 21
127.045857
 31
0.0
  0
LINE
  5
38E
330
378
100
AcDbEntity
  8
LC-001-100-D00-0
 62
     7
370
    15
100
AcDbLine
 10
-47.926138
 20
127.045857
 30
0.0
 11
-48.910257
 21
125.166812
 31
0.0
  0
LINE
  5
38F
330
378
100
AcDbEntity
  8
LC-001-100-D00-0
 62
     7
370
    15
100
AcDbLine
 10
-48.910257
 20
125.166812
 30
0.0
 11
-48.910257
 21
125.166812
 31
0.0
  0
LINE
  5
390
330
378
100
AcDbEntity
  8
LC-001-100-D00-0
 62
     7
370
    15
100
AcDbLine
 10
-48.910257
 20
125.166812
 30
0.0
 11
-49.316025
 21
123.890582
 31
0.0
  0
LINE
  5
391
330
378
100
AcDbEntity
  8
LC-001-100-D00-0
 62
     7
370
    15
100
AcDbLine
 10
-49.316025
 20
123.890582
 30
0.0
 11
-49.316025
 21
123.890582
 31
0.0
  0
LINE
  5
392
330
378
100
AcDbEntity
  8
LC-001-100-D00-0
 62
     7
370
    15
100
AcDbLine
 10
-49.316025
 20
123.890582
 30
0.0
 11
-49.487456
 21
123.351391
 31
0.0
  0
ENDBLK
  5
37A
330
378
100
AcDbEntity
  8
0
100
AcDbBlockEnd
  0
BLOCK
  5
396
330
395
100
AcDbEntity
  8
0
100
AcDbBlockBegin
  2
POLY22
 70
     0
 71
     0
 10
0.0
 20
0.0
 30
0.0
  3
POLY22
  1

  4
POLY22
  0
LINE
  5
398
330
395
100
AcDbEntity
  8
LC-001-100-D00-0
 62
     7
370
    15
100
AcDbLine
 10
-44.280633
 20
118.322398
 30
0.0
 11
-44.280633
 21
118.322398
 31
0.0
  0
LINE
  5
399
330
395
100
AcDbEntity
  8
LC-001-100-D00-0
 62
     7
370
    15
100
AcDbLine
 10
-44.280633
 20
118.322398
 30
0.0
 11
-44.275408
 21
118.611717
 31
0.0
  0
LINE
  5
39A
330
395
100
AcDbEntity
  8
LC-001-100-D00-0
 62
     7
370
    15
100
AcDbLine
 10
-44.275408
 20
118.611717
 30
0.0
 11
-44.275408
 21
118.611717
 31
0.0
  0
LINE
  5
39B
330
395
100
AcDbEntity
  8
LC-001-100-D00-0
 62
     7
370
    15
100
AcDbLine
 10
-44.275408
 20
118.611717
 30
0.0
 11
-44.260269
 21
119.450018
 31
0.0
  0
LINE
  5
39C
330
395
100
AcDbEntity
  8
LC-001-100-D00-0
 62
     7
370
    15
100
AcDbLine
 10
-44.260269
 20
119.450018
 30
0.0
 11
-44.260269
 21
119.450018
 31
0.0
  0
LINE
  5
39D
330
395
100
AcDbEntity
  8
LC-001-100-D00-0
 62
     7
370
    15
100
AcDbLine
 10
-44.260269
 20
119.450018
 30
0.0
 11
-44.090181
 21
120.27253
 31
0.0
  0
LINE
  5
39E
330
395
100
AcDbEntity
  8
LC-001-100-D00-0
 62
     7
370
    15
100
AcDbLine
 10
-44.090181
 20
120.27253
 30
0.0
 11
-44.090181
 21
120.27253
 31
0.0
  0
LINE
  5
39F
330
395
100
AcDbEntity
  8
LC-001-100-D00-0
 62
     7
370
    15
100
AcDbLine
 10
-44.090181
 20
120.27253
 30
0.0
 11
-43.978795
 21
120.811171
 31
0.0
  0
ENDBLK
  5
397
330
395
100
AcDbEntity
  8
0
100
AcDbBlockEnd
  0
BLOCK
  5
3A2
330
3A1
100
AcDbEntity
  8
0
100
AcDbBlockBegin
  2
POLY23
 70
     0
 71
     0
 10
0.0
 20
0.0
 30
0.0
  3
POLY23
  1

  4
POLY23
  0
LINE
  5
3A4
330
3A1
100
AcDbEntity
  8
LC-001-100-D00-0
 62
     7
370
    15
100
AcDbLine
 10
-10.292634
 20
136.322397
 30
0.0
 11
-10.292634
 21
136.322397
 31
0.0
  0
LINE
  5
3A5
330
3A1
100
AcDbEntity
  8
LC-001-100-D00-0
 62
     7
370
    15
100
AcDbLine
 10
-10.292634
 20
136.322397
 30
0.0
 11
-10.295322
 21
136.274035
 31
0.0
  0
LINE
  5
3A6
330
3A1
100
AcDbEntity
  8
LC-001-100-D00-0
 62
     7
370
    15
100
AcDbLine
 10
-10.295322
 20
136.274035
 30
0.0
 11
-10.295322
 21
136.274035
 31
0.0
  0
LINE
  5
3A7
330
3A1
100
AcDbEntity
  8
LC-001-100-D00-0
 62
     7
370
    15
100
AcDbLine
 10
-10.295322
 20
136.274035
 30
0.0
 11
-10.304771
 21
136.104025
 31
0.0
  0
LINE
  5
3A8
330
3A1
100
AcDbEntity
  8
LC-001-100-D00-0
 62
     7
370
    15
100
AcDbLine
 10
-10.304771
 20
136.104025
 30
0.0
 11
-10.304771
 21
136.104025
 31
0.0
  0
LINE
  5
3A9
330
3A1
100
AcDbEntity
  8
LC-001-100-D00-0
 62
     7
370
    15
100
AcDbLine
 10
-10.304771
 20
136.104025
 30
0.0
 11
-10.349543
 21
135.911537
 31
0.0
  0
LINE
  5
3AA
330
3A1
100
AcDbEntity
  8
LC-001-100-D00-0
 62
     7
370
    15
100
AcDbLine
 10
-10.349543
 20
135.911537
 30
0.0
 11
-10.349543
 21
135.911537
 31
0.0
  0
LINE
  5
3AB
330
3A1
100
AcDbEntity
  8
LC-001-100-D00-0
 62
     7
370
    15
100
AcDbLine
 10
-10.349543
 20
135.911537
 30
0.0
 11
-10.438246
 21
135.810301
 31
0.0
  0
LINE
  5
3AC
330
3A1
100
AcDbEntity
  8
LC-001-100-D00-0
 62
     7
370
    15
100
AcDbLine
 10
-10.438246
 20
135.810301
 30
0.0
 11
-10.438246
 21
135.810301
 31
0.0
  0
LINE
  5
3AD
330
3A1
100
AcDbEntity
  8
LC-001-100-D00-0
 62
     7
370
    15
100
AcDbLine
 10
-10.438246
 20
135.810301
 30
0.0
 11
-10.446176
 21
135.801251
 31
0.0
  0
ENDBLK
  5
3A3
330
3A1
100
AcDbEntity
  8
0
100
AcDbBlockEnd
  0
BLOCK
  5
3B0
330
3AF
100
AcDbEntity
  8
0
100
AcDbBlockBegin
  2
POLY24
 70
     0
 71
     0
 10
0.0
 20
0.0
 30
0.0
  3
POLY24
  1

  4
POLY24
  0
LINE
  5
3B2
330
3AF
100
AcDbEntity
  8
LC-001-100-D00-0
 62
     7
370
    15
100
AcDbLine
 10
-10.557338
 20
135.670442
 30
0.0
 11
-10.557338
 21
135.670442
 31
0.0
  0
LINE
  5
3B3
330
3AF
100
AcDbEntity
  8
LC-001-100-D00-0
 62
     7
370
    15
100
AcDbLine
 10
-10.557338
 20
135.670442
 30
0.0
 11
-10.591482
 21
135.626038
 31
0.0
  0
LINE
  5
3B4
330
3AF
100
AcDbEntity
  8
LC-001-100-D00-0
 62
     7
370
    15
100
AcDbLine
 10
-10.591482
 20
135.626038
 30
0.0
 11
-10.591482
 21
135.626038
 31
0.0
  0
LINE
  5
3B5
330
3AF
100
AcDbEntity
  8
LC-001-100-D00-0
 62
     7
370
    15
100
AcDbLine
 10
-10.591482
 20
135.626038
 30
0.0
 11
-10.702512
 21
135.481641
 31
0.0
  0
LINE
  5
3B6
330
3AF
100
AcDbEntity
  8
LC-001-100-D00-0
 62
     7
370
    15
100
AcDbLine
 10
-10.702512
 20
135.481641
 30
0.0
 11
-10.702512
 21
135.481641
 31
0.0
  0
LINE
  5
3B7
330
3AF
100
AcDbEntity
  8
LC-001-100-D00-0
 62
     7
370
    15
100
AcDbLine
 10
-10.702512
 20
135.481641
 30
0.0
 11
-10.969829
 21
135.353271
 31
0.0
  0
LINE
  5
3B8
330
3AF
100
AcDbEntity
  8
LC-001-100-D00-0
 62
     7
370
    15
100
AcDbLine
 10
-10.969829
 20
135.353271
 30
0.0
 11
-10.969829
 21
135.353271
 31
0.0
  0
LINE
  5
3B9
330
3AF
100
AcDbEntity
  8
LC-001-100-D00-0
 62
     7
370
    15
100
AcDbLine
 10
-10.969829
 20
135.353271
 30
0.0
 11
-11.192875
 21
135.331858
 31
0.0
  0
LINE
  5
3BA
330
3AF
100
AcDbEntity
  8
LC-001-100-D00-0
 62
     7
370
    15
100
AcDbLine
 10
-11.192875
 20
135.331858
 30
0.0
 11
-11.192875
 21
135.331858
 31
0.0
  0
LINE
  5
3BB
330
3AF
100
AcDbEntity
  8
LC-001-100-D00-0
 62
     7
370
    15
100
AcDbLine
 10
-11.192875
 20
135.331858
 30
0.0
 11
-11.291437
 21
135.322395
 31
0.0
  0
ENDBLK
  5
3B1
330
3AF
100
AcDbEntity
  8
0
100
AcDbBlockEnd
  0
BLOCK
  5
3BE
330
3BD
100
AcDbEntity
  8
0
100
AcDbBlockBegin
  2
POLY25
 70
     0
 71
     0
 10
0.0
 20
0.0
 30
0.0
  3
POLY25
  1

  4
POLY25
  0
LINE
  5
3C0
330
3BD
100
AcDbEntity
  8
LC-001-100-D00-0
 62
     7
370
    15
100
AcDbLine
 10
-11.291437
 20
129.322398
 30
0.0
 11
-11.291437
 21
129.322398
 31
0.0
  0
LINE
  5
3C1
330
3BD
100
AcDbEntity
  8
LC-001-100-D00-0
 62
     7
370
    15
100
AcDbLine
 10
-11.291437
 20
129.322398
 30
0.0
 11
-10.95022
 21
129.3372
 31
0.0
  0
LINE
  5
3C2
330
3BD
100
AcDbEntity
  8
LC-001-100-D00-0
 62
     7
370
    15
100
AcDbLine
 10
-10.95022
 20
129.3372
 30
0.0
 11
-10.95022
 21
129.3372
 31
0.0
  0
LINE
  5
3C3
330
3BD
100
AcDbEntity
  8
LC-001-100-D00-0
 62
     7
370
    15
100
AcDbLine
 10
-10.95022
 20
129.3372
 30
0.0
 11
-10.113596
 21
129.373492
 31
0.0
  0
LINE
  5
3C4
330
3BD
100
AcDbEntity
  8
LC-001-100-D00-0
 62
     7
370
    15
100
AcDbLine
 10
-10.113596
 20
129.373492
 30
0.0
 11
-10.113596
 21
129.373492
 31
0.0
  0
LINE
  5
3C5
330
3BD
100
AcDbEntity
  8
LC-001-100-D00-0
 62
     7
370
    15
100
AcDbLine
 10
-10.113596
 20
129.373492
 30
0.0
 11
-8.813765
 21
129.722079
 31
0.0
  0
LINE
  5
3C6
330
3BD
100
AcDbEntity
  8
LC-001-100-D00-0
 62
     7
370
    15
100
AcDbLine
 10
-8.813765
 20
129.722079
 30
0.0
 11
-8.813765
 21
129.722079
 31
0.0
  0
LINE
  5
3C7
330
3BD
100
AcDbEntity
  8
LC-001-100-D00-0
 62
     7
370
    15
100
AcDbLine
 10
-8.813765
 20
129.722079
 30
0.0
 11
-7.476356
 21
130.390305
 31
0.0
  0
LINE
  5
3C8
330
3BD
100
AcDbEntity
  8
LC-001-100-D00-0
 62
     7
370
    15
100
AcDbLine
 10
-7.476356
 20
130.390305
 30
0.0
 11
-7.476356
 21
130.390305
 31
0.0
  0
LINE
  5
3C9
330
3BD
100
AcDbEntity
  8
LC-001-100-D00-0
 62
     7
370
    15
100
AcDbLine
 10
-7.476356
 20
130.390305
 30
0.0
 11
-6.307303
 21
131.330655
 31
0.0
  0
LINE
  5
3CA
330
3BD
100
AcDbEntity
  8
LC-001-100-D00-0
 62
     7
370
    15
100
AcDbLine
 10
-6.307303
 20
131.330655
 30
0.0
 11
-6.307303
 21
131.330655
 31
0.0
  0
LINE
  5
3CB
330
3BD
100
AcDbEntity
  8
LC-001-100-D00-0
 62
     7
370
    15
100
AcDbLine
 10
-6.307303
 20
131.330655
 30
0.0
 11
-5.37495
 21
132.497677
 31
0.0
  0
LINE
  5
3CC
330
3BD
100
AcDbEntity
  8
LC-001-100-D00-0
 62
     7
370
    15
100
AcDbLine
 10
-5.37495
 20
132.497677
 30
0.0
 11
-5.37495
 21
132.497677
 31
0.0
  0
LINE
  5
3CD
330
3BD
100
AcDbEntity
  8
LC-001-100-D00-0
 62
     7
370
    15
100
AcDbLine
 10
-5.37495
 20
132.497677
 30
0.0
 11
-4.742525
 21
133.683227
 31
0.0
  0
LINE
  5
3CE
330
3BD
100
AcDbEntity
  8
LC-001-100-D00-0
 62
     7
370
    15
100
AcDbLine
 10
-4.742525
 20
133.683227
 30
0.0
 11
-4.742525
 21
133.683227
 31
0.0
  0
LINE
  5
3CF
330
3BD
100
AcDbEntity
  8
LC-001-100-D00-0
 62
     7
370
    15
100
AcDbLine
 10
-4.742525
 20
133.683227
 30
0.0
 11
-4.562857
 21
134.496212
 31
0.0
  0
LINE
  5
3D0
330
3BD
100
AcDbEntity
  8
LC-001-100-D00-0
 62
     7
370
    15
100
AcDbLine
 10
-4.562857
 20
134.496212
 30
0.0
 11
-4.562857
 21
134.496212
 31
0.0
  0
LINE
  5
3D1
330
3BD
100
AcDbEntity
  8
LC-001-100-D00-0
 62
     7
370
    15
100
AcDbLine
 10
-4.562857
 20
134.496212
 30
0.0
 11
-4.490457
 21
134.823817
 31
0.0
  0
ENDBLK
  5
3BF
330
3BD
100
AcDbEntity
  8
0
100
AcDbBlockEnd
  0
BLOCK
  5
3DD
330
3DC
100
AcDbEntity
  8
0
100
AcDbBlockBegin
  2
KLON8
 70
     0
 71
     0
 10
0.0
 20
0.0
 30
0.0
  3
KLON8
  1

  4
KLON8
  0
LINE
  5
3DF
330
3DC
100
AcDbEntity
  8
LC-001-100-D00-0
 62
     7
370
    15
100
AcDbLine
 10
-12.946926
 20
126.07219
 30
0.0
 11
-12.985609
 21
125.98896
 31
0.0
  0
LINE
  5
3E0
330
3DC
100
AcDbEntity
  8
LC-001-100-D00-0
 62
     7
370
    15
100
AcDbLine
 10
-12.985609
 20
125.98896
 30
0.0
 11
-13.023607
 21
126.298755
 31
0.0
  0
LINE
  5
3E1
330
3DC
100
AcDbEntity
  8
LC-001-100-D00-0
 62
     7
370
    15
100
AcDbLine
 10
-13.023607
 20
126.298755
 30
0.0
 11
-13.034783
 21
126.470748
 31
0.0
  0
ENDBLK
  5
3DE
330
3DC
100
AcDbEntity
  8
0
100
AcDbBlockEnd
  0
BLOCK
  5
3E4
330
3E3
100
AcDbEntity
  8
0
100
AcDbBlockBegin
  2
KLON9
 70
     0
 71
     0
 10
0.0
 20
0.0
 30
0.0
  3
KLON9
  1

  4
KLON9
  0
LINE
  5
3E6
330
3E3
100
AcDbEntity
  8
LC-001-100-D00-0
 62
     7
370
    15
100
AcDbLine
 10
-13.01045
 20
138.49933
 30
0.0
 11
-12.985609
 21
138.655837
 31
0.0
  0
LINE
  5
3E7
330
3E3
100
AcDbEntity
  8
LC-001-100-D00-0
 62
     7
370
    15
100
AcDbLine
 10
-12.985609
 20
138.655837
 30
0.0
 11
-12.946926
 21
138.572607
 31
0.0
  0
ENDBLK
  5
3E5
330
3E3
100
AcDbEntity
  8
0
100
AcDbBlockEnd
  0
BLOCK
  5
40E
330
40D
100
AcDbEntity
  8
0
100
AcDbBlockBegin
  2
POLY26
 70
     0
 71
     0
 10
0.0
 20
0.0
 30
0.0
  3
POLY26
  1

  4
POLY26
  0
LINE
  5
410
330
40D
100
AcDbEntity
  8
LC-001-100-D00-0
 62
     7
370
    15
100
AcDbLine
 10
-4.570156
 20
136.322397
 30
0.0
 11
-4.570156
 21
136.322397
 31
0.0
  0
LINE
  5
411
330
40D
100
AcDbEntity
  8
LC-001-100-D00-0
 62
     7
370
    15
100
AcDbLine
 10
-4.570156
 20
136.322397
 30
0.0
 11
-4.644972
 21
135.561418
 31
0.0
  0
LINE
  5
412
330
40D
100
AcDbEntity
  8
LC-001-100-D00-0
 62
     7
370
    15
100
AcDbLine
 10
-4.644972
 20
135.561418
 30
0.0
 11
-4.644972
 21
135.561418
 31
0.0
  0
LINE
  5
413
330
40D
100
AcDbEntity
  8
LC-001-100-D00-0
 62
     7
370
    15
100
AcDbLine
 10
-4.644972
 20
135.561418
 30
0.0
 11
-4.794608
 21
134.039412
 31
0.0
  0
LINE
  5
414
330
40D
100
AcDbEntity
  8
LC-001-100-D00-0
 62
     7
370
    15
100
AcDbLine
 10
-4.794608
 20
134.039412
 30
0.0
 11
-4.794608
 21
134.039412
 31
0.0
  0
LINE
  5
415
330
40D
100
AcDbEntity
  8
LC-001-100-D00-0
 62
     7
370
    15
100
AcDbLine
 10
-4.794608
 20
134.039412
 30
0.0
 11
-5.961539
 21
132.011157
 31
0.0
  0
LINE
  5
416
330
40D
100
AcDbEntity
  8
LC-001-100-D00-0
 62
     7
370
    15
100
AcDbLine
 10
-5.961539
 20
132.011157
 30
0.0
 11
-5.961539
 21
132.011157
 31
0.0
  0
LINE
  5
417
330
40D
100
AcDbEntity
  8
LC-001-100-D00-0
 62
     7
370
    15
100
AcDbLine
 10
-5.961539
 20
132.011157
 30
0.0
 11
-7.678819
 21
130.480817
 31
0.0
  0
LINE
  5
418
330
40D
100
AcDbEntity
  8
LC-001-100-D00-0
 62
     7
370
    15
100
AcDbLine
 10
-7.678819
 20
130.480817
 30
0.0
 11
-7.678819
 21
130.480817
 31
0.0
  0
LINE
  5
419
330
40D
100
AcDbEntity
  8
LC-001-100-D00-0
 62
     7
370
    15
100
AcDbLine
 10
-7.678819
 20
130.480817
 30
0.0
 11
-9.558099
 21
129.681462
 31
0.0
  0
LINE
  5
41A
330
40D
100
AcDbEntity
  8
LC-001-100-D00-0
 62
     7
370
    15
100
AcDbLine
 10
-9.558099
 20
129.681462
 30
0.0
 11
-9.558099
 21
129.681462
 31
0.0
  0
LINE
  5
41B
330
40D
100
AcDbEntity
  8
LC-001-100-D00-0
 62
     7
370
    15
100
AcDbLine
 10
-9.558099
 20
129.681462
 30
0.0
 11
-10.78918
 21
129.59146
 31
0.0
  0
LINE
  5
41C
330
40D
100
AcDbEntity
  8
LC-001-100-D00-0
 62
     7
370
    15
100
AcDbLine
 10
-10.78918
 20
129.59146
 30
0.0
 11
-10.78918
 21
129.59146
 31
0.0
  0
LINE
  5
41D
330
40D
100
AcDbEntity
  8
LC-001-100-D00-0
 62
     7
370
    15
100
AcDbLine
 10
-10.78918
 20
129.59146
 30
0.0
 11
-11.262961
 21
129.556823
 31
0.0
  0
ENDBLK
  5
40F
330
40D
100
AcDbEntity
  8
0
100
AcDbBlockEnd
  0
BLOCK
  5
421
330
420
100
AcDbEntity
  8
0
100
AcDbBlockBegin
  2
POLY27
 70
     0
 71
     0
 10
0.0
 20
0.0
 30
0.0
  3
POLY27
  1

  4
POLY27
  0
LINE
  5
423
330
420
100
AcDbEntity
  8
LC-001-100-D00-0
 62
     7
370
    15
100
AcDbLine
 10
-33.269562
 20
129.387926
 30
0.0
 11
-33.269562
 21
129.387926
 31
0.0
  0
LINE
  5
424
330
420
100
AcDbEntity
  8
LC-001-100-D00-0
 62
     7
370
    15
100
AcDbLine
 10
-33.269562
 20
129.387926
 30
0.0
 11
-34.516454
 21
129.258805
 31
0.0
  0
LINE
  5
425
330
420
100
AcDbEntity
  8
LC-001-100-D00-0
 62
     7
370
    15
100
AcDbLine
 10
-34.516454
 20
129.258805
 30
0.0
 11
-34.516454
 21
129.258805
 31
0.0
  0
LINE
  5
426
330
420
100
AcDbEntity
  8
LC-001-100-D00-0
 62
     7
370
    15
100
AcDbLine
 10
-34.516454
 20
129.258805
 30
0.0
 11
-37.01026
 21
129.000561
 31
0.0
  0
LINE
  5
427
330
420
100
AcDbEntity
  8
LC-001-100-D00-0
 62
     7
370
    15
100
AcDbLine
 10
-37.01026
 20
129.000561
 30
0.0
 11
-37.01026
 21
129.000561
 31
0.0
  0
LINE
  5
428
330
420
100
AcDbEntity
  8
LC-001-100-D00-0
 62
     7
370
    15
100
AcDbLine
 10
-37.01026
 20
129.000561
 30
0.0
 11
-40.324625
 21
127.070415
 31
0.0
  0
LINE
  5
429
330
420
100
AcDbEntity
  8
LC-001-100-D00-0
 62
     7
370
    15
100
AcDbLine
 10
-40.324625
 20
127.070415
 30
0.0
 11
-40.324625
 21
127.070415
 31
0.0
  0
LINE
  5
42A
330
420
100
AcDbEntity
  8
LC-001-100-D00-0
 62
     7
370
    15
100
AcDbLine
 10
-40.324625
 20
127.070415
 30
0.0
 11
-42.81593
 21
124.243348
 31
0.0
  0
LINE
  5
42B
330
420
100
AcDbEntity
  8
LC-001-100-D00-0
 62
     7
370
    15
100
AcDbLine
 10
-42.81593
 20
124.243348
 30
0.0
 11
-42.81593
 21
124.243348
 31
0.0
  0
LINE
  5
42C
330
420
100
AcDbEntity
  8
LC-001-100-D00-0
 62
     7
370
    15
100
AcDbLine
 10
-42.81593
 20
124.243348
 30
0.0
 11
-44.113246
 21
121.144515
 31
0.0
  0
LINE
  5
42D
330
420
100
AcDbEntity
  8
LC-001-100-D00-0
 62
     7
370
    15
100
AcDbLine
 10
-44.113246
 20
121.144515
 30
0.0
 11
-44.113246
 21
121.144515
 31
0.0
  0
LINE
  5
42E
330
420
100
AcDbEntity
  8
LC-001-100-D00-0
 62
     7
370
    15
100
AcDbLine
 10
-44.113246
 20
121.144515
 30
0.0
 11
-44.243195
 21
119.113175
 31
0.0
  0
LINE
  5
42F
330
420
100
AcDbEntity
  8
LC-001-100-D00-0
 62
     7
370
    15
100
AcDbLine
 10
-44.243195
 20
119.113175
 30
0.0
 11
-44.243195
 21
119.113175
 31
0.0
  0
LINE
  5
430
330
420
100
AcDbEntity
  8
LC-001-100-D00-0
 62
     7
370
    15
100
AcDbLine
 10
-44.243195
 20
119.113175
 30
0.0
 11
-44.293783
 21
118.322398
 31
0.0
  0
ENDBLK
  5
422
330
420
100
AcDbEntity
  8
0
100
AcDbBlockEnd
  0
BLOCK
  5
436
330
435
100
AcDbEntity
  8
0
100
AcDbBlockBegin
  2
POLY28
 70
     0
 71
     0
 10
0.0
 20
0.0
 30
0.0
  3
POLY28
  1

  4
POLY28
  0
LINE
  5
438
330
435
100
AcDbEntity
  8
LC-001-100-D00-0
 62
     7
370
    15
100
AcDbLine
 10
-50.267488
 20
118.322398
 30
0.0
 11
-50.267488
 21
118.322398
 31
0.0
  0
LINE
  5
439
330
435
100
AcDbEntity
  8
LC-001-100-D00-0
 62
     7
370
    15
100
AcDbLine
 10
-50.267488
 20
118.322398
 30
0.0
 11
-50.219991
 21
119.275699
 31
0.0
  0
LINE
  5
43A
330
435
100
AcDbEntity
  8
LC-001-100-D00-0
 62
     7
370
    15
100
AcDbLine
 10
-50.219991
 20
119.275699
 30
0.0
 11
-50.219991
 21
119.275699
 31
0.0
  0
LINE
  5
43B
330
435
100
AcDbEntity
  8
LC-001-100-D00-0
 62
     7
370
    15
100
AcDbLine
 10
-50.219991
 20
119.275699
 30
0.0
 11
-50.124998
 21
121.182299
 31
0.0
  0
LINE
  5
43C
330
435
100
AcDbEntity
  8
LC-001-100-D00-0
 62
     7
370
    15
100
AcDbLine
 10
-50.124998
 20
121.182299
 30
0.0
 11
-50.124998
 21
121.182299
 31
0.0
  0
LINE
  5
43D
330
435
100
AcDbEntity
  8
LC-001-100-D00-0
 62
     7
370
    15
100
AcDbLine
 10
-50.124998
 20
121.182299
 30
0.0
 11
-49.383318
 21
123.96277
 31
0.0
  0
LINE
  5
43E
330
435
100
AcDbEntity
  8
LC-001-100-D00-0
 62
     7
370
    15
100
AcDbLine
 10
-49.383318
 20
123.96277
 30
0.0
 11
-49.383318
 21
123.96277
 31
0.0
  0
LINE
  5
43F
330
435
100
AcDbEntity
  8
LC-001-100-D00-0
 62
     7
370
    15
100
AcDbLine
 10
-49.383318
 20
123.96277
 30
0.0
 11
-48.211007
 21
126.579754
 31
0.0
  0
LINE
  5
440
330
435
100
AcDbEntity
  8
LC-001-100-D00-0
 62
     7
370
    15
100
AcDbLine
 10
-48.211007
 20
126.579754
 30
0.0
 11
-48.211007
 21
126.579754
 31
0.0
  0
LINE
  5
441
330
435
100
AcDbEntity
  8
LC-001-100-D00-0
 62
     7
370
    15
100
AcDbLine
 10
-48.211007
 20
126.579754
 30
0.0
 11
-46.615047
 21
128.966396
 31
0.0
  0
LINE
  5
442
330
435
100
AcDbEntity
  8
LC-001-100-D00-0
 62
     7
370
    15
100
AcDbLine
 10
-46.615047
 20
128.966396
 30
0.0
 11
-46.615047
 21
128.966396
 31
0.0
  0
LINE
  5
443
330
435
100
AcDbEntity
  8
LC-001-100-D00-0
 62
     7
370
    15
100
AcDbLine
 10
-46.615047
 20
128.966396
 30
0.0
 11
-44.636475
 21
131.04279
 31
0.0
  0
LINE
  5
444
330
435
100
AcDbEntity
  8
LC-001-100-D00-0
 62
     7
370
    15
100
AcDbLine
 10
-44.636475
 20
131.04279
 30
0.0
 11
-44.636475
 21
131.04279
 31
0.0
  0
LINE
  5
445
330
435
100
AcDbEntity
  8
LC-001-100-D00-0
 62
     7
370
    15
100
AcDbLine
 10
-44.636475
 20
131.04279
 30
0.0
 11
-42.344074
 21
132.766427
 31
0.0
  0
LINE
  5
446
330
435
100
AcDbEntity
  8
LC-001-100-D00-0
 62
     7
370
    15
100
AcDbLine
 10
-42.344074
 20
132.766427
 30
0.0
 11
-42.344074
 21
132.766427
 31
0.0
  0
LINE
  5
447
330
435
100
AcDbEntity
  8
LC-001-100-D00-0
 62
     7
370
    15
100
AcDbLine
 10
-42.344074
 20
132.766427
 30
0.0
 11
-39.791464
 21
134.06039
 31
0.0
  0
LINE
  5
448
330
435
100
AcDbEntity
  8
LC-001-100-D00-0
 62
     7
370
    15
100
AcDbLine
 10
-39.791464
 20
134.06039
 30
0.0
 11
-39.791464
 21
134.06039
 31
0.0
  0
LINE
  5
449
330
435
100
AcDbEntity
  8
LC-001-100-D00-0
 62
     7
370
    15
100
AcDbLine
 10
-39.791464
 20
134.06039
 30
0.0
 11
-36.759507
 21
135.052497
 31
0.0
  0
LINE
  5
44A
330
435
100
AcDbEntity
  8
LC-001-100-D00-0
 62
     7
370
    15
100
AcDbLine
 10
-36.759507
 20
135.052497
 30
0.0
 11
-36.759507
 21
135.052497
 31
0.0
  0
LINE
  5
44B
330
435
100
AcDbEntity
  8
LC-001-100-D00-0
 62
     7
370
    15
100
AcDbLine
 10
-36.759507
 20
135.052497
 30
0.0
 11
-34.538124
 21
135.182581
 31
0.0
  0
LINE
  5
44C
330
435
100
AcDbEntity
  8
LC-001-100-D00-0
 62
     7
370
    15
100
AcDbLine
 10
-34.538124
 20
135.182581
 30
0.0
 11
-34.538124
 21
135.182581
 31
0.0
  0
LINE
  5
44D
330
435
100
AcDbEntity
  8
LC-001-100-D00-0
 62
     7
370
    15
100
AcDbLine
 10
-34.538124
 20
135.182581
 30
0.0
 11
-33.269562
 21
135.256867
 31
0.0
  0
ENDBLK
  5
437
330
435
100
AcDbEntity
  8
0
100
AcDbBlockEnd
  0
BLOCK
  5
451
330
450
100
AcDbEntity
  8
0
100
AcDbBlockBegin
  2
POLY29
 70
     0
 71
     0
 10
0.0
 20
0.0
 30
0.0
  3
POLY29
  1

  4
POLY29
  0
LINE
  5
453
330
450
100
AcDbEntity
  8
LC-001-100-D00-0
 62
     7
370
    15
100
AcDbLine
 10
-11.262961
 20
135.08797
 30
0.0
 11
-11.262961
 21
135.08797
 31
0.0
  0
LINE
  5
454
330
450
100
AcDbEntity
  8
LC-001-100-D00-0
 62
     7
370
    15
100
AcDbLine
 10
-11.262961
 20
135.08797
 30
0.0
 11
-11.111206
 21
135.102623
 31
0.0
  0
LINE
  5
455
330
450
100
AcDbEntity
  8
LC-001-100-D00-0
 62
     7
370
    15
100
AcDbLine
 10
-11.111206
 20
135.102623
 30
0.0
 11
-11.111206
 21
135.102623
 31
0.0
  0
LINE
  5
456
330
450
100
AcDbEntity
  8
LC-001-100-D00-0
 62
     7
370
    15
100
AcDbLine
 10
-11.111206
 20
135.102623
 30
0.0
 11
-10.820235
 21
135.13072
 31
0.0
  0
LINE
  5
457
330
450
100
AcDbEntity
  8
LC-001-100-D00-0
 62
     7
370
    15
100
AcDbLine
 10
-10.820235
 20
135.13072
 30
0.0
 11
-10.820235
 21
135.13072
 31
0.0
  0
LINE
  5
458
330
450
100
AcDbEntity
  8
LC-001-100-D00-0
 62
     7
370
    15
100
AcDbLine
 10
-10.820235
 20
135.13072
 30
0.0
 11
-10.443318
 21
135.358264
 31
0.0
  0
LINE
  5
459
330
450
100
AcDbEntity
  8
LC-001-100-D00-0
 62
     7
370
    15
100
AcDbLine
 10
-10.443318
 20
135.358264
 30
0.0
 11
-10.443318
 21
135.358264
 31
0.0
  0
LINE
  5
45A
330
450
100
AcDbEntity
  8
LC-001-100-D00-0
 62
     7
370
    15
100
AcDbLine
 10
-10.443318
 20
135.358264
 30
0.0
 11
-10.17041
 21
135.677303
 31
0.0
  0
LINE
  5
45B
330
450
100
AcDbEntity
  8
LC-001-100-D00-0
 62
     7
370
    15
100
AcDbLine
 10
-10.17041
 20
135.677303
 30
0.0
 11
-10.17041
 21
135.677303
 31
0.0
  0
LINE
  5
45C
330
450
100
AcDbEntity
  8
LC-001-100-D00-0
 62
     7
370
    15
100
AcDbLine
 10
-10.17041
 20
135.677303
 30
0.0
 11
-10.033261
 21
136.019325
 31
0.0
  0
LINE
  5
45D
330
450
100
AcDbEntity
  8
LC-001-100-D00-0
 62
     7
370
    15
100
AcDbLine
 10
-10.033261
 20
136.019325
 30
0.0
 11
-10.033261
 21
136.019325
 31
0.0
  0
LINE
  5
45E
330
450
100
AcDbEntity
  8
LC-001-100-D00-0
 62
     7
370
    15
100
AcDbLine
 10
-10.033261
 20
136.019325
 30
0.0
 11
-10.020042
 21
136.240019
 31
0.0
  0
LINE
  5
45F
330
450
100
AcDbEntity
  8
LC-001-100-D00-0
 62
     7
370
    15
100
AcDbLine
 10
-10.020042
 20
136.240019
 30
0.0
 11
-10.020042
 21
136.240019
 31
0.0
  0
LINE
  5
460
330
450
100
AcDbEntity
  8
LC-001-100-D00-0
 62
     7
370
    15
100
AcDbLine
 10
-10.020042
 20
136.240019
 30
0.0
 11
-10.015107
 21
136.322397
 31
0.0
  0
ENDBLK
  5
452
330
450
100
AcDbEntity
  8
0
100
AcDbBlockEnd
  0
ENDSEC
  0
SECTION
  2
ENTITIES
  0
LINE
  5
31
330
1F
100
AcDbEntity
  8
LC-001-100-D00-0
 62
     7
370
    50
100
AcDbLine
 10
141.00954
 20
184.02389
 30
0.0
 11
141.00954
 21
186.523888
 31
0.0
  0
LINE
  5
32
330
1F
100
AcDbEntity
  8
LC-001-100-D00-0
 62
     7
370
    50
100
AcDbLine
 10
-13.490453
 20
186.523888
 30
0.0
 11
-13.490453
 21
184.02389
 31
0.0
  0
LINE
  5
33
330
1F
100
AcDbEntity
  8
LC-001-100-D00-0
 62
     7
370
    50
100
AcDbLine
 10
-12.335755
 20
182.023886
 30
0.0
 11
-5.490459
 21
182.023886
 31
0.0
  0
LINE
  5
34
330
1F
100
AcDbEntity
  8
LC-001-100-D00-0
 62
     7
370
    50
100
AcDbLine
 10
-13.490453
 20
184.02389
 30
0.0
 11
-12.335755
 21
182.023886
 31
0.0
  0
LINE
  5
35
330
1F
100
AcDbEntity
  8
LC-001-100-D00-0
 62
     7
370
    50
100
AcDbLine
 10
-2.990454
 20
186.523888
 30
0.0
 11
-13.490453
 21
186.523888
 31
0.0
  0
ARC
  5
36
330
1F
100
AcDbEntity
  8
LC-001-100-D00-0
 62
     7
370
    50
100
AcDbCircle
 10
-2.990457
 20
184.523888
 30
0.0
 40
2.0
100
AcDbArc
 50
0.0
 51
90.0
  0
LINE
  5
37
330
1F
100
AcDbEntity
  8
LC-001-100-D00-0
 62
     7
370
    50
100
AcDbLine
 10
-0.990458
 20
184.02389
 30
0.0
 11
-0.990458
 21
184.523891
 31
0.0
  0
LINE
  5
38
330
1F
100
AcDbEntity
  8
LC-001-100-D00-0
 62
     7
370
    50
100
AcDbLine
 10
-3.490455
 20
184.02389
 30
0.0
 11
-0.990458
 21
184.02389
 31
0.0
  0
ARC
  5
39
330
1F
100
AcDbEntity
  8
LC-001-100-D00-0
 62
     7
370
    50
100
AcDbCircle
 10
-3.490457
 20
182.023888
 30
0.0
 40
2.000000000000114
100
AcDbArc
 50
90.0
 51
180.0
  0
LINE
  5
3A
330
1F
100
AcDbEntity
  8
LC-001-100-D00-0
 62
     7
370
    50
100
AcDbLine
 10
139.854841
 20
182.023886
 30
0.0
 11
141.00954
 21
184.02389
 31
0.0
  0
LINE
  5
3B
330
1F
100
AcDbEntity
  8
LC-001-100-D00-0
 62
     7
370
    50
100
AcDbLine
 10
128.509544
 20
184.523891
 30
0.0
 11
128.509544
 21
184.02389
 31
0.0
  0
LINE
  5
3C
330
1F
100
AcDbEntity
  8
LC-001-100-D00-0
 62
     7
370
    50
100
AcDbLine
 10
-0.990458
 20
184.02389
 30
0.0
 11
128.509544
 21
184.02389
 31
0.0
  0
ARC
  5
3D
330
1F
100
AcDbEntity
  8
LC-001-100-D00-0
 62
     7
370
    50
100
AcDbCircle
 10
130.509543
 20
184.523888
 30
0.0
 40
2.000000000000114
100
AcDbArc
 50
90.0
 51
180.0
  0
ARC
  5
3E
330
1F
100
AcDbEntity
  8
LC-001-100-D00-0
 62
     7
370
    50
100
AcDbCircle
 10
131.009543
 20
182.023888
 30
0.0
 40
2.0
100
AcDbArc
 50
0.0
 51
90.0
  0
LINE
  5
3F
330
1F
100
AcDbEntity
  8
LC-001-100-D00-0
 62
     7
370
    50
100
AcDbLine
 10
128.509544
 20
184.02389
 30
0.0
 11
131.009542
 21
184.02389
 31
0.0
  0
LINE
  5
40
330
1F
100
AcDbEntity
  8
LC-001-100-D00-0
 62
     7
370
    50
100
AcDbLine
 10
133.009546
 20
182.023886
 30
0.0
 11
139.854841
 21
182.023886
 31
0.0
  0
LINE
  5
41
330
1F
100
AcDbEntity
  8
LC-001-100-D00-0
 62
     7
370
    50
100
AcDbLine
 10
141.00954
 20
186.523888
 30
0.0
 11
130.509541
 21
186.523888
 31
0.0
  0
LINE
  5
42
330
1F
100
AcDbEntity
  8
LC-001-100-D00-0
 62
     7
370
    50
100
AcDbLine
 10
-2.990454
 20
186.523888
 30
0.0
 11
130.509541
 21
186.523888
 31
0.0
  0
LINE
  5
43
330
1F
100
AcDbEntity
  8
LC-001-100-D00-0
 62
     7
370
    50
100
AcDbLine
 10
-5.490459
 20
182.023886
 30
0.0
 11
133.009546
 21
182.023886
 31
0.0
  0
LINE
  5
44
330
1F
100
AcDbEntity
  8
LC-001-100-D00-0
 62
     7
370
    50
100
AcDbLine
 10
-9.140454
 20
178.524341
 30
0.0
 11
-12.840457
 21
178.524341
 31
0.0
  0
LINE
  5
45
330
1F
100
AcDbEntity
  8
LC-001-100-D00-0
 62
     7
370
    50
100
AcDbLine
 10
-12.840457
 20
178.524341
 30
0.0
 11
-13.490453
 21
56.822397
 31
0.0
  0
LINE
  5
46
330
1F
100
AcDbEntity
  8
LC-001-100-D00-0
 62
     7
370
    50
100
AcDbLine
 10
-13.490453
 20
56.822397
 30
0.0
 11
-15.000708
 21
56.822397
 31
0.0
  0
LINE
  5
47
330
1F
100
AcDbEntity
  8
LC-001-100-D00-0
 62
     7
370
    50
100
AcDbLine
 10
-15.000708
 20
56.822397
 30
0.0
 11
-16.340457
 21
61.822397
 31
0.0
  0
LINE
  5
48
330
1F
100
AcDbEntity
  8
LC-001-100-D00-0
 62
     7
370
    50
100
AcDbLine
 10
-16.340457
 20
61.822397
 30
0.0
 11
-16.340457
 21
195.422392
 31
0.0
  0
LINE
  5
49
330
1F
100
AcDbEntity
  8
LC-001-100-D00-0
 62
     7
370
    50
100
AcDbLine
 10
-16.340457
 20
195.422392
 30
0.0
 11
-18.490441
 21
199.222397
 31
0.0
  0
LINE
  5
4A
330
1F
100
AcDbEntity
  8
LC-001-100-D00-0
 62
     7
370
    50
100
AcDbLine
 10
-18.490441
 20
199.222397
 30
0.0
 11
-18.490456
 21
213.322739
 31
0.0
  0
LINE
  5
4B
330
1F
100
AcDbEntity
  8
LC-001-100-D00-0
 62
     7
370
    50
100
AcDbLine
 10
-18.490456
 20
213.322739
 30
0.0
 11
-100.240461
 21
213.322739
 31
0.0
  0
LINE
  5
4C
330
1F
100
AcDbEntity
  8
LC-001-100-D00-0
 62
     7
370
    50
100
AcDbLine
 10
-100.240461
 20
214.822318
 30
0.0
 11
-100.240461
 21
213.322739
 31
0.0
  0
LINE
  5
4D
330
1F
100
AcDbEntity
  8
LC-001-100-D00-0
 62
     7
370
    50
100
AcDbLine
 10
-100.240461
 20
214.822318
 30
0.0
 11
-98.240457
 21
216.822322
 31
0.0
  0
LINE
  5
4E
330
1F
100
AcDbEntity
  8
LC-001-100-D00-0
 62
     7
370
    50
100
AcDbLine
 10
-98.240457
 20
216.822322
 30
0.0
 11
-15.990451
 21
216.822322
 31
0.0
  0
ARC
  5
4F
330
1F
100
AcDbEntity
  8
LC-001-100-D00-0
 62
     7
370
    50
100
AcDbCircle
 10
-15.990454
 20
215.822317
 30
0.0
 40
0.9999999999998318
100
AcDbArc
 50
0.000172
 51
90.0
  0
LINE
  5
50
330
1F
100
AcDbEntity
  8
LC-001-100-D00-0
 62
     7
370
    50
100
AcDbLine
 10
-14.990456
 20
215.82232
 30
0.0
 11
-14.990404
 21
200.12423
 31
0.0
  0
LINE
  5
51
330
1F
100
AcDbEntity
  8
LC-001-100-D00-0
 62
     7
370
    50
100
AcDbLine
 10
-14.990404
 20
200.12423
 30
0.0
 11
-10.990545
 21
193.222399
 31
0.0
  0
LINE
  5
52
330
1F
100
AcDbEntity
  8
LC-001-100-D00-0
 62
     7
370
    50
100
AcDbLine
 10
-10.990545
 20
193.222399
 30
0.0
 11
-10.990545
 21
192.322399
 31
0.0
  0
LINE
  5
53
330
1F
100
AcDbEntity
  8
LC-001-100-D00-0
 62
     7
370
    50
100
AcDbLine
 10
-10.990545
 20
192.322399
 30
0.0
 11
-11.740453
 21
191.879313
 31
0.0
  0
LINE
  5
54
330
1F
100
AcDbEntity
  8
LC-001-100-D00-0
 62
     7
370
    50
100
AcDbLine
 10
-11.740453
 20
191.879313
 30
0.0
 11
-11.740453
 21
187.622394
 31
0.0
  0
LINE
  5
55
330
1F
100
AcDbEntity
  8
LC-001-100-D00-0
 62
     7
370
    50
100
AcDbLine
 10
-11.740453
 20
187.622394
 30
0.0
 11
-13.240456
 21
186.622399
 31
0.0
  0
LINE
  5
56
330
1F
100
AcDbEntity
  8
LC-001-100-D00-0
 62
     7
370
    50
100
AcDbLine
 10
-13.240456
 20
186.622399
 30
0.0
 11
-13.240456
 21
182.023886
 31
0.0
  0
LINE
  5
57
330
1F
100
AcDbEntity
  8
LC-001-100-D00-0
 62
     7
370
    50
100
AcDbLine
 10
-13.240456
 20
182.023886
 30
0.0
 11
-6.640456
 21
182.023886
 31
0.0
  0
ARC
  5
58
330
1F
100
AcDbEntity
  8
LC-001-100-D00-0
 62
     7
370
    50
100
AcDbCircle
 10
-6.640457
 20
181.023888
 30
0.0
 40
1.000000000000114
100
AcDbArc
 50
0.0
 51
90.0
  0
LINE
  5
59
330
1F
100
AcDbEntity
  8
LC-001-100-D00-0
 62
     7
370
    50
100
AcDbLine
 10
-5.640454
 20
181.023891
 30
0.0
 11
-5.640454
 21
173.822399
 31
0.0
  0
ARC
  5
5A
330
1F
100
AcDbEntity
  8
LC-001-100-D00-0
 62
     7
370
    50
100
AcDbCircle
 10
-4.640457
 20
173.822397
 30
0.0
 40
1.0
100
AcDbArc
 50
180.0
 51
270.0
  0
LINE
  5
5B
330
1F
100
AcDbEntity
  8
LC-001-100-D00-0
 62
     7
370
    50
100
AcDbLine
 10
-4.64046
 20
172.822397
 30
0.0
 11
-0.740453
 21
172.822397
 31
0.0
  0
ARC
  5
5C
330
1F
100
AcDbEntity
  8
LC-001-100-D00-0
 62
     7
370
    50
100
AcDbCircle
 10
-0.740457
 20
171.822397
 30
0.0
 40
1.000000000000114
100
AcDbArc
 50
0.0
 51
90.0
  0
LINE
  5
5D
330
1F
100
AcDbEntity
  8
LC-001-100-D00-0
 62
     7
370
    50
100
AcDbLine
 10
0.259541
 20
171.822395
 30
0.0
 11
0.259541
 21
129.822399
 31
0.0
  0
LINE
  5
5E
330
1F
100
AcDbEntity
  8
LC-001-100-D00-0
 62
     7
370
    50
100
AcDbLine
 10
0.259541
 20
129.822399
 30
0.0
 11
-3.240458
 21
129.822399
 31
0.0
  0
LINE
  5
5F
330
1F
100
AcDbEntity
  8
LC-001-100-D00-0
 62
     7
370
    50
100
AcDbLine
 10
-3.240458
 20
129.822399
 30
0.0
 11
-3.240458
 21
169.322397
 31
0.0
  0
LINE
  5
60
330
1F
100
AcDbEntity
  8
LC-001-100-D00-0
 62
     7
370
    50
100
AcDbLine
 10
-3.240458
 20
169.322397
 30
0.0
 11
-6.640456
 21
169.322397
 31
0.0
  0
ARC
  5
61
330
1F
100
AcDbEntity
  8
LC-001-100-D00-0
 62
     7
370
    50
100
AcDbCircle
 10
-6.640457
 20
171.822397
 30
0.0
 40
2.5
100
AcDbArc
 50
180.0
 51
270.0
  0
LINE
  5
62
330
1F
100
AcDbEntity
  8
LC-001-100-D00-0
 62
     7
370
    50
100
AcDbLine
 10
-9.140454
 20
171.822395
 30
0.0
 11
-9.140454
 21
178.524341
 31
0.0
  0
LINE
  5
63
330
1F
100
AcDbEntity
  8
LC-001-100-D00-0
 62
     7
370
    50
100
AcDbLine
 10
143.859543
 20
61.822397
 30
0.0
 11
142.519795
 21
56.822397
 31
0.0
  0
LINE
  5
64
330
1F
100
AcDbEntity
  8
LC-001-100-D00-0
 62
     7
370
    50
100
AcDbLine
 10
141.00954
 20
56.822397
 30
0.0
 11
140.359543
 21
178.524341
 31
0.0
  0
LINE
  5
65
330
1F
100
AcDbEntity
  8
LC-001-100-D00-0
 62
     7
370
    50
100
AcDbLine
 10
141.00954
 20
56.822397
 30
0.0
 11
-13.490453
 21
56.822397
 31
0.0
  0
ARC
  5
66
330
1F
100
AcDbEntity
  8
LC-001-100-D00-0
 62
     7
370
    50
100
AcDbCircle
 10
134.159543
 20
171.822397
 30
0.0
 40
2.5
100
AcDbArc
 50
270.0
 51
0.0
  0
LINE
  5
67
330
1F
100
AcDbEntity
  8
LC-001-100-D00-0
 62
     7
370
    50
100
AcDbLine
 10
134.159543
 20
169.322397
 30
0.0
 11
130.759545
 21
169.322397
 31
0.0
  0
LINE
  5
68
330
1F
100
AcDbEntity
  8
LC-001-100-D00-0
 62
     7
370
    50
100
AcDbLine
 10
130.759545
 20
169.322397
 30
0.0
 11
130.759545
 21
129.822399
 31
0.0
  0
LINE
  5
69
330
1F
100
AcDbEntity
  8
LC-001-100-D00-0
 62
     7
370
    50
100
AcDbLine
 10
130.759545
 20
129.822399
 30
0.0
 11
127.259545
 21
129.822399
 31
0.0
  0
LINE
  5
6A
330
1F
100
AcDbEntity
  8
LC-001-100-D00-0
 62
     7
370
    50
100
AcDbLine
 10
127.259545
 20
129.822399
 30
0.0
 11
127.259545
 21
171.822395
 31
0.0
  0
ARC
  5
6B
330
1F
100
AcDbEntity
  8
LC-001-100-D00-0
 62
     7
370
    50
100
AcDbCircle
 10
128.259543
 20
171.822397
 30
0.0
 40
1.0
100
AcDbArc
 50
90.0
 51
180.0
  0
LINE
  5
6C
330
1F
100
AcDbEntity
  8
LC-001-100-D00-0
 62
     7
370
    50
100
AcDbLine
 10
128.25954
 20
172.822397
 30
0.0
 11
132.159546
 21
172.822397
 31
0.0
  0
ARC
  5
6D
330
1F
100
AcDbEntity
  8
LC-001-100-D00-0
 62
     7
370
    50
100
AcDbCircle
 10
132.159543
 20
173.822397
 30
0.0
 40
0.9999999999998863
100
AcDbArc
 50
270.0
 51
0.0
  0
LINE
  5
6E
330
1F
100
AcDbEntity
  8
LC-001-100-D00-0
 62
     7
370
    50
100
AcDbLine
 10
133.159541
 20
173.822399
 30
0.0
 11
133.159541
 21
181.023891
 31
0.0
  0
ARC
  5
6F
330
1F
100
AcDbEntity
  8
LC-001-100-D00-0
 62
     7
370
    50
100
AcDbCircle
 10
134.159543
 20
181.023888
 30
0.0
 40
1.000000000000114
100
AcDbArc
 50
90.0
 51
180.0
  0
LINE
  5
70
330
1F
100
AcDbEntity
  8
LC-001-100-D00-0
 62
     7
370
    50
100
AcDbLine
 10
134.159543
 20
182.023886
 30
0.0
 11
140.759543
 21
182.023886
 31
0.0
  0
LINE
  5
71
330
1F
100
AcDbEntity
  8
LC-001-100-D00-0
 62
     7
370
    50
100
AcDbLine
 10
140.759543
 20
182.023886
 30
0.0
 11
140.759543
 21
186.622399
 31
0.0
  0
LINE
  5
72
330
1F
100
AcDbEntity
  8
LC-001-100-D00-0
 62
     7
370
    50
100
AcDbLine
 10
140.759543
 20
186.622399
 30
0.0
 11
139.25954
 21
187.622394
 31
0.0
  0
LINE
  5
73
330
1F
100
AcDbEntity
  8
LC-001-100-D00-0
 62
     7
370
    50
100
AcDbLine
 10
139.25954
 20
187.622394
 30
0.0
 11
139.25954
 21
191.879313
 31
0.0
  0
LINE
  5
74
330
1F
100
AcDbEntity
  8
LC-001-100-D00-0
 62
     7
370
    50
100
AcDbLine
 10
139.25954
 20
191.879313
 30
0.0
 11
138.509631
 21
192.322399
 31
0.0
  0
LINE
  5
75
330
1F
100
AcDbEntity
  8
LC-001-100-D00-0
 62
     7
370
    50
100
AcDbLine
 10
138.509631
 20
192.322399
 30
0.0
 11
138.509631
 21
193.222399
 31
0.0
  0
LINE
  5
76
330
1F
100
AcDbEntity
  8
LC-001-100-D00-0
 62
     7
370
    50
100
AcDbLine
 10
138.509631
 20
193.222399
 30
0.0
 11
142.50949
 21
200.12423
 31
0.0
  0
LINE
  5
77
330
1F
100
AcDbEntity
  8
LC-001-100-D00-0
 62
     7
370
    50
100
AcDbLine
 10
142.50949
 20
200.12423
 30
0.0
 11
142.509543
 21
215.82232
 31
0.0
  0
ARC
  5
78
330
1F
100
AcDbEntity
  8
LC-001-100-D00-0
 62
     7
370
    50
100
AcDbCircle
 10
143.50954
 20
215.822317
 30
0.0
 40
1.000000000000114
100
AcDbArc
 50
90.0
 51
179.999828
  0
LINE
  5
79
330
1F
100
AcDbEntity
  8
LC-001-100-D00-0
 62
     7
370
    50
100
AcDbLine
 10
143.509537
 20
216.822322
 30
0.0
 11
225.759544
 21
216.822322
 31
0.0
  0
LINE
  5
7A
330
1F
100
AcDbEntity
  8
LC-001-100-D00-0
 62
     7
370
    50
100
AcDbLine
 10
225.759544
 20
216.822322
 30
0.0
 11
227.759548
 21
214.822318
 31
0.0
  0
LINE
  5
7B
330
1F
100
AcDbEntity
  8
LC-001-100-D00-0
 62
     7
370
    50
100
AcDbLine
 10
227.759548
 20
213.322739
 30
0.0
 11
227.759548
 21
214.822318
 31
0.0
  0
LINE
  5
7C
330
1F
100
AcDbEntity
  8
LC-001-100-D00-0
 62
     7
370
    50
100
AcDbLine
 10
227.759548
 20
213.322739
 30
0.0
 11
146.009542
 21
213.322739
 31
0.0
  0
LINE
  5
7D
330
1F
100
AcDbEntity
  8
LC-001-100-D00-0
 62
     7
370
    50
100
AcDbLine
 10
146.009542
 20
213.322739
 30
0.0
 11
146.009527
 21
199.222397
 31
0.0
  0
LINE
  5
7E
330
1F
100
AcDbEntity
  8
LC-001-100-D00-0
 62
     7
370
    50
100
AcDbLine
 10
146.009527
 20
199.222397
 30
0.0
 11
143.859543
 21
195.422392
 31
0.0
  0
LINE
  5
7F
330
1F
100
AcDbEntity
  8
LC-001-100-D00-0
 62
     7
370
    50
100
AcDbLine
 10
143.859543
 20
195.422392
 30
0.0
 11
143.859543
 21
61.822397
 31
0.0
  0
LINE
  5
80
330
1F
100
AcDbEntity
  8
LC-001-100-D00-0
 62
     7
370
    50
100
AcDbLine
 10
140.359543
 20
178.524341
 30
0.0
 11
136.65954
 21
178.524341
 31
0.0
  0
LINE
  5
81
330
1F
100
AcDbEntity
  8
LC-001-100-D00-0
 62
     7
370
    50
100
AcDbLine
 10
136.65954
 20
178.524341
 30
0.0
 11
136.65954
 21
171.822395
 31
0.0
  0
LINE
  5
82
330
1F
100
AcDbEntity
  8
LC-001-100-D00-0
 62
     7
370
    50
100
AcDbLine
 10
142.519795
 20
56.822397
 30
0.0
 11
141.00954
 21
56.822397
 31
0.0
  0
LINE
  5
83
330
1F
100
AcDbEntity
  8
LC-001-100-D00-0
 62
     7
370
    50
100
AcDbLine
 10
-0.740453
 20
172.822397
 30
0.0
 11
128.25954
 21
172.822397
 31
0.0
  0
LINE
  5
84
330
1F
100
AcDbEntity
  8
LC-001-100-D00-0
 62
     7
370
    50
100
AcDbLine
 10
140.759543
 20
186.622399
 30
0.0
 11
-13.240456
 21
186.622399
 31
0.0
  0
LINE
  5
85
330
1F
100
AcDbEntity
  8
LC-001-100-D00-0
 62
     7
370
    50
100
AcDbLine
 10
139.25954
 20
187.622394
 30
0.0
 11
-11.740453
 21
187.622394
 31
0.0
  0
LINE
  5
86
330
1F
100
AcDbEntity
  8
LC-001-100-D00-0
 62
     7
370
    50
100
AcDbLine
 10
142.50949
 20
200.12423
 30
0.0
 11
139.777623
 21
200.12423
 31
0.0
  0
LINE
  5
87
330
1F
100
AcDbEntity
  8
LC-001-100-D00-0
 62
     7
370
    50
100
AcDbLine
 10
77.55964
 20
200.12423
 30
0.0
 11
75.55964
 21
200.12423
 31
0.0
  0
LINE
  5
88
330
1F
100
AcDbEntity
  8
LC-001-100-D00-0
 62
     7
370
    50
100
AcDbLine
 10
51.95956
 20
200.12423
 30
0.0
 11
49.959561
 21
200.12423
 31
0.0
  0
LINE
  5
89
330
1F
100
AcDbEntity
  8
LC-001-100-D00-0
 62
     7
370
    50
100
AcDbLine
 10
-12.258537
 20
200.12423
 30
0.0
 11
-14.990404
 21
200.12423
 31
0.0
  0
LINE
  5
8A
330
1F
100
AcDbEntity
  8
LC-001-100-D00-0
 62
     7
370
    50
100
AcDbLine
 10
127.259545
 20
129.822399
 30
0.0
 11
0.259541
 21
129.822399
 31
0.0
  0
LINE
  5
8B
330
1F
100
AcDbEntity
  8
LC-001-100-D00-0
 62
     7
370
    50
100
AcDbLine
 10
139.25954
 20
191.879313
 30
0.0
 11
137.659542
 21
191.879313
 31
0.0
  0
LINE
  5
8C
330
1F
100
AcDbEntity
  8
LC-001-100-D00-0
 62
     7
370
    50
100
AcDbLine
 10
133.77212
 20
191.879313
 30
0.0
 11
75.55964
 21
191.879313
 31
0.0
  0
LINE
  5
8D
330
1F
100
AcDbEntity
  8
LC-001-100-D00-0
 62
     7
370
    50
100
AcDbLine
 10
51.95956
 20
191.879313
 30
0.0
 11
-6.253011
 21
191.879313
 31
0.0
  0
LINE
  5
8E
330
1F
100
AcDbEntity
  8
LC-001-100-D00-0
 62
     7
370
    50
100
AcDbLine
 10
-10.140456
 20
191.879313
 30
0.0
 11
-11.740453
 21
191.879313
 31
0.0
  0
LINE
  5
8F
330
1F
100
AcDbEntity
  8
LC-001-100-D00-0
 62
     7
370
    50
100
AcDbLine
 10
138.509631
 20
192.322399
 30
0.0
 11
137.659542
 21
192.322399
 31
0.0
  0
LINE
  5
90
330
1F
100
AcDbEntity
  8
LC-001-100-D00-0
 62
     7
370
    50
100
AcDbLine
 10
133.77212
 20
192.322399
 30
0.0
 11
75.55964
 21
192.322399
 31
0.0
  0
LINE
  5
91
330
1F
100
AcDbEntity
  8
LC-001-100-D00-0
 62
     7
370
    50
100
AcDbLine
 10
51.95956
 20
192.322399
 30
0.0
 11
-6.253011
 21
192.322399
 31
0.0
  0
LINE
  5
92
330
1F
100
AcDbEntity
  8
LC-001-100-D00-0
 62
     7
370
    50
100
AcDbLine
 10
-10.140456
 20
192.322399
 30
0.0
 11
-10.990545
 21
192.322399
 31
0.0
  0
LINE
  5
93
330
1F
100
AcDbEntity
  8
LC-001-100-D00-0
 62
     7
370
    50
100
AcDbLine
 10
138.509631
 20
193.222399
 30
0.0
 11
137.659542
 21
193.222399
 31
0.0
  0
LINE
  5
94
330
1F
100
AcDbEntity
  8
LC-001-100-D00-0
 62
     7
370
    50
100
AcDbLine
 10
133.77212
 20
193.222399
 30
0.0
 11
75.55964
 21
193.222399
 31
0.0
  0
LINE
  5
95
330
1F
100
AcDbEntity
  8
LC-001-100-D00-0
 62
     7
370
    50
100
AcDbLine
 10
51.95956
 20
193.222399
 30
0.0
 11
-6.253011
 21
193.222399
 31
0.0
  0
LINE
  5
96
330
1F
100
AcDbEntity
  8
LC-001-100-D00-0
 62
     7
370
    50
100
AcDbLine
 10
-10.140456
 20
193.222399
 30
0.0
 11
-10.990545
 21
193.222399
 31
0.0
  0
LINE
  5
97
330
1F
100
AcDbEntity
  8
LC-001-100-D00-0
 62
     7
370
    50
100
AcDbLine
 10
-114.24046
 20
216.822322
 30
0.0
 11
-106.240459
 21
216.822322
 31
0.0
  0
LINE
  5
98
330
1F
100
AcDbEntity
  8
LC-001-100-D00-0
 62
     7
370
    50
100
AcDbLine
 10
-106.240459
 20
216.822322
 30
0.0
 11
-104.240455
 21
214.822318
 31
0.0
  0
LINE
  5
99
330
1F
100
AcDbEntity
  8
LC-001-100-D00-0
 62
     7
370
    50
100
AcDbLine
 10
-104.240455
 20
213.322739
 30
0.0
 11
-104.240455
 21
214.822318
 31
0.0
  0
LINE
  5
9A
330
1F
100
AcDbEntity
  8
LC-001-100-D00-0
 62
     7
370
    50
100
AcDbLine
 10
-116.240464
 20
213.322739
 30
0.0
 11
-116.240464
 21
214.822318
 31
0.0
  0
ARC
  5
9B
330
1F
100
AcDbEntity
  8
LC-001-100-D00-0
 62
     7
370
    50
100
AcDbCircle
 10
-114.240457
 20
214.822317
 30
0.0
 40
2.0
100
AcDbArc
 50
90.0
 51
180.0
  0
LINE
  5
9C
330
1F
100
AcDbEntity
  8
LC-001-100-D00-0
 62
     7
370
    50
100
AcDbLine
 10
-104.240455
 20
213.322739
 30
0.0
 11
-116.240464
 21
213.322739
 31
0.0
  0
LINE
  5
9D
330
1F
100
AcDbEntity
  8
LC-001-100-D00-0
 62
     7
370
    50
100
AcDbLine
 10
243.75955
 20
214.822318
 30
0.0
 11
243.75955
 21
213.322739
 31
0.0
  0
LINE
  5
9E
330
1F
100
AcDbEntity
  8
LC-001-100-D00-0
 62
     7
370
    50
100
AcDbLine
 10
231.759541
 20
214.822318
 30
0.0
 11
231.759541
 21
213.322739
 31
0.0
  0
LINE
  5
9F
330
1F
100
AcDbEntity
  8
LC-001-100-D00-0
 62
     7
370
    50
100
AcDbLine
 10
231.759541
 20
214.822318
 30
0.0
 11
233.759545
 21
216.822322
 31
0.0
  0
LINE
  5
A0
330
1F
100
AcDbEntity
  8
LC-001-100-D00-0
 62
     7
370
    50
100
AcDbLine
 10
233.759545
 20
216.822322
 30
0.0
 11
241.759546
 21
216.822322
 31
0.0
  0
ARC
  5
A1
330
1F
100
AcDbEntity
  8
LC-001-100-D00-0
 62
     7
370
    50
100
AcDbCircle
 10
241.759543
 20
214.822317
 30
0.0
 40
1.999999999999886
100
AcDbArc
 50
0.0
 51
90.0
  0
LINE
  5
A2
330
1F
100
AcDbEntity
  8
LC-001-100-D00-0
 62
     7
370
    50
100
AcDbLine
 10
243.75955
 20
213.322739
 30
0.0
 11
231.759541
 21
213.322739
 31
0.0
  0
LINE
  5
A3
330
1F
100
AcDbEntity
  8
LC-001-100-D00-0
 62
     7
370
    50
100
AcDbLine
 10
-106.240459
 20
216.822322
 30
0.0
 11
-98.240457
 21
216.822322
 31
0.0
  0
LINE
  5
A4
330
1F
100
AcDbEntity
  8
LC-001-100-D00-0
 62
     7
370
    50
100
AcDbLine
 10
-100.240461
 20
214.822318
 30
0.0
 11
-104.240455
 21
214.822318
 31
0.0
  0
LINE
  5
A5
330
1F
100
AcDbEntity
  8
LC-001-100-D00-0
 62
     7
370
    50
100
AcDbLine
 10
-104.240455
 20
213.322739
 30
0.0
 11
-100.240461
 21
213.322739
 31
0.0
  0
LINE
  5
A6
330
1F
100
AcDbEntity
  8
LC-001-100-D00-0
 62
     7
370
    50
100
AcDbLine
 10
231.759541
 20
214.822318
 30
0.0
 11
227.759548
 21
214.822318
 31
0.0
  0
LINE
  5
A7
330
1F
100
AcDbEntity
  8
LC-001-100-D00-0
 62
     7
370
    50
100
AcDbLine
 10
227.759548
 20
213.322739
 30
0.0
 11
231.759541
 21
213.322739
 31
0.0
  0
LINE
  5
A8
330
1F
100
AcDbEntity
  8
LC-001-100-D00-0
 62
     7
370
    50
100
AcDbLine
 10
225.759544
 20
216.822322
 30
0.0
 11
233.759545
 21
216.822322
 31
0.0
  0
INSERT
  5
BC
330
1F
100
AcDbEntity
  8
LC-001-100-D00-0
 62
     7
370
    50
100
AcDbBlockReference
  2
POLY1
 10
0.0
 20
0.0
 30
0.0
  0
LINE
  5
BD
330
1F
100
AcDbEntity
  8
LC-001-100-D00-0
 62
     7
370
    50
100
AcDbLine
 10
76.219906
 20
197.172846
 30
0.0
 11
76.219906
 21
197.916518
 31
0.0
  0
INSERT
  5
CB
330
1F
100
AcDbEntity
  8
LC-001-100-D00-0
 62
     7
370
    50
100
AcDbBlockReference
  2
POLY2
 10
0.0
 20
0.0
 30
0.0
  0
INSERT
  5
D7
330
1F
100
AcDbEntity
  8
LC-001-100-D00-0
 62
     7
370
    50
100
AcDbBlockReference
  2
POLY3
 10
0.0
 20
0.0
 30
0.0
  0
LINE
  5
D8
330
1F
100
AcDbEntity
  8
LC-001-100-D00-0
 62
     7
370
    50
100
AcDbLine
 10
76.048483
 20
195.68802
 30
0.0
 11
75.60875
 21
195.68802
 31
0.0
  0
LINE
  5
D9
330
1F
100
AcDbEntity
  8
LC-001-100-D00-0
 62
     7
370
    50
100
AcDbLine
 10
76.048483
 20
196.381997
 30
0.0
 11
76.048483
 21
195.68802
 31
0.0
  0
INSERT
  5
E9
330
1F
100
AcDbEntity
  8
LC-001-100-D00-0
 62
     7
370
    50
100
AcDbBlockReference
  2
POLY4
 10
0.0
 20
0.0
 30
0.0
  0
INSERT
  5
F9
330
1F
100
AcDbEntity
  8
LC-001-100-D00-0
 62
     7
370
    50
100
AcDbBlockReference
  2
POLY5
 10
0.0
 20
0.0
 30
0.0
  0
INSERT
  5
FF
330
1F
100
AcDbEntity
  8
LC-001-100-D00-0
 62
     7
370
    50
100
AcDbBlockReference
  2
KLON1
 10
0.0
 20
0.0
 30
0.0
  0
INSERT
  5
113
330
1F
100
AcDbEntity
  8
LC-001-100-D00-0
 62
     7
370
    50
100
AcDbBlockReference
  2
POLY6
 10
0.0
 20
0.0
 30
0.0
  0
INSERT
  5
121
330
1F
100
AcDbEntity
  8
LC-001-100-D00-0
 62
     7
370
    50
100
AcDbBlockReference
  2
POLY7
 10
0.0
 20
0.0
 30
0.0
  0
LINE
  5
122
330
1F
100
AcDbEntity
  8
LC-001-100-D00-0
 62
     7
370
    50
100
AcDbLine
 10
75.60875
 20
195.68802
 30
0.0
 11
75.60875
 21
196.166273
 31
0.0
  0
LINE
  5
123
330
1F
100
AcDbEntity
  8
LC-001-100-D00-0
 62
     7
370
    50
100
AcDbLine
 10
76.219906
 20
195.516597
 30
0.0
 11
76.219906
 21
196.381997
 31
0.0
  0
LINE
  5
124
330
1F
100
AcDbEntity
  8
LC-001-100-D00-0
 62
     7
370
    50
100
AcDbLine
 10
76.219906
 20
195.516597
 30
0.0
 11
75.437327
 21
195.516597
 31
0.0
  0
INSERT
  5
132
330
1F
100
AcDbEntity
  8
LC-001-100-D00-0
 62
     7
370
    50
100
AcDbBlockReference
  2
POLY8
 10
0.0
 20
0.0
 30
0.0
  0
LINE
  5
133
330
1F
100
AcDbEntity
  8
LC-001-100-D00-0
 62
     7
370
    50
100
AcDbLine
 10
75.60875
 20
197.301622
 30
0.0
 11
75.60875
 21
197.601001
 31
0.0
  0
INSERT
  5
13F
330
1F
100
AcDbEntity
  8
LC-001-100-D00-0
 62
     7
370
    50
100
AcDbBlockReference
  2
POLY9
 10
0.0
 20
0.0
 30
0.0
  0
LINE
  5
140
330
1F
100
AcDbEntity
  8
LC-001-100-D00-0
 62
     7
370
    50
100
AcDbLine
 10
112.208124
 20
277.022328
 30
0.0
 11
112.208124
 21
277.407076
 31
0.0
  0
LINE
  5
141
330
1F
100
AcDbEntity
  8
LC-001-100-D00-0
 62
     7
370
    50
100
AcDbLine
 10
15.310962
 20
277.022328
 30
0.0
 11
112.208124
 21
277.022328
 31
0.0
  0
LINE
  5
142
330
1F
100
AcDbEntity
  8
LC-001-100-D00-0
 62
     7
370
    50
100
AcDbLine
 10
15.310962
 20
277.407076
 30
0.0
 11
15.310962
 21
277.022328
 31
0.0
  0
LINE
  5
143
330
1F
100
AcDbEntity
  8
LC-001-100-D00-0
 62
     7
370
    50
100
AcDbLine
 10
7.559542
 20
256.110232
 30
0.0
 11
15.310962
 21
277.407076
 31
0.0
  0
LINE
  5
144
330
1F
100
AcDbEntity
  8
LC-001-100-D00-0
 62
     7
370
    50
100
AcDbLine
 10
7.559542
 20
251.422386
 30
0.0
 11
7.559542
 21
256.110232
 31
0.0
  0
LINE
  5
145
330
1F
100
AcDbEntity
  8
LC-001-100-D00-0
 62
     7
370
    50
100
AcDbLine
 10
5.853307
 20
251.422386
 30
0.0
 11
7.559542
 21
251.422386
 31
0.0
  0
LINE
  5
146
330
1F
100
AcDbEntity
  8
LC-001-100-D00-0
 62
     7
370
    50
100
AcDbLine
 10
-6.740086
 20
216.822322
 30
0.0
 11
5.853307
 21
251.422386
 31
0.0
  0
LINE
  5
147
330
1F
100
AcDbEntity
  8
LC-001-100-D00-0
 62
     7
370
    50
100
AcDbLine
 10
-6.740458
 20
216.822322
 30
0.0
 11
-6.740086
 21
216.822322
 31
0.0
  0
LINE
  5
148
330
1F
100
AcDbEntity
  8
LC-001-100-D00-0
 62
     7
370
    50
100
AcDbLine
 10
-6.740458
 20
216.822322
 30
0.0
 11
-6.740458
 21
209.122311
 31
0.0
  0
LINE
  5
149
330
1F
100
AcDbEntity
  8
LC-001-100-D00-0
 62
     7
370
    50
100
AcDbLine
 10
-7.240459
 20
209.122311
 30
0.0
 11
-7.240459
 21
187.822315
 31
0.0
  0
LINE
  5
14A
330
1F
100
AcDbEntity
  8
LC-001-100-D00-0
 62
     7
370
    50
100
AcDbLine
 10
-7.240459
 20
187.822315
 30
0.0
 11
-10.640457
 21
187.822315
 31
0.0
  0
ARC
  5
14B
330
1F
100
AcDbEntity
  8
LC-001-100-D00-0
 62
     7
370
    50
100
AcDbCircle
 10
-10.640457
 20
188.822317
 30
0.0
 40
1.000000000000114
100
AcDbArc
 50
180.0
 51
270.0
  0
ARC
  5
14C
330
1F
100
AcDbEntity
  8
LC-001-100-D00-0
 62
     7
370
    50
100
AcDbCircle
 10
-10.640457
 20
188.822317
 30
0.0
 40
1.000000000000114
100
AcDbArc
 50
90.0
 51
180.0
  0
LINE
  5
14D
330
1F
100
AcDbEntity
  8
LC-001-100-D00-0
 62
     7
370
    50
100
AcDbLine
 10
-10.140456
 20
189.822312
 30
0.0
 11
-10.640457
 21
189.822312
 31
0.0
  0
LINE
  5
14E
330
1F
100
AcDbEntity
  8
LC-001-100-D00-0
 62
     7
370
    50
100
AcDbLine
 10
-10.140456
 20
216.822322
 30
0.0
 11
-10.140456
 21
189.822312
 31
0.0
  0
LINE
  5
14F
330
1F
100
AcDbEntity
  8
LC-001-100-D00-0
 62
     7
370
    50
100
AcDbLine
 10
-18.633358
 20
216.822322
 30
0.0
 11
-10.140456
 21
216.822322
 31
0.0
  0
LINE
  5
150
330
1F
100
AcDbEntity
  8
LC-001-100-D00-0
 62
     7
370
    50
100
AcDbLine
 10
-18.633358
 20
216.822322
 30
0.0
 11
-21.825924
 21
218.646641
 31
0.0
  0
LINE
  5
151
330
1F
100
AcDbEntity
  8
LC-001-100-D00-0
 62
     7
370
    50
100
AcDbLine
 10
-21.825924
 20
218.646641
 30
0.0
 11
1.21557
 21
281.95263
 31
0.0
  0
ARC
  5
152
330
1F
100
AcDbEntity
  8
LC-001-100-D00-0
 62
     7
370
    50
100
AcDbCircle
 10
15.310961
 20
276.822323
 30
0.0
 40
15.0
100
AcDbArc
 50
90.0
 51
160.0
  0
LINE
  5
153
330
1F
100
AcDbEntity
  8
LC-001-100-D00-0
 62
     7
370
    50
100
AcDbLine
 10
75.561808
 20
291.822325
 30
0.0
 11
15.310962
 21
291.822325
 31
0.0
  0
LINE
  5
154
330
1F
100
AcDbEntity
  8
LC-001-100-D00-0
 62
     7
370
    50
100
AcDbLine
 10
75.561808
 20
291.922327
 30
0.0
 11
75.561808
 21
291.822325
 31
0.0
  0
LINE
  5
155
330
1F
100
AcDbEntity
  8
LC-001-100-D00-0
 62
     7
370
    50
100
AcDbLine
 10
75.561808
 20
291.922327
 30
0.0
 11
76.387862
 21
291.922327
 31
0.0
  0
LINE
  5
156
330
1F
100
AcDbEntity
  8
LC-001-100-D00-0
 62
     7
370
    50
100
AcDbLine
 10
76.387862
 20
291.922327
 30
0.0
 11
76.387862
 21
291.822325
 31
0.0
  0
LINE
  5
157
330
1F
100
AcDbEntity
  8
LC-001-100-D00-0
 62
     7
370
    50
100
AcDbLine
 10
76.965484
 20
291.822325
 30
0.0
 11
76.387862
 21
291.822325
 31
0.0
  0
LINE
  5
158
330
1F
100
AcDbEntity
  8
LC-001-100-D00-0
 62
     7
370
    50
100
AcDbLine
 10
76.965484
 20
291.822325
 30
0.0
 11
76.965484
 21
291.922327
 31
0.0
  0
LINE
  5
159
330
1F
100
AcDbEntity
  8
LC-001-100-D00-0
 62
     7
370
    50
100
AcDbLine
 10
76.965484
 20
291.922327
 30
0.0
 11
77.704585
 21
291.922327
 31
0.0
  0
LINE
  5
15A
330
1F
100
AcDbEntity
  8
LC-001-100-D00-0
 62
     7
370
    50
100
AcDbLine
 10
77.704585
 20
291.822325
 30
0.0
 11
77.704585
 21
291.922327
 31
0.0
  0
LINE
  5
15B
330
1F
100
AcDbEntity
  8
LC-001-100-D00-0
 62
     7
370
    50
100
AcDbLine
 10
78.083449
 20
291.822325
 30
0.0
 11
77.704585
 21
291.822325
 31
0.0
  0
LINE
  5
15C
330
1F
100
AcDbEntity
  8
LC-001-100-D00-0
 62
     7
370
    50
100
AcDbLine
 10
78.083449
 20
291.922327
 30
0.0
 11
78.083449
 21
291.822325
 31
0.0
  0
LINE
  5
15D
330
1F
100
AcDbEntity
  8
LC-001-100-D00-0
 62
     7
370
    50
100
AcDbLine
 10
78.083449
 20
291.922327
 30
0.0
 11
80.431182
 21
291.922327
 31
0.0
  0
LINE
  5
15E
330
1F
100
AcDbEntity
  8
LC-001-100-D00-0
 62
     7
370
    50
100
AcDbLine
 10
80.431182
 20
291.822325
 30
0.0
 11
80.431182
 21
291.922327
 31
0.0
  0
LINE
  5
15F
330
1F
100
AcDbEntity
  8
LC-001-100-D00-0
 62
     7
370
    50
100
AcDbLine
 10
80.86595
 20
291.822325
 30
0.0
 11
80.431182
 21
291.822325
 31
0.0
  0
LINE
  5
160
330
1F
100
AcDbEntity
  8
LC-001-100-D00-0
 62
     7
370
    50
100
AcDbLine
 10
80.86595
 20
291.922327
 30
0.0
 11
80.86595
 21
291.822325
 31
0.0
  0
LINE
  5
161
330
1F
100
AcDbEntity
  8
LC-001-100-D00-0
 62
     7
370
    50
100
AcDbLine
 10
81.648527
 20
291.922327
 30
0.0
 11
80.86595
 21
291.922327
 31
0.0
  0
LINE
  5
162
330
1F
100
AcDbEntity
  8
LC-001-100-D00-0
 62
     7
370
    50
100
AcDbLine
 10
81.648527
 20
291.822325
 30
0.0
 11
81.648527
 21
291.922327
 31
0.0
  0
LINE
  5
163
330
1F
100
AcDbEntity
  8
LC-001-100-D00-0
 62
     7
370
    50
100
AcDbLine
 10
82.73544
 20
291.822325
 30
0.0
 11
81.648527
 21
291.822325
 31
0.0
  0
LINE
  5
164
330
1F
100
AcDbEntity
  8
LC-001-100-D00-0
 62
     7
370
    50
100
AcDbLine
 10
82.73544
 20
291.922327
 30
0.0
 11
82.73544
 21
291.822325
 31
0.0
  0
LINE
  5
165
330
1F
100
AcDbEntity
  8
LC-001-100-D00-0
 62
     7
370
    50
100
AcDbLine
 10
83.518019
 20
291.922327
 30
0.0
 11
82.73544
 21
291.922327
 31
0.0
  0
LINE
  5
166
330
1F
100
AcDbEntity
  8
LC-001-100-D00-0
 62
     7
370
    50
100
AcDbLine
 10
83.518019
 20
291.822325
 30
0.0
 11
83.518019
 21
291.922327
 31
0.0
  0
LINE
  5
167
330
1F
100
AcDbEntity
  8
LC-001-100-D00-0
 62
     7
370
    50
100
AcDbLine
 10
84.604934
 20
291.822325
 30
0.0
 11
83.518019
 21
291.822325
 31
0.0
  0
LINE
  5
168
330
1F
100
AcDbEntity
  8
LC-001-100-D00-0
 62
     7
370
    50
100
AcDbLine
 10
84.604934
 20
291.922327
 30
0.0
 11
84.604934
 21
291.822325
 31
0.0
  0
LINE
  5
169
330
1F
100
AcDbEntity
  8
LC-001-100-D00-0
 62
     7
370
    50
100
AcDbLine
 10
84.604934
 20
291.922327
 30
0.0
 11
85.387511
 21
291.922327
 31
0.0
  0
LINE
  5
16A
330
1F
100
AcDbEntity
  8
LC-001-100-D00-0
 62
     7
370
    50
100
AcDbLine
 10
85.387511
 20
291.822325
 30
0.0
 11
85.387511
 21
291.922327
 31
0.0
  0
LINE
  5
16B
330
1F
100
AcDbEntity
  8
LC-001-100-D00-0
 62
     7
370
    50
100
AcDbLine
 10
85.952707
 20
291.822325
 30
0.0
 11
85.387511
 21
291.822325
 31
0.0
  0
LINE
  5
16C
330
1F
100
AcDbEntity
  8
LC-001-100-D00-0
 62
     7
370
    50
100
AcDbLine
 10
85.952707
 20
291.922327
 30
0.0
 11
85.952707
 21
291.822325
 31
0.0
  0
LINE
  5
16D
330
1F
100
AcDbEntity
  8
LC-001-100-D00-0
 62
     7
370
    50
100
AcDbLine
 10
85.952707
 20
291.922327
 30
0.0
 11
86.778762
 21
291.922327
 31
0.0
  0
LINE
  5
16E
330
1F
100
AcDbEntity
  8
LC-001-100-D00-0
 62
     7
370
    50
100
AcDbLine
 10
86.778762
 20
291.822325
 30
0.0
 11
86.778762
 21
291.922327
 31
0.0
  0
LINE
  5
16F
330
1F
100
AcDbEntity
  8
LC-001-100-D00-0
 62
     7
370
    50
100
AcDbLine
 10
87.343957
 20
291.822325
 30
0.0
 11
86.778762
 21
291.822325
 31
0.0
  0
LINE
  5
170
330
1F
100
AcDbEntity
  8
LC-001-100-D00-0
 62
     7
370
    50
100
AcDbLine
 10
87.343957
 20
291.922327
 30
0.0
 11
87.343957
 21
291.822325
 31
0.0
  0
LINE
  5
171
330
1F
100
AcDbEntity
  8
LC-001-100-D00-0
 62
     7
370
    50
100
AcDbLine
 10
87.343957
 20
291.922327
 30
0.0
 11
88.126535
 21
291.922327
 31
0.0
  0
LINE
  5
172
330
1F
100
AcDbEntity
  8
LC-001-100-D00-0
 62
     7
370
    50
100
AcDbLine
 10
88.126535
 20
291.822325
 30
0.0
 11
88.126535
 21
291.922327
 31
0.0
  0
LINE
  5
173
330
1F
100
AcDbEntity
  8
LC-001-100-D00-0
 62
     7
370
    50
100
AcDbLine
 10
88.474348
 20
291.822325
 30
0.0
 11
88.126535
 21
291.822325
 31
0.0
  0
LINE
  5
174
330
1F
100
AcDbEntity
  8
LC-001-100-D00-0
 62
     7
370
    50
100
AcDbLine
 10
88.474348
 20
291.922327
 30
0.0
 11
88.474348
 21
291.822325
 31
0.0
  0
LINE
  5
175
330
1F
100
AcDbEntity
  8
LC-001-100-D00-0
 62
     7
370
    50
100
AcDbLine
 10
90.387318
 20
291.922327
 30
0.0
 11
88.474348
 21
291.922327
 31
0.0
  0
LINE
  5
176
330
1F
100
AcDbEntity
  8
LC-001-100-D00-0
 62
     7
370
    50
100
AcDbLine
 10
90.387318
 20
291.822325
 30
0.0
 11
90.387318
 21
291.922327
 31
0.0
  0
LINE
  5
177
330
1F
100
AcDbEntity
  8
LC-001-100-D00-0
 62
     7
370
    50
100
AcDbLine
 10
90.865558
 20
291.822325
 30
0.0
 11
90.387318
 21
291.822325
 31
0.0
  0
LINE
  5
178
330
1F
100
AcDbEntity
  8
LC-001-100-D00-0
 62
     7
370
    50
100
AcDbLine
 10
90.865558
 20
291.922327
 30
0.0
 11
90.865558
 21
291.822325
 31
0.0
  0
LINE
  5
179
330
1F
100
AcDbEntity
  8
LC-001-100-D00-0
 62
     7
370
    50
100
AcDbLine
 10
90.865558
 20
291.922327
 30
0.0
 11
93.188625
 21
291.922327
 31
0.0
  0
LINE
  5
17A
330
1F
100
AcDbEntity
  8
LC-001-100-D00-0
 62
     7
370
    50
100
AcDbLine
 10
93.188625
 20
291.822325
 30
0.0
 11
93.188625
 21
291.922327
 31
0.0
  0
LINE
  5
17B
330
1F
100
AcDbEntity
  8
LC-001-100-D00-0
 62
     7
370
    50
100
AcDbLine
 10
112.208124
 20
291.822325
 30
0.0
 11
93.188625
 21
291.822325
 31
0.0
  0
ARC
  5
17C
330
1F
100
AcDbEntity
  8
LC-001-100-D00-0
 62
     7
370
    50
100
AcDbCircle
 10
112.208125
 20
276.822323
 30
0.0
 40
15.00000000000008
100
AcDbArc
 50
20.0
 51
90.0
  0
LINE
  5
17D
330
1F
100
AcDbEntity
  8
LC-001-100-D00-0
 62
     7
370
    50
100
AcDbLine
 10
126.303517
 20
281.95263
 30
0.0
 11
149.345011
 21
218.646641
 31
0.0
  0
LINE
  5
17E
330
1F
100
AcDbEntity
  8
LC-001-100-D00-0
 62
     7
370
    50
100
AcDbLine
 10
149.345011
 20
218.646641
 30
0.0
 11
146.152444
 21
216.822322
 31
0.0
  0
LINE
  5
17F
330
1F
100
AcDbEntity
  8
LC-001-100-D00-0
 62
     7
370
    50
100
AcDbLine
 10
137.659542
 20
216.822322
 30
0.0
 11
146.152444
 21
216.822322
 31
0.0
  0
LINE
  5
180
330
1F
100
AcDbEntity
  8
LC-001-100-D00-0
 62
     7
370
    50
100
AcDbLine
 10
137.659542
 20
189.822312
 30
0.0
 11
137.659542
 21
216.822322
 31
0.0
  0
LINE
  5
181
330
1F
100
AcDbEntity
  8
LC-001-100-D00-0
 62
     7
370
    50
100
AcDbLine
 10
138.159543
 20
189.822312
 30
0.0
 11
137.659542
 21
189.822312
 31
0.0
  0
ARC
  5
182
330
1F
100
AcDbEntity
  8
LC-001-100-D00-0
 62
     7
370
    50
100
AcDbCircle
 10
138.159543
 20
188.822317
 30
0.0
 40
1.000000000000114
100
AcDbArc
 50
0.0
 51
90.0
  0
ARC
  5
183
330
1F
100
AcDbEntity
  8
LC-001-100-D00-0
 62
     7
370
    50
100
AcDbCircle
 10
138.159543
 20
188.822317
 30
0.0
 40
1.0
100
AcDbArc
 50
270.0
 51
0.0
  0
LINE
  5
184
330
1F
100
AcDbEntity
  8
LC-001-100-D00-0
 62
     7
370
    50
100
AcDbLine
 10
138.159543
 20
187.822315
 30
0.0
 11
134.759546
 21
187.822315
 31
0.0
  0
LINE
  5
185
330
1F
100
AcDbEntity
  8
LC-001-100-D00-0
 62
     7
370
    50
100
AcDbLine
 10
134.759546
 20
187.822315
 30
0.0
 11
134.759546
 21
209.122311
 31
0.0
  0
LINE
  5
186
330
1F
100
AcDbEntity
  8
LC-001-100-D00-0
 62
     7
370
    50
100
AcDbLine
 10
134.259545
 20
209.122311
 30
0.0
 11
134.259545
 21
216.822322
 31
0.0
  0
LINE
  5
187
330
1F
100
AcDbEntity
  8
LC-001-100-D00-0
 62
     7
370
    50
100
AcDbLine
 10
134.259172
 20
216.822322
 30
0.0
 11
134.259545
 21
216.822322
 31
0.0
  0
LINE
  5
188
330
1F
100
AcDbEntity
  8
LC-001-100-D00-0
 62
     7
370
    50
100
AcDbLine
 10
121.66578
 20
251.422386
 30
0.0
 11
134.259172
 21
216.822322
 31
0.0
  0
LINE
  5
189
330
1F
100
AcDbEntity
  8
LC-001-100-D00-0
 62
     7
370
    50
100
AcDbLine
 10
119.959545
 20
251.422386
 30
0.0
 11
121.66578
 21
251.422386
 31
0.0
  0
LINE
  5
18A
330
1F
100
AcDbEntity
  8
LC-001-100-D00-0
 62
     7
370
    50
100
AcDbLine
 10
119.959545
 20
256.110232
 30
0.0
 11
119.959545
 21
251.422386
 31
0.0
  0
LINE
  5
18B
330
1F
100
AcDbEntity
  8
LC-001-100-D00-0
 62
     7
370
    50
100
AcDbLine
 10
112.208124
 20
277.407076
 30
0.0
 11
119.959545
 21
256.110232
 31
0.0
  0
LINE
  5
18C
330
1F
100
AcDbEntity
  8
LC-001-100-D00-0
 62
     7
370
    50
100
AcDbLine
 10
-6.740458
 20
209.122311
 30
0.0
 11
-7.240459
 21
209.122311
 31
0.0
  0
LINE
  5
18D
330
1F
100
AcDbEntity
  8
LC-001-100-D00-0
 62
     7
370
    50
100
AcDbLine
 10
134.759546
 20
209.122311
 30
0.0
 11
134.259545
 21
209.122311
 31
0.0
  0
LINE
  5
18E
330
1F
100
AcDbEntity
  8
LC-001-100-D00-0
 62
     7
370
    50
100
AcDbLine
 10
-6.740086
 20
216.822322
 30
0.0
 11
-4.397124
 21
216.822322
 31
0.0
  0
LINE
  5
18F
330
1F
100
AcDbEntity
  8
LC-001-100-D00-0
 62
     7
370
    50
100
AcDbLine
 10
-4.278607
 20
216.822322
 30
0.0
 11
2.590597
 21
216.822322
 31
0.0
  0
LINE
  5
190
330
1F
100
AcDbEntity
  8
LC-001-100-D00-0
 62
     7
370
    50
100
AcDbLine
 10
2.819549
 20
216.822322
 30
0.0
 11
13.746884
 21
216.822322
 31
0.0
  0
LINE
  5
191
330
1F
100
AcDbEntity
  8
LC-001-100-D00-0
 62
     7
370
    50
100
AcDbLine
 10
14.070671
 20
216.822322
 30
0.0
 11
28.31145
 21
216.822322
 31
0.0
  0
LINE
  5
192
330
1F
100
AcDbEntity
  8
LC-001-100-D00-0
 62
     7
370
    50
100
AcDbLine
 10
28.708007
 20
216.822322
 30
0.0
 11
45.291744
 21
216.822322
 31
0.0
  0
LINE
  5
193
330
1F
100
AcDbEntity
  8
LC-001-100-D00-0
 62
     7
370
    50
100
AcDbLine
 10
45.734048
 20
216.822322
 30
0.0
 11
63.53059
 21
216.822322
 31
0.0
  0
LINE
  5
194
330
1F
100
AcDbEntity
  8
LC-001-100-D00-0
 62
     7
370
    50
100
AcDbLine
 10
63.988497
 20
216.822322
 30
0.0
 11
81.785038
 21
216.822322
 31
0.0
  0
LINE
  5
195
330
1F
100
AcDbEntity
  8
LC-001-100-D00-0
 62
     7
370
    50
100
AcDbLine
 10
82.227342
 20
216.822322
 30
0.0
 11
98.811079
 21
216.822322
 31
0.0
  0
LINE
  5
196
330
1F
100
AcDbEntity
  8
LC-001-100-D00-0
 62
     7
370
    50
100
AcDbLine
 10
99.207636
 20
216.822322
 30
0.0
 11
113.448415
 21
216.822322
 31
0.0
  0
LINE
  5
197
330
1F
100
AcDbEntity
  8
LC-001-100-D00-0
 62
     7
370
    50
100
AcDbLine
 10
113.772202
 20
216.822322
 30
0.0
 11
124.699537
 21
216.822322
 31
0.0
  0
LINE
  5
198
330
1F
100
AcDbEntity
  8
LC-001-100-D00-0
 62
     7
370
    50
100
AcDbLine
 10
124.92849
 20
216.822322
 30
0.0
 11
131.797694
 21
216.822322
 31
0.0
  0
LINE
  5
199
330
1F
100
AcDbEntity
  8
LC-001-100-D00-0
 62
     7
370
    50
100
AcDbLine
 10
131.91621
 20
216.822322
 30
0.0
 11
134.259172
 21
216.822322
 31
0.0
  0
LINE
  5
19A
330
1F
100
AcDbEntity
  8
LC-001-100-D00-0
 62
     7
370
    50
100
AcDbLine
 10
-6.740458
 20
209.122311
 30
0.0
 11
134.259545
 21
209.122311
 31
0.0
  0
INSERT
  5
1AC
330
1F
100
AcDbEntity
  8
LC-001-100-D00-0
 62
     7
370
    50
100
AcDbBlockReference
  2
POLY10
 10
0.0
 20
0.0
 30
0.0
  0
LINE
  5
1AD
330
1F
100
AcDbEntity
  8
LC-001-100-D00-0
 62
     7
370
    50
100
AcDbLine
 10
-6.253011
 20
208.122324
 30
0.0
 11
-6.253011
 21
187.822315
 31
0.0
  0
LINE
  5
1AE
330
1F
100
AcDbEntity
  8
LC-001-100-D00-0
 62
     7
370
    50
100
AcDbLine
 10
-7.240459
 20
187.822315
 30
0.0
 11
-6.253011
 21
187.822315
 31
0.0
  0
LINE
  5
1AF
330
1F
100
AcDbEntity
  8
LC-001-100-D00-0
 62
     7
370
    50
100
AcDbLine
 10
133.77212
 20
187.822315
 30
0.0
 11
133.77212
 21
208.122324
 31
0.0
  0
INSERT
  5
1C1
330
1F
100
AcDbEntity
  8
LC-001-100-D00-0
 62
     7
370
    50
100
AcDbBlockReference
  2
POLY11
 10
0.0
 20
0.0
 30
0.0
  0
LINE
  5
1C2
330
1F
100
AcDbEntity
  8
LC-001-100-D00-0
 62
     7
370
    50
100
AcDbLine
 10
133.77212
 20
187.822315
 30
0.0
 11
134.759546
 21
187.822315
 31
0.0
  0
LINE
  5
1C3
330
1F
100
AcDbEntity
  8
LC-001-100-D00-0
 62
     7
370
    50
100
AcDbLine
 10
9.188235
 20
256.729092
 30
0.0
 11
7.784788
 21
256.729092
 31
0.0
  0
LINE
  5
1C4
330
1F
100
AcDbEntity
  8
LC-001-100-D00-0
 62
     7
370
    50
100
AcDbLine
 10
9.188235
 20
256.729092
 30
0.0
 11
9.188235
 21
256.142567
 31
0.0
  0
ELLIPSE
  5
1C5
330
1F
100
AcDbEntity
  8
LC-001-100-D00-0
 62
     7
370
    50
100
AcDbEllipse
 10
63.759543
 20
410.518493
 30
0.0
 11
-54.69271162381546
 21
-154.3402810315616
 31
0.0
210
0.0
220
0.0
230
1.0
 40
0.083767
 41
3.150803750597225
 42
3.191731874073068
  0
LINE
  5
1C6
330
1F
100
AcDbEntity
  8
LC-001-100-D00-0
 62
     7
370
    50
100
AcDbLine
 10
14.524106
 20
256.729092
 30
0.0
 11
9.989724
 21
256.729092
 31
0.0
  0
LINE
  5
1C7
330
1F
100
AcDbEntity
  8
LC-001-100-D00-0
 62
     7
370
    50
100
AcDbLine
 10
14.524106
 20
256.729092
 30
0.0
 11
14.524106
 21
256.142567
 31
0.0
  0
ELLIPSE
  5
1C8
330
1F
100
AcDbEntity
  8
LC-001-100-D00-0
 62
     7
370
    50
100
AcDbEllipse
 10
63.759543
 20
410.518493
 30
0.0
 11
-50.10599910011109
 21
-154.1865670813123
 31
0.0
210
0.0
220
0.0
230
1.0
 40
0.165076
 41
3.174721918189746
 42
3.215650041665588
  0
LINE
  5
1C9
330
1F
100
AcDbEntity
  8
LC-001-100-D00-0
 62
     7
370
    50
100
AcDbLine
 10
23.21529
 20
256.729092
 30
0.0
 11
15.858986
 21
256.729092
 31
0.0
  0
LINE
  5
1CA
330
1F
100
AcDbEntity
  8
LC-001-100-D00-0
 62
     7
370
    50
100
AcDbLine
 10
23.21529
 20
256.729092
 30
0.0
 11
23.21529
 21
256.142567
 31
0.0
  0
ELLIPSE
  5
1CB
330
1F
100
AcDbEntity
  8
LC-001-100-D00-0
 62
     7
370
    50
100
AcDbEllipse
 10
63.759543
 20
410.518493
 30
0.0
 11
-42.26835833949168
 21
-154.0735723013261
 31
0.0
210
0.0
220
0.0
230
1.0
 40
0.240393
 41
3.186982284715607
 42
3.227910408191447
  0
LINE
  5
1CC
330
1F
100
AcDbEntity
  8
LC-001-100-D00-0
 62
     7
370
    50
100
AcDbLine
 10
34.669498
 20
256.729092
 30
0.0
 11
24.992589
 21
256.729092
 31
0.0
  0
LINE
  5
1CD
330
1F
100
AcDbEntity
  8
LC-001-100-D00-0
 62
     7
370
    50
100
AcDbLine
 10
34.669498
 20
256.729092
 30
0.0
 11
34.669498
 21
256.142567
 31
0.0
  0
ELLIPSE
  5
1CE
330
1F
100
AcDbEntity
  8
LC-001-100-D00-0
 62
     7
370
    50
100
AcDbEllipse
 10
63.759543
 20
410.518493
 30
0.0
 11
-31.02069845648374
 21
-154.1198904247381
 31
0.0
210
0.0
220
0.0
230
1.0
 40
0.30407
 41
3.18225437588867
 42
3.223182499364511
  0
LINE
  5
1CF
330
1F
100
AcDbEntity
  8
LC-001-100-D00-0
 62
     7
370
    50
100
AcDbLine
 10
48.106143
 20
256.729092
 30
0.0
 11
36.661357
 21
256.729092
 31
0.0
  0
LINE
  5
1D0
330
1F
100
AcDbEntity
  8
LC-001-100-D00-0
 62
     7
370
    50
100
AcDbLine
 10
48.106143
 20
256.729092
 30
0.0
 11
48.106143
 21
256.142567
 31
0.0
  0
ELLIPSE
  5
1D1
330
1F
100
AcDbEntity
  8
LC-001-100-D00-0
 62
     7
370
    50
100
AcDbEllipse
 10
63.759543
 20
410.518493
 30
0.0
 11
-16.5620746345935
 21
-154.3006263193177
 31
0.0
210
0.0
220
0.0
230
1.0
 40
0.348049
 41
3.158469548149912
 42
3.199397671625754
  0
LINE
  5
1D2
330
1F
100
AcDbEntity
  8
LC-001-100-D00-0
 62
     7
370
    50
100
AcDbLine
 10
62.609543
 20
256.729092
 30
0.0
 11
50.327773
 21
256.729092
 31
0.0
  0
ELLIPSE
  5
1D3
330
1F
100
AcDbEntity
  8
LC-001-100-D00-0
 62
     7
370
    50
100
AcDbEllipse
 10
63.759543
 20
410.518493
 30
0.0
 11
0.0
 21
-154.408263162109
 31
0.0
210
0.0
220
0.0
230
1.0
 40
0.36397
 41
3.121128591851873
 42
3.16205671532775
  0
LINE
  5
1D4
330
1F
100
AcDbEntity
  8
LC-001-100-D00-0
 62
     7
370
    50
100
AcDbLine
 10
77.191313
 20
256.729092
 30
0.0
 11
64.909543
 21
256.729092
 31
0.0
  0
ELLIPSE
  5
1D5
330
1F
100
AcDbEntity
  8
LC-001-100-D00-0
 62
     7
370
    50
100
AcDbEllipse
 10
63.759543
 20
410.518493
 30
0.0
 11
16.56207463459394
 21
-154.3006263193175
 31
0.0
210
0.0
220
0.0
230
1.0
 40
0.348049
 41
3.083787635553874
 42
3.124715759029716
  0
LINE
  5
1D6
330
1F
100
AcDbEntity
  8
LC-001-100-D00-0
 62
     7
370
    50
100
AcDbLine
 10
79.412943
 20
256.729092
 30
0.0
 11
79.412943
 21
256.142567
 31
0.0
  0
LINE
  5
1D7
330
1F
100
AcDbEntity
  8
LC-001-100-D00-0
 62
     7
370
    50
100
AcDbLine
 10
90.85773
 20
256.729092
 30
0.0
 11
79.412943
 21
256.729092
 31
0.0
  0
ELLIPSE
  5
1D8
330
1F
100
AcDbEntity
  8
LC-001-100-D00-0
 62
     7
370
    50
100
AcDbEllipse
 10
63.759543
 20
410.518493
 30
0.0
 11
31.02069845648378
 21
-154.1198904247366
 31
0.0
210
0.0
220
0.0
230
1.0
 40
0.30407
 41
3.060002807815119
 42
3.100930931290959
  0
LINE
  5
1D9
330
1F
100
AcDbEntity
  8
LC-001-100-D00-0
 62
     7
370
    50
100
AcDbLine
 10
92.849588
 20
256.729092
 30
0.0
 11
92.849588
 21
256.142567
 31
0.0
  0
LINE
  5
1DA
330
1F
100
AcDbEntity
  8
LC-001-100-D00-0
 62
     7
370
    50
100
AcDbLine
 10
102.526497
 20
256.729092
 30
0.0
 11
92.849588
 21
256.729092
 31
0.0
  0
ELLIPSE
  5
1DB
330
1F
100
AcDbEntity
  8
LC-001-100-D00-0
 62
     7
370
    50
100
AcDbEllipse
 10
63.759543
 20
410.518493
 30
0.0
 11
42.26835833948037
 21
-154.0735723012835
 31
0.0
210
0.0
220
0.0
230
1.0
 40
0.240393
 41
3.055274898988195
 42
3.096203022464036
  0
LINE
  5
1DC
330
1F
100
AcDbEntity
  8
LC-001-100-D00-0
 62
     7
370
    50
100
AcDbLine
 10
104.303796
 20
256.729092
 30
0.0
 11
104.303796
 21
256.142567
 31
0.0
  0
LINE
  5
1DD
330
1F
100
AcDbEntity
  8
LC-001-100-D00-0
 62
     7
370
    50
100
AcDbLine
 10
111.660101
 20
256.729092
 30
0.0
 11
104.303796
 21
256.729092
 31
0.0
  0
ELLIPSE
  5
1DE
330
1F
100
AcDbEntity
  8
LC-001-100-D00-0
 62
     7
370
    50
100
AcDbEllipse
 10
63.759543
 20
410.518493
 30
0.0
 11
50.10599910015079
 21
-154.1865670814342
 31
0.0
210
0.0
220
0.0
230
1.0
 40
0.165076
 41
3.067535265514051
 42
3.108463388989894
  0
LINE
  5
1DF
330
1F
100
AcDbEntity
  8
LC-001-100-D00-0
 62
     7
370
    50
100
AcDbLine
 10
112.99498
 20
256.729092
 30
0.0
 11
112.99498
 21
256.142567
 31
0.0
  0
LINE
  5
1E0
330
1F
100
AcDbEntity
  8
LC-001-100-D00-0
 62
     7
370
    50
100
AcDbLine
 10
117.529363
 20
256.729092
 30
0.0
 11
112.99498
 21
256.729092
 31
0.0
  0
ELLIPSE
  5
1E1
330
1F
100
AcDbEntity
  8
LC-001-100-D00-0
 62
     7
370
    50
100
AcDbEllipse
 10
63.759543
 20
410.518493
 30
0.0
 11
54.69271162260621
 21
-154.340281028149
 31
0.0
210
0.0
220
0.0
230
1.0
 40
0.083767
 41
3.091453433106898
 42
3.132381556582766
  0
LINE
  5
1E2
330
1F
100
AcDbEntity
  8
LC-001-100-D00-0
 62
     7
370
    50
100
AcDbLine
 10
118.330851
 20
256.729092
 30
0.0
 11
118.330851
 21
256.142567
 31
0.0
  0
LINE
  5
1E3
330
1F
100
AcDbEntity
  8
LC-001-100-D00-0
 62
     7
370
    50
100
AcDbLine
 10
119.734299
 20
256.729092
 30
0.0
 11
118.330851
 21
256.729092
 31
0.0
  0
LINE
  5
1E4
330
1F
100
AcDbEntity
  8
LC-001-100-D00-0
 62
     7
370
    50
100
AcDbLine
 10
119.959545
 20
251.422386
 30
0.0
 11
7.559542
 21
251.422386
 31
0.0
  0
LINE
  5
1E5
330
1F
100
AcDbEntity
  8
LC-001-100-D00-0
 62
     7
370
    50
100
AcDbLine
 10
93.213294
 20
291.922327
 30
0.0
 11
93.213294
 21
291.822325
 31
0.0
  0
LINE
  5
1E6
330
1F
100
AcDbEntity
  8
LC-001-100-D00-0
 62
     7
370
    50
100
AcDbLine
 10
93.188625
 20
291.922327
 30
0.0
 11
93.213294
 21
291.922327
 31
0.0
  0
LINE
  5
1E7
330
1F
100
AcDbEntity
  8
LC-001-100-D00-0
 62
     7
370
    50
100
AcDbLine
 10
76.965484
 20
291.922327
 30
0.0
 11
76.835055
 21
291.922327
 31
0.0
  0
LINE
  5
1E8
330
1F
100
AcDbEntity
  8
LC-001-100-D00-0
 62
     7
370
    50
100
AcDbLine
 10
86.778762
 20
291.922327
 30
0.0
 11
86.865716
 21
291.922327
 31
0.0
  0
LINE
  5
1E9
330
1F
100
AcDbEntity
  8
LC-001-100-D00-0
 62
     7
370
    50
100
AcDbLine
 10
85.865753
 20
291.922327
 30
0.0
 11
85.952707
 21
291.922327
 31
0.0
  0
LINE
  5
1EA
330
1F
100
AcDbEntity
  8
LC-001-100-D00-0
 62
     7
370
    50
100
AcDbLine
 10
85.387511
 20
291.922327
 30
0.0
 11
85.474465
 21
291.922327
 31
0.0
  0
LINE
  5
1EB
330
1F
100
AcDbEntity
  8
LC-001-100-D00-0
 62
     7
370
    50
100
AcDbLine
 10
87.257004
 20
291.922327
 30
0.0
 11
87.343957
 21
291.922327
 31
0.0
  0
LINE
  5
1EC
330
1F
100
AcDbEntity
  8
LC-001-100-D00-0
 62
     7
370
    50
100
AcDbLine
 10
76.835055
 20
291.922327
 30
0.0
 11
76.387862
 21
291.922327
 31
0.0
  0
LINE
  5
1ED
330
1F
100
AcDbEntity
  8
LC-001-100-D00-0
 62
     7
370
    50
100
AcDbLine
 10
85.474465
 20
291.922327
 30
0.0
 11
85.865753
 21
291.922327
 31
0.0
  0
LINE
  5
1EE
330
1F
100
AcDbEntity
  8
LC-001-100-D00-0
 62
     7
370
    50
100
AcDbLine
 10
86.865716
 20
291.922327
 30
0.0
 11
87.257004
 21
291.922327
 31
0.0
  0
LINE
  5
1EF
330
1F
100
AcDbEntity
  8
LC-001-100-D00-0
 62
     7
370
    50
100
AcDbLine
 10
104.303796
 20
256.142567
 30
0.0
 11
98.930061
 21
277.022328
 31
0.0
  0
LINE
  5
1F0
330
1F
100
AcDbEntity
  8
LC-001-100-D00-0
 62
     7
370
    50
100
AcDbLine
 10
122.833293
 20
216.822322
 30
0.0
 11
123.953633
 21
217.727687
 31
0.0
  0
LINE
  5
1F1
330
1F
100
AcDbEntity
  8
LC-001-100-D00-0
 62
     7
370
    50
100
AcDbLine
 10
114.42348
 20
216.822322
 30
0.0
 11
105.518609
 21
251.422386
 31
0.0
  0
LINE
  5
1F2
330
1F
100
AcDbEntity
  8
LC-001-100-D00-0
 62
     7
370
    50
100
AcDbLine
 10
4.685793
 20
216.822322
 30
0.0
 11
3.565453
 21
217.727687
 31
0.0
  0
LINE
  5
1F3
330
1F
100
AcDbEntity
  8
LC-001-100-D00-0
 62
     7
370
    50
100
AcDbLine
 10
23.21529
 20
256.142567
 30
0.0
 11
28.589025
 21
277.022328
 31
0.0
  0
LINE
  5
1F4
330
1F
100
AcDbEntity
  8
LC-001-100-D00-0
 62
     7
370
    50
100
AcDbLine
 10
13.095606
 20
216.822322
 30
0.0
 11
22.000477
 21
251.422386
 31
0.0
  0
LINE
  5
1F5
330
1F
100
AcDbEntity
  8
LC-001-100-D00-0
 62
     7
370
    50
100
AcDbLine
 10
-10.140456
 20
200.122322
 30
0.0
 11
-12.258537
 21
200.122322
 31
0.0
  0
LINE
  5
1F6
330
1F
100
AcDbEntity
  8
LC-001-100-D00-0
 62
     7
370
    50
100
AcDbLine
 10
-12.258537
 20
200.122322
 30
0.0
 11
-12.258537
 21
216.822322
 31
0.0
  0
LINE
  5
1F7
330
1F
100
AcDbEntity
  8
LC-001-100-D00-0
 62
     7
370
    50
100
AcDbLine
 10
9.188235
 20
256.142567
 30
0.0
 11
16.528897
 21
277.022328
 31
0.0
  0
LINE
  5
1F8
330
1F
100
AcDbEntity
  8
LC-001-100-D00-0
 62
     7
370
    50
100
AcDbLine
 10
-4.635513
 20
216.822322
 30
0.0
 11
7.528771
 21
251.422386
 31
0.0
  0
LINE
  5
1F9
330
1F
100
AcDbEntity
  8
LC-001-100-D00-0
 62
     7
370
    50
100
AcDbLine
 10
118.330851
 20
256.142567
 30
0.0
 11
110.990189
 21
277.022328
 31
0.0
  0
LINE
  5
1FA
330
1F
100
AcDbEntity
  8
LC-001-100-D00-0
 62
     7
370
    50
100
AcDbLine
 10
139.777623
 20
200.122322
 30
0.0
 11
139.777623
 21
216.822322
 31
0.0
  0
LINE
  5
1FB
330
1F
100
AcDbEntity
  8
LC-001-100-D00-0
 62
     7
370
    50
100
AcDbLine
 10
139.777623
 20
200.122322
 30
0.0
 11
137.659542
 21
200.122322
 31
0.0
  0
LINE
  5
1FC
330
1F
100
AcDbEntity
  8
LC-001-100-D00-0
 62
     7
370
    50
100
AcDbLine
 10
132.154599
 20
216.822322
 30
0.0
 11
119.990315
 21
251.422386
 31
0.0
  0
LINE
  5
1FD
330
1F
100
AcDbEntity
  8
LC-001-100-D00-0
 62
     7
370
    50
100
AcDbLine
 10
117.735565
 20
256.142567
 30
0.0
 11
110.394906
 21
277.022328
 31
0.0
  0
LINE
  5
1FE
330
1F
100
AcDbEntity
  8
LC-001-100-D00-0
 62
     7
370
    50
100
AcDbLine
 10
9.783521
 20
256.142567
 30
0.0
 11
17.12418
 21
277.022328
 31
0.0
  0
INSERT
  5
210
330
1F
100
AcDbEntity
  8
LC-001-100-D00-0
 62
     7
370
    50
100
AcDbBlockReference
  2
POLY12
 10
0.0
 20
0.0
 30
0.0
  0
INSERT
  5
222
330
1F
100
AcDbEntity
  8
LC-001-100-D00-0
 62
     7
370
    50
100
AcDbBlockReference
  2
POLY13
 10
0.0
 20
0.0
 30
0.0
  0
LINE
  5
223
330
1F
100
AcDbEntity
  8
LC-001-100-D00-0
 62
     7
370
    50
100
AcDbLine
 10
49.959561
 20
208.122324
 30
0.0
 11
49.959561
 21
200.122322
 31
0.0
  0
LINE
  5
224
330
1F
100
AcDbEntity
  8
LC-001-100-D00-0
 62
     7
370
    50
100
AcDbLine
 10
-5.886398
 20
200.122322
 30
0.0
 11
49.959561
 21
200.122322
 31
0.0
  0
LINE
  5
225
330
1F
100
AcDbEntity
  8
LC-001-100-D00-0
 62
     7
370
    50
100
AcDbLine
 10
-5.886398
 20
200.122322
 30
0.0
 11
-5.886398
 21
208.122324
 31
0.0
  0
INSERT
  5
237
330
1F
100
AcDbEntity
  8
LC-001-100-D00-0
 62
     7
370
    50
100
AcDbBlockReference
  2
POLY14
 10
0.0
 20
0.0
 30
0.0
  0
INSERT
  5
249
330
1F
100
AcDbEntity
  8
LC-001-100-D00-0
 62
     7
370
    50
100
AcDbBlockReference
  2
POLY15
 10
0.0
 20
0.0
 30
0.0
  0
LINE
  5
24A
330
1F
100
AcDbEntity
  8
LC-001-100-D00-0
 62
     7
370
    50
100
AcDbLine
 10
133.405507
 20
208.122324
 30
0.0
 11
133.405507
 21
200.122322
 31
0.0
  0
LINE
  5
24B
330
1F
100
AcDbEntity
  8
LC-001-100-D00-0
 62
     7
370
    50
100
AcDbLine
 10
77.55964
 20
200.122322
 30
0.0
 11
133.405507
 21
200.122322
 31
0.0
  0
LINE
  5
24C
330
1F
100
AcDbEntity
  8
LC-001-100-D00-0
 62
     7
370
    50
100
AcDbLine
 10
77.55964
 20
200.122322
 30
0.0
 11
77.55964
 21
208.122324
 31
0.0
  0
LINE
  5
24D
330
1F
100
AcDbEntity
  8
LC-001-100-D00-0
 62
     7
370
    50
100
AcDbLine
 10
133.405507
 20
200.122322
 30
0.0
 11
133.77212
 21
200.122322
 31
0.0
  0
LINE
  5
24E
330
1F
100
AcDbEntity
  8
LC-001-100-D00-0
 62
     7
370
    50
100
AcDbLine
 10
-6.253011
 20
200.122322
 30
0.0
 11
-5.886398
 21
200.122322
 31
0.0
  0
LINE
  5
24F
330
1F
100
AcDbEntity
  8
LC-001-100-D00-0
 62
     7
370
    50
100
AcDbLine
 10
131.797694
 20
216.822322
 30
0.0
 11
131.91621
 21
216.822322
 31
0.0
  0
LINE
  5
250
330
1F
100
AcDbEntity
  8
LC-001-100-D00-0
 62
     7
370
    50
100
AcDbLine
 10
131.559313
 20
216.822322
 30
0.0
 11
119.395029
 21
251.422386
 31
0.0
  0
LINE
  5
251
330
1F
100
AcDbEntity
  8
LC-001-100-D00-0
 62
     7
370
    50
100
AcDbLine
 10
-4.397124
 20
216.822322
 30
0.0
 11
-4.278607
 21
216.822322
 31
0.0
  0
LINE
  5
252
330
1F
100
AcDbEntity
  8
LC-001-100-D00-0
 62
     7
370
    50
100
AcDbLine
 10
-4.040226
 20
216.822322
 30
0.0
 11
8.124057
 21
251.422386
 31
0.0
  0
LINE
  5
253
330
1F
100
AcDbEntity
  8
LC-001-100-D00-0
 62
     7
370
    50
100
AcDbLine
 10
112.99498
 20
256.142567
 30
0.0
 11
106.413525
 21
277.022328
 31
0.0
  0
LINE
  5
254
330
1F
100
AcDbEntity
  8
LC-001-100-D00-0
 62
     7
370
    50
100
AcDbLine
 10
125.389014
 20
216.822322
 30
0.0
 11
114.482817
 21
251.422386
 31
0.0
  0
LINE
  5
255
330
1F
100
AcDbEntity
  8
LC-001-100-D00-0
 62
     7
370
    50
100
AcDbLine
 10
14.524106
 20
256.142567
 30
0.0
 11
21.105562
 21
277.022328
 31
0.0
  0
LINE
  5
256
330
1F
100
AcDbEntity
  8
LC-001-100-D00-0
 62
     7
370
    50
100
AcDbLine
 10
2.130073
 20
216.822322
 30
0.0
 11
13.03627
 21
251.422386
 31
0.0
  0
LINE
  5
257
330
1F
100
AcDbEntity
  8
LC-001-100-D00-0
 62
     7
370
    50
100
AcDbLine
 10
111.844979
 20
256.142567
 30
0.0
 11
105.263524
 21
277.022328
 31
0.0
  0
LINE
  5
258
330
1F
100
AcDbEntity
  8
LC-001-100-D00-0
 62
     7
370
    50
100
AcDbLine
 10
15.674107
 20
256.142567
 30
0.0
 11
22.255562
 21
277.022328
 31
0.0
  0
LINE
  5
259
330
1F
100
AcDbEntity
  8
LC-001-100-D00-0
 62
     7
370
    50
100
AcDbLine
 10
124.699537
 20
216.822322
 30
0.0
 11
124.92849
 21
216.822322
 31
0.0
  0
LINE
  5
25A
330
1F
100
AcDbEntity
  8
LC-001-100-D00-0
 62
     7
370
    50
100
AcDbLine
 10
124.239013
 20
216.822322
 30
0.0
 11
113.332816
 21
251.422386
 31
0.0
  0
LINE
  5
25B
330
1F
100
AcDbEntity
  8
LC-001-100-D00-0
 62
     7
370
    50
100
AcDbLine
 10
2.590597
 20
216.822322
 30
0.0
 11
2.819549
 21
216.822322
 31
0.0
  0
LINE
  5
25C
330
1F
100
AcDbEntity
  8
LC-001-100-D00-0
 62
     7
370
    50
100
AcDbLine
 10
3.280074
 20
216.822322
 30
0.0
 11
14.186271
 21
251.422386
 31
0.0
  0
LINE
  5
25D
330
1F
100
AcDbEntity
  8
LC-001-100-D00-0
 62
     7
370
    50
100
AcDbLine
 10
102.67745
 20
256.142567
 30
0.0
 11
97.303715
 21
277.022328
 31
0.0
  0
LINE
  5
25E
330
1F
100
AcDbEntity
  8
LC-001-100-D00-0
 62
     7
370
    50
100
AcDbLine
 10
24.841637
 20
256.142567
 30
0.0
 11
30.215372
 21
277.022328
 31
0.0
  0
LINE
  5
25F
330
1F
100
AcDbEntity
  8
LC-001-100-D00-0
 62
     7
370
    50
100
AcDbLine
 10
92.849588
 20
256.142567
 30
0.0
 11
89.049783
 21
277.022328
 31
0.0
  0
LINE
  5
260
330
1F
100
AcDbEntity
  8
LC-001-100-D00-0
 62
     7
370
    50
100
AcDbLine
 10
107.548204
 20
218.646641
 30
0.0
 11
101.583507
 21
251.422386
 31
0.0
  0
LINE
  5
261
330
1F
100
AcDbEntity
  8
LC-001-100-D00-0
 62
     7
370
    50
100
AcDbLine
 10
100.617767
 20
256.729092
 30
0.0
 11
96.9247
 21
277.022328
 31
0.0
  0
LINE
  5
262
330
1F
100
AcDbEntity
  8
LC-001-100-D00-0
 62
     7
370
    50
100
AcDbLine
 10
105.95192
 20
216.822322
 30
0.0
 11
107.548204
 21
218.646641
 31
0.0
  0
LINE
  5
263
330
1F
100
AcDbEntity
  8
LC-001-100-D00-0
 62
     7
370
    50
100
AcDbLine
 10
100.005288
 20
216.822322
 30
0.0
 11
93.70859
 21
251.422386
 31
0.0
  0
LINE
  5
264
330
1F
100
AcDbEntity
  8
LC-001-100-D00-0
 62
     7
370
    50
100
AcDbLine
 10
21.567166
 20
216.822322
 30
0.0
 11
19.970883
 21
218.646641
 31
0.0
  0
LINE
  5
265
330
1F
100
AcDbEntity
  8
LC-001-100-D00-0
 62
     7
370
    50
100
AcDbLine
 10
19.970883
 20
218.646641
 30
0.0
 11
25.935579
 21
251.422386
 31
0.0
  0
LINE
  5
266
330
1F
100
AcDbEntity
  8
LC-001-100-D00-0
 62
     7
370
    50
100
AcDbLine
 10
26.90132
 20
256.729092
 30
0.0
 11
30.594386
 21
277.022328
 31
0.0
  0
LINE
  5
267
330
1F
100
AcDbEntity
  8
LC-001-100-D00-0
 62
     7
370
    50
100
AcDbLine
 10
34.669498
 20
256.142567
 30
0.0
 11
38.469304
 21
277.022328
 31
0.0
  0
LINE
  5
268
330
1F
100
AcDbEntity
  8
LC-001-100-D00-0
 62
     7
370
    50
100
AcDbLine
 10
27.513799
 20
216.822322
 30
0.0
 11
33.810497
 21
251.422386
 31
0.0
  0
LINE
  5
269
330
1F
100
AcDbEntity
  8
LC-001-100-D00-0
 62
     7
370
    50
100
AcDbLine
 10
90.85773
 20
256.142567
 30
0.0
 11
87.057926
 21
277.022328
 31
0.0
  0
LINE
  5
26A
330
1F
100
AcDbEntity
  8
LC-001-100-D00-0
 62
     7
370
    50
100
AcDbLine
 10
36.661357
 20
256.142567
 30
0.0
 11
40.46116
 21
277.022328
 31
0.0
  0
LINE
  5
26B
330
1F
100
AcDbEntity
  8
LC-001-100-D00-0
 62
     7
370
    50
100
AcDbLine
 10
113.448415
 20
216.822322
 30
0.0
 11
113.772202
 21
216.822322
 31
0.0
  0
LINE
  5
26C
330
1F
100
AcDbEntity
  8
LC-001-100-D00-0
 62
     7
370
    50
100
AcDbLine
 10
112.797134
 20
216.822322
 30
0.0
 11
103.892263
 21
251.422386
 31
0.0
  0
LINE
  5
26D
330
1F
100
AcDbEntity
  8
LC-001-100-D00-0
 62
     7
370
    50
100
AcDbLine
 10
13.746884
 20
216.822322
 30
0.0
 11
14.070671
 21
216.822322
 31
0.0
  0
LINE
  5
26E
330
1F
100
AcDbEntity
  8
LC-001-100-D00-0
 62
     7
370
    50
100
AcDbLine
 10
14.721953
 20
216.822322
 30
0.0
 11
23.626823
 21
251.422386
 31
0.0
  0
LINE
  5
26F
330
1F
100
AcDbEntity
  8
LC-001-100-D00-0
 62
     7
370
    50
100
AcDbLine
 10
79.412943
 20
256.142567
 30
0.0
 11
77.446019
 21
277.022328
 31
0.0
  0
LINE
  5
270
330
1F
100
AcDbEntity
  8
LC-001-100-D00-0
 62
     7
370
    50
100
AcDbLine
 10
87.021506
 20
218.646641
 30
0.0
 11
83.933952
 21
251.422386
 31
0.0
  0
LINE
  5
271
330
1F
100
AcDbEntity
  8
LC-001-100-D00-0
 62
     7
370
    50
100
AcDbLine
 10
83.434047
 20
256.729092
 30
0.0
 11
81.522376
 21
277.022328
 31
0.0
  0
LINE
  5
272
330
1F
100
AcDbEntity
  8
LC-001-100-D00-0
 62
     7
370
    50
100
AcDbLine
 10
86.195208
 20
216.822322
 30
0.0
 11
87.021506
 21
218.646641
 31
0.0
  0
LINE
  5
273
330
1F
100
AcDbEntity
  8
LC-001-100-D00-0
 62
     7
370
    50
100
AcDbLine
 10
83.117005
 20
216.822322
 30
0.0
 11
79.857595
 21
251.422386
 31
0.0
  0
LINE
  5
274
330
1F
100
AcDbEntity
  8
LC-001-100-D00-0
 62
     7
370
    50
100
AcDbLine
 10
41.323878
 20
216.822322
 30
0.0
 11
40.497581
 21
218.646641
 31
0.0
  0
LINE
  5
275
330
1F
100
AcDbEntity
  8
LC-001-100-D00-0
 62
     7
370
    50
100
AcDbLine
 10
40.497581
 20
218.646641
 30
0.0
 11
43.585135
 21
251.422386
 31
0.0
  0
LINE
  5
276
330
1F
100
AcDbEntity
  8
LC-001-100-D00-0
 62
     7
370
    50
100
AcDbLine
 10
44.085039
 20
256.729092
 30
0.0
 11
45.996711
 21
277.022328
 31
0.0
  0
LINE
  5
277
330
1F
100
AcDbEntity
  8
LC-001-100-D00-0
 62
     7
370
    50
100
AcDbLine
 10
48.106143
 20
256.142567
 30
0.0
 11
50.073068
 21
277.022328
 31
0.0
  0
LINE
  5
278
330
1F
100
AcDbEntity
  8
LC-001-100-D00-0
 62
     7
370
    50
100
AcDbLine
 10
44.402082
 20
216.822322
 30
0.0
 11
47.661491
 21
251.422386
 31
0.0
  0
LINE
  5
279
330
1F
100
AcDbEntity
  8
LC-001-100-D00-0
 62
     7
370
    50
100
AcDbLine
 10
77.191313
 20
256.142567
 30
0.0
 11
75.22439
 21
277.022328
 31
0.0
  0
LINE
  5
27A
330
1F
100
AcDbEntity
  8
LC-001-100-D00-0
 62
     7
370
    50
100
AcDbLine
 10
50.327773
 20
256.142567
 30
0.0
 11
52.294697
 21
277.022328
 31
0.0
  0
LINE
  5
27B
330
1F
100
AcDbEntity
  8
LC-001-100-D00-0
 62
     7
370
    50
100
AcDbLine
 10
62.609543
 20
256.142567
 30
0.0
 11
62.609543
 21
277.022328
 31
0.0
  0
LINE
  5
27C
330
1F
100
AcDbEntity
  8
LC-001-100-D00-0
 62
     7
370
    50
100
AcDbLine
 10
64.909543
 20
256.142567
 30
0.0
 11
64.909543
 21
277.022328
 31
0.0
  0
LINE
  5
27D
330
1F
100
AcDbEntity
  8
LC-001-100-D00-0
 62
     7
370
    50
100
AcDbLine
 10
98.811079
 20
216.822322
 30
0.0
 11
99.207636
 21
216.822322
 31
0.0
  0
LINE
  5
27E
330
1F
100
AcDbEntity
  8
LC-001-100-D00-0
 62
     7
370
    50
100
AcDbLine
 10
98.013427
 20
216.822322
 30
0.0
 11
91.716733
 21
251.422386
 31
0.0
  0
LINE
  5
27F
330
1F
100
AcDbEntity
  8
LC-001-100-D00-0
 62
     7
370
    50
100
AcDbLine
 10
28.31145
 20
216.822322
 30
0.0
 11
28.708007
 21
216.822322
 31
0.0
  0
LINE
  5
280
330
1F
100
AcDbEntity
  8
LC-001-100-D00-0
 62
     7
370
    50
100
AcDbLine
 10
29.505659
 20
216.822322
 30
0.0
 11
35.802353
 21
251.422386
 31
0.0
  0
LINE
  5
281
330
1F
100
AcDbEntity
  8
LC-001-100-D00-0
 62
     7
370
    50
100
AcDbLine
 10
81.785038
 20
216.822322
 30
0.0
 11
82.227342
 21
216.822322
 31
0.0
  0
LINE
  5
282
330
1F
100
AcDbEntity
  8
LC-001-100-D00-0
 62
     7
370
    50
100
AcDbLine
 10
80.895376
 20
216.822322
 30
0.0
 11
77.635966
 21
251.422386
 31
0.0
  0
LINE
  5
283
330
1F
100
AcDbEntity
  8
LC-001-100-D00-0
 62
     7
370
    50
100
AcDbLine
 10
45.291744
 20
216.822322
 30
0.0
 11
45.734048
 21
216.822322
 31
0.0
  0
LINE
  5
284
330
1F
100
AcDbEntity
  8
LC-001-100-D00-0
 62
     7
370
    50
100
AcDbLine
 10
46.623711
 20
216.822322
 30
0.0
 11
49.883121
 21
251.422386
 31
0.0
  0
LINE
  5
285
330
1F
100
AcDbEntity
  8
LC-001-100-D00-0
 62
     7
370
    50
100
AcDbLine
 10
63.53059
 20
216.822322
 30
0.0
 11
63.988497
 21
216.822322
 31
0.0
  0
LINE
  5
286
330
1F
100
AcDbEntity
  8
LC-001-100-D00-0
 62
     7
370
    50
100
AcDbLine
 10
62.609543
 20
216.822322
 30
0.0
 11
62.609543
 21
251.422386
 31
0.0
  0
LINE
  5
287
330
1F
100
AcDbEntity
  8
LC-001-100-D00-0
 62
     7
370
    50
100
AcDbLine
 10
64.909543
 20
216.822322
 30
0.0
 11
64.909543
 21
251.422386
 31
0.0
  0
INSERT
  5
299
330
1F
100
AcDbEntity
  8
LC-001-100-D00-0
 62
     7
370
    50
100
AcDbBlockReference
  2
POLY16
 10
0.0
 20
0.0
 30
0.0
  0
LINE
  5
29A
330
1F
100
AcDbEntity
  8
LC-001-100-D00-0
 62
     7
370
    50
100
AcDbLine
 10
75.55964
 20
208.122324
 30
0.0
 11
75.55964
 21
187.822315
 31
0.0
  0
LINE
  5
29B
330
1F
100
AcDbEntity
  8
LC-001-100-D00-0
 62
     7
370
    50
100
AcDbLine
 10
51.95956
 20
187.822315
 30
0.0
 11
75.55964
 21
187.822315
 31
0.0
  0
LINE
  5
29C
330
1F
100
AcDbEntity
  8
LC-001-100-D00-0
 62
     7
370
    50
100
AcDbLine
 10
51.95956
 20
187.822315
 30
0.0
 11
51.95956
 21
208.122324
 31
0.0
  0
INSERT
  5
2AE
330
1F
100
AcDbEntity
  8
LC-001-100-D00-0
 62
     7
370
    50
100
AcDbBlockReference
  2
POLY17
 10
0.0
 20
0.0
 30
0.0
  0
LINE
  5
2AF
330
1F
100
AcDbEntity
  8
LC-001-100-D00-0
 62
     7
370
    50
100
AcDbLine
 10
140.259542
 20
116.322398
 30
0.0
 11
128.009543
 21
128.5724
 31
0.0
  0
LINE
  5
2B0
330
1F
100
AcDbEntity
  8
LC-001-100-D00-0
 62
     7
370
    50
100
AcDbLine
 10
140.259542
 20
116.322398
 30
0.0
 11
105.309531
 21
116.322398
 31
0.0
  0
LINE
  5
2B1
330
1F
100
AcDbEntity
  8
LC-001-100-D00-0
 62
     7
370
    50
100
AcDbLine
 10
102.798026
 20
116.322398
 30
0.0
 11
-12.740455
 21
116.322398
 31
0.0
  0
LINE
  5
2B2
330
1F
100
AcDbEntity
  8
LC-001-100-D00-0
 62
     7
370
    50
100
AcDbLine
 10
-0.490457
 20
128.5724
 30
0.0
 11
-12.740455
 21
116.322398
 31
0.0
  0
LINE
  5
2B3
330
1F
100
AcDbEntity
  8
LC-001-100-D00-0
 62
     7
370
    50
100
AcDbLine
 10
128.009543
 20
128.5724
 30
0.0
 11
-0.490457
 21
128.5724
 31
0.0
  0
INSERT
  5
2BF
330
1F
100
AcDbEntity
  8
LC-001-100-D00-0
 62
     7
370
    50
100
AcDbBlockReference
  2
POLY18
 10
0.0
 20
0.0
 30
0.0
  0
INSERT
  5
2C5
330
1F
100
AcDbEntity
  8
LC-001-100-D00-0
 62
     7
370
    50
100
AcDbBlockReference
  2
KLON2
 10
0.0
 20
0.0
 30
0.0
  0
INSERT
  5
2CB
330
1F
100
AcDbEntity
  8
LC-001-100-D00-0
 62
     7
370
    50
100
AcDbBlockReference
  2
KLON3
 10
0.0
 20
0.0
 30
0.0
  0
INSERT
  5
2D7
330
1F
100
AcDbEntity
  8
LC-001-100-D00-0
 62
     7
370
    50
100
AcDbBlockReference
  2
POLY19
 10
0.0
 20
0.0
 30
0.0
  0
LINE
  5
2D8
330
1F
100
AcDbEntity
  8
LC-001-100-D00-0
 62
     7
370
    50
100
AcDbLine
 10
-12.740455
 20
116.322398
 30
0.0
 11
-12.740455
 21
119.150828
 31
0.0
  0
LINE
  5
2D9
330
1F
100
AcDbEntity
  8
LC-001-100-D00-0
 62
     7
370
    50
100
AcDbLine
 10
140.259542
 20
119.150828
 30
0.0
 11
140.259542
 21
116.322398
 31
0.0
  0
LINE
  5
2DA
330
1F
100
AcDbEntity
  8
LC-001-100-D00-0
 62
     7
370
    50
100
AcDbLine
 10
132.009544
 20
127.400826
 30
0.0
 11
140.259542
 21
119.150828
 31
0.0
  0
LINE
  5
2DB
330
1F
100
AcDbEntity
  8
LC-001-100-D00-0
 62
     7
370
    50
100
AcDbLine
 10
-12.740455
 20
119.150828
 30
0.0
 11
-4.490457
 21
127.400826
 31
0.0
  0
LINE
  5
2DC
330
1F
100
AcDbEntity
  8
LC-001-100-D00-0
 62
     7
370
    50
100
AcDbLine
 10
-4.490457
 20
127.400826
 30
0.0
 11
-4.490457
 21
139.822397
 31
0.0
  0
LINE
  5
2DD
330
1F
100
AcDbEntity
  8
LC-001-100-D00-0
 62
     7
370
    50
100
AcDbLine
 10
132.009544
 20
139.822397
 30
0.0
 11
132.009544
 21
127.400826
 31
0.0
  0
LINE
  5
2DE
330
1F
100
AcDbEntity
  8
LC-001-100-D00-0
 62
     7
370
    50
100
AcDbLine
 10
-4.24046
 20
139.822397
 30
0.0
 11
-1.99046
 21
135.925281
 31
0.0
  0
LINE
  5
2DF
330
1F
100
AcDbEntity
  8
LC-001-100-D00-0
 62
     7
370
    50
100
AcDbLine
 10
129.509546
 20
135.925281
 30
0.0
 11
131.759547
 21
139.822397
 31
0.0
  0
LINE
  5
2E0
330
1F
100
AcDbEntity
  8
LC-001-100-D00-0
 62
     7
370
    50
100
AcDbLine
 10
131.759547
 20
139.822397
 30
0.0
 11
130.759545
 21
139.822397
 31
0.0
  0
LINE
  5
2E1
330
1F
100
AcDbEntity
  8
LC-001-100-D00-0
 62
     7
370
    50
100
AcDbLine
 10
-3.240458
 20
139.822397
 30
0.0
 11
-4.24046
 21
139.822397
 31
0.0
  0
LINE
  5
2E2
330
1F
100
AcDbEntity
  8
LC-001-100-D00-0
 62
     7
370
    50
100
AcDbLine
 10
-1.99046
 20
135.925281
 30
0.0
 11
-1.99046
 21
129.822399
 31
0.0
  0
LINE
  5
2E3
330
1F
100
AcDbEntity
  8
LC-001-100-D00-0
 62
     7
370
    50
100
AcDbLine
 10
129.509546
 20
129.822399
 30
0.0
 11
129.509546
 21
135.925281
 31
0.0
  0
LINE
  5
2E4
330
1F
100
AcDbEntity
  8
LC-001-100-D00-0
 62
     7
370
    50
100
AcDbLine
 10
-0.490457
 20
129.822399
 30
0.0
 11
-0.490457
 21
128.5724
 31
0.0
  0
LINE
  5
2E5
330
1F
100
AcDbEntity
  8
LC-001-100-D00-0
 62
     7
370
    50
100
AcDbLine
 10
128.009543
 20
128.5724
 30
0.0
 11
128.009543
 21
129.822399
 31
0.0
  0
LINE
  5
2E6
330
1F
100
AcDbEntity
  8
LC-001-100-D00-0
 62
     7
370
    50
100
AcDbLine
 10
-1.99046
 20
129.822399
 30
0.0
 11
-0.490457
 21
129.822399
 31
0.0
  0
LINE
  5
2E7
330
1F
100
AcDbEntity
  8
LC-001-100-D00-0
 62
     7
370
    50
100
AcDbLine
 10
-4.490457
 20
139.822397
 30
0.0
 11
-4.24046
 21
139.822397
 31
0.0
  0
LINE
  5
2E8
330
1F
100
AcDbEntity
  8
LC-001-100-D00-0
 62
     7
370
    50
100
AcDbLine
 10
128.009543
 20
129.822399
 30
0.0
 11
129.509546
 21
129.822399
 31
0.0
  0
LINE
  5
2E9
330
1F
100
AcDbEntity
  8
LC-001-100-D00-0
 62
     7
370
    50
100
AcDbLine
 10
131.759547
 20
139.822397
 30
0.0
 11
132.009544
 21
139.822397
 31
0.0
  0
LINE
  5
2EA
330
1F
100
AcDbEntity
  8
LC-001-100-D00-0
 62
     7
370
    50
100
AcDbLine
 10
1.263984
 20
116.322904
 30
0.0
 11
7.183664
 21
123.393971
 31
0.0
  0
LINE
  5
2EB
330
1F
100
AcDbEntity
  8
LC-001-100-D00-0
 62
     7
370
    50
100
AcDbLine
 10
0.086323
 20
117.729626
 30
0.0
 11
1.263984
 21
116.322904
 31
0.0
  0
LINE
  5
2EC
330
1F
100
AcDbEntity
  8
LC-001-100-D00-0
 62
     7
370
    50
100
AcDbLine
 10
7.183664
 20
123.393971
 30
0.0
 11
7.183664
 21
126.205511
 31
0.0
  0
LINE
  5
2ED
330
1F
100
AcDbEntity
  8
LC-001-100-D00-0
 62
     7
370
    50
100
AcDbLine
 10
1.263984
 20
116.322904
 30
0.0
 11
2.904818
 21
116.322904
 31
0.0
  0
LINE
  5
2EE
330
1F
100
AcDbEntity
  8
LC-001-100-D00-0
 62
     7
370
    50
100
AcDbLine
 10
7.183664
 20
123.393971
 30
0.0
 11
8.824498
 21
123.393971
 31
0.0
  0
LINE
  5
2EF
330
1F
100
AcDbEntity
  8
LC-001-100-D00-0
 62
     7
370
    50
100
AcDbLine
 10
2.904818
 20
116.322904
 30
0.0
 11
8.824498
 21
123.393971
 31
0.0
  0
LINE
  5
2F0
330
1F
100
AcDbEntity
  8
LC-001-100-D00-0
 62
     7
370
    50
100
AcDbLine
 10
8.824498
 20
123.393971
 30
0.0
 11
8.824498
 21
126.205511
 31
0.0
  0
LINE
  5
2F1
330
1F
100
AcDbEntity
  8
LC-001-100-D00-0
 62
     7
370
    50
100
AcDbLine
 10
101.441775
 20
123.393971
 30
0.0
 11
101.441775
 21
126.205511
 31
0.0
  0
LINE
  5
2F2
330
1F
100
AcDbEntity
  8
LC-001-100-D00-0
 62
     7
370
    50
100
AcDbLine
 10
98.93027
 20
123.393971
 30
0.0
 11
101.441775
 21
123.393971
 31
0.0
  0
LINE
  5
2F3
330
1F
100
AcDbEntity
  8
LC-001-100-D00-0
 62
     7
370
    50
100
AcDbLine
 10
98.93027
 20
123.393971
 30
0.0
 11
98.93027
 21
126.205511
 31
0.0
  0
LINE
  5
2F4
330
1F
100
AcDbEntity
  8
LC-001-100-D00-0
 62
     7
370
    50
100
AcDbLine
 10
102.798026
 20
116.322398
 30
0.0
 11
105.309531
 21
116.322398
 31
0.0
  0
LINE
  5
2F5
330
1F
100
AcDbEntity
  8
LC-001-100-D00-0
 62
     7
370
    50
100
AcDbLine
 10
102.798026
 20
116.322398
 30
0.0
 11
98.93027
 21
123.393971
 31
0.0
  0
LINE
  5
2F6
330
1F
100
AcDbEntity
  8
LC-001-100-D00-0
 62
     7
370
    50
100
AcDbLine
 10
105.309531
 20
116.322398
 30
0.0
 11
101.441775
 21
123.393971
 31
0.0
  0
LINE
  5
2F7
330
1F
100
AcDbEntity
  8
LC-001-100-D00-0
 62
     7
370
    50
100
AcDbLine
 10
106.07893
 20
117.729123
 30
0.0
 11
105.309531
 21
116.322398
 31
0.0
  0
INSERT
  5
2FD
330
1F
100
AcDbEntity
  8
LC-001-100-D00-0
 62
     7
370
    50
100
AcDbBlockReference
  2
KLON4
 10
0.0
 20
0.0
 30
0.0
  0
LINE
  5
2FE
330
1F
100
AcDbEntity
  8
LC-001-100-D00-0
 62
     7
370
    50
100
AcDbLine
 10
-4.490457
 20
137.142905
 30
0.0
 11
-3.3512
 21
138.282161
 31
0.0
  0
INSERT
  5
311
330
1F
100
AcDbEntity
  8
LC-001-100-D00-0
 62
     1
370
    25
100
AcDbBlockReference
  2
KLON5
 10
0.0
 20
0.0
 30
0.0
  0
INSERT
  5
321
330
1F
100
AcDbEntity
  8
LC-001-100-D00-0
 62
     1
370
    25
100
AcDbBlockReference
  2
KLON6
 10
0.0
 20
0.0
 30
0.0
  0
LINE
  5
322
330
1F
100
AcDbEntity
  8
LC-001-100-D00-0
 62
     1
370
    25
100
AcDbLine
 10
-107.915746
 20
213.322738
 30
0.0
 11
-105.328312
 21
215.910172
 31
0.0
  0
INSERT
  5
334
330
1F
100
AcDbEntity
  8
LC-001-100-D00-0
 62
     1
370
    25
100
AcDbBlockReference
  2
KLON7
 10
0.0
 20
0.0
 30
0.0
  0
LINE
  5
335
330
1F
100
AcDbEntity
  8
LC-001-100-D00-0
 62
     7
370
    50
100
AcDbLine
 10
131.955328
 20
183.786128
 30
0.0
 11
134.693088
 21
186.523888
 31
0.0
  0
LINE
  5
336
330
1F
100
AcDbEntity
  8
LC-001-100-D00-0
 62
     7
370
    50
100
AcDbLine
 10
-2.510754
 20
184.023888
 30
0.0
 11
-1.173938
 21
185.360704
 31
0.0
  0
LINE
  5
338
330
1F
100
AcDbEntity
  8
LC-001-100-D00-0
  6
DASHDOT
 62
     7
370
    25
100
AcDbLine
 10
63.759543
 20
56.822397
 30
0.0
 11
63.759543
 21
291.822325
 31
0.0
  0
DIMENSION
  5
33C
330
1F
100
AcDbEntity
  8
LC-002-003-----0
 62
     7
370
    25
100
AcDbDimension
  2
*D27
 10
-127.668393
 20
56.822397
 30
0.0
 11
-158.468393
 21
139.666739
 31
0.0
 70
   160
 71
     5
 42
159.999925
 53
90.0
  3
LC-DIM-L-0140-02-02
100
AcDbAlignedDimension
 13
-114.24046
 23
216.822322
 33
0.0
 14
-13.490453
 24
56.822397
 34
0.0
 50
90.0
100
AcDbRotatedDimension
  0
DIMENSION
  5
34A
330
1F
100
AcDbEntity
  8
LC-002-003-----0
 62
     7
370
    25
100
AcDbDimension
  2
*D28
 10
143.859543
 20
8.392739
 30
0.0
 11
63.969189
 21
39.192739
 31
0.0
 70
   160
  1
DN150
 71
     5
 42
160.2
  3
LC-DIM-L-0140-02-02
100
AcDbAlignedDimension
 13
-16.340457
 23
61.822397
 33
0.0
 14
143.859543
 24
61.822397
 34
0.0
100
AcDbRotatedDimension
  0
DIMENSION
  5
357
330
1F
100
AcDbEntity
  8
LC-002-003-----0
 62
     7
370
    25
100
AcDbDimension
  2
*D29
 10
243.75955
 20
323.212739
 30
0.0
 11
55.178474
 21
354.012739
 31
0.0
 70
   160
  1
%%c<>
 71
     5
 42
360.000014
  3
LC-DIM-L-0140-02-02
100
AcDbAlignedDimension
 13
-116.240464
 23
213.322739
 33
0.0
 14
243.75955
 24
213.322739
 34
0.0
100
AcDbRotatedDimension
  0
LINE
  5
364
330
1F
100
AcDbEntity
  8
LC-001-100-D00-0
 62
     7
370
    15
100
AcDbLine
 10
-10.475136
 20
138.6724
 30
0.0
 11
-12.974389
 21
138.6724
 31
0.0
  0
LINE
  5
365
330
1F
100
AcDbEntity
  8
LC-001-100-D00-0
 62
     7
370
    15
100
AcDbLine
 10
-12.974389
 20
125.972397
 30
0.0
 11
-10.475136
 21
125.972397
 31
0.0
  0
LINE
  5
366
330
1F
100
AcDbEntity
  8
LC-001-100-D00-0
 62
     7
370
    15
100
AcDbLine
 10
-12.974389
 20
136.572394
 30
0.0
 11
-13.056367
 21
136.572394
 31
0.0
  0
LINE
  5
367
330
1F
100
AcDbEntity
  8
LC-001-100-D00-0
 62
     7
370
    15
100
AcDbLine
 10
-16.340457
 20
136.572394
 30
0.0
 11
-35.467639
 21
136.572394
 31
0.0
  0
LINE
  5
368
330
1F
100
AcDbEntity
  8
LC-001-100-D00-0
 62
     7
370
    15
100
AcDbLine
 10
-35.467639
 20
128.072399
 30
0.0
 11
-16.340457
 21
128.072399
 31
0.0
  0
LINE
  5
369
330
1F
100
AcDbEntity
  8
LC-001-100-D00-0
 62
     7
370
    15
100
AcDbLine
 10
-13.101786
 20
128.072399
 30
0.0
 11
-12.974389
 21
128.072399
 31
0.0
  0
INSERT
  5
377
330
1F
100
AcDbEntity
  8
LC-001-100-D00-0
 62
     7
370
    15
100
AcDbBlockReference
  2
POLY20
 10
0.0
 20
0.0
 30
0.0
  0
INSERT
  5
393
330
1F
100
AcDbEntity
  8
LC-001-100-D00-0
 62
     7
370
    15
100
AcDbBlockReference
  2
POLY21
 10
0.0
 20
0.0
 30
0.0
  0
LINE
  5
394
330
1F
100
AcDbEntity
  8
LC-001-100-D00-0
 62
     7
370
    15
100
AcDbLine
 10
-33.866465
 20
129.283081
 30
0.0
 11
-33.284835
 21
129.322398
 31
0.0
  0
INSERT
  5
3A0
330
1F
100
AcDbEntity
  8
LC-001-100-D00-0
 62
     7
370
    15
100
AcDbBlockReference
  2
POLY22
 10
0.0
 20
0.0
 30
0.0
  0
INSERT
  5
3AE
330
1F
100
AcDbEntity
  8
LC-001-100-D00-0
 62
     7
370
    15
100
AcDbBlockReference
  2
POLY23
 10
0.0
 20
0.0
 30
0.0
  0
INSERT
  5
3BC
330
1F
100
AcDbEntity
  8
LC-001-100-D00-0
 62
     7
370
    15
100
AcDbBlockReference
  2
POLY24
 10
0.0
 20
0.0
 30
0.0
  0
INSERT
  5
3D2
330
1F
100
AcDbEntity
  8
LC-001-100-D00-0
 62
     7
370
    15
100
AcDbBlockReference
  2
POLY25
 10
0.0
 20
0.0
 30
0.0
  0
LINE
  5
3D3
330
1F
100
AcDbEntity
  8
LC-001-100-D00-0
 62
     7
370
    15
100
AcDbLine
 10
-33.284835
 20
129.322398
 30
0.0
 11
-16.340457
 21
129.322398
 31
0.0
  0
LINE
  5
3D4
330
1F
100
AcDbEntity
  8
LC-001-100-D00-0
 62
     7
370
    15
100
AcDbLine
 10
-13.09511
 20
129.322398
 30
0.0
 11
-11.291437
 21
129.322398
 31
0.0
  0
LINE
  5
3D5
330
1F
100
AcDbEntity
  8
LC-001-100-D00-0
 62
     7
370
    15
100
AcDbLine
 10
-11.291437
 20
135.322395
 30
0.0
 11
-13.063051
 21
135.322395
 31
0.0
  0
LINE
  5
3D6
330
1F
100
AcDbEntity
  8
LC-001-100-D00-0
 62
     7
370
    15
100
AcDbLine
 10
-16.340457
 20
135.322395
 30
0.0
 11
-33.284835
 21
135.322395
 31
0.0
  0
LINE
  5
3D7
330
1F
100
AcDbEntity
  8
LC-001-100-D00-0
 62
     7
370
    15
100
AcDbLine
 10
-44.280633
 20
-47.677603
 30
0.0
 11
-44.280633
 21
118.322398
 31
0.0
  0
LINE
  5
3D8
330
1F
100
AcDbEntity
  8
LC-001-100-D00-0
 62
     7
370
    15
100
AcDbLine
 10
-50.280638
 20
118.322398
 30
0.0
 11
-50.280638
 21
-47.677603
 31
0.0
  0
LINE
  5
3D9
330
1F
100
AcDbEntity
  8
LC-001-100-D00-0
 62
     7
370
    15
100
AcDbLine
 10
-10.292634
 20
157.322395
 30
0.0
 11
-10.292634
 21
136.322397
 31
0.0
  0
LINE
  5
3DA
330
1F
100
AcDbEntity
  8
LC-001-100-D00-0
 62
     7
370
    15
100
AcDbLine
 10
-4.292637
 20
139.822397
 30
0.0
 11
-4.292637
 21
157.322395
 31
0.0
  0
ELLIPSE
  5
3DB
330
1F
100
AcDbEntity
  8
LC-001-100-D00-0
 62
     7
370
    15
100
AcDbEllipse
 10
-58.73219
 20
132.322397
 30
0.0
 11
259.2741695272812
 21
0.0
 31
0.0
210
0.0
220
0.0
230
1.0
 40
0.024491
 41
1.383467265726322
 42
1.393275247531687
  0
INSERT
  5
3E2
330
1F
100
AcDbEntity
  8
LC-001-100-D00-0
 62
     7
370
    13
100
AcDbBlockReference
  2
KLON8
 10
0.0
 20
0.0
 30
0.0
  0
INSERT
  5
3E8
330
1F
100
AcDbEntity
  8
LC-001-100-D00-0
 62
     7
370
    13
100
AcDbBlockReference
  2
KLON9
 10
0.0
 20
0.0
 30
0.0
  0
ELLIPSE
  5
3E9
330
1F
100
AcDbEntity
  8
LC-001-100-D00-0
 62
     7
370
    15
100
AcDbEllipse
 10
-58.73219
 20
132.322397
 30
0.0
 11
259.2741695272812
 21
0.0
 31
0.0
210
0.0
220
0.0
230
1.0
 40
0.024491
 41
4.889910059647904
 42
4.899718041453276
  0
LINE
  5
3EA
330
1F
100
AcDbEntity
  8
LC-001-100-D00-0
 62
     7
370
    15
100
AcDbLine
 10
-10.446176
 20
126.083489
 30
0.0
 11
-10.475136
 21
125.972397
 31
0.0
  0
LINE
  5
3EB
330
1F
100
AcDbEntity
  8
LC-001-100-D00-0
 62
     7
370
    15
100
AcDbLine
 10
-10.475136
 20
138.6724
 30
0.0
 11
-10.446176
 21
138.561304
 31
0.0
  0
ELLIPSE
  5
3EC
330
1F
100
AcDbEntity
  8
LC-001-100-D00-0
 62
     7
370
    15
100
AcDbEllipse
 10
-58.73219
 20
132.322397
 30
0.0
 11
173.5299559848703
 21
0.0
 31
0.0
210
0.0
220
0.0
230
1.0
 40
0.024491
 41
1.3037885105172
 42
1.436243742921903
  0
ARC
  5
3ED
330
1F
100
AcDbEntity
  8
LC-001-100-D00-0
 62
     7
370
    15
100
AcDbCircle
 10
-32.974807
 20
128.792087
 30
0.0
 40
2.570783612736899
100
AcDbArc
 50
174.493161
 51
195.36731
  0
ARC
  5
3EE
330
1F
100
AcDbEntity
  8
LC-001-100-D00-0
 62
     7
370
    15
100
AcDbCircle
 10
-28.354777
 20
135.368826
 30
0.0
 40
7.193884775765215
100
AcDbArc
 50
170.679006
 51
181.740883
  0
ELLIPSE
  5
3EF
330
1F
100
AcDbEntity
  8
LC-001-100-D00-0
 62
     7
370
    15
100
AcDbEllipse
 10
-58.73219
 20
132.322397
 30
0.0
 11
173.5299559848703
 21
0.0
 31
0.0
210
0.0
220
0.0
230
1.0
 40
0.024491
 41
4.84694156425767
 42
4.979396796662387
  0
LINE
  5
3F0
330
1F
100
AcDbEntity
  8
LC-001-100-D00-0
 62
     7
370
    15
100
AcDbLine
 10
-12.946926
 20
128.222998
 30
0.0
 11
-12.974389
 21
128.072399
 31
0.0
  0
LINE
  5
3F1
330
1F
100
AcDbEntity
  8
LC-001-100-D00-0
 62
     7
370
    15
100
AcDbLine
 10
-12.974389
 20
136.572394
 30
0.0
 11
-12.946926
 21
136.421795
 31
0.0
  0
LINE
  5
3F2
330
1F
100
AcDbEntity
  8
LC-001-100-D00-0
 62
     7
370
    15
100
AcDbLine
 10
-12.946926
 20
136.421795
 30
0.0
 11
-12.946926
 21
138.572607
 31
0.0
  0
LINE
  5
3F3
330
1F
100
AcDbEntity
  8
LC-001-100-D00-0
 62
     7
370
    15
100
AcDbLine
 10
-12.946926
 20
126.07219
 30
0.0
 11
-12.946926
 21
128.222998
 31
0.0
  0
ELLIPSE
  5
3F4
330
1F
100
AcDbEntity
  8
LC-001-100-D00-0
 62
     7
370
    15
100
AcDbEllipse
 10
-58.73219
 20
132.322397
 30
0.0
 11
144.9485514688514
 21
0.0
 31
0.0
210
0.0
220
0.0
230
1.0
 40
0.024491
 41
4.873685937832949
 42
5.05200514553832
  0
LINE
  5
3F5
330
1F
100
AcDbEntity
  8
LC-001-100-D00-0
 62
     7
370
    15
100
AcDbLine
 10
-35.453677
 20
128.818478
 30
0.0
 11
-35.467639
 21
128.772396
 31
0.0
  0
ARC
  5
3F6
330
1F
100
AcDbEntity
  8
LC-001-100-D00-0
 62
     7
370
    15
100
AcDbCircle
 10
-33.679043
 20
135.321826
 30
0.0
 40
1.844948725008782
100
AcDbArc
 50
164.130723
 51
184.210907
  0
ELLIPSE
  5
3F7
330
1F
100
AcDbEntity
  8
LC-001-100-D00-0
 62
     7
370
    15
100
AcDbEllipse
 10
-58.73219
 20
132.322397
 30
0.0
 11
144.9485514688514
 21
0.0
 31
0.0
210
0.0
220
0.0
230
1.0
 40
0.024491
 41
1.2311801616413
 42
1.409499369346632
  0
LINE
  5
3F8
330
1F
100
AcDbEntity
  8
LC-001-100-D00-0
 62
     7
370
    15
100
AcDbLine
 10
-10.504067
 20
128.974664
 30
0.0
 11
-10.522052
 21
129.333641
 31
0.0
  0
LINE
  5
3F9
330
1F
100
AcDbEntity
  8
LC-001-100-D00-0
 62
     7
370
    15
100
AcDbLine
 10
-35.453677
 20
135.826315
 30
0.0
 11
-35.453677
 21
136.533986
 31
0.0
  0
LINE
  5
3FA
330
1F
100
AcDbEntity
  8
LC-001-100-D00-0
 62
     7
370
    15
100
AcDbLine
 10
-35.453677
 20
128.110814
 30
0.0
 11
-35.453677
 21
128.818478
 31
0.0
  0
LINE
  5
3FB
330
1F
100
AcDbEntity
  8
LC-001-100-D00-0
 62
     7
370
    15
100
AcDbLine
 10
-10.446176
 20
128.975164
 30
0.0
 11
-10.446176
 21
126.083489
 31
0.0
  0
LINE
  5
3FC
330
1F
100
AcDbEntity
  8
LC-001-100-D00-0
 62
     7
370
    15
100
AcDbLine
 10
-10.446176
 20
138.561304
 30
0.0
 11
-10.446176
 21
135.669629
 31
0.0
  0
ARC
  5
3FD
330
1F
100
AcDbEntity
  8
LC-001-100-D00-0
 62
     7
370
    15
100
AcDbCircle
 10
-9.240457
 20
159.322397
 30
0.0
 40
2.0
100
AcDbArc
 50
180.0
 51
270.0
  0
ARC
  5
3FE
330
1F
100
AcDbEntity
  8
LC-001-100-D00-0
 62
     7
370
    15
100
AcDbCircle
 10
136.759543
 20
159.322397
 30
0.0
 40
1.999999999999886
100
AcDbArc
 50
270.0
 51
0.0
  0
ARC
  5
3FF
330
1F
100
AcDbEntity
  8
LC-001-100-D00-0
 62
     7
370
    15
100
AcDbCircle
 10
-9.240457
 20
167.322397
 30
0.0
 40
1.999999999999886
100
AcDbArc
 50
90.0
 51
180.0
  0
ARC
  5
400
330
1F
100
AcDbEntity
  8
LC-001-100-D00-0
 62
     7
370
    15
100
AcDbCircle
 10
136.759543
 20
167.322397
 30
0.0
 40
1.999999999999773
100
AcDbArc
 50
0.0
 51
90.0
  0
LINE
  5
401
330
1F
100
AcDbEntity
  8
LC-001-100-D00-0
 62
     7
370
    15
100
AcDbLine
 10
-11.24046
 20
159.322399
 30
0.0
 11
-11.24046
 21
167.3224
 31
0.0
  0
LINE
  5
402
330
1F
100
AcDbEntity
  8
LC-001-100-D00-0
 62
     7
370
    15
100
AcDbLine
 10
138.759546
 20
167.3224
 30
0.0
 11
138.759546
 21
159.322399
 31
0.0
  0
ARC
  5
403
330
1F
100
AcDbEntity
  8
LC-001-100-D00-0
 62
     7
370
    15
100
AcDbCircle
 10
-5.240457
 20
159.322397
 30
0.0
 40
1.999999999999886
100
AcDbArc
 50
270.0
 51
0.0
  0
ARC
  5
404
330
1F
100
AcDbEntity
  8
LC-001-100-D00-0
 62
     7
370
    15
100
AcDbCircle
 10
132.759543
 20
159.322397
 30
0.0
 40
2.000000000000227
100
AcDbArc
 50
180.0
 51
270.0
  0
LINE
  5
405
330
1F
100
AcDbEntity
  8
LC-001-100-D00-0
 62
     7
370
    15
100
AcDbLine
 10
132.759541
 20
157.322395
 30
0.0
 11
130.759545
 21
157.322395
 31
0.0
  0
LINE
  5
406
330
1F
100
AcDbEntity
  8
LC-001-100-D00-0
 62
     7
370
    15
100
AcDbLine
 10
-3.240458
 20
157.322395
 30
0.0
 11
-4.292637
 21
157.322395
 31
0.0
  0
ARC
  5
407
330
1F
100
AcDbEntity
  8
LC-001-100-D00-0
 62
     7
370
    15
100
AcDbCircle
 10
-5.240457
 20
167.322397
 30
0.0
 40
2.0
100
AcDbArc
 50
0.0
 51
90.0
  0
ARC
  5
408
330
1F
100
AcDbEntity
  8
LC-001-100-D00-0
 62
     7
370
    15
100
AcDbCircle
 10
132.759543
 20
167.322397
 30
0.0
 40
2.000000000000227
100
AcDbArc
 50
90.0
 51
180.0
  0
LINE
  5
409
330
1F
100
AcDbEntity
  8
LC-001-100-D00-0
 62
     7
370
    15
100
AcDbLine
 10
-3.240458
 20
167.3224
 30
0.0
 11
-3.240458
 21
159.322399
 31
0.0
  0
LINE
  5
40A
330
1F
100
AcDbEntity
  8
LC-001-100-D00-0
 62
     7
370
    15
100
AcDbLine
 10
130.759545
 20
159.322399
 30
0.0
 11
130.759545
 21
167.3224
 31
0.0
  0
LINE
  5
40B
330
1F
100
AcDbEntity
  8
LC-001-100-D00-0
 62
     7
370
    15
100
AcDbLine
 10
-4.570156
 20
157.322395
 30
0.0
 11
-5.240455
 21
157.322395
 31
0.0
  0
LINE
  5
40C
330
1F
100
AcDbEntity
  8
LC-001-100-D00-0
 62
     7
370
    15
100
AcDbLine
 10
-4.570156
 20
136.322397
 30
0.0
 11
-4.570156
 21
157.322395
 31
0.0
  0
INSERT
  5
41E
330
1F
100
AcDbEntity
  8
LC-001-100-D00-0
 62
     7
370
    15
100
AcDbBlockReference
  2
POLY26
 10
0.0
 20
0.0
 30
0.0
  0
ELLIPSE
  5
41F
330
1F
100
AcDbEntity
  8
LC-001-100-D00-0
 62
     7
370
    15
100
AcDbEllipse
 10
-58.73219
 20
132.322397
 30
0.0
 11
122.4917336348957
 21
0.0
 31
0.0
210
0.0
220
0.0
230
0.9999999999999999
 40
0.024491
 41
4.921788139281486
 42
5.110339758722851
  0
INSERT
  5
431
330
1F
100
AcDbEntity
  8
LC-001-100-D00-0
 62
     7
370
    15
100
AcDbBlockReference
  2
POLY27
 10
0.0
 20
0.0
 30
0.0
  0
LINE
  5
432
330
1F
100
AcDbEntity
  8
LC-001-100-D00-0
 62
     7
370
    15
100
AcDbLine
 10
-44.293783
 20
118.322398
 30
0.0
 11
-44.293783
 21
-47.677603
 31
0.0
  0
LINE
  5
433
330
1F
100
AcDbEntity
  8
LC-001-100-D00-0
 62
     7
370
    15
100
AcDbLine
 10
-44.293783
 20
-47.677603
 30
0.0
 11
-50.267488
 21
-47.677603
 31
0.0
  0
LINE
  5
434
330
1F
100
AcDbEntity
  8
LC-001-100-D00-0
 62
     7
370
    15
100
AcDbLine
 10
-50.267488
 20
-47.677603
 30
0.0
 11
-50.267488
 21
118.322398
 31
0.0
  0
INSERT
  5
44E
330
1F
100
AcDbEntity
  8
LC-001-100-D00-0
 62
     7
370
    15
100
AcDbBlockReference
  2
POLY28
 10
0.0
 20
0.0
 30
0.0
  0
ELLIPSE
  5
44F
330
1F
100
AcDbEntity
  8
LC-001-100-D00-0
 62
     7
370
    15
100
AcDbEllipse
 10
-58.73219
 20
132.322397
 30
0.0
 11
122.4917336348957
 21
0.0
 31
0.0
210
0.0
220
0.0
230
0.9999999999999999
 40
0.024491
 41
1.172845548456894
 42
1.361397167898151
  0
INSERT
  5
461
330
1F
100
AcDbEntity
  8
LC-001-100-D00-0
 62
     7
370
    15
100
AcDbBlockReference
  2
POLY29
 10
0.0
 20
0.0
 30
0.0
  0
LINE
  5
462
330
1F
100
AcDbEntity
  8
LC-001-100-D00-0
 62
     7
370
    15
100
AcDbLine
 10
-10.015107
 20
157.322395
 30
0.0
 11
-10.015107
 21
136.322397
 31
0.0
  0
LINE
  5
463
330
1F
100
AcDbEntity
  8
LC-001-100-D00-0
 62
     7
370
    15
100
AcDbLine
 10
-9.240456
 20
157.322395
 30
0.0
 11
-10.015107
 21
157.322395
 31
0.0
  0
LINE
  5
464
330
1F
100
AcDbEntity
  8
LC-001-100-D00-0
 62
     7
370
    15
100
AcDbLine
 10
-9.240456
 20
169.322397
 30
0.0
 11
-5.240455
 21
169.322397
 31
0.0
  0
LINE
  5
465
330
1F
100
AcDbEntity
  8
LC-001-100-D00-0
 62
     7
370
    15
100
AcDbLine
 10
136.759542
 20
157.322395
 30
0.0
 11
132.759541
 21
157.322395
 31
0.0
  0
LINE
  5
466
330
1F
100
AcDbEntity
  8
LC-001-100-D00-0
 62
     7
370
    15
100
AcDbLine
 10
132.759541
 20
169.322397
 30
0.0
 11
136.759542
 21
169.322397
 31
0.0
  0
LINE
  5
467
330
1F
100
AcDbEntity
  8
LC-001-100-D00-0
 62
     7
370
    15
100
AcDbLine
 10
-50.267488
 20
-47.677603
 30
0.0
 11
-50.280638
 21
-47.677603
 31
0.0
  0
LINE
  5
468
330
1F
100
AcDbEntity
  8
LC-001-100-D00-0
 62
     7
370
    15
100
AcDbLine
 10
-44.280633
 20
-47.677603
 30
0.0
 11
-44.293783
 21
-47.677603
 31
0.0
  0
LINE
  5
469
330
1F
100
AcDbEntity
  8
LC-001-100-D00-0
 62
     7
370
    15
100
AcDbLine
 10
-4.292637
 20
157.322395
 30
0.0
 11
-4.570156
 21
157.322395
 31
0.0
  0
LINE
  5
46A
330
1F
100
AcDbEntity
  8
LC-001-100-D00-0
 62
     7
370
    15
100
AcDbLine
 10
-10.015107
 20
157.322395
 30
0.0
 11
-10.292634
 21
157.322395
 31
0.0
  0
LINE
  5
46B
330
1F
100
AcDbEntity
  8
LC-001-100-D00-0
 62
     7
370
    15
100
AcDbLine
 10
-3.240458
 20
169.322397
 30
0.0
 11
-6.640456
 21
169.322397
 31
0.0
  0
LINE
  5
46C
330
1F
100
AcDbEntity
  8
LC-001-100-D00-0
 62
     7
370
    15
100
AcDbLine
 10
134.159543
 20
169.322397
 30
0.0
 11
130.759545
 21
169.322397
 31
0.0
  0
LINE
  5
46D
330
1F
100
AcDbEntity
  8
LC-001-100-D00-0
 62
     7
370
    -2
100
AcDbLine
 10
136.467093
 20
157.322397
 30
0.0
 11
138.759543
 21
159.614847
 31
0.0
  0
LINE
  5
46E
330
1F
100
AcDbEntity
  8
LC-001-100-D00-0
 62
     7
370
    -2
100
AcDbLine
 10
-27.415012
 20
128.144134
 30
0.0
 11
-19.819747
 21
135.739399
 31
0.0
  0
LINE
  5
46F
330
1F
100
AcDbEntity
  8
LC-001-100-D00-0
 62
     7
370
    -2
100
AcDbLine
 10
-26.695875
 20
128.86327
 30
0.0
 11
-19.101436
 21
136.45771
 31
0.0
  0
ENDSEC
  0
SECTION
  2
OBJECTS
  0
DICTIONARY
  5
C
330
0
100
AcDbDictionary
281
     1
  3
ACAD_GROUP
350
D
  3
ACAD_LAYOUT
350
1A
  3
ACAD_MLINESTYLE
350
17
  3
ACAD_PLOTSETTINGS
350
19
  3
ACAD_PLOTSTYLENAME
350
E
  0
DICTIONARY
  5
D
102
{ACAD_REACTORS
330
C
102
}
330
C
100
AcDbDictionary
281
     1
  0
DICTIONARY
  5
1A
102
{ACAD_REACTORS
330
C
102
}
330
C
100
AcDbDictionary
281
     1
  3
Layout1
350
1E
  3
Layout2
350
26
  3
Model
350
22
  0
DICTIONARY
  5
17
102
{ACAD_REACTORS
330
C
102
}
330
C
100
AcDbDictionary
281
     1
  3
Standard
350
18
  0
DICTIONARY
  5
19
102
{ACAD_REACTORS
330
C
102
}
330
C
100
AcDbDictionary
281
     1
  0
ACDBDICTIONARYWDFLT
  5
E
102
{ACAD_REACTORS
330
C
102
}
330
C
100
AcDbDictionary
281
     1
  3
Normal
350
F
100
AcDbDictionaryWithDefault
340
F
  0
LAYOUT
  5
1E
102
{ACAD_REACTORS
330
1A
102
}
330
1A
100
AcDbPlotSettings
  1

  2

  4

  6

 40
0.0
 41
0.0
 42
0.0
 43
0.0
 44
0.0
 45
0.0
 46
0.0
 47
0.0
 48
0.0
 49
0.0
140
0.0
141
0.0
142
1.0
143
1.0
 70
   688
 72
     0
 73
     0
 74
     5
  7

 75
    16
147
1.0
148
0.0
149
0.0
100
AcDbLayout
  1
Layout1
 70
     1
 71
     1
 10
-298.891165
 20
-154.363261
 11
541.108835
 21
439.636739
 12
0.0
 22
0.0
 32
0.0
 14
-298.891165
 24
-154.363261
 34
0.0
 15
541.108835
 25
439.636739
 35
0.0
146
0.0
 13
0.0
 23
0.0
 33
0.0
 16
1.0
 26
0.0
 36
0.0
 17
0.0
 27
1.0
 37
0.0
 76
     0
330
1B
  0
LAYOUT
  5
26
102
{ACAD_REACTORS
330
1A
102
}
330
1A
100
AcDbPlotSettings
  1

  2

  4

  6

 40
0.0
 41
0.0
 42
0.0
 43
0.0
 44
0.0
 45
0.0
 46
0.0
 47
0.0
 48
0.0
 49
0.0
140
0.0
141
0.0
142
1.0
143
1.0
 70
   688
 72
     0
 73
     0
 74
     5
  7

 75
    16
147
1.0
148
0.0
149
0.0
100
AcDbLayout
  1
Layout2
 70
     1
 71
     2
 10
0.0
 20
0.0
 11
0.0
 21
0.0
 12
0.0
 22
0.0
 32
0.0
 14
0.0
 24
0.0
 34
0.0
 15
0.0
 25
0.0
 35
0.0
146
0.0
 13
0.0
 23
0.0
 33
0.0
 16
1.0
 26
0.0
 36
0.0
 17
0.0
 27
1.0
 37
0.0
 76
     0
330
23
  0
LAYOUT
  5
22
102
{ACAD_REACTORS
330
1A
102
}
330
1A
100
AcDbPlotSettings
  1

  2

  4

  6

 40
0.0
 41
0.0
 42
0.0
 43
0.0
 44
0.0
 45
0.0
 46
0.0
 47
0.0
 48
0.0
 49
0.0
140
0.0
141
0.0
142
1.0
143
1.0
 70
  1776
 72
     0
 73
     0
 74
     0
  7

 75
     0
147
1.0
148
0.0
149
0.0
100
AcDbLayout
  1
Model
 70
     1
 71
     0
 10
-298.891165
 20
-154.363261
 11
541.108835
 21
439.636739
 12
0.0
 22
0.0
 32
0.0
 14
-298.891165
 24
-154.363261
 34
0.0
 15
541.108835
 25
439.636739
 35
0.0
146
0.0
 13
0.0
 23
0.0
 33
0.0
 16
1.0
 26
0.0
 36
0.0
 17
0.0
 27
1.0
 37
0.0
 76
     0
330
1F
  0
MLINESTYLE
  5
18
102
{ACAD_REACTORS
330
17
102
}
330
17
100
AcDbMlineStyle
  2
Standard
 70
     0
  3

 62
   256
 51
90.0
 52
90.0
 71
     2
 49
0.5
 62
   256
  6
BYLAYER
 49
-0.5
 62
   256
  6
BYLAYER
  0
ACDBPLACEHOLDER
  5
F
102
{ACAD_REACTORS
330
E
102
}
330
E
  0
ENDSEC
  0
EOF
