  0
SECTION
  2
HEADER
  9
$ACADVER
  1
AC1015
  9
$ACADMAINTVER
 70
     6
  9
$DWGCODEPAGE
  3
ANSI_1252
  9
$INSBASE
 10
19.512808
 20
11.753976
 30
0.0
  9
$EXTMIN
 10
19.512808
 20
11.753976
 30
0.0
  9
$EXTMAX
 10
859.512808
 20
605.753976
 30
0.0
  9
$LIMMIN
 10
19.512808
 20
11.753976
  9
$LIMMAX
 10
859.512808
 20
605.753976
  9
$ORTHOMODE
 70
     0
  9
$REGENMODE
 70
     1
  9
$FILLMODE
 70
     1
  9
$QTEXTMODE
 70
     0
  9
$MIRRTEXT
 70
     1
  9
$LTSCALE
 40
2.0
  9
$ATTMODE
 70
     1
  9
$TEXTSIZE
 40
2.5
  9
$TRACEWID
 40
1.0
  9
$TEXTSTYLE
  7
Standard
  9
$CLAYER
  8
0
  9
$CELTYPE
  6
ByLayer
  9
$CECOLOR
 62
     7
  9
$CELTSCALE
 40
1.0
  9
$DISPSILH
 70
     0
  9
$DIMSCALE
 40
2.0
  9
$DIMASZ
 40
3.5
  9
$DIMEXO
 40
0.625
  9
$DIMDLI
 40
3.75
  9
$DIMRND
 40
0.0
  9
$DIMDLE
 40
0.0
  9
$DIMEXE
 40
1.25
  9
$DIMTP
 40
0.0
  9
$DIMTM
 40
0.0
  9
$DIMTXT
 40
3.5
  9
$DIMCEN
 40
2.5
  9
$DIMTSZ
 40
0.0
  9
$DIMTOL
 70
     0
  9
$DIMLIM
 70
     0
  9
$DIMTIH
 70
     0
  9
$DIMTOH
 70
     0
  9
$DIMSE1
 70
     0
  9
$DIMSE2
 70
     0
  9
$DIMTAD
 70
     1
  9
$DIMZIN
 70
     8
  9
$DIMBLK
  1

  9
$DIMASO
 70
     1
  9
$DIMSHO
 70
     1
  9
$DIMPOST
  1

  9
$DIMAPOST
  1

  9
$DIMALT
 70
     0
  9
$DIMALTD
 70
     3
  9
$DIMALTF
 40
0.03937
  9
$DIMLFAC
 40
1.0
  9
$DIMTOFL
 70
     1
  9
$DIMTVP
 40
0.0
  9
$DIMTIX
 70
     0
  9
$DIMSOXD
 70
     0
  9
$DIMSAH
 70
     0
  9
$DIMBLK1
  1

  9
$DIMBLK2
  1

  9
$DIMSTYLE
  2
ISO-25
  9
$DIMCLRD
 70
     0
  9
$DIMCLRE
 70
     0
  9
$DIMCLRT
 70
     0
  9
$DIMTFAC
 40
1.0
  9
$DIMGAP
 40
0.625
  9
$DIMJUST
 70
     0
  9
$DIMSD1
 70
     0
  9
$DIMSD2
 70
     0
  9
$DIMTOLJ
 70
     0
  9
$DIMTZIN
 70
     8
  9
$DIMALTZ
 70
     0
  9
$DIMALTTZ
 70
     0
  9
$DIMUPT
 70
     0
  9
$DIMDEC
 70
     2
  9
$DIMTDEC
 70
     2
  9
$DIMALTU
 70
     2
  9
$DIMALTTD
 70
     3
  9
$DIMTXSTY
  7
Standard
  9
$DIMAUNIT
 70
     0
  9
$DIMADEC
 70
     0
  9
$DIMALTRND
 40
0.0
  9
$DIMAZIN
 70
     0
  9
$DIMDSEP
 70
    44
  9
$DIMATFIT
 70
     3
  9
$DIMFRAC
 70
     0
  9
$DIMLDRBLK
  1

  9
$DIMLUNIT
 70
     2
  9
$DIMLWD
 70
    -2
  9
$DIMLWE
 70
    -2
  9
$DIMTMOVE
 70
     0
  9
$LUNITS
 70
     2
  9
$LUPREC
 70
     4
  9
$SKETCHINC
 40
1.0
  9
$FILLETRAD
 40
10.0
  9
$AUNITS
 70
     0
  9
$AUPREC
 70
     0
  9
$MENU
  1
.
  9
$ELEVATION
 40
0.0
  9
$PELEVATION
 40
0.0
  9
$THICKNESS
 40
0.0
  9
$LIMCHECK
 70
     0
  9
$CHAMFERA
 40
10.0
  9
$CHAMFERB
 40
10.0
  9
$CHAMFERC
 40
20.0
  9
$CHAMFERD
 40
0.0
  9
$SKPOLY
 70
     0
  9
$TDCREATE
 40
2455565.32496882
  9
$TDUCREATE
 40
2455565.283302153
  9
$TDUPDATE
 40
2455565.324968831
  9
$TDUUPDATE
 40
2455565.283302164
  9
$TDINDWG
 40
0.0000000116
  9
$TDUSRTIMER
 40
0.0000000116
  9
$USRTIMER
 70
     1
  9
$ANGBASE
 50
0.0
  9
$ANGDIR
 70
     0
  9
$PDMODE
 70
     0
  9
$PDSIZE
 40
0.0
  9
$PLINEWID
 40
0.0
  9
$SPLFRAME
 70
     0
  9
$SPLINETYPE
 70
     6
  9
$SPLINESEGS
 70
     8
  9
$HANDSEED
  5
742
  9
$SURFTAB1
 70
     6
  9
$SURFTAB2
 70
     6
  9
$SURFTYPE
 70
     6
  9
$SURFU
 70
     6
  9
$SURFV
 70
     6
  9
$UCSBASE
  2

  9
$UCSNAME
  2

  9
$UCSORG
 10
0.0
 20
0.0
 30
0.0
  9
$UCSXDIR
 10
1.0
 20
0.0
 30
0.0
  9
$UCSYDIR
 10
0.0
 20
1.0
 30
0.0
  9
$UCSORTHOREF
  2

  9
$UCSORTHOVIEW
 70
     0
  9
$UCSORGTOP
 10
0.0
 20
0.0
 30
0.0
  9
$UCSORGBOTTOM
 10
0.0
 20
0.0
 30
0.0
  9
$UCSORGLEFT
 10
0.0
 20
0.0
 30
0.0
  9
$UCSORGRIGHT
 10
0.0
 20
0.0
 30
0.0
  9
$UCSORGFRONT
 10
0.0
 20
0.0
 30
0.0
  9
$UCSORGBACK
 10
0.0
 20
0.0
 30
0.0
  9
$PUCSBASE
  2

  9
$PUCSNAME
  2

  9
$PUCSORG
 10
0.0
 20
0.0
 30
0.0
  9
$PUCSXDIR
 10
1.0
 20
0.0
 30
0.0
  9
$PUCSYDIR
 10
0.0
 20
1.0
 30
0.0
  9
$PUCSORTHOREF
  2

  9
$PUCSORTHOVIEW
 70
     0
  9
$PUCSORGTOP
 10
0.0
 20
0.0
 30
0.0
  9
$PUCSORGBOTTOM
 10
0.0
 20
0.0
 30
0.0
  9
$PUCSORGLEFT
 10
0.0
 20
0.0
 30
0.0
  9
$PUCSORGRIGHT
 10
0.0
 20
0.0
 30
0.0
  9
$PUCSORGFRONT
 10
0.0
 20
0.0
 30
0.0
  9
$PUCSORGBACK
 10
0.0
 20
0.0
 30
0.0
  9
$USERI1
 70
     0
  9
$USERI2
 70
     0
  9
$USERI3
 70
     0
  9
$USERI4
 70
     0
  9
$USERI5
 70
     0
  9
$USERR1
 40
0.0
  9
$USERR2
 40
0.0
  9
$USERR3
 40
0.0
  9
$USERR4
 40
0.0
  9
$USERR5
 40
0.0
  9
$WORLDVIEW
 70
     1
  9
$SHADEDGE
 70
     3
  9
$SHADEDIF
 70
    70
  9
$TILEMODE
 70
     1
  9
$MAXACTVP
 70
    64
  9
$PINSBASE
 10
0.0
 20
0.0
 30
0.0
  9
$PLIMCHECK
 70
     0
  9
$PEXTMIN
 10
19.512808
 20
11.753976
 30
0.0
  9
$PEXTMAX
 10
859.512808
 20
605.753976
 30
0.0
  9
$PLIMMIN
 10
19.512808
 20
11.753976
  9
$PLIMMAX
 10
859.512808
 20
605.753976
  9
$UNITMODE
 70
     0
  9
$VISRETAIN
 70
     1
  9
$PLINEGEN
 70
     0
  9
$PSLTSCALE
 70
     1
  9
$TREEDEPTH
 70
  3020
  9
$CMLSTYLE
  2
Standard
  9
$CMLJUST
 70
     0
  9
$CMLSCALE
 40
20.0
  9
$PROXYGRAPHICS
 70
     1
  9
$MEASUREMENT
 70
     1
  9
$CELWEIGHT
370
    -1
  9
$ENDCAPS
280
     0
  9
$JOINSTYLE
280
     0
  9
$LWDISPLAY
290
     0
  9
$INSUNITS
 70
     4
  9
$HYPERLINKBASE
  1

  9
$STYLESHEET
  1

  9
$XEDIT
290
     1
  9
$CEPSNTYPE
380
     0
  9
$PSTYLEMODE
290
     1
  9
$FINGERPRINTGUID
  2
{FAEB1C30-E019-11D5-929B-00C0DF256EC4}
  9
$VERSIONGUID
  2
{FAEB1C32-E019-11D5-929B-00C0DF256EC4}
  9
$EXTNAMES
290
     1
  9
$PSVPSCALE
 40
0.0
  9
$OLESTARTUP
290
     0
  0
ENDSEC
  0
SECTION
  2
CLASSES
  0
CLASS
  1
ACDBDICTIONARYWDFLT
  2
AcDbDictionaryWithDefault
  3
ObjectDBX Classes
 90
        0
280
     0
281
     0
  0
CLASS
  1
ACDBPLACEHOLDER
  2
AcDbPlaceHolder
  3
ObjectDBX Classes
 90
        0
280
     0
281
     0
  0
CLASS
  1
LAYOUT
  2
AcDbLayout
  3
ObjectDBX Classes
 90
        0
280
     0
281
     0
  0
ENDSEC
  0
SECTION
  2
TABLES
  0
TABLE
  2
VPORT
  5
8
330
0
100
AcDbSymbolTable
 70
     2
  0
VPORT
  5
29
330
8
100
AcDbSymbolTableRecord
100
AcDbViewportTableRecord
  2
*ACTIVE
 70
     0
 10
0.0
 20
0.0
 11
1.0
 21
1.0
 12
439.512808
 22
308.753976
 13
0.0
 23
0.0
 14
1.0
 24
1.0
 15
0.0
 25
0.0
 16
0.0
 26
0.0
 36
1.0
 17
0.0
 27
0.0
 37
0.0
 40
594.0
 41
1.414141
 42
50.0
 43
0.0
 44
0.0
 50
0.0
 51
0.0
 71
    16
 72
   100
 73
     1
 74
     0
 75
     0
 76
     0
 77
     0
 78
     0
281
     0
 65
     0
110
0.0
120
0.0
130
0.0
111
1.0
121
0.0
131
0.0
112
0.0
122
1.0
132
0.0
 79
     0
146
0.0
  0
ENDTAB
  0
TABLE
  2
LTYPE
  5
5
330
0
100
AcDbSymbolTable
 70
     3
  0
LTYPE
  5
14
330
5
100
AcDbSymbolTableRecord
100
AcDbLinetypeTableRecord
  2
ByBlock
 70
     0
  3

 72
    65
 73
     0
 40
0.0
  0
LTYPE
  5
15
330
5
100
AcDbSymbolTableRecord
100
AcDbLinetypeTableRecord
  2
ByLayer
 70
     0
  3

 72
    65
 73
     0
 40
0.0
  0
LTYPE
  5
16
330
5
100
AcDbSymbolTableRecord
100
AcDbLinetypeTableRecord
  2
Continuous
 70
     0
  3
Solid line
 72
    65
 73
     0
 40
0.0
  0
LTYPE
  5
2A
330
5
100
AcDbSymbolTableRecord
100
AcDbLinetypeTableRecord
  2
DASHED
 70
     0
  3
__ __ __ __ __
 72
    65
 73
     2
 40
6.25
 49
5.0
 74
     4
 75
     0
340
0
 46
1.0
 50
0.0
 44
0.0
 45
0.0
 49
-1.25
 74
     4
 75
     0
340
0
 46
1.0
 50
0.0
 44
0.0
 45
0.0
  0
LTYPE
  5
4EE
330
5
100
AcDbSymbolTableRecord
100
AcDbLinetypeTableRecord
  2
DASHDOT
 70
     0
  3
__ . __ . __ . __ . __
 72
    65
 73
     4
 40
7.5
 49
5.0
 74
     4
 75
     0
340
0
 46
1.0
 50
0.0
 44
0.0
 45
0.0
 49
-1.25
 74
     4
 75
     0
340
0
 46
1.0
 50
0.0
 44
0.0
 45
0.0
 49
0.0
 74
     4
 75
     0
340
0
 46
1.0
 50
0.0
 44
0.0
 45
0.0
 49
-1.25
 74
     4
 75
     0
340
0
 46
1.0
 50
0.0
 44
0.0
 45
0.0
  0
ENDTAB
  0
TABLE
  2
LAYER
  5
2
330
0
100
AcDbSymbolTable
 70
    10
  0
LAYER
  5
10
330
2
100
AcDbSymbolTableRecord
100
AcDbLayerTableRecord
  2
0
 70
     0
 62
     7
  6
Continuous
370
    -3
390
F
  0
LAYER
  5
2B
330
2
100
AcDbSymbolTableRecord
100
AcDbLayerTableRecord
  2
LC-INFO-1-2-mm-A3-0
 70
     1
 62
     7
  6
ByBlock
370
    -3
390
F
  0
LAYER
  5
2C
330
2
100
AcDbSymbolTableRecord
100
AcDbLayerTableRecord
  2
LC-CUT-HIDDEN
 70
     0
 62
     7
  6
DASHED
370
    -3
390
F
  0
LAYER
  5
2D
330
2
100
AcDbSymbolTableRecord
100
AcDbLayerTableRecord
  2
LC-VIEWPORT
 70
     0
 62
     7
  6
ByBlock
370
    -3
390
F
  0
LAYER
  5
2E
330
2
100
AcDbSymbolTableRecord
100
AcDbLayerTableRecord
  2
LC-3D-HIDDEN
 70
     0
 62
     9
  6
DASHED
370
    -3
390
F
  0
LAYER
  5
31
330
2
100
AcDbSymbolTableRecord
100
AcDbLayerTableRecord
  2
LC-001-100-D00-0
 70
     0
 62
     1
  6
ByBlock
370
    -3
390
F
  0
LAYER
  5
4F2
330
2
100
AcDbSymbolTableRecord
100
AcDbLayerTableRecord
  2
LC-002-002-----0
 70
     0
 62
     1
  6
ByBlock
370
    -3
390
F
  0
LAYER
  5
4FF
330
2
100
AcDbSymbolTableRecord
100
AcDbLayerTableRecord
  2
LC-003-005-----0
 70
     0
 62
     2
  6
ByBlock
370
    -3
390
F
  0
LAYER
  5
6F2
330
2
100
AcDbSymbolTableRecord
100
AcDbLayerTableRecord
  2
LC-004-003-----0
 70
     0
 62
     2
  6
ByBlock
370
    -3
390
F
  0
LAYER
  5
6F4
330
2
100
AcDbSymbolTableRecord
100
AcDbLayerTableRecord
  2
Defpoints
 70
     0
 62
     7
  6
Continuous
290
     0
370
    -3
390
F
  0
ENDTAB
  0
TABLE
  2
STYLE
  5
3
330
0
100
AcDbSymbolTable
 70
     4
  0
STYLE
  5
11
330
3
100
AcDbSymbolTableRecord
100
AcDbTextStyleTableRecord
  2
Standard
 70
     0
 40
0.0
 41
1.0
 50
0.0
 71
     0
 42
2.5
  3
txt
  4

  0
STYLE
  5
2F
330
3
100
AcDbSymbolTableRecord
100
AcDbTextStyleTableRecord
  2
LCTX0-400-0-0pDIN-Schrift
 70
     0
 40
0.0
 41
0.75
 50
0.0
 71
     0
 42
3.5
  3
TXT
  4

  0
STYLE
  5
30
330
3
100
AcDbSymbolTableRecord
100
AcDbTextStyleTableRecord
  2
LCTX15-400-0-0-Arial
 70
     0
 40
0.0
 41
0.8
 50
0.0
 71
     0
 42
3.5
  3

  4

1001
ACAD
1000
Arial
1071
 16777218
  0
STYLE
  5
6F0
330
3
100
AcDbSymbolTableRecord
100
AcDbTextStyleTableRecord
  2
LCTX15-400-0-0pDIN-Schrift
 70
     0
 40
2.5
 41
0.8
 50
15.0
 71
     0
 42
3.5
  3
STANDARD
  4

  0
ENDTAB
  0
TABLE
  2
VIEW
  5
6
330
0
100
AcDbSymbolTable
 70
     0
  0
ENDTAB
  0
TABLE
  2
UCS
  5
7
330
0
100
AcDbSymbolTable
 70
     0
  0
ENDTAB
  0
TABLE
  2
APPID
  5
9
330
0
100
AcDbSymbolTable
 70
     1
  0
APPID
  5
12
330
9
100
AcDbSymbolTableRecord
100
AcDbRegAppTableRecord
  2
ACAD
 70
     0
  0
ENDTAB
  0
TABLE
  2
DIMSTYLE
  5
A
330
0
100
AcDbSymbolTable
 70
     2
100
AcDbDimStyleTable
  0
DIMSTYLE
105
27
330
A
100
AcDbSymbolTableRecord
100
AcDbDimStyleTableRecord
  2
ISO-25
 70
     0
 41
2.5
 42
0.625
 43
3.75
 44
1.25
 73
     0
 74
     0
 77
     1
 78
     8
140
2.5
141
2.5
143
0.03937
147
0.625
171
     3
172
     1
271
     2
272
     2
274
     3
278
    44
283
     0
284
     8
340
11
  0
DIMSTYLE
105
6F1
102
{ACAD_REACTORS
330
6F3
330
701
330
70E
330
71B
330
728
330
735
102
}
330
A
100
AcDbSymbolTableRecord
100
AcDbDimStyleTableRecord
  2
LC-DIM-L-0140-02-02
 70
     0
 40
2.0
 41
14.0
 42
0.0
 43
7.5
 44
1.8
 73
     0
 74
     0
 77
     1
 78
     8
 79
     2
140
14.0
141
0.0
146
0.71
147
1.5
176
     2
177
     2
178
     2
179
     2
271
     2
278
    44
289
     1
340
6F0
  0
ENDTAB
  0
TABLE
  2
BLOCK_RECORD
  5
1
330
0
100
AcDbSymbolTable
 70
    78
  0
BLOCK_RECORD
  5
1F
330
1
100
AcDbSymbolTableRecord
100
AcDbBlockTableRecord
  2
*Model_Space
340
22
  0
BLOCK_RECORD
  5
1B
330
1
100
AcDbSymbolTableRecord
100
AcDbBlockTableRecord
  2
*Paper_Space
340
1E
  0
BLOCK_RECORD
  5
23
330
1
100
AcDbSymbolTableRecord
100
AcDbBlockTableRecord
  2
*Paper_Space0
340
26
  0
BLOCK_RECORD
  5
34
330
1
100
AcDbSymbolTableRecord
100
AcDbBlockTableRecord
  2
POLY1
340
0
102
{BLKREFS
331
3F
102
}
  0
BLOCK_RECORD
  5
40
330
1
100
AcDbSymbolTableRecord
100
AcDbBlockTableRecord
  2
POLY2
340
0
102
{BLKREFS
331
4B
102
}
  0
BLOCK_RECORD
  5
4C
330
1
100
AcDbSymbolTableRecord
100
AcDbBlockTableRecord
  2
POLY3
340
0
102
{BLKREFS
331
57
102
}
  0
BLOCK_RECORD
  5
58
330
1
100
AcDbSymbolTableRecord
100
AcDbBlockTableRecord
  2
POLY4
340
0
102
{BLKREFS
331
63
102
}
  0
BLOCK_RECORD
  5
64
330
1
100
AcDbSymbolTableRecord
100
AcDbBlockTableRecord
  2
POLY5
340
0
102
{BLKREFS
331
6F
102
}
  0
BLOCK_RECORD
  5
70
330
1
100
AcDbSymbolTableRecord
100
AcDbBlockTableRecord
  2
POLY6
340
0
102
{BLKREFS
331
7B
102
}
  0
BLOCK_RECORD
  5
7C
330
1
100
AcDbSymbolTableRecord
100
AcDbBlockTableRecord
  2
POLY7
340
0
102
{BLKREFS
331
87
102
}
  0
BLOCK_RECORD
  5
88
330
1
100
AcDbSymbolTableRecord
100
AcDbBlockTableRecord
  2
POLY8
340
0
102
{BLKREFS
331
93
102
}
  0
BLOCK_RECORD
  5
94
330
1
100
AcDbSymbolTableRecord
100
AcDbBlockTableRecord
  2
POLY9
340
0
102
{BLKREFS
331
9F
102
}
  0
BLOCK_RECORD
  5
A0
330
1
100
AcDbSymbolTableRecord
100
AcDbBlockTableRecord
  2
POLY10
340
0
102
{BLKREFS
331
AB
102
}
  0
BLOCK_RECORD
  5
B2
330
1
100
AcDbSymbolTableRecord
100
AcDbBlockTableRecord
  2
POLY11
340
0
102
{BLKREFS
331
BD
102
}
  0
BLOCK_RECORD
  5
BF
330
1
100
AcDbSymbolTableRecord
100
AcDbBlockTableRecord
  2
POLY12
340
0
102
{BLKREFS
331
CA
102
}
  0
BLOCK_RECORD
  5
CE
330
1
100
AcDbSymbolTableRecord
100
AcDbBlockTableRecord
  2
KLON1
340
0
102
{BLKREFS
331
D4
102
}
  0
BLOCK_RECORD
  5
D5
330
1
100
AcDbSymbolTableRecord
100
AcDbBlockTableRecord
  2
KLON2
340
0
102
{BLKREFS
331
DB
102
}
  0
BLOCK_RECORD
  5
DC
330
1
100
AcDbSymbolTableRecord
100
AcDbBlockTableRecord
  2
POLY13
340
0
102
{BLKREFS
331
E7
102
}
  0
BLOCK_RECORD
  5
E9
330
1
100
AcDbSymbolTableRecord
100
AcDbBlockTableRecord
  2
KLON3
340
0
102
{BLKREFS
331
EF
102
}
  0
BLOCK_RECORD
  5
F0
330
1
100
AcDbSymbolTableRecord
100
AcDbBlockTableRecord
  2
KLON4
340
0
102
{BLKREFS
331
F6
102
}
  0
BLOCK_RECORD
  5
F7
330
1
100
AcDbSymbolTableRecord
100
AcDbBlockTableRecord
  2
POLY14
340
0
102
{BLKREFS
331
102
102
}
  0
BLOCK_RECORD
  5
104
330
1
100
AcDbSymbolTableRecord
100
AcDbBlockTableRecord
  2
KLON5
340
0
102
{BLKREFS
331
10A
102
}
  0
BLOCK_RECORD
  5
10B
330
1
100
AcDbSymbolTableRecord
100
AcDbBlockTableRecord
  2
KLON6
340
0
102
{BLKREFS
331
111
102
}
  0
BLOCK_RECORD
  5
112
330
1
100
AcDbSymbolTableRecord
100
AcDbBlockTableRecord
  2
KLON7
340
0
102
{BLKREFS
331
118
102
}
  0
BLOCK_RECORD
  5
119
330
1
100
AcDbSymbolTableRecord
100
AcDbBlockTableRecord
  2
KLON8
340
0
102
{BLKREFS
331
11F
102
}
  0
BLOCK_RECORD
  5
120
330
1
100
AcDbSymbolTableRecord
100
AcDbBlockTableRecord
  2
POLY15
340
0
102
{BLKREFS
331
12B
102
}
  0
BLOCK_RECORD
  5
12D
330
1
100
AcDbSymbolTableRecord
100
AcDbBlockTableRecord
  2
KLON9
340
0
102
{BLKREFS
331
133
102
}
  0
BLOCK_RECORD
  5
134
330
1
100
AcDbSymbolTableRecord
100
AcDbBlockTableRecord
  2
KLON10
340
0
102
{BLKREFS
331
13A
102
}
  0
BLOCK_RECORD
  5
13B
330
1
100
AcDbSymbolTableRecord
100
AcDbBlockTableRecord
  2
POLY16
340
0
102
{BLKREFS
331
146
102
}
  0
BLOCK_RECORD
  5
152
330
1
100
AcDbSymbolTableRecord
100
AcDbBlockTableRecord
  2
KLON11
340
0
102
{BLKREFS
331
158
102
}
  0
BLOCK_RECORD
  5
15A
330
1
100
AcDbSymbolTableRecord
100
AcDbBlockTableRecord
  2
KLON12
340
0
102
{BLKREFS
331
160
102
}
  0
BLOCK_RECORD
  5
162
330
1
100
AcDbSymbolTableRecord
100
AcDbBlockTableRecord
  2
KLON13
340
0
102
{BLKREFS
331
168
102
}
  0
BLOCK_RECORD
  5
16A
330
1
100
AcDbSymbolTableRecord
100
AcDbBlockTableRecord
  2
KLON14
340
0
102
{BLKREFS
331
170
102
}
  0
BLOCK_RECORD
  5
171
330
1
100
AcDbSymbolTableRecord
100
AcDbBlockTableRecord
  2
KLON15
340
0
102
{BLKREFS
331
177
102
}
  0
BLOCK_RECORD
  5
17C
330
1
100
AcDbSymbolTableRecord
100
AcDbBlockTableRecord
  2
KLON16
340
0
102
{BLKREFS
331
182
102
}
  0
BLOCK_RECORD
  5
183
330
1
100
AcDbSymbolTableRecord
100
AcDbBlockTableRecord
  2
KLON17
340
0
102
{BLKREFS
331
189
102
}
  0
BLOCK_RECORD
  5
18B
330
1
100
AcDbSymbolTableRecord
100
AcDbBlockTableRecord
  2
KLON18
340
0
102
{BLKREFS
331
191
102
}
  0
BLOCK_RECORD
  5
193
330
1
100
AcDbSymbolTableRecord
100
AcDbBlockTableRecord
  2
KLON19
340
0
102
{BLKREFS
331
199
102
}
  0
BLOCK_RECORD
  5
19B
330
1
100
AcDbSymbolTableRecord
100
AcDbBlockTableRecord
  2
KLON20
340
0
102
{BLKREFS
331
1A1
102
}
  0
BLOCK_RECORD
  5
1AE
330
1
100
AcDbSymbolTableRecord
100
AcDbBlockTableRecord
  2
POLY17
340
0
102
{BLKREFS
331
1B9
102
}
  0
BLOCK_RECORD
  5
1BD
330
1
100
AcDbSymbolTableRecord
100
AcDbBlockTableRecord
  2
POLY18
340
0
102
{BLKREFS
331
1C8
102
}
  0
BLOCK_RECORD
  5
33A
330
1
100
AcDbSymbolTableRecord
100
AcDbBlockTableRecord
  2
POLY19
340
0
102
{BLKREFS
331
34B
102
}
  0
BLOCK_RECORD
  5
34F
330
1
100
AcDbSymbolTableRecord
100
AcDbBlockTableRecord
  2
POLY20
340
0
102
{BLKREFS
331
360
102
}
  0
BLOCK_RECORD
  5
3AD
330
1
100
AcDbSymbolTableRecord
100
AcDbBlockTableRecord
  2
POLY21
340
0
102
{BLKREFS
331
3BE
102
}
  0
BLOCK_RECORD
  5
3BF
330
1
100
AcDbSymbolTableRecord
100
AcDbBlockTableRecord
  2
POLY22
340
0
102
{BLKREFS
331
3D0
102
}
  0
BLOCK_RECORD
  5
3D4
330
1
100
AcDbSymbolTableRecord
100
AcDbBlockTableRecord
  2
POLY23
340
0
102
{BLKREFS
331
3E5
102
}
  0
BLOCK_RECORD
  5
3E6
330
1
100
AcDbSymbolTableRecord
100
AcDbBlockTableRecord
  2
POLY24
340
0
102
{BLKREFS
331
3F7
102
}
  0
BLOCK_RECORD
  5
436
330
1
100
AcDbSymbolTableRecord
100
AcDbBlockTableRecord
  2
POLY25
340
0
102
{BLKREFS
331
447
102
}
  0
BLOCK_RECORD
  5
44B
330
1
100
AcDbSymbolTableRecord
100
AcDbBlockTableRecord
  2
POLY26
340
0
102
{BLKREFS
331
45C
102
}
  0
BLOCK_RECORD
  5
45D
330
1
100
AcDbSymbolTableRecord
100
AcDbBlockTableRecord
  2
KLON21
340
0
102
{BLKREFS
331
465
102
}
  0
BLOCK_RECORD
  5
466
330
1
100
AcDbSymbolTableRecord
100
AcDbBlockTableRecord
  2
KLON22
340
0
102
{BLKREFS
331
46D
102
}
  0
BLOCK_RECORD
  5
46E
330
1
100
AcDbSymbolTableRecord
100
AcDbBlockTableRecord
  2
KLON23
340
0
102
{BLKREFS
331
499
102
}
  0
BLOCK_RECORD
  5
49A
330
1
100
AcDbSymbolTableRecord
100
AcDbBlockTableRecord
  2
KLON24
340
0
102
{BLKREFS
331
4C2
102
}
  0
BLOCK_RECORD
  5
4C3
330
1
100
AcDbSymbolTableRecord
100
AcDbBlockTableRecord
  2
KLON25
340
0
102
{BLKREFS
331
4C8
102
}
  0
BLOCK_RECORD
  5
4C9
330
1
100
AcDbSymbolTableRecord
100
AcDbBlockTableRecord
  2
KLON26
340
0
102
{BLKREFS
331
4CF
102
}
  0
BLOCK_RECORD
  5
4D0
330
1
100
AcDbSymbolTableRecord
100
AcDbBlockTableRecord
  2
KLON27
340
0
102
{BLKREFS
331
4DC
102
}
  0
BLOCK_RECORD
  5
4DD
330
1
100
AcDbSymbolTableRecord
100
AcDbBlockTableRecord
  2
KLON28
340
0
102
{BLKREFS
331
4E6
102
}
  0
BLOCK_RECORD
  5
4E7
330
1
100
AcDbSymbolTableRecord
100
AcDbBlockTableRecord
  2
KLON29
340
0
102
{BLKREFS
331
4ED
102
}
  0
BLOCK_RECORD
  5
4FC
330
1
100
AcDbSymbolTableRecord
100
AcDbBlockTableRecord
  2
*X156
340
0
102
{BLKREFS
331
51A
102
}
  0
BLOCK_RECORD
  5
51B
330
1
100
AcDbSymbolTableRecord
100
AcDbBlockTableRecord
  2
*X257
340
0
102
{BLKREFS
331
538
102
}
  0
BLOCK_RECORD
  5
539
330
1
100
AcDbSymbolTableRecord
100
AcDbBlockTableRecord
  2
*X358
340
0
102
{BLKREFS
331
556
102
}
  0
BLOCK_RECORD
  5
557
330
1
100
AcDbSymbolTableRecord
100
AcDbBlockTableRecord
  2
*X459
340
0
102
{BLKREFS
331
573
102
}
  0
BLOCK_RECORD
  5
574
330
1
100
AcDbSymbolTableRecord
100
AcDbBlockTableRecord
  2
*X560
340
0
102
{BLKREFS
331
591
102
}
  0
BLOCK_RECORD
  5
594
330
1
100
AcDbSymbolTableRecord
100
AcDbBlockTableRecord
  2
*X661
340
0
102
{BLKREFS
331
5B1
102
}
  0
BLOCK_RECORD
  5
5B3
330
1
100
AcDbSymbolTableRecord
100
AcDbBlockTableRecord
  2
*X762
340
0
102
{BLKREFS
331
5D4
102
}
  0
BLOCK_RECORD
  5
5D7
330
1
100
AcDbSymbolTableRecord
100
AcDbBlockTableRecord
  2
*X863
340
0
102
{BLKREFS
331
5F8
102
}
  0
BLOCK_RECORD
  5
603
330
1
100
AcDbSymbolTableRecord
100
AcDbBlockTableRecord
  2
*X964
340
0
102
{BLKREFS
331
620
102
}
  0
BLOCK_RECORD
  5
621
330
1
100
AcDbSymbolTableRecord
100
AcDbBlockTableRecord
  2
*X1065
340
0
102
{BLKREFS
331
63E
102
}
  0
BLOCK_RECORD
  5
63F
330
1
100
AcDbSymbolTableRecord
100
AcDbBlockTableRecord
  2
*X1166
340
0
102
{BLKREFS
331
65C
102
}
  0
BLOCK_RECORD
  5
65D
330
1
100
AcDbSymbolTableRecord
100
AcDbBlockTableRecord
  2
*X1267
340
0
102
{BLKREFS
331
67A
102
}
  0
BLOCK_RECORD
  5
67B
330
1
100
AcDbSymbolTableRecord
100
AcDbBlockTableRecord
  2
*X1368
340
0
102
{BLKREFS
331
698
102
}
  0
BLOCK_RECORD
  5
69B
330
1
100
AcDbSymbolTableRecord
100
AcDbBlockTableRecord
  2
*X1469
340
0
102
{BLKREFS
331
6B8
102
}
  0
BLOCK_RECORD
  5
6BA
330
1
100
AcDbSymbolTableRecord
100
AcDbBlockTableRecord
  2
*X1570
340
0
102
{BLKREFS
331
6D3
102
}
  0
BLOCK_RECORD
  5
6D6
330
1
100
AcDbSymbolTableRecord
100
AcDbBlockTableRecord
  2
*X1671
340
0
102
{BLKREFS
331
6EE
102
}
  0
BLOCK_RECORD
  5
6F5
330
1
100
AcDbSymbolTableRecord
100
AcDbBlockTableRecord
  2
*D72
340
0
  0
BLOCK_RECORD
  5
702
330
1
100
AcDbSymbolTableRecord
100
AcDbBlockTableRecord
  2
*D73
340
0
  0
BLOCK_RECORD
  5
70F
330
1
100
AcDbSymbolTableRecord
100
AcDbBlockTableRecord
  2
*D74
340
0
  0
BLOCK_RECORD
  5
71C
330
1
100
AcDbSymbolTableRecord
100
AcDbBlockTableRecord
  2
*D75
340
0
  0
BLOCK_RECORD
  5
729
330
1
100
AcDbSymbolTableRecord
100
AcDbBlockTableRecord
  2
*D76
340
0
  0
BLOCK_RECORD
  5
736
330
1
100
AcDbSymbolTableRecord
100
AcDbBlockTableRecord
  2
*D77
340
0
  0
ENDTAB
  0
ENDSEC
  0
SECTION
  2
BLOCKS
  0
BLOCK
  5
20
330
1F
100
AcDbEntity
  8
0
100
AcDbBlockBegin
  2
*Model_Space
 70
     0
 71
     0
 10
0.0
 20
0.0
 30
0.0
  3
*Model_Space
  1

  0
ENDBLK
  5
21
330
1F
100
AcDbEntity
  8
0
100
AcDbBlockEnd
  0
BLOCK
  5
1C
330
1B
100
AcDbEntity
 67
     1
  8
0
100
AcDbBlockBegin
  2
*Paper_Space
 70
     0
 71
     0
 10
0.0
 20
0.0
 30
0.0
  3
*Paper_Space
  1

  0
ENDBLK
  5
1D
330
1B
100
AcDbEntity
 67
     1
  8
0
100
AcDbBlockEnd
  0
BLOCK
  5
24
330
23
100
AcDbEntity
  8
0
100
AcDbBlockBegin
  2
*Paper_Space0
 70
     0
 71
     0
 10
0.0
 20
0.0
 30
0.0
  3
*Paper_Space0
  1

  0
ENDBLK
  5
25
330
23
100
AcDbEntity
  8
0
100
AcDbBlockEnd
  0
BLOCK
  5
35
330
34
100
AcDbEntity
  8
0
100
AcDbBlockBegin
  2
POLY1
 70
     0
 71
     0
 10
0.0
 20
0.0
 30
0.0
  3
POLY1
  1

  4
POLY1
  0
LINE
  5
37
330
34
100
AcDbEntity
  8
LC-001-100-D00-0
 62
     7
370
    50
100
AcDbLine
 10
291.902595
 20
338.776069
 30
0.0
 11
291.902595
 21
338.776069
 31
0.0
  0
LINE
  5
38
330
34
100
AcDbEntity
  8
LC-001-100-D00-0
 62
     7
370
    50
100
AcDbLine
 10
291.902595
 20
338.776069
 30
0.0
 11
291.688797
 21
338.892703
 31
0.0
  0
LINE
  5
39
330
34
100
AcDbEntity
  8
LC-001-100-D00-0
 62
     7
370
    50
100
AcDbLine
 10
291.688797
 20
338.892703
 30
0.0
 11
291.688797
 21
338.892703
 31
0.0
  0
LINE
  5
3A
330
34
100
AcDbEntity
  8
LC-001-100-D00-0
 62
     7
370
    50
100
AcDbLine
 10
291.688797
 20
338.892703
 30
0.0
 11
291.325562
 21
339.090862
 31
0.0
  0
LINE
  5
3B
330
34
100
AcDbEntity
  8
LC-001-100-D00-0
 62
     7
370
    50
100
AcDbLine
 10
291.325562
 20
339.090862
 30
0.0
 11
291.325562
 21
339.090862
 31
0.0
  0
LINE
  5
3C
330
34
100
AcDbEntity
  8
LC-001-100-D00-0
 62
     7
370
    50
100
AcDbLine
 10
291.325562
 20
339.090862
 30
0.0
 11
290.972783
 21
339.291274
 31
0.0
  0
LINE
  5
3D
330
34
100
AcDbEntity
  8
LC-001-100-D00-0
 62
     7
370
    50
100
AcDbLine
 10
290.972783
 20
339.291274
 30
0.0
 11
290.972783
 21
339.291274
 31
0.0
  0
LINE
  5
3E
330
34
100
AcDbEntity
  8
LC-001-100-D00-0
 62
     7
370
    50
100
AcDbLine
 10
290.972783
 20
339.291274
 30
0.0
 11
290.827647
 21
339.373725
 31
0.0
  0
ENDBLK
  5
36
330
34
100
AcDbEntity
  8
0
100
AcDbBlockEnd
  0
BLOCK
  5
41
330
40
100
AcDbEntity
  8
0
100
AcDbBlockBegin
  2
POLY2
 70
     0
 71
     0
 10
0.0
 20
0.0
 30
0.0
  3
POLY2
  1

  4
POLY2
  0
LINE
  5
43
330
40
100
AcDbEntity
  8
LC-001-100-D00-0
 62
     7
370
    50
100
AcDbLine
 10
291.902595
 20
335.77607
 30
0.0
 11
291.902595
 21
335.77607
 31
0.0
  0
LINE
  5
44
330
40
100
AcDbEntity
  8
LC-001-100-D00-0
 62
     7
370
    50
100
AcDbLine
 10
291.902595
 20
335.77607
 30
0.0
 11
291.688797
 21
335.892705
 31
0.0
  0
LINE
  5
45
330
40
100
AcDbEntity
  8
LC-001-100-D00-0
 62
     7
370
    50
100
AcDbLine
 10
291.688797
 20
335.892705
 30
0.0
 11
291.688797
 21
335.892705
 31
0.0
  0
LINE
  5
46
330
40
100
AcDbEntity
  8
LC-001-100-D00-0
 62
     7
370
    50
100
AcDbLine
 10
291.688797
 20
335.892705
 30
0.0
 11
291.325562
 21
336.090863
 31
0.0
  0
LINE
  5
47
330
40
100
AcDbEntity
  8
LC-001-100-D00-0
 62
     7
370
    50
100
AcDbLine
 10
291.325562
 20
336.090863
 30
0.0
 11
291.325562
 21
336.090863
 31
0.0
  0
LINE
  5
48
330
40
100
AcDbEntity
  8
LC-001-100-D00-0
 62
     7
370
    50
100
AcDbLine
 10
291.325562
 20
336.090863
 30
0.0
 11
290.972783
 21
336.291275
 31
0.0
  0
LINE
  5
49
330
40
100
AcDbEntity
  8
LC-001-100-D00-0
 62
     7
370
    50
100
AcDbLine
 10
290.972783
 20
336.291275
 30
0.0
 11
290.972783
 21
336.291275
 31
0.0
  0
LINE
  5
4A
330
40
100
AcDbEntity
  8
LC-001-100-D00-0
 62
     7
370
    50
100
AcDbLine
 10
290.972783
 20
336.291275
 30
0.0
 11
290.827647
 21
336.373726
 31
0.0
  0
ENDBLK
  5
42
330
40
100
AcDbEntity
  8
0
100
AcDbBlockEnd
  0
BLOCK
  5
4D
330
4C
100
AcDbEntity
  8
0
100
AcDbBlockBegin
  2
POLY3
 70
     0
 71
     0
 10
0.0
 20
0.0
 30
0.0
  3
POLY3
  1

  4
POLY3
  0
LINE
  5
4F
330
4C
100
AcDbEntity
  8
LC-001-100-D00-0
 62
     7
370
    50
100
AcDbLine
 10
291.392379
 20
330.056617
 30
0.0
 11
291.392379
 21
330.056617
 31
0.0
  0
LINE
  5
50
330
4C
100
AcDbEntity
  8
LC-001-100-D00-0
 62
     7
370
    50
100
AcDbLine
 10
291.392379
 20
330.056617
 30
0.0
 11
291.34977
 21
330.079975
 31
0.0
  0
LINE
  5
51
330
4C
100
AcDbEntity
  8
LC-001-100-D00-0
 62
     7
370
    50
100
AcDbLine
 10
291.34977
 20
330.079975
 30
0.0
 11
291.34977
 21
330.079975
 31
0.0
  0
LINE
  5
52
330
4C
100
AcDbEntity
  8
LC-001-100-D00-0
 62
     7
370
    50
100
AcDbLine
 10
291.34977
 20
330.079975
 30
0.0
 11
291.158244
 21
330.184965
 31
0.0
  0
LINE
  5
53
330
4C
100
AcDbEntity
  8
LC-001-100-D00-0
 62
     7
370
    50
100
AcDbLine
 10
291.158244
 20
330.184965
 30
0.0
 11
291.158244
 21
330.184965
 31
0.0
  0
LINE
  5
54
330
4C
100
AcDbEntity
  8
LC-001-100-D00-0
 62
     7
370
    50
100
AcDbLine
 10
291.158244
 20
330.184965
 30
0.0
 11
290.972257
 21
330.29116
 31
0.0
  0
LINE
  5
55
330
4C
100
AcDbEntity
  8
LC-001-100-D00-0
 62
     7
370
    50
100
AcDbLine
 10
290.972257
 20
330.29116
 30
0.0
 11
290.972257
 21
330.29116
 31
0.0
  0
LINE
  5
56
330
4C
100
AcDbEntity
  8
LC-001-100-D00-0
 62
     7
370
    50
100
AcDbLine
 10
290.972257
 20
330.29116
 30
0.0
 11
290.827647
 21
330.373729
 31
0.0
  0
ENDBLK
  5
4E
330
4C
100
AcDbEntity
  8
0
100
AcDbBlockEnd
  0
BLOCK
  5
59
330
58
100
AcDbEntity
  8
0
100
AcDbBlockBegin
  2
POLY4
 70
     0
 71
     0
 10
0.0
 20
0.0
 30
0.0
  3
POLY4
  1

  4
POLY4
  0
LINE
  5
5B
330
58
100
AcDbEntity
  8
LC-001-100-D00-0
 62
     7
370
    50
100
AcDbLine
 10
291.902595
 20
341.776075
 30
0.0
 11
291.902595
 21
341.776075
 31
0.0
  0
LINE
  5
5C
330
58
100
AcDbEntity
  8
LC-001-100-D00-0
 62
     7
370
    50
100
AcDbLine
 10
291.902595
 20
341.776075
 30
0.0
 11
291.688797
 21
341.892706
 31
0.0
  0
LINE
  5
5D
330
58
100
AcDbEntity
  8
LC-001-100-D00-0
 62
     7
370
    50
100
AcDbLine
 10
291.688797
 20
341.892706
 30
0.0
 11
291.688797
 21
341.892706
 31
0.0
  0
LINE
  5
5E
330
58
100
AcDbEntity
  8
LC-001-100-D00-0
 62
     7
370
    50
100
AcDbLine
 10
291.688797
 20
341.892706
 30
0.0
 11
291.325559
 21
342.090858
 31
0.0
  0
LINE
  5
5F
330
58
100
AcDbEntity
  8
LC-001-100-D00-0
 62
     7
370
    50
100
AcDbLine
 10
291.325559
 20
342.090858
 30
0.0
 11
291.325559
 21
342.090858
 31
0.0
  0
LINE
  5
60
330
58
100
AcDbEntity
  8
LC-001-100-D00-0
 62
     7
370
    50
100
AcDbLine
 10
291.325559
 20
342.090858
 30
0.0
 11
290.972783
 21
342.291277
 31
0.0
  0
LINE
  5
61
330
58
100
AcDbEntity
  8
LC-001-100-D00-0
 62
     7
370
    50
100
AcDbLine
 10
290.972783
 20
342.291277
 30
0.0
 11
290.972783
 21
342.291277
 31
0.0
  0
LINE
  5
62
330
58
100
AcDbEntity
  8
LC-001-100-D00-0
 62
     7
370
    50
100
AcDbLine
 10
290.972783
 20
342.291277
 30
0.0
 11
290.827647
 21
342.373731
 31
0.0
  0
ENDBLK
  5
5A
330
58
100
AcDbEntity
  8
0
100
AcDbBlockEnd
  0
BLOCK
  5
65
330
64
100
AcDbEntity
  8
0
100
AcDbBlockBegin
  2
POLY5
 70
     0
 71
     0
 10
0.0
 20
0.0
 30
0.0
  3
POLY5
  1

  4
POLY5
  0
LINE
  5
67
330
64
100
AcDbEntity
  8
LC-001-100-D00-0
 62
     7
370
    50
100
AcDbLine
 10
291.902595
 20
332.776072
 30
0.0
 11
291.902595
 21
332.776072
 31
0.0
  0
LINE
  5
68
330
64
100
AcDbEntity
  8
LC-001-100-D00-0
 62
     7
370
    50
100
AcDbLine
 10
291.902595
 20
332.776072
 30
0.0
 11
291.688797
 21
332.892702
 31
0.0
  0
LINE
  5
69
330
64
100
AcDbEntity
  8
LC-001-100-D00-0
 62
     7
370
    50
100
AcDbLine
 10
291.688797
 20
332.892702
 30
0.0
 11
291.688797
 21
332.892702
 31
0.0
  0
LINE
  5
6A
330
64
100
AcDbEntity
  8
LC-001-100-D00-0
 62
     7
370
    50
100
AcDbLine
 10
291.688797
 20
332.892702
 30
0.0
 11
291.325559
 21
333.090855
 31
0.0
  0
LINE
  5
6B
330
64
100
AcDbEntity
  8
LC-001-100-D00-0
 62
     7
370
    50
100
AcDbLine
 10
291.325559
 20
333.090855
 30
0.0
 11
291.325559
 21
333.090855
 31
0.0
  0
LINE
  5
6C
330
64
100
AcDbEntity
  8
LC-001-100-D00-0
 62
     7
370
    50
100
AcDbLine
 10
291.325559
 20
333.090855
 30
0.0
 11
290.972783
 21
333.291273
 31
0.0
  0
LINE
  5
6D
330
64
100
AcDbEntity
  8
LC-001-100-D00-0
 62
     7
370
    50
100
AcDbLine
 10
290.972783
 20
333.291273
 30
0.0
 11
290.972783
 21
333.291273
 31
0.0
  0
LINE
  5
6E
330
64
100
AcDbEntity
  8
LC-001-100-D00-0
 62
     7
370
    50
100
AcDbLine
 10
290.972783
 20
333.291273
 30
0.0
 11
290.827647
 21
333.373728
 31
0.0
  0
ENDBLK
  5
66
330
64
100
AcDbEntity
  8
0
100
AcDbBlockEnd
  0
BLOCK
  5
71
330
70
100
AcDbEntity
  8
0
100
AcDbBlockBegin
  2
POLY6
 70
     0
 71
     0
 10
0.0
 20
0.0
 30
0.0
  3
POLY6
  1

  4
POLY6
  0
LINE
  5
73
330
70
100
AcDbEntity
  8
LC-001-100-D00-0
 62
     7
370
    50
100
AcDbLine
 10
285.737225
 20
339.968914
 30
0.0
 11
285.737225
 21
339.968914
 31
0.0
  0
LINE
  5
74
330
70
100
AcDbEntity
  8
LC-001-100-D00-0
 62
     7
370
    50
100
AcDbLine
 10
285.737225
 20
339.968914
 30
0.0
 11
285.977122
 21
339.842784
 31
0.0
  0
LINE
  5
75
330
70
100
AcDbEntity
  8
LC-001-100-D00-0
 62
     7
370
    50
100
AcDbLine
 10
285.977122
 20
339.842784
 30
0.0
 11
285.977122
 21
339.842784
 31
0.0
  0
LINE
  5
76
330
70
100
AcDbEntity
  8
LC-001-100-D00-0
 62
     7
370
    50
100
AcDbLine
 10
285.977122
 20
339.842784
 30
0.0
 11
286.340969
 21
339.651486
 31
0.0
  0
LINE
  5
77
330
70
100
AcDbEntity
  8
LC-001-100-D00-0
 62
     7
370
    50
100
AcDbLine
 10
286.340969
 20
339.651486
 30
0.0
 11
286.340969
 21
339.651486
 31
0.0
  0
LINE
  5
78
330
70
100
AcDbEntity
  8
LC-001-100-D00-0
 62
     7
370
    50
100
AcDbLine
 10
286.340969
 20
339.651486
 30
0.0
 11
286.703982
 21
339.446216
 31
0.0
  0
LINE
  5
79
330
70
100
AcDbEntity
  8
LC-001-100-D00-0
 62
     7
370
    50
100
AcDbLine
 10
286.703982
 20
339.446216
 30
0.0
 11
286.703982
 21
339.446216
 31
0.0
  0
LINE
  5
7A
330
70
100
AcDbEntity
  8
LC-001-100-D00-0
 62
     7
370
    50
100
AcDbLine
 10
286.703982
 20
339.446216
 30
0.0
 11
286.827647
 21
339.376288
 31
0.0
  0
ENDBLK
  5
72
330
70
100
AcDbEntity
  8
0
100
AcDbBlockEnd
  0
BLOCK
  5
7D
330
7C
100
AcDbEntity
  8
0
100
AcDbBlockBegin
  2
POLY7
 70
     0
 71
     0
 10
0.0
 20
0.0
 30
0.0
  3
POLY7
  1

  4
POLY7
  0
LINE
  5
7F
330
7C
100
AcDbEntity
  8
LC-001-100-D00-0
 62
     7
370
    50
100
AcDbLine
 10
285.737225
 20
333.968917
 30
0.0
 11
285.737225
 21
333.968917
 31
0.0
  0
LINE
  5
80
330
7C
100
AcDbEntity
  8
LC-001-100-D00-0
 62
     7
370
    50
100
AcDbLine
 10
285.737225
 20
333.968917
 30
0.0
 11
285.977121
 21
333.842783
 31
0.0
  0
LINE
  5
81
330
7C
100
AcDbEntity
  8
LC-001-100-D00-0
 62
     7
370
    50
100
AcDbLine
 10
285.977121
 20
333.842783
 30
0.0
 11
285.977121
 21
333.842783
 31
0.0
  0
LINE
  5
82
330
7C
100
AcDbEntity
  8
LC-001-100-D00-0
 62
     7
370
    50
100
AcDbLine
 10
285.977121
 20
333.842783
 30
0.0
 11
286.340965
 21
333.651479
 31
0.0
  0
LINE
  5
83
330
7C
100
AcDbEntity
  8
LC-001-100-D00-0
 62
     7
370
    50
100
AcDbLine
 10
286.340965
 20
333.651479
 30
0.0
 11
286.340965
 21
333.651479
 31
0.0
  0
LINE
  5
84
330
7C
100
AcDbEntity
  8
LC-001-100-D00-0
 62
     7
370
    50
100
AcDbLine
 10
286.340965
 20
333.651479
 30
0.0
 11
286.703982
 21
333.446215
 31
0.0
  0
LINE
  5
85
330
7C
100
AcDbEntity
  8
LC-001-100-D00-0
 62
     7
370
    50
100
AcDbLine
 10
286.703982
 20
333.446215
 30
0.0
 11
286.703982
 21
333.446215
 31
0.0
  0
LINE
  5
86
330
7C
100
AcDbEntity
  8
LC-001-100-D00-0
 62
     7
370
    50
100
AcDbLine
 10
286.703982
 20
333.446215
 30
0.0
 11
286.827647
 21
333.376291
 31
0.0
  0
ENDBLK
  5
7E
330
7C
100
AcDbEntity
  8
0
100
AcDbBlockEnd
  0
BLOCK
  5
89
330
88
100
AcDbEntity
  8
0
100
AcDbBlockBegin
  2
POLY8
 70
     0
 71
     0
 10
0.0
 20
0.0
 30
0.0
  3
POLY8
  1

  4
POLY8
  0
LINE
  5
8B
330
88
100
AcDbEntity
  8
LC-001-100-D00-0
 62
     7
370
    50
100
AcDbLine
 10
286.312692
 20
330.661336
 30
0.0
 11
286.312692
 21
330.661336
 31
0.0
  0
LINE
  5
8C
330
88
100
AcDbEntity
  8
LC-001-100-D00-0
 62
     7
370
    50
100
AcDbLine
 10
286.312692
 20
330.661336
 30
0.0
 11
286.360657
 21
330.635878
 31
0.0
  0
LINE
  5
8D
330
88
100
AcDbEntity
  8
LC-001-100-D00-0
 62
     7
370
    50
100
AcDbLine
 10
286.360657
 20
330.635878
 30
0.0
 11
286.360657
 21
330.635878
 31
0.0
  0
LINE
  5
8E
330
88
100
AcDbEntity
  8
LC-001-100-D00-0
 62
     7
370
    50
100
AcDbLine
 10
286.360657
 20
330.635878
 30
0.0
 11
286.532534
 21
330.544649
 31
0.0
  0
LINE
  5
8F
330
88
100
AcDbEntity
  8
LC-001-100-D00-0
 62
     7
370
    50
100
AcDbLine
 10
286.532534
 20
330.544649
 30
0.0
 11
286.532534
 21
330.544649
 31
0.0
  0
LINE
  5
90
330
88
100
AcDbEntity
  8
LC-001-100-D00-0
 62
     7
370
    50
100
AcDbLine
 10
286.532534
 20
330.544649
 30
0.0
 11
286.704018
 21
330.44682
 31
0.0
  0
LINE
  5
91
330
88
100
AcDbEntity
  8
LC-001-100-D00-0
 62
     7
370
    50
100
AcDbLine
 10
286.704018
 20
330.44682
 30
0.0
 11
286.704018
 21
330.44682
 31
0.0
  0
LINE
  5
92
330
88
100
AcDbEntity
  8
LC-001-100-D00-0
 62
     7
370
    50
100
AcDbLine
 10
286.704018
 20
330.44682
 30
0.0
 11
286.827647
 21
330.376292
 31
0.0
  0
ENDBLK
  5
8A
330
88
100
AcDbEntity
  8
0
100
AcDbBlockEnd
  0
BLOCK
  5
95
330
94
100
AcDbEntity
  8
0
100
AcDbBlockBegin
  2
POLY9
 70
     0
 71
     0
 10
0.0
 20
0.0
 30
0.0
  3
POLY9
  1

  4
POLY9
  0
LINE
  5
97
330
94
100
AcDbEntity
  8
LC-001-100-D00-0
 62
     7
370
    50
100
AcDbLine
 10
285.737225
 20
342.968913
 30
0.0
 11
285.737225
 21
342.968913
 31
0.0
  0
LINE
  5
98
330
94
100
AcDbEntity
  8
LC-001-100-D00-0
 62
     7
370
    50
100
AcDbLine
 10
285.737225
 20
342.968913
 30
0.0
 11
285.977122
 21
342.842783
 31
0.0
  0
LINE
  5
99
330
94
100
AcDbEntity
  8
LC-001-100-D00-0
 62
     7
370
    50
100
AcDbLine
 10
285.977122
 20
342.842783
 30
0.0
 11
285.977122
 21
342.842783
 31
0.0
  0
LINE
  5
9A
330
94
100
AcDbEntity
  8
LC-001-100-D00-0
 62
     7
370
    50
100
AcDbLine
 10
285.977122
 20
342.842783
 30
0.0
 11
286.340969
 21
342.651484
 31
0.0
  0
LINE
  5
9B
330
94
100
AcDbEntity
  8
LC-001-100-D00-0
 62
     7
370
    50
100
AcDbLine
 10
286.340969
 20
342.651484
 30
0.0
 11
286.340969
 21
342.651484
 31
0.0
  0
LINE
  5
9C
330
94
100
AcDbEntity
  8
LC-001-100-D00-0
 62
     7
370
    50
100
AcDbLine
 10
286.340969
 20
342.651484
 30
0.0
 11
286.703982
 21
342.446214
 31
0.0
  0
LINE
  5
9D
330
94
100
AcDbEntity
  8
LC-001-100-D00-0
 62
     7
370
    50
100
AcDbLine
 10
286.703982
 20
342.446214
 30
0.0
 11
286.703982
 21
342.446214
 31
0.0
  0
LINE
  5
9E
330
94
100
AcDbEntity
  8
LC-001-100-D00-0
 62
     7
370
    50
100
AcDbLine
 10
286.703982
 20
342.446214
 30
0.0
 11
286.827647
 21
342.376286
 31
0.0
  0
ENDBLK
  5
96
330
94
100
AcDbEntity
  8
0
100
AcDbBlockEnd
  0
BLOCK
  5
A1
330
A0
100
AcDbEntity
  8
0
100
AcDbBlockBegin
  2
POLY10
 70
     0
 71
     0
 10
0.0
 20
0.0
 30
0.0
  3
POLY10
  1

  4
POLY10
  0
LINE
  5
A3
330
A0
100
AcDbEntity
  8
LC-001-100-D00-0
 62
     7
370
    50
100
AcDbLine
 10
285.737225
 20
336.968916
 30
0.0
 11
285.737225
 21
336.968916
 31
0.0
  0
LINE
  5
A4
330
A0
100
AcDbEntity
  8
LC-001-100-D00-0
 62
     7
370
    50
100
AcDbLine
 10
285.737225
 20
336.968916
 30
0.0
 11
285.977121
 21
336.842781
 31
0.0
  0
LINE
  5
A5
330
A0
100
AcDbEntity
  8
LC-001-100-D00-0
 62
     7
370
    50
100
AcDbLine
 10
285.977121
 20
336.842781
 30
0.0
 11
285.977121
 21
336.842781
 31
0.0
  0
LINE
  5
A6
330
A0
100
AcDbEntity
  8
LC-001-100-D00-0
 62
     7
370
    50
100
AcDbLine
 10
285.977121
 20
336.842781
 30
0.0
 11
286.340965
 21
336.651477
 31
0.0
  0
LINE
  5
A7
330
A0
100
AcDbEntity
  8
LC-001-100-D00-0
 62
     7
370
    50
100
AcDbLine
 10
286.340965
 20
336.651477
 30
0.0
 11
286.340965
 21
336.651477
 31
0.0
  0
LINE
  5
A8
330
A0
100
AcDbEntity
  8
LC-001-100-D00-0
 62
     7
370
    50
100
AcDbLine
 10
286.340965
 20
336.651477
 30
0.0
 11
286.703982
 21
336.446214
 31
0.0
  0
LINE
  5
A9
330
A0
100
AcDbEntity
  8
LC-001-100-D00-0
 62
     7
370
    50
100
AcDbLine
 10
286.703982
 20
336.446214
 30
0.0
 11
286.703982
 21
336.446214
 31
0.0
  0
LINE
  5
AA
330
A0
100
AcDbEntity
  8
LC-001-100-D00-0
 62
     7
370
    50
100
AcDbLine
 10
286.703982
 20
336.446214
 30
0.0
 11
286.827647
 21
336.376289
 31
0.0
  0
ENDBLK
  5
A2
330
A0
100
AcDbEntity
  8
0
100
AcDbBlockEnd
  0
BLOCK
  5
B3
330
B2
100
AcDbEntity
  8
0
100
AcDbBlockBegin
  2
POLY11
 70
     0
 71
     0
 10
0.0
 20
0.0
 30
0.0
  3
POLY11
  1

  4
POLY11
  0
LINE
  5
B5
330
B2
100
AcDbEntity
  8
LC-001-100-D00-0
 62
     7
370
    50
100
AcDbLine
 10
428.76009
 20
347.746851
 30
0.0
 11
428.76009
 21
347.746851
 31
0.0
  0
LINE
  5
B6
330
B2
100
AcDbEntity
  8
LC-001-100-D00-0
 62
     7
370
    50
100
AcDbLine
 10
428.76009
 20
347.746851
 30
0.0
 11
428.770926
 21
347.755263
 31
0.0
  0
LINE
  5
B7
330
B2
100
AcDbEntity
  8
LC-001-100-D00-0
 62
     7
370
    50
100
AcDbLine
 10
428.770926
 20
347.755263
 30
0.0
 11
428.770926
 21
347.755263
 31
0.0
  0
LINE
  5
B8
330
B2
100
AcDbEntity
  8
LC-001-100-D00-0
 62
     7
370
    50
100
AcDbLine
 10
428.770926
 20
347.755263
 30
0.0
 11
428.785619
 21
347.766669
 31
0.0
  0
LINE
  5
B9
330
B2
100
AcDbEntity
  8
LC-001-100-D00-0
 62
     7
370
    50
100
AcDbLine
 10
428.785619
 20
347.766669
 30
0.0
 11
428.785619
 21
347.766669
 31
0.0
  0
LINE
  5
BA
330
B2
100
AcDbEntity
  8
LC-001-100-D00-0
 62
     7
370
    50
100
AcDbLine
 10
428.785619
 20
347.766669
 30
0.0
 11
428.801235
 21
347.767608
 31
0.0
  0
LINE
  5
BB
330
B2
100
AcDbEntity
  8
LC-001-100-D00-0
 62
     7
370
    50
100
AcDbLine
 10
428.801235
 20
347.767608
 30
0.0
 11
428.801235
 21
347.767608
 31
0.0
  0
LINE
  5
BC
330
B2
100
AcDbEntity
  8
LC-001-100-D00-0
 62
     7
370
    50
100
AcDbLine
 10
428.801235
 20
347.767608
 30
0.0
 11
428.805333
 21
347.767854
 31
0.0
  0
ENDBLK
  5
B4
330
B2
100
AcDbEntity
  8
0
100
AcDbBlockEnd
  0
BLOCK
  5
C0
330
BF
100
AcDbEntity
  8
0
100
AcDbBlockBegin
  2
POLY12
 70
     0
 71
     0
 10
0.0
 20
0.0
 30
0.0
  3
POLY12
  1

  4
POLY12
  0
LINE
  5
C2
330
BF
100
AcDbEntity
  8
LC-001-100-D00-0
 62
     7
370
    50
100
AcDbLine
 10
427.939308
 20
347.767854
 30
0.0
 11
427.939308
 21
347.767854
 31
0.0
  0
LINE
  5
C3
330
BF
100
AcDbEntity
  8
LC-001-100-D00-0
 62
     7
370
    50
100
AcDbLine
 10
427.939308
 20
347.767854
 30
0.0
 11
427.927724
 21
347.765862
 31
0.0
  0
LINE
  5
C4
330
BF
100
AcDbEntity
  8
LC-001-100-D00-0
 62
     7
370
    50
100
AcDbLine
 10
427.927724
 20
347.765862
 30
0.0
 11
427.927724
 21
347.765862
 31
0.0
  0
LINE
  5
C5
330
BF
100
AcDbEntity
  8
LC-001-100-D00-0
 62
     7
370
    50
100
AcDbLine
 10
427.927724
 20
347.765862
 30
0.0
 11
427.912018
 21
347.76316
 31
0.0
  0
LINE
  5
C6
330
BF
100
AcDbEntity
  8
LC-001-100-D00-0
 62
     7
370
    50
100
AcDbLine
 10
427.912018
 20
347.76316
 30
0.0
 11
427.912018
 21
347.76316
 31
0.0
  0
LINE
  5
C7
330
BF
100
AcDbEntity
  8
LC-001-100-D00-0
 62
     7
370
    50
100
AcDbLine
 10
427.912018
 20
347.76316
 30
0.0
 11
427.897797
 21
347.750242
 31
0.0
  0
LINE
  5
C8
330
BF
100
AcDbEntity
  8
LC-001-100-D00-0
 62
     7
370
    50
100
AcDbLine
 10
427.897797
 20
347.750242
 30
0.0
 11
427.897797
 21
347.750242
 31
0.0
  0
LINE
  5
C9
330
BF
100
AcDbEntity
  8
LC-001-100-D00-0
 62
     7
370
    50
100
AcDbLine
 10
427.897797
 20
347.750242
 30
0.0
 11
427.894064
 21
347.746851
 31
0.0
  0
ENDBLK
  5
C1
330
BF
100
AcDbEntity
  8
0
100
AcDbBlockEnd
  0
BLOCK
  5
CF
330
CE
100
AcDbEntity
  8
0
100
AcDbBlockBegin
  2
KLON1
 70
     0
 71
     0
 10
0.0
 20
0.0
 30
0.0
  3
KLON1
  1

  4
KLON1
  0
LINE
  5
D1
330
CE
100
AcDbEntity
  8
LC-001-100-D00-0
 62
     7
370
    15
100
AcDbLine
 10
290.827647
 20
339.263441
 30
0.0
 11
291.178741
 21
339.080679
 31
0.0
  0
LINE
  5
D2
330
CE
100
AcDbEntity
  8
LC-001-100-D00-0
 62
     7
370
    15
100
AcDbLine
 10
291.178741
 20
339.080679
 30
0.0
 11
291.529835
 21
338.897908
 31
0.0
  0
LINE
  5
D3
330
CE
100
AcDbEntity
  8
LC-001-100-D00-0
 62
     7
370
    15
100
AcDbLine
 10
291.529835
 20
338.897908
 30
0.0
 11
292.077646
 21
338.612737
 31
0.0
  0
ENDBLK
  5
D0
330
CE
100
AcDbEntity
  8
0
100
AcDbBlockEnd
  0
BLOCK
  5
D6
330
D5
100
AcDbEntity
  8
0
100
AcDbBlockBegin
  2
KLON2
 70
     0
 71
     0
 10
0.0
 20
0.0
 30
0.0
  3
KLON2
  1

  4
KLON2
  0
LINE
  5
D8
330
D5
100
AcDbEntity
  8
LC-001-100-D00-0
 62
     7
370
    15
100
AcDbLine
 10
285.577648
 20
340.112733
 30
0.0
 11
285.928742
 21
340.295503
 31
0.0
  0
LINE
  5
D9
330
D5
100
AcDbEntity
  8
LC-001-100-D00-0
 62
     7
370
    15
100
AcDbLine
 10
285.928742
 20
340.295503
 30
0.0
 11
286.279835
 21
340.478273
 31
0.0
  0
LINE
  5
DA
330
D5
100
AcDbEntity
  8
LC-001-100-D00-0
 62
     7
370
    15
100
AcDbLine
 10
286.279835
 20
340.478273
 30
0.0
 11
286.827647
 21
340.763444
 31
0.0
  0
ENDBLK
  5
D7
330
D5
100
AcDbEntity
  8
0
100
AcDbBlockEnd
  0
BLOCK
  5
DD
330
DC
100
AcDbEntity
  8
0
100
AcDbBlockBegin
  2
POLY13
 70
     0
 71
     0
 10
0.0
 20
0.0
 30
0.0
  3
POLY13
  1

  4
POLY13
  0
LINE
  5
DF
330
DC
100
AcDbEntity
  8
LC-001-100-D00-0
 62
     7
370
    50
100
AcDbLine
 10
285.577648
 20
340.112733
 30
0.0
 11
285.577648
 21
340.112733
 31
0.0
  0
LINE
  5
E0
330
DC
100
AcDbEntity
  8
LC-001-100-D00-0
 62
     7
370
    50
100
AcDbLine
 10
285.577648
 20
340.112733
 30
0.0
 11
285.577654
 21
340.112
 31
0.0
  0
LINE
  5
E1
330
DC
100
AcDbEntity
  8
LC-001-100-D00-0
 62
     7
370
    50
100
AcDbLine
 10
285.577654
 20
340.112
 30
0.0
 11
285.577654
 21
340.112
 31
0.0
  0
LINE
  5
E2
330
DC
100
AcDbEntity
  8
LC-001-100-D00-0
 62
     7
370
    50
100
AcDbLine
 10
285.577654
 20
340.112
 30
0.0
 11
285.578039
 21
340.061093
 31
0.0
  0
LINE
  5
E3
330
DC
100
AcDbEntity
  8
LC-001-100-D00-0
 62
     7
370
    50
100
AcDbLine
 10
285.578039
 20
340.061093
 30
0.0
 11
285.578039
 21
340.061093
 31
0.0
  0
LINE
  5
E4
330
DC
100
AcDbEntity
  8
LC-001-100-D00-0
 62
     7
370
    50
100
AcDbLine
 10
285.578039
 20
340.061093
 30
0.0
 11
285.677882
 21
340.013709
 31
0.0
  0
LINE
  5
E5
330
DC
100
AcDbEntity
  8
LC-001-100-D00-0
 62
     7
370
    50
100
AcDbLine
 10
285.677882
 20
340.013709
 30
0.0
 11
285.677882
 21
340.013709
 31
0.0
  0
LINE
  5
E6
330
DC
100
AcDbEntity
  8
LC-001-100-D00-0
 62
     7
370
    50
100
AcDbLine
 10
285.677882
 20
340.013709
 30
0.0
 11
285.776288
 21
339.967007
 31
0.0
  0
ENDBLK
  5
DE
330
DC
100
AcDbEntity
  8
0
100
AcDbBlockEnd
  0
BLOCK
  5
EA
330
E9
100
AcDbEntity
  8
0
100
AcDbBlockBegin
  2
KLON3
 70
     0
 71
     0
 10
0.0
 20
0.0
 30
0.0
  3
KLON3
  1

  4
KLON3
  0
LINE
  5
EC
330
E9
100
AcDbEntity
  8
LC-001-100-D00-0
 62
     7
370
    15
100
AcDbLine
 10
290.827647
 20
336.263443
 30
0.0
 11
291.178741
 21
336.080673
 31
0.0
  0
LINE
  5
ED
330
E9
100
AcDbEntity
  8
LC-001-100-D00-0
 62
     7
370
    15
100
AcDbLine
 10
291.178741
 20
336.080673
 30
0.0
 11
291.529835
 21
335.89791
 31
0.0
  0
LINE
  5
EE
330
E9
100
AcDbEntity
  8
LC-001-100-D00-0
 62
     7
370
    15
100
AcDbLine
 10
291.529835
 20
335.89791
 30
0.0
 11
292.077646
 21
335.612731
 31
0.0
  0
ENDBLK
  5
EB
330
E9
100
AcDbEntity
  8
0
100
AcDbBlockEnd
  0
BLOCK
  5
F1
330
F0
100
AcDbEntity
  8
0
100
AcDbBlockBegin
  2
KLON4
 70
     0
 71
     0
 10
0.0
 20
0.0
 30
0.0
  3
KLON4
  1

  4
KLON4
  0
LINE
  5
F3
330
F0
100
AcDbEntity
  8
LC-001-100-D00-0
 62
     7
370
    15
100
AcDbLine
 10
285.577648
 20
337.112734
 30
0.0
 11
285.928742
 21
337.295505
 31
0.0
  0
LINE
  5
F4
330
F0
100
AcDbEntity
  8
LC-001-100-D00-0
 62
     7
370
    15
100
AcDbLine
 10
285.928742
 20
337.295505
 30
0.0
 11
286.279835
 21
337.478275
 31
0.0
  0
LINE
  5
F5
330
F0
100
AcDbEntity
  8
LC-001-100-D00-0
 62
     7
370
    15
100
AcDbLine
 10
286.279835
 20
337.478275
 30
0.0
 11
286.827647
 21
337.763446
 31
0.0
  0
ENDBLK
  5
F2
330
F0
100
AcDbEntity
  8
0
100
AcDbBlockEnd
  0
BLOCK
  5
F8
330
F7
100
AcDbEntity
  8
0
100
AcDbBlockBegin
  2
POLY14
 70
     0
 71
     0
 10
0.0
 20
0.0
 30
0.0
  3
POLY14
  1

  4
POLY14
  0
LINE
  5
FA
330
F7
100
AcDbEntity
  8
LC-001-100-D00-0
 62
     7
370
    50
100
AcDbLine
 10
285.577648
 20
337.112734
 30
0.0
 11
285.577648
 21
337.112734
 31
0.0
  0
LINE
  5
FB
330
F7
100
AcDbEntity
  8
LC-001-100-D00-0
 62
     7
370
    50
100
AcDbLine
 10
285.577648
 20
337.112734
 30
0.0
 11
285.577654
 21
337.111999
 31
0.0
  0
LINE
  5
FC
330
F7
100
AcDbEntity
  8
LC-001-100-D00-0
 62
     7
370
    50
100
AcDbLine
 10
285.577654
 20
337.111999
 30
0.0
 11
285.577654
 21
337.111999
 31
0.0
  0
LINE
  5
FD
330
F7
100
AcDbEntity
  8
LC-001-100-D00-0
 62
     7
370
    50
100
AcDbLine
 10
285.577654
 20
337.111999
 30
0.0
 11
285.578039
 21
337.060922
 31
0.0
  0
LINE
  5
FE
330
F7
100
AcDbEntity
  8
LC-001-100-D00-0
 62
     7
370
    50
100
AcDbLine
 10
285.578039
 20
337.060922
 30
0.0
 11
285.578039
 21
337.060922
 31
0.0
  0
LINE
  5
FF
330
F7
100
AcDbEntity
  8
LC-001-100-D00-0
 62
     7
370
    50
100
AcDbLine
 10
285.578039
 20
337.060922
 30
0.0
 11
285.677882
 21
337.013625
 31
0.0
  0
LINE
  5
100
330
F7
100
AcDbEntity
  8
LC-001-100-D00-0
 62
     7
370
    50
100
AcDbLine
 10
285.677882
 20
337.013625
 30
0.0
 11
285.677882
 21
337.013625
 31
0.0
  0
LINE
  5
101
330
F7
100
AcDbEntity
  8
LC-001-100-D00-0
 62
     7
370
    50
100
AcDbLine
 10
285.677882
 20
337.013625
 30
0.0
 11
285.776288
 21
336.967008
 31
0.0
  0
ENDBLK
  5
F9
330
F7
100
AcDbEntity
  8
0
100
AcDbBlockEnd
  0
BLOCK
  5
105
330
104
100
AcDbEntity
  8
0
100
AcDbBlockBegin
  2
KLON5
 70
     0
 71
     0
 10
0.0
 20
0.0
 30
0.0
  3
KLON5
  1

  4
KLON5
  0
LINE
  5
107
330
104
100
AcDbEntity
  8
LC-001-100-D00-0
 62
     7
370
    15
100
AcDbLine
 10
290.827647
 20
330.263445
 30
0.0
 11
291.178741
 21
330.080675
 31
0.0
  0
LINE
  5
108
330
104
100
AcDbEntity
  8
LC-001-100-D00-0
 62
     7
370
    15
100
AcDbLine
 10
291.178741
 20
330.080675
 30
0.0
 11
291.529835
 21
329.897905
 31
0.0
  0
LINE
  5
109
330
104
100
AcDbEntity
  8
LC-001-100-D00-0
 62
     7
370
    15
100
AcDbLine
 10
291.529835
 20
329.897905
 30
0.0
 11
292.077646
 21
329.612734
 31
0.0
  0
ENDBLK
  5
106
330
104
100
AcDbEntity
  8
0
100
AcDbBlockEnd
  0
BLOCK
  5
10C
330
10B
100
AcDbEntity
  8
0
100
AcDbBlockBegin
  2
KLON6
 70
     0
 71
     0
 10
0.0
 20
0.0
 30
0.0
  3
KLON6
  1

  4
KLON6
  0
LINE
  5
10E
330
10B
100
AcDbEntity
  8
LC-001-100-D00-0
 62
     7
370
    15
100
AcDbLine
 10
285.577648
 20
331.112737
 30
0.0
 11
285.928742
 21
331.2955
 31
0.0
  0
LINE
  5
10F
330
10B
100
AcDbEntity
  8
LC-001-100-D00-0
 62
     7
370
    15
100
AcDbLine
 10
285.928742
 20
331.2955
 30
0.0
 11
286.279835
 21
331.47827
 31
0.0
  0
LINE
  5
110
330
10B
100
AcDbEntity
  8
LC-001-100-D00-0
 62
     7
370
    15
100
AcDbLine
 10
286.279835
 20
331.47827
 30
0.0
 11
286.827647
 21
331.763441
 31
0.0
  0
ENDBLK
  5
10D
330
10B
100
AcDbEntity
  8
0
100
AcDbBlockEnd
  0
BLOCK
  5
113
330
112
100
AcDbEntity
  8
0
100
AcDbBlockBegin
  2
KLON7
 70
     0
 71
     0
 10
0.0
 20
0.0
 30
0.0
  3
KLON7
  1

  4
KLON7
  0
LINE
  5
115
330
112
100
AcDbEntity
  8
LC-001-100-D00-0
 62
     7
370
    15
100
AcDbLine
 10
290.827647
 20
342.26344
 30
0.0
 11
291.178741
 21
342.080677
 31
0.0
  0
LINE
  5
116
330
112
100
AcDbEntity
  8
LC-001-100-D00-0
 62
     7
370
    15
100
AcDbLine
 10
291.178741
 20
342.080677
 30
0.0
 11
291.529835
 21
341.897907
 31
0.0
  0
LINE
  5
117
330
112
100
AcDbEntity
  8
LC-001-100-D00-0
 62
     7
370
    15
100
AcDbLine
 10
291.529835
 20
341.897907
 30
0.0
 11
292.077646
 21
341.612736
 31
0.0
  0
ENDBLK
  5
114
330
112
100
AcDbEntity
  8
0
100
AcDbBlockEnd
  0
BLOCK
  5
11A
330
119
100
AcDbEntity
  8
0
100
AcDbBlockBegin
  2
KLON8
 70
     0
 71
     0
 10
0.0
 20
0.0
 30
0.0
  3
KLON8
  1

  4
KLON8
  0
LINE
  5
11C
330
119
100
AcDbEntity
  8
LC-001-100-D00-0
 62
     7
370
    15
100
AcDbLine
 10
285.577648
 20
343.112732
 30
0.0
 11
285.928742
 21
343.295502
 31
0.0
  0
LINE
  5
11D
330
119
100
AcDbEntity
  8
LC-001-100-D00-0
 62
     7
370
    15
100
AcDbLine
 10
285.928742
 20
343.295502
 30
0.0
 11
286.279835
 21
343.478272
 31
0.0
  0
LINE
  5
11E
330
119
100
AcDbEntity
  8
LC-001-100-D00-0
 62
     7
370
    15
100
AcDbLine
 10
286.279835
 20
343.478272
 30
0.0
 11
286.827647
 21
343.763443
 31
0.0
  0
ENDBLK
  5
11B
330
119
100
AcDbEntity
  8
0
100
AcDbBlockEnd
  0
BLOCK
  5
121
330
120
100
AcDbEntity
  8
0
100
AcDbBlockBegin
  2
POLY15
 70
     0
 71
     0
 10
0.0
 20
0.0
 30
0.0
  3
POLY15
  1

  4
POLY15
  0
LINE
  5
123
330
120
100
AcDbEntity
  8
LC-001-100-D00-0
 62
     7
370
    50
100
AcDbLine
 10
285.577648
 20
343.112732
 30
0.0
 11
285.577648
 21
343.112732
 31
0.0
  0
LINE
  5
124
330
120
100
AcDbEntity
  8
LC-001-100-D00-0
 62
     7
370
    50
100
AcDbLine
 10
285.577648
 20
343.112732
 30
0.0
 11
285.577654
 21
343.111999
 31
0.0
  0
LINE
  5
125
330
120
100
AcDbEntity
  8
LC-001-100-D00-0
 62
     7
370
    50
100
AcDbLine
 10
285.577654
 20
343.111999
 30
0.0
 11
285.577654
 21
343.111999
 31
0.0
  0
LINE
  5
126
330
120
100
AcDbEntity
  8
LC-001-100-D00-0
 62
     7
370
    50
100
AcDbLine
 10
285.577654
 20
343.111999
 30
0.0
 11
285.578039
 21
343.061091
 31
0.0
  0
LINE
  5
127
330
120
100
AcDbEntity
  8
LC-001-100-D00-0
 62
     7
370
    50
100
AcDbLine
 10
285.578039
 20
343.061091
 30
0.0
 11
285.578039
 21
343.061091
 31
0.0
  0
LINE
  5
128
330
120
100
AcDbEntity
  8
LC-001-100-D00-0
 62
     7
370
    50
100
AcDbLine
 10
285.578039
 20
343.061091
 30
0.0
 11
285.677882
 21
343.013711
 31
0.0
  0
LINE
  5
129
330
120
100
AcDbEntity
  8
LC-001-100-D00-0
 62
     7
370
    50
100
AcDbLine
 10
285.677882
 20
343.013711
 30
0.0
 11
285.677882
 21
343.013711
 31
0.0
  0
LINE
  5
12A
330
120
100
AcDbEntity
  8
LC-001-100-D00-0
 62
     7
370
    50
100
AcDbLine
 10
285.677882
 20
343.013711
 30
0.0
 11
285.776288
 21
342.967013
 31
0.0
  0
ENDBLK
  5
122
330
120
100
AcDbEntity
  8
0
100
AcDbBlockEnd
  0
BLOCK
  5
12E
330
12D
100
AcDbEntity
  8
0
100
AcDbBlockBegin
  2
KLON9
 70
     0
 71
     0
 10
0.0
 20
0.0
 30
0.0
  3
KLON9
  1

  4
KLON9
  0
LINE
  5
130
330
12D
100
AcDbEntity
  8
LC-001-100-D00-0
 62
     7
370
    15
100
AcDbLine
 10
290.827647
 20
333.263444
 30
0.0
 11
291.178741
 21
333.080674
 31
0.0
  0
LINE
  5
131
330
12D
100
AcDbEntity
  8
LC-001-100-D00-0
 62
     7
370
    15
100
AcDbLine
 10
291.178741
 20
333.080674
 30
0.0
 11
291.529835
 21
332.897904
 31
0.0
  0
LINE
  5
132
330
12D
100
AcDbEntity
  8
LC-001-100-D00-0
 62
     7
370
    15
100
AcDbLine
 10
291.529835
 20
332.897904
 30
0.0
 11
292.077646
 21
332.612733
 31
0.0
  0
ENDBLK
  5
12F
330
12D
100
AcDbEntity
  8
0
100
AcDbBlockEnd
  0
BLOCK
  5
135
330
134
100
AcDbEntity
  8
0
100
AcDbBlockBegin
  2
KLON10
 70
     0
 71
     0
 10
0.0
 20
0.0
 30
0.0
  3
KLON10
  1

  4
KLON10
  0
LINE
  5
137
330
134
100
AcDbEntity
  8
LC-001-100-D00-0
 62
     7
370
    15
100
AcDbLine
 10
285.577648
 20
334.112736
 30
0.0
 11
285.928742
 21
334.295506
 31
0.0
  0
LINE
  5
138
330
134
100
AcDbEntity
  8
LC-001-100-D00-0
 62
     7
370
    15
100
AcDbLine
 10
285.928742
 20
334.295506
 30
0.0
 11
286.279835
 21
334.478269
 31
0.0
  0
LINE
  5
139
330
134
100
AcDbEntity
  8
LC-001-100-D00-0
 62
     7
370
    15
100
AcDbLine
 10
286.279835
 20
334.478269
 30
0.0
 11
286.827647
 21
334.763447
 31
0.0
  0
ENDBLK
  5
136
330
134
100
AcDbEntity
  8
0
100
AcDbBlockEnd
  0
BLOCK
  5
13C
330
13B
100
AcDbEntity
  8
0
100
AcDbBlockBegin
  2
POLY16
 70
     0
 71
     0
 10
0.0
 20
0.0
 30
0.0
  3
POLY16
  1

  4
POLY16
  0
LINE
  5
13E
330
13B
100
AcDbEntity
  8
LC-001-100-D00-0
 62
     7
370
    50
100
AcDbLine
 10
285.577648
 20
334.112736
 30
0.0
 11
285.577648
 21
334.112736
 31
0.0
  0
LINE
  5
13F
330
13B
100
AcDbEntity
  8
LC-001-100-D00-0
 62
     7
370
    50
100
AcDbLine
 10
285.577648
 20
334.112736
 30
0.0
 11
285.577654
 21
334.112
 31
0.0
  0
LINE
  5
140
330
13B
100
AcDbEntity
  8
LC-001-100-D00-0
 62
     7
370
    50
100
AcDbLine
 10
285.577654
 20
334.112
 30
0.0
 11
285.577654
 21
334.112
 31
0.0
  0
LINE
  5
141
330
13B
100
AcDbEntity
  8
LC-001-100-D00-0
 62
     7
370
    50
100
AcDbLine
 10
285.577654
 20
334.112
 30
0.0
 11
285.578039
 21
334.060923
 31
0.0
  0
LINE
  5
142
330
13B
100
AcDbEntity
  8
LC-001-100-D00-0
 62
     7
370
    50
100
AcDbLine
 10
285.578039
 20
334.060923
 30
0.0
 11
285.578039
 21
334.060923
 31
0.0
  0
LINE
  5
143
330
13B
100
AcDbEntity
  8
LC-001-100-D00-0
 62
     7
370
    50
100
AcDbLine
 10
285.578039
 20
334.060923
 30
0.0
 11
285.677882
 21
334.013626
 31
0.0
  0
LINE
  5
144
330
13B
100
AcDbEntity
  8
LC-001-100-D00-0
 62
     7
370
    50
100
AcDbLine
 10
285.677882
 20
334.013626
 30
0.0
 11
285.677882
 21
334.013626
 31
0.0
  0
LINE
  5
145
330
13B
100
AcDbEntity
  8
LC-001-100-D00-0
 62
     7
370
    50
100
AcDbLine
 10
285.677882
 20
334.013626
 30
0.0
 11
285.776288
 21
333.96701
 31
0.0
  0
ENDBLK
  5
13D
330
13B
100
AcDbEntity
  8
0
100
AcDbBlockEnd
  0
BLOCK
  5
153
330
152
100
AcDbEntity
  8
0
100
AcDbBlockBegin
  2
KLON11
 70
     0
 71
     0
 10
0.0
 20
0.0
 30
0.0
  3
KLON11
  1

  4
KLON11
  0
LINE
  5
155
330
152
100
AcDbEntity
  8
LC-001-100-D00-0
 62
     7
370
    15
100
AcDbLine
 10
292.077646
 20
341.612736
 30
0.0
 11
291.726553
 21
341.429966
 31
0.0
  0
LINE
  5
156
330
152
100
AcDbEntity
  8
LC-001-100-D00-0
 62
     7
370
    15
100
AcDbLine
 10
291.726553
 20
341.429966
 30
0.0
 11
291.375459
 21
341.247196
 31
0.0
  0
LINE
  5
157
330
152
100
AcDbEntity
  8
LC-001-100-D00-0
 62
     7
370
    15
100
AcDbLine
 10
291.375459
 20
341.247196
 30
0.0
 11
290.827647
 21
340.962025
 31
0.0
  0
ENDBLK
  5
154
330
152
100
AcDbEntity
  8
0
100
AcDbBlockEnd
  0
BLOCK
  5
15B
330
15A
100
AcDbEntity
  8
0
100
AcDbBlockBegin
  2
KLON12
 70
     0
 71
     0
 10
0.0
 20
0.0
 30
0.0
  3
KLON12
  1

  4
KLON12
  0
LINE
  5
15D
330
15A
100
AcDbEntity
  8
LC-001-100-D00-0
 62
     7
370
    15
100
AcDbLine
 10
292.077646
 20
338.612737
 30
0.0
 11
291.726553
 21
338.429967
 31
0.0
  0
LINE
  5
15E
330
15A
100
AcDbEntity
  8
LC-001-100-D00-0
 62
     7
370
    15
100
AcDbLine
 10
291.726553
 20
338.429967
 30
0.0
 11
291.375459
 21
338.247197
 31
0.0
  0
LINE
  5
15F
330
15A
100
AcDbEntity
  8
LC-001-100-D00-0
 62
     7
370
    15
100
AcDbLine
 10
291.375459
 20
338.247197
 30
0.0
 11
290.827647
 21
337.962026
 31
0.0
  0
ENDBLK
  5
15C
330
15A
100
AcDbEntity
  8
0
100
AcDbBlockEnd
  0
BLOCK
  5
163
330
162
100
AcDbEntity
  8
0
100
AcDbBlockBegin
  2
KLON13
 70
     0
 71
     0
 10
0.0
 20
0.0
 30
0.0
  3
KLON13
  1

  4
KLON13
  0
LINE
  5
165
330
162
100
AcDbEntity
  8
LC-001-100-D00-0
 62
     7
370
    15
100
AcDbLine
 10
292.077646
 20
335.612731
 30
0.0
 11
291.726553
 21
335.429969
 31
0.0
  0
LINE
  5
166
330
162
100
AcDbEntity
  8
LC-001-100-D00-0
 62
     7
370
    15
100
AcDbLine
 10
291.726553
 20
335.429969
 30
0.0
 11
291.375459
 21
335.247198
 31
0.0
  0
LINE
  5
167
330
162
100
AcDbEntity
  8
LC-001-100-D00-0
 62
     7
370
    15
100
AcDbLine
 10
291.375459
 20
335.247198
 30
0.0
 11
290.827647
 21
334.962027
 31
0.0
  0
ENDBLK
  5
164
330
162
100
AcDbEntity
  8
0
100
AcDbBlockEnd
  0
BLOCK
  5
16B
330
16A
100
AcDbEntity
  8
0
100
AcDbBlockBegin
  2
KLON14
 70
     0
 71
     0
 10
0.0
 20
0.0
 30
0.0
  3
KLON14
  1

  4
KLON14
  0
LINE
  5
16D
330
16A
100
AcDbEntity
  8
LC-001-100-D00-0
 62
     7
370
    15
100
AcDbLine
 10
292.077646
 20
332.612733
 30
0.0
 11
291.726553
 21
332.429963
 31
0.0
  0
LINE
  5
16E
330
16A
100
AcDbEntity
  8
LC-001-100-D00-0
 62
     7
370
    15
100
AcDbLine
 10
291.726553
 20
332.429963
 30
0.0
 11
291.375459
 21
332.2472
 31
0.0
  0
LINE
  5
16F
330
16A
100
AcDbEntity
  8
LC-001-100-D00-0
 62
     7
370
    15
100
AcDbLine
 10
291.375459
 20
332.2472
 30
0.0
 11
290.827647
 21
331.962029
 31
0.0
  0
ENDBLK
  5
16C
330
16A
100
AcDbEntity
  8
0
100
AcDbBlockEnd
  0
BLOCK
  5
172
330
171
100
AcDbEntity
  8
0
100
AcDbBlockBegin
  2
KLON15
 70
     0
 71
     0
 10
0.0
 20
0.0
 30
0.0
  3
KLON15
  1

  4
KLON15
  0
LINE
  5
174
330
171
100
AcDbEntity
  8
LC-001-100-D00-0
 62
     7
370
    15
100
AcDbLine
 10
292.077646
 20
329.612734
 30
0.0
 11
291.726553
 21
329.429964
 31
0.0
  0
LINE
  5
175
330
171
100
AcDbEntity
  8
LC-001-100-D00-0
 62
     7
370
    15
100
AcDbLine
 10
291.726553
 20
329.429964
 30
0.0
 11
291.375459
 21
329.247201
 31
0.0
  0
LINE
  5
176
330
171
100
AcDbEntity
  8
LC-001-100-D00-0
 62
     7
370
    15
100
AcDbLine
 10
291.375459
 20
329.247201
 30
0.0
 11
290.827647
 21
328.962023
 31
0.0
  0
ENDBLK
  5
173
330
171
100
AcDbEntity
  8
0
100
AcDbBlockEnd
  0
BLOCK
  5
17D
330
17C
100
AcDbEntity
  8
0
100
AcDbBlockBegin
  2
KLON16
 70
     0
 71
     0
 10
0.0
 20
0.0
 30
0.0
  3
KLON16
  1

  4
KLON16
  0
LINE
  5
17F
330
17C
100
AcDbEntity
  8
LC-001-100-D00-0
 62
     7
370
    15
100
AcDbLine
 10
286.827647
 20
330.462026
 30
0.0
 11
286.476553
 21
330.644796
 31
0.0
  0
LINE
  5
180
330
17C
100
AcDbEntity
  8
LC-001-100-D00-0
 62
     7
370
    15
100
AcDbLine
 10
286.476553
 20
330.644796
 30
0.0
 11
286.125459
 21
330.827566
 31
0.0
  0
LINE
  5
181
330
17C
100
AcDbEntity
  8
LC-001-100-D00-0
 62
     7
370
    15
100
AcDbLine
 10
286.125459
 20
330.827566
 30
0.0
 11
285.577648
 21
331.112737
 31
0.0
  0
ENDBLK
  5
17E
330
17C
100
AcDbEntity
  8
0
100
AcDbBlockEnd
  0
BLOCK
  5
184
330
183
100
AcDbEntity
  8
0
100
AcDbBlockBegin
  2
KLON17
 70
     0
 71
     0
 10
0.0
 20
0.0
 30
0.0
  3
KLON17
  1

  4
KLON17
  0
LINE
  5
186
330
183
100
AcDbEntity
  8
LC-001-100-D00-0
 62
     7
370
    15
100
AcDbLine
 10
286.827647
 20
333.462024
 30
0.0
 11
286.476553
 21
333.644795
 31
0.0
  0
LINE
  5
187
330
183
100
AcDbEntity
  8
LC-001-100-D00-0
 62
     7
370
    15
100
AcDbLine
 10
286.476553
 20
333.644795
 30
0.0
 11
286.125459
 21
333.827565
 31
0.0
  0
LINE
  5
188
330
183
100
AcDbEntity
  8
LC-001-100-D00-0
 62
     7
370
    15
100
AcDbLine
 10
286.125459
 20
333.827565
 30
0.0
 11
285.577648
 21
334.112736
 31
0.0
  0
ENDBLK
  5
185
330
183
100
AcDbEntity
  8
0
100
AcDbBlockEnd
  0
BLOCK
  5
18C
330
18B
100
AcDbEntity
  8
0
100
AcDbBlockBegin
  2
KLON18
 70
     0
 71
     0
 10
0.0
 20
0.0
 30
0.0
  3
KLON18
  1

  4
KLON18
  0
LINE
  5
18E
330
18B
100
AcDbEntity
  8
LC-001-100-D00-0
 62
     7
370
    15
100
AcDbLine
 10
286.827647
 20
336.462023
 30
0.0
 11
286.476553
 21
336.644793
 31
0.0
  0
LINE
  5
18F
330
18B
100
AcDbEntity
  8
LC-001-100-D00-0
 62
     7
370
    15
100
AcDbLine
 10
286.476553
 20
336.644793
 30
0.0
 11
286.125459
 21
336.827563
 31
0.0
  0
LINE
  5
190
330
18B
100
AcDbEntity
  8
LC-001-100-D00-0
 62
     7
370
    15
100
AcDbLine
 10
286.125459
 20
336.827563
 30
0.0
 11
285.577648
 21
337.112734
 31
0.0
  0
ENDBLK
  5
18D
330
18B
100
AcDbEntity
  8
0
100
AcDbBlockEnd
  0
BLOCK
  5
194
330
193
100
AcDbEntity
  8
0
100
AcDbBlockBegin
  2
KLON19
 70
     0
 71
     0
 10
0.0
 20
0.0
 30
0.0
  3
KLON19
  1

  4
KLON19
  0
LINE
  5
196
330
193
100
AcDbEntity
  8
LC-001-100-D00-0
 62
     7
370
    15
100
AcDbLine
 10
286.827647
 20
339.462029
 30
0.0
 11
286.476553
 21
339.644792
 31
0.0
  0
LINE
  5
197
330
193
100
AcDbEntity
  8
LC-001-100-D00-0
 62
     7
370
    15
100
AcDbLine
 10
286.476553
 20
339.644792
 30
0.0
 11
286.125459
 21
339.827562
 31
0.0
  0
LINE
  5
198
330
193
100
AcDbEntity
  8
LC-001-100-D00-0
 62
     7
370
    15
100
AcDbLine
 10
286.125459
 20
339.827562
 30
0.0
 11
285.577648
 21
340.112733
 31
0.0
  0
ENDBLK
  5
195
330
193
100
AcDbEntity
  8
0
100
AcDbBlockEnd
  0
BLOCK
  5
19C
330
19B
100
AcDbEntity
  8
0
100
AcDbBlockBegin
  2
KLON20
 70
     0
 71
     0
 10
0.0
 20
0.0
 30
0.0
  3
KLON20
  1

  4
KLON20
  0
LINE
  5
19E
330
19B
100
AcDbEntity
  8
LC-001-100-D00-0
 62
     7
370
    15
100
AcDbLine
 10
286.827647
 20
342.462028
 30
0.0
 11
286.476553
 21
342.644798
 31
0.0
  0
LINE
  5
19F
330
19B
100
AcDbEntity
  8
LC-001-100-D00-0
 62
     7
370
    15
100
AcDbLine
 10
286.476553
 20
342.644798
 30
0.0
 11
286.125459
 21
342.827561
 31
0.0
  0
LINE
  5
1A0
330
19B
100
AcDbEntity
  8
LC-001-100-D00-0
 62
     7
370
    15
100
AcDbLine
 10
286.125459
 20
342.827561
 30
0.0
 11
285.577648
 21
343.112732
 31
0.0
  0
ENDBLK
  5
19D
330
19B
100
AcDbEntity
  8
0
100
AcDbBlockEnd
  0
BLOCK
  5
1AF
330
1AE
100
AcDbEntity
  8
0
100
AcDbBlockBegin
  2
POLY17
 70
     0
 71
     0
 10
0.0
 20
0.0
 30
0.0
  3
POLY17
  1

  4
POLY17
  0
LINE
  5
1B1
330
1AE
100
AcDbEntity
  8
LC-001-100-D00-0
 62
     7
370
    50
100
AcDbLine
 10
285.916992
 20
347.767854
 30
0.0
 11
285.916992
 21
347.767854
 31
0.0
  0
LINE
  5
1B2
330
1AE
100
AcDbEntity
  8
LC-001-100-D00-0
 62
     7
370
    50
100
AcDbLine
 10
285.916992
 20
347.767854
 30
0.0
 11
285.893827
 21
347.765862
 31
0.0
  0
LINE
  5
1B3
330
1AE
100
AcDbEntity
  8
LC-001-100-D00-0
 62
     7
370
    50
100
AcDbLine
 10
285.893827
 20
347.765862
 30
0.0
 11
285.893827
 21
347.765862
 31
0.0
  0
LINE
  5
1B4
330
1AE
100
AcDbEntity
  8
LC-001-100-D00-0
 62
     7
370
    50
100
AcDbLine
 10
285.893827
 20
347.765862
 30
0.0
 11
285.862416
 21
347.763161
 31
0.0
  0
LINE
  5
1B5
330
1AE
100
AcDbEntity
  8
LC-001-100-D00-0
 62
     7
370
    50
100
AcDbLine
 10
285.862416
 20
347.763161
 30
0.0
 11
285.862416
 21
347.763161
 31
0.0
  0
LINE
  5
1B6
330
1AE
100
AcDbEntity
  8
LC-001-100-D00-0
 62
     7
370
    50
100
AcDbLine
 10
285.862416
 20
347.763161
 30
0.0
 11
285.833972
 21
347.750242
 31
0.0
  0
LINE
  5
1B7
330
1AE
100
AcDbEntity
  8
LC-001-100-D00-0
 62
     7
370
    50
100
AcDbLine
 10
285.833972
 20
347.750242
 30
0.0
 11
285.833972
 21
347.750242
 31
0.0
  0
LINE
  5
1B8
330
1AE
100
AcDbEntity
  8
LC-001-100-D00-0
 62
     7
370
    50
100
AcDbLine
 10
285.833972
 20
347.750242
 30
0.0
 11
285.826505
 21
347.746851
 31
0.0
  0
ENDBLK
  5
1B0
330
1AE
100
AcDbEntity
  8
0
100
AcDbBlockEnd
  0
BLOCK
  5
1BE
330
1BD
100
AcDbEntity
  8
0
100
AcDbBlockBegin
  2
POLY18
 70
     0
 71
     0
 10
0.0
 20
0.0
 30
0.0
  3
POLY18
  1

  4
POLY18
  0
LINE
  5
1C0
330
1BD
100
AcDbEntity
  8
LC-001-100-D00-0
 62
     7
370
    50
100
AcDbLine
 10
291.828789
 20
347.746851
 30
0.0
 11
291.828789
 21
347.746851
 31
0.0
  0
LINE
  5
1C1
330
1BD
100
AcDbEntity
  8
LC-001-100-D00-0
 62
     7
370
    50
100
AcDbLine
 10
291.828789
 20
347.746851
 30
0.0
 11
291.807116
 21
347.755263
 31
0.0
  0
LINE
  5
1C2
330
1BD
100
AcDbEntity
  8
LC-001-100-D00-0
 62
     7
370
    50
100
AcDbLine
 10
291.807116
 20
347.755263
 30
0.0
 11
291.807116
 21
347.755263
 31
0.0
  0
LINE
  5
1C3
330
1BD
100
AcDbEntity
  8
LC-001-100-D00-0
 62
     7
370
    50
100
AcDbLine
 10
291.807116
 20
347.755263
 30
0.0
 11
291.777727
 21
347.76667
 31
0.0
  0
LINE
  5
1C4
330
1BD
100
AcDbEntity
  8
LC-001-100-D00-0
 62
     7
370
    50
100
AcDbLine
 10
291.777727
 20
347.76667
 30
0.0
 11
291.777727
 21
347.76667
 31
0.0
  0
LINE
  5
1C5
330
1BD
100
AcDbEntity
  8
LC-001-100-D00-0
 62
     7
370
    50
100
AcDbLine
 10
291.777727
 20
347.76667
 30
0.0
 11
291.7465
 21
347.767608
 31
0.0
  0
LINE
  5
1C6
330
1BD
100
AcDbEntity
  8
LC-001-100-D00-0
 62
     7
370
    50
100
AcDbLine
 10
291.7465
 20
347.767608
 30
0.0
 11
291.7465
 21
347.767608
 31
0.0
  0
LINE
  5
1C7
330
1BD
100
AcDbEntity
  8
LC-001-100-D00-0
 62
     7
370
    50
100
AcDbLine
 10
291.7465
 20
347.767608
 30
0.0
 11
291.738302
 21
347.767854
 31
0.0
  0
ENDBLK
  5
1BF
330
1BD
100
AcDbEntity
  8
0
100
AcDbBlockEnd
  0
BLOCK
  5
33B
330
33A
100
AcDbEntity
  8
0
100
AcDbBlockBegin
  2
POLY19
 70
     0
 71
     0
 10
0.0
 20
0.0
 30
0.0
  3
POLY19
  1

  4
POLY19
  0
LINE
  5
33D
330
33A
100
AcDbEntity
  8
LC-001-100-D00-0
 62
     7
370
    50
100
AcDbLine
 10
312.815093
 20
334.067853
 30
0.0
 11
312.815093
 21
334.067853
 31
0.0
  0
LINE
  5
33E
330
33A
100
AcDbEntity
  8
LC-001-100-D00-0
 62
     7
370
    50
100
AcDbLine
 10
312.815093
 20
334.067853
 30
0.0
 11
312.816914
 21
334.179091
 31
0.0
  0
LINE
  5
33F
330
33A
100
AcDbEntity
  8
LC-001-100-D00-0
 62
     7
370
    50
100
AcDbLine
 10
312.816914
 20
334.179091
 30
0.0
 11
312.816914
 21
334.179091
 31
0.0
  0
LINE
  5
340
330
33A
100
AcDbEntity
  8
LC-001-100-D00-0
 62
     7
370
    50
100
AcDbLine
 10
312.816914
 20
334.179091
 30
0.0
 11
312.820554
 21
334.401539
 31
0.0
  0
LINE
  5
341
330
33A
100
AcDbEntity
  8
LC-001-100-D00-0
 62
     7
370
    50
100
AcDbLine
 10
312.820554
 20
334.401539
 30
0.0
 11
312.820554
 21
334.401539
 31
0.0
  0
LINE
  5
342
330
33A
100
AcDbEntity
  8
LC-001-100-D00-0
 62
     7
370
    50
100
AcDbLine
 10
312.820554
 20
334.401539
 30
0.0
 11
312.849175
 21
334.698421
 31
0.0
  0
LINE
  5
343
330
33A
100
AcDbEntity
  8
LC-001-100-D00-0
 62
     7
370
    50
100
AcDbLine
 10
312.849175
 20
334.698421
 30
0.0
 11
312.849175
 21
334.698421
 31
0.0
  0
LINE
  5
344
330
33A
100
AcDbEntity
  8
LC-001-100-D00-0
 62
     7
370
    50
100
AcDbLine
 10
312.849175
 20
334.698421
 30
0.0
 11
312.892227
 21
334.924532
 31
0.0
  0
LINE
  5
345
330
33A
100
AcDbEntity
  8
LC-001-100-D00-0
 62
     7
370
    50
100
AcDbLine
 10
312.892227
 20
334.924532
 30
0.0
 11
312.892227
 21
334.924532
 31
0.0
  0
LINE
  5
346
330
33A
100
AcDbEntity
  8
LC-001-100-D00-0
 62
     7
370
    50
100
AcDbLine
 10
312.892227
 20
334.924532
 30
0.0
 11
312.942102
 21
335.049128
 31
0.0
  0
LINE
  5
347
330
33A
100
AcDbEntity
  8
LC-001-100-D00-0
 62
     7
370
    50
100
AcDbLine
 10
312.942102
 20
335.049128
 30
0.0
 11
312.942102
 21
335.049128
 31
0.0
  0
LINE
  5
348
330
33A
100
AcDbEntity
  8
LC-001-100-D00-0
 62
     7
370
    50
100
AcDbLine
 10
312.942102
 20
335.049128
 30
0.0
 11
312.976685
 21
335.062372
 31
0.0
  0
LINE
  5
349
330
33A
100
AcDbEntity
  8
LC-001-100-D00-0
 62
     7
370
    50
100
AcDbLine
 10
312.976685
 20
335.062372
 30
0.0
 11
312.976685
 21
335.062372
 31
0.0
  0
LINE
  5
34A
330
33A
100
AcDbEntity
  8
LC-001-100-D00-0
 62
     7
370
    50
100
AcDbLine
 10
312.976685
 20
335.062372
 30
0.0
 11
312.991001
 21
335.067856
 31
0.0
  0
ENDBLK
  5
33C
330
33A
100
AcDbEntity
  8
0
100
AcDbBlockEnd
  0
BLOCK
  5
350
330
34F
100
AcDbEntity
  8
0
100
AcDbBlockBegin
  2
POLY20
 70
     0
 71
     0
 10
0.0
 20
0.0
 30
0.0
  3
POLY20
  1

  4
POLY20
  0
LINE
  5
352
330
34F
100
AcDbEntity
  8
LC-001-100-D00-0
 62
     7
370
    50
100
AcDbLine
 10
452.664316
 20
335.067856
 30
0.0
 11
452.664316
 21
335.067856
 31
0.0
  0
LINE
  5
353
330
34F
100
AcDbEntity
  8
LC-001-100-D00-0
 62
     7
370
    50
100
AcDbLine
 10
452.664316
 20
335.067856
 30
0.0
 11
452.68498
 21
335.056572
 31
0.0
  0
LINE
  5
354
330
34F
100
AcDbEntity
  8
LC-001-100-D00-0
 62
     7
370
    50
100
AcDbLine
 10
452.68498
 20
335.056572
 30
0.0
 11
452.68498
 21
335.056572
 31
0.0
  0
LINE
  5
355
330
34F
100
AcDbEntity
  8
LC-001-100-D00-0
 62
     7
370
    50
100
AcDbLine
 10
452.68498
 20
335.056572
 30
0.0
 11
452.726313
 21
335.034003
 31
0.0
  0
LINE
  5
356
330
34F
100
AcDbEntity
  8
LC-001-100-D00-0
 62
     7
370
    50
100
AcDbLine
 10
452.726313
 20
335.034003
 30
0.0
 11
452.726313
 21
335.034003
 31
0.0
  0
LINE
  5
357
330
34F
100
AcDbEntity
  8
LC-001-100-D00-0
 62
     7
370
    50
100
AcDbLine
 10
452.726313
 20
335.034003
 30
0.0
 11
452.779408
 21
334.857473
 31
0.0
  0
LINE
  5
358
330
34F
100
AcDbEntity
  8
LC-001-100-D00-0
 62
     7
370
    50
100
AcDbLine
 10
452.779408
 20
334.857473
 30
0.0
 11
452.779408
 21
334.857473
 31
0.0
  0
LINE
  5
359
330
34F
100
AcDbEntity
  8
LC-001-100-D00-0
 62
     7
370
    50
100
AcDbLine
 10
452.779408
 20
334.857473
 30
0.0
 11
452.818227
 21
334.598416
 31
0.0
  0
LINE
  5
35A
330
34F
100
AcDbEntity
  8
LC-001-100-D00-0
 62
     7
370
    50
100
AcDbLine
 10
452.818227
 20
334.598416
 30
0.0
 11
452.818227
 21
334.598416
 31
0.0
  0
LINE
  5
35B
330
34F
100
AcDbEntity
  8
LC-001-100-D00-0
 62
     7
370
    50
100
AcDbLine
 10
452.818227
 20
334.598416
 30
0.0
 11
452.837616
 21
334.318145
 31
0.0
  0
LINE
  5
35C
330
34F
100
AcDbEntity
  8
LC-001-100-D00-0
 62
     7
370
    50
100
AcDbLine
 10
452.837616
 20
334.318145
 30
0.0
 11
452.837616
 21
334.318145
 31
0.0
  0
LINE
  5
35D
330
34F
100
AcDbEntity
  8
LC-001-100-D00-0
 62
     7
370
    50
100
AcDbLine
 10
452.837616
 20
334.318145
 30
0.0
 11
452.839504
 21
334.136746
 31
0.0
  0
LINE
  5
35E
330
34F
100
AcDbEntity
  8
LC-001-100-D00-0
 62
     7
370
    50
100
AcDbLine
 10
452.839504
 20
334.136746
 30
0.0
 11
452.839504
 21
334.136746
 31
0.0
  0
LINE
  5
35F
330
34F
100
AcDbEntity
  8
LC-001-100-D00-0
 62
     7
370
    50
100
AcDbLine
 10
452.839504
 20
334.136746
 30
0.0
 11
452.840221
 21
334.067853
 31
0.0
  0
ENDBLK
  5
351
330
34F
100
AcDbEntity
  8
0
100
AcDbBlockEnd
  0
BLOCK
  5
3AE
330
3AD
100
AcDbEntity
  8
0
100
AcDbBlockBegin
  2
POLY21
 70
     0
 71
     0
 10
0.0
 20
0.0
 30
0.0
  3
POLY21
  1

  4
POLY21
  0
LINE
  5
3B0
330
3AD
100
AcDbEntity
  8
LC-001-100-D00-0
 62
     7
370
    50
100
AcDbLine
 10
312.991001
 20
335.067856
 30
0.0
 11
312.991001
 21
335.067856
 31
0.0
  0
LINE
  5
3B1
330
3AD
100
AcDbEntity
  8
LC-001-100-D00-0
 62
     7
370
    50
100
AcDbLine
 10
312.991001
 20
335.067856
 30
0.0
 11
313.012066
 21
335.0565
 31
0.0
  0
LINE
  5
3B2
330
3AD
100
AcDbEntity
  8
LC-001-100-D00-0
 62
     7
370
    50
100
AcDbLine
 10
313.012066
 20
335.0565
 30
0.0
 11
313.012066
 21
335.0565
 31
0.0
  0
LINE
  5
3B3
330
3AD
100
AcDbEntity
  8
LC-001-100-D00-0
 62
     7
370
    50
100
AcDbLine
 10
313.012066
 20
335.0565
 30
0.0
 11
313.054199
 21
335.033785
 31
0.0
  0
LINE
  5
3B4
330
3AD
100
AcDbEntity
  8
LC-001-100-D00-0
 62
     7
370
    50
100
AcDbLine
 10
313.054199
 20
335.033785
 30
0.0
 11
313.054199
 21
335.033785
 31
0.0
  0
LINE
  5
3B5
330
3AD
100
AcDbEntity
  8
LC-001-100-D00-0
 62
     7
370
    50
100
AcDbLine
 10
313.054199
 20
335.033785
 30
0.0
 11
313.112143
 21
334.856558
 31
0.0
  0
LINE
  5
3B6
330
3AD
100
AcDbEntity
  8
LC-001-100-D00-0
 62
     7
370
    50
100
AcDbLine
 10
313.112143
 20
334.856558
 30
0.0
 11
313.112143
 21
334.856558
 31
0.0
  0
LINE
  5
3B7
330
3AD
100
AcDbEntity
  8
LC-001-100-D00-0
 62
     7
370
    50
100
AcDbLine
 10
313.112143
 20
334.856558
 30
0.0
 11
313.156183
 21
334.596609
 31
0.0
  0
LINE
  5
3B8
330
3AD
100
AcDbEntity
  8
LC-001-100-D00-0
 62
     7
370
    50
100
AcDbLine
 10
313.156183
 20
334.596609
 30
0.0
 11
313.156183
 21
334.596609
 31
0.0
  0
LINE
  5
3B9
330
3AD
100
AcDbEntity
  8
LC-001-100-D00-0
 62
     7
370
    50
100
AcDbLine
 10
313.156183
 20
334.596609
 30
0.0
 11
313.178706
 21
334.316313
 31
0.0
  0
LINE
  5
3BA
330
3AD
100
AcDbEntity
  8
LC-001-100-D00-0
 62
     7
370
    50
100
AcDbLine
 10
313.178706
 20
334.316313
 30
0.0
 11
313.178706
 21
334.316313
 31
0.0
  0
LINE
  5
3BB
330
3AD
100
AcDbEntity
  8
LC-001-100-D00-0
 62
     7
370
    50
100
AcDbLine
 10
313.178706
 20
334.316313
 30
0.0
 11
313.180888
 21
334.135671
 31
0.0
  0
LINE
  5
3BC
330
3AD
100
AcDbEntity
  8
LC-001-100-D00-0
 62
     7
370
    50
100
AcDbLine
 10
313.180888
 20
334.135671
 30
0.0
 11
313.180888
 21
334.135671
 31
0.0
  0
LINE
  5
3BD
330
3AD
100
AcDbEntity
  8
LC-001-100-D00-0
 62
     7
370
    50
100
AcDbLine
 10
313.180888
 20
334.135671
 30
0.0
 11
313.181706
 21
334.067853
 31
0.0
  0
ENDBLK
  5
3AF
330
3AD
100
AcDbEntity
  8
0
100
AcDbBlockEnd
  0
BLOCK
  5
3C0
330
3BF
100
AcDbEntity
  8
0
100
AcDbBlockBegin
  2
POLY22
 70
     0
 71
     0
 10
0.0
 20
0.0
 30
0.0
  3
POLY22
  1

  4
POLY22
  0
LINE
  5
3C2
330
3BF
100
AcDbEntity
  8
LC-001-100-D00-0
 62
     7
370
    50
100
AcDbLine
 10
369.027664
 20
334.067853
 30
0.0
 11
369.027664
 21
334.067853
 31
0.0
  0
LINE
  5
3C3
330
3BF
100
AcDbEntity
  8
LC-001-100-D00-0
 62
     7
370
    50
100
AcDbLine
 10
369.027664
 20
334.067853
 30
0.0
 11
369.038431
 21
334.178718
 31
0.0
  0
LINE
  5
3C4
330
3BF
100
AcDbEntity
  8
LC-001-100-D00-0
 62
     7
370
    50
100
AcDbLine
 10
369.038431
 20
334.178718
 30
0.0
 11
369.038431
 21
334.178718
 31
0.0
  0
LINE
  5
3C5
330
3BF
100
AcDbEntity
  8
LC-001-100-D00-0
 62
     7
370
    50
100
AcDbLine
 10
369.038431
 20
334.178718
 30
0.0
 11
369.059961
 21
334.400412
 31
0.0
  0
LINE
  5
3C6
330
3BF
100
AcDbEntity
  8
LC-001-100-D00-0
 62
     7
370
    50
100
AcDbLine
 10
369.059961
 20
334.400412
 30
0.0
 11
369.059961
 21
334.400412
 31
0.0
  0
LINE
  5
3C7
330
3BF
100
AcDbEntity
  8
LC-001-100-D00-0
 62
     7
370
    50
100
AcDbLine
 10
369.059961
 20
334.400412
 30
0.0
 11
369.227465
 21
334.696497
 31
0.0
  0
LINE
  5
3C8
330
3BF
100
AcDbEntity
  8
LC-001-100-D00-0
 62
     7
370
    50
100
AcDbLine
 10
369.227465
 20
334.696497
 30
0.0
 11
369.227465
 21
334.696497
 31
0.0
  0
LINE
  5
3C9
330
3BF
100
AcDbEntity
  8
LC-001-100-D00-0
 62
     7
370
    50
100
AcDbLine
 10
369.227465
 20
334.696497
 30
0.0
 11
369.474971
 21
334.92285
 31
0.0
  0
LINE
  5
3CA
330
3BF
100
AcDbEntity
  8
LC-001-100-D00-0
 62
     7
370
    50
100
AcDbLine
 10
369.474971
 20
334.92285
 30
0.0
 11
369.474971
 21
334.92285
 31
0.0
  0
LINE
  5
3CB
330
3BF
100
AcDbEntity
  8
LC-001-100-D00-0
 62
     7
370
    50
100
AcDbLine
 10
369.474971
 20
334.92285
 30
0.0
 11
369.757106
 21
335.048742
 31
0.0
  0
LINE
  5
3CC
330
3BF
100
AcDbEntity
  8
LC-001-100-D00-0
 62
     7
370
    50
100
AcDbLine
 10
369.757106
 20
335.048742
 30
0.0
 11
369.757106
 21
335.048742
 31
0.0
  0
LINE
  5
3CD
330
3BF
100
AcDbEntity
  8
LC-001-100-D00-0
 62
     7
370
    50
100
AcDbLine
 10
369.757106
 20
335.048742
 30
0.0
 11
369.948185
 21
335.062241
 31
0.0
  0
LINE
  5
3CE
330
3BF
100
AcDbEntity
  8
LC-001-100-D00-0
 62
     7
370
    50
100
AcDbLine
 10
369.948185
 20
335.062241
 30
0.0
 11
369.948185
 21
335.062241
 31
0.0
  0
LINE
  5
3CF
330
3BF
100
AcDbEntity
  8
LC-001-100-D00-0
 62
     7
370
    50
100
AcDbLine
 10
369.948185
 20
335.062241
 30
0.0
 11
370.027666
 21
335.067856
 31
0.0
  0
ENDBLK
  5
3C1
330
3BF
100
AcDbEntity
  8
0
100
AcDbBlockEnd
  0
BLOCK
  5
3D5
330
3D4
100
AcDbEntity
  8
0
100
AcDbBlockBegin
  2
POLY23
 70
     0
 71
     0
 10
0.0
 20
0.0
 30
0.0
  3
POLY23
  1

  4
POLY23
  0
LINE
  5
3D7
330
3D4
100
AcDbEntity
  8
LC-001-100-D00-0
 62
     7
370
    50
100
AcDbLine
 10
452.473615
 20
334.067853
 30
0.0
 11
452.473615
 21
334.067853
 31
0.0
  0
LINE
  5
3D8
330
3D4
100
AcDbEntity
  8
LC-001-100-D00-0
 62
     7
370
    50
100
AcDbLine
 10
452.473615
 20
334.067853
 30
0.0
 11
452.475751
 21
334.178718
 31
0.0
  0
LINE
  5
3D9
330
3D4
100
AcDbEntity
  8
LC-001-100-D00-0
 62
     7
370
    50
100
AcDbLine
 10
452.475751
 20
334.178718
 30
0.0
 11
452.475751
 21
334.178718
 31
0.0
  0
LINE
  5
3DA
330
3D4
100
AcDbEntity
  8
LC-001-100-D00-0
 62
     7
370
    50
100
AcDbLine
 10
452.475751
 20
334.178718
 30
0.0
 11
452.480024
 21
334.400414
 31
0.0
  0
LINE
  5
3DB
330
3D4
100
AcDbEntity
  8
LC-001-100-D00-0
 62
     7
370
    50
100
AcDbLine
 10
452.480024
 20
334.400414
 30
0.0
 11
452.480024
 21
334.400414
 31
0.0
  0
LINE
  5
3DC
330
3D4
100
AcDbEntity
  8
LC-001-100-D00-0
 62
     7
370
    50
100
AcDbLine
 10
452.480024
 20
334.400414
 30
0.0
 11
452.513017
 21
334.696495
 31
0.0
  0
LINE
  5
3DD
330
3D4
100
AcDbEntity
  8
LC-001-100-D00-0
 62
     7
370
    50
100
AcDbLine
 10
452.513017
 20
334.696495
 30
0.0
 11
452.513017
 21
334.696495
 31
0.0
  0
LINE
  5
3DE
330
3D4
100
AcDbEntity
  8
LC-001-100-D00-0
 62
     7
370
    50
100
AcDbLine
 10
452.513017
 20
334.696495
 30
0.0
 11
452.560934
 21
334.922851
 31
0.0
  0
LINE
  5
3DF
330
3D4
100
AcDbEntity
  8
LC-001-100-D00-0
 62
     7
370
    50
100
AcDbLine
 10
452.560934
 20
334.922851
 30
0.0
 11
452.560934
 21
334.922851
 31
0.0
  0
LINE
  5
3E0
330
3D4
100
AcDbEntity
  8
LC-001-100-D00-0
 62
     7
370
    50
100
AcDbLine
 10
452.560934
 20
334.922851
 30
0.0
 11
452.614441
 21
335.048741
 31
0.0
  0
LINE
  5
3E1
330
3D4
100
AcDbEntity
  8
LC-001-100-D00-0
 62
     7
370
    50
100
AcDbLine
 10
452.614441
 20
335.048741
 30
0.0
 11
452.614441
 21
335.048741
 31
0.0
  0
LINE
  5
3E2
330
3D4
100
AcDbEntity
  8
LC-001-100-D00-0
 62
     7
370
    50
100
AcDbLine
 10
452.614441
 20
335.048741
 30
0.0
 11
452.649665
 21
335.06224
 31
0.0
  0
LINE
  5
3E3
330
3D4
100
AcDbEntity
  8
LC-001-100-D00-0
 62
     7
370
    50
100
AcDbLine
 10
452.649665
 20
335.06224
 30
0.0
 11
452.649665
 21
335.06224
 31
0.0
  0
LINE
  5
3E4
330
3D4
100
AcDbEntity
  8
LC-001-100-D00-0
 62
     7
370
    50
100
AcDbLine
 10
452.649665
 20
335.06224
 30
0.0
 11
452.664316
 21
335.067856
 31
0.0
  0
ENDBLK
  5
3D6
330
3D4
100
AcDbEntity
  8
0
100
AcDbBlockEnd
  0
BLOCK
  5
3E7
330
3E6
100
AcDbEntity
  8
0
100
AcDbBlockBegin
  2
POLY24
 70
     0
 71
     0
 10
0.0
 20
0.0
 30
0.0
  3
POLY24
  1

  4
POLY24
  0
LINE
  5
3E9
330
3E6
100
AcDbEntity
  8
LC-001-100-D00-0
 62
     7
370
    50
100
AcDbLine
 10
395.627745
 20
335.067856
 30
0.0
 11
395.627745
 21
335.067856
 31
0.0
  0
LINE
  5
3EA
330
3E6
100
AcDbEntity
  8
LC-001-100-D00-0
 62
     7
370
    50
100
AcDbLine
 10
395.627745
 20
335.067856
 30
0.0
 11
395.741731
 21
335.0565
 31
0.0
  0
LINE
  5
3EB
330
3E6
100
AcDbEntity
  8
LC-001-100-D00-0
 62
     7
370
    50
100
AcDbLine
 10
395.741731
 20
335.0565
 30
0.0
 11
395.741731
 21
335.0565
 31
0.0
  0
LINE
  5
3EC
330
3E6
100
AcDbEntity
  8
LC-001-100-D00-0
 62
     7
370
    50
100
AcDbLine
 10
395.741731
 20
335.0565
 30
0.0
 11
395.969727
 21
335.033785
 31
0.0
  0
LINE
  5
3ED
330
3E6
100
AcDbEntity
  8
LC-001-100-D00-0
 62
     7
370
    50
100
AcDbLine
 10
395.969727
 20
335.033785
 30
0.0
 11
395.969727
 21
335.033785
 31
0.0
  0
LINE
  5
3EE
330
3E6
100
AcDbEntity
  8
LC-001-100-D00-0
 62
     7
370
    50
100
AcDbLine
 10
395.969727
 20
335.033785
 30
0.0
 11
396.272739
 21
334.856558
 31
0.0
  0
LINE
  5
3EF
330
3E6
100
AcDbEntity
  8
LC-001-100-D00-0
 62
     7
370
    50
100
AcDbLine
 10
396.272739
 20
334.856558
 30
0.0
 11
396.272739
 21
334.856558
 31
0.0
  0
LINE
  5
3F0
330
3E6
100
AcDbEntity
  8
LC-001-100-D00-0
 62
     7
370
    50
100
AcDbLine
 10
396.272739
 20
334.856558
 30
0.0
 11
396.498725
 21
334.596609
 31
0.0
  0
LINE
  5
3F1
330
3E6
100
AcDbEntity
  8
LC-001-100-D00-0
 62
     7
370
    50
100
AcDbLine
 10
396.498725
 20
334.596609
 30
0.0
 11
396.498725
 21
334.596609
 31
0.0
  0
LINE
  5
3F2
330
3E6
100
AcDbEntity
  8
LC-001-100-D00-0
 62
     7
370
    50
100
AcDbLine
 10
396.498725
 20
334.596609
 30
0.0
 11
396.612629
 21
334.316313
 31
0.0
  0
LINE
  5
3F3
330
3E6
100
AcDbEntity
  8
LC-001-100-D00-0
 62
     7
370
    50
100
AcDbLine
 10
396.612629
 20
334.316313
 30
0.0
 11
396.612629
 21
334.316313
 31
0.0
  0
LINE
  5
3F4
330
3E6
100
AcDbEntity
  8
LC-001-100-D00-0
 62
     7
370
    50
100
AcDbLine
 10
396.612629
 20
334.316313
 30
0.0
 11
396.623619
 21
334.135671
 31
0.0
  0
LINE
  5
3F5
330
3E6
100
AcDbEntity
  8
LC-001-100-D00-0
 62
     7
370
    50
100
AcDbLine
 10
396.623619
 20
334.135671
 30
0.0
 11
396.623619
 21
334.135671
 31
0.0
  0
LINE
  5
3F6
330
3E6
100
AcDbEntity
  8
LC-001-100-D00-0
 62
     7
370
    50
100
AcDbLine
 10
396.623619
 20
334.135671
 30
0.0
 11
396.627745
 21
334.067853
 31
0.0
  0
ENDBLK
  5
3E8
330
3E6
100
AcDbEntity
  8
0
100
AcDbBlockEnd
  0
BLOCK
  5
437
330
436
100
AcDbEntity
  8
0
100
AcDbBlockBegin
  2
POLY25
 70
     0
 71
     0
 10
0.0
 20
0.0
 30
0.0
  3
POLY25
  1

  4
POLY25
  0
LINE
  5
439
330
436
100
AcDbEntity
  8
LC-001-100-D00-0
 62
     7
370
    50
100
AcDbLine
 10
394.627745
 20
334.067853
 30
0.0
 11
394.627745
 21
334.067853
 31
0.0
  0
LINE
  5
43A
330
436
100
AcDbEntity
  8
LC-001-100-D00-0
 62
     7
370
    50
100
AcDbLine
 10
394.627745
 20
334.067853
 30
0.0
 11
394.638577
 21
334.179091
 31
0.0
  0
LINE
  5
43B
330
436
100
AcDbEntity
  8
LC-001-100-D00-0
 62
     7
370
    50
100
AcDbLine
 10
394.638577
 20
334.179091
 30
0.0
 11
394.638577
 21
334.179091
 31
0.0
  0
LINE
  5
43C
330
436
100
AcDbEntity
  8
LC-001-100-D00-0
 62
     7
370
    50
100
AcDbLine
 10
394.638577
 20
334.179091
 30
0.0
 11
394.66024
 21
334.40154
 31
0.0
  0
LINE
  5
43D
330
436
100
AcDbEntity
  8
LC-001-100-D00-0
 62
     7
370
    50
100
AcDbLine
 10
394.66024
 20
334.40154
 30
0.0
 11
394.66024
 21
334.40154
 31
0.0
  0
LINE
  5
43E
330
436
100
AcDbEntity
  8
LC-001-100-D00-0
 62
     7
370
    50
100
AcDbLine
 10
394.66024
 20
334.40154
 30
0.0
 11
394.828893
 21
334.698421
 31
0.0
  0
LINE
  5
43F
330
436
100
AcDbEntity
  8
LC-001-100-D00-0
 62
     7
370
    50
100
AcDbLine
 10
394.828893
 20
334.698421
 30
0.0
 11
394.828893
 21
334.698421
 31
0.0
  0
LINE
  5
440
330
436
100
AcDbEntity
  8
LC-001-100-D00-0
 62
     7
370
    50
100
AcDbLine
 10
394.828893
 20
334.698421
 30
0.0
 11
395.07761
 21
334.924533
 31
0.0
  0
LINE
  5
441
330
436
100
AcDbEntity
  8
LC-001-100-D00-0
 62
     7
370
    50
100
AcDbLine
 10
395.07761
 20
334.924533
 30
0.0
 11
395.07761
 21
334.924533
 31
0.0
  0
LINE
  5
442
330
436
100
AcDbEntity
  8
LC-001-100-D00-0
 62
     7
370
    50
100
AcDbLine
 10
395.07761
 20
334.924533
 30
0.0
 11
395.359432
 21
335.049128
 31
0.0
  0
LINE
  5
443
330
436
100
AcDbEntity
  8
LC-001-100-D00-0
 62
     7
370
    50
100
AcDbLine
 10
395.359432
 20
335.049128
 30
0.0
 11
395.359432
 21
335.049128
 31
0.0
  0
LINE
  5
444
330
436
100
AcDbEntity
  8
LC-001-100-D00-0
 62
     7
370
    50
100
AcDbLine
 10
395.359432
 20
335.049128
 30
0.0
 11
395.549189
 21
335.062372
 31
0.0
  0
LINE
  5
445
330
436
100
AcDbEntity
  8
LC-001-100-D00-0
 62
     7
370
    50
100
AcDbLine
 10
395.549189
 20
335.062372
 30
0.0
 11
395.549189
 21
335.062372
 31
0.0
  0
LINE
  5
446
330
436
100
AcDbEntity
  8
LC-001-100-D00-0
 62
     7
370
    50
100
AcDbLine
 10
395.549189
 20
335.062372
 30
0.0
 11
395.627745
 21
335.067856
 31
0.0
  0
ENDBLK
  5
438
330
436
100
AcDbEntity
  8
0
100
AcDbBlockEnd
  0
BLOCK
  5
44C
330
44B
100
AcDbEntity
  8
0
100
AcDbBlockBegin
  2
POLY26
 70
     0
 71
     0
 10
0.0
 20
0.0
 30
0.0
  3
POLY26
  1

  4
POLY26
  0
LINE
  5
44E
330
44B
100
AcDbEntity
  8
LC-001-100-D00-0
 62
     7
370
    50
100
AcDbLine
 10
370.027666
 20
335.067856
 30
0.0
 11
370.027666
 21
335.067856
 31
0.0
  0
LINE
  5
44F
330
44B
100
AcDbEntity
  8
LC-001-100-D00-0
 62
     7
370
    50
100
AcDbLine
 10
370.027666
 20
335.067856
 30
0.0
 11
370.141338
 21
335.056572
 31
0.0
  0
LINE
  5
450
330
44B
100
AcDbEntity
  8
LC-001-100-D00-0
 62
     7
370
    50
100
AcDbLine
 10
370.141338
 20
335.056572
 30
0.0
 11
370.141338
 21
335.056572
 31
0.0
  0
LINE
  5
451
330
44B
100
AcDbEntity
  8
LC-001-100-D00-0
 62
     7
370
    50
100
AcDbLine
 10
370.141338
 20
335.056572
 30
0.0
 11
370.368717
 21
335.034002
 31
0.0
  0
LINE
  5
452
330
44B
100
AcDbEntity
  8
LC-001-100-D00-0
 62
     7
370
    50
100
AcDbLine
 10
370.368717
 20
335.034002
 30
0.0
 11
370.368717
 21
335.034002
 31
0.0
  0
LINE
  5
453
330
44B
100
AcDbEntity
  8
LC-001-100-D00-0
 62
     7
370
    50
100
AcDbLine
 10
370.368717
 20
335.034002
 30
0.0
 11
370.671454
 21
334.857473
 31
0.0
  0
LINE
  5
454
330
44B
100
AcDbEntity
  8
LC-001-100-D00-0
 62
     7
370
    50
100
AcDbLine
 10
370.671454
 20
334.857473
 30
0.0
 11
370.671454
 21
334.857473
 31
0.0
  0
LINE
  5
455
330
44B
100
AcDbEntity
  8
LC-001-100-D00-0
 62
     7
370
    50
100
AcDbLine
 10
370.671454
 20
334.857473
 30
0.0
 11
370.897408
 21
334.598416
 31
0.0
  0
LINE
  5
456
330
44B
100
AcDbEntity
  8
LC-001-100-D00-0
 62
     7
370
    50
100
AcDbLine
 10
370.897408
 20
334.598416
 30
0.0
 11
370.897408
 21
334.598416
 31
0.0
  0
LINE
  5
457
330
44B
100
AcDbEntity
  8
LC-001-100-D00-0
 62
     7
370
    50
100
AcDbLine
 10
370.897408
 20
334.598416
 30
0.0
 11
371.012214
 21
334.318145
 31
0.0
  0
LINE
  5
458
330
44B
100
AcDbEntity
  8
LC-001-100-D00-0
 62
     7
370
    50
100
AcDbLine
 10
371.012214
 20
334.318145
 30
0.0
 11
371.012214
 21
334.318145
 31
0.0
  0
LINE
  5
459
330
44B
100
AcDbEntity
  8
LC-001-100-D00-0
 62
     7
370
    50
100
AcDbLine
 10
371.012214
 20
334.318145
 30
0.0
 11
371.023411
 21
334.136746
 31
0.0
  0
LINE
  5
45A
330
44B
100
AcDbEntity
  8
LC-001-100-D00-0
 62
     7
370
    50
100
AcDbLine
 10
371.023411
 20
334.136746
 30
0.0
 11
371.023411
 21
334.136746
 31
0.0
  0
LINE
  5
45B
330
44B
100
AcDbEntity
  8
LC-001-100-D00-0
 62
     7
370
    50
100
AcDbLine
 10
371.023411
 20
334.136746
 30
0.0
 11
371.027664
 21
334.067853
 31
0.0
  0
ENDBLK
  5
44D
330
44B
100
AcDbEntity
  8
0
100
AcDbBlockEnd
  0
BLOCK
  5
45E
330
45D
100
AcDbEntity
  8
0
100
AcDbBlockBegin
  2
KLON21
 70
     0
 71
     0
 10
0.0
 20
0.0
 30
0.0
  3
KLON21
  1

  4
KLON21
  0
LINE
  5
460
330
45D
100
AcDbEntity
  8
LC-001-100-D00-0
 62
     7
370
    25
100
AcDbLine
 10
319.270459
 20
236.923977
 30
0.0
 11
324.270459
 21
241.923977
 31
0.0
  0
LINE
  5
461
330
45D
100
AcDbEntity
  8
LC-001-100-D00-0
 62
     7
370
    25
100
AcDbLine
 10
312.790203
 20
239.423977
 30
0.0
 11
315.290203
 21
241.923977
 31
0.0
  0
LINE
  5
462
330
45D
100
AcDbEntity
  8
LC-001-100-D00-0
 62
     7
370
    25
100
AcDbLine
 10
305.683305
 20
241.297335
 30
0.0
 11
307.972193
 21
243.586223
 31
0.0
  0
LINE
  5
463
330
45D
100
AcDbEntity
  8
LC-001-100-D00-0
 62
     7
370
    25
100
AcDbLine
 10
302.827648
 20
247.421935
 30
0.0
 11
304.829691
 21
249.423977
 31
0.0
  0
LINE
  5
464
330
45D
100
AcDbEntity
  8
LC-001-100-D00-0
 62
     7
370
    25
100
AcDbLine
 10
305.327648
 20
249.921934
 30
0.0
 11
307.827648
 21
252.421934
 31
0.0
  0
ENDBLK
  5
45F
330
45D
100
AcDbEntity
  8
0
100
AcDbBlockEnd
  0
BLOCK
  5
467
330
466
100
AcDbEntity
  8
0
100
AcDbBlockBegin
  2
KLON22
 70
     0
 71
     0
 10
0.0
 20
0.0
 30
0.0
  3
KLON22
  1

  4
KLON22
  0
LINE
  5
469
330
466
100
AcDbEntity
  8
LC-001-100-D00-0
 62
     7
370
    25
100
AcDbLine
 10
456.695383
 20
239.645059
 30
0.0
 11
462.606566
 21
245.556242
 31
0.0
  0
LINE
  5
46A
330
466
100
AcDbEntity
  8
LC-001-100-D00-0
 62
     7
370
    25
100
AcDbLine
 10
444.994045
 20
236.923977
 30
0.0
 11
449.994045
 21
241.923977
 31
0.0
  0
LINE
  5
46B
330
466
100
AcDbEntity
  8
LC-001-100-D00-0
 62
     7
370
    25
100
AcDbLine
 10
457.827648
 20
249.75758
 30
0.0
 11
460.327648
 21
252.25758
 31
0.0
  0
LINE
  5
46C
330
466
100
AcDbEntity
  8
LC-001-100-D00-0
 62
     7
370
    25
100
AcDbLine
 10
438.513789
 20
239.423977
 30
0.0
 11
441.013789
 21
241.923977
 31
0.0
  0
ENDBLK
  5
468
330
466
100
AcDbEntity
  8
0
100
AcDbBlockEnd
  0
BLOCK
  5
46F
330
46E
100
AcDbEntity
  8
0
100
AcDbBlockBegin
  2
KLON23
 70
     0
 71
     0
 10
0.0
 20
0.0
 30
0.0
  3
KLON23
  1

  4
KLON23
  0
LINE
  5
471
330
46E
100
AcDbEntity
  8
LC-001-100-D00-0
 62
     7
370
    25
100
AcDbLine
 10
556.484957
 20
338.423977
 30
0.0
 11
553.484957
 21
341.423977
 31
0.0
  0
LINE
  5
472
330
46E
100
AcDbEntity
  8
LC-001-100-D00-0
 62
     7
370
    25
100
AcDbLine
 10
547.504701
 20
338.423977
 30
0.0
 11
544.504701
 21
341.423977
 31
0.0
  0
LINE
  5
473
330
46E
100
AcDbEntity
  8
LC-001-100-D00-0
 62
     7
370
    25
100
AcDbLine
 10
538.524445
 20
338.423977
 30
0.0
 11
535.524445
 21
341.423977
 31
0.0
  0
LINE
  5
474
330
46E
100
AcDbEntity
  8
LC-001-100-D00-0
 62
     7
370
    25
100
AcDbLine
 10
529.544189
 20
338.423977
 30
0.0
 11
526.544189
 21
341.423977
 31
0.0
  0
LINE
  5
475
330
46E
100
AcDbEntity
  8
LC-001-100-D00-0
 62
     7
370
    25
100
AcDbLine
 10
520.563932
 20
338.423977
 30
0.0
 11
517.563932
 21
341.423977
 31
0.0
  0
LINE
  5
476
330
46E
100
AcDbEntity
  8
LC-001-100-D00-0
 62
     7
370
    25
100
AcDbLine
 10
511.583676
 20
338.423977
 30
0.0
 11
509.055214
 21
340.95244
 31
0.0
  0
LINE
  5
477
330
46E
100
AcDbEntity
  8
LC-001-100-D00-0
 62
     7
370
    25
100
AcDbLine
 10
504.741704
 20
336.285693
 30
0.0
 11
502.471305
 21
338.556093
 31
0.0
  0
LINE
  5
478
330
46E
100
AcDbEntity
  8
LC-001-100-D00-0
 62
     7
370
    25
100
AcDbLine
 10
498.157795
 20
333.889346
 30
0.0
 11
495.887395
 21
336.159746
 31
0.0
  0
LINE
  5
479
330
46E
100
AcDbEntity
  8
LC-001-100-D00-0
 62
     7
370
    25
100
AcDbLine
 10
491.573886
 20
331.492999
 30
0.0
 11
489.303486
 21
333.763399
 31
0.0
  0
LINE
  5
47A
330
46E
100
AcDbEntity
  8
LC-001-100-D00-0
 62
     7
370
    25
100
AcDbLine
 10
483.842652
 20
330.243977
 30
0.0
 11
481.342652
 21
332.743977
 31
0.0
  0
LINE
  5
47B
330
46E
100
AcDbEntity
  8
LC-001-100-D00-0
 62
     7
370
    25
100
AcDbLine
 10
482.802648
 20
322.303725
 30
0.0
 11
479.577648
 21
325.528725
 31
0.0
  0
LINE
  5
47C
330
46E
100
AcDbEntity
  8
LC-001-100-D00-0
 62
     7
370
    25
100
AcDbLine
 10
474.077648
 20
331.028725
 30
0.0
 11
472.362396
 21
332.743977
 31
0.0
  0
LINE
  5
47D
330
46E
100
AcDbEntity
  8
LC-001-100-D00-0
 62
     7
370
    25
100
AcDbLine
 10
481.88214
 20
314.243977
 30
0.0
 11
478.88214
 21
317.243977
 31
0.0
  0
LINE
  5
47E
330
46E
100
AcDbEntity
  8
LC-001-100-D00-0
 62
     7
370
    25
100
AcDbLine
 10
474.077648
 20
322.048469
 30
0.0
 11
465.327648
 21
330.798469
 31
0.0
  0
LINE
  5
47F
330
46E
100
AcDbEntity
  8
LC-001-100-D00-0
 62
     7
370
    25
100
AcDbLine
 10
476.901883
 20
310.243977
 30
0.0
 11
473.827648
 21
313.318213
 31
0.0
  0
LINE
  5
480
330
46E
100
AcDbEntity
  8
LC-001-100-D00-0
 62
     7
370
    25
100
AcDbLine
 10
472.901883
 20
314.243977
 30
0.0
 11
465.327648
 21
321.818213
 31
0.0
  0
LINE
  5
481
330
46E
100
AcDbEntity
  8
LC-001-100-D00-0
 62
     7
370
    25
100
AcDbLine
 10
466.301627
 20
311.863977
 30
0.0
 11
463.744638
 21
314.420967
 31
0.0
  0
LINE
  5
482
330
46E
100
AcDbEntity
  8
LC-001-100-D00-0
 62
     7
370
    25
100
AcDbLine
 10
462.827648
 20
306.3577
 30
0.0
 11
460.327648
 21
308.8577
 31
0.0
  0
LINE
  5
483
330
46E
100
AcDbEntity
  8
LC-001-100-D00-0
 62
     7
370
    25
100
AcDbLine
 10
462.827648
 20
297.377444
 30
0.0
 11
459.610329
 21
300.594763
 31
0.0
  0
LINE
  5
484
330
46E
100
AcDbEntity
  8
LC-001-100-D00-0
 62
     7
370
    25
100
AcDbLine
 10
462.827648
 20
288.397188
 30
0.0
 11
460.327648
 21
290.897188
 31
0.0
  0
LINE
  5
485
330
46E
100
AcDbEntity
  8
LC-001-100-D00-0
 62
     7
370
    25
100
AcDbLine
 10
455.935542
 20
295.289294
 30
0.0
 11
453.327648
 21
297.897188
 31
0.0
  0
LINE
  5
486
330
46E
100
AcDbEntity
  8
LC-001-100-D00-0
 62
     7
370
    25
100
AcDbLine
 10
462.827648
 20
279.416932
 30
0.0
 11
460.327648
 21
281.916932
 31
0.0
  0
LINE
  5
487
330
46E
100
AcDbEntity
  8
LC-001-100-D00-0
 62
     7
370
    25
100
AcDbLine
 10
455.877648
 20
286.366932
 30
0.0
 11
453.327648
 21
288.916932
 31
0.0
  0
LINE
  5
488
330
46E
100
AcDbEntity
  8
LC-001-100-D00-0
 62
     7
370
    25
100
AcDbLine
 10
462.827648
 20
270.436676
 30
0.0
 11
460.327648
 21
272.936676
 31
0.0
  0
LINE
  5
489
330
46E
100
AcDbEntity
  8
LC-001-100-D00-0
 62
     7
370
    25
100
AcDbLine
 10
451.261603
 20
282.002721
 30
0.0
 11
447.838273
 21
285.426051
 31
0.0
  0
LINE
  5
48A
330
46E
100
AcDbEntity
  8
LC-001-100-D00-0
 62
     7
370
    25
100
AcDbLine
 10
462.827648
 20
261.45642
 30
0.0
 11
460.327648
 21
263.95642
 31
0.0
  0
LINE
  5
48B
330
46E
100
AcDbEntity
  8
LC-001-100-D00-0
 62
     7
370
    25
100
AcDbLine
 10
450.577648
 20
273.70642
 30
0.0
 11
447.327648
 21
276.95642
 31
0.0
  0
LINE
  5
48C
330
46E
100
AcDbEntity
  8
LC-001-100-D00-0
 62
     7
370
    25
100
AcDbLine
 10
462.827648
 20
252.476164
 30
0.0
 11
460.327648
 21
254.976164
 31
0.0
  0
LINE
  5
48D
330
46E
100
AcDbEntity
  8
LC-001-100-D00-0
 62
     7
370
    25
100
AcDbLine
 10
450.577648
 20
264.726164
 30
0.0
 11
447.327648
 21
267.976164
 31
0.0
  0
LINE
  5
48E
330
46E
100
AcDbEntity
  8
LC-001-100-D00-0
 62
     7
370
    25
100
AcDbLine
 10
450.577648
 20
255.745908
 30
0.0
 11
447.327648
 21
258.995908
 31
0.0
  0
LINE
  5
48F
330
46E
100
AcDbEntity
  8
LC-001-100-D00-0
 62
     7
370
    25
100
AcDbLine
 10
447.919322
 20
249.423977
 30
0.0
 11
442.925082
 21
254.418217
 31
0.0
  0
LINE
  5
490
330
46E
100
AcDbEntity
  8
LC-001-100-D00-0
 62
     7
370
    25
100
AcDbLine
 10
438.939066
 20
249.423977
 30
0.0
 11
434.926882
 21
253.436161
 31
0.0
  0
LINE
  5
491
330
46E
100
AcDbEntity
  8
LC-001-100-D00-0
 62
     7
370
    25
100
AcDbLine
 10
437.827648
 20
241.555139
 30
0.0
 11
434.827648
 21
244.555139
 31
0.0
  0
LINE
  5
492
330
46E
100
AcDbEntity
  8
LC-001-100-D00-0
 62
     7
370
    25
100
AcDbLine
 10
437.827648
 20
232.574883
 30
0.0
 11
434.827648
 21
235.574883
 31
0.0
  0
LINE
  5
493
330
46E
100
AcDbEntity
  8
LC-001-100-D00-0
 62
     7
370
    25
100
AcDbLine
 10
437.827648
 20
223.594627
 30
0.0
 11
434.827648
 21
226.594627
 31
0.0
  0
LINE
  5
494
330
46E
100
AcDbEntity
  8
LC-001-100-D00-0
 62
     7
370
    25
100
AcDbLine
 10
437.827648
 20
214.614371
 30
0.0
 11
434.827648
 21
217.614371
 31
0.0
  0
LINE
  5
495
330
46E
100
AcDbEntity
  8
LC-001-100-D00-0
 62
     7
370
    25
100
AcDbLine
 10
437.827648
 20
205.634115
 30
0.0
 11
434.827648
 21
208.634115
 31
0.0
  0
LINE
  5
496
330
46E
100
AcDbEntity
  8
LC-001-100-D00-0
 62
     7
370
    25
100
AcDbLine
 10
437.827648
 20
196.653859
 30
0.0
 11
434.827648
 21
199.653859
 31
0.0
  0
LINE
  5
497
330
46E
100
AcDbEntity
  8
LC-001-100-D00-0
 62
     7
370
    25
100
AcDbLine
 10
437.827648
 20
187.673602
 30
0.0
 11
434.827648
 21
190.673602
 31
0.0
  0
LINE
  5
498
330
46E
100
AcDbEntity
  8
LC-001-100-D00-0
 62
     7
370
    25
100
AcDbLine
 10
437.827648
 20
178.693346
 30
0.0
 11
434.827648
 21
181.693346
 31
0.0
  0
ENDBLK
  5
470
330
46E
100
AcDbEntity
  8
0
100
AcDbBlockEnd
  0
BLOCK
  5
49B
330
49A
100
AcDbEntity
  8
0
100
AcDbBlockBegin
  2
KLON24
 70
     0
 71
     0
 10
0.0
 20
0.0
 30
0.0
  3
KLON24
  1

  4
KLON24
  0
LINE
  5
49D
330
49A
100
AcDbEntity
  8
LC-001-100-D00-0
 62
     7
370
    25
100
AcDbLine
 10
300.327648
 20
325.173602
 30
0.0
 11
292.757273
 21
332.743977
 31
0.0
  0
LINE
  5
49E
330
49A
100
AcDbEntity
  8
LC-001-100-D00-0
 62
     7
370
    25
100
AcDbLine
 10
300.327648
 20
316.193346
 30
0.0
 11
291.577648
 21
324.943346
 31
0.0
  0
LINE
  5
49F
330
49A
100
AcDbEntity
  8
LC-001-100-D00-0
 62
     7
370
    25
100
AcDbLine
 10
286.077648
 20
330.443346
 30
0.0
 11
283.777017
 21
332.743977
 31
0.0
  0
LINE
  5
4A0
330
49A
100
AcDbEntity
  8
LC-001-100-D00-0
 62
     7
370
    25
100
AcDbLine
 10
312.327648
 20
295.21309
 30
0.0
 11
306.986761
 21
300.553977
 31
0.0
  0
LINE
  5
4A1
330
49A
100
AcDbEntity
  8
LC-001-100-D00-0
 62
     7
370
    25
100
AcDbLine
 10
305.327648
 20
302.21309
 30
0.0
 11
302.827648
 21
304.71309
 31
0.0
  0
LINE
  5
4A2
330
49A
100
AcDbEntity
  8
LC-001-100-D00-0
 62
     7
370
    25
100
AcDbLine
 10
293.296761
 20
314.243977
 30
0.0
 11
290.296761
 21
317.243977
 31
0.0
  0
LINE
  5
4A3
330
49A
100
AcDbEntity
  8
LC-001-100-D00-0
 62
     7
370
    25
100
AcDbLine
 10
286.077648
 20
321.46309
 30
0.0
 11
282.852648
 21
324.68809
 31
0.0
  0
LINE
  5
4A4
330
49A
100
AcDbEntity
  8
LC-001-100-D00-0
 62
     7
370
    25
100
AcDbLine
 10
277.172977
 20
330.367761
 30
0.0
 11
272.30409
 21
335.236648
 31
0.0
  0
LINE
  5
4A5
330
49A
100
AcDbEntity
  8
LC-001-100-D00-0
 62
     7
370
    25
100
AcDbLine
 10
318.327648
 20
280.232834
 30
0.0
 11
313.006505
 21
285.553977
 31
0.0
  0
LINE
  5
4A6
330
49A
100
AcDbEntity
  8
LC-001-100-D00-0
 62
     7
370
    25
100
AcDbLine
 10
312.327648
 20
286.232834
 30
0.0
 11
309.777648
 21
288.782834
 31
0.0
  0
LINE
  5
4A7
330
49A
100
AcDbEntity
  8
LC-001-100-D00-0
 62
     7
370
    25
100
AcDbLine
 10
305.327648
 20
293.232834
 30
0.0
 11
302.827648
 21
295.732834
 31
0.0
  0
LINE
  5
4A8
330
49A
100
AcDbEntity
  8
LC-001-100-D00-0
 62
     7
370
    25
100
AcDbLine
 10
288.316505
 20
310.243977
 30
0.0
 11
285.827648
 21
312.732834
 31
0.0
  0
LINE
  5
4A9
330
49A
100
AcDbEntity
  8
LC-001-100-D00-0
 62
     7
370
    25
100
AcDbLine
 10
284.316505
 20
314.243977
 30
0.0
 11
282.852648
 21
315.707834
 31
0.0
  0
LINE
  5
4AA
330
49A
100
AcDbEntity
  8
LC-001-100-D00-0
 62
     7
370
    25
100
AcDbLine
 10
263.053738
 20
335.506744
 30
0.0
 11
258.184851
 21
340.375631
 31
0.0
  0
LINE
  5
4AB
330
49A
100
AcDbEntity
  8
LC-001-100-D00-0
 62
     7
370
    25
100
AcDbLine
 10
318.327648
 20
271.252578
 30
0.0
 11
315.077648
 21
274.502578
 31
0.0
  0
LINE
  5
4AC
330
49A
100
AcDbEntity
  8
LC-001-100-D00-0
 62
     7
370
    25
100
AcDbLine
 10
305.327648
 20
284.252578
 30
0.0
 11
302.827648
 21
286.752578
 31
0.0
  0
LINE
  5
4AD
330
49A
100
AcDbEntity
  8
LC-001-100-D00-0
 62
     7
370
    25
100
AcDbLine
 10
251.156249
 20
338.423977
 30
0.0
 11
248.156249
 21
341.423977
 31
0.0
  0
LINE
  5
4AE
330
49A
100
AcDbEntity
  8
LC-001-100-D00-0
 62
     7
370
    25
100
AcDbLine
 10
330.827648
 20
249.772322
 30
0.0
 11
326.664868
 21
253.935102
 31
0.0
  0
LINE
  5
4AF
330
49A
100
AcDbEntity
  8
LC-001-100-D00-0
 62
     7
370
    25
100
AcDbLine
 10
318.327648
 20
262.272322
 30
0.0
 11
315.077648
 21
265.522322
 31
0.0
  0
LINE
  5
4B0
330
49A
100
AcDbEntity
  8
LC-001-100-D00-0
 62
     7
370
    25
100
AcDbLine
 10
305.327648
 20
275.272322
 30
0.0
 11
302.827648
 21
277.772322
 31
0.0
  0
LINE
  5
4B1
330
49A
100
AcDbEntity
  8
LC-001-100-D00-0
 62
     7
370
    25
100
AcDbLine
 10
242.175993
 20
338.423977
 30
0.0
 11
239.175993
 21
341.423977
 31
0.0
  0
LINE
  5
4B2
330
49A
100
AcDbEntity
  8
LC-001-100-D00-0
 62
     7
370
    25
100
AcDbLine
 10
330.827648
 20
240.792066
 30
0.0
 11
327.827648
 21
243.792066
 31
0.0
  0
LINE
  5
4B3
330
49A
100
AcDbEntity
  8
LC-001-100-D00-0
 62
     7
370
    25
100
AcDbLine
 10
322.195737
 20
249.423977
 30
0.0
 11
315.077648
 21
256.542066
 31
0.0
  0
LINE
  5
4B4
330
49A
100
AcDbEntity
  8
LC-001-100-D00-0
 62
     7
370
    25
100
AcDbLine
 10
305.327648
 20
266.292066
 30
0.0
 11
302.827648
 21
268.792066
 31
0.0
  0
LINE
  5
4B5
330
49A
100
AcDbEntity
  8
LC-001-100-D00-0
 62
     7
370
    25
100
AcDbLine
 10
233.195737
 20
338.423977
 30
0.0
 11
230.195737
 21
341.423977
 31
0.0
  0
LINE
  5
4B6
330
49A
100
AcDbEntity
  8
LC-001-100-D00-0
 62
     7
370
    25
100
AcDbLine
 10
330.827648
 20
231.81181
 30
0.0
 11
327.827648
 21
234.81181
 31
0.0
  0
LINE
  5
4B7
330
49A
100
AcDbEntity
  8
LC-001-100-D00-0
 62
     7
370
    25
100
AcDbLine
 10
305.327648
 20
257.31181
 30
0.0
 11
302.827648
 21
259.81181
 31
0.0
  0
LINE
  5
4B8
330
49A
100
AcDbEntity
  8
LC-001-100-D00-0
 62
     7
370
    25
100
AcDbLine
 10
224.21548
 20
338.423977
 30
0.0
 11
221.21548
 21
341.423977
 31
0.0
  0
LINE
  5
4B9
330
49A
100
AcDbEntity
  8
LC-001-100-D00-0
 62
     7
370
    25
100
AcDbLine
 10
330.827648
 20
222.831553
 30
0.0
 11
327.827648
 21
225.831553
 31
0.0
  0
LINE
  5
4BA
330
49A
100
AcDbEntity
  8
LC-001-100-D00-0
 62
     7
370
    25
100
AcDbLine
 10
304.235224
 20
249.423977
 30
0.0
 11
302.827648
 21
250.831553
 31
0.0
  0
LINE
  5
4BB
330
49A
100
AcDbEntity
  8
LC-001-100-D00-0
 62
     7
370
    25
100
AcDbLine
 10
215.235224
 20
338.423977
 30
0.0
 11
212.235224
 21
341.423977
 31
0.0
  0
LINE
  5
4BC
330
49A
100
AcDbEntity
  8
LC-001-100-D00-0
 62
     7
370
    25
100
AcDbLine
 10
330.827648
 20
213.851297
 30
0.0
 11
327.827648
 21
216.851297
 31
0.0
  0
LINE
  5
4BD
330
49A
100
AcDbEntity
  8
LC-001-100-D00-0
 62
     7
370
    25
100
AcDbLine
 10
206.254968
 20
338.423977
 30
0.0
 11
205.827648
 21
338.851297
 31
0.0
  0
LINE
  5
4BE
330
49A
100
AcDbEntity
  8
LC-001-100-D00-0
 62
     7
370
    25
100
AcDbLine
 10
330.827648
 20
204.871041
 30
0.0
 11
327.827648
 21
207.871041
 31
0.0
  0
LINE
  5
4BF
330
49A
100
AcDbEntity
  8
LC-001-100-D00-0
 62
     7
370
    25
100
AcDbLine
 10
330.827648
 20
195.890785
 30
0.0
 11
327.827648
 21
198.890785
 31
0.0
  0
LINE
  5
4C0
330
49A
100
AcDbEntity
  8
LC-001-100-D00-0
 62
     7
370
    25
100
AcDbLine
 10
330.827648
 20
186.910529
 30
0.0
 11
327.827648
 21
189.910529
 31
0.0
  0
LINE
  5
4C1
330
49A
100
AcDbEntity
  8
LC-001-100-D00-0
 62
     7
370
    25
100
AcDbLine
 10
330.827648
 20
177.930273
 30
0.0
 11
327.827648
 21
180.930273
 31
0.0
  0
ENDBLK
  5
49C
330
49A
100
AcDbEntity
  8
0
100
AcDbBlockEnd
  0
BLOCK
  5
4C4
330
4C3
100
AcDbEntity
  8
0
100
AcDbBlockBegin
  2
KLON25
 70
     0
 71
     0
 10
0.0
 20
0.0
 30
0.0
  3
KLON25
  1

  4
KLON25
  0
LINE
  5
4C6
330
4C3
100
AcDbEntity
  8
LC-001-100-D00-0
 62
     7
370
    25
100
AcDbLine
 10
456.077648
 20
301.889117
 30
0.0
 11
459.242508
 21
305.053977
 31
0.0
  0
LINE
  5
4C7
330
4C3
100
AcDbEntity
  8
LC-001-100-D00-0
 62
     7
370
    25
100
AcDbLine
 10
448.194133
 20
302.985858
 30
0.0
 11
451.262252
 21
306.053977
 31
0.0
  0
ENDBLK
  5
4C5
330
4C3
100
AcDbEntity
  8
0
100
AcDbBlockEnd
  0
BLOCK
  5
4CA
330
4C9
100
AcDbEntity
  8
0
100
AcDbBlockBegin
  2
KLON26
 70
     0
 71
     0
 10
0.0
 20
0.0
 30
0.0
  3
KLON26
  1

  4
KLON26
  0
LINE
  5
4CC
330
4C9
100
AcDbEntity
  8
LC-001-100-D00-0
 62
     7
370
    25
100
AcDbLine
 10
317.538666
 20
298.053977
 30
0.0
 11
318.017761
 21
298.533072
 31
0.0
  0
LINE
  5
4CD
330
4C9
100
AcDbEntity
  8
LC-001-100-D00-0
 62
     7
370
    25
100
AcDbLine
 10
313.05841
 20
302.553977
 30
0.0
 11
316.55841
 21
306.053977
 31
0.0
  0
LINE
  5
4CE
330
4C9
100
AcDbEntity
  8
LC-001-100-D00-0
 62
     7
370
    25
100
AcDbLine
 10
305.577648
 20
304.053471
 30
0.0
 11
307.578154
 21
306.053977
 31
0.0
  0
ENDBLK
  5
4CB
330
4C9
100
AcDbEntity
  8
0
100
AcDbBlockEnd
  0
BLOCK
  5
4D1
330
4D0
100
AcDbEntity
  8
0
100
AcDbBlockBegin
  2
KLON27
 70
     0
 71
     0
 10
0.0
 20
0.0
 30
0.0
  3
KLON27
  1

  4
KLON27
  0
LINE
  5
4D3
330
4D0
100
AcDbEntity
  8
LC-001-100-D00-0
 62
     7
370
    25
100
AcDbLine
 10
505.504117
 20
344.503536
 30
0.0
 11
505.085663
 21
344.92199
 31
0.0
  0
LINE
  5
4D4
330
4D0
100
AcDbEntity
  8
LC-001-100-D00-0
 62
     7
370
    25
100
AcDbLine
 10
497.41798
 20
343.609417
 30
0.0
 11
496.963042
 21
344.064355
 31
0.0
  0
LINE
  5
4D5
330
4D0
100
AcDbEntity
  8
LC-001-100-D00-0
 62
     7
370
    25
100
AcDbLine
 10
489.291818
 20
342.755323
 30
0.0
 11
488.83688
 21
343.210261
 31
0.0
  0
LINE
  5
4D6
330
4D0
100
AcDbEntity
  8
LC-001-100-D00-0
 62
     7
370
    25
100
AcDbLine
 10
480.799032
 20
342.267853
 30
0.0
 11
480.299032
 21
342.767853
 31
0.0
  0
LINE
  5
4D7
330
4D0
100
AcDbEntity
  8
LC-001-100-D00-0
 62
     7
370
    25
100
AcDbLine
 10
471.818776
 20
342.267853
 30
0.0
 11
471.318776
 21
342.767853
 31
0.0
  0
LINE
  5
4D8
330
4D0
100
AcDbEntity
  8
LC-001-100-D00-0
 62
     7
370
    25
100
AcDbLine
 10
463.445136
 20
341.661237
 30
0.0
 11
463.090777
 21
342.015595
 31
0.0
  0
LINE
  5
4D9
330
4D0
100
AcDbEntity
  8
LC-001-100-D00-0
 62
     7
370
    25
100
AcDbLine
 10
462.577648
 20
333.548469
 30
0.0
 11
462.077648
 21
334.048469
 31
0.0
  0
LINE
  5
4DA
330
4D0
100
AcDbEntity
  8
LC-001-100-D00-0
 62
     7
370
    25
100
AcDbLine
 10
462.577648
 20
324.568213
 30
0.0
 11
462.077648
 21
325.068213
 31
0.0
  0
LINE
  5
4DB
330
4D0
100
AcDbEntity
  8
LC-001-100-D00-0
 62
     7
370
    25
100
AcDbLine
 10
458.558582
 20
319.607023
 30
0.0
 11
458.20403
 21
319.961575
 31
0.0
  0
ENDBLK
  5
4D2
330
4D0
100
AcDbEntity
  8
0
100
AcDbBlockEnd
  0
BLOCK
  5
4DE
330
4DD
100
AcDbEntity
  8
0
100
AcDbBlockBegin
  2
KLON28
 70
     0
 71
     0
 10
0.0
 20
0.0
 30
0.0
  3
KLON28
  1

  4
KLON28
  0
LINE
  5
4E0
330
4DD
100
AcDbEntity
  8
LC-001-100-D00-0
 62
     7
370
    25
100
AcDbLine
 10
303.575302
 20
339.88646
 30
0.0
 11
302.970781
 21
340.490982
 31
0.0
  0
LINE
  5
4E1
330
4DD
100
AcDbEntity
  8
LC-001-100-D00-0
 62
     7
370
    25
100
AcDbLine
 10
301.300777
 20
342.160986
 30
0.0
 11
300.696255
 21
342.765508
 31
0.0
  0
LINE
  5
4E2
330
4DD
100
AcDbEntity
  8
LC-001-100-D00-0
 62
     7
370
    25
100
AcDbLine
 10
303.577648
 20
330.903859
 30
0.0
 11
303.077648
 21
331.403859
 31
0.0
  0
LINE
  5
4E3
330
4DD
100
AcDbEntity
  8
LC-001-100-D00-0
 62
     7
370
    25
100
AcDbLine
 10
307.827648
 20
317.673602
 30
0.0
 11
307.327648
 21
318.173602
 31
0.0
  0
LINE
  5
4E4
330
4DD
100
AcDbEntity
  8
LC-001-100-D00-0
 62
     7
370
    25
100
AcDbLine
 10
305.532998
 20
319.968252
 30
0.0
 11
304.923339
 21
320.577911
 31
0.0
  0
LINE
  5
4E5
330
4DD
100
AcDbEntity
  8
LC-001-100-D00-0
 62
     7
370
    25
100
AcDbLine
 10
303.687706
 20
321.813544
 30
0.0
 11
303.078047
 21
322.423204
 31
0.0
  0
ENDBLK
  5
4DF
330
4DD
100
AcDbEntity
  8
0
100
AcDbBlockEnd
  0
BLOCK
  5
4E8
330
4E7
100
AcDbEntity
  8
0
100
AcDbBlockBegin
  2
KLON29
 70
     0
 71
     0
 10
0.0
 20
0.0
 30
0.0
  3
KLON29
  1

  4
KLON29
  0
LINE
  5
4EA
330
4E7
100
AcDbEntity
  8
LC-001-100-D00-0
 62
     7
370
    25
100
AcDbLine
 10
282.684076
 20
342.817174
 30
0.0
 11
282.330523
 21
343.170728
 31
0.0
  0
LINE
  5
4EB
330
4E7
100
AcDbEntity
  8
LC-001-100-D00-0
 62
     7
370
    25
100
AcDbLine
 10
273.460562
 20
343.060432
 30
0.0
 11
272.898761
 21
343.622234
 31
0.0
  0
LINE
  5
4EC
330
4E7
100
AcDbEntity
  8
LC-001-100-D00-0
 62
     7
370
    25
100
AcDbLine
 10
263.425588
 20
344.11515
 30
0.0
 11
262.863786
 21
344.676952
 31
0.0
  0
ENDBLK
  5
4E9
330
4E7
100
AcDbEntity
  8
0
100
AcDbBlockEnd
  0
BLOCK
  5
4FD
330
4FC
100
AcDbEntity
  8
0
100
AcDbBlockBegin
  2
*X156
 70
     1
 71
     0
 10
0.0
 20
0.0
 30
0.0
  3
*X156
  1

  4
*X1
  0
LINE
  5
500
330
4FC
100
AcDbEntity
  8
LC-003-005-----0
 62
     7
370
    25
100
AcDbLine
 10
142.302706
 20
341.423976
 30
0.0
 11
142.82764
 21
341.94891
 31
0.0
  0
LINE
  5
501
330
4FC
100
AcDbEntity
  8
LC-003-005-----0
 62
     7
370
    25
100
AcDbLine
 10
141.737021
 20
341.423976
 30
0.0
 11
142.82764
 21
342.514595
 31
0.0
  0
LINE
  5
502
330
4FC
100
AcDbEntity
  8
LC-003-005-----0
 62
     7
370
    25
100
AcDbLine
 10
141.171335
 20
341.423976
 30
0.0
 11
142.82764
 21
343.080281
 31
0.0
  0
LINE
  5
503
330
4FC
100
AcDbEntity
  8
LC-003-005-----0
 62
     7
370
    25
100
AcDbLine
 10
140.60565
 20
341.423976
 30
0.0
 11
142.82764
 21
343.645966
 31
0.0
  0
LINE
  5
504
330
4FC
100
AcDbEntity
  8
LC-003-005-----0
 62
     7
370
    25
100
AcDbLine
 10
140.039964
 20
341.423976
 30
0.0
 11
142.82764
 21
344.211651
 31
0.0
  0
LINE
  5
505
330
4FC
100
AcDbEntity
  8
LC-003-005-----0
 62
     7
370
    25
100
AcDbLine
 10
139.474279
 20
341.423976
 30
0.0
 11
142.82764
 21
344.777337
 31
0.0
  0
LINE
  5
506
330
4FC
100
AcDbEntity
  8
LC-003-005-----0
 62
     7
370
    25
100
AcDbLine
 10
138.908593
 20
341.423976
 30
0.0
 11
142.82764
 21
345.343022
 31
0.0
  0
LINE
  5
507
330
4FC
100
AcDbEntity
  8
LC-003-005-----0
 62
     7
370
    25
100
AcDbLine
 10
138.342908
 20
341.423976
 30
0.0
 11
142.82764
 21
345.908708
 31
0.0
  0
LINE
  5
508
330
4FC
100
AcDbEntity
  8
LC-003-005-----0
 62
     7
370
    25
100
AcDbLine
 10
137.777223
 20
341.423976
 30
0.0
 11
142.477223
 21
346.123976
 31
0.0
  0
LINE
  5
509
330
4FC
100
AcDbEntity
  8
LC-003-005-----0
 62
     7
370
    25
100
AcDbLine
 10
137.211537
 20
341.423976
 30
0.0
 11
141.911537
 21
346.123976
 31
0.0
  0
LINE
  5
50A
330
4FC
100
AcDbEntity
  8
LC-003-005-----0
 62
     7
370
    25
100
AcDbLine
 10
136.645852
 20
341.423976
 30
0.0
 11
141.345852
 21
346.123976
 31
0.0
  0
LINE
  5
50B
330
4FC
100
AcDbEntity
  8
LC-003-005-----0
 62
     7
370
    25
100
AcDbLine
 10
136.080166
 20
341.423976
 30
0.0
 11
140.780166
 21
346.123976
 31
0.0
  0
LINE
  5
50C
330
4FC
100
AcDbEntity
  8
LC-003-005-----0
 62
     7
370
    25
100
AcDbLine
 10
135.514481
 20
341.423976
 30
0.0
 11
140.214481
 21
346.123976
 31
0.0
  0
LINE
  5
50D
330
4FC
100
AcDbEntity
  8
LC-003-005-----0
 62
     7
370
    25
100
AcDbLine
 10
134.948796
 20
341.423976
 30
0.0
 11
139.648796
 21
346.123976
 31
0.0
  0
LINE
  5
50E
330
4FC
100
AcDbEntity
  8
LC-003-005-----0
 62
     7
370
    25
100
AcDbLine
 10
134.38311
 20
341.423976
 30
0.0
 11
139.08311
 21
346.123976
 31
0.0
  0
LINE
  5
50F
330
4FC
100
AcDbEntity
  8
LC-003-005-----0
 62
     7
370
    25
100
AcDbLine
 10
133.817425
 20
341.423976
 30
0.0
 11
138.517425
 21
346.123976
 31
0.0
  0
LINE
  5
510
330
4FC
100
AcDbEntity
  8
LC-003-005-----0
 62
     7
370
    25
100
AcDbLine
 10
133.251739
 20
341.423976
 30
0.0
 11
137.951739
 21
346.123976
 31
0.0
  0
LINE
  5
511
330
4FC
100
AcDbEntity
  8
LC-003-005-----0
 62
     7
370
    25
100
AcDbLine
 10
132.82764
 20
341.565562
 30
0.0
 11
137.386054
 21
346.123976
 31
0.0
  0
LINE
  5
512
330
4FC
100
AcDbEntity
  8
LC-003-005-----0
 62
     7
370
    25
100
AcDbLine
 10
132.82764
 20
342.131247
 30
0.0
 11
136.820368
 21
346.123976
 31
0.0
  0
LINE
  5
513
330
4FC
100
AcDbEntity
  8
LC-003-005-----0
 62
     7
370
    25
100
AcDbLine
 10
132.82764
 20
342.696933
 30
0.0
 11
136.254683
 21
346.123976
 31
0.0
  0
LINE
  5
514
330
4FC
100
AcDbEntity
  8
LC-003-005-----0
 62
     7
370
    25
100
AcDbLine
 10
132.82764
 20
343.262618
 30
0.0
 11
135.688998
 21
346.123976
 31
0.0
  0
LINE
  5
515
330
4FC
100
AcDbEntity
  8
LC-003-005-----0
 62
     7
370
    25
100
AcDbLine
 10
132.82764
 20
343.828304
 30
0.0
 11
135.123312
 21
346.123976
 31
0.0
  0
LINE
  5
516
330
4FC
100
AcDbEntity
  8
LC-003-005-----0
 62
     7
370
    25
100
AcDbLine
 10
132.82764
 20
344.393989
 30
0.0
 11
134.557627
 21
346.123976
 31
0.0
  0
LINE
  5
517
330
4FC
100
AcDbEntity
  8
LC-003-005-----0
 62
     7
370
    25
100
AcDbLine
 10
132.82764
 20
344.959675
 30
0.0
 11
133.991941
 21
346.123976
 31
0.0
  0
LINE
  5
518
330
4FC
100
AcDbEntity
  8
LC-003-005-----0
 62
     7
370
    25
100
AcDbLine
 10
132.82764
 20
345.52536
 30
0.0
 11
133.426256
 21
346.123976
 31
0.0
  0
LINE
  5
519
330
4FC
100
AcDbEntity
  8
LC-003-005-----0
 62
     7
370
    25
100
AcDbLine
 10
132.82764
 20
346.091045
 30
0.0
 11
132.86057
 21
346.123976
 31
0.0
  0
ENDBLK
  5
4FE
330
4FC
100
AcDbEntity
  8
0
100
AcDbBlockEnd
  0
BLOCK
  5
51C
330
51B
100
AcDbEntity
  8
0
100
AcDbBlockBegin
  2
*X257
 70
     1
 71
     0
 10
0.0
 20
0.0
 30
0.0
  3
*X257
  1

  4
*X2
  0
LINE
  5
51E
330
51B
100
AcDbEntity
  8
LC-003-005-----0
 62
     7
370
    25
100
AcDbLine
 10
162.667381
 20
341.423976
 30
0.0
 11
162.82764
 21
341.584234
 31
0.0
  0
LINE
  5
51F
330
51B
100
AcDbEntity
  8
LC-003-005-----0
 62
     7
370
    25
100
AcDbLine
 10
162.101696
 20
341.423976
 30
0.0
 11
162.82764
 21
342.14992
 31
0.0
  0
LINE
  5
520
330
51B
100
AcDbEntity
  8
LC-003-005-----0
 62
     7
370
    25
100
AcDbLine
 10
161.53601
 20
341.423976
 30
0.0
 11
162.82764
 21
342.715605
 31
0.0
  0
LINE
  5
521
330
51B
100
AcDbEntity
  8
LC-003-005-----0
 62
     7
370
    25
100
AcDbLine
 10
160.970325
 20
341.423976
 30
0.0
 11
162.82764
 21
343.281291
 31
0.0
  0
LINE
  5
522
330
51B
100
AcDbEntity
  8
LC-003-005-----0
 62
     7
370
    25
100
AcDbLine
 10
160.40464
 20
341.423976
 30
0.0
 11
162.82764
 21
343.846976
 31
0.0
  0
LINE
  5
523
330
51B
100
AcDbEntity
  8
LC-003-005-----0
 62
     7
370
    25
100
AcDbLine
 10
159.838954
 20
341.423976
 30
0.0
 11
162.82764
 21
344.412662
 31
0.0
  0
LINE
  5
524
330
51B
100
AcDbEntity
  8
LC-003-005-----0
 62
     7
370
    25
100
AcDbLine
 10
159.273269
 20
341.423976
 30
0.0
 11
162.82764
 21
344.978347
 31
0.0
  0
LINE
  5
525
330
51B
100
AcDbEntity
  8
LC-003-005-----0
 62
     7
370
    25
100
AcDbLine
 10
158.707583
 20
341.423976
 30
0.0
 11
162.82764
 21
345.544032
 31
0.0
  0
LINE
  5
526
330
51B
100
AcDbEntity
  8
LC-003-005-----0
 62
     7
370
    25
100
AcDbLine
 10
158.141898
 20
341.423976
 30
0.0
 11
162.82764
 21
346.109718
 31
0.0
  0
LINE
  5
527
330
51B
100
AcDbEntity
  8
LC-003-005-----0
 62
     7
370
    25
100
AcDbLine
 10
157.576213
 20
341.423976
 30
0.0
 11
162.276213
 21
346.123976
 31
0.0
  0
LINE
  5
528
330
51B
100
AcDbEntity
  8
LC-003-005-----0
 62
     7
370
    25
100
AcDbLine
 10
157.010527
 20
341.423976
 30
0.0
 11
161.710527
 21
346.123976
 31
0.0
  0
LINE
  5
529
330
51B
100
AcDbEntity
  8
LC-003-005-----0
 62
     7
370
    25
100
AcDbLine
 10
156.444842
 20
341.423976
 30
0.0
 11
161.144842
 21
346.123976
 31
0.0
  0
LINE
  5
52A
330
51B
100
AcDbEntity
  8
LC-003-005-----0
 62
     7
370
    25
100
AcDbLine
 10
155.879156
 20
341.423976
 30
0.0
 11
160.579156
 21
346.123976
 31
0.0
  0
LINE
  5
52B
330
51B
100
AcDbEntity
  8
LC-003-005-----0
 62
     7
370
    25
100
AcDbLine
 10
155.313471
 20
341.423976
 30
0.0
 11
160.013471
 21
346.123976
 31
0.0
  0
LINE
  5
52C
330
51B
100
AcDbEntity
  8
LC-003-005-----0
 62
     7
370
    25
100
AcDbLine
 10
154.747785
 20
341.423976
 30
0.0
 11
159.447785
 21
346.123976
 31
0.0
  0
LINE
  5
52D
330
51B
100
AcDbEntity
  8
LC-003-005-----0
 62
     7
370
    25
100
AcDbLine
 10
154.1821
 20
341.423976
 30
0.0
 11
158.8821
 21
346.123976
 31
0.0
  0
LINE
  5
52E
330
51B
100
AcDbEntity
  8
LC-003-005-----0
 62
     7
370
    25
100
AcDbLine
 10
153.616415
 20
341.423976
 30
0.0
 11
158.316415
 21
346.123976
 31
0.0
  0
LINE
  5
52F
330
51B
100
AcDbEntity
  8
LC-003-005-----0
 62
     7
370
    25
100
AcDbLine
 10
153.050729
 20
341.423976
 30
0.0
 11
157.750729
 21
346.123976
 31
0.0
  0
LINE
  5
530
330
51B
100
AcDbEntity
  8
LC-003-005-----0
 62
     7
370
    25
100
AcDbLine
 10
152.82764
 20
341.766572
 30
0.0
 11
157.185044
 21
346.123976
 31
0.0
  0
LINE
  5
531
330
51B
100
AcDbEntity
  8
LC-003-005-----0
 62
     7
370
    25
100
AcDbLine
 10
152.82764
 20
342.332258
 30
0.0
 11
156.619358
 21
346.123976
 31
0.0
  0
LINE
  5
532
330
51B
100
AcDbEntity
  8
LC-003-005-----0
 62
     7
370
    25
100
AcDbLine
 10
152.82764
 20
342.897943
 30
0.0
 11
156.053673
 21
346.123976
 31
0.0
  0
LINE
  5
533
330
51B
100
AcDbEntity
  8
LC-003-005-----0
 62
     7
370
    25
100
AcDbLine
 10
152.82764
 20
343.463628
 30
0.0
 11
155.487987
 21
346.123976
 31
0.0
  0
LINE
  5
534
330
51B
100
AcDbEntity
  8
LC-003-005-----0
 62
     7
370
    25
100
AcDbLine
 10
152.82764
 20
344.029314
 30
0.0
 11
154.922302
 21
346.123976
 31
0.0
  0
LINE
  5
535
330
51B
100
AcDbEntity
  8
LC-003-005-----0
 62
     7
370
    25
100
AcDbLine
 10
152.82764
 20
344.594999
 30
0.0
 11
154.356617
 21
346.123976
 31
0.0
  0
LINE
  5
536
330
51B
100
AcDbEntity
  8
LC-003-005-----0
 62
     7
370
    25
100
AcDbLine
 10
152.82764
 20
345.160685
 30
0.0
 11
153.790931
 21
346.123976
 31
0.0
  0
LINE
  5
537
330
51B
100
AcDbEntity
  8
LC-003-005-----0
 62
     7
370
    25
100
AcDbLine
 10
152.82764
 20
345.72637
 30
0.0
 11
153.225246
 21
346.123976
 31
0.0
  0
ENDBLK
  5
51D
330
51B
100
AcDbEntity
  8
0
100
AcDbBlockEnd
  0
BLOCK
  5
53A
330
539
100
AcDbEntity
  8
0
100
AcDbBlockBegin
  2
*X358
 70
     1
 71
     0
 10
0.0
 20
0.0
 30
0.0
  3
*X358
  1

  4
*X3
  0
LINE
  5
53C
330
539
100
AcDbEntity
  8
LC-003-005-----0
 62
     7
370
    25
100
AcDbLine
 10
182.466371
 20
341.423976
 30
0.0
 11
182.82764
 21
341.785245
 31
0.0
  0
LINE
  5
53D
330
539
100
AcDbEntity
  8
LC-003-005-----0
 62
     7
370
    25
100
AcDbLine
 10
181.900686
 20
341.423976
 30
0.0
 11
182.82764
 21
342.35093
 31
0.0
  0
LINE
  5
53E
330
539
100
AcDbEntity
  8
LC-003-005-----0
 62
     7
370
    25
100
AcDbLine
 10
181.335
 20
341.423976
 30
0.0
 11
182.82764
 21
342.916615
 31
0.0
  0
LINE
  5
53F
330
539
100
AcDbEntity
  8
LC-003-005-----0
 62
     7
370
    25
100
AcDbLine
 10
180.769315
 20
341.423976
 30
0.0
 11
182.82764
 21
343.482301
 31
0.0
  0
LINE
  5
540
330
539
100
AcDbEntity
  8
LC-003-005-----0
 62
     7
370
    25
100
AcDbLine
 10
180.203629
 20
341.423976
 30
0.0
 11
182.82764
 21
344.047986
 31
0.0
  0
LINE
  5
541
330
539
100
AcDbEntity
  8
LC-003-005-----0
 62
     7
370
    25
100
AcDbLine
 10
179.637944
 20
341.423976
 30
0.0
 11
182.82764
 21
344.613672
 31
0.0
  0
LINE
  5
542
330
539
100
AcDbEntity
  8
LC-003-005-----0
 62
     7
370
    25
100
AcDbLine
 10
179.072259
 20
341.423976
 30
0.0
 11
182.82764
 21
345.179357
 31
0.0
  0
LINE
  5
543
330
539
100
AcDbEntity
  8
LC-003-005-----0
 62
     7
370
    25
100
AcDbLine
 10
178.506573
 20
341.423976
 30
0.0
 11
182.82764
 21
345.745043
 31
0.0
  0
LINE
  5
544
330
539
100
AcDbEntity
  8
LC-003-005-----0
 62
     7
370
    25
100
AcDbLine
 10
177.940888
 20
341.423976
 30
0.0
 11
182.640888
 21
346.123976
 31
0.0
  0
LINE
  5
545
330
539
100
AcDbEntity
  8
LC-003-005-----0
 62
     7
370
    25
100
AcDbLine
 10
177.375202
 20
341.423976
 30
0.0
 11
182.075202
 21
346.123976
 31
0.0
  0
LINE
  5
546
330
539
100
AcDbEntity
  8
LC-003-005-----0
 62
     7
370
    25
100
AcDbLine
 10
176.809517
 20
341.423976
 30
0.0
 11
181.509517
 21
346.123976
 31
0.0
  0
LINE
  5
547
330
539
100
AcDbEntity
  8
LC-003-005-----0
 62
     7
370
    25
100
AcDbLine
 10
176.243832
 20
341.423976
 30
0.0
 11
180.943832
 21
346.123976
 31
0.0
  0
LINE
  5
548
330
539
100
AcDbEntity
  8
LC-003-005-----0
 62
     7
370
    25
100
AcDbLine
 10
175.678146
 20
341.423976
 30
0.0
 11
180.378146
 21
346.123976
 31
0.0
  0
LINE
  5
549
330
539
100
AcDbEntity
  8
LC-003-005-----0
 62
     7
370
    25
100
AcDbLine
 10
175.112461
 20
341.423976
 30
0.0
 11
179.812461
 21
346.123976
 31
0.0
  0
LINE
  5
54A
330
539
100
AcDbEntity
  8
LC-003-005-----0
 62
     7
370
    25
100
AcDbLine
 10
174.546775
 20
341.423976
 30
0.0
 11
179.246775
 21
346.123976
 31
0.0
  0
LINE
  5
54B
330
539
100
AcDbEntity
  8
LC-003-005-----0
 62
     7
370
    25
100
AcDbLine
 10
173.98109
 20
341.423976
 30
0.0
 11
178.68109
 21
346.123976
 31
0.0
  0
LINE
  5
54C
330
539
100
AcDbEntity
  8
LC-003-005-----0
 62
     7
370
    25
100
AcDbLine
 10
173.415404
 20
341.423976
 30
0.0
 11
178.115404
 21
346.123976
 31
0.0
  0
LINE
  5
54D
330
539
100
AcDbEntity
  8
LC-003-005-----0
 62
     7
370
    25
100
AcDbLine
 10
172.849719
 20
341.423976
 30
0.0
 11
177.549719
 21
346.123976
 31
0.0
  0
LINE
  5
54E
330
539
100
AcDbEntity
  8
LC-003-005-----0
 62
     7
370
    25
100
AcDbLine
 10
172.82764
 20
341.967582
 30
0.0
 11
176.984034
 21
346.123976
 31
0.0
  0
LINE
  5
54F
330
539
100
AcDbEntity
  8
LC-003-005-----0
 62
     7
370
    25
100
AcDbLine
 10
172.82764
 20
342.533268
 30
0.0
 11
176.418348
 21
346.123976
 31
0.0
  0
LINE
  5
550
330
539
100
AcDbEntity
  8
LC-003-005-----0
 62
     7
370
    25
100
AcDbLine
 10
172.82764
 20
343.098953
 30
0.0
 11
175.852663
 21
346.123976
 31
0.0
  0
LINE
  5
551
330
539
100
AcDbEntity
  8
LC-003-005-----0
 62
     7
370
    25
100
AcDbLine
 10
172.82764
 20
343.664639
 30
0.0
 11
175.286977
 21
346.123976
 31
0.0
  0
LINE
  5
552
330
539
100
AcDbEntity
  8
LC-003-005-----0
 62
     7
370
    25
100
AcDbLine
 10
172.82764
 20
344.230324
 30
0.0
 11
174.721292
 21
346.123976
 31
0.0
  0
LINE
  5
553
330
539
100
AcDbEntity
  8
LC-003-005-----0
 62
     7
370
    25
100
AcDbLine
 10
172.82764
 20
344.796009
 30
0.0
 11
174.155606
 21
346.123976
 31
0.0
  0
LINE
  5
554
330
539
100
AcDbEntity
  8
LC-003-005-----0
 62
     7
370
    25
100
AcDbLine
 10
172.82764
 20
345.361695
 30
0.0
 11
173.589921
 21
346.123976
 31
0.0
  0
LINE
  5
555
330
539
100
AcDbEntity
  8
LC-003-005-----0
 62
     7
370
    25
100
AcDbLine
 10
172.82764
 20
345.92738
 30
0.0
 11
173.024236
 21
346.123976
 31
0.0
  0
ENDBLK
  5
53B
330
539
100
AcDbEntity
  8
0
100
AcDbBlockEnd
  0
BLOCK
  5
558
330
557
100
AcDbEntity
  8
0
100
AcDbBlockBegin
  2
*X459
 70
     1
 71
     0
 10
0.0
 20
0.0
 30
0.0
  3
*X459
  1

  4
*X4
  0
LINE
  5
55A
330
557
100
AcDbEntity
  8
LC-003-005-----0
 62
     7
370
    25
100
AcDbLine
 10
202.265361
 20
341.423976
 30
0.0
 11
202.82764
 21
341.986255
 31
0.0
  0
LINE
  5
55B
330
557
100
AcDbEntity
  8
LC-003-005-----0
 62
     7
370
    25
100
AcDbLine
 10
201.699676
 20
341.423976
 30
0.0
 11
202.82764
 21
342.55194
 31
0.0
  0
LINE
  5
55C
330
557
100
AcDbEntity
  8
LC-003-005-----0
 62
     7
370
    25
100
AcDbLine
 10
201.13399
 20
341.423976
 30
0.0
 11
202.82764
 21
343.117626
 31
0.0
  0
LINE
  5
55D
330
557
100
AcDbEntity
  8
LC-003-005-----0
 62
     7
370
    25
100
AcDbLine
 10
200.568305
 20
341.423976
 30
0.0
 11
202.82764
 21
343.683311
 31
0.0
  0
LINE
  5
55E
330
557
100
AcDbEntity
  8
LC-003-005-----0
 62
     7
370
    25
100
AcDbLine
 10
200.002619
 20
341.423976
 30
0.0
 11
202.82764
 21
344.248996
 31
0.0
  0
LINE
  5
55F
330
557
100
AcDbEntity
  8
LC-003-005-----0
 62
     7
370
    25
100
AcDbLine
 10
199.436934
 20
341.423976
 30
0.0
 11
202.82764
 21
344.814682
 31
0.0
  0
LINE
  5
560
330
557
100
AcDbEntity
  8
LC-003-005-----0
 62
     7
370
    25
100
AcDbLine
 10
198.871249
 20
341.423976
 30
0.0
 11
202.82764
 21
345.380367
 31
0.0
  0
LINE
  5
561
330
557
100
AcDbEntity
  8
LC-003-005-----0
 62
     7
370
    25
100
AcDbLine
 10
198.305563
 20
341.423976
 30
0.0
 11
202.82764
 21
345.946053
 31
0.0
  0
LINE
  5
562
330
557
100
AcDbEntity
  8
LC-003-005-----0
 62
     7
370
    25
100
AcDbLine
 10
197.739878
 20
341.423976
 30
0.0
 11
202.439878
 21
346.123976
 31
0.0
  0
LINE
  5
563
330
557
100
AcDbEntity
  8
LC-003-005-----0
 62
     7
370
    25
100
AcDbLine
 10
197.174192
 20
341.423976
 30
0.0
 11
201.874192
 21
346.123976
 31
0.0
  0
LINE
  5
564
330
557
100
AcDbEntity
  8
LC-003-005-----0
 62
     7
370
    25
100
AcDbLine
 10
196.608507
 20
341.423976
 30
0.0
 11
201.308507
 21
346.123976
 31
0.0
  0
LINE
  5
565
330
557
100
AcDbEntity
  8
LC-003-005-----0
 62
     7
370
    25
100
AcDbLine
 10
196.042821
 20
341.423976
 30
0.0
 11
200.742821
 21
346.123976
 31
0.0
  0
LINE
  5
566
330
557
100
AcDbEntity
  8
LC-003-005-----0
 62
     7
370
    25
100
AcDbLine
 10
195.477136
 20
341.423976
 30
0.0
 11
200.177136
 21
346.123976
 31
0.0
  0
LINE
  5
567
330
557
100
AcDbEntity
  8
LC-003-005-----0
 62
     7
370
    25
100
AcDbLine
 10
194.911451
 20
341.423976
 30
0.0
 11
199.611451
 21
346.123976
 31
0.0
  0
LINE
  5
568
330
557
100
AcDbEntity
  8
LC-003-005-----0
 62
     7
370
    25
100
AcDbLine
 10
194.345765
 20
341.423976
 30
0.0
 11
199.045765
 21
346.123976
 31
0.0
  0
LINE
  5
569
330
557
100
AcDbEntity
  8
LC-003-005-----0
 62
     7
370
    25
100
AcDbLine
 10
193.78008
 20
341.423976
 30
0.0
 11
198.48008
 21
346.123976
 31
0.0
  0
LINE
  5
56A
330
557
100
AcDbEntity
  8
LC-003-005-----0
 62
     7
370
    25
100
AcDbLine
 10
193.214394
 20
341.423976
 30
0.0
 11
197.914394
 21
346.123976
 31
0.0
  0
LINE
  5
56B
330
557
100
AcDbEntity
  8
LC-003-005-----0
 62
     7
370
    25
100
AcDbLine
 10
192.82764
 20
341.602907
 30
0.0
 11
197.348709
 21
346.123976
 31
0.0
  0
LINE
  5
56C
330
557
100
AcDbEntity
  8
LC-003-005-----0
 62
     7
370
    25
100
AcDbLine
 10
192.82764
 20
342.168592
 30
0.0
 11
196.783023
 21
346.123976
 31
0.0
  0
LINE
  5
56D
330
557
100
AcDbEntity
  8
LC-003-005-----0
 62
     7
370
    25
100
AcDbLine
 10
192.82764
 20
342.734278
 30
0.0
 11
196.217338
 21
346.123976
 31
0.0
  0
LINE
  5
56E
330
557
100
AcDbEntity
  8
LC-003-005-----0
 62
     7
370
    25
100
AcDbLine
 10
192.82764
 20
343.299963
 30
0.0
 11
195.651653
 21
346.123976
 31
0.0
  0
LINE
  5
56F
330
557
100
AcDbEntity
  8
LC-003-005-----0
 62
     7
370
    25
100
AcDbLine
 10
192.82764
 20
343.865649
 30
0.0
 11
195.085967
 21
346.123976
 31
0.0
  0
LINE
  5
570
330
557
100
AcDbEntity
  8
LC-003-005-----0
 62
     7
370
    25
100
AcDbLine
 10
192.82764
 20
344.431334
 30
0.0
 11
194.520282
 21
346.123976
 31
0.0
  0
LINE
  5
571
330
557
100
AcDbEntity
  8
LC-003-005-----0
 62
     7
370
    25
100
AcDbLine
 10
192.82764
 20
344.99702
 30
0.0
 11
193.954596
 21
346.123976
 31
0.0
  0
LINE
  5
572
330
557
100
AcDbEntity
  8
LC-003-005-----0
 62
     7
370
    25
100
AcDbLine
 10
192.82764
 20
345.562705
 30
0.0
 11
193.388911
 21
346.123976
 31
0.0
  0
ENDBLK
  5
559
330
557
100
AcDbEntity
  8
0
100
AcDbBlockEnd
  0
BLOCK
  5
575
330
574
100
AcDbEntity
  8
0
100
AcDbBlockBegin
  2
*X560
 70
     1
 71
     0
 10
0.0
 20
0.0
 30
0.0
  3
*X560
  1

  4
*X5
  0
LINE
  5
577
330
574
100
AcDbEntity
  8
LC-003-005-----0
 62
     7
370
    25
100
AcDbLine
 10
222.630036
 20
341.423976
 30
0.0
 11
222.82764
 21
341.621579
 31
0.0
  0
LINE
  5
578
330
574
100
AcDbEntity
  8
LC-003-005-----0
 62
     7
370
    25
100
AcDbLine
 10
222.064351
 20
341.423976
 30
0.0
 11
222.82764
 21
342.187265
 31
0.0
  0
LINE
  5
579
330
574
100
AcDbEntity
  8
LC-003-005-----0
 62
     7
370
    25
100
AcDbLine
 10
221.498666
 20
341.423976
 30
0.0
 11
222.82764
 21
342.75295
 31
0.0
  0
LINE
  5
57A
330
574
100
AcDbEntity
  8
LC-003-005-----0
 62
     7
370
    25
100
AcDbLine
 10
220.93298
 20
341.423976
 30
0.0
 11
222.82764
 21
343.318636
 31
0.0
  0
LINE
  5
57B
330
574
100
AcDbEntity
  8
LC-003-005-----0
 62
     7
370
    25
100
AcDbLine
 10
220.367295
 20
341.423976
 30
0.0
 11
222.82764
 21
343.884321
 31
0.0
  0
LINE
  5
57C
330
574
100
AcDbEntity
  8
LC-003-005-----0
 62
     7
370
    25
100
AcDbLine
 10
219.801609
 20
341.423976
 30
0.0
 11
222.82764
 21
344.450007
 31
0.0
  0
LINE
  5
57D
330
574
100
AcDbEntity
  8
LC-003-005-----0
 62
     7
370
    25
100
AcDbLine
 10
219.235924
 20
341.423976
 30
0.0
 11
222.82764
 21
345.015692
 31
0.0
  0
LINE
  5
57E
330
574
100
AcDbEntity
  8
LC-003-005-----0
 62
     7
370
    25
100
AcDbLine
 10
218.670238
 20
341.423976
 30
0.0
 11
222.82764
 21
345.581377
 31
0.0
  0
LINE
  5
57F
330
574
100
AcDbEntity
  8
LC-003-005-----0
 62
     7
370
    25
100
AcDbLine
 10
218.104553
 20
341.423976
 30
0.0
 11
222.804553
 21
346.123976
 31
0.0
  0
LINE
  5
580
330
574
100
AcDbEntity
  8
LC-003-005-----0
 62
     7
370
    25
100
AcDbLine
 10
217.538868
 20
341.423976
 30
0.0
 11
222.238868
 21
346.123976
 31
0.0
  0
LINE
  5
581
330
574
100
AcDbEntity
  8
LC-003-005-----0
 62
     7
370
    25
100
AcDbLine
 10
216.973182
 20
341.423976
 30
0.0
 11
221.673182
 21
346.123976
 31
0.0
  0
LINE
  5
582
330
574
100
AcDbEntity
  8
LC-003-005-----0
 62
     7
370
    25
100
AcDbLine
 10
216.407497
 20
341.423976
 30
0.0
 11
221.107497
 21
346.123976
 31
0.0
  0
LINE
  5
583
330
574
100
AcDbEntity
  8
LC-003-005-----0
 62
     7
370
    25
100
AcDbLine
 10
215.841811
 20
341.423976
 30
0.0
 11
220.541811
 21
346.123976
 31
0.0
  0
LINE
  5
584
330
574
100
AcDbEntity
  8
LC-003-005-----0
 62
     7
370
    25
100
AcDbLine
 10
215.276126
 20
341.423976
 30
0.0
 11
219.976126
 21
346.123976
 31
0.0
  0
LINE
  5
585
330
574
100
AcDbEntity
  8
LC-003-005-----0
 62
     7
370
    25
100
AcDbLine
 10
214.71044
 20
341.423976
 30
0.0
 11
219.41044
 21
346.123976
 31
0.0
  0
LINE
  5
586
330
574
100
AcDbEntity
  8
LC-003-005-----0
 62
     7
370
    25
100
AcDbLine
 10
214.144755
 20
341.423976
 30
0.0
 11
218.844755
 21
346.123976
 31
0.0
  0
LINE
  5
587
330
574
100
AcDbEntity
  8
LC-003-005-----0
 62
     7
370
    25
100
AcDbLine
 10
213.57907
 20
341.423976
 30
0.0
 11
218.27907
 21
346.123976
 31
0.0
  0
LINE
  5
588
330
574
100
AcDbEntity
  8
LC-003-005-----0
 62
     7
370
    25
100
AcDbLine
 10
213.013384
 20
341.423976
 30
0.0
 11
217.713384
 21
346.123976
 31
0.0
  0
LINE
  5
589
330
574
100
AcDbEntity
  8
LC-003-005-----0
 62
     7
370
    25
100
AcDbLine
 10
212.82764
 20
341.803917
 30
0.0
 11
217.147699
 21
346.123976
 31
0.0
  0
LINE
  5
58A
330
574
100
AcDbEntity
  8
LC-003-005-----0
 62
     7
370
    25
100
AcDbLine
 10
212.82764
 20
342.369603
 30
0.0
 11
216.582013
 21
346.123976
 31
0.0
  0
LINE
  5
58B
330
574
100
AcDbEntity
  8
LC-003-005-----0
 62
     7
370
    25
100
AcDbLine
 10
212.82764
 20
342.935288
 30
0.0
 11
216.016328
 21
346.123976
 31
0.0
  0
LINE
  5
58C
330
574
100
AcDbEntity
  8
LC-003-005-----0
 62
     7
370
    25
100
AcDbLine
 10
212.82764
 20
343.500973
 30
0.0
 11
215.450642
 21
346.123976
 31
0.0
  0
LINE
  5
58D
330
574
100
AcDbEntity
  8
LC-003-005-----0
 62
     7
370
    25
100
AcDbLine
 10
212.82764
 20
344.066659
 30
0.0
 11
214.884957
 21
346.123976
 31
0.0
  0
LINE
  5
58E
330
574
100
AcDbEntity
  8
LC-003-005-----0
 62
     7
370
    25
100
AcDbLine
 10
212.82764
 20
344.632344
 30
0.0
 11
214.319272
 21
346.123976
 31
0.0
  0
LINE
  5
58F
330
574
100
AcDbEntity
  8
LC-003-005-----0
 62
     7
370
    25
100
AcDbLine
 10
212.82764
 20
345.19803
 30
0.0
 11
213.753586
 21
346.123976
 31
0.0
  0
LINE
  5
590
330
574
100
AcDbEntity
  8
LC-003-005-----0
 62
     7
370
    25
100
AcDbLine
 10
212.82764
 20
345.763715
 30
0.0
 11
213.187901
 21
346.123976
 31
0.0
  0
ENDBLK
  5
576
330
574
100
AcDbEntity
  8
0
100
AcDbBlockEnd
  0
BLOCK
  5
595
330
594
100
AcDbEntity
  8
0
100
AcDbBlockBegin
  2
*X661
 70
     1
 71
     0
 10
0.0
 20
0.0
 30
0.0
  3
*X661
  1

  4
*X6
  0
LINE
  5
597
330
594
100
AcDbEntity
  8
LC-003-005-----0
 62
     7
370
    25
100
AcDbLine
 10
242.429026
 20
341.423976
 30
0.0
 11
242.82764
 21
341.82259
 31
0.0
  0
LINE
  5
598
330
594
100
AcDbEntity
  8
LC-003-005-----0
 62
     7
370
    25
100
AcDbLine
 10
241.863341
 20
341.423976
 30
0.0
 11
242.82764
 21
342.388275
 31
0.0
  0
LINE
  5
599
330
594
100
AcDbEntity
  8
LC-003-005-----0
 62
     7
370
    25
100
AcDbLine
 10
241.297655
 20
341.423976
 30
0.0
 11
242.82764
 21
342.95396
 31
0.0
  0
LINE
  5
59A
330
594
100
AcDbEntity
  8
LC-003-005-----0
 62
     7
370
    25
100
AcDbLine
 10
240.73197
 20
341.423976
 30
0.0
 11
242.82764
 21
343.519646
 31
0.0
  0
LINE
  5
59B
330
594
100
AcDbEntity
  8
LC-003-005-----0
 62
     7
370
    25
100
AcDbLine
 10
240.166285
 20
341.423976
 30
0.0
 11
242.82764
 21
344.085331
 31
0.0
  0
LINE
  5
59C
330
594
100
AcDbEntity
  8
LC-003-005-----0
 62
     7
370
    25
100
AcDbLine
 10
239.600599
 20
341.423976
 30
0.0
 11
242.82764
 21
344.651017
 31
0.0
  0
LINE
  5
59D
330
594
100
AcDbEntity
  8
LC-003-005-----0
 62
     7
370
    25
100
AcDbLine
 10
239.034914
 20
341.423976
 30
0.0
 11
242.82764
 21
345.216702
 31
0.0
  0
LINE
  5
59E
330
594
100
AcDbEntity
  8
LC-003-005-----0
 62
     7
370
    25
100
AcDbLine
 10
238.469228
 20
341.423976
 30
0.0
 11
242.82764
 21
345.782388
 31
0.0
  0
LINE
  5
59F
330
594
100
AcDbEntity
  8
LC-003-005-----0
 62
     7
370
    25
100
AcDbLine
 10
237.903543
 20
341.423976
 30
0.0
 11
242.603543
 21
346.123976
 31
0.0
  0
LINE
  5
5A0
330
594
100
AcDbEntity
  8
LC-003-005-----0
 62
     7
370
    25
100
AcDbLine
 10
237.337857
 20
341.423976
 30
0.0
 11
242.037857
 21
346.123976
 31
0.0
  0
LINE
  5
5A1
330
594
100
AcDbEntity
  8
LC-003-005-----0
 62
     7
370
    25
100
AcDbLine
 10
236.772172
 20
341.423976
 30
0.0
 11
241.472172
 21
346.123976
 31
0.0
  0
LINE
  5
5A2
330
594
100
AcDbEntity
  8
LC-003-005-----0
 62
     7
370
    25
100
AcDbLine
 10
236.206487
 20
341.423976
 30
0.0
 11
240.906487
 21
346.123976
 31
0.0
  0
LINE
  5
5A3
330
594
100
AcDbEntity
  8
LC-003-005-----0
 62
     7
370
    25
100
AcDbLine
 10
235.640801
 20
341.423976
 30
0.0
 11
240.340801
 21
346.123976
 31
0.0
  0
LINE
  5
5A4
330
594
100
AcDbEntity
  8
LC-003-005-----0
 62
     7
370
    25
100
AcDbLine
 10
235.075116
 20
341.423976
 30
0.0
 11
239.775116
 21
346.123976
 31
0.0
  0
LINE
  5
5A5
330
594
100
AcDbEntity
  8
LC-003-005-----0
 62
     7
370
    25
100
AcDbLine
 10
234.50943
 20
341.423976
 30
0.0
 11
239.20943
 21
346.123976
 31
0.0
  0
LINE
  5
5A6
330
594
100
AcDbEntity
  8
LC-003-005-----0
 62
     7
370
    25
100
AcDbLine
 10
233.943745
 20
341.423976
 30
0.0
 11
238.643745
 21
346.123976
 31
0.0
  0
LINE
  5
5A7
330
594
100
AcDbEntity
  8
LC-003-005-----0
 62
     7
370
    25
100
AcDbLine
 10
233.378059
 20
341.423976
 30
0.0
 11
238.078059
 21
346.123976
 31
0.0
  0
LINE
  5
5A8
330
594
100
AcDbEntity
  8
LC-003-005-----0
 62
     7
370
    25
100
AcDbLine
 10
232.82764
 20
341.439242
 30
0.0
 11
237.512374
 21
346.123976
 31
0.0
  0
LINE
  5
5A9
330
594
100
AcDbEntity
  8
LC-003-005-----0
 62
     7
370
    25
100
AcDbLine
 10
232.82764
 20
342.004927
 30
0.0
 11
236.946689
 21
346.123976
 31
0.0
  0
LINE
  5
5AA
330
594
100
AcDbEntity
  8
LC-003-005-----0
 62
     7
370
    25
100
AcDbLine
 10
232.82764
 20
342.570613
 30
0.0
 11
236.381003
 21
346.123976
 31
0.0
  0
LINE
  5
5AB
330
594
100
AcDbEntity
  8
LC-003-005-----0
 62
     7
370
    25
100
AcDbLine
 10
232.82764
 20
343.136298
 30
0.0
 11
235.815318
 21
346.123976
 31
0.0
  0
LINE
  5
5AC
330
594
100
AcDbEntity
  8
LC-003-005-----0
 62
     7
370
    25
100
AcDbLine
 10
232.82764
 20
343.701983
 30
0.0
 11
235.249632
 21
346.123976
 31
0.0
  0
LINE
  5
5AD
330
594
100
AcDbEntity
  8
LC-003-005-----0
 62
     7
370
    25
100
AcDbLine
 10
232.82764
 20
344.267669
 30
0.0
 11
234.683947
 21
346.123976
 31
0.0
  0
LINE
  5
5AE
330
594
100
AcDbEntity
  8
LC-003-005-----0
 62
     7
370
    25
100
AcDbLine
 10
232.82764
 20
344.833354
 30
0.0
 11
234.118261
 21
346.123976
 31
0.0
  0
LINE
  5
5AF
330
594
100
AcDbEntity
  8
LC-003-005-----0
 62
     7
370
    25
100
AcDbLine
 10
232.82764
 20
345.39904
 30
0.0
 11
233.552576
 21
346.123976
 31
0.0
  0
LINE
  5
5B0
330
594
100
AcDbEntity
  8
LC-003-005-----0
 62
     7
370
    25
100
AcDbLine
 10
232.82764
 20
345.964725
 30
0.0
 11
232.986891
 21
346.123976
 31
0.0
  0
ENDBLK
  5
596
330
594
100
AcDbEntity
  8
0
100
AcDbBlockEnd
  0
BLOCK
  5
5B4
330
5B3
100
AcDbEntity
  8
0
100
AcDbBlockBegin
  2
*X762
 70
     1
 71
     0
 10
0.0
 20
0.0
 30
0.0
  3
*X762
  1

  4
*X7
  0
LINE
  5
5B6
330
5B3
100
AcDbEntity
  8
LC-003-005-----0
 62
     7
370
    25
100
AcDbLine
 10
262.454183
 20
338.821715
 30
0.0
 11
262.82764
 21
339.195173
 31
0.0
  0
LINE
  5
5B7
330
5B3
100
AcDbEntity
  8
LC-003-005-----0
 62
     7
370
    25
100
AcDbLine
 10
262.039449
 20
338.972666
 30
0.0
 11
262.82764
 21
339.760858
 31
0.0
  0
LINE
  5
5B8
330
5B3
100
AcDbEntity
  8
LC-003-005-----0
 62
     7
370
    25
100
AcDbLine
 10
261.624714
 20
339.123617
 30
0.0
 11
262.82764
 21
340.326543
 31
0.0
  0
LINE
  5
5B9
330
5B3
100
AcDbEntity
  8
LC-003-005-----0
 62
     7
370
    25
100
AcDbLine
 10
261.20998
 20
339.274568
 30
0.0
 11
262.82764
 21
340.892229
 31
0.0
  0
LINE
  5
5BA
330
5B3
100
AcDbEntity
  8
LC-003-005-----0
 62
     7
370
    25
100
AcDbLine
 10
260.795245
 20
339.425519
 30
0.0
 11
262.82764
 21
341.457914
 31
0.0
  0
LINE
  5
5BB
330
5B3
100
AcDbEntity
  8
LC-003-005-----0
 62
     7
370
    25
100
AcDbLine
 10
260.380511
 20
339.57647
 30
0.0
 11
262.82764
 21
342.0236
 31
0.0
  0
LINE
  5
5BC
330
5B3
100
AcDbEntity
  8
LC-003-005-----0
 62
     7
370
    25
100
AcDbLine
 10
259.965776
 20
339.727421
 30
0.0
 11
262.82764
 21
342.589285
 31
0.0
  0
LINE
  5
5BD
330
5B3
100
AcDbEntity
  8
LC-003-005-----0
 62
     7
370
    25
100
AcDbLine
 10
259.551042
 20
339.878372
 30
0.0
 11
262.82764
 21
343.154971
 31
0.0
  0
LINE
  5
5BE
330
5B3
100
AcDbEntity
  8
LC-003-005-----0
 62
     7
370
    25
100
AcDbLine
 10
259.136307
 20
340.029323
 30
0.0
 11
262.750701
 21
343.643717
 31
0.0
  0
LINE
  5
5BF
330
5B3
100
AcDbEntity
  8
LC-003-005-----0
 62
     7
370
    25
100
AcDbLine
 10
258.721573
 20
340.180274
 30
0.0
 11
262.262405
 21
343.721106
 31
0.0
  0
LINE
  5
5C0
330
5B3
100
AcDbEntity
  8
LC-003-005-----0
 62
     7
370
    25
100
AcDbLine
 10
258.306839
 20
340.331225
 30
0.0
 11
261.75052
 21
343.774907
 31
0.0
  0
LINE
  5
5C1
330
5B3
100
AcDbEntity
  8
LC-003-005-----0
 62
     7
370
    25
100
AcDbLine
 10
257.892104
 20
340.482176
 30
0.0
 11
261.238636
 21
343.828708
 31
0.0
  0
LINE
  5
5C2
330
5B3
100
AcDbEntity
  8
LC-003-005-----0
 62
     7
370
    25
100
AcDbLine
 10
257.47737
 20
340.633127
 30
0.0
 11
260.726752
 21
343.882509
 31
0.0
  0
LINE
  5
5C3
330
5B3
100
AcDbEntity
  8
LC-003-005-----0
 62
     7
370
    25
100
AcDbLine
 10
257.062635
 20
340.784078
 30
0.0
 11
260.241671
 21
343.963114
 31
0.0
  0
LINE
  5
5C4
330
5B3
100
AcDbEntity
  8
LC-003-005-----0
 62
     7
370
    25
100
AcDbLine
 10
256.647901
 20
340.935029
 30
0.0
 11
259.81666
 21
344.103789
 31
0.0
  0
LINE
  5
5C5
330
5B3
100
AcDbEntity
  8
LC-003-005-----0
 62
     7
370
    25
100
AcDbLine
 10
256.233166
 20
341.08598
 30
0.0
 11
259.439846
 21
344.29266
 31
0.0
  0
LINE
  5
5C6
330
5B3
100
AcDbEntity
  8
LC-003-005-----0
 62
     7
370
    25
100
AcDbLine
 10
255.818432
 20
341.236931
 30
0.0
 11
259.104771
 21
344.523271
 31
0.0
  0
LINE
  5
5C7
330
5B3
100
AcDbEntity
  8
LC-003-005-----0
 62
     7
370
    25
100
AcDbLine
 10
255.403697
 20
341.387882
 30
0.0
 11
258.80835
 21
344.792534
 31
0.0
  0
LINE
  5
5C8
330
5B3
100
AcDbEntity
  8
LC-003-005-----0
 62
     7
370
    25
100
AcDbLine
 10
254.874106
 20
341.423976
 30
0.0
 11
258.54983
 21
345.0997
 31
0.0
  0
LINE
  5
5C9
330
5B3
100
AcDbEntity
  8
LC-003-005-----0
 62
     7
370
    25
100
AcDbLine
 10
254.30842
 20
341.423976
 30
0.0
 11
258.188642
 21
345.304198
 31
0.0
  0
LINE
  5
5CA
330
5B3
100
AcDbEntity
  8
LC-003-005-----0
 62
     7
370
    25
100
AcDbLine
 10
253.742735
 20
341.423976
 30
0.0
 11
257.77391
 21
345.45515
 31
0.0
  0
LINE
  5
5CB
330
5B3
100
AcDbEntity
  8
LC-003-005-----0
 62
     7
370
    25
100
AcDbLine
 10
253.177049
 20
341.423976
 30
0.0
 11
257.359177
 21
345.606103
 31
0.0
  0
LINE
  5
5CC
330
5B3
100
AcDbEntity
  8
LC-003-005-----0
 62
     7
370
    25
100
AcDbLine
 10
252.82764
 20
341.640252
 30
0.0
 11
256.944444
 21
345.757056
 31
0.0
  0
LINE
  5
5CD
330
5B3
100
AcDbEntity
  8
LC-003-005-----0
 62
     7
370
    25
100
AcDbLine
 10
252.82764
 20
342.205937
 30
0.0
 11
256.529712
 21
345.908009
 31
0.0
  0
LINE
  5
5CE
330
5B3
100
AcDbEntity
  8
LC-003-005-----0
 62
     7
370
    25
100
AcDbLine
 10
252.82764
 20
342.771623
 30
0.0
 11
256.114979
 21
346.058962
 31
0.0
  0
LINE
  5
5CF
330
5B3
100
AcDbEntity
  8
LC-003-005-----0
 62
     7
370
    25
100
AcDbLine
 10
252.82764
 20
343.337308
 30
0.0
 11
255.614298
 21
346.123966
 31
0.0
  0
LINE
  5
5D0
330
5B3
100
AcDbEntity
  8
LC-003-005-----0
 62
     7
370
    25
100
AcDbLine
 10
252.82764
 20
343.902994
 30
0.0
 11
255.048612
 21
346.123966
 31
0.0
  0
LINE
  5
5D1
330
5B3
100
AcDbEntity
  8
LC-003-005-----0
 62
     7
370
    25
100
AcDbLine
 10
252.82764
 20
344.468679
 30
0.0
 11
254.482927
 21
346.123966
 31
0.0
  0
LINE
  5
5D2
330
5B3
100
AcDbEntity
  8
LC-003-005-----0
 62
     7
370
    25
100
AcDbLine
 10
252.82764
 20
345.034364
 30
0.0
 11
253.917241
 21
346.123966
 31
0.0
  0
LINE
  5
5D3
330
5B3
100
AcDbEntity
  8
LC-003-005-----0
 62
     7
370
    25
100
AcDbLine
 10
252.82764
 20
345.60005
 30
0.0
 11
253.351556
 21
346.123966
 31
0.0
  0
ENDBLK
  5
5B5
330
5B3
100
AcDbEntity
  8
0
100
AcDbBlockEnd
  0
BLOCK
  5
5D8
330
5D7
100
AcDbEntity
  8
0
100
AcDbBlockBegin
  2
*X863
 70
     1
 71
     0
 10
0.0
 20
0.0
 30
0.0
  3
*X863
  1

  4
*X8
  0
LINE
  5
5DA
330
5D7
100
AcDbEntity
  8
LC-003-005-----0
 62
     7
370
    25
100
AcDbLine
 10
282.397972
 20
332.743975
 30
0.0
 11
282.82764
 21
333.173643
 31
0.0
  0
LINE
  5
5DB
330
5D7
100
AcDbEntity
  8
LC-003-005-----0
 62
     7
370
    25
100
AcDbLine
 10
281.832286
 20
332.743975
 30
0.0
 11
282.82764
 21
333.739328
 31
0.0
  0
LINE
  5
5DC
330
5D7
100
AcDbEntity
  8
LC-003-005-----0
 62
     7
370
    25
100
AcDbLine
 10
281.266601
 20
332.743975
 30
0.0
 11
282.82764
 21
334.305014
 31
0.0
  0
LINE
  5
5DD
330
5D7
100
AcDbEntity
  8
LC-003-005-----0
 62
     7
370
    25
100
AcDbLine
 10
280.700916
 20
332.743975
 30
0.0
 11
282.82764
 21
334.870699
 31
0.0
  0
LINE
  5
5DE
330
5D7
100
AcDbEntity
  8
LC-003-005-----0
 62
     7
370
    25
100
AcDbLine
 10
280.13523
 20
332.743975
 30
0.0
 11
282.82764
 21
335.436385
 31
0.0
  0
LINE
  5
5DF
330
5D7
100
AcDbEntity
  8
LC-003-005-----0
 62
     7
370
    25
100
AcDbLine
 10
279.569545
 20
332.743975
 30
0.0
 11
282.82764
 21
336.00207
 31
0.0
  0
LINE
  5
5E0
330
5D7
100
AcDbEntity
  8
LC-003-005-----0
 62
     7
370
    25
100
AcDbLine
 10
279.043561
 20
332.783676
 30
0.0
 11
282.82764
 21
336.567756
 31
0.0
  0
LINE
  5
5E1
330
5D7
100
AcDbEntity
  8
LC-003-005-----0
 62
     7
370
    25
100
AcDbLine
 10
278.628826
 20
332.934627
 30
0.0
 11
282.82764
 21
337.133441
 31
0.0
  0
LINE
  5
5E2
330
5D7
100
AcDbEntity
  8
LC-003-005-----0
 62
     7
370
    25
100
AcDbLine
 10
278.214092
 20
333.085578
 30
0.0
 11
282.502488
 21
337.373974
 31
0.0
  0
LINE
  5
5E3
330
5D7
100
AcDbEntity
  8
LC-003-005-----0
 62
     7
370
    25
100
AcDbLine
 10
277.799358
 20
333.236529
 30
0.0
 11
281.936802
 21
337.373974
 31
0.0
  0
LINE
  5
5E4
330
5D7
100
AcDbEntity
  8
LC-003-005-----0
 62
     7
370
    25
100
AcDbLine
 10
277.384623
 20
333.38748
 30
0.0
 11
281.371117
 21
337.373974
 31
0.0
  0
LINE
  5
5E5
330
5D7
100
AcDbEntity
  8
LC-003-005-----0
 62
     7
370
    25
100
AcDbLine
 10
276.969889
 20
333.538431
 30
0.0
 11
280.805432
 21
337.373974
 31
0.0
  0
LINE
  5
5E6
330
5D7
100
AcDbEntity
  8
LC-003-005-----0
 62
     7
370
    25
100
AcDbLine
 10
276.555154
 20
333.689382
 30
0.0
 11
280.239746
 21
337.373974
 31
0.0
  0
LINE
  5
5E7
330
5D7
100
AcDbEntity
  8
LC-003-005-----0
 62
     7
370
    25
100
AcDbLine
 10
276.14042
 20
333.840333
 30
0.0
 11
279.754737
 21
337.454651
 31
0.0
  0
LINE
  5
5E8
330
5D7
100
AcDbEntity
  8
LC-003-005-----0
 62
     7
370
    25
100
AcDbLine
 10
275.725685
 20
333.991284
 30
0.0
 11
279.340005
 21
337.605604
 31
0.0
  0
LINE
  5
5E9
330
5D7
100
AcDbEntity
  8
LC-003-005-----0
 62
     7
370
    25
100
AcDbLine
 10
275.310951
 20
334.142235
 30
0.0
 11
278.925272
 21
337.756556
 31
0.0
  0
LINE
  5
5EA
330
5D7
100
AcDbEntity
  8
LC-003-005-----0
 62
     7
370
    25
100
AcDbLine
 10
274.896216
 20
334.293186
 30
0.0
 11
278.51054
 21
337.907509
 31
0.0
  0
LINE
  5
5EB
330
5D7
100
AcDbEntity
  8
LC-003-005-----0
 62
     7
370
    25
100
AcDbLine
 10
274.481482
 20
334.444137
 30
0.0
 11
278.095807
 21
338.058462
 31
0.0
  0
LINE
  5
5EC
330
5D7
100
AcDbEntity
  8
LC-003-005-----0
 62
     7
370
    25
100
AcDbLine
 10
274.066747
 20
334.595088
 30
0.0
 11
277.681074
 21
338.209415
 31
0.0
  0
LINE
  5
5ED
330
5D7
100
AcDbEntity
  8
LC-003-005-----0
 62
     7
370
    25
100
AcDbLine
 10
273.652013
 20
334.746039
 30
0.0
 11
277.266342
 21
338.360368
 31
0.0
  0
LINE
  5
5EE
330
5D7
100
AcDbEntity
  8
LC-003-005-----0
 62
     7
370
    25
100
AcDbLine
 10
273.237279
 20
334.89699
 30
0.0
 11
276.851609
 21
338.511321
 31
0.0
  0
LINE
  5
5EF
330
5D7
100
AcDbEntity
  8
LC-003-005-----0
 62
     7
370
    25
100
AcDbLine
 10
272.82764
 20
335.053037
 30
0.0
 11
276.436877
 21
338.662273
 31
0.0
  0
LINE
  5
5F0
330
5D7
100
AcDbEntity
  8
LC-003-005-----0
 62
     7
370
    25
100
AcDbLine
 10
272.82764
 20
335.618722
 30
0.0
 11
276.022144
 21
338.813226
 31
0.0
  0
LINE
  5
5F1
330
5D7
100
AcDbEntity
  8
LC-003-005-----0
 62
     7
370
    25
100
AcDbLine
 10
272.82764
 20
336.184408
 30
0.0
 11
275.607411
 21
338.964179
 31
0.0
  0
LINE
  5
5F2
330
5D7
100
AcDbEntity
  8
LC-003-005-----0
 62
     7
370
    25
100
AcDbLine
 10
272.82764
 20
336.750093
 30
0.0
 11
275.192679
 21
339.115132
 31
0.0
  0
LINE
  5
5F3
330
5D7
100
AcDbEntity
  8
LC-003-005-----0
 62
     7
370
    25
100
AcDbLine
 10
272.82764
 20
337.315779
 30
0.0
 11
274.777946
 21
339.266085
 31
0.0
  0
LINE
  5
5F4
330
5D7
100
AcDbEntity
  8
LC-003-005-----0
 62
     7
370
    25
100
AcDbLine
 10
272.82764
 20
337.881464
 30
0.0
 11
274.363214
 21
339.417037
 31
0.0
  0
LINE
  5
5F5
330
5D7
100
AcDbEntity
  8
LC-003-005-----0
 62
     7
370
    25
100
AcDbLine
 10
272.82764
 20
338.447149
 30
0.0
 11
273.948481
 21
339.56799
 31
0.0
  0
LINE
  5
5F6
330
5D7
100
AcDbEntity
  8
LC-003-005-----0
 62
     7
370
    25
100
AcDbLine
 10
272.82764
 20
339.012835
 30
0.0
 11
273.533748
 21
339.718943
 31
0.0
  0
LINE
  5
5F7
330
5D7
100
AcDbEntity
  8
LC-003-005-----0
 62
     7
370
    25
100
AcDbLine
 10
272.82764
 20
339.57852
 30
0.0
 11
273.119016
 21
339.869896
 31
0.0
  0
ENDBLK
  5
5D9
330
5D7
100
AcDbEntity
  8
0
100
AcDbBlockEnd
  0
BLOCK
  5
604
330
603
100
AcDbEntity
  8
0
100
AcDbBlockBegin
  2
*X964
 70
     1
 71
     0
 10
0.0
 20
0.0
 30
0.0
  3
*X964
  1

  4
*X9
  0
LINE
  5
606
330
603
100
AcDbEntity
  8
LC-003-005-----0
 62
     7
370
    25
100
AcDbLine
 10
632.751969
 20
341.423976
 30
0.0
 11
632.827656
 21
341.499662
 31
0.0
  0
LINE
  5
607
330
603
100
AcDbEntity
  8
LC-003-005-----0
 62
     7
370
    25
100
AcDbLine
 10
632.186284
 20
341.423976
 30
0.0
 11
632.827656
 21
342.065347
 31
0.0
  0
LINE
  5
608
330
603
100
AcDbEntity
  8
LC-003-005-----0
 62
     7
370
    25
100
AcDbLine
 10
631.620599
 20
341.423976
 30
0.0
 11
632.827656
 21
342.631033
 31
0.0
  0
LINE
  5
609
330
603
100
AcDbEntity
  8
LC-003-005-----0
 62
     7
370
    25
100
AcDbLine
 10
631.054913
 20
341.423976
 30
0.0
 11
632.827656
 21
343.196718
 31
0.0
  0
LINE
  5
60A
330
603
100
AcDbEntity
  8
LC-003-005-----0
 62
     7
370
    25
100
AcDbLine
 10
630.489228
 20
341.423976
 30
0.0
 11
632.827656
 21
343.762404
 31
0.0
  0
LINE
  5
60B
330
603
100
AcDbEntity
  8
LC-003-005-----0
 62
     7
370
    25
100
AcDbLine
 10
629.923542
 20
341.423976
 30
0.0
 11
632.827656
 21
344.328089
 31
0.0
  0
LINE
  5
60C
330
603
100
AcDbEntity
  8
LC-003-005-----0
 62
     7
370
    25
100
AcDbLine
 10
629.357857
 20
341.423976
 30
0.0
 11
632.827656
 21
344.893774
 31
0.0
  0
LINE
  5
60D
330
603
100
AcDbEntity
  8
LC-003-005-----0
 62
     7
370
    25
100
AcDbLine
 10
628.792171
 20
341.423976
 30
0.0
 11
632.827656
 21
345.45946
 31
0.0
  0
LINE
  5
60E
330
603
100
AcDbEntity
  8
LC-003-005-----0
 62
     7
370
    25
100
AcDbLine
 10
628.226486
 20
341.423976
 30
0.0
 11
632.827656
 21
346.025145
 31
0.0
  0
LINE
  5
60F
330
603
100
AcDbEntity
  8
LC-003-005-----0
 62
     7
370
    25
100
AcDbLine
 10
627.660801
 20
341.423976
 30
0.0
 11
632.360801
 21
346.123976
 31
0.0
  0
LINE
  5
610
330
603
100
AcDbEntity
  8
LC-003-005-----0
 62
     7
370
    25
100
AcDbLine
 10
627.095115
 20
341.423976
 30
0.0
 11
631.795115
 21
346.123976
 31
0.0
  0
LINE
  5
611
330
603
100
AcDbEntity
  8
LC-003-005-----0
 62
     7
370
    25
100
AcDbLine
 10
626.52943
 20
341.423976
 30
0.0
 11
631.22943
 21
346.123976
 31
0.0
  0
LINE
  5
612
330
603
100
AcDbEntity
  8
LC-003-005-----0
 62
     7
370
    25
100
AcDbLine
 10
625.963744
 20
341.423976
 30
0.0
 11
630.663744
 21
346.123976
 31
0.0
  0
LINE
  5
613
330
603
100
AcDbEntity
  8
LC-003-005-----0
 62
     7
370
    25
100
AcDbLine
 10
625.398059
 20
341.423976
 30
0.0
 11
630.098059
 21
346.123976
 31
0.0
  0
LINE
  5
614
330
603
100
AcDbEntity
  8
LC-003-005-----0
 62
     7
370
    25
100
AcDbLine
 10
624.832374
 20
341.423976
 30
0.0
 11
629.532374
 21
346.123976
 31
0.0
  0
LINE
  5
615
330
603
100
AcDbEntity
  8
LC-003-005-----0
 62
     7
370
    25
100
AcDbLine
 10
624.266688
 20
341.423976
 30
0.0
 11
628.966688
 21
346.123976
 31
0.0
  0
LINE
  5
616
330
603
100
AcDbEntity
  8
LC-003-005-----0
 62
     7
370
    25
100
AcDbLine
 10
623.701003
 20
341.423976
 30
0.0
 11
628.401003
 21
346.123976
 31
0.0
  0
LINE
  5
617
330
603
100
AcDbEntity
  8
LC-003-005-----0
 62
     7
370
    25
100
AcDbLine
 10
623.135317
 20
341.423976
 30
0.0
 11
627.835317
 21
346.123976
 31
0.0
  0
LINE
  5
618
330
603
100
AcDbEntity
  8
LC-003-005-----0
 62
     7
370
    25
100
AcDbLine
 10
622.827656
 20
341.682
 30
0.0
 11
627.269632
 21
346.123976
 31
0.0
  0
LINE
  5
619
330
603
100
AcDbEntity
  8
LC-003-005-----0
 62
     7
370
    25
100
AcDbLine
 10
622.827656
 20
342.247685
 30
0.0
 11
626.703946
 21
346.123976
 31
0.0
  0
LINE
  5
61A
330
603
100
AcDbEntity
  8
LC-003-005-----0
 62
     7
370
    25
100
AcDbLine
 10
622.827656
 20
342.81337
 30
0.0
 11
626.138261
 21
346.123976
 31
0.0
  0
LINE
  5
61B
330
603
100
AcDbEntity
  8
LC-003-005-----0
 62
     7
370
    25
100
AcDbLine
 10
622.827656
 20
343.379056
 30
0.0
 11
625.572576
 21
346.123976
 31
0.0
  0
LINE
  5
61C
330
603
100
AcDbEntity
  8
LC-003-005-----0
 62
     7
370
    25
100
AcDbLine
 10
622.827656
 20
343.944741
 30
0.0
 11
625.00689
 21
346.123976
 31
0.0
  0
LINE
  5
61D
330
603
100
AcDbEntity
  8
LC-003-005-----0
 62
     7
370
    25
100
AcDbLine
 10
622.827656
 20
344.510427
 30
0.0
 11
624.441205
 21
346.123976
 31
0.0
  0
LINE
  5
61E
330
603
100
AcDbEntity
  8
LC-003-005-----0
 62
     7
370
    25
100
AcDbLine
 10
622.827656
 20
345.076112
 30
0.0
 11
623.875519
 21
346.123976
 31
0.0
  0
LINE
  5
61F
330
603
100
AcDbEntity
  8
LC-003-005-----0
 62
     7
370
    25
100
AcDbLine
 10
622.827656
 20
345.641797
 30
0.0
 11
623.309834
 21
346.123976
 31
0.0
  0
ENDBLK
  5
605
330
603
100
AcDbEntity
  8
0
100
AcDbBlockEnd
  0
BLOCK
  5
622
330
621
100
AcDbEntity
  8
0
100
AcDbBlockBegin
  2
*X1065
 70
     1
 71
     0
 10
0.0
 20
0.0
 30
0.0
  3
*X1065
  1

  4
*X10
  0
LINE
  5
624
330
621
100
AcDbEntity
  8
LC-003-005-----0
 62
     7
370
    25
100
AcDbLine
 10
612.387294
 20
341.423976
 30
0.0
 11
612.827656
 21
341.864337
 31
0.0
  0
LINE
  5
625
330
621
100
AcDbEntity
  8
LC-003-005-----0
 62
     7
370
    25
100
AcDbLine
 10
611.821609
 20
341.423976
 30
0.0
 11
612.827656
 21
342.430023
 31
0.0
  0
LINE
  5
626
330
621
100
AcDbEntity
  8
LC-003-005-----0
 62
     7
370
    25
100
AcDbLine
 10
611.255923
 20
341.423976
 30
0.0
 11
612.827656
 21
342.995708
 31
0.0
  0
LINE
  5
627
330
621
100
AcDbEntity
  8
LC-003-005-----0
 62
     7
370
    25
100
AcDbLine
 10
610.690238
 20
341.423976
 30
0.0
 11
612.827656
 21
343.561393
 31
0.0
  0
LINE
  5
628
330
621
100
AcDbEntity
  8
LC-003-005-----0
 62
     7
370
    25
100
AcDbLine
 10
610.124552
 20
341.423976
 30
0.0
 11
612.827656
 21
344.127079
 31
0.0
  0
LINE
  5
629
330
621
100
AcDbEntity
  8
LC-003-005-----0
 62
     7
370
    25
100
AcDbLine
 10
609.558867
 20
341.423976
 30
0.0
 11
612.827656
 21
344.692764
 31
0.0
  0
LINE
  5
62A
330
621
100
AcDbEntity
  8
LC-003-005-----0
 62
     7
370
    25
100
AcDbLine
 10
608.993182
 20
341.423976
 30
0.0
 11
612.827656
 21
345.25845
 31
0.0
  0
LINE
  5
62B
330
621
100
AcDbEntity
  8
LC-003-005-----0
 62
     7
370
    25
100
AcDbLine
 10
608.427496
 20
341.423976
 30
0.0
 11
612.827656
 21
345.824135
 31
0.0
  0
LINE
  5
62C
330
621
100
AcDbEntity
  8
LC-003-005-----0
 62
     7
370
    25
100
AcDbLine
 10
607.861811
 20
341.423976
 30
0.0
 11
612.561811
 21
346.123976
 31
0.0
  0
LINE
  5
62D
330
621
100
AcDbEntity
  8
LC-003-005-----0
 62
     7
370
    25
100
AcDbLine
 10
607.296125
 20
341.423976
 30
0.0
 11
611.996125
 21
346.123976
 31
0.0
  0
LINE
  5
62E
330
621
100
AcDbEntity
  8
LC-003-005-----0
 62
     7
370
    25
100
AcDbLine
 10
606.73044
 20
341.423976
 30
0.0
 11
611.43044
 21
346.123976
 31
0.0
  0
LINE
  5
62F
330
621
100
AcDbEntity
  8
LC-003-005-----0
 62
     7
370
    25
100
AcDbLine
 10
606.164754
 20
341.423976
 30
0.0
 11
610.864754
 21
346.123976
 31
0.0
  0
LINE
  5
630
330
621
100
AcDbEntity
  8
LC-003-005-----0
 62
     7
370
    25
100
AcDbLine
 10
605.599069
 20
341.423976
 30
0.0
 11
610.299069
 21
346.123976
 31
0.0
  0
LINE
  5
631
330
621
100
AcDbEntity
  8
LC-003-005-----0
 62
     7
370
    25
100
AcDbLine
 10
605.033384
 20
341.423976
 30
0.0
 11
609.733384
 21
346.123976
 31
0.0
  0
LINE
  5
632
330
621
100
AcDbEntity
  8
LC-003-005-----0
 62
     7
370
    25
100
AcDbLine
 10
604.467698
 20
341.423976
 30
0.0
 11
609.167698
 21
346.123976
 31
0.0
  0
LINE
  5
633
330
621
100
AcDbEntity
  8
LC-003-005-----0
 62
     7
370
    25
100
AcDbLine
 10
603.902013
 20
341.423976
 30
0.0
 11
608.602013
 21
346.123976
 31
0.0
  0
LINE
  5
634
330
621
100
AcDbEntity
  8
LC-003-005-----0
 62
     7
370
    25
100
AcDbLine
 10
603.336327
 20
341.423976
 30
0.0
 11
608.036327
 21
346.123976
 31
0.0
  0
LINE
  5
635
330
621
100
AcDbEntity
  8
LC-003-005-----0
 62
     7
370
    25
100
AcDbLine
 10
602.827656
 20
341.480989
 30
0.0
 11
607.470642
 21
346.123976
 31
0.0
  0
LINE
  5
636
330
621
100
AcDbEntity
  8
LC-003-005-----0
 62
     7
370
    25
100
AcDbLine
 10
602.827656
 20
342.046675
 30
0.0
 11
606.904957
 21
346.123976
 31
0.0
  0
LINE
  5
637
330
621
100
AcDbEntity
  8
LC-003-005-----0
 62
     7
370
    25
100
AcDbLine
 10
602.827656
 20
342.61236
 30
0.0
 11
606.339271
 21
346.123976
 31
0.0
  0
LINE
  5
638
330
621
100
AcDbEntity
  8
LC-003-005-----0
 62
     7
370
    25
100
AcDbLine
 10
602.827656
 20
343.178046
 30
0.0
 11
605.773586
 21
346.123976
 31
0.0
  0
LINE
  5
639
330
621
100
AcDbEntity
  8
LC-003-005-----0
 62
     7
370
    25
100
AcDbLine
 10
602.827656
 20
343.743731
 30
0.0
 11
605.2079
 21
346.123976
 31
0.0
  0
LINE
  5
63A
330
621
100
AcDbEntity
  8
LC-003-005-----0
 62
     7
370
    25
100
AcDbLine
 10
602.827656
 20
344.309417
 30
0.0
 11
604.642215
 21
346.123976
 31
0.0
  0
LINE
  5
63B
330
621
100
AcDbEntity
  8
LC-003-005-----0
 62
     7
370
    25
100
AcDbLine
 10
602.827656
 20
344.875102
 30
0.0
 11
604.076529
 21
346.123976
 31
0.0
  0
LINE
  5
63C
330
621
100
AcDbEntity
  8
LC-003-005-----0
 62
     7
370
    25
100
AcDbLine
 10
602.827656
 20
345.440787
 30
0.0
 11
603.510844
 21
346.123976
 31
0.0
  0
LINE
  5
63D
330
621
100
AcDbEntity
  8
LC-003-005-----0
 62
     7
370
    25
100
AcDbLine
 10
602.827656
 20
346.006473
 30
0.0
 11
602.945159
 21
346.123976
 31
0.0
  0
ENDBLK
  5
623
330
621
100
AcDbEntity
  8
0
100
AcDbBlockEnd
  0
BLOCK
  5
640
330
63F
100
AcDbEntity
  8
0
100
AcDbBlockBegin
  2
*X1166
 70
     1
 71
     0
 10
0.0
 20
0.0
 30
0.0
  3
*X1166
  1

  4
*X11
  0
LINE
  5
642
330
63F
100
AcDbEntity
  8
LC-003-005-----0
 62
     7
370
    25
100
AcDbLine
 10
592.588304
 20
341.423976
 30
0.0
 11
592.827656
 21
341.663327
 31
0.0
  0
LINE
  5
643
330
63F
100
AcDbEntity
  8
LC-003-005-----0
 62
     7
370
    25
100
AcDbLine
 10
592.022619
 20
341.423976
 30
0.0
 11
592.827656
 21
342.229012
 31
0.0
  0
LINE
  5
644
330
63F
100
AcDbEntity
  8
LC-003-005-----0
 62
     7
370
    25
100
AcDbLine
 10
591.456933
 20
341.423976
 30
0.0
 11
592.827656
 21
342.794698
 31
0.0
  0
LINE
  5
645
330
63F
100
AcDbEntity
  8
LC-003-005-----0
 62
     7
370
    25
100
AcDbLine
 10
590.891248
 20
341.423976
 30
0.0
 11
592.827656
 21
343.360383
 31
0.0
  0
LINE
  5
646
330
63F
100
AcDbEntity
  8
LC-003-005-----0
 62
     7
370
    25
100
AcDbLine
 10
590.325563
 20
341.423976
 30
0.0
 11
592.827656
 21
343.926069
 31
0.0
  0
LINE
  5
647
330
63F
100
AcDbEntity
  8
LC-003-005-----0
 62
     7
370
    25
100
AcDbLine
 10
589.759877
 20
341.423976
 30
0.0
 11
592.827656
 21
344.491754
 31
0.0
  0
LINE
  5
648
330
63F
100
AcDbEntity
  8
LC-003-005-----0
 62
     7
370
    25
100
AcDbLine
 10
589.194192
 20
341.423976
 30
0.0
 11
592.827656
 21
345.05744
 31
0.0
  0
LINE
  5
649
330
63F
100
AcDbEntity
  8
LC-003-005-----0
 62
     7
370
    25
100
AcDbLine
 10
588.628506
 20
341.423976
 30
0.0
 11
592.827656
 21
345.623125
 31
0.0
  0
LINE
  5
64A
330
63F
100
AcDbEntity
  8
LC-003-005-----0
 62
     7
370
    25
100
AcDbLine
 10
588.062821
 20
341.423976
 30
0.0
 11
592.762821
 21
346.123976
 31
0.0
  0
LINE
  5
64B
330
63F
100
AcDbEntity
  8
LC-003-005-----0
 62
     7
370
    25
100
AcDbLine
 10
587.497135
 20
341.423976
 30
0.0
 11
592.197135
 21
346.123976
 31
0.0
  0
LINE
  5
64C
330
63F
100
AcDbEntity
  8
LC-003-005-----0
 62
     7
370
    25
100
AcDbLine
 10
586.93145
 20
341.423976
 30
0.0
 11
591.63145
 21
346.123976
 31
0.0
  0
LINE
  5
64D
330
63F
100
AcDbEntity
  8
LC-003-005-----0
 62
     7
370
    25
100
AcDbLine
 10
586.365765
 20
341.423976
 30
0.0
 11
591.065765
 21
346.123976
 31
0.0
  0
LINE
  5
64E
330
63F
100
AcDbEntity
  8
LC-003-005-----0
 62
     7
370
    25
100
AcDbLine
 10
585.800079
 20
341.423976
 30
0.0
 11
590.500079
 21
346.123976
 31
0.0
  0
LINE
  5
64F
330
63F
100
AcDbEntity
  8
LC-003-005-----0
 62
     7
370
    25
100
AcDbLine
 10
585.234394
 20
341.423976
 30
0.0
 11
589.934394
 21
346.123976
 31
0.0
  0
LINE
  5
650
330
63F
100
AcDbEntity
  8
LC-003-005-----0
 62
     7
370
    25
100
AcDbLine
 10
584.668708
 20
341.423976
 30
0.0
 11
589.368708
 21
346.123976
 31
0.0
  0
LINE
  5
651
330
63F
100
AcDbEntity
  8
LC-003-005-----0
 62
     7
370
    25
100
AcDbLine
 10
584.103023
 20
341.423976
 30
0.0
 11
588.803023
 21
346.123976
 31
0.0
  0
LINE
  5
652
330
63F
100
AcDbEntity
  8
LC-003-005-----0
 62
     7
370
    25
100
AcDbLine
 10
583.537337
 20
341.423976
 30
0.0
 11
588.237337
 21
346.123976
 31
0.0
  0
LINE
  5
653
330
63F
100
AcDbEntity
  8
LC-003-005-----0
 62
     7
370
    25
100
AcDbLine
 10
582.971652
 20
341.423976
 30
0.0
 11
587.671652
 21
346.123976
 31
0.0
  0
LINE
  5
654
330
63F
100
AcDbEntity
  8
LC-003-005-----0
 62
     7
370
    25
100
AcDbLine
 10
582.827656
 20
341.845665
 30
0.0
 11
587.105967
 21
346.123976
 31
0.0
  0
LINE
  5
655
330
63F
100
AcDbEntity
  8
LC-003-005-----0
 62
     7
370
    25
100
AcDbLine
 10
582.827656
 20
342.41135
 30
0.0
 11
586.540281
 21
346.123976
 31
0.0
  0
LINE
  5
656
330
63F
100
AcDbEntity
  8
LC-003-005-----0
 62
     7
370
    25
100
AcDbLine
 10
582.827656
 20
342.977036
 30
0.0
 11
585.974596
 21
346.123976
 31
0.0
  0
LINE
  5
657
330
63F
100
AcDbEntity
  8
LC-003-005-----0
 62
     7
370
    25
100
AcDbLine
 10
582.827656
 20
343.542721
 30
0.0
 11
585.40891
 21
346.123976
 31
0.0
  0
LINE
  5
658
330
63F
100
AcDbEntity
  8
LC-003-005-----0
 62
     7
370
    25
100
AcDbLine
 10
582.827656
 20
344.108406
 30
0.0
 11
584.843225
 21
346.123976
 31
0.0
  0
LINE
  5
659
330
63F
100
AcDbEntity
  8
LC-003-005-----0
 62
     7
370
    25
100
AcDbLine
 10
582.827656
 20
344.674092
 30
0.0
 11
584.27754
 21
346.123976
 31
0.0
  0
LINE
  5
65A
330
63F
100
AcDbEntity
  8
LC-003-005-----0
 62
     7
370
    25
100
AcDbLine
 10
582.827656
 20
345.239777
 30
0.0
 11
583.711854
 21
346.123976
 31
0.0
  0
LINE
  5
65B
330
63F
100
AcDbEntity
  8
LC-003-005-----0
 62
     7
370
    25
100
AcDbLine
 10
582.827656
 20
345.805463
 30
0.0
 11
583.146169
 21
346.123976
 31
0.0
  0
ENDBLK
  5
641
330
63F
100
AcDbEntity
  8
0
100
AcDbBlockEnd
  0
BLOCK
  5
65E
330
65D
100
AcDbEntity
  8
0
100
AcDbBlockBegin
  2
*X1267
 70
     1
 71
     0
 10
0.0
 20
0.0
 30
0.0
  3
*X1267
  1

  4
*X12
  0
LINE
  5
660
330
65D
100
AcDbEntity
  8
LC-003-005-----0
 62
     7
370
    25
100
AcDbLine
 10
572.789314
 20
341.423976
 30
0.0
 11
572.827656
 21
341.462317
 31
0.0
  0
LINE
  5
661
330
65D
100
AcDbEntity
  8
LC-003-005-----0
 62
     7
370
    25
100
AcDbLine
 10
572.223629
 20
341.423976
 30
0.0
 11
572.827656
 21
342.028002
 31
0.0
  0
LINE
  5
662
330
65D
100
AcDbEntity
  8
LC-003-005-----0
 62
     7
370
    25
100
AcDbLine
 10
571.657944
 20
341.423976
 30
0.0
 11
572.827656
 21
342.593688
 31
0.0
  0
LINE
  5
663
330
65D
100
AcDbEntity
  8
LC-003-005-----0
 62
     7
370
    25
100
AcDbLine
 10
571.092258
 20
341.423976
 30
0.0
 11
572.827656
 21
343.159373
 31
0.0
  0
LINE
  5
664
330
65D
100
AcDbEntity
  8
LC-003-005-----0
 62
     7
370
    25
100
AcDbLine
 10
570.526573
 20
341.423976
 30
0.0
 11
572.827656
 21
343.725059
 31
0.0
  0
LINE
  5
665
330
65D
100
AcDbEntity
  8
LC-003-005-----0
 62
     7
370
    25
100
AcDbLine
 10
569.960887
 20
341.423976
 30
0.0
 11
572.827656
 21
344.290744
 31
0.0
  0
LINE
  5
666
330
65D
100
AcDbEntity
  8
LC-003-005-----0
 62
     7
370
    25
100
AcDbLine
 10
569.395202
 20
341.423976
 30
0.0
 11
572.827656
 21
344.856429
 31
0.0
  0
LINE
  5
667
330
65D
100
AcDbEntity
  8
LC-003-005-----0
 62
     7
370
    25
100
AcDbLine
 10
568.829516
 20
341.423976
 30
0.0
 11
572.827656
 21
345.422115
 31
0.0
  0
LINE
  5
668
330
65D
100
AcDbEntity
  8
LC-003-005-----0
 62
     7
370
    25
100
AcDbLine
 10
568.263831
 20
341.423976
 30
0.0
 11
572.827656
 21
345.9878
 31
0.0
  0
LINE
  5
669
330
65D
100
AcDbEntity
  8
LC-003-005-----0
 62
     7
370
    25
100
AcDbLine
 10
567.698146
 20
341.423976
 30
0.0
 11
572.398146
 21
346.123976
 31
0.0
  0
LINE
  5
66A
330
65D
100
AcDbEntity
  8
LC-003-005-----0
 62
     7
370
    25
100
AcDbLine
 10
567.13246
 20
341.423976
 30
0.0
 11
571.83246
 21
346.123976
 31
0.0
  0
LINE
  5
66B
330
65D
100
AcDbEntity
  8
LC-003-005-----0
 62
     7
370
    25
100
AcDbLine
 10
566.566775
 20
341.423976
 30
0.0
 11
571.266775
 21
346.123976
 31
0.0
  0
LINE
  5
66C
330
65D
100
AcDbEntity
  8
LC-003-005-----0
 62
     7
370
    25
100
AcDbLine
 10
566.001089
 20
341.423976
 30
0.0
 11
570.701089
 21
346.123976
 31
0.0
  0
LINE
  5
66D
330
65D
100
AcDbEntity
  8
LC-003-005-----0
 62
     7
370
    25
100
AcDbLine
 10
565.435404
 20
341.423976
 30
0.0
 11
570.135404
 21
346.123976
 31
0.0
  0
LINE
  5
66E
330
65D
100
AcDbEntity
  8
LC-003-005-----0
 62
     7
370
    25
100
AcDbLine
 10
564.869718
 20
341.423976
 30
0.0
 11
569.569718
 21
346.123976
 31
0.0
  0
LINE
  5
66F
330
65D
100
AcDbEntity
  8
LC-003-005-----0
 62
     7
370
    25
100
AcDbLine
 10
564.304033
 20
341.423976
 30
0.0
 11
569.004033
 21
346.123976
 31
0.0
  0
LINE
  5
670
330
65D
100
AcDbEntity
  8
LC-003-005-----0
 62
     7
370
    25
100
AcDbLine
 10
563.738348
 20
341.423976
 30
0.0
 11
568.438348
 21
346.123976
 31
0.0
  0
LINE
  5
671
330
65D
100
AcDbEntity
  8
LC-003-005-----0
 62
     7
370
    25
100
AcDbLine
 10
563.172662
 20
341.423976
 30
0.0
 11
567.872662
 21
346.123976
 31
0.0
  0
LINE
  5
672
330
65D
100
AcDbEntity
  8
LC-003-005-----0
 62
     7
370
    25
100
AcDbLine
 10
562.827656
 20
341.644655
 30
0.0
 11
567.306977
 21
346.123976
 31
0.0
  0
LINE
  5
673
330
65D
100
AcDbEntity
  8
LC-003-005-----0
 62
     7
370
    25
100
AcDbLine
 10
562.827656
 20
342.21034
 30
0.0
 11
566.741291
 21
346.123976
 31
0.0
  0
LINE
  5
674
330
65D
100
AcDbEntity
  8
LC-003-005-----0
 62
     7
370
    25
100
AcDbLine
 10
562.827656
 20
342.776025
 30
0.0
 11
566.175606
 21
346.123976
 31
0.0
  0
LINE
  5
675
330
65D
100
AcDbEntity
  8
LC-003-005-----0
 62
     7
370
    25
100
AcDbLine
 10
562.827656
 20
343.341711
 30
0.0
 11
565.60992
 21
346.123976
 31
0.0
  0
LINE
  5
676
330
65D
100
AcDbEntity
  8
LC-003-005-----0
 62
     7
370
    25
100
AcDbLine
 10
562.827656
 20
343.907396
 30
0.0
 11
565.044235
 21
346.123976
 31
0.0
  0
LINE
  5
677
330
65D
100
AcDbEntity
  8
LC-003-005-----0
 62
     7
370
    25
100
AcDbLine
 10
562.827656
 20
344.473082
 30
0.0
 11
564.47855
 21
346.123976
 31
0.0
  0
LINE
  5
678
330
65D
100
AcDbEntity
  8
LC-003-005-----0
 62
     7
370
    25
100
AcDbLine
 10
562.827656
 20
345.038767
 30
0.0
 11
563.912864
 21
346.123976
 31
0.0
  0
LINE
  5
679
330
65D
100
AcDbEntity
  8
LC-003-005-----0
 62
     7
370
    25
100
AcDbLine
 10
562.827656
 20
345.604453
 30
0.0
 11
563.347179
 21
346.123976
 31
0.0
  0
ENDBLK
  5
65F
330
65D
100
AcDbEntity
  8
0
100
AcDbBlockEnd
  0
BLOCK
  5
67C
330
67B
100
AcDbEntity
  8
0
100
AcDbBlockBegin
  2
*X1368
 70
     1
 71
     0
 10
0.0
 20
0.0
 30
0.0
  3
*X1368
  1

  4
*X13
  0
LINE
  5
67E
330
67B
100
AcDbEntity
  8
LC-003-005-----0
 62
     7
370
    25
100
AcDbLine
 10
552.424639
 20
341.423976
 30
0.0
 11
552.827656
 21
341.826992
 31
0.0
  0
LINE
  5
67F
330
67B
100
AcDbEntity
  8
LC-003-005-----0
 62
     7
370
    25
100
AcDbLine
 10
551.858954
 20
341.423976
 30
0.0
 11
552.827656
 21
342.392678
 31
0.0
  0
LINE
  5
680
330
67B
100
AcDbEntity
  8
LC-003-005-----0
 62
     7
370
    25
100
AcDbLine
 10
551.293268
 20
341.423976
 30
0.0
 11
552.827656
 21
342.958363
 31
0.0
  0
LINE
  5
681
330
67B
100
AcDbEntity
  8
LC-003-005-----0
 62
     7
370
    25
100
AcDbLine
 10
550.727583
 20
341.423976
 30
0.0
 11
552.827656
 21
343.524048
 31
0.0
  0
LINE
  5
682
330
67B
100
AcDbEntity
  8
LC-003-005-----0
 62
     7
370
    25
100
AcDbLine
 10
550.161897
 20
341.423976
 30
0.0
 11
552.827656
 21
344.089734
 31
0.0
  0
LINE
  5
683
330
67B
100
AcDbEntity
  8
LC-003-005-----0
 62
     7
370
    25
100
AcDbLine
 10
549.596212
 20
341.423976
 30
0.0
 11
552.827656
 21
344.655419
 31
0.0
  0
LINE
  5
684
330
67B
100
AcDbEntity
  8
LC-003-005-----0
 62
     7
370
    25
100
AcDbLine
 10
549.030527
 20
341.423976
 30
0.0
 11
552.827656
 21
345.221105
 31
0.0
  0
LINE
  5
685
330
67B
100
AcDbEntity
  8
LC-003-005-----0
 62
     7
370
    25
100
AcDbLine
 10
548.464841
 20
341.423976
 30
0.0
 11
552.827656
 21
345.78679
 31
0.0
  0
LINE
  5
686
330
67B
100
AcDbEntity
  8
LC-003-005-----0
 62
     7
370
    25
100
AcDbLine
 10
547.899156
 20
341.423976
 30
0.0
 11
552.599156
 21
346.123976
 31
0.0
  0
LINE
  5
687
330
67B
100
AcDbEntity
  8
LC-003-005-----0
 62
     7
370
    25
100
AcDbLine
 10
547.33347
 20
341.423976
 30
0.0
 11
552.03347
 21
346.123976
 31
0.0
  0
LINE
  5
688
330
67B
100
AcDbEntity
  8
LC-003-005-----0
 62
     7
370
    25
100
AcDbLine
 10
546.767785
 20
341.423976
 30
0.0
 11
551.467785
 21
346.123976
 31
0.0
  0
LINE
  5
689
330
67B
100
AcDbEntity
  8
LC-003-005-----0
 62
     7
370
    25
100
AcDbLine
 10
546.202099
 20
341.423976
 30
0.0
 11
550.902099
 21
346.123976
 31
0.0
  0
LINE
  5
68A
330
67B
100
AcDbEntity
  8
LC-003-005-----0
 62
     7
370
    25
100
AcDbLine
 10
545.636414
 20
341.423976
 30
0.0
 11
550.336414
 21
346.123976
 31
0.0
  0
LINE
  5
68B
330
67B
100
AcDbEntity
  8
LC-003-005-----0
 62
     7
370
    25
100
AcDbLine
 10
545.070729
 20
341.423976
 30
0.0
 11
549.770729
 21
346.123976
 31
0.0
  0
LINE
  5
68C
330
67B
100
AcDbEntity
  8
LC-003-005-----0
 62
     7
370
    25
100
AcDbLine
 10
544.505043
 20
341.423976
 30
0.0
 11
549.205043
 21
346.123976
 31
0.0
  0
LINE
  5
68D
330
67B
100
AcDbEntity
  8
LC-003-005-----0
 62
     7
370
    25
100
AcDbLine
 10
543.939358
 20
341.423976
 30
0.0
 11
548.639358
 21
346.123976
 31
0.0
  0
LINE
  5
68E
330
67B
100
AcDbEntity
  8
LC-003-005-----0
 62
     7
370
    25
100
AcDbLine
 10
543.373672
 20
341.423976
 30
0.0
 11
548.073672
 21
346.123976
 31
0.0
  0
LINE
  5
68F
330
67B
100
AcDbEntity
  8
LC-003-005-----0
 62
     7
370
    25
100
AcDbLine
 10
542.827656
 20
341.443644
 30
0.0
 11
547.507987
 21
346.123976
 31
0.0
  0
LINE
  5
690
330
67B
100
AcDbEntity
  8
LC-003-005-----0
 62
     7
370
    25
100
AcDbLine
 10
542.827656
 20
342.00933
 30
0.0
 11
546.942301
 21
346.123976
 31
0.0
  0
LINE
  5
691
330
67B
100
AcDbEntity
  8
LC-003-005-----0
 62
     7
370
    25
100
AcDbLine
 10
542.827656
 20
342.575015
 30
0.0
 11
546.376616
 21
346.123976
 31
0.0
  0
LINE
  5
692
330
67B
100
AcDbEntity
  8
LC-003-005-----0
 62
     7
370
    25
100
AcDbLine
 10
542.827656
 20
343.140701
 30
0.0
 11
545.810931
 21
346.123976
 31
0.0
  0
LINE
  5
693
330
67B
100
AcDbEntity
  8
LC-003-005-----0
 62
     7
370
    25
100
AcDbLine
 10
542.827656
 20
343.706386
 30
0.0
 11
545.245245
 21
346.123976
 31
0.0
  0
LINE
  5
694
330
67B
100
AcDbEntity
  8
LC-003-005-----0
 62
     7
370
    25
100
AcDbLine
 10
542.827656
 20
344.272072
 30
0.0
 11
544.67956
 21
346.123976
 31
0.0
  0
LINE
  5
695
330
67B
100
AcDbEntity
  8
LC-003-005-----0
 62
     7
370
    25
100
AcDbLine
 10
542.827656
 20
344.837757
 30
0.0
 11
544.113874
 21
346.123976
 31
0.0
  0
LINE
  5
696
330
67B
100
AcDbEntity
  8
LC-003-005-----0
 62
     7
370
    25
100
AcDbLine
 10
542.827656
 20
345.403442
 30
0.0
 11
543.548189
 21
346.123976
 31
0.0
  0
LINE
  5
697
330
67B
100
AcDbEntity
  8
LC-003-005-----0
 62
     7
370
    25
100
AcDbLine
 10
542.827656
 20
345.969128
 30
0.0
 11
542.982503
 21
346.123976
 31
0.0
  0
ENDBLK
  5
67D
330
67B
100
AcDbEntity
  8
0
100
AcDbBlockEnd
  0
BLOCK
  5
69C
330
69B
100
AcDbEntity
  8
0
100
AcDbBlockBegin
  2
*X1469
 70
     1
 71
     0
 10
0.0
 20
0.0
 30
0.0
  3
*X1469
  1

  4
*X14
  0
LINE
  5
69E
330
69B
100
AcDbEntity
  8
LC-003-005-----0
 62
     7
370
    25
100
AcDbLine
 10
532.625649
 20
341.423976
 30
0.0
 11
532.827656
 21
341.625982
 31
0.0
  0
LINE
  5
69F
330
69B
100
AcDbEntity
  8
LC-003-005-----0
 62
     7
370
    25
100
AcDbLine
 10
532.059964
 20
341.423976
 30
0.0
 11
532.827656
 21
342.191668
 31
0.0
  0
LINE
  5
6A0
330
69B
100
AcDbEntity
  8
LC-003-005-----0
 62
     7
370
    25
100
AcDbLine
 10
531.494278
 20
341.423976
 30
0.0
 11
532.827656
 21
342.757353
 31
0.0
  0
LINE
  5
6A1
330
69B
100
AcDbEntity
  8
LC-003-005-----0
 62
     7
370
    25
100
AcDbLine
 10
530.928593
 20
341.423976
 30
0.0
 11
532.827656
 21
343.323038
 31
0.0
  0
LINE
  5
6A2
330
69B
100
AcDbEntity
  8
LC-003-005-----0
 62
     7
370
    25
100
AcDbLine
 10
530.362908
 20
341.423976
 30
0.0
 11
532.827656
 21
343.888724
 31
0.0
  0
LINE
  5
6A3
330
69B
100
AcDbEntity
  8
LC-003-005-----0
 62
     7
370
    25
100
AcDbLine
 10
529.797222
 20
341.423976
 30
0.0
 11
532.827656
 21
344.454409
 31
0.0
  0
LINE
  5
6A4
330
69B
100
AcDbEntity
  8
LC-003-005-----0
 62
     7
370
    25
100
AcDbLine
 10
529.231537
 20
341.423976
 30
0.0
 11
532.827656
 21
345.020095
 31
0.0
  0
LINE
  5
6A5
330
69B
100
AcDbEntity
  8
LC-003-005-----0
 62
     7
370
    25
100
AcDbLine
 10
528.665851
 20
341.423976
 30
0.0
 11
532.827656
 21
345.58578
 31
0.0
  0
LINE
  5
6A6
330
69B
100
AcDbEntity
  8
LC-003-005-----0
 62
     7
370
    25
100
AcDbLine
 10
528.100166
 20
341.423976
 30
0.0
 11
532.800166
 21
346.123976
 31
0.0
  0
LINE
  5
6A7
330
69B
100
AcDbEntity
  8
LC-003-005-----0
 62
     7
370
    25
100
AcDbLine
 10
527.53448
 20
341.423976
 30
0.0
 11
532.23448
 21
346.123976
 31
0.0
  0
LINE
  5
6A8
330
69B
100
AcDbEntity
  8
LC-003-005-----0
 62
     7
370
    25
100
AcDbLine
 10
526.968795
 20
341.423976
 30
0.0
 11
531.668795
 21
346.123976
 31
0.0
  0
LINE
  5
6A9
330
69B
100
AcDbEntity
  8
LC-003-005-----0
 62
     7
370
    25
100
AcDbLine
 10
526.40311
 20
341.423976
 30
0.0
 11
531.10311
 21
346.123976
 31
0.0
  0
LINE
  5
6AA
330
69B
100
AcDbEntity
  8
LC-003-005-----0
 62
     7
370
    25
100
AcDbLine
 10
525.837424
 20
341.423976
 30
0.0
 11
530.537424
 21
346.123976
 31
0.0
  0
LINE
  5
6AB
330
69B
100
AcDbEntity
  8
LC-003-005-----0
 62
     7
370
    25
100
AcDbLine
 10
525.271739
 20
341.423976
 30
0.0
 11
529.971739
 21
346.123976
 31
0.0
  0
LINE
  5
6AC
330
69B
100
AcDbEntity
  8
LC-003-005-----0
 62
     7
370
    25
100
AcDbLine
 10
524.706053
 20
341.423976
 30
0.0
 11
529.406053
 21
346.123976
 31
0.0
  0
LINE
  5
6AD
330
69B
100
AcDbEntity
  8
LC-003-005-----0
 62
     7
370
    25
100
AcDbLine
 10
524.140368
 20
341.423976
 30
0.0
 11
528.840368
 21
346.123976
 31
0.0
  0
LINE
  5
6AE
330
69B
100
AcDbEntity
  8
LC-003-005-----0
 62
     7
370
    25
100
AcDbLine
 10
523.574682
 20
341.423976
 30
0.0
 11
528.274682
 21
346.123976
 31
0.0
  0
LINE
  5
6AF
330
69B
100
AcDbEntity
  8
LC-003-005-----0
 62
     7
370
    25
100
AcDbLine
 10
523.008997
 20
341.423976
 30
0.0
 11
527.708997
 21
346.123976
 31
0.0
  0
LINE
  5
6B0
330
69B
100
AcDbEntity
  8
LC-003-005-----0
 62
     7
370
    25
100
AcDbLine
 10
522.827656
 20
341.80832
 30
0.0
 11
527.143312
 21
346.123976
 31
0.0
  0
LINE
  5
6B1
330
69B
100
AcDbEntity
  8
LC-003-005-----0
 62
     7
370
    25
100
AcDbLine
 10
522.827656
 20
342.374005
 30
0.0
 11
526.577626
 21
346.123976
 31
0.0
  0
LINE
  5
6B2
330
69B
100
AcDbEntity
  8
LC-003-005-----0
 62
     7
370
    25
100
AcDbLine
 10
522.827656
 20
342.939691
 30
0.0
 11
526.011941
 21
346.123976
 31
0.0
  0
LINE
  5
6B3
330
69B
100
AcDbEntity
  8
LC-003-005-----0
 62
     7
370
    25
100
AcDbLine
 10
522.827656
 20
343.505376
 30
0.0
 11
525.446255
 21
346.123976
 31
0.0
  0
LINE
  5
6B4
330
69B
100
AcDbEntity
  8
LC-003-005-----0
 62
     7
370
    25
100
AcDbLine
 10
522.827656
 20
344.071061
 30
0.0
 11
524.88057
 21
346.123976
 31
0.0
  0
LINE
  5
6B5
330
69B
100
AcDbEntity
  8
LC-003-005-----0
 62
     7
370
    25
100
AcDbLine
 10
522.827656
 20
344.636747
 30
0.0
 11
524.314884
 21
346.123976
 31
0.0
  0
LINE
  5
6B6
330
69B
100
AcDbEntity
  8
LC-003-005-----0
 62
     7
370
    25
100
AcDbLine
 10
522.827656
 20
345.202432
 30
0.0
 11
523.749199
 21
346.123976
 31
0.0
  0
LINE
  5
6B7
330
69B
100
AcDbEntity
  8
LC-003-005-----0
 62
     7
370
    25
100
AcDbLine
 10
522.827656
 20
345.768118
 30
0.0
 11
523.183514
 21
346.123976
 31
0.0
  0
ENDBLK
  5
69D
330
69B
100
AcDbEntity
  8
0
100
AcDbBlockEnd
  0
BLOCK
  5
6BB
330
6BA
100
AcDbEntity
  8
0
100
AcDbBlockBegin
  2
*X1570
 70
     1
 71
     0
 10
0.0
 20
0.0
 30
0.0
  3
*X1570
  1

  4
*X15
  0
LINE
  5
6BD
330
6BA
100
AcDbEntity
  8
LC-003-005-----0
 62
     7
370
    25
100
AcDbLine
 10
512.826659
 20
341.423976
 30
0.0
 11
512.827656
 21
341.424972
 31
0.0
  0
LINE
  5
6BE
330
6BA
100
AcDbEntity
  8
LC-003-005-----0
 62
     7
370
    25
100
AcDbLine
 10
512.260974
 20
341.423976
 30
0.0
 11
512.827656
 21
341.990657
 31
0.0
  0
LINE
  5
6BF
330
6BA
100
AcDbEntity
  8
LC-003-005-----0
 62
     7
370
    25
100
AcDbLine
 10
511.695289
 20
341.423976
 30
0.0
 11
512.827656
 21
342.556343
 31
0.0
  0
LINE
  5
6C0
330
6BA
100
AcDbEntity
  8
LC-003-005-----0
 62
     7
370
    25
100
AcDbLine
 10
511.129603
 20
341.423976
 30
0.0
 11
512.827656
 21
343.122028
 31
0.0
  0
LINE
  5
6C1
330
6BA
100
AcDbEntity
  8
LC-003-005-----0
 62
     7
370
    25
100
AcDbLine
 10
510.563918
 20
341.423976
 30
0.0
 11
512.827656
 21
343.687714
 31
0.0
  0
LINE
  5
6C2
330
6BA
100
AcDbEntity
  8
LC-003-005-----0
 62
     7
370
    25
100
AcDbLine
 10
509.796494
 20
341.222238
 30
0.0
 11
512.827656
 21
344.253399
 31
0.0
  0
LINE
  5
6C3
330
6BA
100
AcDbEntity
  8
LC-003-005-----0
 62
     7
370
    25
100
AcDbLine
 10
508.907093
 20
340.898522
 30
0.0
 11
512.827656
 21
344.819085
 31
0.0
  0
LINE
  5
6C4
330
6BA
100
AcDbEntity
  8
LC-003-005-----0
 62
     7
370
    25
100
AcDbLine
 10
508.017693
 20
340.574807
 30
0.0
 11
512.827656
 21
345.38477
 31
0.0
  0
LINE
  5
6C5
330
6BA
100
AcDbEntity
  8
LC-003-005-----0
 62
     7
370
    25
100
AcDbLine
 10
507.128292
 20
340.251091
 30
0.0
 11
512.827656
 21
345.950455
 31
0.0
  0
LINE
  5
6C6
330
6BA
100
AcDbEntity
  8
LC-003-005-----0
 62
     7
370
    25
100
AcDbLine
 10
506.238891
 20
339.927376
 30
0.0
 11
512.435481
 21
346.123966
 31
0.0
  0
LINE
  5
6C7
330
6BA
100
AcDbEntity
  8
LC-003-005-----0
 62
     7
370
    25
100
AcDbLine
 10
505.34949
 20
339.603661
 30
0.0
 11
511.869795
 21
346.123966
 31
0.0
  0
LINE
  5
6C8
330
6BA
100
AcDbEntity
  8
LC-003-005-----0
 62
     7
370
    25
100
AcDbLine
 10
504.460089
 20
339.279945
 30
0.0
 11
511.30411
 21
346.123966
 31
0.0
  0
LINE
  5
6C9
330
6BA
100
AcDbEntity
  8
LC-003-005-----0
 62
     7
370
    25
100
AcDbLine
 10
503.570688
 20
338.95623
 30
0.0
 11
510.738424
 21
346.123966
 31
0.0
  0
LINE
  5
6CA
330
6BA
100
AcDbEntity
  8
LC-003-005-----0
 62
     7
370
    25
100
AcDbLine
 10
502.827656
 20
338.778882
 30
0.0
 11
510.172739
 21
346.123966
 31
0.0
  0
LINE
  5
6CB
330
6BA
100
AcDbEntity
  8
LC-003-005-----0
 62
     7
370
    25
100
AcDbLine
 10
502.827656
 20
339.344568
 30
0.0
 11
509.543041
 21
346.059953
 31
0.0
  0
LINE
  5
6CC
330
6BA
100
AcDbEntity
  8
LC-003-005-----0
 62
     7
370
    25
100
AcDbLine
 10
502.827656
 20
339.910253
 30
0.0
 11
508.653632
 21
345.736229
 31
0.0
  0
LINE
  5
6CD
330
6BA
100
AcDbEntity
  8
LC-003-005-----0
 62
     7
370
    25
100
AcDbLine
 10
502.827656
 20
340.475939
 30
0.0
 11
507.764222
 21
345.412505
 31
0.0
  0
LINE
  5
6CE
330
6BA
100
AcDbEntity
  8
LC-003-005-----0
 62
     7
370
    25
100
AcDbLine
 10
502.827656
 20
341.041624
 30
0.0
 11
505.929324
 21
344.143292
 31
0.0
  0
LINE
  5
6CF
330
6BA
100
AcDbEntity
  8
LC-003-005-----0
 62
     7
370
    25
100
AcDbLine
 10
502.827656
 20
341.60731
 30
0.0
 11
505.126391
 21
343.906045
 31
0.0
  0
LINE
  5
6D0
330
6BA
100
AcDbEntity
  8
LC-003-005-----0
 62
     7
370
    25
100
AcDbLine
 10
502.827656
 20
342.172995
 30
0.0
 11
504.491204
 21
343.836543
 31
0.0
  0
LINE
  5
6D1
330
6BA
100
AcDbEntity
  8
LC-003-005-----0
 62
     7
370
    25
100
AcDbLine
 10
502.827656
 20
342.73868
 30
0.0
 11
503.859079
 21
343.770104
 31
0.0
  0
LINE
  5
6D2
330
6BA
100
AcDbEntity
  8
LC-003-005-----0
 62
     7
370
    25
100
AcDbLine
 10
502.827656
 20
343.304366
 30
0.0
 11
503.226955
 21
343.703666
 31
0.0
  0
ENDBLK
  5
6BC
330
6BA
100
AcDbEntity
  8
0
100
AcDbBlockEnd
  0
BLOCK
  5
6D7
330
6D6
100
AcDbEntity
  8
0
100
AcDbBlockBegin
  2
*X1671
 70
     1
 71
     0
 10
0.0
 20
0.0
 30
0.0
  3
*X1671
  1

  4
*X16
  0
LINE
  5
6D9
330
6D6
100
AcDbEntity
  8
LC-003-005-----0
 62
     7
370
    25
100
AcDbLine
 10
492.008478
 20
334.74793
 30
0.0
 11
492.827656
 21
335.567108
 31
0.0
  0
LINE
  5
6DA
330
6D6
100
AcDbEntity
  8
LC-003-005-----0
 62
     7
370
    25
100
AcDbLine
 10
491.119077
 20
334.424214
 30
0.0
 11
492.827656
 21
336.132793
 31
0.0
  0
LINE
  5
6DB
330
6D6
100
AcDbEntity
  8
LC-003-005-----0
 62
     7
370
    25
100
AcDbLine
 10
490.229676
 20
334.100499
 30
0.0
 11
492.827656
 21
336.698478
 31
0.0
  0
LINE
  5
6DC
330
6D6
100
AcDbEntity
  8
LC-003-005-----0
 62
     7
370
    25
100
AcDbLine
 10
489.340275
 20
333.776784
 30
0.0
 11
492.827656
 21
337.264164
 31
0.0
  0
LINE
  5
6DD
330
6D6
100
AcDbEntity
  8
LC-003-005-----0
 62
     7
370
    25
100
AcDbLine
 10
488.450875
 20
333.453068
 30
0.0
 11
492.827656
 21
337.829849
 31
0.0
  0
LINE
  5
6DE
330
6D6
100
AcDbEntity
  8
LC-003-005-----0
 62
     7
370
    25
100
AcDbLine
 10
487.561474
 20
333.129353
 30
0.0
 11
492.827656
 21
338.395535
 31
0.0
  0
LINE
  5
6DF
330
6D6
100
AcDbEntity
  8
LC-003-005-----0
 62
     7
370
    25
100
AcDbLine
 10
486.672073
 20
332.805637
 30
0.0
 11
492.827656
 21
338.96122
 31
0.0
  0
LINE
  5
6E0
330
6D6
100
AcDbEntity
  8
LC-003-005-----0
 62
     7
370
    25
100
AcDbLine
 10
486.044725
 20
332.743975
 30
0.0
 11
492.827656
 21
339.526906
 31
0.0
  0
LINE
  5
6E1
330
6D6
100
AcDbEntity
  8
LC-003-005-----0
 62
     7
370
    25
100
AcDbLine
 10
485.479039
 20
332.743975
 30
0.0
 11
492.644264
 21
339.9092
 31
0.0
  0
LINE
  5
6E2
330
6D6
100
AcDbEntity
  8
LC-003-005-----0
 62
     7
370
    25
100
AcDbLine
 10
484.913354
 20
332.743975
 30
0.0
 11
491.754855
 21
339.585476
 31
0.0
  0
LINE
  5
6E3
330
6D6
100
AcDbEntity
  8
LC-003-005-----0
 62
     7
370
    25
100
AcDbLine
 10
484.347669
 20
332.743975
 30
0.0
 11
490.865446
 21
339.261752
 31
0.0
  0
LINE
  5
6E4
330
6D6
100
AcDbEntity
  8
LC-003-005-----0
 62
     7
370
    25
100
AcDbLine
 10
483.781983
 20
332.743975
 30
0.0
 11
489.976036
 21
338.938028
 31
0.0
  0
LINE
  5
6E5
330
6D6
100
AcDbEntity
  8
LC-003-005-----0
 62
     7
370
    25
100
AcDbLine
 10
483.216298
 20
332.743975
 30
0.0
 11
489.086627
 21
338.614304
 31
0.0
  0
LINE
  5
6E6
330
6D6
100
AcDbEntity
  8
LC-003-005-----0
 62
     7
370
    25
100
AcDbLine
 10
482.827656
 20
332.921018
 30
0.0
 11
488.197218
 21
338.29058
 31
0.0
  0
LINE
  5
6E7
330
6D6
100
AcDbEntity
  8
LC-003-005-----0
 62
     7
370
    25
100
AcDbLine
 10
482.827656
 20
333.486704
 30
0.0
 11
487.307809
 21
337.966856
 31
0.0
  0
LINE
  5
6E8
330
6D6
100
AcDbEntity
  8
LC-003-005-----0
 62
     7
370
    25
100
AcDbLine
 10
482.827656
 20
334.052389
 30
0.0
 11
486.418399
 21
337.643132
 31
0.0
  0
LINE
  5
6E9
330
6D6
100
AcDbEntity
  8
LC-003-005-----0
 62
     7
370
    25
100
AcDbLine
 10
482.827656
 20
334.618074
 30
0.0
 11
485.583555
 21
337.373974
 31
0.0
  0
LINE
  5
6EA
330
6D6
100
AcDbEntity
  8
LC-003-005-----0
 62
     7
370
    25
100
AcDbLine
 10
482.827656
 20
335.18376
 30
0.0
 11
485.01787
 21
337.373974
 31
0.0
  0
LINE
  5
6EB
330
6D6
100
AcDbEntity
  8
LC-003-005-----0
 62
     7
370
    25
100
AcDbLine
 10
482.827656
 20
335.749445
 30
0.0
 11
484.452185
 21
337.373974
 31
0.0
  0
LINE
  5
6EC
330
6D6
100
AcDbEntity
  8
LC-003-005-----0
 62
     7
370
    25
100
AcDbLine
 10
482.827656
 20
336.315131
 30
0.0
 11
483.886499
 21
337.373974
 31
0.0
  0
LINE
  5
6ED
330
6D6
100
AcDbEntity
  8
LC-003-005-----0
 62
     7
370
    25
100
AcDbLine
 10
482.827656
 20
336.880816
 30
0.0
 11
483.320814
 21
337.373974
 31
0.0
  0
ENDBLK
  5
6D8
330
6D6
100
AcDbEntity
  8
0
100
AcDbBlockEnd
  0
BLOCK
  5
6FF
330
6F5
100
AcDbEntity
  8
0
100
AcDbBlockBegin
  2
*D72
 70
     1
 71
     0
 10
0.0
 20
0.0
 30
0.0
  3
*D72
  1

  0
LINE
  5
6F6
330
6F5
100
AcDbEntity
  8
LC-004-003-----0
 62
     2
370
    -2
100
AcDbLine
 10
132.82764
 20
341.423976
 30
0.0
 11
132.82764
 21
503.94
 31
0.0
  0
LINE
  5
6F7
330
6F5
100
AcDbEntity
  8
LC-004-003-----0
 62
     2
370
    -2
100
AcDbLine
 10
632.82764
 20
341.423976
 30
0.0
 11
632.82764
 21
503.94
 31
0.0
  0
LINE
  5
6F8
330
6F5
100
AcDbEntity
  8
LC-004-003-----0
 62
     2
370
    -2
100
AcDbLine
 10
160.82764
 20
500.34
 30
0.0
 11
604.82764
 21
500.34
 31
0.0
  0
SOLID
  5
6F9
330
6F5
100
AcDbEntity
  8
LC-004-003-----0
 62
     2
100
AcDbTrace
 10
160.82764
 20
505.006667
 30
0.0
 11
160.82764
 21
495.673333
 31
0.0
 12
132.82764
 22
500.34
 32
0.0
 13
132.82764
 23
500.34
 33
0.0
  0
SOLID
  5
6FA
330
6F5
100
AcDbEntity
  8
LC-004-003-----0
 62
     2
100
AcDbTrace
 10
604.82764
 20
495.673333
 30
0.0
 11
604.82764
 21
505.006667
 31
0.0
 12
632.82764
 22
500.34
 32
0.0
 13
632.82764
 23
500.34
 33
0.0
  0
MTEXT
  5
6FB
330
6F5
100
AcDbEntity
  8
LC-004-003-----0
 62
     2
100
AcDbMText
 10
380.866382
 20
531.14
 30
0.0
 40
28.0
 41
0.0
 71
     5
 72
     1
  1
\A1;500
  7
LCTX15-400-0-0pDIN-Schrift
 73
     1
 44
1.0
  0
POINT
  5
6FC
330
6F5
100
AcDbEntity
  8
Defpoints
 62
     0
100
AcDbPoint
 10
132.82764
 20
341.423976
 30
0.0
  0
POINT
  5
6FD
330
6F5
100
AcDbEntity
  8
Defpoints
 62
     0
100
AcDbPoint
 10
632.82764
 20
341.423976
 30
0.0
  0
POINT
  5
6FE
330
6F5
100
AcDbEntity
  8
Defpoints
 62
     0
100
AcDbPoint
 10
632.82764
 20
500.34
 30
0.0
  0
ENDBLK
  5
700
330
6F5
100
AcDbEntity
  8
0
100
AcDbBlockEnd
  0
BLOCK
  5
70C
330
702
100
AcDbEntity
  8
0
100
AcDbBlockBegin
  2
*D73
 70
     1
 71
     0
 10
0.0
 20
0.0
 30
0.0
  3
*D73
  1

  0
LINE
  5
703
330
702
100
AcDbEntity
  8
LC-004-003-----0
 62
     2
370
    -2
100
AcDbLine
 10
205.827639
 20
338.42397
 30
0.0
 11
205.827639
 21
445.198321
 31
0.0
  0
LINE
  5
704
330
702
100
AcDbEntity
  8
LC-004-003-----0
 62
     2
370
    -2
100
AcDbLine
 10
559.827641
 20
338.42397
 30
0.0
 11
559.827641
 21
445.198321
 31
0.0
  0
LINE
  5
705
330
702
100
AcDbEntity
  8
LC-004-003-----0
 62
     2
370
    -2
100
AcDbLine
 10
233.827639
 20
441.598321
 30
0.0
 11
531.827641
 21
441.598321
 31
0.0
  0
SOLID
  5
706
330
702
100
AcDbEntity
  8
LC-004-003-----0
 62
     2
100
AcDbTrace
 10
233.827639
 20
446.264988
 30
0.0
 11
233.827639
 21
436.931654
 31
0.0
 12
205.827639
 22
441.598321
 32
0.0
 13
205.827639
 23
441.598321
 33
0.0
  0
SOLID
  5
707
330
702
100
AcDbEntity
  8
LC-004-003-----0
 62
     2
100
AcDbTrace
 10
531.827641
 20
436.931654
 30
0.0
 11
531.827641
 21
446.264988
 31
0.0
 12
559.827641
 22
441.598321
 32
0.0
 13
559.827641
 23
441.598321
 33
0.0
  0
MTEXT
  5
708
330
702
100
AcDbEntity
  8
LC-004-003-----0
 62
     2
100
AcDbMText
 10
380.866382
 20
472.398321
 30
0.0
 40
28.0
 41
0.0
 71
     5
 72
     1
  1
%%c\A1;354
  7
LCTX15-400-0-0pDIN-Schrift
 73
     1
 44
1.0
  0
POINT
  5
709
330
702
100
AcDbEntity
  8
Defpoints
 62
     0
100
AcDbPoint
 10
205.827639
 20
338.42397
 30
0.0
  0
POINT
  5
70A
330
702
100
AcDbEntity
  8
Defpoints
 62
     0
100
AcDbPoint
 10
559.827641
 20
338.42397
 30
0.0
  0
POINT
  5
70B
330
702
100
AcDbEntity
  8
Defpoints
 62
     0
100
AcDbPoint
 10
559.827641
 20
441.598321
 30
0.0
  0
ENDBLK
  5
70D
330
702
100
AcDbEntity
  8
0
100
AcDbBlockEnd
  0
BLOCK
  5
719
330
70F
100
AcDbEntity
  8
0
100
AcDbBlockBegin
  2
*D74
 70
     1
 71
     0
 10
0.0
 20
0.0
 30
0.0
  3
*D74
  1

  0
LINE
  5
710
330
70F
100
AcDbEntity
  8
LC-004-003-----0
 62
     2
370
    -2
100
AcDbLine
 10
302.827642
 20
249.423968
 30
0.0
 11
302.827642
 21
66.365976
 31
0.0
  0
LINE
  5
711
330
70F
100
AcDbEntity
  8
LC-004-003-----0
 62
     2
370
    -2
100
AcDbLine
 10
462.827638
 20
249.423968
 30
0.0
 11
462.827638
 21
66.365976
 31
0.0
  0
LINE
  5
712
330
70F
100
AcDbEntity
  8
LC-004-003-----0
 62
     2
370
    -2
100
AcDbLine
 10
330.827642
 20
69.965976
 30
0.0
 11
434.827638
 21
69.965976
 31
0.0
  0
SOLID
  5
713
330
70F
100
AcDbEntity
  8
LC-004-003-----0
 62
     2
100
AcDbTrace
 10
330.827642
 20
74.632642
 30
0.0
 11
330.827642
 21
65.299309
 31
0.0
 12
302.827642
 22
69.965976
 32
0.0
 13
302.827642
 23
69.965976
 33
0.0
  0
SOLID
  5
714
330
70F
100
AcDbEntity
  8
LC-004-003-----0
 62
     2
100
AcDbTrace
 10
434.827638
 20
65.299309
 30
0.0
 11
434.827638
 21
74.632642
 31
0.0
 12
462.827638
 22
69.965976
 32
0.0
 13
462.827638
 23
69.965976
 33
0.0
  0
MTEXT
  5
715
330
70F
100
AcDbEntity
  8
LC-004-003-----0
 62
     2
100
AcDbMText
 10
370.295669
 20
100.765976
 30
0.0
 40
28.0
 41
0.0
 71
     5
 72
     1
  1
%%c\A1;160
  7
LCTX15-400-0-0pDIN-Schrift
 73
     1
 44
1.0
  0
POINT
  5
716
330
70F
100
AcDbEntity
  8
Defpoints
 62
     0
100
AcDbPoint
 10
302.827642
 20
249.423968
 30
0.0
  0
POINT
  5
717
330
70F
100
AcDbEntity
  8
Defpoints
 62
     0
100
AcDbPoint
 10
462.827638
 20
249.423968
 30
0.0
  0
POINT
  5
718
330
70F
100
AcDbEntity
  8
Defpoints
 62
     0
100
AcDbPoint
 10
462.827638
 20
69.965976
 30
0.0
  0
ENDBLK
  5
71A
330
70F
100
AcDbEntity
  8
0
100
AcDbBlockEnd
  0
BLOCK
  5
726
330
71C
100
AcDbEntity
  8
0
100
AcDbBlockBegin
  2
*D75
 70
     1
 71
     0
 10
0.0
 20
0.0
 30
0.0
  3
*D75
  1

  0
LINE
  5
71D
330
71C
100
AcDbEntity
  8
LC-004-003-----0
 62
     2
370
    -2
100
AcDbLine
 10
132.82764
 20
341.423976
 30
0.0
 11
191.137282
 21
341.423976
 31
0.0
  0
LINE
  5
71E
330
71C
100
AcDbEntity
  8
LC-004-003-----0
 62
     2
370
    -2
100
AcDbLine
 10
313.608929
 20
239.423968
 30
0.0
 11
183.937282
 21
239.423968
 31
0.0
  0
LINE
  5
71F
330
71C
100
AcDbEntity
  8
LC-004-003-----0
 62
     2
370
    -2
100
AcDbLine
 10
187.537282
 20
313.423976
 30
0.0
 11
187.537282
 21
267.423968
 31
0.0
  0
SOLID
  5
720
330
71C
100
AcDbEntity
  8
LC-004-003-----0
 62
     2
100
AcDbTrace
 10
192.203948
 20
313.423976
 30
0.0
 11
182.870615
 21
313.423976
 31
0.0
 12
187.537282
 22
341.423976
 32
0.0
 13
187.537282
 23
341.423976
 33
0.0
  0
SOLID
  5
721
330
71C
100
AcDbEntity
  8
LC-004-003-----0
 62
     2
100
AcDbTrace
 10
182.870615
 20
267.423968
 30
0.0
 11
192.203948
 21
267.423968
 31
0.0
 12
187.537282
 22
239.423968
 32
0.0
 13
187.537282
 23
239.423968
 33
0.0
  0
MTEXT
  5
722
330
71C
100
AcDbEntity
  8
LC-004-003-----0
 62
     2
100
AcDbMText
 10
156.737282
 20
289.099966
 30
0.0
 40
28.0
 41
0.0
 71
     5
 72
     1
  1
\A1;102
  7
LCTX15-400-0-0pDIN-Schrift
 11
6.123031769111886E-17
 21
1.0
 31
0.0
 73
     1
 44
1.0
  0
POINT
  5
723
330
71C
100
AcDbEntity
  8
Defpoints
 62
     0
100
AcDbPoint
 10
132.82764
 20
341.423976
 30
0.0
  0
POINT
  5
724
330
71C
100
AcDbEntity
  8
Defpoints
 62
     0
100
AcDbPoint
 10
313.608929
 20
239.423968
 30
0.0
  0
POINT
  5
725
330
71C
100
AcDbEntity
  8
Defpoints
 62
     0
100
AcDbPoint
 10
187.537282
 20
239.423968
 30
0.0
  0
ENDBLK
  5
727
330
71C
100
AcDbEntity
  8
0
100
AcDbBlockEnd
  0
BLOCK
  5
733
330
729
100
AcDbEntity
  8
0
100
AcDbBlockBegin
  2
*D76
 70
     1
 71
     0
 10
0.0
 20
0.0
 30
0.0
  3
*D76
  1

  0
LINE
  5
72A
330
729
100
AcDbEntity
  8
LC-004-003-----0
 62
     2
370
    -2
100
AcDbLine
 10
310.827648
 20
239.423977
 30
0.0
 11
239.397345
 21
239.423977
 31
0.0
  0
LINE
  5
72B
330
729
100
AcDbEntity
  8
LC-004-003-----0
 62
     2
370
    -2
100
AcDbLine
 10
329.03342
 20
173.423978
 30
0.0
 11
239.397345
 21
173.423978
 31
0.0
  0
LINE
  5
72C
330
729
100
AcDbEntity
  8
LC-004-003-----0
 62
     2
370
    -2
100
AcDbLine
 10
242.997345
 20
211.423977
 30
0.0
 11
242.997345
 21
201.423978
 31
0.0
  0
SOLID
  5
72D
330
729
100
AcDbEntity
  8
LC-004-003-----0
 62
     2
100
AcDbTrace
 10
247.664011
 20
211.423977
 30
0.0
 11
238.330678
 21
211.423977
 31
0.0
 12
242.997345
 22
239.423977
 32
0.0
 13
242.997345
 23
239.423977
 33
0.0
  0
SOLID
  5
72E
330
729
100
AcDbEntity
  8
LC-004-003-----0
 62
     2
100
AcDbTrace
 10
238.330678
 20
201.423978
 30
0.0
 11
247.664011
 21
201.423978
 31
0.0
 12
242.997345
 22
173.423978
 32
0.0
 13
242.997345
 23
173.423978
 33
0.0
  0
MTEXT
  5
72F
330
729
100
AcDbEntity
  8
LC-004-003-----0
 62
     2
100
AcDbMText
 10
212.197345
 20
206.172225
 30
0.0
 40
28.0
 41
0.0
 71
     5
 72
     1
  1
\A1;66
  7
LCTX15-400-0-0pDIN-Schrift
 11
6.123031769111886E-17
 21
1.0
 31
0.0
 73
     1
 44
1.0
  0
POINT
  5
730
330
729
100
AcDbEntity
  8
Defpoints
 62
     0
100
AcDbPoint
 10
310.827648
 20
239.423977
 30
0.0
  0
POINT
  5
731
330
729
100
AcDbEntity
  8
Defpoints
 62
     0
100
AcDbPoint
 10
329.03342
 20
173.423978
 30
0.0
  0
POINT
  5
732
330
729
100
AcDbEntity
  8
Defpoints
 62
     0
100
AcDbPoint
 10
242.997345
 20
173.423978
 30
0.0
  0
ENDBLK
  5
734
330
729
100
AcDbEntity
  8
0
100
AcDbBlockEnd
  0
BLOCK
  5
740
330
736
100
AcDbEntity
  8
0
100
AcDbBlockBegin
  2
*D77
 70
     1
 71
     0
 10
0.0
 20
0.0
 30
0.0
  3
*D77
  1

  0
LINE
  5
737
330
736
100
AcDbEntity
  8
LC-004-003-----0
 62
     2
370
    -2
100
AcDbLine
 10
327.827648
 20
177.923976
 30
0.0
 11
327.827648
 21
124.404164
 31
0.0
  0
LINE
  5
738
330
736
100
AcDbEntity
  8
LC-004-003-----0
 62
     2
370
    -2
100
AcDbLine
 10
437.827647
 20
177.923976
 30
0.0
 11
437.827647
 21
124.404164
 31
0.0
  0
LINE
  5
739
330
736
100
AcDbEntity
  8
LC-004-003-----0
 62
     2
370
    -2
100
AcDbLine
 10
355.827648
 20
128.004164
 30
0.0
 11
409.827647
 21
128.004164
 31
0.0
  0
SOLID
  5
73A
330
736
100
AcDbEntity
  8
LC-004-003-----0
 62
     2
100
AcDbTrace
 10
355.827648
 20
132.670831
 30
0.0
 11
355.827648
 21
123.337497
 31
0.0
 12
327.827648
 22
128.004164
 32
0.0
 13
327.827648
 23
128.004164
 33
0.0
  0
SOLID
  5
73B
330
736
100
AcDbEntity
  8
LC-004-003-----0
 62
     2
100
AcDbTrace
 10
409.827647
 20
123.337497
 30
0.0
 11
409.827647
 21
132.670831
 31
0.0
 12
437.827647
 22
128.004164
 32
0.0
 13
437.827647
 23
128.004164
 33
0.0
  0
MTEXT
  5
73C
330
736
100
AcDbEntity
  8
LC-004-003-----0
 62
     2
100
AcDbMText
 10
382.537522
 20
158.804164
 30
0.0
 40
28.0
 41
0.0
 71
     5
 72
     1
  1
\A1;DN100
  7
LCTX15-400-0-0pDIN-Schrift
 73
     1
 44
1.0
  0
POINT
  5
73D
330
736
100
AcDbEntity
  8
Defpoints
 62
     0
100
AcDbPoint
 10
327.827648
 20
177.923976
 30
0.0
  0
POINT
  5
73E
330
736
100
AcDbEntity
  8
Defpoints
 62
     0
100
AcDbPoint
 10
437.827647
 20
177.923976
 30
0.0
  0
POINT
  5
73F
330
736
100
AcDbEntity
  8
Defpoints
 62
     0
100
AcDbPoint
 10
437.827647
 20
128.004164
 30
0.0
  0
ENDBLK
  5
741
330
736
100
AcDbEntity
  8
0
100
AcDbBlockEnd
  0
ENDSEC
  0
SECTION
  2
ENTITIES
  0
ARC
  5
32
330
1F
100
AcDbEntity
  8
LC-001-100-D00-0
 62
     7
370
    50
100
AcDbCircle
 10
429.827648
 20
341.642853
 30
0.0
 40
6.820236432851774
100
AcDbArc
 50
116.493736
 51
123.008786
  0
ARC
  5
33
330
1F
100
AcDbEntity
  8
LC-001-100-D00-0
 62
     7
370
    50
100
AcDbCircle
 10
426.874361
 20
347.567853
 30
0.0
 40
0.1999999999999318
100
AcDbArc
 50
90.0
 51
116.493736
  0
INSERT
  5
3F
330
1F
100
AcDbEntity
  8
LC-001-100-D00-0
 62
     7
370
    50
100
AcDbBlockReference
  2
POLY1
 10
0.0
 20
0.0
 30
0.0
  0
INSERT
  5
4B
330
1F
100
AcDbEntity
  8
LC-001-100-D00-0
 62
     7
370
    50
100
AcDbBlockReference
  2
POLY2
 10
0.0
 20
0.0
 30
0.0
  0
INSERT
  5
57
330
1F
100
AcDbEntity
  8
LC-001-100-D00-0
 62
     7
370
    50
100
AcDbBlockReference
  2
POLY3
 10
0.0
 20
0.0
 30
0.0
  0
INSERT
  5
63
330
1F
100
AcDbEntity
  8
LC-001-100-D00-0
 62
     7
370
    50
100
AcDbBlockReference
  2
POLY4
 10
0.0
 20
0.0
 30
0.0
  0
INSERT
  5
6F
330
1F
100
AcDbEntity
  8
LC-001-100-D00-0
 62
     7
370
    50
100
AcDbBlockReference
  2
POLY5
 10
0.0
 20
0.0
 30
0.0
  0
INSERT
  5
7B
330
1F
100
AcDbEntity
  8
LC-001-100-D00-0
 62
     7
370
    50
100
AcDbBlockReference
  2
POLY6
 10
0.0
 20
0.0
 30
0.0
  0
INSERT
  5
87
330
1F
100
AcDbEntity
  8
LC-001-100-D00-0
 62
     7
370
    50
100
AcDbBlockReference
  2
POLY7
 10
0.0
 20
0.0
 30
0.0
  0
INSERT
  5
93
330
1F
100
AcDbEntity
  8
LC-001-100-D00-0
 62
     7
370
    50
100
AcDbBlockReference
  2
POLY8
 10
0.0
 20
0.0
 30
0.0
  0
INSERT
  5
9F
330
1F
100
AcDbEntity
  8
LC-001-100-D00-0
 62
     7
370
    50
100
AcDbBlockReference
  2
POLY9
 10
0.0
 20
0.0
 30
0.0
  0
INSERT
  5
AB
330
1F
100
AcDbEntity
  8
LC-001-100-D00-0
 62
     7
370
    50
100
AcDbBlockReference
  2
POLY10
 10
0.0
 20
0.0
 30
0.0
  0
LINE
  5
AC
330
1F
100
AcDbEntity
  8
LC-001-100-D00-0
 62
     7
370
    50
100
AcDbLine
 10
335.892387
 20
342.780354
 30
0.0
 11
335.892387
 21
342.767852
 31
0.0
  0
LINE
  5
AD
330
1F
100
AcDbEntity
  8
LC-001-100-D00-0
 62
     7
370
    50
100
AcDbLine
 10
426.220369
 20
346.767852
 30
0.0
 11
430.835777
 21
346.767852
 31
0.0
  0
ARC
  5
AE
330
1F
100
AcDbEntity
  8
LC-001-100-D00-0
 62
     7
370
    50
100
AcDbCircle
 10
430.644807
 20
344.969324
 30
0.0
 40
3.909123549999866
100
AcDbArc
 50
134.722413
 51
143.07819
  0
ARC
  5
AF
330
1F
100
AcDbEntity
  8
LC-001-100-D00-0
 62
     7
370
    50
100
AcDbCircle
 10
427.952648
 20
343.064346
 30
0.0
 40
4.275269783586193
100
AcDbArc
 50
84.186935
 51
95.813065
  0
ARC
  5
B0
330
1F
100
AcDbEntity
  8
LC-001-100-D00-0
 62
     7
370
    50
100
AcDbCircle
 10
431.510666
 20
344.96947
 30
0.0
 40
3.908902739490787
100
AcDbArc
 50
134.722177
 51
143.078426
  0
LINE
  5
B1
330
1F
100
AcDbEntity
  8
LC-001-100-D00-0
 62
     7
370
    50
100
AcDbLine
 10
428.805333
 20
347.767854
 30
0.0
 11
430.578411
 21
347.767854
 31
0.0
  0
INSERT
  5
BD
330
1F
100
AcDbEntity
  8
LC-001-100-D00-0
 62
     7
370
    50
100
AcDbBlockReference
  2
POLY11
 10
0.0
 20
0.0
 30
0.0
  0
LINE
  5
BE
330
1F
100
AcDbEntity
  8
LC-001-100-D00-0
 62
     7
370
    50
100
AcDbLine
 10
428.507919
 20
347.47185
 30
0.0
 11
428.507919
 21
347.767854
 31
0.0
  0
INSERT
  5
CA
330
1F
100
AcDbEntity
  8
LC-001-100-D00-0
 62
     7
370
    50
100
AcDbBlockReference
  2
POLY12
 10
0.0
 20
0.0
 30
0.0
  0
LINE
  5
CB
330
1F
100
AcDbEntity
  8
LC-001-100-D00-0
 62
     7
370
    50
100
AcDbLine
 10
428.507919
 20
347.767854
 30
0.0
 11
427.939308
 21
347.767854
 31
0.0
  0
LINE
  5
CC
330
1F
100
AcDbEntity
  8
LC-001-100-D00-0
 62
     7
370
    50
100
AcDbLine
 10
426.874361
 20
347.767854
 30
0.0
 11
427.939308
 21
347.767854
 31
0.0
  0
LINE
  5
CD
330
1F
100
AcDbEntity
  8
LC-001-100-D00-0
 62
     7
370
    50
100
AcDbLine
 10
428.805333
 20
347.767854
 30
0.0
 11
428.507919
 21
347.767854
 31
0.0
  0
INSERT
  5
D4
330
1F
100
AcDbEntity
  8
LC-001-100-D00-0
 62
     7
370
    50
100
AcDbBlockReference
  2
KLON1
 10
0.0
 20
0.0
 30
0.0
  0
INSERT
  5
DB
330
1F
100
AcDbEntity
  8
LC-001-100-D00-0
 62
     7
370
    50
100
AcDbBlockReference
  2
KLON2
 10
0.0
 20
0.0
 30
0.0
  0
INSERT
  5
E7
330
1F
100
AcDbEntity
  8
LC-001-100-D00-0
 62
     7
370
    50
100
AcDbBlockReference
  2
POLY13
 10
0.0
 20
0.0
 30
0.0
  0
LINE
  5
E8
330
1F
100
AcDbEntity
  8
LC-001-100-D00-0
 62
     7
370
    50
100
AcDbLine
 10
291.866072
 20
338.777112
 30
0.0
 11
292.077646
 21
338.612737
 31
0.0
  0
INSERT
  5
EF
330
1F
100
AcDbEntity
  8
LC-001-100-D00-0
 62
     7
370
    50
100
AcDbBlockReference
  2
KLON3
 10
0.0
 20
0.0
 30
0.0
  0
INSERT
  5
F6
330
1F
100
AcDbEntity
  8
LC-001-100-D00-0
 62
     7
370
    50
100
AcDbBlockReference
  2
KLON4
 10
0.0
 20
0.0
 30
0.0
  0
INSERT
  5
102
330
1F
100
AcDbEntity
  8
LC-001-100-D00-0
 62
     7
370
    50
100
AcDbBlockReference
  2
POLY14
 10
0.0
 20
0.0
 30
0.0
  0
LINE
  5
103
330
1F
100
AcDbEntity
  8
LC-001-100-D00-0
 62
     7
370
    50
100
AcDbLine
 10
291.866072
 20
335.777114
 30
0.0
 11
292.077646
 21
335.612731
 31
0.0
  0
INSERT
  5
10A
330
1F
100
AcDbEntity
  8
LC-001-100-D00-0
 62
     7
370
    50
100
AcDbBlockReference
  2
KLON5
 10
0.0
 20
0.0
 30
0.0
  0
INSERT
  5
111
330
1F
100
AcDbEntity
  8
LC-001-100-D00-0
 62
     7
370
    50
100
AcDbBlockReference
  2
KLON6
 10
0.0
 20
0.0
 30
0.0
  0
INSERT
  5
118
330
1F
100
AcDbEntity
  8
LC-001-100-D00-0
 62
     7
370
    50
100
AcDbBlockReference
  2
KLON7
 10
0.0
 20
0.0
 30
0.0
  0
INSERT
  5
11F
330
1F
100
AcDbEntity
  8
LC-001-100-D00-0
 62
     7
370
    50
100
AcDbBlockReference
  2
KLON8
 10
0.0
 20
0.0
 30
0.0
  0
INSERT
  5
12B
330
1F
100
AcDbEntity
  8
LC-001-100-D00-0
 62
     7
370
    50
100
AcDbBlockReference
  2
POLY15
 10
0.0
 20
0.0
 30
0.0
  0
LINE
  5
12C
330
1F
100
AcDbEntity
  8
LC-001-100-D00-0
 62
     7
370
    50
100
AcDbLine
 10
291.866072
 20
341.777111
 30
0.0
 11
292.077646
 21
341.612736
 31
0.0
  0
INSERT
  5
133
330
1F
100
AcDbEntity
  8
LC-001-100-D00-0
 62
     7
370
    50
100
AcDbBlockReference
  2
KLON9
 10
0.0
 20
0.0
 30
0.0
  0
INSERT
  5
13A
330
1F
100
AcDbEntity
  8
LC-001-100-D00-0
 62
     7
370
    50
100
AcDbBlockReference
  2
KLON10
 10
0.0
 20
0.0
 30
0.0
  0
INSERT
  5
146
330
1F
100
AcDbEntity
  8
LC-001-100-D00-0
 62
     7
370
    50
100
AcDbBlockReference
  2
POLY16
 10
0.0
 20
0.0
 30
0.0
  0
LINE
  5
147
330
1F
100
AcDbEntity
  8
LC-001-100-D00-0
 62
     7
370
    50
100
AcDbLine
 10
290.827647
 20
330.263445
 30
0.0
 11
290.827647
 21
331.962029
 31
0.0
  0
LINE
  5
148
330
1F
100
AcDbEntity
  8
LC-001-100-D00-0
 62
     7
370
    50
100
AcDbLine
 10
286.827647
 20
333.462024
 30
0.0
 11
286.827647
 21
331.763441
 31
0.0
  0
LINE
  5
149
330
1F
100
AcDbEntity
  8
LC-001-100-D00-0
 62
     7
370
    50
100
AcDbLine
 10
290.601083
 20
345.76785
 30
0.0
 11
290.601083
 21
346.267851
 31
0.0
  0
LINE
  5
14A
330
1F
100
AcDbEntity
  8
LC-001-100-D00-0
 62
     7
370
    50
100
AcDbLine
 10
292.577647
 20
346.267851
 30
0.0
 11
290.601083
 21
346.267851
 31
0.0
  0
LINE
  5
14B
330
1F
100
AcDbEntity
  8
LC-001-100-D00-0
 62
     7
370
    50
100
AcDbLine
 10
292.577647
 20
346.267851
 30
0.0
 11
292.577647
 21
347.339617
 31
0.0
  0
ARC
  5
14C
330
1F
100
AcDbEntity
  8
LC-001-100-D00-0
 62
     7
370
    50
100
AcDbCircle
 10
288.827648
 20
341.642853
 30
0.0
 40
6.82023643285201
100
AcDbArc
 50
48.715289
 51
56.644353
  0
LINE
  5
14D
330
1F
100
AcDbEntity
  8
LC-001-100-D00-0
 62
     7
370
    50
100
AcDbLine
 10
293.877647
 20
346.767852
 30
0.0
 11
293.327645
 21
346.767852
 31
0.0
  0
ARC
  5
14E
330
1F
100
AcDbEntity
  8
LC-001-100-D00-0
 62
     7
370
    50
100
AcDbCircle
 10
293.877648
 20
346.567853
 30
0.0
 40
0.2000000000000455
100
AcDbArc
 50
0.0
 51
90.0
  0
LINE
  5
14F
330
1F
100
AcDbEntity
  8
LC-001-100-D00-0
 62
     7
370
    50
100
AcDbLine
 10
294.07765
 20
343.767854
 30
0.0
 11
294.07765
 21
346.567856
 31
0.0
  0
LINE
  5
150
330
1F
100
AcDbEntity
  8
LC-001-100-D00-0
 62
     7
370
    50
100
AcDbLine
 10
290.827647
 20
343.767854
 30
0.0
 11
294.07765
 21
343.767854
 31
0.0
  0
LINE
  5
151
330
1F
100
AcDbEntity
  8
LC-001-100-D00-0
 62
     7
370
    50
100
AcDbLine
 10
290.827647
 20
342.26344
 30
0.0
 11
290.827647
 21
343.767854
 31
0.0
  0
INSERT
  5
158
330
1F
100
AcDbEntity
  8
LC-001-100-D00-0
 62
     7
370
    50
100
AcDbBlockReference
  2
KLON11
 10
0.0
 20
0.0
 30
0.0
  0
LINE
  5
159
330
1F
100
AcDbEntity
  8
LC-001-100-D00-0
 62
     7
370
    50
100
AcDbLine
 10
290.827647
 20
339.263441
 30
0.0
 11
290.827647
 21
340.962025
 31
0.0
  0
INSERT
  5
160
330
1F
100
AcDbEntity
  8
LC-001-100-D00-0
 62
     7
370
    50
100
AcDbBlockReference
  2
KLON12
 10
0.0
 20
0.0
 30
0.0
  0
LINE
  5
161
330
1F
100
AcDbEntity
  8
LC-001-100-D00-0
 62
     7
370
    50
100
AcDbLine
 10
290.827647
 20
336.263443
 30
0.0
 11
290.827647
 21
337.962026
 31
0.0
  0
INSERT
  5
168
330
1F
100
AcDbEntity
  8
LC-001-100-D00-0
 62
     7
370
    50
100
AcDbBlockReference
  2
KLON13
 10
0.0
 20
0.0
 30
0.0
  0
LINE
  5
169
330
1F
100
AcDbEntity
  8
LC-001-100-D00-0
 62
     7
370
    50
100
AcDbLine
 10
290.827647
 20
333.263444
 30
0.0
 11
290.827647
 21
334.962027
 31
0.0
  0
INSERT
  5
170
330
1F
100
AcDbEntity
  8
LC-001-100-D00-0
 62
     7
370
    50
100
AcDbBlockReference
  2
KLON14
 10
0.0
 20
0.0
 30
0.0
  0
INSERT
  5
177
330
1F
100
AcDbEntity
  8
LC-001-100-D00-0
 62
     7
370
    50
100
AcDbBlockReference
  2
KLON15
 10
0.0
 20
0.0
 30
0.0
  0
LINE
  5
178
330
1F
100
AcDbEntity
  8
LC-001-100-D00-0
 62
     7
370
    50
100
AcDbLine
 10
290.827647
 20
328.168268
 30
0.0
 11
290.827647
 21
328.962023
 31
0.0
  0
LINE
  5
179
330
1F
100
AcDbEntity
  8
LC-001-100-D00-0
 62
     7
370
    50
100
AcDbLine
 10
288.827651
 20
326.767857
 30
0.0
 11
290.827647
 21
328.168268
 31
0.0
  0
LINE
  5
17A
330
1F
100
AcDbEntity
  8
LC-001-100-D00-0
 62
     7
370
    50
100
AcDbLine
 10
286.827647
 20
328.168268
 30
0.0
 11
288.827651
 21
326.767857
 31
0.0
  0
LINE
  5
17B
330
1F
100
AcDbEntity
  8
LC-001-100-D00-0
 62
     7
370
    50
100
AcDbLine
 10
286.827647
 20
330.462026
 30
0.0
 11
286.827647
 21
328.168268
 31
0.0
  0
INSERT
  5
182
330
1F
100
AcDbEntity
  8
LC-001-100-D00-0
 62
     7
370
    50
100
AcDbBlockReference
  2
KLON16
 10
0.0
 20
0.0
 30
0.0
  0
INSERT
  5
189
330
1F
100
AcDbEntity
  8
LC-001-100-D00-0
 62
     7
370
    50
100
AcDbBlockReference
  2
KLON17
 10
0.0
 20
0.0
 30
0.0
  0
LINE
  5
18A
330
1F
100
AcDbEntity
  8
LC-001-100-D00-0
 62
     7
370
    50
100
AcDbLine
 10
286.827647
 20
336.462023
 30
0.0
 11
286.827647
 21
334.763447
 31
0.0
  0
INSERT
  5
191
330
1F
100
AcDbEntity
  8
LC-001-100-D00-0
 62
     7
370
    50
100
AcDbBlockReference
  2
KLON18
 10
0.0
 20
0.0
 30
0.0
  0
LINE
  5
192
330
1F
100
AcDbEntity
  8
LC-001-100-D00-0
 62
     7
370
    50
100
AcDbLine
 10
286.827647
 20
339.462029
 30
0.0
 11
286.827647
 21
337.763446
 31
0.0
  0
INSERT
  5
199
330
1F
100
AcDbEntity
  8
LC-001-100-D00-0
 62
     7
370
    50
100
AcDbBlockReference
  2
KLON19
 10
0.0
 20
0.0
 30
0.0
  0
LINE
  5
19A
330
1F
100
AcDbEntity
  8
LC-001-100-D00-0
 62
     7
370
    50
100
AcDbLine
 10
286.827647
 20
342.462028
 30
0.0
 11
286.827647
 21
340.763444
 31
0.0
  0
INSERT
  5
1A1
330
1F
100
AcDbEntity
  8
LC-001-100-D00-0
 62
     7
370
    50
100
AcDbBlockReference
  2
KLON20
 10
0.0
 20
0.0
 30
0.0
  0
LINE
  5
1A2
330
1F
100
AcDbEntity
  8
LC-001-100-D00-0
 62
     7
370
    50
100
AcDbLine
 10
286.827647
 20
343.767854
 30
0.0
 11
286.827647
 21
343.763443
 31
0.0
  0
LINE
  5
1A3
330
1F
100
AcDbEntity
  8
LC-001-100-D00-0
 62
     7
370
    50
100
AcDbLine
 10
283.577651
 20
343.767854
 30
0.0
 11
286.827647
 21
343.767854
 31
0.0
  0
LINE
  5
1A4
330
1F
100
AcDbEntity
  8
LC-001-100-D00-0
 62
     7
370
    50
100
AcDbLine
 10
283.577651
 20
346.567856
 30
0.0
 11
283.577651
 21
343.767854
 31
0.0
  0
ARC
  5
1A5
330
1F
100
AcDbEntity
  8
LC-001-100-D00-0
 62
     7
370
    50
100
AcDbCircle
 10
283.777648
 20
346.567853
 30
0.0
 40
0.2000000000000455
100
AcDbArc
 50
90.0
 51
180.0
  0
LINE
  5
1A6
330
1F
100
AcDbEntity
  8
LC-001-100-D00-0
 62
     7
370
    50
100
AcDbLine
 10
284.327649
 20
346.767852
 30
0.0
 11
283.777647
 21
346.767852
 31
0.0
  0
ARC
  5
1A7
330
1F
100
AcDbEntity
  8
LC-001-100-D00-0
 62
     7
370
    50
100
AcDbCircle
 10
288.827648
 20
341.642853
 30
0.0
 40
6.820236432851915
100
AcDbArc
 50
123.355647
 51
131.284711
  0
LINE
  5
1A8
330
1F
100
AcDbEntity
  8
LC-001-100-D00-0
 62
     7
370
    50
100
AcDbLine
 10
285.077647
 20
347.339617
 30
0.0
 11
285.077647
 21
346.267851
 31
0.0
  0
LINE
  5
1A9
330
1F
100
AcDbEntity
  8
LC-001-100-D00-0
 62
     7
370
    50
100
AcDbLine
 10
287.054219
 20
346.267851
 30
0.0
 11
285.077647
 21
346.267851
 31
0.0
  0
LINE
  5
1AA
330
1F
100
AcDbEntity
  8
LC-001-100-D00-0
 62
     7
370
    50
100
AcDbLine
 10
287.054219
 20
345.76785
 30
0.0
 11
287.054219
 21
346.267851
 31
0.0
  0
LINE
  5
1AB
330
1F
100
AcDbEntity
  8
LC-001-100-D00-0
 62
     7
370
    50
100
AcDbLine
 10
290.601083
 20
345.76785
 30
0.0
 11
287.054219
 21
345.76785
 31
0.0
  0
ARC
  5
1AC
330
1F
100
AcDbEntity
  8
LC-001-100-D00-0
 62
     7
370
    50
100
AcDbCircle
 10
288.827648
 20
341.642853
 30
0.0
 40
6.801883930206413
100
AcDbArc
 50
56.54253
 51
63.818118
  0
ARC
  5
1AD
330
1F
100
AcDbEntity
  8
LC-001-100-D00-0
 62
     7
370
    50
100
AcDbCircle
 10
288.827648
 20
341.642853
 30
0.0
 40
6.801883930206435
100
AcDbArc
 50
116.181882
 51
123.45747
  0
INSERT
  5
1B9
330
1F
100
AcDbEntity
  8
LC-001-100-D00-0
 62
     7
370
    50
100
AcDbBlockReference
  2
POLY17
 10
0.0
 20
0.0
 30
0.0
  0
LINE
  5
1BA
330
1F
100
AcDbEntity
  8
LC-001-100-D00-0
 62
     7
370
    50
100
AcDbLine
 10
287.054219
 20
347.767854
 30
0.0
 11
285.916992
 21
347.767854
 31
0.0
  0
LINE
  5
1BB
330
1F
100
AcDbEntity
  8
LC-001-100-D00-0
 62
     7
370
    50
100
AcDbLine
 10
287.054219
 20
347.767854
 30
0.0
 11
287.054219
 21
346.267851
 31
0.0
  0
LINE
  5
1BC
330
1F
100
AcDbEntity
  8
LC-001-100-D00-0
 62
     7
370
    50
100
AcDbLine
 10
291.738302
 20
347.767854
 30
0.0
 11
290.601083
 21
347.767854
 31
0.0
  0
INSERT
  5
1C8
330
1F
100
AcDbEntity
  8
LC-001-100-D00-0
 62
     7
370
    50
100
AcDbBlockReference
  2
POLY18
 10
0.0
 20
0.0
 30
0.0
  0
LINE
  5
1C9
330
1F
100
AcDbEntity
  8
LC-001-100-D00-0
 62
     7
370
    50
100
AcDbLine
 10
290.601083
 20
347.767854
 30
0.0
 11
290.601083
 21
346.267851
 31
0.0
  0
LINE
  5
1CA
330
1F
100
AcDbEntity
  8
LC-001-100-D00-0
 62
     7
370
    50
100
AcDbLine
 10
288.158097
 20
347.767854
 30
0.0
 11
289.497197
 21
347.767854
 31
0.0
  0
LINE
  5
1CB
330
1F
100
AcDbEntity
  8
LC-001-100-D00-0
 62
     7
370
    50
100
AcDbLine
 10
289.800309
 20
347.767854
 30
0.0
 11
289.497197
 21
347.767854
 31
0.0
  0
LINE
  5
1CC
330
1F
100
AcDbEntity
  8
LC-001-100-D00-0
 62
     7
370
    50
100
AcDbLine
 10
287.854985
 20
347.767854
 30
0.0
 11
288.158097
 21
347.767854
 31
0.0
  0
LINE
  5
1CD
330
1F
100
AcDbEntity
  8
LC-001-100-D00-0
 62
     7
370
    50
100
AcDbLine
 10
289.800309
 20
347.767854
 30
0.0
 11
290.601083
 21
347.767854
 31
0.0
  0
LINE
  5
1CE
330
1F
100
AcDbEntity
  8
LC-001-100-D00-0
 62
     7
370
    50
100
AcDbLine
 10
287.854985
 20
347.767854
 30
0.0
 11
287.054219
 21
347.767854
 31
0.0
  0
LINE
  5
1CF
330
1F
100
AcDbEntity
  8
LC-001-100-D00-0
 62
     7
370
    50
100
AcDbLine
 10
486.507647
 20
332.673977
 30
0.0
 11
510.547646
 21
341.423976
 31
0.0
  0
LINE
  5
1D0
330
1F
100
AcDbEntity
  8
LC-001-100-D00-0
 62
     7
370
    50
100
AcDbLine
 10
255.107642
 20
341.423976
 30
0.0
 11
279.147648
 21
332.673977
 31
0.0
  0
LINE
  5
1D1
330
1F
100
AcDbEntity
  8
LC-001-100-D00-0
 62
     7
370
    50
100
AcDbLine
 10
509.718896
 20
346.123981
 30
0.0
 11
485.678897
 21
337.373974
 31
0.0
  0
LINE
  5
1D2
330
1F
100
AcDbEntity
  8
LC-001-100-D00-0
 62
     7
370
    50
100
AcDbLine
 10
279.976398
 20
337.373974
 30
0.0
 11
255.9364
 21
346.123981
 31
0.0
  0
LINE
  5
1D3
330
1F
100
AcDbEntity
  8
LC-001-100-D00-0
 62
     7
370
    50
100
AcDbLine
 10
255.9364
 20
346.123981
 30
0.0
 11
283.577651
 21
346.123981
 31
0.0
  0
LINE
  5
1D4
330
1F
100
AcDbEntity
  8
LC-001-100-D00-0
 62
     7
370
    50
100
AcDbLine
 10
294.07765
 20
346.123981
 30
0.0
 11
297.799715
 21
346.123981
 31
0.0
  0
LINE
  5
1D5
330
1F
100
AcDbEntity
  8
LC-001-100-D00-0
 62
     7
370
    50
100
AcDbLine
 10
334.65381
 20
346.123981
 30
0.0
 11
339.317755
 21
346.123981
 31
0.0
  0
LINE
  5
1D6
330
1F
100
AcDbEntity
  8
LC-001-100-D00-0
 62
     7
370
    50
100
AcDbLine
 10
349.184529
 20
346.123981
 30
0.0
 11
359.709982
 21
346.123981
 31
0.0
  0
LINE
  5
1D7
330
1F
100
AcDbEntity
  8
LC-001-100-D00-0
 62
     7
370
    50
100
AcDbLine
 10
366.007969
 20
346.123981
 30
0.0
 11
381.677649
 21
346.123981
 31
0.0
  0
LINE
  5
1D8
330
1F
100
AcDbEntity
  8
LC-001-100-D00-0
 62
     7
370
    50
100
AcDbLine
 10
383.977648
 20
346.123981
 30
0.0
 11
399.647325
 21
346.123981
 31
0.0
  0
LINE
  5
1D9
330
1F
100
AcDbEntity
  8
LC-001-100-D00-0
 62
     7
370
    50
100
AcDbLine
 10
405.945312
 20
346.123981
 30
0.0
 11
416.470769
 21
346.123981
 31
0.0
  0
LINE
  5
1DA
330
1F
100
AcDbEntity
  8
LC-001-100-D00-0
 62
     7
370
    50
100
AcDbLine
 10
467.855581
 20
346.123981
 30
0.0
 11
509.718896
 21
346.123981
 31
0.0
  0
LINE
  5
1DB
330
1F
100
AcDbEntity
  8
LC-001-100-D00-0
 62
     7
370
    50
100
AcDbLine
 10
132.82764
 20
346.123981
 30
0.0
 11
132.82764
 21
341.423976
 31
0.0
  0
LINE
  5
1DC
330
1F
100
AcDbEntity
  8
LC-001-100-D00-0
 62
     7
370
    50
100
AcDbLine
 10
284.82765
 20
337.373974
 30
0.0
 11
284.82765
 21
332.673977
 31
0.0
  0
LINE
  5
1DD
330
1F
100
AcDbEntity
  8
LC-001-100-D00-0
 62
     7
370
    50
100
AcDbLine
 10
284.82765
 20
337.373974
 30
0.0
 11
279.976398
 21
337.373974
 31
0.0
  0
LINE
  5
1DE
330
1F
100
AcDbEntity
  8
LC-001-100-D00-0
 62
     7
370
    50
100
AcDbLine
 10
279.147648
 20
332.673977
 30
0.0
 11
284.82765
 21
332.673977
 31
0.0
  0
LINE
  5
1DF
330
1F
100
AcDbEntity
  8
LC-001-100-D00-0
 62
     7
370
    50
100
AcDbLine
 10
132.82764
 20
341.423976
 30
0.0
 11
255.107642
 21
341.423976
 31
0.0
  0
LINE
  5
1E0
330
1F
100
AcDbEntity
  8
LC-001-100-D00-0
 62
     7
370
    50
100
AcDbLine
 10
255.9364
 20
346.123981
 30
0.0
 11
132.82764
 21
346.123981
 31
0.0
  0
LINE
  5
1E1
330
1F
100
AcDbEntity
  8
LC-001-100-D00-0
 62
     7
370
    50
100
AcDbLine
 10
480.827645
 20
332.673977
 30
0.0
 11
480.827645
 21
337.373974
 31
0.0
  0
LINE
  5
1E2
330
1F
100
AcDbEntity
  8
LC-001-100-D00-0
 62
     7
370
    50
100
AcDbLine
 10
632.827655
 20
341.423976
 30
0.0
 11
632.827655
 21
346.123981
 31
0.0
  0
LINE
  5
1E3
330
1F
100
AcDbEntity
  8
LC-001-100-D00-0
 62
     7
370
    50
100
AcDbLine
 10
485.678897
 20
337.373974
 30
0.0
 11
480.827645
 21
337.373974
 31
0.0
  0
LINE
  5
1E4
330
1F
100
AcDbEntity
  8
LC-001-100-D00-0
 62
     7
370
    50
100
AcDbLine
 10
480.827645
 20
332.673977
 30
0.0
 11
486.507647
 21
332.673977
 31
0.0
  0
LINE
  5
1E5
330
1F
100
AcDbEntity
  8
LC-001-100-D00-0
 62
     7
370
    50
100
AcDbLine
 10
510.547646
 20
341.423976
 30
0.0
 11
632.827655
 21
341.423976
 31
0.0
  0
LINE
  5
1E6
330
1F
100
AcDbEntity
  8
LC-001-100-D00-0
 62
     7
370
    50
100
AcDbLine
 10
632.827655
 20
346.123981
 30
0.0
 11
509.718896
 21
346.123981
 31
0.0
  0
LINE
  5
1E7
330
1F
100
AcDbEntity
  8
LC-001-100-D00-0
 62
     7
370
    50
100
AcDbLine
 10
286.070608
 20
337.373974
 30
0.0
 11
284.82765
 21
337.373974
 31
0.0
  0
LINE
  5
1E8
330
1F
100
AcDbEntity
  8
LC-001-100-D00-0
 62
     7
370
    50
100
AcDbLine
 10
476.742544
 20
332.743975
 30
0.0
 11
476.742544
 21
337.373974
 31
0.0
  0
LINE
  5
1E9
330
1F
100
AcDbEntity
  8
LC-001-100-D00-0
 62
     7
370
    50
100
AcDbLine
 10
480.827645
 20
337.373974
 30
0.0
 11
476.742544
 21
337.373974
 31
0.0
  0
LINE
  5
1EA
330
1F
100
AcDbEntity
  8
LC-001-100-D00-0
 62
     7
370
    50
100
AcDbLine
 10
465.230667
 20
332.673977
 30
0.0
 11
465.230667
 21
337.373974
 31
0.0
  0
LINE
  5
1EB
330
1F
100
AcDbEntity
  8
LC-001-100-D00-0
 62
     7
370
    50
100
AcDbLine
 10
476.742544
 20
337.373974
 30
0.0
 11
465.230667
 21
337.373974
 31
0.0
  0
LINE
  5
1EC
330
1F
100
AcDbEntity
  8
LC-001-100-D00-0
 62
     7
370
    50
100
AcDbLine
 10
462.577649
 20
337.373974
 30
0.0
 11
465.230667
 21
337.373974
 31
0.0
  0
LINE
  5
1ED
330
1F
100
AcDbEntity
  8
LC-001-100-D00-0
 62
     7
370
    50
100
AcDbLine
 10
462.577649
 20
332.673977
 30
0.0
 11
465.230667
 21
332.673977
 31
0.0
  0
LINE
  5
1EE
330
1F
100
AcDbEntity
  8
LC-001-100-D00-0
 62
     7
370
    50
100
AcDbLine
 10
300.424629
 20
337.373974
 30
0.0
 11
300.424629
 21
332.673977
 31
0.0
  0
LINE
  5
1EF
330
1F
100
AcDbEntity
  8
LC-001-100-D00-0
 62
     7
370
    50
100
AcDbLine
 10
300.424629
 20
337.373974
 30
0.0
 11
303.077646
 21
337.373974
 31
0.0
  0
LINE
  5
1F0
330
1F
100
AcDbEntity
  8
LC-001-100-D00-0
 62
     7
370
    50
100
AcDbLine
 10
300.424629
 20
332.673977
 30
0.0
 11
303.077646
 21
332.673977
 31
0.0
  0
LINE
  5
1F1
330
1F
100
AcDbEntity
  8
LC-001-100-D00-0
 62
     7
370
    50
100
AcDbLine
 10
300.424629
 20
337.373974
 30
0.0
 11
290.827647
 21
337.373974
 31
0.0
  0
ARC
  5
1F2
330
1F
100
AcDbEntity
  8
LC-001-100-D00-0
 62
     7
370
    50
100
AcDbCircle
 10
504.686071
 20
347.389849
 30
0.0
 40
2.500000000000018
100
AcDbArc
 50
276.0
 51
325.333525
  0
ARC
  5
1F3
330
1F
100
AcDbEntity
  8
LC-001-100-D00-0
 62
     7
370
    50
100
AcDbCircle
 10
260.969225
 20
347.389849
 30
0.0
 40
2.500000000000098
100
AcDbArc
 50
214.666475
 51
264.0
  0
LINE
  5
1F4
330
1F
100
AcDbEntity
  8
LC-001-100-D00-0
 62
     7
370
    50
100
AcDbLine
 10
506.742262
 20
345.967854
 30
0.0
 11
467.912406
 21
345.967854
 31
0.0
  0
LINE
  5
1F5
330
1F
100
AcDbEntity
  8
LC-001-100-D00-0
 62
     7
370
    50
100
AcDbLine
 10
416.49918
 20
345.967854
 30
0.0
 11
405.960019
 21
345.967854
 31
0.0
  0
LINE
  5
1F6
330
1F
100
AcDbEntity
  8
LC-001-100-D00-0
 62
     7
370
    50
100
AcDbLine
 10
399.662032
 20
345.967854
 30
0.0
 11
383.977648
 21
345.967854
 31
0.0
  0
LINE
  5
1F7
330
1F
100
AcDbEntity
  8
LC-001-100-D00-0
 62
     7
370
    50
100
AcDbLine
 10
381.677649
 20
345.967854
 30
0.0
 11
365.993266
 21
345.967854
 31
0.0
  0
LINE
  5
1F8
330
1F
100
AcDbEntity
  8
LC-001-100-D00-0
 62
     7
370
    50
100
AcDbLine
 10
359.695279
 20
345.967854
 30
0.0
 11
349.156116
 21
345.967854
 31
0.0
  0
LINE
  5
1F9
330
1F
100
AcDbEntity
  8
LC-001-100-D00-0
 62
     7
370
    50
100
AcDbLine
 10
339.289338
 20
345.967854
 30
0.0
 11
334.613629
 21
345.967854
 31
0.0
  0
LINE
  5
1FA
330
1F
100
AcDbEntity
  8
LC-001-100-D00-0
 62
     7
370
    50
100
AcDbLine
 10
297.742889
 20
345.967854
 30
0.0
 11
294.07765
 21
345.967854
 31
0.0
  0
LINE
  5
1FB
330
1F
100
AcDbEntity
  8
LC-001-100-D00-0
 62
     7
370
    50
100
AcDbLine
 10
283.577651
 20
345.967854
 30
0.0
 11
258.913026
 21
345.967854
 31
0.0
  0
ARC
  5
1FC
330
1F
100
AcDbEntity
  8
LC-001-100-D00-0
 62
     7
370
    50
100
AcDbCircle
 10
504.686071
 20
347.389849
 30
0.0
 40
3.000000000000016
100
AcDbArc
 50
276.0
 51
331.705828
  0
ARC
  5
1FD
330
1F
100
AcDbEntity
  8
LC-001-100-D00-0
 62
     7
370
    50
100
AcDbCircle
 10
260.969225
 20
347.389849
 30
0.0
 40
3.000000000000086
100
AcDbArc
 50
208.294172
 51
264.0
  0
LINE
  5
1FE
330
1F
100
AcDbEntity
  8
LC-001-100-D00-0
 62
     7
370
    50
100
AcDbLine
 10
504.999653
 20
344.406287
 30
0.0
 11
484.653854
 21
342.267851
 31
0.0
  0
LINE
  5
1FF
330
1F
100
AcDbEntity
  8
LC-001-100-D00-0
 62
     7
370
    50
100
AcDbLine
 10
281.001442
 20
342.267851
 30
0.0
 11
260.655642
 21
344.406287
 31
0.0
  0
LINE
  5
200
330
1F
100
AcDbEntity
  8
LC-001-100-D00-0
 62
     7
370
    50
100
AcDbLine
 10
484.62765
 20
342.767852
 30
0.0
 11
504.947395
 21
344.903546
 31
0.0
  0
LINE
  5
201
330
1F
100
AcDbEntity
  8
LC-001-100-D00-0
 62
     7
370
    50
100
AcDbLine
 10
260.707901
 20
344.903546
 30
0.0
 11
281.027645
 21
342.767852
 31
0.0
  0
ARC
  5
202
330
1F
100
AcDbEntity
  8
LC-001-100-D00-0
 62
     7
370
    50
100
AcDbCircle
 10
465.077648
 20
339.767853
 30
0.0
 40
2.5
100
AcDbArc
 50
90.0
 51
180.0
  0
ARC
  5
203
330
1F
100
AcDbEntity
  8
LC-001-100-D00-0
 62
     7
370
    50
100
AcDbCircle
 10
300.577648
 20
339.767853
 30
0.0
 40
2.5
100
AcDbArc
 50
0.0
 51
90.0
  0
ARC
  5
204
330
1F
100
AcDbEntity
  8
LC-001-100-D00-0
 62
     7
370
    50
100
AcDbCircle
 10
465.077648
 20
339.767853
 30
0.0
 40
3.0
100
AcDbArc
 50
90.0
 51
180.0
  0
ARC
  5
205
330
1F
100
AcDbEntity
  8
LC-001-100-D00-0
 62
     7
370
    50
100
AcDbCircle
 10
300.577648
 20
339.767853
 30
0.0
 40
3.0
100
AcDbArc
 50
0.0
 51
90.0
  0
LINE
  5
206
330
1F
100
AcDbEntity
  8
LC-001-100-D00-0
 62
     7
370
    50
100
AcDbLine
 10
462.577649
 20
339.767853
 30
0.0
 11
462.577649
 21
322.467851
 31
0.0
  0
LINE
  5
207
330
1F
100
AcDbEntity
  8
LC-001-100-D00-0
 62
     7
370
    50
100
AcDbLine
 10
303.077646
 20
322.467851
 30
0.0
 11
303.077646
 21
339.767853
 31
0.0
  0
LINE
  5
208
330
1F
100
AcDbEntity
  8
LC-001-100-D00-0
 62
     7
370
    50
100
AcDbLine
 10
462.077648
 20
322.467851
 30
0.0
 11
462.077648
 21
339.767853
 31
0.0
  0
LINE
  5
209
330
1F
100
AcDbEntity
  8
LC-001-100-D00-0
 62
     7
370
    50
100
AcDbLine
 10
303.577647
 20
339.767853
 30
0.0
 11
303.577647
 21
322.467851
 31
0.0
  0
ARC
  5
20A
330
1F
100
AcDbEntity
  8
LC-001-100-D00-0
 62
     7
370
    50
100
AcDbCircle
 10
460.077648
 20
322.467853
 30
0.0
 40
2.0
100
AcDbArc
 50
270.0
 51
0.0
  0
ARC
  5
20B
330
1F
100
AcDbEntity
  8
LC-001-100-D00-0
 62
     7
370
    50
100
AcDbCircle
 10
305.577648
 20
322.467853
 30
0.0
 40
2.0
100
AcDbArc
 50
180.0
 51
270.0
  0
ARC
  5
20C
330
1F
100
AcDbEntity
  8
LC-001-100-D00-0
 62
     7
370
    50
100
AcDbCircle
 10
460.077648
 20
322.467853
 30
0.0
 40
2.5
100
AcDbArc
 50
270.0
 51
0.0
  0
ARC
  5
20D
330
1F
100
AcDbEntity
  8
LC-001-100-D00-0
 62
     7
370
    50
100
AcDbCircle
 10
305.577648
 20
322.467853
 30
0.0
 40
2.5
100
AcDbArc
 50
180.0
 51
270.0
  0
ARC
  5
20E
330
1F
100
AcDbEntity
  8
LC-001-100-D00-0
 62
     7
370
    50
100
AcDbCircle
 10
459.327648
 20
318.967853
 30
0.0
 40
1.0
100
AcDbArc
 50
90.0
 51
180.0
  0
ARC
  5
20F
330
1F
100
AcDbEntity
  8
LC-001-100-D00-0
 62
     7
370
    50
100
AcDbCircle
 10
306.327648
 20
318.967853
 30
0.0
 40
1.0
100
AcDbArc
 50
0.0
 51
90.0
  0
LINE
  5
210
330
1F
100
AcDbEntity
  8
LC-001-100-D00-0
 62
     7
370
    50
100
AcDbLine
 10
458.327648
 20
318.967851
 30
0.0
 11
458.327648
 21
314.967851
 31
0.0
  0
LINE
  5
211
330
1F
100
AcDbEntity
  8
LC-001-100-D00-0
 62
     7
370
    50
100
AcDbLine
 10
307.327651
 20
314.967851
 30
0.0
 11
307.327651
 21
318.967851
 31
0.0
  0
ARC
  5
212
330
1F
100
AcDbEntity
  8
LC-001-100-D00-0
 62
     7
370
    50
100
AcDbCircle
 10
459.327648
 20
318.967853
 30
0.0
 40
1.500000000000114
100
AcDbArc
 50
90.0
 51
180.0
  0
ARC
  5
213
330
1F
100
AcDbEntity
  8
LC-001-100-D00-0
 62
     7
370
    50
100
AcDbCircle
 10
306.327648
 20
318.967853
 30
0.0
 40
1.5
100
AcDbArc
 50
0.0
 51
90.0
  0
LINE
  5
214
330
1F
100
AcDbEntity
  8
LC-001-100-D00-0
 62
     7
370
    50
100
AcDbLine
 10
459.327646
 20
320.467854
 30
0.0
 11
456.727647
 21
320.467854
 31
0.0
  0
LINE
  5
215
330
1F
100
AcDbEntity
  8
LC-001-100-D00-0
 62
     7
370
    50
100
AcDbLine
 10
452.840221
 20
320.467854
 30
0.0
 11
394.627745
 21
320.467854
 31
0.0
  0
LINE
  5
216
330
1F
100
AcDbEntity
  8
LC-001-100-D00-0
 62
     7
370
    50
100
AcDbLine
 10
371.027664
 20
320.467854
 30
0.0
 11
312.815093
 21
320.467854
 31
0.0
  0
LINE
  5
217
330
1F
100
AcDbEntity
  8
LC-001-100-D00-0
 62
     7
370
    50
100
AcDbLine
 10
308.927648
 20
320.467854
 30
0.0
 11
306.327649
 21
320.467854
 31
0.0
  0
LINE
  5
218
330
1F
100
AcDbEntity
  8
LC-001-100-D00-0
 62
     7
370
    50
100
AcDbLine
 10
457.827647
 20
314.967851
 30
0.0
 11
457.827647
 21
318.967851
 31
0.0
  0
LINE
  5
219
330
1F
100
AcDbEntity
  8
LC-001-100-D00-0
 62
     7
370
    50
100
AcDbLine
 10
307.827645
 20
318.967851
 30
0.0
 11
307.827645
 21
314.967851
 31
0.0
  0
LINE
  5
21A
330
1F
100
AcDbEntity
  8
LC-001-100-D00-0
 62
     7
370
    50
100
AcDbLine
 10
452.840221
 20
314.967851
 30
0.0
 11
394.627745
 21
314.967851
 31
0.0
  0
LINE
  5
21B
330
1F
100
AcDbEntity
  8
LC-001-100-D00-0
 62
     7
370
    50
100
AcDbLine
 10
371.027664
 20
314.967851
 30
0.0
 11
312.815093
 21
314.967851
 31
0.0
  0
LINE
  5
21C
330
1F
100
AcDbEntity
  8
LC-001-100-D00-0
 62
     7
370
    50
100
AcDbLine
 10
458.327648
 20
314.967851
 30
0.0
 11
457.827647
 21
314.967851
 31
0.0
  0
LINE
  5
21D
330
1F
100
AcDbEntity
  8
LC-001-100-D00-0
 62
     7
370
    50
100
AcDbLine
 10
459.327646
 20
320.467854
 30
0.0
 11
460.077648
 21
320.467854
 31
0.0
  0
LINE
  5
21E
330
1F
100
AcDbEntity
  8
LC-001-100-D00-0
 62
     7
370
    50
100
AcDbLine
 10
460.077648
 20
319.967853
 30
0.0
 11
459.327646
 21
319.967853
 31
0.0
  0
LINE
  5
21F
330
1F
100
AcDbEntity
  8
LC-001-100-D00-0
 62
     7
370
    50
100
AcDbLine
 10
465.077647
 20
342.767852
 30
0.0
 11
484.62765
 21
342.767852
 31
0.0
  0
LINE
  5
220
330
1F
100
AcDbEntity
  8
LC-001-100-D00-0
 62
     7
370
    50
100
AcDbLine
 10
484.653854
 20
342.267851
 30
0.0
 11
465.077647
 21
342.267851
 31
0.0
  0
LINE
  5
221
330
1F
100
AcDbEntity
  8
LC-001-100-D00-0
 62
     7
370
    50
100
AcDbLine
 10
506.742262
 20
345.967854
 30
0.0
 11
507.327647
 21
345.967854
 31
0.0
  0
ARC
  5
222
330
1F
100
AcDbEntity
  8
LC-001-100-D00-0
 62
     7
370
    50
100
AcDbCircle
 10
281.720541
 20
343.267853
 30
0.0
 40
1.0
100
AcDbArc
 50
270.0
 51
315.0
  0
LINE
  5
223
330
1F
100
AcDbEntity
  8
LC-001-100-D00-0
 62
     7
370
    50
100
AcDbLine
 10
281.927646
 20
342.767852
 30
0.0
 11
282.634758
 21
343.474957
 31
0.0
  0
ARC
  5
224
330
1F
100
AcDbEntity
  8
LC-001-100-D00-0
 62
     7
370
    50
100
AcDbCircle
 10
283.341862
 20
342.767853
 30
0.0
 40
1.0
100
AcDbArc
 50
90.0
 51
135.0
  0
LINE
  5
225
330
1F
100
AcDbEntity
  8
LC-001-100-D00-0
 62
     7
370
    50
100
AcDbLine
 10
283.341863
 20
343.767854
 30
0.0
 11
285.077647
 21
343.767854
 31
0.0
  0
LINE
  5
226
330
1F
100
AcDbEntity
  8
LC-001-100-D00-0
 62
     7
370
    50
100
AcDbLine
 10
285.077647
 20
343.767854
 30
0.0
 11
285.077647
 21
343.267853
 31
0.0
  0
LINE
  5
227
330
1F
100
AcDbEntity
  8
LC-001-100-D00-0
 62
     7
370
    50
100
AcDbLine
 10
285.077647
 20
343.267853
 30
0.0
 11
283.134752
 21
343.267853
 31
0.0
  0
LINE
  5
228
330
1F
100
AcDbEntity
  8
LC-001-100-D00-0
 62
     7
370
    50
100
AcDbLine
 10
283.134752
 20
343.267853
 30
0.0
 11
282.427647
 21
342.560748
 31
0.0
  0
LINE
  5
229
330
1F
100
AcDbEntity
  8
LC-001-100-D00-0
 62
     7
370
    50
100
AcDbLine
 10
281.027645
 20
342.767852
 30
0.0
 11
281.927646
 21
342.767852
 31
0.0
  0
LINE
  5
22A
330
1F
100
AcDbEntity
  8
LC-001-100-D00-0
 62
     7
370
    50
100
AcDbLine
 10
281.720542
 20
342.267851
 30
0.0
 11
281.001442
 21
342.267851
 31
0.0
  0
LINE
  5
22B
330
1F
100
AcDbEntity
  8
LC-001-100-D00-0
 62
     7
370
    50
100
AcDbLine
 10
258.327649
 20
345.967854
 30
0.0
 11
258.913026
 21
345.967854
 31
0.0
  0
ARC
  5
22C
330
1F
100
AcDbEntity
  8
LC-001-100-D00-0
 62
     7
370
    50
100
AcDbCircle
 10
295.934755
 20
343.267853
 30
0.0
 40
1.000000000000008
100
AcDbArc
 50
225.0
 51
270.0
  0
LINE
  5
22D
330
1F
100
AcDbEntity
  8
LC-001-100-D00-0
 62
     7
370
    50
100
AcDbLine
 10
295.227647
 20
342.560748
 30
0.0
 11
294.520543
 21
343.267853
 31
0.0
  0
LINE
  5
22E
330
1F
100
AcDbEntity
  8
LC-001-100-D00-0
 62
     7
370
    50
100
AcDbLine
 10
294.520543
 20
343.267853
 30
0.0
 11
292.577647
 21
343.267853
 31
0.0
  0
LINE
  5
22F
330
1F
100
AcDbEntity
  8
LC-001-100-D00-0
 62
     7
370
    50
100
AcDbLine
 10
292.577647
 20
343.267853
 30
0.0
 11
292.577647
 21
343.767854
 31
0.0
  0
LINE
  5
230
330
1F
100
AcDbEntity
  8
LC-001-100-D00-0
 62
     7
370
    50
100
AcDbLine
 10
292.577647
 20
343.767854
 30
0.0
 11
294.313431
 21
343.767854
 31
0.0
  0
ARC
  5
231
330
1F
100
AcDbEntity
  8
LC-001-100-D00-0
 62
     7
370
    50
100
AcDbCircle
 10
294.313434
 20
342.767853
 30
0.0
 40
1.000000000000008
100
AcDbArc
 50
45.0
 51
90.0
  0
LINE
  5
232
330
1F
100
AcDbEntity
  8
LC-001-100-D00-0
 62
     7
370
    50
100
AcDbLine
 10
295.020544
 20
343.474957
 30
0.0
 11
295.727648
 21
342.767852
 31
0.0
  0
LINE
  5
233
330
1F
100
AcDbEntity
  8
LC-001-100-D00-0
 62
     7
370
    50
100
AcDbLine
 10
307.827645
 20
314.967851
 30
0.0
 11
307.327651
 21
314.967851
 31
0.0
  0
LINE
  5
234
330
1F
100
AcDbEntity
  8
LC-001-100-D00-0
 62
     7
370
    50
100
AcDbLine
 10
305.577651
 20
320.467854
 30
0.0
 11
306.327649
 21
320.467854
 31
0.0
  0
LINE
  5
235
330
1F
100
AcDbEntity
  8
LC-001-100-D00-0
 62
     7
370
    50
100
AcDbLine
 10
306.327649
 20
319.967853
 30
0.0
 11
305.577651
 21
319.967853
 31
0.0
  0
LINE
  5
236
330
1F
100
AcDbEntity
  8
LC-001-100-D00-0
 62
     7
370
    50
100
AcDbLine
 10
295.727648
 20
342.767852
 30
0.0
 11
300.577649
 21
342.767852
 31
0.0
  0
LINE
  5
237
330
1F
100
AcDbEntity
  8
LC-001-100-D00-0
 62
     7
370
    50
100
AcDbLine
 10
300.577649
 20
342.267851
 30
0.0
 11
295.934752
 21
342.267851
 31
0.0
  0
LINE
  5
238
330
1F
100
AcDbEntity
  8
LC-001-100-D00-0
 62
     7
370
    50
100
AcDbLine
 10
292.577647
 20
343.267853
 30
0.0
 11
290.827647
 21
343.267853
 31
0.0
  0
LINE
  5
239
330
1F
100
AcDbEntity
  8
LC-001-100-D00-0
 62
     7
370
    50
100
AcDbLine
 10
285.830834
 20
343.267853
 30
0.0
 11
285.077647
 21
343.267853
 31
0.0
  0
LINE
  5
23A
330
1F
100
AcDbEntity
  8
LC-001-100-D00-0
 62
     7
370
    50
100
AcDbLine
 10
295.934752
 20
342.267851
 30
0.0
 11
291.029305
 21
342.267851
 31
0.0
  0
LINE
  5
23B
330
1F
100
AcDbEntity
  8
LC-001-100-D00-0
 62
     7
370
    50
100
AcDbLine
 10
286.827647
 20
342.267851
 30
0.0
 11
281.720542
 21
342.267851
 31
0.0
  0
LINE
  5
23C
330
1F
100
AcDbEntity
  8
LC-001-100-D00-0
 62
     7
370
    50
100
AcDbLine
 10
425.895027
 20
343.767854
 30
0.0
 11
431.607875
 21
343.767854
 31
0.0
  0
LINE
  5
23D
330
1F
100
AcDbEntity
  8
LC-001-100-D00-0
 62
     7
370
    50
100
AcDbLine
 10
448.577647
 20
306.053976
 30
0.0
 11
317.077645
 21
306.053976
 31
0.0
  0
LINE
  5
23E
330
1F
100
AcDbEntity
  8
LC-001-100-D00-0
 62
     7
370
    50
100
AcDbLine
 10
448.577647
 20
306.053976
 30
0.0
 11
447.577648
 21
298.053978
 31
0.0
  0
LINE
  5
23F
330
1F
100
AcDbEntity
  8
LC-001-100-D00-0
 62
     7
370
    50
100
AcDbLine
 10
447.577648
 20
298.053978
 30
0.0
 11
318.077647
 21
298.053978
 31
0.0
  0
LINE
  5
240
330
1F
100
AcDbEntity
  8
LC-001-100-D00-0
 62
     7
370
    50
100
AcDbLine
 10
318.077647
 20
298.053978
 30
0.0
 11
317.077645
 21
306.053976
 31
0.0
  0
LINE
  5
241
330
1F
100
AcDbEntity
  8
LC-001-100-D00-0
 62
     7
370
    50
100
AcDbLine
 10
451.577649
 20
298.053978
 30
0.0
 11
451.577649
 21
302.553976
 31
0.0
  0
LINE
  5
242
330
1F
100
AcDbEntity
  8
LC-001-100-D00-0
 62
     7
370
    50
100
AcDbLine
 10
314.077646
 20
302.553976
 30
0.0
 11
314.077646
 21
298.053978
 31
0.0
  0
LINE
  5
243
330
1F
100
AcDbEntity
  8
LC-001-100-D00-0
 62
     7
370
    50
100
AcDbLine
 10
309.577644
 20
302.553976
 30
0.0
 11
314.077646
 21
302.553976
 31
0.0
  0
LINE
  5
244
330
1F
100
AcDbEntity
  8
LC-001-100-D00-0
 62
     7
370
    50
100
AcDbLine
 10
309.577644
 20
300.553976
 30
0.0
 11
309.577644
 21
302.553976
 31
0.0
  0
LINE
  5
245
330
1F
100
AcDbEntity
  8
LC-001-100-D00-0
 62
     7
370
    50
100
AcDbLine
 10
306.577646
 20
300.553976
 30
0.0
 11
309.577644
 21
300.553976
 31
0.0
  0
LINE
  5
246
330
1F
100
AcDbEntity
  8
LC-001-100-D00-0
 62
     7
370
    50
100
AcDbLine
 10
305.577651
 20
301.553974
 30
0.0
 11
306.577646
 21
300.553976
 31
0.0
  0
LINE
  5
247
330
1F
100
AcDbEntity
  8
LC-001-100-D00-0
 62
     7
370
    50
100
AcDbLine
 10
305.577651
 20
305.053974
 30
0.0
 11
305.577651
 21
301.553974
 31
0.0
  0
LINE
  5
248
330
1F
100
AcDbEntity
  8
LC-001-100-D00-0
 62
     7
370
    50
100
AcDbLine
 10
306.577646
 20
305.053974
 30
0.0
 11
305.577651
 21
305.053974
 31
0.0
  0
LINE
  5
249
330
1F
100
AcDbEntity
  8
LC-001-100-D00-0
 62
     7
370
    50
100
AcDbLine
 10
306.577646
 20
306.053976
 30
0.0
 11
306.577646
 21
305.053974
 31
0.0
  0
LINE
  5
24A
330
1F
100
AcDbEntity
  8
LC-001-100-D00-0
 62
     7
370
    50
100
AcDbLine
 10
317.077645
 20
306.053976
 30
0.0
 11
306.577646
 21
306.053976
 31
0.0
  0
LINE
  5
24B
330
1F
100
AcDbEntity
  8
LC-001-100-D00-0
 62
     7
370
    50
100
AcDbLine
 10
314.077646
 20
298.053978
 30
0.0
 11
318.077647
 21
298.053978
 31
0.0
  0
LINE
  5
24C
330
1F
100
AcDbEntity
  8
LC-001-100-D00-0
 62
     7
370
    50
100
AcDbLine
 10
459.077649
 20
306.053976
 30
0.0
 11
448.577647
 21
306.053976
 31
0.0
  0
LINE
  5
24D
330
1F
100
AcDbEntity
  8
LC-001-100-D00-0
 62
     7
370
    50
100
AcDbLine
 10
459.077649
 20
305.053974
 30
0.0
 11
459.077649
 21
306.053976
 31
0.0
  0
LINE
  5
24E
330
1F
100
AcDbEntity
  8
LC-001-100-D00-0
 62
     7
370
    50
100
AcDbLine
 10
460.077648
 20
305.053974
 30
0.0
 11
459.077649
 21
305.053974
 31
0.0
  0
LINE
  5
24F
330
1F
100
AcDbEntity
  8
LC-001-100-D00-0
 62
     7
370
    50
100
AcDbLine
 10
460.077648
 20
301.553974
 30
0.0
 11
460.077648
 21
305.053974
 31
0.0
  0
LINE
  5
250
330
1F
100
AcDbEntity
  8
LC-001-100-D00-0
 62
     7
370
    50
100
AcDbLine
 10
459.077649
 20
300.553976
 30
0.0
 11
460.077648
 21
301.553974
 31
0.0
  0
LINE
  5
251
330
1F
100
AcDbEntity
  8
LC-001-100-D00-0
 62
     7
370
    50
100
AcDbLine
 10
456.077647
 20
300.553976
 30
0.0
 11
459.077649
 21
300.553976
 31
0.0
  0
LINE
  5
252
330
1F
100
AcDbEntity
  8
LC-001-100-D00-0
 62
     7
370
    50
100
AcDbLine
 10
456.077647
 20
302.553976
 30
0.0
 11
456.077647
 21
300.553976
 31
0.0
  0
LINE
  5
253
330
1F
100
AcDbEntity
  8
LC-001-100-D00-0
 62
     7
370
    50
100
AcDbLine
 10
451.577649
 20
302.553976
 30
0.0
 11
456.077647
 21
302.553976
 31
0.0
  0
LINE
  5
254
330
1F
100
AcDbEntity
  8
LC-001-100-D00-0
 62
     7
370
    50
100
AcDbLine
 10
447.577648
 20
298.053978
 30
0.0
 11
451.577649
 21
298.053978
 31
0.0
  0
LINE
  5
255
330
1F
100
AcDbEntity
  8
LC-001-100-D00-0
 62
     7
370
    50
100
AcDbLine
 10
291.577645
 20
317.243981
 30
0.0
 11
286.077649
 21
317.243981
 31
0.0
  0
LINE
  5
256
330
1F
100
AcDbEntity
  8
LC-001-100-D00-0
 62
     7
370
    50
100
AcDbLine
 10
291.577645
 20
317.243981
 30
0.0
 11
291.577645
 21
332.743975
 31
0.0
  0
LINE
  5
257
330
1F
100
AcDbEntity
  8
LC-001-100-D00-0
 62
     7
370
    50
100
AcDbLine
 10
300.327644
 20
332.743975
 30
0.0
 11
291.577645
 21
332.743975
 31
0.0
  0
LINE
  5
258
330
1F
100
AcDbEntity
  8
LC-001-100-D00-0
 62
     7
370
    50
100
AcDbLine
 10
300.327644
 20
316.00398
 30
0.0
 11
300.327644
 21
332.743975
 31
0.0
  0
LINE
  5
259
330
1F
100
AcDbEntity
  8
LC-001-100-D00-0
 62
     7
370
    50
100
AcDbLine
 10
305.327647
 20
311.003978
 30
0.0
 11
300.327644
 21
316.00398
 31
0.0
  0
LINE
  5
25A
330
1F
100
AcDbEntity
  8
LC-001-100-D00-0
 62
     7
370
    50
100
AcDbLine
 10
305.327647
 20
301.553974
 30
0.0
 11
305.327647
 21
311.003978
 31
0.0
  0
ARC
  5
25B
330
1F
100
AcDbEntity
  8
LC-001-100-D00-0
 62
     7
370
    50
100
AcDbCircle
 10
306.327648
 20
301.553977
 30
0.0
 40
1.0
100
AcDbArc
 50
180.0
 51
270.0
  0
LINE
  5
25C
330
1F
100
AcDbEntity
  8
LC-001-100-D00-0
 62
     7
370
    50
100
AcDbLine
 10
311.327644
 20
300.553976
 30
0.0
 11
306.327649
 21
300.553976
 31
0.0
  0
ARC
  5
25D
330
1F
100
AcDbEntity
  8
LC-001-100-D00-0
 62
     7
370
    50
100
AcDbCircle
 10
311.327648
 20
299.553977
 30
0.0
 40
1.0
100
AcDbArc
 50
0.0
 51
90.0
  0
LINE
  5
25E
330
1F
100
AcDbEntity
  8
LC-001-100-D00-0
 62
     7
370
    50
100
AcDbLine
 10
312.327646
 20
285.553975
 30
0.0
 11
312.327646
 21
299.553978
 31
0.0
  0
LINE
  5
25F
330
1F
100
AcDbEntity
  8
LC-001-100-D00-0
 62
     7
370
    50
100
AcDbLine
 10
317.327649
 20
285.553975
 30
0.0
 11
312.327646
 21
285.553975
 31
0.0
  0
ARC
  5
260
330
1F
100
AcDbEntity
  8
LC-001-100-D00-0
 62
     7
370
    50
100
AcDbCircle
 10
317.327648
 20
284.553977
 30
0.0
 40
1.0
100
AcDbArc
 50
0.0
 51
90.0
  0
LINE
  5
261
330
1F
100
AcDbEntity
  8
LC-001-100-D00-0
 62
     7
370
    50
100
AcDbLine
 10
318.327651
 20
255.843509
 30
0.0
 11
318.327651
 21
284.553977
 31
0.0
  0
ARC
  5
262
330
1F
100
AcDbEntity
  8
LC-001-100-D00-0
 62
     7
370
    50
100
AcDbCircle
 10
319.327648
 20
255.843509
 30
0.0
 40
1.000000000000057
100
AcDbArc
 50
180.0
 51
263.0
  0
LINE
  5
263
330
1F
100
AcDbEntity
  8
LC-001-100-D00-0
 62
     7
370
    50
100
AcDbLine
 10
330.827647
 20
253.423977
 30
0.0
 11
319.205776
 21
254.850963
 31
0.0
  0
LINE
  5
264
330
1F
100
AcDbEntity
  8
LC-001-100-D00-0
 62
     7
370
    50
100
AcDbLine
 10
330.827647
 20
173.423978
 30
0.0
 11
330.827647
 21
253.423977
 31
0.0
  0
LINE
  5
265
330
1F
100
AcDbEntity
  8
LC-001-100-D00-0
 62
     7
370
    50
100
AcDbLine
 10
329.03342
 20
173.423978
 30
0.0
 11
330.827647
 21
173.423978
 31
0.0
  0
LINE
  5
266
330
1F
100
AcDbEntity
  8
LC-001-100-D00-0
 62
     7
370
    50
100
AcDbLine
 10
327.827648
 20
177.923976
 30
0.0
 11
329.03342
 21
173.423978
 31
0.0
  0
LINE
  5
267
330
1F
100
AcDbEntity
  8
LC-001-100-D00-0
 62
     7
370
    50
100
AcDbLine
 10
327.827648
 20
249.423977
 30
0.0
 11
327.827648
 21
177.923976
 31
0.0
  0
LINE
  5
268
330
1F
100
AcDbEntity
  8
LC-001-100-D00-0
 62
     7
370
    50
100
AcDbLine
 10
315.077648
 20
249.423977
 30
0.0
 11
327.827648
 21
249.423977
 31
0.0
  0
LINE
  5
269
330
1F
100
AcDbEntity
  8
LC-001-100-D00-0
 62
     7
370
    50
100
AcDbLine
 10
315.077648
 20
281.053977
 30
0.0
 11
315.077648
 21
249.423977
 31
0.0
  0
ARC
  5
26A
330
1F
100
AcDbEntity
  8
LC-001-100-D00-0
 62
     7
370
    50
100
AcDbCircle
 10
314.077648
 20
281.053977
 30
0.0
 40
1.0
100
AcDbArc
 50
0.0
 51
90.0
  0
LINE
  5
26B
330
1F
100
AcDbEntity
  8
LC-001-100-D00-0
 62
     7
370
    50
100
AcDbLine
 10
312.277645
 20
282.053976
 30
0.0
 11
314.077646
 21
282.053976
 31
0.0
  0
ARC
  5
26C
330
1F
100
AcDbEntity
  8
LC-001-100-D00-0
 62
     7
370
    50
100
AcDbCircle
 10
312.277648
 20
284.553977
 30
0.0
 40
2.500000000000057
100
AcDbArc
 50
180.0
 51
270.0
  0
LINE
  5
26D
330
1F
100
AcDbEntity
  8
LC-001-100-D00-0
 62
     7
370
    50
100
AcDbLine
 10
309.777648
 20
294.953978
 30
0.0
 11
309.777648
 21
284.553977
 31
0.0
  0
ARC
  5
26E
330
1F
100
AcDbEntity
  8
LC-001-100-D00-0
 62
     7
370
    50
100
AcDbCircle
 10
308.777648
 20
294.953977
 30
0.0
 40
1.0
100
AcDbArc
 50
0.0
 51
90.0
  0
LINE
  5
26F
330
1F
100
AcDbEntity
  8
LC-001-100-D00-0
 62
     7
370
    50
100
AcDbLine
 10
306.327649
 20
295.953976
 30
0.0
 11
308.777646
 21
295.953976
 31
0.0
  0
ARC
  5
270
330
1F
100
AcDbEntity
  8
LC-001-100-D00-0
 62
     7
370
    50
100
AcDbCircle
 10
306.327648
 20
294.953977
 30
0.0
 40
1.0
100
AcDbArc
 50
90.0
 51
180.0
  0
LINE
  5
271
330
1F
100
AcDbEntity
  8
LC-001-100-D00-0
 62
     7
370
    50
100
AcDbLine
 10
305.327647
 20
249.423977
 30
0.0
 11
305.327647
 21
294.953978
 31
0.0
  0
LINE
  5
272
330
1F
100
AcDbEntity
  8
LC-001-100-D00-0
 62
     7
370
    50
100
AcDbLine
 10
302.827649
 20
249.423977
 30
0.0
 11
305.327647
 21
249.423977
 31
0.0
  0
LINE
  5
273
330
1F
100
AcDbEntity
  8
LC-001-100-D00-0
 62
     7
370
    50
100
AcDbLine
 10
302.827649
 20
310.863974
 30
0.0
 11
302.827649
 21
249.423977
 31
0.0
  0
LINE
  5
274
330
1F
100
AcDbEntity
  8
LC-001-100-D00-0
 62
     7
370
    50
100
AcDbLine
 10
301.827647
 20
311.863976
 30
0.0
 11
302.827649
 21
310.863974
 31
0.0
  0
LINE
  5
275
330
1F
100
AcDbEntity
  8
LC-001-100-D00-0
 62
     7
370
    50
100
AcDbLine
 10
297.827647
 20
311.863976
 30
0.0
 11
301.827647
 21
311.863976
 31
0.0
  0
LINE
  5
276
330
1F
100
AcDbEntity
  8
LC-001-100-D00-0
 62
     7
370
    50
100
AcDbLine
 10
297.827647
 20
314.243974
 30
0.0
 11
297.827647
 21
311.863976
 31
0.0
  0
LINE
  5
277
330
1F
100
AcDbEntity
  8
LC-001-100-D00-0
 62
     7
370
    50
100
AcDbLine
 10
291.82765
 20
314.243974
 30
0.0
 11
297.827647
 21
314.243974
 31
0.0
  0
LINE
  5
278
330
1F
100
AcDbEntity
  8
LC-001-100-D00-0
 62
     7
370
    50
100
AcDbLine
 10
291.82765
 20
314.243974
 30
0.0
 11
291.82765
 21
311.243976
 31
0.0
  0
LINE
  5
279
330
1F
100
AcDbEntity
  8
LC-001-100-D00-0
 62
     7
370
    50
100
AcDbLine
 10
290.827647
 20
310.243974
 30
0.0
 11
291.82765
 21
311.243976
 31
0.0
  0
LINE
  5
27A
330
1F
100
AcDbEntity
  8
LC-001-100-D00-0
 62
     7
370
    50
100
AcDbLine
 10
286.827647
 20
310.243974
 30
0.0
 11
290.827647
 21
310.243974
 31
0.0
  0
LINE
  5
27B
330
1F
100
AcDbEntity
  8
LC-001-100-D00-0
 62
     7
370
    50
100
AcDbLine
 10
285.827645
 20
311.243976
 30
0.0
 11
286.827647
 21
310.243974
 31
0.0
  0
LINE
  5
27C
330
1F
100
AcDbEntity
  8
LC-001-100-D00-0
 62
     7
370
    50
100
AcDbLine
 10
285.827645
 20
311.243976
 30
0.0
 11
285.827645
 21
314.243974
 31
0.0
  0
LINE
  5
27D
330
1F
100
AcDbEntity
  8
LC-001-100-D00-0
 62
     7
370
    50
100
AcDbLine
 10
283.352651
 20
314.243974
 30
0.0
 11
285.827645
 21
314.243974
 31
0.0
  0
ARC
  5
27E
330
1F
100
AcDbEntity
  8
LC-001-100-D00-0
 62
     7
370
    50
100
AcDbCircle
 10
283.352648
 20
314.743977
 30
0.0
 40
0.5
100
AcDbArc
 50
180.0
 51
270.0
  0
LINE
  5
27F
330
1F
100
AcDbEntity
  8
LC-001-100-D00-0
 62
     7
370
    50
100
AcDbLine
 10
282.85265
 20
314.743975
 30
0.0
 11
282.85265
 21
330.243977
 31
0.0
  0
LINE
  5
280
330
1F
100
AcDbEntity
  8
LC-001-100-D00-0
 62
     7
370
    50
100
AcDbLine
 10
277.513073
 20
330.243977
 30
0.0
 11
282.85265
 21
330.243977
 31
0.0
  0
LINE
  5
281
330
1F
100
AcDbEntity
  8
LC-001-100-D00-0
 62
     7
370
    50
100
AcDbLine
 10
255.038709
 20
338.423977
 30
0.0
 11
277.513073
 21
330.243977
 31
0.0
  0
LINE
  5
282
330
1F
100
AcDbEntity
  8
LC-001-100-D00-0
 62
     7
370
    50
100
AcDbLine
 10
205.827654
 20
338.423977
 30
0.0
 11
255.038709
 21
338.423977
 31
0.0
  0
LINE
  5
283
330
1F
100
AcDbEntity
  8
LC-001-100-D00-0
 62
     7
370
    50
100
AcDbLine
 10
205.827654
 20
339.423979
 30
0.0
 11
205.827654
 21
338.423977
 31
0.0
  0
ARC
  5
284
330
1F
100
AcDbEntity
  8
LC-001-100-D00-0
 62
     7
370
    50
100
AcDbCircle
 10
207.827648
 20
339.423977
 30
0.0
 40
2.0
100
AcDbArc
 50
90.0
 51
180.0
  0
LINE
  5
285
330
1F
100
AcDbEntity
  8
LC-001-100-D00-0
 62
     7
370
    50
100
AcDbLine
 10
255.304546
 20
341.423976
 30
0.0
 11
207.827643
 21
341.423976
 31
0.0
  0
LINE
  5
286
330
1F
100
AcDbEntity
  8
LC-001-100-D00-0
 62
     7
370
    50
100
AcDbLine
 10
279.152647
 20
332.743975
 30
0.0
 11
255.304546
 21
341.423976
 31
0.0
  0
LINE
  5
287
330
1F
100
AcDbEntity
  8
LC-001-100-D00-0
 62
     7
370
    50
100
AcDbLine
 10
286.077649
 20
332.743975
 30
0.0
 11
279.152647
 21
332.743975
 31
0.0
  0
LINE
  5
288
330
1F
100
AcDbEntity
  8
LC-001-100-D00-0
 62
     7
370
    50
100
AcDbLine
 10
286.077649
 20
332.743975
 30
0.0
 11
286.077649
 21
317.243981
 31
0.0
  0
LINE
  5
289
330
1F
100
AcDbEntity
  8
LC-001-100-D00-0
 62
     7
370
    50
100
AcDbLine
 10
557.827652
 20
341.423976
 30
0.0
 11
510.35075
 21
341.423976
 31
0.0
  0
ARC
  5
28A
330
1F
100
AcDbEntity
  8
LC-001-100-D00-0
 62
     7
370
    50
100
AcDbCircle
 10
557.827648
 20
339.423977
 30
0.0
 40
2.0
100
AcDbArc
 50
0.0
 51
90.0
  0
LINE
  5
28B
330
1F
100
AcDbEntity
  8
LC-001-100-D00-0
 62
     7
370
    50
100
AcDbLine
 10
559.827641
 20
338.423977
 30
0.0
 11
559.827641
 21
339.423979
 31
0.0
  0
LINE
  5
28C
330
1F
100
AcDbEntity
  8
LC-001-100-D00-0
 62
     7
370
    50
100
AcDbLine
 10
510.616594
 20
338.423977
 30
0.0
 11
559.827641
 21
338.423977
 31
0.0
  0
LINE
  5
28D
330
1F
100
AcDbEntity
  8
LC-001-100-D00-0
 62
     7
370
    50
100
AcDbLine
 10
488.142223
 20
330.243977
 30
0.0
 11
510.616594
 21
338.423977
 31
0.0
  0
LINE
  5
28E
330
1F
100
AcDbEntity
  8
LC-001-100-D00-0
 62
     7
370
    50
100
AcDbLine
 10
482.802645
 20
330.243977
 30
0.0
 11
488.142223
 21
330.243977
 31
0.0
  0
LINE
  5
28F
330
1F
100
AcDbEntity
  8
LC-001-100-D00-0
 62
     7
370
    50
100
AcDbLine
 10
482.802645
 20
330.243977
 30
0.0
 11
482.802645
 21
314.743975
 31
0.0
  0
ARC
  5
290
330
1F
100
AcDbEntity
  8
LC-001-100-D00-0
 62
     7
370
    50
100
AcDbCircle
 10
482.302648
 20
314.743977
 30
0.0
 40
0.5000000000001137
100
AcDbArc
 50
270.0
 51
0.0
  0
LINE
  5
291
330
1F
100
AcDbEntity
  8
LC-001-100-D00-0
 62
     7
370
    50
100
AcDbLine
 10
479.827651
 20
314.243974
 30
0.0
 11
482.302651
 21
314.243974
 31
0.0
  0
LINE
  5
292
330
1F
100
AcDbEntity
  8
LC-001-100-D00-0
 62
     7
370
    50
100
AcDbLine
 10
479.827651
 20
314.243974
 30
0.0
 11
479.827651
 21
311.243976
 31
0.0
  0
LINE
  5
293
330
1F
100
AcDbEntity
  8
LC-001-100-D00-0
 62
     7
370
    50
100
AcDbLine
 10
478.827648
 20
310.243974
 30
0.0
 11
479.827651
 21
311.243976
 31
0.0
  0
LINE
  5
294
330
1F
100
AcDbEntity
  8
LC-001-100-D00-0
 62
     7
370
    50
100
AcDbLine
 10
474.827648
 20
310.243974
 30
0.0
 11
478.827648
 21
310.243974
 31
0.0
  0
LINE
  5
295
330
1F
100
AcDbEntity
  8
LC-001-100-D00-0
 62
     7
370
    50
100
AcDbLine
 10
473.827646
 20
311.243976
 30
0.0
 11
474.827648
 21
310.243974
 31
0.0
  0
LINE
  5
296
330
1F
100
AcDbEntity
  8
LC-001-100-D00-0
 62
     7
370
    50
100
AcDbLine
 10
473.827646
 20
311.243976
 30
0.0
 11
473.827646
 21
314.243974
 31
0.0
  0
LINE
  5
297
330
1F
100
AcDbEntity
  8
LC-001-100-D00-0
 62
     7
370
    50
100
AcDbLine
 10
467.827649
 20
314.243974
 30
0.0
 11
473.827646
 21
314.243974
 31
0.0
  0
LINE
  5
298
330
1F
100
AcDbEntity
  8
LC-001-100-D00-0
 62
     7
370
    50
100
AcDbLine
 10
467.827649
 20
311.863976
 30
0.0
 11
467.827649
 21
314.243974
 31
0.0
  0
LINE
  5
299
330
1F
100
AcDbEntity
  8
LC-001-100-D00-0
 62
     7
370
    50
100
AcDbLine
 10
463.827648
 20
311.863976
 30
0.0
 11
467.827649
 21
311.863976
 31
0.0
  0
LINE
  5
29A
330
1F
100
AcDbEntity
  8
LC-001-100-D00-0
 62
     7
370
    50
100
AcDbLine
 10
462.82765
 20
310.863974
 30
0.0
 11
463.827648
 21
311.863976
 31
0.0
  0
LINE
  5
29B
330
1F
100
AcDbEntity
  8
LC-001-100-D00-0
 62
     7
370
    50
100
AcDbLine
 10
462.82765
 20
249.423977
 30
0.0
 11
462.82765
 21
310.863974
 31
0.0
  0
LINE
  5
29C
330
1F
100
AcDbEntity
  8
LC-001-100-D00-0
 62
     7
370
    50
100
AcDbLine
 10
460.327648
 20
249.423977
 30
0.0
 11
462.82765
 21
249.423977
 31
0.0
  0
LINE
  5
29D
330
1F
100
AcDbEntity
  8
LC-001-100-D00-0
 62
     7
370
    50
100
AcDbLine
 10
460.327648
 20
294.953978
 30
0.0
 11
460.327648
 21
249.423977
 31
0.0
  0
ARC
  5
29E
330
1F
100
AcDbEntity
  8
LC-001-100-D00-0
 62
     7
370
    50
100
AcDbCircle
 10
459.327648
 20
294.953977
 30
0.0
 40
1.0
100
AcDbArc
 50
0.0
 51
90.0
  0
LINE
  5
29F
330
1F
100
AcDbEntity
  8
LC-001-100-D00-0
 62
     7
370
    50
100
AcDbLine
 10
456.877649
 20
295.953976
 30
0.0
 11
459.327646
 21
295.953976
 31
0.0
  0
ARC
  5
2A0
330
1F
100
AcDbEntity
  8
LC-001-100-D00-0
 62
     7
370
    50
100
AcDbCircle
 10
456.877648
 20
294.953977
 30
0.0
 40
1.0
100
AcDbArc
 50
90.0
 51
180.0
  0
LINE
  5
2A1
330
1F
100
AcDbEntity
  8
LC-001-100-D00-0
 62
     7
370
    50
100
AcDbLine
 10
455.877647
 20
284.553977
 30
0.0
 11
455.877647
 21
294.953978
 31
0.0
  0
ARC
  5
2A2
330
1F
100
AcDbEntity
  8
LC-001-100-D00-0
 62
     7
370
    50
100
AcDbCircle
 10
453.377648
 20
284.553977
 30
0.0
 40
2.5
100
AcDbArc
 50
270.0
 51
0.0
  0
LINE
  5
2A3
330
1F
100
AcDbEntity
  8
LC-001-100-D00-0
 62
     7
370
    50
100
AcDbLine
 10
451.577649
 20
282.053976
 30
0.0
 11
453.37765
 21
282.053976
 31
0.0
  0
ARC
  5
2A4
330
1F
100
AcDbEntity
  8
LC-001-100-D00-0
 62
     7
370
    50
100
AcDbCircle
 10
451.577648
 20
281.053977
 30
0.0
 40
1.0
100
AcDbArc
 50
90.0
 51
180.0
  0
LINE
  5
2A5
330
1F
100
AcDbEntity
  8
LC-001-100-D00-0
 62
     7
370
    50
100
AcDbLine
 10
450.577647
 20
249.423977
 30
0.0
 11
450.577647
 21
281.053977
 31
0.0
  0
LINE
  5
2A6
330
1F
100
AcDbEntity
  8
LC-001-100-D00-0
 62
     7
370
    50
100
AcDbLine
 10
437.827647
 20
249.423977
 30
0.0
 11
450.577647
 21
249.423977
 31
0.0
  0
LINE
  5
2A7
330
1F
100
AcDbEntity
  8
LC-001-100-D00-0
 62
     7
370
    50
100
AcDbLine
 10
437.827647
 20
177.923976
 30
0.0
 11
437.827647
 21
249.423977
 31
0.0
  0
LINE
  5
2A8
330
1F
100
AcDbEntity
  8
LC-001-100-D00-0
 62
     7
370
    50
100
AcDbLine
 10
436.621875
 20
173.423978
 30
0.0
 11
437.827647
 21
177.923976
 31
0.0
  0
LINE
  5
2A9
330
1F
100
AcDbEntity
  8
LC-001-100-D00-0
 62
     7
370
    50
100
AcDbLine
 10
434.827649
 20
173.423978
 30
0.0
 11
436.621875
 21
173.423978
 31
0.0
  0
LINE
  5
2AA
330
1F
100
AcDbEntity
  8
LC-001-100-D00-0
 62
     7
370
    50
100
AcDbLine
 10
434.827649
 20
253.423977
 30
0.0
 11
434.827649
 21
173.423978
 31
0.0
  0
LINE
  5
2AB
330
1F
100
AcDbEntity
  8
LC-001-100-D00-0
 62
     7
370
    50
100
AcDbLine
 10
446.449519
 20
254.850963
 30
0.0
 11
434.827649
 21
253.423977
 31
0.0
  0
ARC
  5
2AC
330
1F
100
AcDbEntity
  8
LC-001-100-D00-0
 62
     7
370
    50
100
AcDbCircle
 10
446.327648
 20
255.843509
 30
0.0
 40
1.00000000000004
100
AcDbArc
 50
277.0
 51
0.0
  0
LINE
  5
2AD
330
1F
100
AcDbEntity
  8
LC-001-100-D00-0
 62
     7
370
    50
100
AcDbLine
 10
447.327648
 20
284.553977
 30
0.0
 11
447.327648
 21
255.843509
 31
0.0
  0
ARC
  5
2AE
330
1F
100
AcDbEntity
  8
LC-001-100-D00-0
 62
     7
370
    50
100
AcDbCircle
 10
448.327648
 20
284.553977
 30
0.0
 40
1.0
100
AcDbArc
 50
90.0
 51
180.0
  0
LINE
  5
2AF
330
1F
100
AcDbEntity
  8
LC-001-100-D00-0
 62
     7
370
    50
100
AcDbLine
 10
453.327649
 20
285.553975
 30
0.0
 11
448.327646
 21
285.553975
 31
0.0
  0
LINE
  5
2B0
330
1F
100
AcDbEntity
  8
LC-001-100-D00-0
 62
     7
370
    50
100
AcDbLine
 10
453.327649
 20
299.553978
 30
0.0
 11
453.327649
 21
285.553975
 31
0.0
  0
ARC
  5
2B1
330
1F
100
AcDbEntity
  8
LC-001-100-D00-0
 62
     7
370
    50
100
AcDbCircle
 10
454.327648
 20
299.553977
 30
0.0
 40
1.0
100
AcDbArc
 50
90.0
 51
180.0
  0
LINE
  5
2B2
330
1F
100
AcDbEntity
  8
LC-001-100-D00-0
 62
     7
370
    50
100
AcDbLine
 10
459.327646
 20
300.553976
 30
0.0
 11
454.327647
 21
300.553976
 31
0.0
  0
ARC
  5
2B3
330
1F
100
AcDbEntity
  8
LC-001-100-D00-0
 62
     7
370
    50
100
AcDbCircle
 10
459.327648
 20
301.553977
 30
0.0
 40
1.0
100
AcDbArc
 50
270.0
 51
0.0
  0
LINE
  5
2B4
330
1F
100
AcDbEntity
  8
LC-001-100-D00-0
 62
     7
370
    50
100
AcDbLine
 10
460.327648
 20
311.003978
 30
0.0
 11
460.327648
 21
301.553974
 31
0.0
  0
LINE
  5
2B5
330
1F
100
AcDbEntity
  8
LC-001-100-D00-0
 62
     7
370
    50
100
AcDbLine
 10
465.327651
 20
316.00398
 30
0.0
 11
460.327648
 21
311.003978
 31
0.0
  0
LINE
  5
2B6
330
1F
100
AcDbEntity
  8
LC-001-100-D00-0
 62
     7
370
    50
100
AcDbLine
 10
465.327651
 20
332.743975
 30
0.0
 11
465.327651
 21
316.00398
 31
0.0
  0
LINE
  5
2B7
330
1F
100
AcDbEntity
  8
LC-001-100-D00-0
 62
     7
370
    50
100
AcDbLine
 10
474.07765
 20
332.743975
 30
0.0
 11
465.327651
 21
332.743975
 31
0.0
  0
LINE
  5
2B8
330
1F
100
AcDbEntity
  8
LC-001-100-D00-0
 62
     7
370
    50
100
AcDbLine
 10
474.07765
 20
332.743975
 30
0.0
 11
474.07765
 21
317.243981
 31
0.0
  0
LINE
  5
2B9
330
1F
100
AcDbEntity
  8
LC-001-100-D00-0
 62
     7
370
    50
100
AcDbLine
 10
479.577646
 20
317.243981
 30
0.0
 11
474.07765
 21
317.243981
 31
0.0
  0
LINE
  5
2BA
330
1F
100
AcDbEntity
  8
LC-001-100-D00-0
 62
     7
370
    50
100
AcDbLine
 10
479.577646
 20
317.243981
 30
0.0
 11
479.577646
 21
332.743975
 31
0.0
  0
LINE
  5
2BB
330
1F
100
AcDbEntity
  8
LC-001-100-D00-0
 62
     7
370
    50
100
AcDbLine
 10
486.502648
 20
332.743975
 30
0.0
 11
479.577646
 21
332.743975
 31
0.0
  0
LINE
  5
2BC
330
1F
100
AcDbEntity
  8
LC-001-100-D00-0
 62
     7
370
    50
100
AcDbLine
 10
510.35075
 20
341.423976
 30
0.0
 11
486.502648
 21
332.743975
 31
0.0
  0
LINE
  5
2BD
330
1F
100
AcDbEntity
  8
LC-001-100-D00-0
 62
     7
370
    50
100
AcDbLine
 10
319.205776
 20
254.850963
 30
0.0
 11
446.449519
 21
254.850963
 31
0.0
  0
LINE
  5
2BE
330
1F
100
AcDbEntity
  8
LC-001-100-D00-0
 62
     7
370
    50
100
AcDbLine
 10
317.327649
 20
285.553975
 30
0.0
 11
448.327646
 21
285.553975
 31
0.0
  0
LINE
  5
2BF
330
1F
100
AcDbEntity
  8
LC-001-100-D00-0
 62
     7
370
    50
100
AcDbLine
 10
311.327644
 20
300.553976
 30
0.0
 11
314.077646
 21
300.553976
 31
0.0
  0
LINE
  5
2C0
330
1F
100
AcDbEntity
  8
LC-001-100-D00-0
 62
     7
370
    50
100
AcDbLine
 10
451.577649
 20
300.553976
 30
0.0
 11
454.327647
 21
300.553976
 31
0.0
  0
LINE
  5
2C1
330
1F
100
AcDbEntity
  8
LC-001-100-D00-0
 62
     7
370
    50
100
AcDbLine
 10
305.327647
 20
311.003978
 30
0.0
 11
460.327648
 21
311.003978
 31
0.0
  0
LINE
  5
2C2
330
1F
100
AcDbEntity
  8
LC-001-100-D00-0
 62
     7
370
    50
100
AcDbLine
 10
300.327644
 20
316.00398
 30
0.0
 11
307.327651
 21
316.00398
 31
0.0
  0
LINE
  5
2C3
330
1F
100
AcDbEntity
  8
LC-001-100-D00-0
 62
     7
370
    50
100
AcDbLine
 10
458.327648
 20
316.00398
 30
0.0
 11
465.327651
 21
316.00398
 31
0.0
  0
LINE
  5
2C4
330
1F
100
AcDbEntity
  8
LC-001-100-D00-0
 62
     7
370
    50
100
AcDbLine
 10
330.827647
 20
253.423977
 30
0.0
 11
434.827649
 21
253.423977
 31
0.0
  0
LINE
  5
2C5
330
1F
100
AcDbEntity
  8
LC-001-100-D00-0
 62
     7
370
    50
100
AcDbLine
 10
479.577646
 20
332.743975
 30
0.0
 11
474.07765
 21
332.743975
 31
0.0
  0
LINE
  5
2C6
330
1F
100
AcDbEntity
  8
LC-001-100-D00-0
 62
     7
370
    50
100
AcDbLine
 10
286.827647
 20
332.743975
 30
0.0
 11
286.077649
 21
332.743975
 31
0.0
  0
LINE
  5
2C7
330
1F
100
AcDbEntity
  8
LC-001-100-D00-0
 62
     7
370
    50
100
AcDbLine
 10
330.827647
 20
173.423978
 30
0.0
 11
434.827649
 21
173.423978
 31
0.0
  0
LINE
  5
2C8
330
1F
100
AcDbEntity
  8
LC-001-100-D00-0
 62
     7
370
    50
100
AcDbLine
 10
300.327644
 20
332.743975
 30
0.0
 11
303.077646
 21
332.743975
 31
0.0
  0
LINE
  5
2C9
330
1F
100
AcDbEntity
  8
LC-001-100-D00-0
 62
     7
370
    50
100
AcDbLine
 10
462.577649
 20
332.743975
 30
0.0
 11
465.327651
 21
332.743975
 31
0.0
  0
LINE
  5
2CA
330
1F
100
AcDbEntity
  8
LC-001-100-D00-0
 62
     7
370
    50
100
AcDbLine
 10
302.827649
 20
249.423977
 30
0.0
 11
302.827649
 21
247.423977
 31
0.0
  0
LINE
  5
2CB
330
1F
100
AcDbEntity
  8
LC-001-100-D00-0
 62
     7
370
    50
100
AcDbLine
 10
462.82765
 20
247.423977
 30
0.0
 11
462.82765
 21
249.423977
 31
0.0
  0
LINE
  5
2CC
330
1F
100
AcDbEntity
  8
LC-001-100-D00-0
 62
     7
370
    50
100
AcDbLine
 10
307.527647
 20
258.423977
 30
0.0
 11
305.327647
 21
258.423977
 31
0.0
  0
LINE
  5
2CD
330
1F
100
AcDbEntity
  8
LC-001-100-D00-0
 62
     7
370
    50
100
AcDbLine
 10
307.527647
 20
256.923978
 30
0.0
 11
307.527647
 21
258.423977
 31
0.0
  0
LINE
  5
2CE
330
1F
100
AcDbEntity
  8
LC-001-100-D00-0
 62
     7
370
    50
100
AcDbLine
 10
307.827645
 20
256.923978
 30
0.0
 11
307.527647
 21
256.923978
 31
0.0
  0
LINE
  5
2CF
330
1F
100
AcDbEntity
  8
LC-001-100-D00-0
 62
     7
370
    50
100
AcDbLine
 10
307.827645
 20
244.423977
 30
0.0
 11
307.827645
 21
256.923978
 31
0.0
  0
ARC
  5
2D0
330
1F
100
AcDbEntity
  8
LC-001-100-D00-0
 62
     7
370
    50
100
AcDbCircle
 10
310.327648
 20
244.423977
 30
0.0
 40
2.5
100
AcDbArc
 50
180.0
 51
270.0
  0
LINE
  5
2D1
330
1F
100
AcDbEntity
  8
LC-001-100-D00-0
 62
     7
370
    50
100
AcDbLine
 10
327.827648
 20
239.423977
 30
0.0
 11
327.827648
 21
241.923977
 31
0.0
  0
LINE
  5
2D2
330
1F
100
AcDbEntity
  8
LC-001-100-D00-0
 62
     7
370
    50
100
AcDbLine
 10
325.32765
 20
239.423977
 30
0.0
 11
327.827648
 21
239.423977
 31
0.0
  0
LINE
  5
2D3
330
1F
100
AcDbEntity
  8
LC-001-100-D00-0
 62
     7
370
    50
100
AcDbLine
 10
325.32765
 20
239.423977
 30
0.0
 11
325.32765
 21
236.923977
 31
0.0
  0
LINE
  5
2D4
330
1F
100
AcDbEntity
  8
LC-001-100-D00-0
 62
     7
370
    50
100
AcDbLine
 10
315.327645
 20
236.923977
 30
0.0
 11
325.32765
 21
236.923977
 31
0.0
  0
LINE
  5
2D5
330
1F
100
AcDbEntity
  8
LC-001-100-D00-0
 62
     7
370
    50
100
AcDbLine
 10
315.327645
 20
236.923977
 30
0.0
 11
315.327645
 21
239.423977
 31
0.0
  0
LINE
  5
2D6
330
1F
100
AcDbEntity
  8
LC-001-100-D00-0
 62
     7
370
    50
100
AcDbLine
 10
310.827651
 20
239.423977
 30
0.0
 11
315.327645
 21
239.423977
 31
0.0
  0
ARC
  5
2D7
330
1F
100
AcDbEntity
  8
LC-001-100-D00-0
 62
     7
370
    50
100
AcDbCircle
 10
310.827648
 20
247.423977
 30
0.0
 40
8.0
100
AcDbArc
 50
180.0
 51
270.0
  0
LINE
  5
2D8
330
1F
100
AcDbEntity
  8
LC-001-100-D00-0
 62
     7
370
    50
100
AcDbLine
 10
305.327647
 20
258.423977
 30
0.0
 11
305.327647
 21
249.423977
 31
0.0
  0
LINE
  5
2D9
330
1F
100
AcDbEntity
  8
LC-001-100-D00-0
 62
     7
370
    50
100
AcDbLine
 10
327.827648
 20
241.923977
 30
0.0
 11
310.32765
 21
241.923977
 31
0.0
  0
ARC
  5
2DA
330
1F
100
AcDbEntity
  8
LC-001-100-D00-0
 62
     7
370
    50
100
AcDbCircle
 10
455.327648
 20
244.423977
 30
0.0
 40
2.5
100
AcDbArc
 50
270.0
 51
0.0
  0
ARC
  5
2DB
330
1F
100
AcDbEntity
  8
LC-001-100-D00-0
 62
     7
370
    50
100
AcDbCircle
 10
454.827648
 20
247.423977
 30
0.0
 40
8.0
100
AcDbArc
 50
270.0
 51
0.0
  0
LINE
  5
2DC
330
1F
100
AcDbEntity
  8
LC-001-100-D00-0
 62
     7
370
    50
100
AcDbLine
 10
450.327647
 20
239.423977
 30
0.0
 11
450.327647
 21
236.923977
 31
0.0
  0
LINE
  5
2DD
330
1F
100
AcDbEntity
  8
LC-001-100-D00-0
 62
     7
370
    50
100
AcDbLine
 10
440.327649
 20
236.923977
 30
0.0
 11
450.327647
 21
236.923977
 31
0.0
  0
LINE
  5
2DE
330
1F
100
AcDbEntity
  8
LC-001-100-D00-0
 62
     7
370
    50
100
AcDbLine
 10
440.327649
 20
236.923977
 30
0.0
 11
440.327649
 21
239.423977
 31
0.0
  0
LINE
  5
2DF
330
1F
100
AcDbEntity
  8
LC-001-100-D00-0
 62
     7
370
    50
100
AcDbLine
 10
437.827647
 20
241.923977
 30
0.0
 11
437.827647
 21
239.423977
 31
0.0
  0
LINE
  5
2E0
330
1F
100
AcDbEntity
  8
LC-001-100-D00-0
 62
     7
370
    50
100
AcDbLine
 10
457.827647
 20
256.923978
 30
0.0
 11
457.827647
 21
244.423977
 31
0.0
  0
LINE
  5
2E1
330
1F
100
AcDbEntity
  8
LC-001-100-D00-0
 62
     7
370
    50
100
AcDbLine
 10
458.127648
 20
256.923978
 30
0.0
 11
457.827647
 21
256.923978
 31
0.0
  0
LINE
  5
2E2
330
1F
100
AcDbEntity
  8
LC-001-100-D00-0
 62
     7
370
    50
100
AcDbLine
 10
458.127648
 20
258.423977
 30
0.0
 11
458.127648
 21
256.923978
 31
0.0
  0
LINE
  5
2E3
330
1F
100
AcDbEntity
  8
LC-001-100-D00-0
 62
     7
370
    50
100
AcDbLine
 10
460.327648
 20
258.423977
 30
0.0
 11
458.127648
 21
258.423977
 31
0.0
  0
LINE
  5
2E4
330
1F
100
AcDbEntity
  8
LC-001-100-D00-0
 62
     7
370
    50
100
AcDbLine
 10
460.327648
 20
249.423977
 30
0.0
 11
460.327648
 21
258.423977
 31
0.0
  0
LINE
  5
2E5
330
1F
100
AcDbEntity
  8
LC-001-100-D00-0
 62
     7
370
    50
100
AcDbLine
 10
437.827647
 20
239.423977
 30
0.0
 11
440.327649
 21
239.423977
 31
0.0
  0
LINE
  5
2E6
330
1F
100
AcDbEntity
  8
LC-001-100-D00-0
 62
     7
370
    50
100
AcDbLine
 10
450.327647
 20
239.423977
 30
0.0
 11
454.827648
 21
239.423977
 31
0.0
  0
LINE
  5
2E7
330
1F
100
AcDbEntity
  8
LC-001-100-D00-0
 62
     7
370
    50
100
AcDbLine
 10
455.327649
 20
241.923977
 30
0.0
 11
437.827647
 21
241.923977
 31
0.0
  0
LINE
  5
2E8
330
1F
100
AcDbEntity
  8
LC-001-100-D00-0
 62
     7
370
    50
100
AcDbLine
 10
307.827645
 20
256.923978
 30
0.0
 11
315.077648
 21
256.923978
 31
0.0
  0
LINE
  5
2E9
330
1F
100
AcDbEntity
  8
LC-001-100-D00-0
 62
     7
370
    50
100
AcDbLine
 10
450.577647
 20
256.923978
 30
0.0
 11
457.827647
 21
256.923978
 31
0.0
  0
LINE
  5
2EA
330
1F
100
AcDbEntity
  8
LC-001-100-D00-0
 62
     7
370
    50
100
AcDbLine
 10
307.527647
 20
258.423977
 30
0.0
 11
315.077648
 21
258.423977
 31
0.0
  0
LINE
  5
2EB
330
1F
100
AcDbEntity
  8
LC-001-100-D00-0
 62
     7
370
    50
100
AcDbLine
 10
450.577647
 20
258.423977
 30
0.0
 11
458.127648
 21
258.423977
 31
0.0
  0
LINE
  5
2EC
330
1F
100
AcDbEntity
  8
LC-001-100-D00-0
 62
     7
370
    50
100
AcDbLine
 10
439.027649
 20
382.055762
 30
0.0
 11
431.276231
 21
403.35262
 31
0.0
  0
LINE
  5
2ED
330
1F
100
AcDbEntity
  8
LC-001-100-D00-0
 62
     7
370
    50
100
AcDbLine
 10
431.276231
 20
403.35262
 30
0.0
 11
431.276231
 21
402.967858
 31
0.0
  0
LINE
  5
2EE
330
1F
100
AcDbEntity
  8
LC-001-100-D00-0
 62
     7
370
    50
100
AcDbLine
 10
431.276231
 20
402.967858
 30
0.0
 11
334.379063
 21
402.967858
 31
0.0
  0
LINE
  5
2EF
330
1F
100
AcDbEntity
  8
LC-001-100-D00-0
 62
     7
370
    50
100
AcDbLine
 10
334.379063
 20
402.967858
 30
0.0
 11
334.379063
 21
403.35262
 31
0.0
  0
LINE
  5
2F0
330
1F
100
AcDbEntity
  8
LC-001-100-D00-0
 62
     7
370
    50
100
AcDbLine
 10
334.379063
 20
403.35262
 30
0.0
 11
326.62765
 21
382.055762
 31
0.0
  0
LINE
  5
2F1
330
1F
100
AcDbEntity
  8
LC-001-100-D00-0
 62
     7
370
    50
100
AcDbLine
 10
326.62765
 20
382.055762
 30
0.0
 11
326.62765
 21
377.367916
 31
0.0
  0
LINE
  5
2F2
330
1F
100
AcDbEntity
  8
LC-001-100-D00-0
 62
     7
370
    50
100
AcDbLine
 10
326.62765
 20
377.367916
 30
0.0
 11
324.921415
 21
377.367916
 31
0.0
  0
LINE
  5
2F3
330
1F
100
AcDbEntity
  8
LC-001-100-D00-0
 62
     7
370
    50
100
AcDbLine
 10
324.921415
 20
377.367916
 30
0.0
 11
312.328019
 21
342.767852
 31
0.0
  0
LINE
  5
2F4
330
1F
100
AcDbEntity
  8
LC-001-100-D00-0
 62
     7
370
    50
100
AcDbLine
 10
312.328019
 20
342.767852
 30
0.0
 11
312.327646
 21
342.767852
 31
0.0
  0
LINE
  5
2F5
330
1F
100
AcDbEntity
  8
LC-001-100-D00-0
 62
     7
370
    50
100
AcDbLine
 10
312.327646
 20
335.067856
 30
0.0
 11
312.327646
 21
342.767852
 31
0.0
  0
LINE
  5
2F6
330
1F
100
AcDbEntity
  8
LC-001-100-D00-0
 62
     7
370
    50
100
AcDbLine
 10
311.827645
 20
335.067856
 30
0.0
 11
312.327646
 21
335.067856
 31
0.0
  0
LINE
  5
2F7
330
1F
100
AcDbEntity
  8
LC-001-100-D00-0
 62
     7
370
    50
100
AcDbLine
 10
311.827645
 20
313.767853
 30
0.0
 11
311.827645
 21
335.067856
 31
0.0
  0
ARC
  5
2F8
330
1F
100
AcDbEntity
  8
LC-001-100-D00-0
 62
     7
370
    50
100
AcDbCircle
 10
308.427648
 20
314.767853
 30
0.0
 40
1.0
100
AcDbArc
 50
180.0
 51
270.0
  0
ARC
  5
2F9
330
1F
100
AcDbEntity
  8
LC-001-100-D00-0
 62
     7
370
    50
100
AcDbCircle
 10
308.427648
 20
314.767853
 30
0.0
 40
1.0
100
AcDbArc
 50
90.0
 51
180.0
  0
LINE
  5
2FA
330
1F
100
AcDbEntity
  8
LC-001-100-D00-0
 62
     7
370
    50
100
AcDbLine
 10
308.427647
 20
315.767857
 30
0.0
 11
308.927648
 21
315.767857
 31
0.0
  0
LINE
  5
2FB
330
1F
100
AcDbEntity
  8
LC-001-100-D00-0
 62
     7
370
    50
100
AcDbLine
 10
308.927648
 20
315.767857
 30
0.0
 11
308.927648
 21
342.767852
 31
0.0
  0
LINE
  5
2FC
330
1F
100
AcDbEntity
  8
LC-001-100-D00-0
 62
     7
370
    50
100
AcDbLine
 10
308.927648
 20
342.767852
 30
0.0
 11
300.434746
 21
342.767852
 31
0.0
  0
LINE
  5
2FD
330
1F
100
AcDbEntity
  8
LC-001-100-D00-0
 62
     7
370
    50
100
AcDbLine
 10
297.24218
 20
344.592179
 30
0.0
 11
300.434746
 21
342.767852
 31
0.0
  0
LINE
  5
2FE
330
1F
100
AcDbEntity
  8
LC-001-100-D00-0
 62
     7
370
    50
100
AcDbLine
 10
320.283674
 20
407.89816
 30
0.0
 11
297.24218
 21
344.592179
 31
0.0
  0
ARC
  5
2FF
330
1F
100
AcDbEntity
  8
LC-001-100-D00-0
 62
     7
370
    50
100
AcDbCircle
 10
334.379066
 20
402.767859
 30
0.0
 40
15.0
100
AcDbArc
 50
90.0
 51
160.0
  0
LINE
  5
300
330
1F
100
AcDbEntity
  8
LC-001-100-D00-0
 62
     7
370
    50
100
AcDbLine
 10
334.379063
 20
417.767855
 30
0.0
 11
394.629912
 21
417.767855
 31
0.0
  0
LINE
  5
301
330
1F
100
AcDbEntity
  8
LC-001-100-D00-0
 62
     7
370
    50
100
AcDbLine
 10
394.629912
 20
417.767855
 30
0.0
 11
394.629912
 21
417.867856
 31
0.0
  0
LINE
  5
302
330
1F
100
AcDbEntity
  8
LC-001-100-D00-0
 62
     7
370
    50
100
AcDbLine
 10
395.455966
 20
417.867856
 30
0.0
 11
394.629912
 21
417.867856
 31
0.0
  0
LINE
  5
303
330
1F
100
AcDbEntity
  8
LC-001-100-D00-0
 62
     7
370
    50
100
AcDbLine
 10
395.455966
 20
417.767855
 30
0.0
 11
395.455966
 21
417.867856
 31
0.0
  0
LINE
  5
304
330
1F
100
AcDbEntity
  8
LC-001-100-D00-0
 62
     7
370
    50
100
AcDbLine
 10
395.455966
 20
417.767855
 30
0.0
 11
396.033589
 21
417.767855
 31
0.0
  0
LINE
  5
305
330
1F
100
AcDbEntity
  8
LC-001-100-D00-0
 62
     7
370
    50
100
AcDbLine
 10
396.033589
 20
417.867856
 30
0.0
 11
396.033589
 21
417.767855
 31
0.0
  0
LINE
  5
306
330
1F
100
AcDbEntity
  8
LC-001-100-D00-0
 62
     7
370
    50
100
AcDbLine
 10
396.772691
 20
417.867856
 30
0.0
 11
396.033589
 21
417.867856
 31
0.0
  0
LINE
  5
307
330
1F
100
AcDbEntity
  8
LC-001-100-D00-0
 62
     7
370
    50
100
AcDbLine
 10
396.772691
 20
417.867856
 30
0.0
 11
396.772691
 21
417.767855
 31
0.0
  0
LINE
  5
308
330
1F
100
AcDbEntity
  8
LC-001-100-D00-0
 62
     7
370
    50
100
AcDbLine
 10
396.772691
 20
417.767855
 30
0.0
 11
397.151554
 21
417.767855
 31
0.0
  0
LINE
  5
309
330
1F
100
AcDbEntity
  8
LC-001-100-D00-0
 62
     7
370
    50
100
AcDbLine
 10
397.151554
 20
417.767855
 30
0.0
 11
397.151554
 21
417.867856
 31
0.0
  0
LINE
  5
30A
330
1F
100
AcDbEntity
  8
LC-001-100-D00-0
 62
     7
370
    50
100
AcDbLine
 10
399.499287
 20
417.867856
 30
0.0
 11
397.151554
 21
417.867856
 31
0.0
  0
LINE
  5
30B
330
1F
100
AcDbEntity
  8
LC-001-100-D00-0
 62
     7
370
    50
100
AcDbLine
 10
399.499287
 20
417.867856
 30
0.0
 11
399.499287
 21
417.767855
 31
0.0
  0
LINE
  5
30C
330
1F
100
AcDbEntity
  8
LC-001-100-D00-0
 62
     7
370
    50
100
AcDbLine
 10
399.499287
 20
417.767855
 30
0.0
 11
399.934054
 21
417.767855
 31
0.0
  0
LINE
  5
30D
330
1F
100
AcDbEntity
  8
LC-001-100-D00-0
 62
     7
370
    50
100
AcDbLine
 10
399.934054
 20
417.767855
 30
0.0
 11
399.934054
 21
417.867856
 31
0.0
  0
LINE
  5
30E
330
1F
100
AcDbEntity
  8
LC-001-100-D00-0
 62
     7
370
    50
100
AcDbLine
 10
399.934054
 20
417.867856
 30
0.0
 11
400.716632
 21
417.867856
 31
0.0
  0
LINE
  5
30F
330
1F
100
AcDbEntity
  8
LC-001-100-D00-0
 62
     7
370
    50
100
AcDbLine
 10
400.716632
 20
417.867856
 30
0.0
 11
400.716632
 21
417.767855
 31
0.0
  0
LINE
  5
310
330
1F
100
AcDbEntity
  8
LC-001-100-D00-0
 62
     7
370
    50
100
AcDbLine
 10
400.716632
 20
417.767855
 30
0.0
 11
401.803546
 21
417.767855
 31
0.0
  0
LINE
  5
311
330
1F
100
AcDbEntity
  8
LC-001-100-D00-0
 62
     7
370
    50
100
AcDbLine
 10
401.803546
 20
417.767855
 30
0.0
 11
401.803546
 21
417.867856
 31
0.0
  0
LINE
  5
312
330
1F
100
AcDbEntity
  8
LC-001-100-D00-0
 62
     7
370
    50
100
AcDbLine
 10
401.803546
 20
417.867856
 30
0.0
 11
402.586125
 21
417.867856
 31
0.0
  0
LINE
  5
313
330
1F
100
AcDbEntity
  8
LC-001-100-D00-0
 62
     7
370
    50
100
AcDbLine
 10
402.586125
 20
417.867856
 30
0.0
 11
402.586125
 21
417.767855
 31
0.0
  0
LINE
  5
314
330
1F
100
AcDbEntity
  8
LC-001-100-D00-0
 62
     7
370
    50
100
AcDbLine
 10
402.586125
 20
417.767855
 30
0.0
 11
403.673039
 21
417.767855
 31
0.0
  0
LINE
  5
315
330
1F
100
AcDbEntity
  8
LC-001-100-D00-0
 62
     7
370
    50
100
AcDbLine
 10
403.673039
 20
417.767855
 30
0.0
 11
403.673039
 21
417.867856
 31
0.0
  0
LINE
  5
316
330
1F
100
AcDbEntity
  8
LC-001-100-D00-0
 62
     7
370
    50
100
AcDbLine
 10
404.455617
 20
417.867856
 30
0.0
 11
403.673039
 21
417.867856
 31
0.0
  0
LINE
  5
317
330
1F
100
AcDbEntity
  8
LC-001-100-D00-0
 62
     7
370
    50
100
AcDbLine
 10
404.455617
 20
417.867856
 30
0.0
 11
404.455617
 21
417.767855
 31
0.0
  0
LINE
  5
318
330
1F
100
AcDbEntity
  8
LC-001-100-D00-0
 62
     7
370
    50
100
AcDbLine
 10
404.455617
 20
417.767855
 30
0.0
 11
405.020812
 21
417.767855
 31
0.0
  0
LINE
  5
319
330
1F
100
AcDbEntity
  8
LC-001-100-D00-0
 62
     7
370
    50
100
AcDbLine
 10
405.020812
 20
417.767855
 30
0.0
 11
405.020812
 21
417.867856
 31
0.0
  0
LINE
  5
31A
330
1F
100
AcDbEntity
  8
LC-001-100-D00-0
 62
     7
370
    50
100
AcDbLine
 10
405.846866
 20
417.867856
 30
0.0
 11
405.020812
 21
417.867856
 31
0.0
  0
LINE
  5
31B
330
1F
100
AcDbEntity
  8
LC-001-100-D00-0
 62
     7
370
    50
100
AcDbLine
 10
405.846866
 20
417.867856
 30
0.0
 11
405.846866
 21
417.767855
 31
0.0
  0
LINE
  5
31C
330
1F
100
AcDbEntity
  8
LC-001-100-D00-0
 62
     7
370
    50
100
AcDbLine
 10
405.846866
 20
417.767855
 30
0.0
 11
406.412062
 21
417.767855
 31
0.0
  0
LINE
  5
31D
330
1F
100
AcDbEntity
  8
LC-001-100-D00-0
 62
     7
370
    50
100
AcDbLine
 10
406.412062
 20
417.767855
 30
0.0
 11
406.412062
 21
417.867856
 31
0.0
  0
LINE
  5
31E
330
1F
100
AcDbEntity
  8
LC-001-100-D00-0
 62
     7
370
    50
100
AcDbLine
 10
407.19464
 20
417.867856
 30
0.0
 11
406.412062
 21
417.867856
 31
0.0
  0
LINE
  5
31F
330
1F
100
AcDbEntity
  8
LC-001-100-D00-0
 62
     7
370
    50
100
AcDbLine
 10
407.19464
 20
417.867856
 30
0.0
 11
407.19464
 21
417.767855
 31
0.0
  0
LINE
  5
320
330
1F
100
AcDbEntity
  8
LC-001-100-D00-0
 62
     7
370
    50
100
AcDbLine
 10
407.19464
 20
417.767855
 30
0.0
 11
407.542454
 21
417.767855
 31
0.0
  0
LINE
  5
321
330
1F
100
AcDbEntity
  8
LC-001-100-D00-0
 62
     7
370
    50
100
AcDbLine
 10
407.542454
 20
417.767855
 30
0.0
 11
407.542454
 21
417.867856
 31
0.0
  0
LINE
  5
322
330
1F
100
AcDbEntity
  8
LC-001-100-D00-0
 62
     7
370
    50
100
AcDbLine
 10
407.542454
 20
417.867856
 30
0.0
 11
409.455422
 21
417.867856
 31
0.0
  0
LINE
  5
323
330
1F
100
AcDbEntity
  8
LC-001-100-D00-0
 62
     7
370
    50
100
AcDbLine
 10
409.455422
 20
417.867856
 30
0.0
 11
409.455422
 21
417.767855
 31
0.0
  0
LINE
  5
324
330
1F
100
AcDbEntity
  8
LC-001-100-D00-0
 62
     7
370
    50
100
AcDbLine
 10
409.455422
 20
417.767855
 30
0.0
 11
409.933664
 21
417.767855
 31
0.0
  0
LINE
  5
325
330
1F
100
AcDbEntity
  8
LC-001-100-D00-0
 62
     7
370
    50
100
AcDbLine
 10
409.933664
 20
417.767855
 30
0.0
 11
409.933664
 21
417.867856
 31
0.0
  0
LINE
  5
326
330
1F
100
AcDbEntity
  8
LC-001-100-D00-0
 62
     7
370
    50
100
AcDbLine
 10
412.25673
 20
417.867856
 30
0.0
 11
409.933664
 21
417.867856
 31
0.0
  0
LINE
  5
327
330
1F
100
AcDbEntity
  8
LC-001-100-D00-0
 62
     7
370
    50
100
AcDbLine
 10
412.25673
 20
417.867856
 30
0.0
 11
412.25673
 21
417.767855
 31
0.0
  0
LINE
  5
328
330
1F
100
AcDbEntity
  8
LC-001-100-D00-0
 62
     7
370
    50
100
AcDbLine
 10
412.25673
 20
417.767855
 30
0.0
 11
431.276231
 21
417.767855
 31
0.0
  0
ARC
  5
329
330
1F
100
AcDbEntity
  8
LC-001-100-D00-0
 62
     7
370
    50
100
AcDbCircle
 10
431.27623
 20
402.767859
 30
0.0
 40
14.99999999999993
100
AcDbArc
 50
20.0
 51
90.0
  0
LINE
  5
32A
330
1F
100
AcDbEntity
  8
LC-001-100-D00-0
 62
     7
370
    50
100
AcDbLine
 10
468.413115
 20
344.592179
 30
0.0
 11
445.371621
 21
407.89816
 31
0.0
  0
LINE
  5
32B
330
1F
100
AcDbEntity
  8
LC-001-100-D00-0
 62
     7
370
    50
100
AcDbLine
 10
465.220549
 20
342.767852
 30
0.0
 11
468.413115
 21
344.592179
 31
0.0
  0
LINE
  5
32C
330
1F
100
AcDbEntity
  8
LC-001-100-D00-0
 62
     7
370
    50
100
AcDbLine
 10
465.220549
 20
342.767852
 30
0.0
 11
456.727647
 21
342.767852
 31
0.0
  0
LINE
  5
32D
330
1F
100
AcDbEntity
  8
LC-001-100-D00-0
 62
     7
370
    50
100
AcDbLine
 10
456.727647
 20
342.767852
 30
0.0
 11
456.727647
 21
315.767857
 31
0.0
  0
LINE
  5
32E
330
1F
100
AcDbEntity
  8
LC-001-100-D00-0
 62
     7
370
    50
100
AcDbLine
 10
456.727647
 20
315.767857
 30
0.0
 11
457.227648
 21
315.767857
 31
0.0
  0
ARC
  5
32F
330
1F
100
AcDbEntity
  8
LC-001-100-D00-0
 62
     7
370
    50
100
AcDbCircle
 10
457.227648
 20
314.767853
 30
0.0
 40
1.0
100
AcDbArc
 50
0.0
 51
90.0
  0
ARC
  5
330
330
1F
100
AcDbEntity
  8
LC-001-100-D00-0
 62
     7
370
    50
100
AcDbCircle
 10
457.227648
 20
314.767853
 30
0.0
 40
1.0
100
AcDbArc
 50
270.0
 51
0.0
  0
LINE
  5
331
330
1F
100
AcDbEntity
  8
LC-001-100-D00-0
 62
     7
370
    50
100
AcDbLine
 10
453.827646
 20
335.067856
 30
0.0
 11
453.827646
 21
313.767853
 31
0.0
  0
LINE
  5
332
330
1F
100
AcDbEntity
  8
LC-001-100-D00-0
 62
     7
370
    50
100
AcDbLine
 10
453.327649
 20
335.067856
 30
0.0
 11
453.827646
 21
335.067856
 31
0.0
  0
LINE
  5
333
330
1F
100
AcDbEntity
  8
LC-001-100-D00-0
 62
     7
370
    50
100
AcDbLine
 10
453.327649
 20
342.767852
 30
0.0
 11
453.327649
 21
335.067856
 31
0.0
  0
LINE
  5
334
330
1F
100
AcDbEntity
  8
LC-001-100-D00-0
 62
     7
370
    50
100
AcDbLine
 10
453.327649
 20
342.767852
 30
0.0
 11
453.327276
 21
342.767852
 31
0.0
  0
LINE
  5
335
330
1F
100
AcDbEntity
  8
LC-001-100-D00-0
 62
     7
370
    50
100
AcDbLine
 10
453.327276
 20
342.767852
 30
0.0
 11
440.733884
 21
377.367916
 31
0.0
  0
LINE
  5
336
330
1F
100
AcDbEntity
  8
LC-001-100-D00-0
 62
     7
370
    50
100
AcDbLine
 10
440.733884
 20
377.367916
 30
0.0
 11
439.027649
 21
377.367916
 31
0.0
  0
LINE
  5
337
330
1F
100
AcDbEntity
  8
LC-001-100-D00-0
 62
     7
370
    50
100
AcDbLine
 10
439.027649
 20
377.367916
 30
0.0
 11
439.027649
 21
382.055762
 31
0.0
  0
LINE
  5
338
330
1F
100
AcDbEntity
  8
LC-001-100-D00-0
 62
     7
370
    50
100
AcDbLine
 10
453.827646
 20
313.767853
 30
0.0
 11
457.227648
 21
313.767853
 31
0.0
  0
LINE
  5
339
330
1F
100
AcDbEntity
  8
LC-001-100-D00-0
 62
     7
370
    50
100
AcDbLine
 10
308.427647
 20
313.767853
 30
0.0
 11
311.827645
 21
313.767853
 31
0.0
  0
INSERT
  5
34B
330
1F
100
AcDbEntity
  8
LC-001-100-D00-0
 62
     7
370
    50
100
AcDbBlockReference
  2
POLY19
 10
0.0
 20
0.0
 30
0.0
  0
LINE
  5
34C
330
1F
100
AcDbEntity
  8
LC-001-100-D00-0
 62
     7
370
    50
100
AcDbLine
 10
312.815093
 20
334.067853
 30
0.0
 11
312.815093
 21
313.767853
 31
0.0
  0
LINE
  5
34D
330
1F
100
AcDbEntity
  8
LC-001-100-D00-0
 62
     7
370
    50
100
AcDbLine
 10
311.827645
 20
313.767853
 30
0.0
 11
312.815093
 21
313.767853
 31
0.0
  0
LINE
  5
34E
330
1F
100
AcDbEntity
  8
LC-001-100-D00-0
 62
     7
370
    50
100
AcDbLine
 10
452.840221
 20
313.767853
 30
0.0
 11
452.840221
 21
334.067853
 31
0.0
  0
INSERT
  5
360
330
1F
100
AcDbEntity
  8
LC-001-100-D00-0
 62
     7
370
    50
100
AcDbBlockReference
  2
POLY20
 10
0.0
 20
0.0
 30
0.0
  0
LINE
  5
361
330
1F
100
AcDbEntity
  8
LC-001-100-D00-0
 62
     7
370
    50
100
AcDbLine
 10
452.840221
 20
313.767853
 30
0.0
 11
453.827646
 21
313.767853
 31
0.0
  0
LINE
  5
362
330
1F
100
AcDbEntity
  8
LC-001-100-D00-0
 62
     7
370
    50
100
AcDbLine
 10
312.328019
 20
342.767852
 30
0.0
 11
314.670981
 21
342.767852
 31
0.0
  0
LINE
  5
363
330
1F
100
AcDbEntity
  8
LC-001-100-D00-0
 62
     7
370
    50
100
AcDbLine
 10
314.789497
 20
342.767852
 30
0.0
 11
321.658701
 21
342.767852
 31
0.0
  0
LINE
  5
364
330
1F
100
AcDbEntity
  8
LC-001-100-D00-0
 62
     7
370
    50
100
AcDbLine
 10
321.887658
 20
342.767852
 30
0.0
 11
332.814985
 21
342.767852
 31
0.0
  0
LINE
  5
365
330
1F
100
AcDbEntity
  8
LC-001-100-D00-0
 62
     7
370
    50
100
AcDbLine
 10
333.138779
 20
342.767852
 30
0.0
 11
347.379555
 21
342.767852
 31
0.0
  0
LINE
  5
366
330
1F
100
AcDbEntity
  8
LC-001-100-D00-0
 62
     7
370
    50
100
AcDbLine
 10
347.776112
 20
342.767852
 30
0.0
 11
364.359849
 21
342.767852
 31
0.0
  0
LINE
  5
367
330
1F
100
AcDbEntity
  8
LC-001-100-D00-0
 62
     7
370
    50
100
AcDbLine
 10
364.802153
 20
342.767852
 30
0.0
 11
382.598695
 21
342.767852
 31
0.0
  0
LINE
  5
368
330
1F
100
AcDbEntity
  8
LC-001-100-D00-0
 62
     7
370
    50
100
AcDbLine
 10
383.056602
 20
342.767852
 30
0.0
 11
400.853142
 21
342.767852
 31
0.0
  0
LINE
  5
369
330
1F
100
AcDbEntity
  8
LC-001-100-D00-0
 62
     7
370
    50
100
AcDbLine
 10
401.295446
 20
342.767852
 30
0.0
 11
417.879183
 21
342.767852
 31
0.0
  0
LINE
  5
36A
330
1F
100
AcDbEntity
  8
LC-001-100-D00-0
 62
     7
370
    50
100
AcDbLine
 10
418.275742
 20
342.767852
 30
0.0
 11
432.516518
 21
342.767852
 31
0.0
  0
LINE
  5
36B
330
1F
100
AcDbEntity
  8
LC-001-100-D00-0
 62
     7
370
    50
100
AcDbLine
 10
432.840307
 20
342.767852
 30
0.0
 11
443.767641
 21
342.767852
 31
0.0
  0
LINE
  5
36C
330
1F
100
AcDbEntity
  8
LC-001-100-D00-0
 62
     7
370
    50
100
AcDbLine
 10
443.996594
 20
342.767852
 30
0.0
 11
450.865802
 21
342.767852
 31
0.0
  0
LINE
  5
36D
330
1F
100
AcDbEntity
  8
LC-001-100-D00-0
 62
     7
370
    50
100
AcDbLine
 10
450.984318
 20
342.767852
 30
0.0
 11
453.327276
 21
342.767852
 31
0.0
  0
LINE
  5
36E
330
1F
100
AcDbEntity
  8
LC-001-100-D00-0
 62
     7
370
    50
100
AcDbLine
 10
312.327646
 20
335.067856
 30
0.0
 11
453.327649
 21
335.067856
 31
0.0
  0
LINE
  5
36F
330
1F
100
AcDbEntity
  8
LC-001-100-D00-0
 62
     7
370
    50
100
AcDbLine
 10
412.281399
 20
417.867856
 30
0.0
 11
412.281399
 21
417.767855
 31
0.0
  0
LINE
  5
370
330
1F
100
AcDbEntity
  8
LC-001-100-D00-0
 62
     7
370
    50
100
AcDbLine
 10
412.25673
 20
417.867856
 30
0.0
 11
412.281399
 21
417.867856
 31
0.0
  0
LINE
  5
371
330
1F
100
AcDbEntity
  8
LC-001-100-D00-0
 62
     7
370
    50
100
AcDbLine
 10
405.020812
 20
417.867856
 30
0.0
 11
405.020812
 21
417.767855
 31
0.0
  0
LINE
  5
372
330
1F
100
AcDbEntity
  8
LC-001-100-D00-0
 62
     7
370
    50
100
AcDbLine
 10
405.020812
 20
417.867856
 30
0.0
 11
405.020812
 21
417.867856
 31
0.0
  0
LINE
  5
373
330
1F
100
AcDbEntity
  8
LC-001-100-D00-0
 62
     7
370
    50
100
AcDbLine
 10
328.256339
 20
382.674622
 30
0.0
 11
326.852896
 21
382.674622
 31
0.0
  0
LINE
  5
374
330
1F
100
AcDbEntity
  8
LC-001-100-D00-0
 62
     7
370
    50
100
AcDbLine
 10
328.256339
 20
382.674622
 30
0.0
 11
328.256339
 21
382.088097
 31
0.0
  0
ELLIPSE
  5
375
330
1F
100
AcDbEntity
  8
LC-001-100-D00-0
 62
     7
370
    50
100
AcDbEllipse
 10
382.827648
 20
536.464029
 30
0.0
 11
-54.69271162370898
 21
-154.3402810312612
 31
0.0
210
0.0
220
0.0
230
1.0
 40
0.083767
 41
3.150803750597209
 42
3.19173187407304
  0
LINE
  5
376
330
1F
100
AcDbEntity
  8
LC-001-100-D00-0
 62
     7
370
    50
100
AcDbLine
 10
333.592214
 20
382.674622
 30
0.0
 11
329.057828
 21
382.674622
 31
0.0
  0
LINE
  5
377
330
1F
100
AcDbEntity
  8
LC-001-100-D00-0
 62
     7
370
    50
100
AcDbLine
 10
333.592214
 20
382.674622
 30
0.0
 11
333.592214
 21
382.088097
 31
0.0
  0
ELLIPSE
  5
378
330
1F
100
AcDbEntity
  8
LC-001-100-D00-0
 62
     7
370
    50
100
AcDbEllipse
 10
382.827648
 20
536.464029
 30
0.0
 11
-50.10599910011342
 21
-154.1865670813195
 31
0.0
210
0.0
220
0.0
230
1.0
 40
0.165076
 41
3.174721918189733
 42
3.21565004166557
  0
LINE
  5
379
330
1F
100
AcDbEntity
  8
LC-001-100-D00-0
 62
     7
370
    50
100
AcDbLine
 10
342.283395
 20
382.674622
 30
0.0
 11
334.92709
 21
382.674622
 31
0.0
  0
LINE
  5
37A
330
1F
100
AcDbEntity
  8
LC-001-100-D00-0
 62
     7
370
    50
100
AcDbLine
 10
342.283395
 20
382.674622
 30
0.0
 11
342.283395
 21
382.088097
 31
0.0
  0
ELLIPSE
  5
37B
330
1F
100
AcDbEntity
  8
LC-001-100-D00-0
 62
     7
370
    50
100
AcDbEllipse
 10
382.827648
 20
536.464029
 30
0.0
 11
-42.26835833949199
 21
-154.0735723013265
 31
0.0
210
0.0
220
0.0
230
0.9999999999999999
 40
0.240393
 41
3.186982284715613
 42
3.227910408191454
  0
LINE
  5
37C
330
1F
100
AcDbEntity
  8
LC-001-100-D00-0
 62
     7
370
    50
100
AcDbLine
 10
353.737601
 20
382.674622
 30
0.0
 11
344.060694
 21
382.674622
 31
0.0
  0
LINE
  5
37D
330
1F
100
AcDbEntity
  8
LC-001-100-D00-0
 62
     7
370
    50
100
AcDbLine
 10
353.737601
 20
382.674622
 30
0.0
 11
353.737601
 21
382.088097
 31
0.0
  0
ELLIPSE
  5
37E
330
1F
100
AcDbEntity
  8
LC-001-100-D00-0
 62
     7
370
    50
100
AcDbEllipse
 10
382.827648
 20
536.464029
 30
0.0
 11
-31.02069845648346
 21
-154.1198904247367
 31
0.0
210
0.0
220
0.0
230
1.0
 40
0.30407
 41
3.182254375888671
 42
3.223182499364511
  0
LINE
  5
37F
330
1F
100
AcDbEntity
  8
LC-001-100-D00-0
 62
     7
370
    50
100
AcDbLine
 10
367.17425
 20
382.674622
 30
0.0
 11
355.729461
 21
382.674622
 31
0.0
  0
LINE
  5
380
330
1F
100
AcDbEntity
  8
LC-001-100-D00-0
 62
     7
370
    50
100
AcDbLine
 10
367.17425
 20
382.674622
 30
0.0
 11
367.17425
 21
382.088097
 31
0.0
  0
ELLIPSE
  5
381
330
1F
100
AcDbEntity
  8
LC-001-100-D00-0
 62
     7
370
    50
100
AcDbEllipse
 10
382.827648
 20
536.464029
 30
0.0
 11
-16.56207463459372
 21
-154.3006263193195
 31
0.0
210
0.0
220
0.0
230
1.0
 40
0.348049
 41
3.158469548149911
 42
3.199397671625753
  0
LINE
  5
382
330
1F
100
AcDbEntity
  8
LC-001-100-D00-0
 62
     7
370
    50
100
AcDbLine
 10
381.677649
 20
382.674622
 30
0.0
 11
369.395879
 21
382.674622
 31
0.0
  0
ELLIPSE
  5
383
330
1F
100
AcDbEntity
  8
LC-001-100-D00-0
 62
     7
370
    50
100
AcDbEllipse
 10
382.827648
 20
536.464029
 30
0.0
 11
0.0
 21
-154.4082631621111
 31
0.0
210
0.0
220
0.0
230
1.0
 40
0.36397
 41
3.121128591851876
 42
3.162056715327754
  0
LINE
  5
384
330
1F
100
AcDbEntity
  8
LC-001-100-D00-0
 62
     7
370
    50
100
AcDbLine
 10
396.259418
 20
382.674622
 30
0.0
 11
383.977648
 21
382.674622
 31
0.0
  0
ELLIPSE
  5
385
330
1F
100
AcDbEntity
  8
LC-001-100-D00-0
 62
     7
370
    50
100
AcDbEllipse
 10
382.827648
 20
536.464029
 30
0.0
 11
16.56207463459446
 21
-154.300626319323
 31
0.0
210
0.0
220
0.0
230
1.0
 40
0.348049
 41
3.083787635553871
 42
3.124715759029711
  0
LINE
  5
386
330
1F
100
AcDbEntity
  8
LC-001-100-D00-0
 62
     7
370
    50
100
AcDbLine
 10
398.481047
 20
382.674622
 30
0.0
 11
398.481047
 21
382.088097
 31
0.0
  0
LINE
  5
387
330
1F
100
AcDbEntity
  8
LC-001-100-D00-0
 62
     7
370
    50
100
AcDbLine
 10
409.925835
 20
382.674622
 30
0.0
 11
398.481047
 21
382.674622
 31
0.0
  0
ELLIPSE
  5
388
330
1F
100
AcDbEntity
  8
LC-001-100-D00-0
 62
     7
370
    50
100
AcDbEllipse
 10
382.827648
 20
536.464029
 30
0.0
 11
31.0206984564848
 21
-154.1198904247421
 31
0.0
210
0.0
220
0.0
230
1.0
 40
0.30407
 41
3.06000280781511
 42
3.100930931290948
  0
LINE
  5
389
330
1F
100
AcDbEntity
  8
LC-001-100-D00-0
 62
     7
370
    50
100
AcDbLine
 10
411.917694
 20
382.674622
 30
0.0
 11
411.917694
 21
382.088097
 31
0.0
  0
LINE
  5
38A
330
1F
100
AcDbEntity
  8
LC-001-100-D00-0
 62
     7
370
    50
100
AcDbLine
 10
421.594604
 20
382.674622
 30
0.0
 11
411.917694
 21
382.674622
 31
0.0
  0
ELLIPSE
  5
38B
330
1F
100
AcDbEntity
  8
LC-001-100-D00-0
 62
     7
370
    50
100
AcDbEllipse
 10
382.827648
 20
536.464029
 30
0.0
 11
42.26835833949644
 21
-154.0735723013422
 31
0.0
210
0.0
220
0.0
230
1.0
 40
0.240393
 41
3.055274898988173
 42
3.096203022464009
  0
LINE
  5
38C
330
1F
100
AcDbEntity
  8
LC-001-100-D00-0
 62
     7
370
    50
100
AcDbLine
 10
423.3719
 20
382.674622
 30
0.0
 11
423.3719
 21
382.088097
 31
0.0
  0
LINE
  5
38D
330
1F
100
AcDbEntity
  8
LC-001-100-D00-0
 62
     7
370
    50
100
AcDbLine
 10
430.728207
 20
382.674622
 30
0.0
 11
423.3719
 21
382.674622
 31
0.0
  0
ELLIPSE
  5
38E
330
1F
100
AcDbEntity
  8
LC-001-100-D00-0
 62
     7
370
    50
100
AcDbEllipse
 10
382.827648
 20
536.464029
 30
0.0
 11
50.10599910009133
 21
-154.1865670812513
 31
0.0
210
0.0
220
0.0
230
1.0
 40
0.165076
 41
3.067535265514079
 42
3.108463388989923
  0
LINE
  5
38F
330
1F
100
AcDbEntity
  8
LC-001-100-D00-0
 62
     7
370
    50
100
AcDbLine
 10
432.063085
 20
382.674622
 30
0.0
 11
432.063085
 21
382.088097
 31
0.0
  0
LINE
  5
390
330
1F
100
AcDbEntity
  8
LC-001-100-D00-0
 62
     7
370
    50
100
AcDbLine
 10
436.597467
 20
382.674622
 30
0.0
 11
432.063085
 21
382.674622
 31
0.0
  0
ELLIPSE
  5
391
330
1F
100
AcDbEntity
  8
LC-001-100-D00-0
 62
     7
370
    50
100
AcDbEllipse
 10
382.827648
 20
536.464029
 30
0.0
 11
54.69271162416116
 21
-154.3402810325368
 31
0.0
210
0.0
220
0.0
230
1.0
 40
0.083767
 41
3.091453433106641
 42
3.132381556582483
  0
LINE
  5
392
330
1F
100
AcDbEntity
  8
LC-001-100-D00-0
 62
     7
370
    50
100
AcDbLine
 10
437.398956
 20
382.674622
 30
0.0
 11
437.398956
 21
382.088097
 31
0.0
  0
LINE
  5
393
330
1F
100
AcDbEntity
  8
LC-001-100-D00-0
 62
     7
370
    50
100
AcDbLine
 10
438.802403
 20
382.674622
 30
0.0
 11
437.398956
 21
382.674622
 31
0.0
  0
LINE
  5
394
330
1F
100
AcDbEntity
  8
LC-001-100-D00-0
 62
     7
370
    50
100
AcDbLine
 10
439.027649
 20
377.367916
 30
0.0
 11
326.62765
 21
377.367916
 31
0.0
  0
LINE
  5
395
330
1F
100
AcDbEntity
  8
LC-001-100-D00-0
 62
     7
370
    50
100
AcDbLine
 10
396.033589
 20
417.867856
 30
0.0
 11
395.90316
 21
417.867856
 31
0.0
  0
LINE
  5
396
330
1F
100
AcDbEntity
  8
LC-001-100-D00-0
 62
     7
370
    50
100
AcDbLine
 10
405.846866
 20
417.867856
 30
0.0
 11
405.93382
 21
417.867856
 31
0.0
  0
LINE
  5
397
330
1F
100
AcDbEntity
  8
LC-001-100-D00-0
 62
     7
370
    50
100
AcDbLine
 10
404.933859
 20
417.867856
 30
0.0
 11
405.020812
 21
417.867856
 31
0.0
  0
LINE
  5
398
330
1F
100
AcDbEntity
  8
LC-001-100-D00-0
 62
     7
370
    50
100
AcDbLine
 10
404.455617
 20
417.867856
 30
0.0
 11
404.54257
 21
417.867856
 31
0.0
  0
LINE
  5
399
330
1F
100
AcDbEntity
  8
LC-001-100-D00-0
 62
     7
370
    50
100
AcDbLine
 10
406.325109
 20
417.867856
 30
0.0
 11
406.412062
 21
417.867856
 31
0.0
  0
LINE
  5
39A
330
1F
100
AcDbEntity
  8
LC-001-100-D00-0
 62
     7
370
    50
100
AcDbLine
 10
395.90316
 20
417.867856
 30
0.0
 11
395.455966
 21
417.867856
 31
0.0
  0
LINE
  5
39B
330
1F
100
AcDbEntity
  8
LC-001-100-D00-0
 62
     7
370
    50
100
AcDbLine
 10
404.54257
 20
417.867856
 30
0.0
 11
404.933859
 21
417.867856
 31
0.0
  0
LINE
  5
39C
330
1F
100
AcDbEntity
  8
LC-001-100-D00-0
 62
     7
370
    50
100
AcDbLine
 10
405.93382
 20
417.867856
 30
0.0
 11
406.325109
 21
417.867856
 31
0.0
  0
LINE
  5
39D
330
1F
100
AcDbEntity
  8
LC-001-100-D00-0
 62
     7
370
    50
100
AcDbLine
 10
423.3719
 20
382.088097
 30
0.0
 11
417.998165
 21
402.967858
 31
0.0
  0
LINE
  5
39E
330
1F
100
AcDbEntity
  8
LC-001-100-D00-0
 62
     7
370
    50
100
AcDbLine
 10
441.901398
 20
342.767852
 30
0.0
 11
443.021738
 21
343.673224
 31
0.0
  0
LINE
  5
39F
330
1F
100
AcDbEntity
  8
LC-001-100-D00-0
 62
     7
370
    50
100
AcDbLine
 10
433.491586
 20
342.767852
 30
0.0
 11
424.586714
 21
377.367916
 31
0.0
  0
LINE
  5
3A0
330
1F
100
AcDbEntity
  8
LC-001-100-D00-0
 62
     7
370
    50
100
AcDbLine
 10
323.753901
 20
342.767852
 30
0.0
 11
322.633558
 21
343.673224
 31
0.0
  0
LINE
  5
3A1
330
1F
100
AcDbEntity
  8
LC-001-100-D00-0
 62
     7
370
    50
100
AcDbLine
 10
342.283395
 20
382.088097
 30
0.0
 11
347.65713
 21
402.967858
 31
0.0
  0
LINE
  5
3A2
330
1F
100
AcDbEntity
  8
LC-001-100-D00-0
 62
     7
370
    50
100
AcDbLine
 10
332.163707
 20
342.767852
 30
0.0
 11
341.068581
 21
377.367916
 31
0.0
  0
LINE
  5
3A3
330
1F
100
AcDbEntity
  8
LC-001-100-D00-0
 62
     7
370
    50
100
AcDbLine
 10
308.927648
 20
326.067852
 30
0.0
 11
306.809568
 21
326.067852
 31
0.0
  0
LINE
  5
3A4
330
1F
100
AcDbEntity
  8
LC-001-100-D00-0
 62
     7
370
    50
100
AcDbLine
 10
306.809568
 20
326.067852
 30
0.0
 11
306.809568
 21
342.767852
 31
0.0
  0
LINE
  5
3A5
330
1F
100
AcDbEntity
  8
LC-001-100-D00-0
 62
     7
370
    50
100
AcDbLine
 10
328.256339
 20
382.088097
 30
0.0
 11
335.597002
 21
402.967858
 31
0.0
  0
LINE
  5
3A6
330
1F
100
AcDbEntity
  8
LC-001-100-D00-0
 62
     7
370
    50
100
AcDbLine
 10
314.432592
 20
342.767852
 30
0.0
 11
326.596879
 21
377.367916
 31
0.0
  0
LINE
  5
3A7
330
1F
100
AcDbEntity
  8
LC-001-100-D00-0
 62
     7
370
    50
100
AcDbLine
 10
437.398956
 20
382.088097
 30
0.0
 11
430.058296
 21
402.967858
 31
0.0
  0
LINE
  5
3A8
330
1F
100
AcDbEntity
  8
LC-001-100-D00-0
 62
     7
370
    50
100
AcDbLine
 10
458.845728
 20
326.067852
 30
0.0
 11
458.845728
 21
342.767852
 31
0.0
  0
LINE
  5
3A9
330
1F
100
AcDbEntity
  8
LC-001-100-D00-0
 62
     7
370
    50
100
AcDbLine
 10
458.845728
 20
326.067852
 30
0.0
 11
456.727647
 21
326.067852
 31
0.0
  0
LINE
  5
3AA
330
1F
100
AcDbEntity
  8
LC-001-100-D00-0
 62
     7
370
    50
100
AcDbLine
 10
451.2227
 20
342.767852
 30
0.0
 11
439.05842
 21
377.367916
 31
0.0
  0
LINE
  5
3AB
330
1F
100
AcDbEntity
  8
LC-001-100-D00-0
 62
     7
370
    50
100
AcDbLine
 10
436.803669
 20
382.088097
 30
0.0
 11
429.463011
 21
402.967858
 31
0.0
  0
LINE
  5
3AC
330
1F
100
AcDbEntity
  8
LC-001-100-D00-0
 62
     7
370
    50
100
AcDbLine
 10
328.851626
 20
382.088097
 30
0.0
 11
336.192288
 21
402.967858
 31
0.0
  0
INSERT
  5
3BE
330
1F
100
AcDbEntity
  8
LC-001-100-D00-0
 62
     7
370
    50
100
AcDbBlockReference
  2
POLY21
 10
0.0
 20
0.0
 30
0.0
  0
INSERT
  5
3D0
330
1F
100
AcDbEntity
  8
LC-001-100-D00-0
 62
     7
370
    50
100
AcDbBlockReference
  2
POLY22
 10
0.0
 20
0.0
 30
0.0
  0
LINE
  5
3D1
330
1F
100
AcDbEntity
  8
LC-001-100-D00-0
 62
     7
370
    50
100
AcDbLine
 10
369.027664
 20
334.067853
 30
0.0
 11
369.027664
 21
326.067852
 31
0.0
  0
LINE
  5
3D2
330
1F
100
AcDbEntity
  8
LC-001-100-D00-0
 62
     7
370
    50
100
AcDbLine
 10
313.181706
 20
326.067852
 30
0.0
 11
369.027664
 21
326.067852
 31
0.0
  0
LINE
  5
3D3
330
1F
100
AcDbEntity
  8
LC-001-100-D00-0
 62
     7
370
    50
100
AcDbLine
 10
313.181706
 20
326.067852
 30
0.0
 11
313.181706
 21
334.067853
 31
0.0
  0
INSERT
  5
3E5
330
1F
100
AcDbEntity
  8
LC-001-100-D00-0
 62
     7
370
    50
100
AcDbBlockReference
  2
POLY23
 10
0.0
 20
0.0
 30
0.0
  0
INSERT
  5
3F7
330
1F
100
AcDbEntity
  8
LC-001-100-D00-0
 62
     7
370
    50
100
AcDbBlockReference
  2
POLY24
 10
0.0
 20
0.0
 30
0.0
  0
LINE
  5
3F8
330
1F
100
AcDbEntity
  8
LC-001-100-D00-0
 62
     7
370
    50
100
AcDbLine
 10
452.473615
 20
334.067853
 30
0.0
 11
452.473615
 21
326.067852
 31
0.0
  0
LINE
  5
3F9
330
1F
100
AcDbEntity
  8
LC-001-100-D00-0
 62
     7
370
    50
100
AcDbLine
 10
396.627745
 20
326.067852
 30
0.0
 11
452.473615
 21
326.067852
 31
0.0
  0
LINE
  5
3FA
330
1F
100
AcDbEntity
  8
LC-001-100-D00-0
 62
     7
370
    50
100
AcDbLine
 10
396.627745
 20
326.067852
 30
0.0
 11
396.627745
 21
334.067853
 31
0.0
  0
LINE
  5
3FB
330
1F
100
AcDbEntity
  8
LC-001-100-D00-0
 62
     7
370
    50
100
AcDbLine
 10
452.473615
 20
326.067852
 30
0.0
 11
452.840221
 21
326.067852
 31
0.0
  0
LINE
  5
3FC
330
1F
100
AcDbEntity
  8
LC-001-100-D00-0
 62
     7
370
    50
100
AcDbLine
 10
312.815093
 20
326.067852
 30
0.0
 11
313.181706
 21
326.067852
 31
0.0
  0
LINE
  5
3FD
330
1F
100
AcDbEntity
  8
LC-001-100-D00-0
 62
     7
370
    50
100
AcDbLine
 10
450.865802
 20
342.767852
 30
0.0
 11
450.984318
 21
342.767852
 31
0.0
  0
LINE
  5
3FE
330
1F
100
AcDbEntity
  8
LC-001-100-D00-0
 62
     7
370
    50
100
AcDbLine
 10
450.627417
 20
342.767852
 30
0.0
 11
438.463137
 21
377.367916
 31
0.0
  0
LINE
  5
3FF
330
1F
100
AcDbEntity
  8
LC-001-100-D00-0
 62
     7
370
    50
100
AcDbLine
 10
314.670981
 20
342.767852
 30
0.0
 11
314.789497
 21
342.767852
 31
0.0
  0
LINE
  5
400
330
1F
100
AcDbEntity
  8
LC-001-100-D00-0
 62
     7
370
    50
100
AcDbLine
 10
315.027878
 20
342.767852
 30
0.0
 11
327.192158
 21
377.367916
 31
0.0
  0
LINE
  5
401
330
1F
100
AcDbEntity
  8
LC-001-100-D00-0
 62
     7
370
    50
100
AcDbLine
 10
432.063085
 20
382.088097
 30
0.0
 11
425.481629
 21
402.967858
 31
0.0
  0
LINE
  5
402
330
1F
100
AcDbEntity
  8
LC-001-100-D00-0
 62
     7
370
    50
100
AcDbLine
 10
444.457118
 20
342.767852
 30
0.0
 11
433.550919
 21
377.367916
 31
0.0
  0
LINE
  5
403
330
1F
100
AcDbEntity
  8
LC-001-100-D00-0
 62
     7
370
    50
100
AcDbLine
 10
333.592214
 20
382.088097
 30
0.0
 11
340.17367
 21
402.967858
 31
0.0
  0
LINE
  5
404
330
1F
100
AcDbEntity
  8
LC-001-100-D00-0
 62
     7
370
    50
100
AcDbLine
 10
321.198181
 20
342.767852
 30
0.0
 11
332.104378
 21
377.367916
 31
0.0
  0
LINE
  5
405
330
1F
100
AcDbEntity
  8
LC-001-100-D00-0
 62
     7
370
    50
100
AcDbLine
 10
430.913086
 20
382.088097
 30
0.0
 11
424.331628
 21
402.967858
 31
0.0
  0
LINE
  5
406
330
1F
100
AcDbEntity
  8
LC-001-100-D00-0
 62
     7
370
    50
100
AcDbLine
 10
334.742211
 20
382.088097
 30
0.0
 11
341.323667
 21
402.967858
 31
0.0
  0
LINE
  5
407
330
1F
100
AcDbEntity
  8
LC-001-100-D00-0
 62
     7
370
    50
100
AcDbLine
 10
443.767641
 20
342.767852
 30
0.0
 11
443.996594
 21
342.767852
 31
0.0
  0
LINE
  5
408
330
1F
100
AcDbEntity
  8
LC-001-100-D00-0
 62
     7
370
    50
100
AcDbLine
 10
443.307117
 20
342.767852
 30
0.0
 11
432.40092
 21
377.367916
 31
0.0
  0
LINE
  5
409
330
1F
100
AcDbEntity
  8
LC-001-100-D00-0
 62
     7
370
    50
100
AcDbLine
 10
321.658701
 20
342.767852
 30
0.0
 11
321.887658
 21
342.767852
 31
0.0
  0
LINE
  5
40A
330
1F
100
AcDbEntity
  8
LC-001-100-D00-0
 62
     7
370
    50
100
AcDbLine
 10
322.348178
 20
342.767852
 30
0.0
 11
333.254375
 21
377.367916
 31
0.0
  0
LINE
  5
40B
330
1F
100
AcDbEntity
  8
LC-001-100-D00-0
 62
     7
370
    50
100
AcDbLine
 10
421.745556
 20
382.088097
 30
0.0
 11
416.371819
 21
402.967858
 31
0.0
  0
LINE
  5
40C
330
1F
100
AcDbEntity
  8
LC-001-100-D00-0
 62
     7
370
    50
100
AcDbLine
 10
343.909741
 20
382.088097
 30
0.0
 11
349.283476
 21
402.967858
 31
0.0
  0
LINE
  5
40D
330
1F
100
AcDbEntity
  8
LC-001-100-D00-0
 62
     7
370
    50
100
AcDbLine
 10
411.917694
 20
382.088097
 30
0.0
 11
408.117888
 21
402.967858
 31
0.0
  0
LINE
  5
40E
330
1F
100
AcDbEntity
  8
LC-001-100-D00-0
 62
     7
370
    50
100
AcDbLine
 10
426.61631
 20
344.592179
 30
0.0
 11
420.651613
 21
377.367916
 31
0.0
  0
LINE
  5
40F
330
1F
100
AcDbEntity
  8
LC-001-100-D00-0
 62
     7
370
    50
100
AcDbLine
 10
419.685871
 20
382.674622
 30
0.0
 11
415.992804
 21
402.967858
 31
0.0
  0
LINE
  5
410
330
1F
100
AcDbEntity
  8
LC-001-100-D00-0
 62
     7
370
    50
100
AcDbLine
 10
425.020027
 20
342.767852
 30
0.0
 11
426.61631
 21
344.592179
 31
0.0
  0
LINE
  5
411
330
1F
100
AcDbEntity
  8
LC-001-100-D00-0
 62
     7
370
    50
100
AcDbLine
 10
419.07339
 20
342.767852
 30
0.0
 11
412.776695
 21
377.367916
 31
0.0
  0
LINE
  5
412
330
1F
100
AcDbEntity
  8
LC-001-100-D00-0
 62
     7
370
    50
100
AcDbLine
 10
340.635271
 20
342.767852
 30
0.0
 11
339.038984
 21
344.592179
 31
0.0
  0
LINE
  5
413
330
1F
100
AcDbEntity
  8
LC-001-100-D00-0
 62
     7
370
    50
100
AcDbLine
 10
339.038984
 20
344.592179
 30
0.0
 11
345.003684
 21
377.367916
 31
0.0
  0
LINE
  5
414
330
1F
100
AcDbEntity
  8
LC-001-100-D00-0
 62
     7
370
    50
100
AcDbLine
 10
345.969424
 20
382.674622
 30
0.0
 11
349.662491
 21
402.967858
 31
0.0
  0
LINE
  5
415
330
1F
100
AcDbEntity
  8
LC-001-100-D00-0
 62
     7
370
    50
100
AcDbLine
 10
353.737601
 20
382.088097
 30
0.0
 11
357.537408
 21
402.967858
 31
0.0
  0
LINE
  5
416
330
1F
100
AcDbEntity
  8
LC-001-100-D00-0
 62
     7
370
    50
100
AcDbLine
 10
346.581903
 20
342.767852
 30
0.0
 11
352.878601
 21
377.367916
 31
0.0
  0
LINE
  5
417
330
1F
100
AcDbEntity
  8
LC-001-100-D00-0
 62
     7
370
    50
100
AcDbLine
 10
409.925835
 20
382.088097
 30
0.0
 11
406.12603
 21
402.967858
 31
0.0
  0
LINE
  5
418
330
1F
100
AcDbEntity
  8
LC-001-100-D00-0
 62
     7
370
    50
100
AcDbLine
 10
355.729461
 20
382.088097
 30
0.0
 11
359.529265
 21
402.967858
 31
0.0
  0
LINE
  5
419
330
1F
100
AcDbEntity
  8
LC-001-100-D00-0
 62
     7
370
    50
100
AcDbLine
 10
432.516518
 20
342.767852
 30
0.0
 11
432.840307
 21
342.767852
 31
0.0
  0
LINE
  5
41A
330
1F
100
AcDbEntity
  8
LC-001-100-D00-0
 62
     7
370
    50
100
AcDbLine
 10
431.86524
 20
342.767852
 30
0.0
 11
422.960368
 21
377.367916
 31
0.0
  0
LINE
  5
41B
330
1F
100
AcDbEntity
  8
LC-001-100-D00-0
 62
     7
370
    50
100
AcDbLine
 10
332.814985
 20
342.767852
 30
0.0
 11
333.138779
 21
342.767852
 31
0.0
  0
LINE
  5
41C
330
1F
100
AcDbEntity
  8
LC-001-100-D00-0
 62
     7
370
    50
100
AcDbLine
 10
333.790057
 20
342.767852
 30
0.0
 11
342.694928
 21
377.367916
 31
0.0
  0
LINE
  5
41D
330
1F
100
AcDbEntity
  8
LC-001-100-D00-0
 62
     7
370
    50
100
AcDbLine
 10
398.481047
 20
382.088097
 30
0.0
 11
396.514123
 21
402.967858
 31
0.0
  0
LINE
  5
41E
330
1F
100
AcDbEntity
  8
LC-001-100-D00-0
 62
     7
370
    50
100
AcDbLine
 10
406.089611
 20
344.592179
 30
0.0
 11
403.002057
 21
377.367916
 31
0.0
  0
LINE
  5
41F
330
1F
100
AcDbEntity
  8
LC-001-100-D00-0
 62
     7
370
    50
100
AcDbLine
 10
402.502152
 20
382.674622
 30
0.0
 11
400.59048
 21
402.967858
 31
0.0
  0
LINE
  5
420
330
1F
100
AcDbEntity
  8
LC-001-100-D00-0
 62
     7
370
    50
100
AcDbLine
 10
405.263314
 20
342.767852
 30
0.0
 11
406.089611
 21
344.592179
 31
0.0
  0
LINE
  5
421
330
1F
100
AcDbEntity
  8
LC-001-100-D00-0
 62
     7
370
    50
100
AcDbLine
 10
402.185109
 20
342.767852
 30
0.0
 11
398.925699
 21
377.367916
 31
0.0
  0
LINE
  5
422
330
1F
100
AcDbEntity
  8
LC-001-100-D00-0
 62
     7
370
    50
100
AcDbLine
 10
360.391983
 20
342.767852
 30
0.0
 11
359.565683
 21
344.592179
 31
0.0
  0
LINE
  5
423
330
1F
100
AcDbEntity
  8
LC-001-100-D00-0
 62
     7
370
    50
100
AcDbLine
 10
359.565683
 20
344.592179
 30
0.0
 11
362.653241
 21
377.367916
 31
0.0
  0
LINE
  5
424
330
1F
100
AcDbEntity
  8
LC-001-100-D00-0
 62
     7
370
    50
100
AcDbLine
 10
363.153145
 20
382.674622
 30
0.0
 11
365.064815
 21
402.967858
 31
0.0
  0
LINE
  5
425
330
1F
100
AcDbEntity
  8
LC-001-100-D00-0
 62
     7
370
    50
100
AcDbLine
 10
367.17425
 20
382.088097
 30
0.0
 11
369.141173
 21
402.967858
 31
0.0
  0
LINE
  5
426
330
1F
100
AcDbEntity
  8
LC-001-100-D00-0
 62
     7
370
    50
100
AcDbLine
 10
363.470186
 20
342.767852
 30
0.0
 11
366.729595
 21
377.367916
 31
0.0
  0
LINE
  5
427
330
1F
100
AcDbEntity
  8
LC-001-100-D00-0
 62
     7
370
    50
100
AcDbLine
 10
396.259418
 20
382.088097
 30
0.0
 11
394.292494
 21
402.967858
 31
0.0
  0
LINE
  5
428
330
1F
100
AcDbEntity
  8
LC-001-100-D00-0
 62
     7
370
    50
100
AcDbLine
 10
369.395879
 20
382.088097
 30
0.0
 11
371.362802
 21
402.967858
 31
0.0
  0
LINE
  5
429
330
1F
100
AcDbEntity
  8
LC-001-100-D00-0
 62
     7
370
    50
100
AcDbLine
 10
381.677649
 20
382.088097
 30
0.0
 11
381.677649
 21
402.967858
 31
0.0
  0
LINE
  5
42A
330
1F
100
AcDbEntity
  8
LC-001-100-D00-0
 62
     7
370
    50
100
AcDbLine
 10
383.977648
 20
382.088097
 30
0.0
 11
383.977648
 21
402.967858
 31
0.0
  0
LINE
  5
42B
330
1F
100
AcDbEntity
  8
LC-001-100-D00-0
 62
     7
370
    50
100
AcDbLine
 10
417.879183
 20
342.767852
 30
0.0
 11
418.275742
 21
342.767852
 31
0.0
  0
LINE
  5
42C
330
1F
100
AcDbEntity
  8
LC-001-100-D00-0
 62
     7
370
    50
100
AcDbLine
 10
417.081533
 20
342.767852
 30
0.0
 11
410.784837
 21
377.367916
 31
0.0
  0
LINE
  5
42D
330
1F
100
AcDbEntity
  8
LC-001-100-D00-0
 62
     7
370
    50
100
AcDbLine
 10
347.379555
 20
342.767852
 30
0.0
 11
347.776112
 21
342.767852
 31
0.0
  0
LINE
  5
42E
330
1F
100
AcDbEntity
  8
LC-001-100-D00-0
 62
     7
370
    50
100
AcDbLine
 10
348.573764
 20
342.767852
 30
0.0
 11
354.870458
 21
377.367916
 31
0.0
  0
LINE
  5
42F
330
1F
100
AcDbEntity
  8
LC-001-100-D00-0
 62
     7
370
    50
100
AcDbLine
 10
400.853142
 20
342.767852
 30
0.0
 11
401.295446
 21
342.767852
 31
0.0
  0
LINE
  5
430
330
1F
100
AcDbEntity
  8
LC-001-100-D00-0
 62
     7
370
    50
100
AcDbLine
 10
399.96348
 20
342.767852
 30
0.0
 11
396.70407
 21
377.367916
 31
0.0
  0
LINE
  5
431
330
1F
100
AcDbEntity
  8
LC-001-100-D00-0
 62
     7
370
    50
100
AcDbLine
 10
364.359849
 20
342.767852
 30
0.0
 11
364.802153
 21
342.767852
 31
0.0
  0
LINE
  5
432
330
1F
100
AcDbEntity
  8
LC-001-100-D00-0
 62
     7
370
    50
100
AcDbLine
 10
365.691815
 20
342.767852
 30
0.0
 11
368.951224
 21
377.367916
 31
0.0
  0
LINE
  5
433
330
1F
100
AcDbEntity
  8
LC-001-100-D00-0
 62
     7
370
    50
100
AcDbLine
 10
382.598695
 20
342.767852
 30
0.0
 11
383.056602
 21
342.767852
 31
0.0
  0
LINE
  5
434
330
1F
100
AcDbEntity
  8
LC-001-100-D00-0
 62
     7
370
    50
100
AcDbLine
 10
381.677649
 20
342.767852
 30
0.0
 11
381.677649
 21
377.367916
 31
0.0
  0
LINE
  5
435
330
1F
100
AcDbEntity
  8
LC-001-100-D00-0
 62
     7
370
    50
100
AcDbLine
 10
383.977648
 20
342.767852
 30
0.0
 11
383.977648
 21
377.367916
 31
0.0
  0
INSERT
  5
447
330
1F
100
AcDbEntity
  8
LC-001-100-D00-0
 62
     7
370
    50
100
AcDbBlockReference
  2
POLY25
 10
0.0
 20
0.0
 30
0.0
  0
LINE
  5
448
330
1F
100
AcDbEntity
  8
LC-001-100-D00-0
 62
     7
370
    50
100
AcDbLine
 10
394.627745
 20
334.067853
 30
0.0
 11
394.627745
 21
313.767853
 31
0.0
  0
LINE
  5
449
330
1F
100
AcDbEntity
  8
LC-001-100-D00-0
 62
     7
370
    50
100
AcDbLine
 10
371.027664
 20
313.767853
 30
0.0
 11
394.627745
 21
313.767853
 31
0.0
  0
LINE
  5
44A
330
1F
100
AcDbEntity
  8
LC-001-100-D00-0
 62
     7
370
    50
100
AcDbLine
 10
371.027664
 20
313.767853
 30
0.0
 11
371.027664
 21
334.067853
 31
0.0
  0
INSERT
  5
45C
330
1F
100
AcDbEntity
  8
LC-001-100-D00-0
 62
     7
370
    50
100
AcDbBlockReference
  2
POLY26
 10
0.0
 20
0.0
 30
0.0
  0
INSERT
  5
465
330
1F
100
AcDbEntity
  8
LC-001-100-D00-0
 62
     7
370
    25
100
AcDbBlockReference
  2
KLON21
 10
0.0
 20
0.0
 30
0.0
  0
INSERT
  5
46D
330
1F
100
AcDbEntity
  8
LC-001-100-D00-0
 62
     7
370
    25
100
AcDbBlockReference
  2
KLON22
 10
0.0
 20
0.0
 30
0.0
  0
INSERT
  5
499
330
1F
100
AcDbEntity
  8
LC-001-100-D00-0
 62
     7
370
    25
100
AcDbBlockReference
  2
KLON23
 10
0.0
 20
0.0
 30
0.0
  0
INSERT
  5
4C2
330
1F
100
AcDbEntity
  8
LC-001-100-D00-0
 62
     7
370
    25
100
AcDbBlockReference
  2
KLON24
 10
0.0
 20
0.0
 30
0.0
  0
INSERT
  5
4C8
330
1F
100
AcDbEntity
  8
LC-001-100-D00-0
 62
     7
370
    25
100
AcDbBlockReference
  2
KLON25
 10
0.0
 20
0.0
 30
0.0
  0
INSERT
  5
4CF
330
1F
100
AcDbEntity
  8
LC-001-100-D00-0
 62
     7
370
    25
100
AcDbBlockReference
  2
KLON26
 10
0.0
 20
0.0
 30
0.0
  0
INSERT
  5
4DC
330
1F
100
AcDbEntity
  8
LC-001-100-D00-0
 62
     7
370
    25
100
AcDbBlockReference
  2
KLON27
 10
0.0
 20
0.0
 30
0.0
  0
INSERT
  5
4E6
330
1F
100
AcDbEntity
  8
LC-001-100-D00-0
 62
     7
370
    25
100
AcDbBlockReference
  2
KLON28
 10
0.0
 20
0.0
 30
0.0
  0
INSERT
  5
4ED
330
1F
100
AcDbEntity
  8
LC-001-100-D00-0
 62
     7
370
    25
100
AcDbBlockReference
  2
KLON29
 10
0.0
 20
0.0
 30
0.0
  0
LINE
  5
4EF
330
1F
100
AcDbEntity
  8
LC-001-100-D00-0
  6
DASHDOT
 62
     7
370
    25
100
AcDbLine
 10
382.827648
 20
422.225577
 30
0.0
 11
382.827648
 21
172.804164
 31
0.0
  0
LINE
  5
4F0
330
1F
100
AcDbEntity
  8
LC-001-100-D00-0
  6
DASHDOT
 62
     7
370
    25
100
AcDbLine
 10
288.827648
 20
315.357206
 30
0.0
 11
288.827648
 21
351.654993
 31
0.0
  0
LINE
  5
4F1
330
1F
100
AcDbEntity
  8
LC-001-100-D00-0
  6
DASHDOT
 62
     7
370
    25
100
AcDbLine
 10
476.827648
 20
313.243977
 30
0.0
 11
476.827648
 21
336.743977
 31
0.0
  0
LINE
  5
4F3
330
1F
100
AcDbEntity
  8
LC-002-002-----0
 62
     7
370
    50
100
AcDbLine
 10
142.82764
 20
346.123976
 30
0.0
 11
142.82764
 21
341.423976
 31
0.0
  0
LINE
  5
4F4
330
1F
100
AcDbEntity
  8
LC-002-002-----0
 62
     7
370
    50
100
AcDbLine
 10
152.82764
 20
346.123976
 30
0.0
 11
152.82764
 21
341.423976
 31
0.0
  0
LINE
  5
4F5
330
1F
100
AcDbEntity
  8
LC-002-002-----0
 62
     7
370
    50
100
AcDbLine
 10
162.82764
 20
346.123976
 30
0.0
 11
162.82764
 21
341.423976
 31
0.0
  0
LINE
  5
4F6
330
1F
100
AcDbEntity
  8
LC-002-002-----0
 62
     7
370
    50
100
AcDbLine
 10
172.82764
 20
346.123976
 30
0.0
 11
172.82764
 21
341.423976
 31
0.0
  0
LINE
  5
4F7
330
1F
100
AcDbEntity
  8
LC-002-002-----0
 62
     7
370
    50
100
AcDbLine
 10
182.82764
 20
346.123976
 30
0.0
 11
182.82764
 21
341.423976
 31
0.0
  0
LINE
  5
4F8
330
1F
100
AcDbEntity
  8
LC-002-002-----0
 62
     7
370
    50
100
AcDbLine
 10
192.82764
 20
346.123976
 30
0.0
 11
192.82764
 21
341.423976
 31
0.0
  0
LINE
  5
4F9
330
1F
100
AcDbEntity
  8
LC-002-002-----0
 62
     7
370
    50
100
AcDbLine
 10
202.82764
 20
346.123976
 30
0.0
 11
202.82764
 21
341.423976
 31
0.0
  0
LINE
  5
4FA
330
1F
100
AcDbEntity
  8
LC-002-002-----0
 62
     7
370
    50
100
AcDbLine
 10
212.82764
 20
346.123976
 30
0.0
 11
212.82764
 21
341.423976
 31
0.0
  0
LINE
  5
4FB
330
1F
100
AcDbEntity
  8
LC-002-002-----0
 62
     7
370
    50
100
AcDbLine
 10
222.82764
 20
346.123976
 30
0.0
 11
222.82764
 21
341.423976
 31
0.0
  0
INSERT
  5
51A
330
1F
100
AcDbEntity
  8
LC-003-005-----0
 62
     7
370
    25
100
AcDbBlockReference
  2
*X156
 10
0.0
 20
0.0
 30
0.0
  0
INSERT
  5
538
330
1F
100
AcDbEntity
  8
LC-003-005-----0
 62
     7
370
    25
100
AcDbBlockReference
  2
*X257
 10
0.0
 20
0.0
 30
0.0
  0
INSERT
  5
556
330
1F
100
AcDbEntity
  8
LC-003-005-----0
 62
     7
370
    25
100
AcDbBlockReference
  2
*X358
 10
0.0
 20
0.0
 30
0.0
  0
INSERT
  5
573
330
1F
100
AcDbEntity
  8
LC-003-005-----0
 62
     7
370
    25
100
AcDbBlockReference
  2
*X459
 10
0.0
 20
0.0
 30
0.0
  0
INSERT
  5
591
330
1F
100
AcDbEntity
  8
LC-003-005-----0
 62
     7
370
    25
100
AcDbBlockReference
  2
*X560
 10
0.0
 20
0.0
 30
0.0
  0
LINE
  5
592
330
1F
100
AcDbEntity
  8
LC-002-002-----0
 62
     7
370
    50
100
AcDbLine
 10
232.82764
 20
346.123976
 30
0.0
 11
232.82764
 21
341.423976
 31
0.0
  0
LINE
  5
593
330
1F
100
AcDbEntity
  8
LC-002-002-----0
 62
     7
370
    50
100
AcDbLine
 10
242.82764
 20
346.123976
 30
0.0
 11
242.82764
 21
341.423976
 31
0.0
  0
INSERT
  5
5B1
330
1F
100
AcDbEntity
  8
LC-003-005-----0
 62
     7
370
    25
100
AcDbBlockReference
  2
*X661
 10
0.0
 20
0.0
 30
0.0
  0
LINE
  5
5B2
330
1F
100
AcDbEntity
  8
LC-002-002-----0
 62
     7
370
    50
100
AcDbLine
 10
252.82764
 20
346.123976
 30
0.0
 11
252.82764
 21
341.423976
 31
0.0
  0
INSERT
  5
5D4
330
1F
100
AcDbEntity
  8
LC-003-005-----0
 62
     7
370
    25
100
AcDbBlockReference
  2
*X762
 10
0.0
 20
0.0
 30
0.0
  0
LINE
  5
5D5
330
1F
100
AcDbEntity
  8
LC-002-002-----0
 62
     7
370
    50
100
AcDbLine
 10
262.82764
 20
343.615712
 30
0.0
 11
262.82764
 21
338.685788
 31
0.0
  0
LINE
  5
5D6
330
1F
100
AcDbEntity
  8
LC-002-002-----0
 62
     7
370
    50
100
AcDbLine
 10
272.82764
 20
339.97595
 30
0.0
 11
272.82764
 21
335.046086
 31
0.0
  0
INSERT
  5
5F8
330
1F
100
AcDbEntity
  8
LC-003-005-----0
 62
     7
370
    25
100
AcDbBlockReference
  2
*X863
 10
0.0
 20
0.0
 30
0.0
  0
LINE
  5
5F9
330
1F
100
AcDbEntity
  8
LC-002-002-----0
 62
     7
370
    50
100
AcDbLine
 10
282.82764
 20
337.373974
 30
0.0
 11
282.82764
 21
332.743975
 31
0.0
  0
LINE
  5
5FA
330
1F
100
AcDbEntity
  8
LC-002-002-----0
 62
     7
370
    50
100
AcDbLine
 10
622.827656
 20
346.123976
 30
0.0
 11
622.827656
 21
341.423976
 31
0.0
  0
LINE
  5
5FB
330
1F
100
AcDbEntity
  8
LC-002-002-----0
 62
     7
370
    50
100
AcDbLine
 10
612.827656
 20
346.123976
 30
0.0
 11
612.827656
 21
341.423976
 31
0.0
  0
LINE
  5
5FC
330
1F
100
AcDbEntity
  8
LC-002-002-----0
 62
     7
370
    50
100
AcDbLine
 10
602.827656
 20
346.123976
 30
0.0
 11
602.827656
 21
341.423976
 31
0.0
  0
LINE
  5
5FD
330
1F
100
AcDbEntity
  8
LC-002-002-----0
 62
     7
370
    50
100
AcDbLine
 10
592.827656
 20
346.123976
 30
0.0
 11
592.827656
 21
341.423976
 31
0.0
  0
LINE
  5
5FE
330
1F
100
AcDbEntity
  8
LC-002-002-----0
 62
     7
370
    50
100
AcDbLine
 10
582.827656
 20
346.123976
 30
0.0
 11
582.827656
 21
341.423976
 31
0.0
  0
LINE
  5
5FF
330
1F
100
AcDbEntity
  8
LC-002-002-----0
 62
     7
370
    50
100
AcDbLine
 10
572.827656
 20
346.123976
 30
0.0
 11
572.827656
 21
341.423976
 31
0.0
  0
LINE
  5
600
330
1F
100
AcDbEntity
  8
LC-002-002-----0
 62
     7
370
    50
100
AcDbLine
 10
562.827656
 20
346.123976
 30
0.0
 11
562.827656
 21
341.423976
 31
0.0
  0
LINE
  5
601
330
1F
100
AcDbEntity
  8
LC-002-002-----0
 62
     7
370
    50
100
AcDbLine
 10
552.827656
 20
346.123976
 30
0.0
 11
552.827656
 21
341.423976
 31
0.0
  0
LINE
  5
602
330
1F
100
AcDbEntity
  8
LC-002-002-----0
 62
     7
370
    50
100
AcDbLine
 10
542.827656
 20
346.123976
 30
0.0
 11
542.827656
 21
341.423976
 31
0.0
  0
INSERT
  5
620
330
1F
100
AcDbEntity
  8
LC-003-005-----0
 62
     7
370
    25
100
AcDbBlockReference
  2
*X964
 10
0.0
 20
0.0
 30
0.0
  0
INSERT
  5
63E
330
1F
100
AcDbEntity
  8
LC-003-005-----0
 62
     7
370
    25
100
AcDbBlockReference
  2
*X1065
 10
0.0
 20
0.0
 30
0.0
  0
INSERT
  5
65C
330
1F
100
AcDbEntity
  8
LC-003-005-----0
 62
     7
370
    25
100
AcDbBlockReference
  2
*X1166
 10
0.0
 20
0.0
 30
0.0
  0
INSERT
  5
67A
330
1F
100
AcDbEntity
  8
LC-003-005-----0
 62
     7
370
    25
100
AcDbBlockReference
  2
*X1267
 10
0.0
 20
0.0
 30
0.0
  0
INSERT
  5
698
330
1F
100
AcDbEntity
  8
LC-003-005-----0
 62
     7
370
    25
100
AcDbBlockReference
  2
*X1368
 10
0.0
 20
0.0
 30
0.0
  0
LINE
  5
699
330
1F
100
AcDbEntity
  8
LC-002-002-----0
 62
     7
370
    50
100
AcDbLine
 10
532.827656
 20
346.123976
 30
0.0
 11
532.827656
 21
341.423976
 31
0.0
  0
LINE
  5
69A
330
1F
100
AcDbEntity
  8
LC-002-002-----0
 62
     7
370
    50
100
AcDbLine
 10
522.827656
 20
346.123976
 30
0.0
 11
522.827656
 21
341.423976
 31
0.0
  0
INSERT
  5
6B8
330
1F
100
AcDbEntity
  8
LC-003-005-----0
 62
     7
370
    25
100
AcDbBlockReference
  2
*X1469
 10
0.0
 20
0.0
 30
0.0
  0
LINE
  5
6B9
330
1F
100
AcDbEntity
  8
LC-002-002-----0
 62
     7
370
    50
100
AcDbLine
 10
512.827656
 20
346.123976
 30
0.0
 11
512.827656
 21
341.423976
 31
0.0
  0
INSERT
  5
6D3
330
1F
100
AcDbEntity
  8
LC-003-005-----0
 62
     7
370
    25
100
AcDbBlockReference
  2
*X1570
 10
0.0
 20
0.0
 30
0.0
  0
LINE
  5
6D4
330
1F
100
AcDbEntity
  8
LC-002-002-----0
 62
     7
370
    50
100
AcDbLine
 10
502.827656
 20
343.615712
 30
0.0
 11
502.827656
 21
338.685788
 31
0.0
  0
LINE
  5
6D5
330
1F
100
AcDbEntity
  8
LC-002-002-----0
 62
     7
370
    50
100
AcDbLine
 10
492.827656
 20
339.97595
 30
0.0
 11
492.827656
 21
335.046086
 31
0.0
  0
INSERT
  5
6EE
330
1F
100
AcDbEntity
  8
LC-003-005-----0
 62
     7
370
    25
100
AcDbBlockReference
  2
*X1671
 10
0.0
 20
0.0
 30
0.0
  0
LINE
  5
6EF
330
1F
100
AcDbEntity
  8
LC-002-002-----0
 62
     7
370
    50
100
AcDbLine
 10
482.827656
 20
337.373974
 30
0.0
 11
482.827656
 21
332.743975
 31
0.0
  0
DIMENSION
  5
6F3
330
1F
100
AcDbEntity
  8
LC-004-003-----0
 62
     7
370
    25
100
AcDbDimension
  2
*D72
 10
632.82764
 20
500.34
 30
0.0
 11
380.866382
 21
531.14
 31
0.0
 70
   160
 71
     5
 42
500.0
  3
LC-DIM-L-0140-02-02
100
AcDbAlignedDimension
 13
132.82764
 23
341.423976
 33
0.0
 14
632.82764
 24
341.423976
 34
0.0
100
AcDbRotatedDimension
  0
DIMENSION
  5
701
330
1F
100
AcDbEntity
  8
LC-004-003-----0
 62
     7
370
    25
100
AcDbDimension
  2
*D73
 10
559.827641
 20
441.598321
 30
0.0
 11
380.866382
 21
472.398321
 31
0.0
 70
   160
  1
%%c<>
 71
     5
 42
354.000002
  3
LC-DIM-L-0140-02-02
100
AcDbAlignedDimension
 13
205.827639
 23
338.42397
 33
0.0
 14
559.827641
 24
338.42397
 34
0.0
100
AcDbRotatedDimension
  0
DIMENSION
  5
70E
330
1F
100
AcDbEntity
  8
LC-004-003-----0
 62
     7
370
    25
100
AcDbDimension
  2
*D74
 10
462.827638
 20
69.965976
 30
0.0
 11
370.295669
 21
100.765976
 31
0.0
 70
   160
  1
%%c<>
 71
     5
 42
159.999996
  3
LC-DIM-L-0140-02-02
100
AcDbAlignedDimension
 13
302.827642
 23
249.423968
 33
0.0
 14
462.827638
 24
249.423968
 34
0.0
100
AcDbRotatedDimension
  0
DIMENSION
  5
71B
330
1F
100
AcDbEntity
  8
LC-004-003-----0
 62
     7
370
    25
100
AcDbDimension
  2
*D75
 10
187.537282
 20
239.423968
 30
0.0
 11
156.737282
 21
289.099966
 31
0.0
 70
   160
 71
     5
 42
102.000007
 53
90.0
  3
LC-DIM-L-0140-02-02
100
AcDbAlignedDimension
 13
132.82764
 23
341.423976
 33
0.0
 14
313.608929
 24
239.423968
 34
0.0
 50
90.0
100
AcDbRotatedDimension
  0
DIMENSION
  5
728
330
1F
100
AcDbEntity
  8
LC-004-003-----0
 62
     7
370
    25
100
AcDbDimension
  2
*D76
 10
242.997345
 20
173.423978
 30
0.0
 11
212.197345
 21
206.172225
 31
0.0
 70
   160
 71
     5
 42
65.999999
 53
90.0
  3
LC-DIM-L-0140-02-02
100
AcDbAlignedDimension
 13
310.827648
 23
239.423977
 33
0.0
 14
329.03342
 24
173.423978
 34
0.0
 50
90.0
100
AcDbRotatedDimension
  0
DIMENSION
  5
735
330
1F
100
AcDbEntity
  8
LC-004-003-----0
 62
     7
370
    25
100
AcDbDimension
  2
*D77
 10
437.827647
 20
128.004164
 30
0.0
 11
382.537522
 21
158.804164
 31
0.0
 70
   160
  1
DN100
 71
     5
 42
109.999999
  3
LC-DIM-L-0140-02-02
100
AcDbAlignedDimension
 13
327.827648
 23
177.923976
 33
0.0
 14
437.827647
 24
177.923976
 34
0.0
100
AcDbRotatedDimension
  0
ENDSEC
  0
SECTION
  2
OBJECTS
  0
DICTIONARY
  5
C
330
0
100
AcDbDictionary
281
     1
  3
ACAD_GROUP
350
D
  3
ACAD_LAYOUT
350
1A
  3
ACAD_MLINESTYLE
350
17
  3
ACAD_PLOTSETTINGS
350
19
  3
ACAD_PLOTSTYLENAME
350
E
  0
DICTIONARY
  5
D
102
{ACAD_REACTORS
330
C
102
}
330
C
100
AcDbDictionary
281
     1
  0
DICTIONARY
  5
1A
102
{ACAD_REACTORS
330
C
102
}
330
C
100
AcDbDictionary
281
     1
  3
Layout1
350
1E
  3
Layout2
350
26
  3
Model
350
22
  0
DICTIONARY
  5
17
102
{ACAD_REACTORS
330
C
102
}
330
C
100
AcDbDictionary
281
     1
  3
Standard
350
18
  0
DICTIONARY
  5
19
102
{ACAD_REACTORS
330
C
102
}
330
C
100
AcDbDictionary
281
     1
  0
ACDBDICTIONARYWDFLT
  5
E
102
{ACAD_REACTORS
330
C
102
}
330
C
100
AcDbDictionary
281
     1
  3
Normal
350
F
100
AcDbDictionaryWithDefault
340
F
  0
LAYOUT
  5
1E
102
{ACAD_REACTORS
330
1A
102
}
330
1A
100
AcDbPlotSettings
  1

  2

  4

  6

 40
0.0
 41
0.0
 42
0.0
 43
0.0
 44
0.0
 45
0.0
 46
0.0
 47
0.0
 48
0.0
 49
0.0
140
0.0
141
0.0
142
1.0
143
1.0
 70
   688
 72
     0
 73
     0
 74
     5
  7

 75
    16
147
1.0
148
0.0
149
0.0
100
AcDbLayout
  1
Layout1
 70
     1
 71
     1
 10
19.512808
 20
11.753976
 11
859.512808
 21
605.753976
 12
0.0
 22
0.0
 32
0.0
 14
19.512808
 24
11.753976
 34
0.0
 15
859.512808
 25
605.753976
 35
0.0
146
0.0
 13
0.0
 23
0.0
 33
0.0
 16
1.0
 26
0.0
 36
0.0
 17
0.0
 27
1.0
 37
0.0
 76
     0
330
1B
  0
LAYOUT
  5
26
102
{ACAD_REACTORS
330
1A
102
}
330
1A
100
AcDbPlotSettings
  1

  2

  4

  6

 40
0.0
 41
0.0
 42
0.0
 43
0.0
 44
0.0
 45
0.0
 46
0.0
 47
0.0
 48
0.0
 49
0.0
140
0.0
141
0.0
142
1.0
143
1.0
 70
   688
 72
     0
 73
     0
 74
     5
  7

 75
    16
147
1.0
148
0.0
149
0.0
100
AcDbLayout
  1
Layout2
 70
     1
 71
     2
 10
0.0
 20
0.0
 11
0.0
 21
0.0
 12
0.0
 22
0.0
 32
0.0
 14
0.0
 24
0.0
 34
0.0
 15
0.0
 25
0.0
 35
0.0
146
0.0
 13
0.0
 23
0.0
 33
0.0
 16
1.0
 26
0.0
 36
0.0
 17
0.0
 27
1.0
 37
0.0
 76
     0
330
23
  0
LAYOUT
  5
22
102
{ACAD_REACTORS
330
1A
102
}
330
1A
100
AcDbPlotSettings
  1

  2

  4

  6

 40
0.0
 41
0.0
 42
0.0
 43
0.0
 44
0.0
 45
0.0
 46
0.0
 47
0.0
 48
0.0
 49
0.0
140
0.0
141
0.0
142
1.0
143
1.0
 70
  1776
 72
     0
 73
     0
 74
     0
  7

 75
     0
147
1.0
148
0.0
149
0.0
100
AcDbLayout
  1
Model
 70
     1
 71
     0
 10
19.512808
 20
11.753976
 11
859.512808
 21
605.753976
 12
19.512808
 22
11.753976
 32
0.0
 14
19.512808
 24
11.753976
 34
0.0
 15
859.512808
 25
605.753976
 35
0.0
146
0.0
 13
0.0
 23
0.0
 33
0.0
 16
1.0
 26
0.0
 36
0.0
 17
0.0
 27
1.0
 37
0.0
 76
     0
330
1F
  0
MLINESTYLE
  5
18
102
{ACAD_REACTORS
330
17
102
}
330
17
100
AcDbMlineStyle
  2
Standard
 70
     0
  3

 62
   256
 51
90.0
 52
90.0
 71
     2
 49
0.5
 62
   256
  6
BYLAYER
 49
-0.5
 62
   256
  6
BYLAYER
  0
ACDBPLACEHOLDER
  5
F
102
{ACAD_REACTORS
330
E
102
}
330
E
  0
ENDSEC
  0
EOF
