  0
SECTION
  2
HEADER
  9
$ACADVER
  1
AC1015
  9
$ACADMAINTVER
 70
     6
  9
$DWGCODEPAGE
  3
DOS850
  9
$INSBASE
 10
56.739577
 20
47.04
 30
0.0
  9
$EXTMIN
 10
56.739577
 20
47.04
 30
0.0
  9
$EXTMAX
 10
896.739577
 20
641.04
 30
0.0
  9
$LIMMIN
 10
56.739577
 20
47.04
  9
$LIMMAX
 10
896.739577
 20
641.04
  9
$ORTHOMODE
 70
     0
  9
$REGENMODE
 70
     1
  9
$FILLMODE
 70
     1
  9
$QTEXTMODE
 70
     0
  9
$MIRRTEXT
 70
     1
  9
$LTSCALE
 40
2.0
  9
$ATTMODE
 70
     1
  9
$TEXTSIZE
 40
0.2
  9
$TRACEWID
 40
0.05
  9
$TEXTSTYLE
  7
Standard
  9
$CLAYER
  8
0
  9
$CELTYPE
  6
ByBlock
  9
$CECOLOR
 62
     7
  9
$CELTSCALE
 40
1.0
  9
$DISPSILH
 70
     0
  9
$DIMSCALE
 40
2.0
  9
$DIMASZ
 40
3.5
  9
$DIMEXO
 40
0.0625
  9
$DIMDLI
 40
0.38
  9
$DIMRND
 40
0.0
  9
$DIMDLE
 40
0.0
  9
$DIMEXE
 40
0.18
  9
$DIMTP
 40
0.0
  9
$DIMTM
 40
0.0
  9
$DIMTXT
 40
3.5
  9
$DIMCEN
 40
0.09
  9
$DIMTSZ
 40
0.0
  9
$DIMTOL
 70
     0
  9
$DIMLIM
 70
     0
  9
$DIMTIH
 70
     1
  9
$DIMTOH
 70
     1
  9
$DIMSE1
 70
     0
  9
$DIMSE2
 70
     0
  9
$DIMTAD
 70
     1
  9
$DIMZIN
 70
     0
  9
$DIMBLK
  1

  9
$DIMASO
 70
     1
  9
$DIMSHO
 70
     1
  9
$DIMPOST
  1

  9
$DIMAPOST
  1

  9
$DIMALT
 70
     0
  9
$DIMALTD
 70
     2
  9
$DIMALTF
 40
25.4
  9
$DIMLFAC
 40
1.0
  9
$DIMTOFL
 70
     0
  9
$DIMTVP
 40
0.0
  9
$DIMTIX
 70
     0
  9
$DIMSOXD
 70
     0
  9
$DIMSAH
 70
     0
  9
$DIMBLK1
  1

  9
$DIMBLK2
  1

  9
$DIMSTYLE
  2
Standard
  9
$DIMCLRD
 70
     0
  9
$DIMCLRE
 70
     0
  9
$DIMCLRT
 70
     0
  9
$DIMTFAC
 40
1.0
  9
$DIMGAP
 40
0.09
  9
$DIMJUST
 70
     0
  9
$DIMSD1
 70
     0
  9
$DIMSD2
 70
     0
  9
$DIMTOLJ
 70
     1
  9
$DIMTZIN
 70
     0
  9
$DIMALTZ
 70
     0
  9
$DIMALTTZ
 70
     0
  9
$DIMUPT
 70
     0
  9
$DIMDEC
 70
     4
  9
$DIMTDEC
 70
     4
  9
$DIMALTU
 70
     2
  9
$DIMALTTD
 70
     2
  9
$DIMTXSTY
  7
Standard
  9
$DIMAUNIT
 70
     0
  9
$DIMADEC
 70
     0
  9
$DIMALTRND
 40
0.0
  9
$DIMAZIN
 70
     0
  9
$DIMDSEP
 70
     0
  9
$DIMATFIT
 70
     3
  9
$DIMFRAC
 70
     0
  9
$DIMLDRBLK
  1

  9
$DIMLUNIT
 70
     2
  9
$DIMLWD
 70
     0
  9
$DIMLWE
 70
     0
  9
$DIMTMOVE
 70
     0
  9
$LUNITS
 70
     2
  9
$LUPREC
 70
     6
  9
$SKETCHINC
 40
0.1
  9
$FILLETRAD
 40
0.0
  9
$AUNITS
 70
     0
  9
$AUPREC
 70
     0
  9
$MENU
  1
acad
  9
$ELEVATION
 40
0.0
  9
$PELEVATION
 40
0.0
  9
$THICKNESS
 40
0.0
  9
$LIMCHECK
 70
     0
  9
$CHAMFERA
 40
0.0
  9
$CHAMFERB
 40
0.0
  9
$CHAMFERC
 40
0.0
  9
$CHAMFERD
 40
0.0
  9
$SKPOLY
 70
     0
  9
$TDCREATE
 40
0.000000000
  9
$TDUCREATE
 40
0.000000000
  9
$TDUPDATE
 40
0.000000000
  9
$TDUUPDATE
 40
0.000000000
  9
$TDINDWG
 40
0.0000000000
  9
$TDUSRTIMER
 40
0.0000000000
  9
$USRTIMER
 70
     1
  9
$ANGBASE
 50
0.0
  9
$ANGDIR
 70
     0
  9
$PDMODE
 70
     0
  9
$PDSIZE
 40
0.0
  9
$PLINEWID
 40
0.0
  9
$SPLFRAME
 70
     0
  9
$SPLINETYPE
 70
     6
  9
$SPLINESEGS
 70
     8
  9
$HANDSEED
  5
303
  9
$SURFTAB1
 70
     6
  9
$SURFTAB2
 70
     6
  9
$SURFTYPE
 70
     6
  9
$SURFU
 70
     6
  9
$SURFV
 70
     6
  9
$UCSBASE
  2

  9
$UCSNAME
  2

  9
$UCSORG
 10
0.0
 20
0.0
 30
0.0
  9
$UCSXDIR
 10
1.0
 20
0.0
 30
0.0
  9
$UCSYDIR
 10
0.0
 20
1.0
 30
0.0
  9
$UCSORTHOREF
  2

  9
$UCSORTHOVIEW
 70
     0
  9
$UCSORGTOP
 10
0.0
 20
0.0
 30
0.0
  9
$UCSORGBOTTOM
 10
0.0
 20
0.0
 30
0.0
  9
$UCSORGLEFT
 10
0.0
 20
0.0
 30
0.0
  9
$UCSORGRIGHT
 10
0.0
 20
0.0
 30
0.0
  9
$UCSORGFRONT
 10
0.0
 20
0.0
 30
0.0
  9
$UCSORGBACK
 10
0.0
 20
0.0
 30
0.0
  9
$PUCSBASE
  2

  9
$PUCSNAME
  2

  9
$PUCSORG
 10
0.0
 20
0.0
 30
0.0
  9
$PUCSXDIR
 10
1.0
 20
0.0
 30
0.0
  9
$PUCSYDIR
 10
0.0
 20
1.0
 30
0.0
  9
$PUCSORTHOREF
  2

  9
$PUCSORTHOVIEW
 70
     0
  9
$PUCSORGTOP
 10
0.0
 20
0.0
 30
0.0
  9
$PUCSORGBOTTOM
 10
0.0
 20
0.0
 30
0.0
  9
$PUCSORGLEFT
 10
0.0
 20
0.0
 30
0.0
  9
$PUCSORGRIGHT
 10
0.0
 20
0.0
 30
0.0
  9
$PUCSORGFRONT
 10
0.0
 20
0.0
 30
0.0
  9
$PUCSORGBACK
 10
0.0
 20
0.0
 30
0.0
  9
$USERI1
 70
     0
  9
$USERI2
 70
     0
  9
$USERI3
 70
     0
  9
$USERI4
 70
     0
  9
$USERI5
 70
     0
  9
$USERR1
 40
0.0
  9
$USERR2
 40
0.0
  9
$USERR3
 40
0.0
  9
$USERR4
 40
0.0
  9
$USERR5
 40
0.0
  9
$WORLDVIEW
 70
     1
  9
$SHADEDGE
 70
     3
  9
$SHADEDIF
 70
    70
  9
$TILEMODE
 70
     1
  9
$MAXACTVP
 70
    16
  9
$PINSBASE
 10
0.0
 20
0.0
 30
0.0
  9
$PLIMCHECK
 70
     0
  9
$PEXTMIN
 10
56.739577
 20
47.04
 30
0.0
  9
$PEXTMAX
 10
896.739577
 20
641.04
 30
0.0
  9
$PLIMMIN
 10
56.739577
 20
47.04
  9
$PLIMMAX
 10
896.739577
 20
641.04
  9
$UNITMODE
 70
     0
  9
$VISRETAIN
 70
     0
  9
$PLINEGEN
 70
     1
  9
$PSLTSCALE
 70
     0
  9
$TREEDEPTH
 70
  3020
  9
$CMLSTYLE
  2
Standard
  9
$CMLJUST
 70
     0
  9
$CMLSCALE
 40
1.0
  9
$PROXYGRAPHICS
 70
     0
  9
$MEASUREMENT
 70
     0
  9
$CELWEIGHT
370
     0
  9
$ENDCAPS
280
     0
  9
$JOINSTYLE
280
     0
  9
$LWDISPLAY
290
     0
  9
$INSUNITS
 70
     0
  9
$HYPERLINKBASE
  1

  9
$STYLESHEET
  1

  9
$XEDIT
290
     1
  9
$CEPSNTYPE
380
     0
  9
$PSTYLEMODE
290
     1
  9
$FINGERPRINTGUID
  2

  9
$VERSIONGUID
  2

  9
$EXTNAMES
290
     1
  9
$PSVPSCALE
 40
0.0
  0
ENDSEC
  0
SECTION
  2
CLASSES
  0
CLASS
  1
LWPOLYLINE
  2
AcDbPolyline
  3
AutoCAD 2000
 90
        0
280
     0
281
     1
  0
CLASS
  1
IMAGE
  2
AcDbRasterImage
  3
ISM
 90
      127
280
     0
281
     1
  0
CLASS
  1
OLE2FRAME
  2
AcDbOle2Frame
  3
AutoCAD 2000
 90
        0
280
     0
281
     1
  0
CLASS
  1
HATCH
  2
AcDbHatch
  3
AutoCAD 2000
 90
        0
280
     0
281
     1
  0
CLASS
  1
DICTIONARYVAR
  2
AcDbDictionaryVar
  3
AutoCAD 2000
 90
        0
280
     0
281
     0
  0
CLASS
  1
RASTERVARIABLES
  2
AcDbRasterVariables
  3
ISM
 90
        0
280
     0
281
     0
  0
CLASS
  1
IMAGEDEF
  2
AcDbRasterImageDef
  3
ISM
 90
        0
280
     0
281
     0
  0
CLASS
  1
IMAGEDEF_REACTOR
  2
AcDbRasterImageDefReactor
  3
ISM
 90
        1
280
     0
281
     0
  0
CLASS
  1
IDBUFFER
  2
AcDbIdBuffer
  3
AutoCAD 2000
 90
        0
280
     0
281
     0
  0
CLASS
  1
SPATIAL_FILTER
  2
AcDbSpatialFilter
  3
AutoCAD 2000
 90
        0
280
     0
281
     0
  0
CLASS
  1
XRECORD
  2
AcDbXrecord
  3
AutoCAD 2000
 90
        0
280
     0
281
     0
  0
CLASS
  1
SORTENTSTABLE
  2
AcDbSortentsTable
  3
AutoCAD 2000
 90
        0
280
     0
281
     0
  0
CLASS
  1
LAYER_INDEX
  2
AcDbLayerIndex
  3
AutoCAD 2000
 90
        0
280
     0
281
     0
  0
CLASS
  1
SPATIAL_INDEX
  2
AcDbSpatialIndex
  3
AutoCAD 2000
 90
        0
280
     0
281
     0
  0
CLASS
  1
OBJECT_PTR
  2
CAseDLPNTableRecord
  3
"ASE-LPNTableRecord"
 90
        1
280
     0
281
     0
  0
CLASS
  1
LAYOUT
  2
AcDbLayout
  3
AutoCAD 2000
 90
        0
280
     0
281
     0
  0
CLASS
  1
PLOTSETTINGS
  2
AcDbPlotSettings
  3
AutoCAD 2000
 90
        0
280
     0
281
     0
  0
CLASS
  1
ACDBDICTIONARYWDFLT
  2
AcDbDictionaryWithDefault
  3
AutoCAD 2000
 90
        0
280
     0
281
     0
  0
CLASS
  1
ACDBPLACEHOLDER
  2
AcDbPlaceHolder
  3
AutoCAD 2000
 90
        0
280
     0
281
     0
  0
ENDSEC
  0
SECTION
  2
TABLES
  0
TABLE
  2
VPORT
  5
7
100
AcDbSymbolTable
 70
     1
  0
VPORT
  5
15
100
AcDbSymbolTableRecord
100
AcDbViewportTableRecord
  2
*ACTIVE
 70
     0
 10
0.0
 20
0.0
 11
1.0
 21
1.0
 12
420.0
 22
297.0
 13
0.0
 23
0.0
 14
1.0
 24
1.0
 15
0.0
 25
0.0
 16
0.0
 26
0.0
 36
1.0
 17
56.739577
 27
47.04
 37
0.0
 40
594.0
 41
1.604229
 42
50.0
 43
0.0
 44
0.0
 50
0.0
 51
0.0
 71
     0
 72
   100
 73
     1
 74
     1
 75
     0
 76
     0
 77
     0
 78
     0
281
     0
 65
     0
110
0.0
120
0.0
130
0.0
111
1.0
121
0.0
131
0.0
112
0.0
122
1.0
132
0.0
345
0
346
0
 79
     0
146
0.0
  0
ENDTAB
  0
TABLE
  2
LTYPE
  5
4
100
AcDbSymbolTable
 70
     5
  0
LTYPE
  5
11
100
AcDbSymbolTableRecord
100
AcDbLinetypeTableRecord
  2
ByBlock
 70
    64
  3

 72
    65
 73
     0
 40
0.0
  0
LTYPE
  5
12
100
AcDbSymbolTableRecord
100
AcDbLinetypeTableRecord
  2
ByLayer
 70
    64
  3

 72
    65
 73
     0
 40
0.0
  0
LTYPE
  5
13
100
AcDbSymbolTableRecord
100
AcDbLinetypeTableRecord
  2
Continuous
 70
    64
  3
Solid line
 72
    65
 73
     0
 40
0.0
  0
LTYPE
  5
23
100
AcDbSymbolTableRecord
100
AcDbLinetypeTableRecord
  2
DASHED
 70
    64
  3
__ __ __ __ __
 72
    65
 73
     2
 40
6.25
 49
5.0
 74
     0
 49
-1.25
 74
     0
  0
LTYPE
  5
41
100
AcDbSymbolTableRecord
100
AcDbLinetypeTableRecord
  2
DASHDOT
 70
    64
  3
__ . __ . __ . __ . __
 72
    65
 73
     4
 40
7.5
 49
5.0
 74
     0
 49
-1.25
 74
     0
 49
0.0
 74
     0
 49
-1.25
 74
     0
  0
ENDTAB
  0
TABLE
  2
LAYER
  5
2
100
AcDbSymbolTable
 70
    15
  0
LAYER
  5
14
100
AcDbSymbolTableRecord
100
AcDbLayerTableRecord
  2
0
 70
     0
 62
     7
  6
Continuous
290
     1
370
    -3
390
1D
  0
LAYER
  5
24
100
AcDbSymbolTableRecord
100
AcDbLayerTableRecord
  2
LC-INFO-1-2-mm-A3-0
 70
     1
 62
   255
  6
ByBlock
290
     1
370
    -3
390
1D
  0
LAYER
  5
25
100
AcDbSymbolTableRecord
100
AcDbLayerTableRecord
  2
LC-3D-HIDDEN
 70
     0
 62
     9
  6
DASHED
290
     1
370
    -3
390
1D
  0
LAYER
  5
26
100
AcDbSymbolTableRecord
100
AcDbLayerTableRecord
  2
LC-CUT-HIDDEN
 70
     0
 62
     9
  6
DASHED
290
     1
370
    -3
390
1D
  0
LAYER
  5
27
100
AcDbSymbolTableRecord
100
AcDbLayerTableRecord
  2
LC-VIEWPORT
 70
     0
 62
     7
  6
ByBlock
290
     1
370
    -3
390
1D
  0
LAYER
  5
2A
100
AcDbSymbolTableRecord
100
AcDbLayerTableRecord
  2
LC-001-103-D10-0
 70
     0
 62
     1
  6
ByBlock
290
     1
370
    -3
390
1D
  0
LAYER
  5
33
100
AcDbSymbolTableRecord
100
AcDbLayerTableRecord
  2
LC-002-002-----0
 70
     0
 62
     1
  6
ByBlock
290
     1
370
    -3
390
1D
  0
LAYER
  5
42
100
AcDbSymbolTableRecord
100
AcDbLayerTableRecord
  2
LC-003-102-D10-0
 70
     0
 62
     2
  6
DASHDOT
290
     1
370
    -3
390
1D
  0
LAYER
  5
6F
100
AcDbSymbolTableRecord
100
AcDbLayerTableRecord
  2
LC-004-104-D10-0
 70
     0
 62
     2
  6
ByBlock
290
     1
370
    -3
390
1D
  0
LAYER
  5
8D
100
AcDbSymbolTableRecord
100
AcDbLayerTableRecord
  2
LC-005-005-----0
 70
     0
 62
     2
  6
ByBlock
290
     1
370
    -3
390
1D
  0
LAYER
  5
AA
100
AcDbSymbolTableRecord
100
AcDbLayerTableRecord
  2
LC-006-003-MTH-0
 70
     0
 62
     2
  6
ByBlock
290
     1
370
    -3
390
1D
  0
LAYER
  5
AD
100
AcDbSymbolTableRecord
100
AcDbLayerTableRecord
  2
LC-007-003-MTG-0
 70
     0
 62
     2
  6
ByBlock
290
     1
370
    -3
390
1D
  0
LAYER
  5
AF
100
AcDbSymbolTableRecord
100
AcDbLayerTableRecord
  2
LC-008-003-----0
 70
     0
 62
     2
  6
ByBlock
290
     1
370
    -3
390
1D
  0
LAYER
  5
114
100
AcDbSymbolTableRecord
100
AcDbLayerTableRecord
  2
LC-009-002-RND-0
 70
     0
 62
     1
  6
ByBlock
290
     1
370
    -3
390
1D
  0
LAYER
  5
270
100
AcDbSymbolTableRecord
100
AcDbLayerTableRecord
  2
LC-010-002-___-0
 70
     0
 62
     2
  6
DASHED
290
     1
370
    -3
390
1D
  0
ENDTAB
  0
TABLE
  2
STYLE
  5
3
100
AcDbSymbolTable
 70
     3
  0
STYLE
  5
17
100
AcDbSymbolTableRecord
100
AcDbTextStyleTableRecord
  2
Standard
 70
     0
 40
0.0
 41
1.0
 50
0.0
 71
     0
 42
0.0
  3
txt
  4

  0
STYLE
  5
29
100
AcDbSymbolTableRecord
100
AcDbTextStyleTableRecord
  2
LCTX15-400-0-0-ARIAL
 70
    64
 40
3.5
 41
1.0
 50
0.0
 71
     0
 42
0.0
  3
Arial
  4

1001
ACAD
1000
Arial
1071
 16777216
  0
STYLE
  5
A7
100
AcDbSymbolTableRecord
100
AcDbTextStyleTableRecord
  2
LCTX15-400-0-0-DIN-SCHRIFTP
 70
    64
 40
0.0
 41
1.0
 50
1.5
 71
     0
 42
3.5
  3
STANDARD
  4

  0
ENDTAB
  0
TABLE
  2
VIEW
  5
5
100
AcDbSymbolTable
 70
     0
  0
ENDTAB
  0
TABLE
  2
UCS
  5
6
100
AcDbSymbolTable
 70
     0
  0
ENDTAB
  0
TABLE
  2
APPID
  5
8
100
AcDbSymbolTable
 70
     1
  0
APPID
  5
16
100
AcDbSymbolTableRecord
100
AcDbRegAppTableRecord
  2
ACAD
 70
     0
  0
ENDTAB
  0
TABLE
  2
DIMSTYLE
  5
9
100
AcDbSymbolTable
 70
     2
100
AcDbDimStyleTable
 71
     0
  0
DIMSTYLE
105
18
100
AcDbSymbolTableRecord
100
AcDbDimStyleTableRecord
  2
Standard
 70
     0
  3

  4

 40
1.0
 41
0.18
 42
0.0625
 43
0.38
 44
0.18
 45
0.0
 46
0.0
 47
0.0
 48
0.0
 71
     0
 72
     0
 73
     1
 74
     1
 75
     0
 76
     0
 77
     0
 78
     0
 79
     0
140
0.18
141
0.09
142
0.0
143
25.4
144
1.0
145
0.0
146
1.0
147
0.09
148
0.0
170
     0
171
     2
172
     0
173
     0
174
     0
175
     0
176
     0
177
     0
178
     0
179
     0
271
     4
272
     4
273
     2
274
     2
275
     0
276
     0
277
     2
278
    46
279
     0
280
     0
281
     0
282
     0
283
     1
284
     0
285
     0
286
     0
288
     0
289
     0
340
17
341
0
342
0
343
0
344
0
371
    -2
372
    -2
  0
DIMSTYLE
105
A6
100
AcDbSymbolTableRecord
100
AcDbDimStyleTableRecord
  2
LC-DIM-L-0140-02-02
 70
     0
  3

  4

 40
2.0
 41
3.5
 42
0.0
 43
7.5
 44
1.8
 45
0.0
 46
0.0
 47
0.0
 48
0.0
 71
     0
 72
     0
 73
     0
 74
     0
 75
     0
 76
     0
 77
     1
 78
     8
 79
     0
140
14.0
141
0.0
142
0.0
143
25.4
144
1.0
145
0.0
146
0.71
147
1.5
148
0.0
170
     0
171
     2
172
     0
173
     0
174
     0
175
     0
176
     2
177
     2
178
     2
179
     2
271
     2
272
     4
273
     2
274
     2
275
     0
276
     0
277
     2
278
    44
279
     0
280
     0
281
     0
282
     0
283
     1
284
     0
285
     0
286
     0
288
     0
289
     0
340
A7
341
0
342
0
343
0
344
0
371
    -3
372
     0
  0
ENDTAB
  0
TABLE
  2
BLOCK_RECORD
  5
1
100
AcDbSymbolTable
 70
    16
  0
BLOCK_RECORD
  5
A
100
AcDbSymbolTableRecord
100
AcDbBlockTableRecord
  2
*MODEL_SPACE
340
20
  0
BLOCK_RECORD
  5
B
100
AcDbSymbolTableRecord
100
AcDbBlockTableRecord
  2
*PAPER_SPACE
340
21
  0
BLOCK_RECORD
  5
8B
100
AcDbSymbolTableRecord
100
AcDbBlockTableRecord
  2
*X0
340
0
102
{BLKREFS
331
96
102
}
  0
BLOCK_RECORD
  5
97
100
AcDbSymbolTableRecord
100
AcDbBlockTableRecord
  2
*X1
340
0
102
{BLKREFS
331
A1
102
}
  0
BLOCK_RECORD
  5
A8
100
AcDbSymbolTableRecord
100
AcDbBlockTableRecord
  2
*D2
340
0
  0
BLOCK_RECORD
  5
C5
100
AcDbSymbolTableRecord
100
AcDbBlockTableRecord
  2
*D3
340
0
  0
BLOCK_RECORD
  5
DF
100
AcDbSymbolTableRecord
100
AcDbBlockTableRecord
  2
*D4
340
0
  0
BLOCK_RECORD
  5
F2
100
AcDbSymbolTableRecord
100
AcDbBlockTableRecord
  2
*D5
340
0
  0
BLOCK_RECORD
  5
126
100
AcDbSymbolTableRecord
100
AcDbBlockTableRecord
  2
*X6
340
0
102
{BLKREFS
331
134
102
}
  0
BLOCK_RECORD
  5
136
100
AcDbSymbolTableRecord
100
AcDbBlockTableRecord
  2
*X7
340
0
102
{BLKREFS
331
146
102
}
  0
BLOCK_RECORD
  5
154
100
AcDbSymbolTableRecord
100
AcDbBlockTableRecord
  2
*X8
340
0
102
{BLKREFS
331
1C7
102
}
  0
BLOCK_RECORD
  5
1C8
100
AcDbSymbolTableRecord
100
AcDbBlockTableRecord
  2
*X9
340
0
102
{BLKREFS
331
23F
102
}
  0
BLOCK_RECORD
  5
240
100
AcDbSymbolTableRecord
100
AcDbBlockTableRecord
  2
*X10
340
0
102
{BLKREFS
331
24E
102
}
  0
BLOCK_RECORD
  5
24F
100
AcDbSymbolTableRecord
100
AcDbBlockTableRecord
  2
*X11
340
0
102
{BLKREFS
331
261
102
}
  0
BLOCK_RECORD
  5
273
100
AcDbSymbolTableRecord
100
AcDbBlockTableRecord
  2
*X12
340
0
102
{BLKREFS
331
281
102
}
  0
BLOCK_RECORD
  5
2A0
100
AcDbSymbolTableRecord
100
AcDbBlockTableRecord
  2
*X13
340
0
102
{BLKREFS
331
2A7
102
}
  0
BLOCK_RECORD
  5
2A8
100
AcDbSymbolTableRecord
100
AcDbBlockTableRecord
  2
*X14
340
0
102
{BLKREFS
331
2B0
102
}
  0
BLOCK_RECORD
  5
2B3
100
AcDbSymbolTableRecord
100
AcDbBlockTableRecord
  2
*X15
340
0
102
{BLKREFS
331
2C2
102
}
  0
ENDTAB
  0
ENDSEC
  0
SECTION
  2
BLOCKS
  0
BLOCK
  5
D
100
AcDbEntity
  8
0
390
0
100
AcDbBlockBegin
  2
*MODEL_SPACE
 70
     0
 10
0.0
 20
0.0
 30
0.0
  3
*MODEL_SPACE
  1

  0
ENDBLK
  5
E
100
AcDbEntity
  8
0
390
0
100
AcDbBlockEnd
  0
BLOCK
  5
F
100
AcDbEntity
 67
     1
  8
0
390
0
100
AcDbBlockBegin
  2
*PAPER_SPACE
 70
     0
 10
0.0
 20
0.0
 30
0.0
  3
*PAPER_SPACE
  1

  0
ENDBLK
  5
10
100
AcDbEntity
 67
     1
  8
0
390
0
100
AcDbBlockEnd
  0
BLOCK
  5
8C
100
AcDbEntity
  8
0
390
0
100
AcDbBlockBegin
  2
*X0
 70
    65
 10
0.0
 20
0.0
 30
0.0
  3
*X0
  1

  0
LINE
  5
8E
100
AcDbEntity
  8
LC-005-005-----0
370
    25
390
0
 62
     2
100
AcDbLine
 10
276.723657
 20
390.785145
 30
0.0
 11
276.254054
 21
391.254748
 31
0.0
  0
LINE
  5
8F
100
AcDbEntity
  8
LC-005-005-----0
370
    25
390
0
 62
     2
100
AcDbLine
 10
276.880098
 20
387.800276
 30
0.0
 11
273.424754
 21
391.25562
 31
0.0
  0
LINE
  5
90
100
AcDbEntity
  8
LC-005-005-----0
370
    25
390
0
 62
     2
100
AcDbLine
 10
277.036528
 20
384.815419
 30
0.0
 11
270.596327
 21
391.25562
 31
0.0
  0
LINE
  5
91
100
AcDbEntity
  8
LC-005-005-----0
370
    25
390
0
 62
     2
100
AcDbLine
 10
276.1679
 20
382.85562
 30
0.0
 11
273.899011
 21
385.124509
 31
0.0
  0
LINE
  5
92
100
AcDbEntity
  8
LC-005-005-----0
370
    25
390
0
 62
     2
100
AcDbLine
 10
271.1679
 20
387.85562
 30
0.0
 11
267.7679
 21
391.25562
 31
0.0
  0
LINE
  5
93
100
AcDbEntity
  8
LC-005-005-----0
370
    25
390
0
 62
     2
100
AcDbLine
 10
269.799011
 20
386.396082
 30
0.0
 11
266.099011
 21
390.096082
 31
0.0
  0
LINE
  5
94
100
AcDbEntity
  8
LC-005-005-----0
370
    25
390
0
 62
     2
100
AcDbLine
 10
267.711046
 20
385.65562
 30
0.0
 11
266.099011
 21
387.267654
 31
0.0
  0
ENDBLK
  5
95
100
AcDbEntity
  8
0
390
0
100
AcDbBlockEnd
  0
BLOCK
  5
98
100
AcDbEntity
  8
0
390
0
100
AcDbBlockBegin
  2
*X1
 70
    65
 10
0.0
 20
0.0
 30
0.0
  3
*X1
  1

  0
LINE
  5
99
100
AcDbEntity
  8
LC-005-005-----0
370
    25
390
0
 62
     2
100
AcDbLine
 10
419.113616
 20
389.816542
 30
0.0
 11
417.674538
 21
391.25562
 31
0.0
  0
LINE
  5
9A
100
AcDbEntity
  8
LC-005-005-----0
370
    25
390
0
 62
     2
100
AcDbLine
 10
419.113616
 20
386.988115
 30
0.0
 11
414.84611
 21
391.25562
 31
0.0
  0
LINE
  5
9B
100
AcDbEntity
  8
LC-005-005-----0
370
    25
390
0
 62
     2
100
AcDbLine
 10
417.617683
 20
385.65562
 30
0.0
 11
412.017683
 21
391.25562
 31
0.0
  0
LINE
  5
9C
100
AcDbEntity
  8
LC-005-005-----0
370
    25
390
0
 62
     2
100
AcDbLine
 10
412.589256
 20
387.85562
 30
0.0
 11
409.189256
 21
391.25562
 31
0.0
  0
LINE
  5
9D
100
AcDbEntity
  8
LC-005-005-----0
370
    25
390
0
 62
     2
100
AcDbLine
 10
411.313616
 20
386.302833
 30
0.0
 11
408.406411
 21
389.210038
 31
0.0
  0
LINE
  5
9E
100
AcDbEntity
  8
LC-005-005-----0
370
    25
390
0
 62
     2
100
AcDbLine
 10
411.313616
 20
383.474406
 30
0.0
 11
408.265561
 21
386.522461
 31
0.0
  0
LINE
  5
9F
100
AcDbEntity
  8
LC-005-005-----0
370
    25
390
0
 62
     2
100
AcDbLine
 10
409.103975
 20
382.85562
 30
0.0
 11
408.124711
 21
383.834884
 31
0.0
  0
ENDBLK
  5
A0
100
AcDbEntity
  8
0
390
0
100
AcDbBlockEnd
  0
BLOCK
  5
A9
100
AcDbEntity
  8
0
390
0
100
AcDbBlockBegin
  2
*D2
 70
    65
 10
0.0
 20
0.0
 30
0.0
  3
*D2
  1

  0
LINE
  5
AB
100
AcDbEntity
  8
LC-006-003-MTH-0
370
    25
390
0
 62
     2
100
AcDbLine
 10
165.316172
 20
417.400845
 30
0.0
 11
165.316172
 21
524.19
 31
0.0
  0
LINE
  5
AC
100
AcDbEntity
  8
LC-006-003-MTH-0
370
    25
390
0
 62
     2
100
AcDbLine
 10
519.896455
 20
417.400845
 30
0.0
 11
519.896455
 21
524.19
 31
0.0
  0
LINE
  5
AE
100
AcDbEntity
  8
LC-007-003-MTG-0
370
    25
390
0
 62
     2
100
AcDbLine
 10
165.316172
 20
507.39
 30
0.0
 11
519.896455
 21
507.39
 31
0.0
  0
LINE
  5
B0
100
AcDbEntity
  8
LC-008-003-----0
370
    25
390
0
 62
     2
100
AcDbLine
 10
193.076628
 20
511.044733
 30
0.0
 11
165.316172
 21
507.39
 31
0.0
  0
LINE
  5
B1
100
AcDbEntity
  8
LC-008-003-----0
370
    25
390
0
 62
     2
100
AcDbLine
 10
165.316172
 20
507.39
 30
0.0
 11
193.076628
 21
503.735267
 31
0.0
  0
LINE
  5
B2
100
AcDbEntity
  8
LC-008-003-----0
370
    25
390
0
 62
     2
100
AcDbLine
 10
193.076628
 20
503.735267
 30
0.0
 11
193.076628
 21
511.044733
 31
0.0
  0
LINE
  5
B3
100
AcDbEntity
  8
LC-008-003-----0
370
    25
390
0
 62
     2
100
AcDbLine
 10
193.13891
 20
510.094503
 30
0.0
 11
172.596172
 21
507.39
 31
0.0
  0
LINE
  5
B4
100
AcDbEntity
  8
LC-008-003-----0
370
    25
390
0
 62
     2
100
AcDbLine
 10
172.596172
 20
507.39
 30
0.0
 11
193.13891
 21
504.685497
 31
0.0
  0
LINE
  5
B5
100
AcDbEntity
  8
LC-008-003-----0
370
    25
390
0
 62
     2
100
AcDbLine
 10
193.201191
 20
509.144272
 30
0.0
 11
179.876172
 21
507.39
 31
0.0
  0
LINE
  5
B6
100
AcDbEntity
  8
LC-008-003-----0
370
    25
390
0
 62
     2
100
AcDbLine
 10
179.876172
 20
507.39
 30
0.0
 11
193.201191
 21
505.635728
 31
0.0
  0
LINE
  5
B7
100
AcDbEntity
  8
LC-008-003-----0
370
    25
390
0
 62
     2
100
AcDbLine
 10
193.263472
 20
508.194041
 30
0.0
 11
187.156172
 21
507.39
 31
0.0
  0
LINE
  5
B8
100
AcDbEntity
  8
LC-008-003-----0
370
    25
390
0
 62
     2
100
AcDbLine
 10
187.156172
 20
507.39
 30
0.0
 11
193.263472
 21
506.585959
 31
0.0
  0
LINE
  5
B9
100
AcDbEntity
  8
LC-008-003-----0
370
    25
390
0
 62
     2
100
AcDbLine
 10
492.135999
 20
503.735267
 30
0.0
 11
519.896455
 21
507.39
 31
0.0
  0
LINE
  5
BA
100
AcDbEntity
  8
LC-008-003-----0
370
    25
390
0
 62
     2
100
AcDbLine
 10
519.896455
 20
507.39
 30
0.0
 11
492.135999
 21
511.044733
 31
0.0
  0
LINE
  5
BB
100
AcDbEntity
  8
LC-008-003-----0
370
    25
390
0
 62
     2
100
AcDbLine
 10
492.135999
 20
511.044733
 30
0.0
 11
492.135999
 21
503.735267
 31
0.0
  0
LINE
  5
BC
100
AcDbEntity
  8
LC-008-003-----0
370
    25
390
0
 62
     2
100
AcDbLine
 10
492.073718
 20
504.685497
 30
0.0
 11
512.616455
 21
507.39
 31
0.0
  0
LINE
  5
BD
100
AcDbEntity
  8
LC-008-003-----0
370
    25
390
0
 62
     2
100
AcDbLine
 10
512.616455
 20
507.39
 30
0.0
 11
492.073718
 21
510.094503
 31
0.0
  0
LINE
  5
BE
100
AcDbEntity
  8
LC-008-003-----0
370
    25
390
0
 62
     2
100
AcDbLine
 10
492.011436
 20
505.635728
 30
0.0
 11
505.336455
 21
507.39
 31
0.0
  0
LINE
  5
BF
100
AcDbEntity
  8
LC-008-003-----0
370
    25
390
0
 62
     2
100
AcDbLine
 10
505.336455
 20
507.39
 30
0.0
 11
492.011436
 21
509.144272
 31
0.0
  0
LINE
  5
C0
100
AcDbEntity
  8
LC-008-003-----0
370
    25
390
0
 62
     2
100
AcDbLine
 10
491.949155
 20
506.585959
 30
0.0
 11
498.056455
 21
507.39
 31
0.0
  0
LINE
  5
C1
100
AcDbEntity
  8
LC-008-003-----0
370
    25
390
0
 62
     2
100
AcDbLine
 10
498.056455
 20
507.39
 30
0.0
 11
491.949155
 21
508.194041
 31
0.0
  0
TEXT
  5
C2
100
AcDbEntity
  8
LC-008-003-----0
370
    -2
390
0
 62
     7
100
AcDbText
 10
283.954474
 20
515.217554
 30
0.0
 40
28.0
  1
%%c354
 41
0.9
 51
15.0
  7
LCTX15-400-0-0-ARIAL
 72
     1
 11
346.954474
 21
515.217554
 31
0.0
100
AcDbText
  0
ENDBLK
  5
C3
100
AcDbEntity
  8
0
390
0
100
AcDbBlockEnd
  0
BLOCK
  5
C6
100
AcDbEntity
  8
0
390
0
100
AcDbBlockBegin
  2
*D3
 70
    65
 10
0.0
 20
0.0
 30
0.0
  3
*D3
  1

  0
LINE
  5
C7
100
AcDbEntity
  8
LC-006-003-MTH-0
370
    25
390
0
 62
     2
100
AcDbLine
 10
262.475171
 20
334.52182
 30
0.0
 11
262.475171
 21
158.544
 31
0.0
  0
LINE
  5
C8
100
AcDbEntity
  8
LC-006-003-MTH-0
370
    25
390
0
 62
     2
100
AcDbLine
 10
422.737456
 20
334.52182
 30
0.0
 11
422.737456
 21
158.544
 31
0.0
  0
LINE
  5
C9
100
AcDbEntity
  8
LC-007-003-MTG-0
370
    25
390
0
 62
     2
100
AcDbLine
 10
262.475171
 20
175.344
 30
0.0
 11
422.737456
 21
175.344
 31
0.0
  0
LINE
  5
CA
100
AcDbEntity
  8
LC-008-003-----0
370
    25
390
0
 62
     2
100
AcDbLine
 10
290.235627
 20
178.998733
 30
0.0
 11
262.475171
 21
175.344
 31
0.0
  0
LINE
  5
CB
100
AcDbEntity
  8
LC-008-003-----0
370
    25
390
0
 62
     2
100
AcDbLine
 10
262.475171
 20
175.344
 30
0.0
 11
290.235627
 21
171.689267
 31
0.0
  0
LINE
  5
CC
100
AcDbEntity
  8
LC-008-003-----0
370
    25
390
0
 62
     2
100
AcDbLine
 10
290.235627
 20
171.689267
 30
0.0
 11
290.235627
 21
178.998733
 31
0.0
  0
LINE
  5
CD
100
AcDbEntity
  8
LC-008-003-----0
370
    25
390
0
 62
     2
100
AcDbLine
 10
290.297908
 20
178.048503
 30
0.0
 11
269.755171
 21
175.344
 31
0.0
  0
LINE
  5
CE
100
AcDbEntity
  8
LC-008-003-----0
370
    25
390
0
 62
     2
100
AcDbLine
 10
269.755171
 20
175.344
 30
0.0
 11
290.297908
 21
172.639497
 31
0.0
  0
LINE
  5
CF
100
AcDbEntity
  8
LC-008-003-----0
370
    25
390
0
 62
     2
100
AcDbLine
 10
290.36019
 20
177.098272
 30
0.0
 11
277.035171
 21
175.344
 31
0.0
  0
LINE
  5
D0
100
AcDbEntity
  8
LC-008-003-----0
370
    25
390
0
 62
     2
100
AcDbLine
 10
277.035171
 20
175.344
 30
0.0
 11
290.36019
 21
173.589728
 31
0.0
  0
LINE
  5
D1
100
AcDbEntity
  8
LC-008-003-----0
370
    25
390
0
 62
     2
100
AcDbLine
 10
290.422471
 20
176.148041
 30
0.0
 11
284.315171
 21
175.344
 31
0.0
  0
LINE
  5
D2
100
AcDbEntity
  8
LC-008-003-----0
370
    25
390
0
 62
     2
100
AcDbLine
 10
284.315171
 20
175.344
 30
0.0
 11
290.422471
 21
174.539959
 31
0.0
  0
LINE
  5
D3
100
AcDbEntity
  8
LC-008-003-----0
370
    25
390
0
 62
     2
100
AcDbLine
 10
394.977
 20
171.689267
 30
0.0
 11
422.737456
 21
175.344
 31
0.0
  0
LINE
  5
D4
100
AcDbEntity
  8
LC-008-003-----0
370
    25
390
0
 62
     2
100
AcDbLine
 10
422.737456
 20
175.344
 30
0.0
 11
394.977
 21
178.998733
 31
0.0
  0
LINE
  5
D5
100
AcDbEntity
  8
LC-008-003-----0
370
    25
390
0
 62
     2
100
AcDbLine
 10
394.977
 20
178.998733
 30
0.0
 11
394.977
 21
171.689267
 31
0.0
  0
LINE
  5
D6
100
AcDbEntity
  8
LC-008-003-----0
370
    25
390
0
 62
     2
100
AcDbLine
 10
394.914719
 20
172.639497
 30
0.0
 11
415.457456
 21
175.344
 31
0.0
  0
LINE
  5
D7
100
AcDbEntity
  8
LC-008-003-----0
370
    25
390
0
 62
     2
100
AcDbLine
 10
415.457456
 20
175.344
 30
0.0
 11
394.914719
 21
178.048503
 31
0.0
  0
LINE
  5
D8
100
AcDbEntity
  8
LC-008-003-----0
370
    25
390
0
 62
     2
100
AcDbLine
 10
394.852437
 20
173.589728
 30
0.0
 11
408.177456
 21
175.344
 31
0.0
  0
LINE
  5
D9
100
AcDbEntity
  8
LC-008-003-----0
370
    25
390
0
 62
     2
100
AcDbLine
 10
408.177456
 20
175.344
 30
0.0
 11
394.852437
 21
177.098272
 31
0.0
  0
LINE
  5
DA
100
AcDbEntity
  8
LC-008-003-----0
370
    25
390
0
 62
     2
100
AcDbLine
 10
394.790156
 20
174.539959
 30
0.0
 11
400.897456
 21
175.344
 31
0.0
  0
LINE
  5
DB
100
AcDbEntity
  8
LC-008-003-----0
370
    25
390
0
 62
     2
100
AcDbLine
 10
400.897456
 20
175.344
 30
0.0
 11
394.790156
 21
176.148041
 31
0.0
  0
TEXT
  5
DC
100
AcDbEntity
  8
LC-008-003-----0
370
    -2
390
0
 62
     7
100
AcDbText
 10
283.954474
 20
183.171554
 30
0.0
 40
28.0
  1
%%c160
 41
0.9
 51
15.0
  7
LCTX15-400-0-0-ARIAL
 72
     1
 11
346.954474
 21
183.171554
 31
0.0
100
AcDbText
  0
ENDBLK
  5
DD
100
AcDbEntity
  8
0
390
0
100
AcDbBlockEnd
  0
BLOCK
  5
E0
100
AcDbEntity
  8
0
390
0
100
AcDbBlockBegin
  2
*D4
 70
    65
 10
0.0
 20
0.0
 30
0.0
  3
*D4
  1

  0
LINE
  5
E1
100
AcDbEntity
  8
LC-006-003-MTH-0
370
    25
390
0
 62
     2
100
AcDbLine
 10
269.975171
 20
324.52182
 30
0.0
 11
140.0
 21
324.52182
 31
0.0
  0
LINE
  5
E2
100
AcDbEntity
  8
LC-006-003-MTH-0
370
    25
390
0
 62
     2
100
AcDbLine
 10
165.316172
 20
417.400845
 30
0.0
 11
140.0
 21
417.400845
 31
0.0
  0
LINE
  5
E3
100
AcDbEntity
  8
LC-007-003-MTG-0
370
    25
390
0
 62
     2
100
AcDbLine
 10
156.8
 20
324.52182
 30
0.0
 11
156.8
 21
345.6328
 31
0.0
  0
LINE
  5
E4
100
AcDbEntity
  8
LC-007-003-MTG-0
370
    25
390
0
 62
     2
100
AcDbLine
 10
156.8
 20
410.783733
 30
0.0
 11
156.8
 21
417.400845
 31
0.0
  0
LINE
  5
E5
100
AcDbEntity
  8
LC-008-003-----0
370
    25
390
0
 62
     2
100
AcDbLine
 10
154.020687
 20
345.6328
 30
0.0
 11
156.8
 21
324.52182
 31
0.0
  0
LINE
  5
E6
100
AcDbEntity
  8
LC-008-003-----0
370
    25
390
0
 62
     2
100
AcDbLine
 10
156.8
 20
324.52182
 30
0.0
 11
159.579313
 21
345.6328
 31
0.0
  0
LINE
  5
E7
100
AcDbEntity
  8
LC-008-003-----0
370
    25
390
0
 62
     2
100
AcDbLine
 10
154.979117
 20
345.6328
 30
0.0
 11
156.8
 21
331.80182
 31
0.0
  0
LINE
  5
E8
100
AcDbEntity
  8
LC-008-003-----0
370
    25
390
0
 62
     2
100
AcDbLine
 10
156.8
 20
331.80182
 30
0.0
 11
158.620883
 21
345.6328
 31
0.0
  0
LINE
  5
E9
100
AcDbEntity
  8
LC-008-003-----0
370
    25
390
0
 62
     2
100
AcDbLine
 10
155.937547
 20
345.6328
 30
0.0
 11
156.8
 21
339.08182
 31
0.0
  0
LINE
  5
EA
100
AcDbEntity
  8
LC-008-003-----0
370
    25
390
0
 62
     2
100
AcDbLine
 10
156.8
 20
339.08182
 30
0.0
 11
157.662453
 21
345.6328
 31
0.0
  0
LINE
  5
EB
100
AcDbEntity
  8
LC-008-003-----0
370
    25
390
0
 62
     2
100
AcDbLine
 10
157.671159
 20
410.783733
 30
0.0
 11
156.8
 21
417.400845
 31
0.0
  0
LINE
  5
EC
100
AcDbEntity
  8
LC-008-003-----0
370
    25
390
0
 62
     2
100
AcDbLine
 10
156.8
 20
417.400845
 30
0.0
 11
155.928841
 21
410.783733
 31
0.0
  0
TEXT
  5
ED
100
AcDbEntity
  8
LC-008-003-----0
370
    -2
390
0
 62
     7
100
AcDbText
 10
148.972446
 20
357.557493
 30
0.0
 40
28.0
  1
93
 50
90.0
 41
0.9
 51
15.0
  7
LCTX15-400-0-0-ARIAL
 72
     1
 11
148.972446
 21
375.309493
 31
0.0
100
AcDbText
  0
ENDBLK
  5
EE
100
AcDbEntity
  8
0
390
0
100
AcDbBlockEnd
  0
BLOCK
  5
F3
100
AcDbEntity
  8
0
390
0
100
AcDbBlockBegin
  2
*D5
 70
    65
 10
0.0
 20
0.0
 30
0.0
  3
*D5
  1

  0
LINE
  5
F4
100
AcDbEntity
  8
LC-006-003-MTH-0
370
    25
390
0
 62
     2
100
AcDbLine
 10
280.326795
 20
273.084196
 30
0.0
 11
280.326795
 21
207.846
 31
0.0
  0
LINE
  5
F5
100
AcDbEntity
  8
LC-006-003-MTH-0
370
    25
390
0
 62
     2
100
AcDbLine
 10
405.326795
 20
273.084196
 30
0.0
 11
405.326795
 21
207.846
 31
0.0
  0
LINE
  5
F6
100
AcDbEntity
  8
LC-007-003-MTG-0
370
    25
390
0
 62
     2
100
AcDbLine
 10
280.326795
 20
224.646
 30
0.0
 11
405.326795
 21
224.646
 31
0.0
  0
LINE
  5
F7
100
AcDbEntity
  8
LC-008-003-----0
370
    25
390
0
 62
     2
100
AcDbLine
 10
308.087251
 20
228.300733
 30
0.0
 11
280.326795
 21
224.646
 31
0.0
  0
LINE
  5
F8
100
AcDbEntity
  8
LC-008-003-----0
370
    25
390
0
 62
     2
100
AcDbLine
 10
280.326795
 20
224.646
 30
0.0
 11
308.087251
 21
220.991267
 31
0.0
  0
LINE
  5
F9
100
AcDbEntity
  8
LC-008-003-----0
370
    25
390
0
 62
     2
100
AcDbLine
 10
308.087251
 20
220.991267
 30
0.0
 11
308.087251
 21
228.300733
 31
0.0
  0
LINE
  5
FA
100
AcDbEntity
  8
LC-008-003-----0
370
    25
390
0
 62
     2
100
AcDbLine
 10
308.149532
 20
227.350503
 30
0.0
 11
287.606795
 21
224.646
 31
0.0
  0
LINE
  5
FB
100
AcDbEntity
  8
LC-008-003-----0
370
    25
390
0
 62
     2
100
AcDbLine
 10
287.606795
 20
224.646
 30
0.0
 11
308.149532
 21
221.941497
 31
0.0
  0
LINE
  5
FC
100
AcDbEntity
  8
LC-008-003-----0
370
    25
390
0
 62
     2
100
AcDbLine
 10
308.211814
 20
226.400272
 30
0.0
 11
294.886795
 21
224.646
 31
0.0
  0
LINE
  5
FD
100
AcDbEntity
  8
LC-008-003-----0
370
    25
390
0
 62
     2
100
AcDbLine
 10
294.886795
 20
224.646
 30
0.0
 11
308.211814
 21
222.891728
 31
0.0
  0
LINE
  5
FE
100
AcDbEntity
  8
LC-008-003-----0
370
    25
390
0
 62
     2
100
AcDbLine
 10
308.274095
 20
225.450041
 30
0.0
 11
302.166795
 21
224.646
 31
0.0
  0
LINE
  5
FF
100
AcDbEntity
  8
LC-008-003-----0
370
    25
390
0
 62
     2
100
AcDbLine
 10
302.166795
 20
224.646
 30
0.0
 11
308.274095
 21
223.841959
 31
0.0
  0
LINE
  5
100
100
AcDbEntity
  8
LC-008-003-----0
370
    25
390
0
 62
     2
100
AcDbLine
 10
377.566339
 20
220.991267
 30
0.0
 11
405.326795
 21
224.646
 31
0.0
  0
LINE
  5
101
100
AcDbEntity
  8
LC-008-003-----0
370
    25
390
0
 62
     2
100
AcDbLine
 10
405.326795
 20
224.646
 30
0.0
 11
377.566339
 21
228.300733
 31
0.0
  0
LINE
  5
102
100
AcDbEntity
  8
LC-008-003-----0
370
    25
390
0
 62
     2
100
AcDbLine
 10
377.566339
 20
228.300733
 30
0.0
 11
377.566339
 21
220.991267
 31
0.0
  0
LINE
  5
103
100
AcDbEntity
  8
LC-008-003-----0
370
    25
390
0
 62
     2
100
AcDbLine
 10
377.504057
 20
221.941497
 30
0.0
 11
398.046795
 21
224.646
 31
0.0
  0
LINE
  5
104
100
AcDbEntity
  8
LC-008-003-----0
370
    25
390
0
 62
     2
100
AcDbLine
 10
398.046795
 20
224.646
 30
0.0
 11
377.504057
 21
227.350503
 31
0.0
  0
LINE
  5
105
100
AcDbEntity
  8
LC-008-003-----0
370
    25
390
0
 62
     2
100
AcDbLine
 10
377.441776
 20
222.891728
 30
0.0
 11
390.766795
 21
224.646
 31
0.0
  0
LINE
  5
106
100
AcDbEntity
  8
LC-008-003-----0
370
    25
390
0
 62
     2
100
AcDbLine
 10
390.766795
 20
224.646
 30
0.0
 11
377.441776
 21
226.400272
 31
0.0
  0
LINE
  5
107
100
AcDbEntity
  8
LC-008-003-----0
370
    25
390
0
 62
     2
100
AcDbLine
 10
377.379495
 20
223.841959
 30
0.0
 11
383.486795
 21
224.646
 31
0.0
  0
LINE
  5
108
100
AcDbEntity
  8
LC-008-003-----0
370
    25
390
0
 62
     2
100
AcDbLine
 10
383.486795
 20
224.646
 30
0.0
 11
377.379495
 21
225.450041
 31
0.0
  0
TEXT
  5
109
100
AcDbEntity
  8
LC-008-003-----0
370
    -2
390
0
 62
     7
100
AcDbText
 10
297.474955
 20
232.473554
 30
0.0
 40
28.0
  1
DN125
 41
0.9
 51
15.0
  7
LCTX15-400-0-0-ARIAL
 72
     1
 11
347.174955
 21
232.473554
 31
0.0
100
AcDbText
  0
ENDBLK
  5
10A
100
AcDbEntity
  8
0
390
0
100
AcDbBlockEnd
  0
BLOCK
  5
127
100
AcDbEntity
  8
0
390
0
100
AcDbBlockBegin
  2
*X6
 70
    65
 10
0.0
 20
0.0
 30
0.0
  3
*X6
  1

  0
LINE
  5
128
100
AcDbEntity
  8
LC-005-005-----0
370
    25
390
0
 62
     2
100
AcDbLine
 10
418.641144
 20
325.303049
 30
0.0
 11
422.607943
 21
329.269848
 31
0.0
  0
LINE
  5
129
100
AcDbEntity
  8
LC-005-005-----0
370
    25
390
0
 62
     2
100
AcDbLine
 10
413.093864
 20
322.584196
 30
0.0
 11
413.569389
 21
323.059721
 31
0.0
  0
LINE
  5
12A
100
AcDbEntity
  8
LC-005-005-----0
370
    25
390
0
 62
     2
100
AcDbLine
 10
410.265437
 20
322.584196
 30
0.0
 11
414.765437
 21
327.084196
 31
0.0
  0
LINE
  5
12B
100
AcDbEntity
  8
LC-005-005-----0
370
    25
390
0
 62
     2
100
AcDbLine
 10
417.826796
 20
330.145556
 30
0.0
 11
422.265437
 21
334.584196
 31
0.0
  0
LINE
  5
12C
100
AcDbEntity
  8
LC-005-005-----0
370
    25
390
0
 62
     2
100
AcDbLine
 10
407.437009
 20
322.584196
 30
0.0
 11
411.937009
 21
327.084196
 31
0.0
  0
LINE
  5
12D
100
AcDbEntity
  8
LC-005-005-----0
370
    25
390
0
 62
     2
100
AcDbLine
 10
417.826796
 20
332.973983
 30
0.0
 11
420.076796
 21
335.223983
 31
0.0
  0
LINE
  5
12E
100
AcDbEntity
  8
LC-005-005-----0
370
    25
390
0
 62
     2
100
AcDbLine
 10
405.576796
 20
323.55241
 30
0.0
 11
409.108582
 21
327.084196
 31
0.0
  0
LINE
  5
12F
100
AcDbEntity
  8
LC-005-005-----0
370
    25
390
0
 62
     2
100
AcDbLine
 10
417.826796
 20
335.80241
 30
0.0
 11
420.076796
 21
338.05241
 31
0.0
  0
LINE
  5
130
100
AcDbEntity
  8
LC-005-005-----0
370
    25
390
0
 62
     2
100
AcDbLine
 10
405.576796
 20
326.380837
 30
0.0
 11
406.280155
 21
327.084196
 31
0.0
  0
LINE
  5
131
100
AcDbEntity
  8
LC-005-005-----0
370
    25
390
0
 62
     2
100
AcDbLine
 10
417.826796
 20
338.630837
 30
0.0
 11
420.076796
 21
340.880837
 31
0.0
  0
LINE
  5
132
100
AcDbEntity
  8
LC-005-005-----0
370
    25
390
0
 62
     2
100
AcDbLine
 10
417.826796
 20
341.459264
 30
0.0
 11
419.951728
 21
343.584196
 31
0.0
  0
ENDBLK
  5
133
100
AcDbEntity
  8
0
390
0
100
AcDbBlockEnd
  0
BLOCK
  5
137
100
AcDbEntity
  8
0
390
0
100
AcDbBlockBegin
  2
*X7
 70
    65
 10
0.0
 20
0.0
 30
0.0
  3
*X7
  1

  0
LINE
  5
138
100
AcDbEntity
  8
LC-005-005-----0
370
    25
390
0
 62
     2
100
AcDbLine
 10
277.329362
 20
322.584196
 30
0.0
 11
280.076796
 21
325.33163
 31
0.0
  0
LINE
  5
139
100
AcDbEntity
  8
LC-005-005-----0
370
    25
390
0
 62
     2
100
AcDbLine
 10
274.500935
 20
322.584196
 30
0.0
 11
279.000935
 21
327.084196
 31
0.0
  0
LINE
  5
13A
100
AcDbEntity
  8
LC-005-005-----0
370
    25
390
0
 62
     2
100
AcDbLine
 10
272.075508
 20
322.987196
 30
0.0
 11
276.172508
 21
327.084196
 31
0.0
  0
LINE
  5
13B
100
AcDbEntity
  8
LC-005-005-----0
370
    25
390
0
 62
     2
100
AcDbLine
 10
270.84408
 20
324.584196
 30
0.0
 11
273.34408
 21
327.084196
 31
0.0
  0
LINE
  5
13C
100
AcDbEntity
  8
LC-005-005-----0
370
    25
390
0
 62
     2
100
AcDbLine
 10
268.335911
 20
324.904454
 30
0.0
 11
270.515653
 21
327.084196
 31
0.0
  0
LINE
  5
13D
100
AcDbEntity
  8
LC-005-005-----0
370
    25
390
0
 62
     2
100
AcDbLine
 10
266.377793
 20
325.774763
 30
0.0
 11
268.490622
 21
327.887592
 31
0.0
  0
LINE
  5
13E
100
AcDbEntity
  8
LC-005-005-----0
370
    25
390
0
 62
     2
100
AcDbLine
 10
264.811994
 20
327.03739
 30
0.0
 11
267.826796
 21
330.052193
 31
0.0
  0
LINE
  5
13F
100
AcDbEntity
  8
LC-005-005-----0
370
    25
390
0
 62
     2
100
AcDbLine
 10
263.605665
 20
328.659489
 30
0.0
 11
267.826796
 21
332.88062
 31
0.0
  0
LINE
  5
140
100
AcDbEntity
  8
LC-005-005-----0
370
    25
390
0
 62
     2
100
AcDbLine
 10
262.80496
 20
330.687211
 30
0.0
 11
267.826796
 21
335.709047
 31
0.0
  0
LINE
  5
141
100
AcDbEntity
  8
LC-005-005-----0
370
    25
390
0
 62
     2
100
AcDbLine
 10
262.576796
 20
333.287475
 30
0.0
 11
263.873518
 21
334.584196
 31
0.0
  0
LINE
  5
142
100
AcDbEntity
  8
LC-005-005-----0
370
    25
390
0
 62
     2
100
AcDbLine
 10
265.576796
 20
336.287475
 30
0.0
 11
267.826796
 21
338.537475
 31
0.0
  0
LINE
  5
143
100
AcDbEntity
  8
LC-005-005-----0
370
    25
390
0
 62
     2
100
AcDbLine
 10
265.576796
 20
339.115902
 30
0.0
 11
267.826796
 21
341.365902
 31
0.0
  0
LINE
  5
144
100
AcDbEntity
  8
LC-005-005-----0
370
    25
390
0
 62
     2
100
AcDbLine
 10
265.576796
 20
341.944329
 30
0.0
 11
267.216663
 21
343.584196
 31
0.0
  0
ENDBLK
  5
145
100
AcDbEntity
  8
0
390
0
100
AcDbBlockEnd
  0
BLOCK
  5
155
100
AcDbEntity
  8
0
390
0
100
AcDbBlockBegin
  2
*X8
 70
    65
 10
0.0
 20
0.0
 30
0.0
  3
*X8
  1

  0
LINE
  5
156
100
AcDbEntity
  8
LC-005-005-----0
370
    25
390
0
 62
     2
100
AcDbLine
 10
282.726331
 20
268.584196
 30
0.0
 11
283.326795
 21
269.184659
 31
0.0
  0
LINE
  5
157
100
AcDbEntity
  8
LC-005-005-----0
370
    25
390
0
 62
     2
100
AcDbLine
 10
281.187122
 20
269.873413
 30
0.0
 11
283.326795
 21
272.013086
 31
0.0
  0
LINE
  5
158
100
AcDbEntity
  8
LC-005-005-----0
370
    25
390
0
 62
     2
100
AcDbLine
 10
280.589405
 20
272.104123
 30
0.0
 11
283.326795
 21
274.841514
 31
0.0
  0
LINE
  5
159
100
AcDbEntity
  8
LC-005-005-----0
370
    25
390
0
 62
     2
100
AcDbLine
 10
280.326795
 20
274.669941
 30
0.0
 11
283.326795
 21
277.669941
 31
0.0
  0
LINE
  5
15A
100
AcDbEntity
  8
LC-005-005-----0
370
    25
390
0
 62
     2
100
AcDbLine
 10
280.326795
 20
277.498368
 30
0.0
 11
283.326795
 21
280.498368
 31
0.0
  0
LINE
  5
15B
100
AcDbEntity
  8
LC-005-005-----0
370
    25
390
0
 62
     2
100
AcDbLine
 10
280.326795
 20
280.326795
 30
0.0
 11
283.326795
 21
283.326795
 31
0.0
  0
LINE
  5
15C
100
AcDbEntity
  8
LC-005-005-----0
370
    25
390
0
 62
     2
100
AcDbLine
 10
280.326795
 20
283.155222
 30
0.0
 11
283.326795
 21
286.155222
 31
0.0
  0
LINE
  5
15D
100
AcDbEntity
  8
LC-005-005-----0
370
    25
390
0
 62
     2
100
AcDbLine
 10
280.326795
 20
285.983649
 30
0.0
 11
283.326795
 21
288.983649
 31
0.0
  0
LINE
  5
15E
100
AcDbEntity
  8
LC-005-005-----0
370
    25
390
0
 62
     2
100
AcDbLine
 10
280.326795
 20
288.812076
 30
0.0
 11
283.326795
 21
291.812076
 31
0.0
  0
LINE
  5
15F
100
AcDbEntity
  8
LC-005-005-----0
370
    25
390
0
 62
     2
100
AcDbLine
 10
280.326795
 20
291.640503
 30
0.0
 11
283.326795
 21
294.640503
 31
0.0
  0
LINE
  5
160
100
AcDbEntity
  8
LC-005-005-----0
370
    25
390
0
 62
     2
100
AcDbLine
 10
280.326795
 20
294.468931
 30
0.0
 11
283.326795
 21
297.468931
 31
0.0
  0
LINE
  5
161
100
AcDbEntity
  8
LC-005-005-----0
370
    25
390
0
 62
     2
100
AcDbLine
 10
280.326795
 20
297.297358
 30
0.0
 11
283.326795
 21
300.297358
 31
0.0
  0
LINE
  5
162
100
AcDbEntity
  8
LC-005-005-----0
370
    25
390
0
 62
     2
100
AcDbLine
 10
280.326795
 20
300.125785
 30
0.0
 11
283.326795
 21
303.125785
 31
0.0
  0
LINE
  5
163
100
AcDbEntity
  8
LC-005-005-----0
370
    25
390
0
 62
     2
100
AcDbLine
 10
280.326795
 20
302.954212
 30
0.0
 11
283.326795
 21
305.954212
 31
0.0
  0
LINE
  5
164
100
AcDbEntity
  8
LC-005-005-----0
370
    25
390
0
 62
     2
100
AcDbLine
 10
280.326795
 20
305.782639
 30
0.0
 11
283.326795
 21
308.782639
 31
0.0
  0
LINE
  5
165
100
AcDbEntity
  8
LC-005-005-----0
370
    25
390
0
 62
     2
100
AcDbLine
 10
280.326795
 20
308.611066
 30
0.0
 11
283.326795
 21
311.611066
 31
0.0
  0
LINE
  5
166
100
AcDbEntity
  8
LC-005-005-----0
370
    25
390
0
 62
     2
100
AcDbLine
 10
280.326795
 20
311.439493
 30
0.0
 11
283.326795
 21
314.439493
 31
0.0
  0
LINE
  5
167
100
AcDbEntity
  8
LC-005-005-----0
370
    25
390
0
 62
     2
100
AcDbLine
 10
280.326795
 20
314.26792
 30
0.0
 11
283.326795
 21
317.26792
 31
0.0
  0
LINE
  5
168
100
AcDbEntity
  8
LC-005-005-----0
370
    25
390
0
 62
     2
100
AcDbLine
 10
280.326795
 20
317.096348
 30
0.0
 11
283.326795
 21
320.096348
 31
0.0
  0
LINE
  5
169
100
AcDbEntity
  8
LC-005-005-----0
370
    25
390
0
 62
     2
100
AcDbLine
 10
280.326795
 20
319.924775
 30
0.0
 11
283.326795
 21
322.924775
 31
0.0
  0
LINE
  5
16A
100
AcDbEntity
  8
LC-005-005-----0
370
    25
390
0
 62
     2
100
AcDbLine
 10
280.326795
 20
322.753202
 30
0.0
 11
283.326795
 21
325.753202
 31
0.0
  0
LINE
  5
16B
100
AcDbEntity
  8
LC-005-005-----0
370
    25
390
0
 62
     2
100
AcDbLine
 10
280.326795
 20
325.581629
 30
0.0
 11
283.326795
 21
328.581629
 31
0.0
  0
LINE
  5
16C
100
AcDbEntity
  8
LC-005-005-----0
370
    25
390
0
 62
     2
100
AcDbLine
 10
280.326795
 20
328.410056
 30
0.0
 11
283.326795
 21
331.410056
 31
0.0
  0
LINE
  5
16D
100
AcDbEntity
  8
LC-005-005-----0
370
    25
390
0
 62
     2
100
AcDbLine
 10
280.326795
 20
331.238483
 30
0.0
 11
283.326795
 21
334.238483
 31
0.0
  0
LINE
  5
16E
100
AcDbEntity
  8
LC-005-005-----0
370
    25
390
0
 62
     2
100
AcDbLine
 10
280.326795
 20
334.06691
 30
0.0
 11
283.326795
 21
337.06691
 31
0.0
  0
LINE
  5
16F
100
AcDbEntity
  8
LC-005-005-----0
370
    25
390
0
 62
     2
100
AcDbLine
 10
277.953278
 20
334.52182
 30
0.0
 11
280.905064
 21
337.473606
 31
0.0
  0
LINE
  5
170
100
AcDbEntity
  8
LC-005-005-----0
370
    25
390
0
 62
     2
100
AcDbLine
 10
276.092742
 20
335.489712
 30
0.0
 11
279.241314
 21
338.638283
 31
0.0
  0
LINE
  5
171
100
AcDbEntity
  8
LC-005-005-----0
370
    25
390
0
 62
     2
100
AcDbLine
 10
276.092742
 20
338.318139
 30
0.0
 11
279.241314
 21
341.46671
 31
0.0
  0
LINE
  5
172
100
AcDbEntity
  8
LC-005-005-----0
370
    25
390
0
 62
     2
100
AcDbLine
 10
276.092742
 20
341.146566
 30
0.0
 11
279.241314
 21
344.295137
 31
0.0
  0
LINE
  5
173
100
AcDbEntity
  8
LC-005-005-----0
370
    25
390
0
 62
     2
100
AcDbLine
 10
276.092742
 20
343.974993
 30
0.0
 11
279.241314
 21
347.123565
 31
0.0
  0
LINE
  5
174
100
AcDbEntity
  8
LC-005-005-----0
370
    25
390
0
 62
     2
100
AcDbLine
 10
263.873518
 20
334.584196
 30
0.0
 11
265.387303
 21
336.097982
 31
0.0
  0
LINE
  5
175
100
AcDbEntity
  8
LC-005-005-----0
370
    25
390
0
 62
     2
100
AcDbLine
 10
276.092742
 20
346.80342
 30
0.0
 11
279.241314
 21
349.951992
 31
0.0
  0
LINE
  5
176
100
AcDbEntity
  8
LC-005-005-----0
370
    25
390
0
 62
     2
100
AcDbLine
 10
262.475171
 20
336.014276
 30
0.0
 11
265.412204
 21
338.951309
 31
0.0
  0
LINE
  5
177
100
AcDbEntity
  8
LC-005-005-----0
370
    25
390
0
 62
     2
100
AcDbLine
 10
276.092742
 20
349.631847
 30
0.0
 11
279.241314
 21
352.780419
 31
0.0
  0
LINE
  5
178
100
AcDbEntity
  8
LC-005-005-----0
370
    25
390
0
 62
     2
100
AcDbLine
 10
262.475171
 20
338.842703
 30
0.0
 11
265.437105
 21
341.804637
 31
0.0
  0
LINE
  5
179
100
AcDbEntity
  8
LC-005-005-----0
370
    25
390
0
 62
     2
100
AcDbLine
 10
276.092742
 20
352.460275
 30
0.0
 11
279.241314
 21
355.608846
 31
0.0
  0
LINE
  5
17A
100
AcDbEntity
  8
LC-005-005-----0
370
    25
390
0
 62
     2
100
AcDbLine
 10
262.475171
 20
341.67113
 30
0.0
 11
265.462005
 21
344.657965
 31
0.0
  0
LINE
  5
17B
100
AcDbEntity
  8
LC-005-005-----0
370
    25
390
0
 62
     2
100
AcDbLine
 10
276.092742
 20
355.288702
 30
0.0
 11
279.241314
 21
358.437273
 31
0.0
  0
LINE
  5
17C
100
AcDbEntity
  8
LC-005-005-----0
370
    25
390
0
 62
     2
100
AcDbLine
 10
262.475171
 20
344.499557
 30
0.0
 11
265.486906
 21
347.511293
 31
0.0
  0
LINE
  5
17D
100
AcDbEntity
  8
LC-005-005-----0
370
    25
390
0
 62
     2
100
AcDbLine
 10
276.092742
 20
358.117129
 30
0.0
 11
279.241314
 21
361.2657
 31
0.0
  0
LINE
  5
17E
100
AcDbEntity
  8
LC-005-005-----0
370
    25
390
0
 62
     2
100
AcDbLine
 10
262.475171
 20
347.327984
 30
0.0
 11
265.511807
 21
350.36462
 31
0.0
  0
LINE
  5
17F
100
AcDbEntity
  8
LC-005-005-----0
370
    25
390
0
 62
     2
100
AcDbLine
 10
276.092742
 20
360.945556
 30
0.0
 11
279.241314
 21
364.094127
 31
0.0
  0
LINE
  5
180
100
AcDbEntity
  8
LC-005-005-----0
370
    25
390
0
 62
     2
100
AcDbLine
 10
262.475171
 20
350.156412
 30
0.0
 11
265.536707
 21
353.217948
 31
0.0
  0
LINE
  5
181
100
AcDbEntity
  8
LC-005-005-----0
370
    25
390
0
 62
     2
100
AcDbLine
 10
276.092742
 20
363.773983
 30
0.0
 11
279.241314
 21
366.922554
 31
0.0
  0
LINE
  5
182
100
AcDbEntity
  8
LC-005-005-----0
370
    25
390
0
 62
     2
100
AcDbLine
 10
262.475171
 20
352.984839
 30
0.0
 11
265.561608
 21
356.071276
 31
0.0
  0
LINE
  5
183
100
AcDbEntity
  8
LC-005-005-----0
370
    25
390
0
 62
     2
100
AcDbLine
 10
276.092742
 20
366.60241
 30
0.0
 11
279.241314
 21
369.750982
 31
0.0
  0
LINE
  5
184
100
AcDbEntity
  8
LC-005-005-----0
370
    25
390
0
 62
     2
100
AcDbLine
 10
262.475171
 20
355.813266
 30
0.0
 11
265.586508
 21
358.924603
 31
0.0
  0
LINE
  5
185
100
AcDbEntity
  8
LC-005-005-----0
370
    25
390
0
 62
     2
100
AcDbLine
 10
275.631924
 20
368.970019
 30
0.0
 11
278.974858
 21
372.312954
 31
0.0
  0
LINE
  5
186
100
AcDbEntity
  8
LC-005-005-----0
370
    25
390
0
 62
     2
100
AcDbLine
 10
262.475171
 20
358.641693
 30
0.0
 11
265.611409
 21
361.777931
 31
0.0
  0
LINE
  5
187
100
AcDbEntity
  8
LC-005-005-----0
370
    25
390
0
 62
     2
100
AcDbLine
 10
272.96205
 20
369.128572
 30
0.0
 11
276.467787
 21
372.634309
 31
0.0
  0
LINE
  5
188
100
AcDbEntity
  8
LC-005-005-----0
370
    25
390
0
 62
     2
100
AcDbLine
 10
262.475171
 20
361.47012
 30
0.0
 11
265.63631
 21
364.631259
 31
0.0
  0
LINE
  5
189
100
AcDbEntity
  8
LC-005-005-----0
370
    25
390
0
 62
     2
100
AcDbLine
 10
270.9457
 20
369.94065
 30
0.0
 11
273.761554
 21
372.756503
 31
0.0
  0
LINE
  5
18A
100
AcDbEntity
  8
LC-005-005-----0
370
    25
390
0
 62
     2
100
AcDbLine
 10
262.475171
 20
364.298547
 30
0.0
 11
265.66121
 21
367.484587
 31
0.0
  0
LINE
  5
18B
100
AcDbEntity
  8
LC-005-005-----0
370
    25
390
0
 62
     2
100
AcDbLine
 10
270.287564
 20
372.11094
 30
0.0
 11
273.239349
 21
375.062726
 31
0.0
  0
LINE
  5
18C
100
AcDbEntity
  8
LC-005-005-----0
370
    25
390
0
 62
     2
100
AcDbLine
 10
262.475171
 20
367.126974
 30
0.0
 11
265.686111
 21
370.337914
 31
0.0
  0
LINE
  5
18D
100
AcDbEntity
  8
LC-005-005-----0
370
    25
390
0
 62
     2
100
AcDbLine
 10
270.287564
 20
374.939367
 30
0.0
 11
273.239349
 21
377.891153
 31
0.0
  0
LINE
  5
18E
100
AcDbEntity
  8
LC-005-005-----0
370
    25
390
0
 62
     2
100
AcDbLine
 10
262.475171
 20
369.955401
 30
0.0
 11
265.711011
 21
373.191242
 31
0.0
  0
LINE
  5
18F
100
AcDbEntity
  8
LC-005-005-----0
370
    25
390
0
 62
     2
100
AcDbLine
 10
270.287564
 20
377.767794
 30
0.0
 11
273.239349
 21
380.71958
 31
0.0
  0
LINE
  5
190
100
AcDbEntity
  8
LC-005-005-----0
370
    25
390
0
 62
     2
100
AcDbLine
 10
262.475171
 20
372.783829
 30
0.0
 11
265.735912
 21
376.04457
 31
0.0
  0
LINE
  5
191
100
AcDbEntity
  8
LC-005-005-----0
370
    25
390
0
 62
     2
100
AcDbLine
 10
270.287564
 20
380.596221
 30
0.0
 11
273.239349
 21
383.548007
 31
0.0
  0
LINE
  5
192
100
AcDbEntity
  8
LC-005-005-----0
370
    25
390
0
 62
     2
100
AcDbLine
 10
262.475171
 20
375.612256
 30
0.0
 11
265.760813
 21
378.897898
 31
0.0
  0
LINE
  5
193
100
AcDbEntity
  8
LC-005-005-----0
370
    25
390
0
 62
     2
100
AcDbLine
 10
269.78251
 20
382.919595
 30
0.0
 11
272.518535
 21
385.65562
 31
0.0
  0
LINE
  5
194
100
AcDbEntity
  8
LC-005-005-----0
370
    25
390
0
 62
     2
100
AcDbLine
 10
262.475171
 20
378.440683
 30
0.0
 11
265.785713
 21
381.751225
 31
0.0
  0
LINE
  5
195
100
AcDbEntity
  8
LC-005-005-----0
370
    25
390
0
 62
     2
100
AcDbLine
 10
267.085846
 20
383.051358
 30
0.0
 11
269.690108
 21
385.65562
 31
0.0
  0
LINE
  5
196
100
AcDbEntity
  8
LC-005-005-----0
370
    25
390
0
 62
     2
100
AcDbLine
 10
262.475171
 20
381.26911
 30
0.0
 11
266.861681
 21
385.65562
 31
0.0
  0
LINE
  5
197
100
AcDbEntity
  8
LC-005-005-----0
370
    25
390
0
 62
     2
100
AcDbLine
 10
262.475171
 20
384.097537
 30
0.0
 11
266.099011
 21
387.721378
 31
0.0
  0
LINE
  5
198
100
AcDbEntity
  8
LC-005-005-----0
370
    25
390
0
 62
     2
100
AcDbLine
 10
262.475171
 20
386.925964
 30
0.0
 11
267.099011
 21
391.549805
 31
0.0
  0
LINE
  5
199
100
AcDbEntity
  8
LC-005-005-----0
370
    25
390
0
 62
     2
100
AcDbLine
 10
262.475171
 20
389.754391
 30
0.0
 11
267.099011
 21
394.378232
 31
0.0
  0
LINE
  5
19A
100
AcDbEntity
  8
LC-005-005-----0
370
    25
390
0
 62
     2
100
AcDbLine
 10
262.475171
 20
392.582818
 30
0.0
 11
267.425855
 21
397.533503
 31
0.0
  0
LINE
  5
19B
100
AcDbEntity
  8
LC-005-005-----0
370
    25
390
0
 62
     2
100
AcDbLine
 10
262.475171
 20
395.411246
 30
0.0
 11
266.390579
 21
399.326654
 31
0.0
  0
LINE
  5
19C
100
AcDbEntity
  8
LC-005-005-----0
370
    25
390
0
 62
     2
100
AcDbLine
 10
262.475171
 20
398.239673
 30
0.0
 11
265.355303
 21
401.119805
 31
0.0
  0
LINE
  5
19D
100
AcDbEntity
  8
LC-005-005-----0
370
    25
390
0
 62
     2
100
AcDbLine
 10
262.159169
 20
400.752098
 30
0.0
 11
264.320026
 21
402.912956
 31
0.0
  0
LINE
  5
19E
100
AcDbEntity
  8
LC-005-005-----0
370
    25
390
0
 62
     2
100
AcDbLine
 10
261.123893
 20
402.545249
 30
0.0
 11
263.818014
 21
405.23937
 31
0.0
  0
LINE
  5
19F
100
AcDbEntity
  8
LC-005-005-----0
370
    25
390
0
 62
     2
100
AcDbLine
 10
261.010949
 20
405.260732
 30
0.0
 11
263.818014
 21
408.067797
 31
0.0
  0
LINE
  5
1A0
100
AcDbEntity
  8
LC-005-005-----0
370
    25
390
0
 62
     2
100
AcDbLine
 10
261.011215
 20
408.089426
 30
0.0
 11
263.818014
 21
410.896224
 31
0.0
  0
LINE
  5
1A1
100
AcDbEntity
  8
LC-005-005-----0
370
    25
390
0
 62
     2
100
AcDbLine
 10
261.011482
 20
410.918119
 30
0.0
 11
263.818014
 21
413.724651
 31
0.0
  0
LINE
  5
1A2
100
AcDbEntity
  8
LC-005-005-----0
370
    25
390
0
 62
     2
100
AcDbLine
 10
261.011748
 20
413.746813
 30
0.0
 11
263.818014
 21
416.553078
 31
0.0
  0
LINE
  5
1A3
100
AcDbEntity
  8
LC-005-005-----0
370
    25
390
0
 62
     2
100
AcDbLine
 10
260.932716
 20
416.496208
 30
0.0
 11
263.818014
 21
419.381505
 31
0.0
  0
LINE
  5
1A4
100
AcDbEntity
  8
LC-005-005-----0
370
    25
390
0
 62
     2
100
AcDbLine
 10
259.008926
 20
417.400845
 30
0.0
 11
262.022106
 21
420.414025
 31
0.0
  0
LINE
  5
1A5
100
AcDbEntity
  8
LC-005-005-----0
370
    25
390
0
 62
     2
100
AcDbLine
 10
256.180499
 20
417.400845
 30
0.0
 11
259.193668
 21
420.414014
 31
0.0
  0
LINE
  5
1A6
100
AcDbEntity
  8
LC-005-005-----0
370
    25
390
0
 62
     2
100
AcDbLine
 10
253.352072
 20
417.400845
 30
0.0
 11
256.365231
 21
420.414004
 31
0.0
  0
LINE
  5
1A7
100
AcDbEntity
  8
LC-005-005-----0
370
    25
390
0
 62
     2
100
AcDbLine
 10
250.523645
 20
417.400845
 30
0.0
 11
253.536793
 21
420.413994
 31
0.0
  0
LINE
  5
1A8
100
AcDbEntity
  8
LC-005-005-----0
370
    25
390
0
 62
     2
100
AcDbLine
 10
247.695218
 20
417.400845
 30
0.0
 11
250.708356
 21
420.413983
 31
0.0
  0
LINE
  5
1A9
100
AcDbEntity
  8
LC-005-005-----0
370
    25
390
0
 62
     2
100
AcDbLine
 10
244.866791
 20
417.400845
 30
0.0
 11
247.879918
 21
420.413973
 31
0.0
  0
LINE
  5
1AA
100
AcDbEntity
  8
LC-005-005-----0
370
    25
390
0
 62
     2
100
AcDbLine
 10
242.038364
 20
417.400845
 30
0.0
 11
245.051481
 21
420.413962
 31
0.0
  0
LINE
  5
1AB
100
AcDbEntity
  8
LC-005-005-----0
370
    25
390
0
 62
     2
100
AcDbLine
 10
239.209937
 20
417.400845
 30
0.0
 11
242.223043
 21
420.413952
 31
0.0
  0
LINE
  5
1AC
100
AcDbEntity
  8
LC-005-005-----0
370
    25
390
0
 62
     2
100
AcDbLine
 10
236.381509
 20
417.400845
 30
0.0
 11
239.394605
 21
420.413941
 31
0.0
  0
LINE
  5
1AD
100
AcDbEntity
  8
LC-005-005-----0
370
    25
390
0
 62
     2
100
AcDbLine
 10
233.553082
 20
417.400845
 30
0.0
 11
236.566168
 21
420.413931
 31
0.0
  0
LINE
  5
1AE
100
AcDbEntity
  8
LC-005-005-----0
370
    25
390
0
 62
     2
100
AcDbLine
 10
230.724655
 20
417.400845
 30
0.0
 11
233.73773
 21
420.41392
 31
0.0
  0
LINE
  5
1AF
100
AcDbEntity
  8
LC-005-005-----0
370
    25
390
0
 62
     2
100
AcDbLine
 10
227.896228
 20
417.400845
 30
0.0
 11
230.909293
 21
420.41391
 31
0.0
  0
LINE
  5
1B0
100
AcDbEntity
  8
LC-005-005-----0
370
    25
390
0
 62
     2
100
AcDbLine
 10
225.067801
 20
417.400845
 30
0.0
 11
228.080855
 21
420.4139
 31
0.0
  0
LINE
  5
1B1
100
AcDbEntity
  8
LC-005-005-----0
370
    25
390
0
 62
     2
100
AcDbLine
 10
222.239374
 20
417.400845
 30
0.0
 11
225.252418
 21
420.413889
 31
0.0
  0
LINE
  5
1B2
100
AcDbEntity
  8
LC-005-005-----0
370
    25
390
0
 62
     2
100
AcDbLine
 10
219.410947
 20
417.400845
 30
0.0
 11
222.42398
 21
420.413879
 31
0.0
  0
LINE
  5
1B3
100
AcDbEntity
  8
LC-005-005-----0
370
    25
390
0
 62
     2
100
AcDbLine
 10
216.58252
 20
417.400845
 30
0.0
 11
219.595542
 21
420.413868
 31
0.0
  0
LINE
  5
1B4
100
AcDbEntity
  8
LC-005-005-----0
370
    25
390
0
 62
     2
100
AcDbLine
 10
213.754092
 20
417.400845
 30
0.0
 11
216.767105
 21
420.413858
 31
0.0
  0
LINE
  5
1B5
100
AcDbEntity
  8
LC-005-005-----0
370
    25
390
0
 62
     2
100
AcDbLine
 10
210.925665
 20
417.400845
 30
0.0
 11
213.938667
 21
420.413847
 31
0.0
  0
LINE
  5
1B6
100
AcDbEntity
  8
LC-005-005-----0
370
    25
390
0
 62
     2
100
AcDbLine
 10
208.097238
 20
417.400845
 30
0.0
 11
211.11023
 21
420.413837
 31
0.0
  0
LINE
  5
1B7
100
AcDbEntity
  8
LC-005-005-----0
370
    25
390
0
 62
     2
100
AcDbLine
 10
205.268811
 20
417.400845
 30
0.0
 11
208.281792
 21
420.413826
 31
0.0
  0
LINE
  5
1B8
100
AcDbEntity
  8
LC-005-005-----0
370
    25
390
0
 62
     2
100
AcDbLine
 10
202.440384
 20
417.400845
 30
0.0
 11
205.453355
 21
420.413816
 31
0.0
  0
LINE
  5
1B9
100
AcDbEntity
  8
LC-005-005-----0
370
    25
390
0
 62
     2
100
AcDbLine
 10
199.611957
 20
417.400845
 30
0.0
 11
202.624917
 21
420.413806
 31
0.0
  0
LINE
  5
1BA
100
AcDbEntity
  8
LC-005-005-----0
370
    25
390
0
 62
     2
100
AcDbLine
 10
196.78353
 20
417.400845
 30
0.0
 11
199.796479
 21
420.413795
 31
0.0
  0
LINE
  5
1BB
100
AcDbEntity
  8
LC-005-005-----0
370
    25
390
0
 62
     2
100
AcDbLine
 10
193.955103
 20
417.400845
 30
0.0
 11
196.968042
 21
420.413785
 31
0.0
  0
LINE
  5
1BC
100
AcDbEntity
  8
LC-005-005-----0
370
    25
390
0
 62
     2
100
AcDbLine
 10
191.126675
 20
417.400845
 30
0.0
 11
194.139604
 21
420.413774
 31
0.0
  0
LINE
  5
1BD
100
AcDbEntity
  8
LC-005-005-----0
370
    25
390
0
 62
     2
100
AcDbLine
 10
188.298248
 20
417.400845
 30
0.0
 11
191.311167
 21
420.413764
 31
0.0
  0
LINE
  5
1BE
100
AcDbEntity
  8
LC-005-005-----0
370
    25
390
0
 62
     2
100
AcDbLine
 10
185.469821
 20
417.400845
 30
0.0
 11
188.482729
 21
420.413753
 31
0.0
  0
LINE
  5
1BF
100
AcDbEntity
  8
LC-005-005-----0
370
    25
390
0
 62
     2
100
AcDbLine
 10
182.641394
 20
417.400845
 30
0.0
 11
185.654292
 21
420.413743
 31
0.0
  0
LINE
  5
1C0
100
AcDbEntity
  8
LC-005-005-----0
370
    25
390
0
 62
     2
100
AcDbLine
 10
179.812967
 20
417.400845
 30
0.0
 11
182.825854
 21
420.413732
 31
0.0
  0
LINE
  5
1C1
100
AcDbEntity
  8
LC-005-005-----0
370
    25
390
0
 62
     2
100
AcDbLine
 10
176.98454
 20
417.400845
 30
0.0
 11
179.997416
 21
420.413722
 31
0.0
  0
LINE
  5
1C2
100
AcDbEntity
  8
LC-005-005-----0
370
    25
390
0
 62
     2
100
AcDbLine
 10
174.156113
 20
417.400845
 30
0.0
 11
177.168979
 21
420.413712
 31
0.0
  0
LINE
  5
1C3
100
AcDbEntity
  8
LC-005-005-----0
370
    25
390
0
 62
     2
100
AcDbLine
 10
171.327686
 20
417.400845
 30
0.0
 11
174.340541
 21
420.413701
 31
0.0
  0
LINE
  5
1C4
100
AcDbEntity
  8
LC-005-005-----0
370
    25
390
0
 62
     2
100
AcDbLine
 10
168.499258
 20
417.400845
 30
0.0
 11
171.512104
 21
420.413691
 31
0.0
  0
LINE
  5
1C5
100
AcDbEntity
  8
LC-005-005-----0
370
    25
390
0
 62
     2
100
AcDbLine
 10
165.670831
 20
417.400845
 30
0.0
 11
168.683666
 21
420.41368
 31
0.0
  0
ENDBLK
  5
1C6
100
AcDbEntity
  8
0
390
0
100
AcDbBlockEnd
  0
BLOCK
  5
1C9
100
AcDbEntity
  8
0
390
0
100
AcDbBlockBegin
  2
*X9
 70
    65
 10
0.0
 20
0.0
 30
0.0
  3
*X9
  1

  0
LINE
  5
1CA
100
AcDbEntity
  8
LC-005-005-----0
370
    25
390
0
 62
     2
100
AcDbLine
 10
401.885832
 20
268.949757
 30
0.0
 11
404.470599
 21
271.534524
 31
0.0
  0
LINE
  5
1CB
100
AcDbEntity
  8
LC-005-005-----0
370
    25
390
0
 62
     2
100
AcDbLine
 10
401.885832
 20
271.778185
 30
0.0
 11
404.885832
 21
274.778185
 31
0.0
  0
LINE
  5
1CC
100
AcDbEntity
  8
LC-005-005-----0
370
    25
390
0
 62
     2
100
AcDbLine
 10
401.885832
 20
274.606612
 30
0.0
 11
404.885832
 21
277.606612
 31
0.0
  0
LINE
  5
1CD
100
AcDbEntity
  8
LC-005-005-----0
370
    25
390
0
 62
     2
100
AcDbLine
 10
401.885832
 20
277.435039
 30
0.0
 11
404.885832
 21
280.435039
 31
0.0
  0
LINE
  5
1CE
100
AcDbEntity
  8
LC-005-005-----0
370
    25
390
0
 62
     2
100
AcDbLine
 10
401.885832
 20
280.263466
 30
0.0
 11
404.885832
 21
283.263466
 31
0.0
  0
LINE
  5
1CF
100
AcDbEntity
  8
LC-005-005-----0
370
    25
390
0
 62
     2
100
AcDbLine
 10
401.885832
 20
283.091893
 30
0.0
 11
404.885832
 21
286.091893
 31
0.0
  0
LINE
  5
1D0
100
AcDbEntity
  8
LC-005-005-----0
370
    25
390
0
 62
     2
100
AcDbLine
 10
401.885832
 20
285.92032
 30
0.0
 11
404.885832
 21
288.92032
 31
0.0
  0
LINE
  5
1D1
100
AcDbEntity
  8
LC-005-005-----0
370
    25
390
0
 62
     2
100
AcDbLine
 10
401.885832
 20
288.748747
 30
0.0
 11
404.885832
 21
291.748747
 31
0.0
  0
LINE
  5
1D2
100
AcDbEntity
  8
LC-005-005-----0
370
    25
390
0
 62
     2
100
AcDbLine
 10
401.885832
 20
291.577174
 30
0.0
 11
404.885832
 21
294.577174
 31
0.0
  0
LINE
  5
1D3
100
AcDbEntity
  8
LC-005-005-----0
370
    25
390
0
 62
     2
100
AcDbLine
 10
401.885832
 20
294.405602
 30
0.0
 11
404.885832
 21
297.405602
 31
0.0
  0
LINE
  5
1D4
100
AcDbEntity
  8
LC-005-005-----0
370
    25
390
0
 62
     2
100
AcDbLine
 10
401.885832
 20
297.234029
 30
0.0
 11
404.885832
 21
300.234029
 31
0.0
  0
LINE
  5
1D5
100
AcDbEntity
  8
LC-005-005-----0
370
    25
390
0
 62
     2
100
AcDbLine
 10
401.885832
 20
300.062456
 30
0.0
 11
404.885832
 21
303.062456
 31
0.0
  0
LINE
  5
1D6
100
AcDbEntity
  8
LC-005-005-----0
370
    25
390
0
 62
     2
100
AcDbLine
 10
518.265373
 20
416.441997
 30
0.0
 11
519.224222
 21
417.400845
 31
0.0
  0
LINE
  5
1D7
100
AcDbEntity
  8
LC-005-005-----0
370
    25
390
0
 62
     2
100
AcDbLine
 10
519.86158
 20
418.038204
 30
0.0
 11
519.896458
 21
418.073081
 31
0.0
  0
LINE
  5
1D8
100
AcDbEntity
  8
LC-005-005-----0
370
    25
390
0
 62
     2
100
AcDbLine
 10
401.885832
 20
302.890883
 30
0.0
 11
404.885832
 21
305.890883
 31
0.0
  0
LINE
  5
1D9
100
AcDbEntity
  8
LC-005-005-----0
370
    25
390
0
 62
     2
100
AcDbLine
 10
516.25389
 20
417.258941
 30
0.0
 11
516.395795
 21
417.400845
 31
0.0
  0
LINE
  5
1DA
100
AcDbEntity
  8
LC-005-005-----0
370
    25
390
0
 62
     2
100
AcDbLine
 10
401.885832
 20
305.71931
 30
0.0
 11
404.885832
 21
308.71931
 31
0.0
  0
LINE
  5
1DB
100
AcDbEntity
  8
LC-005-005-----0
370
    25
390
0
 62
     2
100
AcDbLine
 10
513.567368
 20
417.400845
 30
0.0
 11
516.580202
 21
420.41368
 31
0.0
  0
LINE
  5
1DC
100
AcDbEntity
  8
LC-005-005-----0
370
    25
390
0
 62
     2
100
AcDbLine
 10
401.885832
 20
308.547737
 30
0.0
 11
404.885832
 21
311.547737
 31
0.0
  0
LINE
  5
1DD
100
AcDbEntity
  8
LC-005-005-----0
370
    25
390
0
 62
     2
100
AcDbLine
 10
510.738941
 20
417.400845
 30
0.0
 11
513.751786
 21
420.413691
 31
0.0
  0
LINE
  5
1DE
100
AcDbEntity
  8
LC-005-005-----0
370
    25
390
0
 62
     2
100
AcDbLine
 10
401.885832
 20
311.376164
 30
0.0
 11
404.885832
 21
314.376164
 31
0.0
  0
LINE
  5
1DF
100
AcDbEntity
  8
LC-005-005-----0
370
    25
390
0
 62
     2
100
AcDbLine
 10
507.910513
 20
417.400845
 30
0.0
 11
510.923369
 21
420.413701
 31
0.0
  0
LINE
  5
1E0
100
AcDbEntity
  8
LC-005-005-----0
370
    25
390
0
 62
     2
100
AcDbLine
 10
401.885832
 20
314.204591
 30
0.0
 11
404.885832
 21
317.204591
 31
0.0
  0
LINE
  5
1E1
100
AcDbEntity
  8
LC-005-005-----0
370
    25
390
0
 62
     2
100
AcDbLine
 10
422.265437
 20
334.584196
 30
0.0
 11
422.737456
 21
335.056216
 31
0.0
  0
LINE
  5
1E2
100
AcDbEntity
  8
LC-005-005-----0
370
    25
390
0
 62
     2
100
AcDbLine
 10
505.082086
 20
417.400845
 30
0.0
 11
508.094952
 21
420.413711
 31
0.0
  0
LINE
  5
1E3
100
AcDbEntity
  8
LC-005-005-----0
370
    25
390
0
 62
     2
100
AcDbLine
 10
401.885832
 20
317.033019
 30
0.0
 11
404.885832
 21
320.033019
 31
0.0
  0
LINE
  5
1E4
100
AcDbEntity
  8
LC-005-005-----0
370
    25
390
0
 62
     2
100
AcDbLine
 10
419.835061
 20
334.982247
 30
0.0
 11
422.737456
 21
337.884643
 31
0.0
  0
LINE
  5
1E5
100
AcDbEntity
  8
LC-005-005-----0
370
    25
390
0
 62
     2
100
AcDbLine
 10
502.253659
 20
417.400845
 30
0.0
 11
505.266536
 21
420.413722
 31
0.0
  0
LINE
  5
1E6
100
AcDbEntity
  8
LC-005-005-----0
370
    25
390
0
 62
     2
100
AcDbLine
 10
401.885832
 20
319.861446
 30
0.0
 11
404.885832
 21
322.861446
 31
0.0
  0
LINE
  5
1E7
100
AcDbEntity
  8
LC-005-005-----0
370
    25
390
0
 62
     2
100
AcDbLine
 10
419.810591
 20
337.786204
 30
0.0
 11
422.737456
 21
340.71307
 31
0.0
  0
LINE
  5
1E8
100
AcDbEntity
  8
LC-005-005-----0
370
    25
390
0
 62
     2
100
AcDbLine
 10
499.425232
 20
417.400845
 30
0.0
 11
502.438119
 21
420.413732
 31
0.0
  0
LINE
  5
1E9
100
AcDbEntity
  8
LC-005-005-----0
370
    25
390
0
 62
     2
100
AcDbLine
 10
401.885832
 20
322.689873
 30
0.0
 11
404.885832
 21
325.689873
 31
0.0
  0
LINE
  5
1EA
100
AcDbEntity
  8
LC-005-005-----0
370
    25
390
0
 62
     2
100
AcDbLine
 10
419.786121
 20
340.590162
 30
0.0
 11
422.737456
 21
343.541497
 31
0.0
  0
LINE
  5
1EB
100
AcDbEntity
  8
LC-005-005-----0
370
    25
390
0
 62
     2
100
AcDbLine
 10
496.596805
 20
417.400845
 30
0.0
 11
499.609702
 21
420.413743
 31
0.0
  0
LINE
  5
1EC
100
AcDbEntity
  8
LC-005-005-----0
370
    25
390
0
 62
     2
100
AcDbLine
 10
401.885832
 20
325.5183
 30
0.0
 11
404.885832
 21
328.5183
 31
0.0
  0
LINE
  5
1ED
100
AcDbEntity
  8
LC-005-005-----0
370
    25
390
0
 62
     2
100
AcDbLine
 10
419.761651
 20
343.394119
 30
0.0
 11
422.737456
 21
346.369924
 31
0.0
  0
LINE
  5
1EE
100
AcDbEntity
  8
LC-005-005-----0
370
    25
390
0
 62
     2
100
AcDbLine
 10
493.768378
 20
417.400845
 30
0.0
 11
496.781286
 21
420.413753
 31
0.0
  0
LINE
  5
1EF
100
AcDbEntity
  8
LC-005-005-----0
370
    25
390
0
 62
     2
100
AcDbLine
 10
401.885832
 20
328.346727
 30
0.0
 11
404.885832
 21
331.346727
 31
0.0
  0
LINE
  5
1F0
100
AcDbEntity
  8
LC-005-005-----0
370
    25
390
0
 62
     2
100
AcDbLine
 10
408.060926
 20
334.52182
 30
0.0
 11
409.119885
 21
335.58078
 31
0.0
  0
LINE
  5
1F1
100
AcDbEntity
  8
LC-005-005-----0
370
    25
390
0
 62
     2
100
AcDbLine
 10
419.737181
 20
346.198076
 30
0.0
 11
422.737456
 21
349.198351
 31
0.0
  0
LINE
  5
1F2
100
AcDbEntity
  8
LC-005-005-----0
370
    25
390
0
 62
     2
100
AcDbLine
 10
490.939951
 20
417.400845
 30
0.0
 11
493.952869
 21
420.413764
 31
0.0
  0
LINE
  5
1F3
100
AcDbEntity
  8
LC-005-005-----0
370
    25
390
0
 62
     2
100
AcDbLine
 10
401.885832
 20
331.175154
 30
0.0
 11
404.885832
 21
334.175154
 31
0.0
  0
LINE
  5
1F4
100
AcDbEntity
  8
LC-005-005-----0
370
    25
390
0
 62
     2
100
AcDbLine
 10
405.232498
 20
334.52182
 30
0.0
 11
409.119885
 21
338.409207
 31
0.0
  0
LINE
  5
1F5
100
AcDbEntity
  8
LC-005-005-----0
370
    25
390
0
 62
     2
100
AcDbLine
 10
419.712712
 20
349.002034
 30
0.0
 11
422.737456
 21
352.026778
 31
0.0
  0
LINE
  5
1F6
100
AcDbEntity
  8
LC-005-005-----0
370
    25
390
0
 62
     2
100
AcDbLine
 10
488.111524
 20
417.400845
 30
0.0
 11
491.124452
 21
420.413774
 31
0.0
  0
LINE
  5
1F7
100
AcDbEntity
  8
LC-005-005-----0
370
    25
390
0
 62
     2
100
AcDbLine
 10
401.885832
 20
334.003581
 30
0.0
 11
405.355857
 21
337.473606
 31
0.0
  0
LINE
  5
1F8
100
AcDbEntity
  8
LC-005-005-----0
370
    25
390
0
 62
     2
100
AcDbLine
 10
405.971314
 20
338.089063
 30
0.0
 11
409.119885
 21
341.237634
 31
0.0
  0
LINE
  5
1F9
100
AcDbEntity
  8
LC-005-005-----0
370
    25
390
0
 62
     2
100
AcDbLine
 10
419.688242
 20
351.805991
 30
0.0
 11
422.737456
 21
354.855205
 31
0.0
  0
LINE
  5
1FA
100
AcDbEntity
  8
LC-005-005-----0
370
    25
390
0
 62
     2
100
AcDbLine
 10
485.283096
 20
417.400845
 30
0.0
 11
488.296036
 21
420.413785
 31
0.0
  0
LINE
  5
1FB
100
AcDbEntity
  8
LC-005-005-----0
370
    25
390
0
 62
     2
100
AcDbLine
 10
401.885832
 20
336.832008
 30
0.0
 11
402.52743
 21
337.473606
 31
0.0
  0
LINE
  5
1FC
100
AcDbEntity
  8
LC-005-005-----0
370
    25
390
0
 62
     2
100
AcDbLine
 10
405.971314
 20
340.91749
 30
0.0
 11
409.119885
 21
344.066061
 31
0.0
  0
LINE
  5
1FD
100
AcDbEntity
  8
LC-005-005-----0
370
    25
390
0
 62
     2
100
AcDbLine
 10
419.663772
 20
354.609948
 30
0.0
 11
422.737456
 21
357.683633
 31
0.0
  0
LINE
  5
1FE
100
AcDbEntity
  8
LC-005-005-----0
370
    25
390
0
 62
     2
100
AcDbLine
 10
482.454669
 20
417.400845
 30
0.0
 11
485.467619
 21
420.413795
 31
0.0
  0
LINE
  5
1FF
100
AcDbEntity
  8
LC-005-005-----0
370
    25
390
0
 62
     2
100
AcDbLine
 10
405.971314
 20
343.745917
 30
0.0
 11
409.119885
 21
346.894488
 31
0.0
  0
LINE
  5
200
100
AcDbEntity
  8
LC-005-005-----0
370
    25
390
0
 62
     2
100
AcDbLine
 10
419.639302
 20
357.413906
 30
0.0
 11
422.737456
 21
360.51206
 31
0.0
  0
LINE
  5
201
100
AcDbEntity
  8
LC-005-005-----0
370
    25
390
0
 62
     2
100
AcDbLine
 10
479.626242
 20
417.400845
 30
0.0
 11
482.639202
 21
420.413805
 31
0.0
  0
LINE
  5
202
100
AcDbEntity
  8
LC-005-005-----0
370
    25
390
0
 62
     2
100
AcDbLine
 10
405.971314
 20
346.574344
 30
0.0
 11
409.119885
 21
349.722915
 31
0.0
  0
LINE
  5
203
100
AcDbEntity
  8
LC-005-005-----0
370
    25
390
0
 62
     2
100
AcDbLine
 10
419.614833
 20
360.217863
 30
0.0
 11
422.737456
 21
363.340487
 31
0.0
  0
LINE
  5
204
100
AcDbEntity
  8
LC-005-005-----0
370
    25
390
0
 62
     2
100
AcDbLine
 10
476.797815
 20
417.400845
 30
0.0
 11
479.810785
 21
420.413816
 31
0.0
  0
LINE
  5
205
100
AcDbEntity
  8
LC-005-005-----0
370
    25
390
0
 62
     2
100
AcDbLine
 10
405.971314
 20
349.402771
 30
0.0
 11
409.119885
 21
352.551342
 31
0.0
  0
LINE
  5
206
100
AcDbEntity
  8
LC-005-005-----0
370
    25
390
0
 62
     2
100
AcDbLine
 10
419.590363
 20
363.02182
 30
0.0
 11
422.737456
 21
366.168914
 31
0.0
  0
LINE
  5
207
100
AcDbEntity
  8
LC-005-005-----0
370
    25
390
0
 62
     2
100
AcDbLine
 10
473.969388
 20
417.400845
 30
0.0
 11
476.982369
 21
420.413826
 31
0.0
  0
LINE
  5
208
100
AcDbEntity
  8
LC-005-005-----0
370
    25
390
0
 62
     2
100
AcDbLine
 10
405.971314
 20
352.231198
 30
0.0
 11
409.119885
 21
355.37977
 31
0.0
  0
LINE
  5
209
100
AcDbEntity
  8
LC-005-005-----0
370
    25
390
0
 62
     2
100
AcDbLine
 10
419.565893
 20
365.825778
 30
0.0
 11
422.737456
 21
368.997341
 31
0.0
  0
LINE
  5
20A
100
AcDbEntity
  8
LC-005-005-----0
370
    25
390
0
 62
     2
100
AcDbLine
 10
471.140961
 20
417.400845
 30
0.0
 11
474.153952
 21
420.413837
 31
0.0
  0
LINE
  5
20B
100
AcDbEntity
  8
LC-005-005-----0
370
    25
390
0
 62
     2
100
AcDbLine
 10
405.971314
 20
355.059625
 30
0.0
 11
409.119885
 21
358.208197
 31
0.0
  0
LINE
  5
20C
100
AcDbEntity
  8
LC-005-005-----0
370
    25
390
0
 62
     2
100
AcDbLine
 10
419.541423
 20
368.629735
 30
0.0
 11
422.737456
 21
371.825768
 31
0.0
  0
LINE
  5
20D
100
AcDbEntity
  8
LC-005-005-----0
370
    25
390
0
 62
     2
100
AcDbLine
 10
468.312534
 20
417.400845
 30
0.0
 11
471.325535
 21
420.413847
 31
0.0
  0
LINE
  5
20E
100
AcDbEntity
  8
LC-005-005-----0
370
    25
390
0
 62
     2
100
AcDbLine
 10
405.971314
 20
357.888052
 30
0.0
 11
409.119885
 21
361.036624
 31
0.0
  0
LINE
  5
20F
100
AcDbEntity
  8
LC-005-005-----0
370
    25
390
0
 62
     2
100
AcDbLine
 10
419.516954
 20
371.433692
 30
0.0
 11
422.737456
 21
374.654195
 31
0.0
  0
LINE
  5
210
100
AcDbEntity
  8
LC-005-005-----0
370
    25
390
0
 62
     2
100
AcDbLine
 10
465.484107
 20
417.400845
 30
0.0
 11
468.497119
 21
420.413858
 31
0.0
  0
LINE
  5
211
100
AcDbEntity
  8
LC-005-005-----0
370
    25
390
0
 62
     2
100
AcDbLine
 10
405.971314
 20
360.71648
 30
0.0
 11
409.119885
 21
363.865051
 31
0.0
  0
LINE
  5
212
100
AcDbEntity
  8
LC-005-005-----0
370
    25
390
0
 62
     2
100
AcDbLine
 10
419.492484
 20
374.23765
 30
0.0
 11
422.737456
 21
377.482622
 31
0.0
  0
LINE
  5
213
100
AcDbEntity
  8
LC-005-005-----0
370
    25
390
0
 62
     2
100
AcDbLine
 10
462.655679
 20
417.400845
 30
0.0
 11
465.668702
 21
420.413868
 31
0.0
  0
LINE
  5
214
100
AcDbEntity
  8
LC-005-005-----0
370
    25
390
0
 62
     2
100
AcDbLine
 10
405.971314
 20
363.544907
 30
0.0
 11
409.119885
 21
366.693478
 31
0.0
  0
LINE
  5
215
100
AcDbEntity
  8
LC-005-005-----0
370
    25
390
0
 62
     2
100
AcDbLine
 10
409.662877
 20
367.23647
 30
0.0
 11
411.011987
 21
368.58558
 31
0.0
  0
LINE
  5
216
100
AcDbEntity
  8
LC-005-005-----0
370
    25
390
0
 62
     2
100
AcDbLine
 10
411.554979
 20
369.128572
 30
0.0
 11
411.67018
 21
369.243773
 31
0.0
  0
LINE
  5
217
100
AcDbEntity
  8
LC-005-005-----0
370
    25
390
0
 62
     2
100
AcDbLine
 10
414.809862
 20
372.383456
 30
0.0
 11
414.925064
 21
372.498657
 31
0.0
  0
LINE
  5
218
100
AcDbEntity
  8
LC-005-005-----0
370
    25
390
0
 62
     2
100
AcDbLine
 10
419.468014
 20
377.041607
 30
0.0
 11
422.737456
 21
380.31105
 31
0.0
  0
LINE
  5
219
100
AcDbEntity
  8
LC-005-005-----0
370
    25
390
0
 62
     2
100
AcDbLine
 10
459.827252
 20
417.400845
 30
0.0
 11
462.840285
 21
420.413879
 31
0.0
  0
LINE
  5
21A
100
AcDbEntity
  8
LC-005-005-----0
370
    25
390
0
 62
     2
100
AcDbLine
 10
405.971314
 20
366.373334
 30
0.0
 11
410.158162
 21
370.560182
 31
0.0
  0
LINE
  5
21B
100
AcDbEntity
  8
LC-005-005-----0
370
    25
390
0
 62
     2
100
AcDbLine
 10
413.493453
 20
373.895473
 30
0.0
 11
414.925064
 21
375.327084
 31
0.0
  0
LINE
  5
21C
100
AcDbEntity
  8
LC-005-005-----0
370
    25
390
0
 62
     2
100
AcDbLine
 10
419.443544
 20
379.845565
 30
0.0
 11
422.737456
 21
383.139477
 31
0.0
  0
LINE
  5
21D
100
AcDbEntity
  8
LC-005-005-----0
370
    25
390
0
 62
     2
100
AcDbLine
 10
456.998825
 20
417.400845
 30
0.0
 11
460.011869
 21
420.413889
 31
0.0
  0
LINE
  5
21E
100
AcDbEntity
  8
LC-005-005-----0
370
    25
390
0
 62
     2
100
AcDbLine
 10
405.971314
 20
369.201761
 30
0.0
 11
409.403862
 21
372.634309
 31
0.0
  0
LINE
  5
21F
100
AcDbEntity
  8
LC-005-005-----0
370
    25
390
0
 62
     2
100
AcDbLine
 10
410.03933
 20
373.269777
 30
0.0
 11
411.33781
 21
374.568257
 31
0.0
  0
LINE
  5
220
100
AcDbEntity
  8
LC-005-005-----0
370
    25
390
0
 62
     2
100
AcDbLine
 10
411.973278
 20
375.203725
 30
0.0
 11
414.925064
 21
378.155511
 31
0.0
  0
LINE
  5
221
100
AcDbEntity
  8
LC-005-005-----0
370
    25
390
0
 62
     2
100
AcDbLine
 10
417.97173
 20
381.202177
 30
0.0
 11
422.737456
 21
385.967904
 31
0.0
  0
LINE
  5
222
100
AcDbEntity
  8
LC-005-005-----0
370
    25
390
0
 62
     2
100
AcDbLine
 10
454.170398
 20
417.400845
 30
0.0
 11
457.183452
 21
420.413899
 31
0.0
  0
LINE
  5
223
100
AcDbEntity
  8
LC-005-005-----0
370
    25
390
0
 62
     2
100
AcDbLine
 10
411.973278
 20
378.032152
 30
0.0
 11
414.925064
 21
380.983938
 31
0.0
  0
LINE
  5
224
100
AcDbEntity
  8
LC-005-005-----0
370
    25
390
0
 62
     2
100
AcDbLine
 10
415.251234
 20
381.310109
 30
0.0
 11
416.666313
 21
382.725187
 31
0.0
  0
LINE
  5
225
100
AcDbEntity
  8
LC-005-005-----0
370
    25
390
0
 62
     2
100
AcDbLine
 10
416.992483
 20
383.051358
 30
0.0
 11
422.737456
 21
388.796331
 31
0.0
  0
LINE
  5
226
100
AcDbEntity
  8
LC-005-005-----0
370
    25
390
0
 62
     2
100
AcDbLine
 10
451.341971
 20
417.400845
 30
0.0
 11
454.355035
 21
420.41391
 31
0.0
  0
LINE
  5
227
100
AcDbEntity
  8
LC-005-005-----0
370
    25
390
0
 62
     2
100
AcDbLine
 10
411.973278
 20
380.860579
 30
0.0
 11
416.768318
 21
385.65562
 31
0.0
  0
LINE
  5
228
100
AcDbEntity
  8
LC-005-005-----0
370
    25
390
0
 62
     2
100
AcDbLine
 10
419.113616
 20
388.000917
 30
0.0
 11
422.737456
 21
391.624758
 31
0.0
  0
LINE
  5
229
100
AcDbEntity
  8
LC-005-005-----0
370
    25
390
0
 62
     2
100
AcDbLine
 10
448.513544
 20
417.400845
 30
0.0
 11
451.526619
 21
420.41392
 31
0.0
  0
LINE
  5
22A
100
AcDbEntity
  8
LC-005-005-----0
370
    25
390
0
 62
     2
100
AcDbLine
 10
411.973278
 20
383.689007
 30
0.0
 11
413.939891
 21
385.65562
 31
0.0
  0
LINE
  5
22B
100
AcDbEntity
  8
LC-005-005-----0
370
    25
390
0
 62
     2
100
AcDbLine
 10
418.826754
 20
390.542482
 30
0.0
 11
422.737456
 21
394.453185
 31
0.0
  0
LINE
  5
22C
100
AcDbEntity
  8
LC-005-005-----0
370
    25
390
0
 62
     2
100
AcDbLine
 10
445.685117
 20
417.400845
 30
0.0
 11
448.698202
 21
420.413931
 31
0.0
  0
LINE
  5
22D
100
AcDbEntity
  8
LC-005-005-----0
370
    25
390
0
 62
     2
100
AcDbLine
 10
418.113616
 20
392.657772
 30
0.0
 11
422.737456
 21
397.281612
 31
0.0
  0
LINE
  5
22E
100
AcDbEntity
  8
LC-005-005-----0
370
    25
390
0
 62
     2
100
AcDbLine
 10
442.85669
 20
417.400845
 30
0.0
 11
445.869785
 21
420.413941
 31
0.0
  0
LINE
  5
22F
100
AcDbEntity
  8
LC-005-005-----0
370
    25
390
0
 62
     2
100
AcDbLine
 10
418.10401
 20
395.476593
 30
0.0
 11
422.737456
 21
400.110039
 31
0.0
  0
LINE
  5
230
100
AcDbEntity
  8
LC-005-005-----0
370
    25
390
0
 62
     2
100
AcDbLine
 10
440.028262
 20
417.400845
 30
0.0
 11
443.041369
 21
420.413952
 31
0.0
  0
LINE
  5
231
100
AcDbEntity
  8
LC-005-005-----0
370
    25
390
0
 62
     2
100
AcDbLine
 10
418.40733
 20
398.60834
 30
0.0
 11
424.201759
 21
404.402769
 31
0.0
  0
LINE
  5
232
100
AcDbEntity
  8
LC-005-005-----0
370
    25
390
0
 62
     2
100
AcDbLine
 10
437.199835
 20
417.400845
 30
0.0
 11
440.212952
 21
420.413962
 31
0.0
  0
LINE
  5
233
100
AcDbEntity
  8
LC-005-005-----0
370
    25
390
0
 62
     2
100
AcDbLine
 10
421.394614
 20
404.424051
 30
0.0
 11
424.201493
 21
407.23093
 31
0.0
  0
LINE
  5
234
100
AcDbEntity
  8
LC-005-005-----0
370
    25
390
0
 62
     2
100
AcDbLine
 10
434.371408
 20
417.400845
 30
0.0
 11
437.384535
 21
420.413973
 31
0.0
  0
LINE
  5
235
100
AcDbEntity
  8
LC-005-005-----0
370
    25
390
0
 62
     2
100
AcDbLine
 10
421.394614
 20
407.252478
 30
0.0
 11
424.201226
 21
410.059091
 31
0.0
  0
LINE
  5
236
100
AcDbEntity
  8
LC-005-005-----0
370
    25
390
0
 62
     2
100
AcDbLine
 10
431.542981
 20
417.400845
 30
0.0
 11
434.556119
 21
420.413983
 31
0.0
  0
LINE
  5
237
100
AcDbEntity
  8
LC-005-005-----0
370
    25
390
0
 62
     2
100
AcDbLine
 10
421.394614
 20
410.080905
 30
0.0
 11
424.20096
 21
412.887252
 31
0.0
  0
LINE
  5
238
100
AcDbEntity
  8
LC-005-005-----0
370
    25
390
0
 62
     2
100
AcDbLine
 10
428.714554
 20
417.400845
 30
0.0
 11
431.727702
 21
420.413993
 31
0.0
  0
LINE
  5
239
100
AcDbEntity
  8
LC-005-005-----0
370
    25
390
0
 62
     2
100
AcDbLine
 10
421.394614
 20
412.909332
 30
0.0
 11
424.200694
 21
415.715412
 31
0.0
  0
LINE
  5
23A
100
AcDbEntity
  8
LC-005-005-----0
370
    25
390
0
 62
     2
100
AcDbLine
 10
425.886127
 20
417.400845
 30
0.0
 11
428.899285
 21
420.414004
 31
0.0
  0
LINE
  5
23B
100
AcDbEntity
  8
LC-005-005-----0
370
    25
390
0
 62
     2
100
AcDbLine
 10
421.394614
 20
415.737759
 30
0.0
 11
426.070869
 21
420.414014
 31
0.0
  0
LINE
  5
23C
100
AcDbEntity
  8
LC-005-005-----0
370
    25
390
0
 62
     2
100
AcDbLine
 10
421.394614
 20
418.566186
 30
0.0
 11
421.625384
 21
418.796957
 31
0.0
  0
LINE
  5
23D
100
AcDbEntity
  8
LC-005-005-----0
370
    25
390
0
 62
     2
100
AcDbLine
 10
423.011684
 20
420.183257
 30
0.0
 11
423.242452
 21
420.414025
 31
0.0
  0
ENDBLK
  5
23E
100
AcDbEntity
  8
0
390
0
100
AcDbBlockEnd
  0
BLOCK
  5
241
100
AcDbEntity
  8
0
390
0
100
AcDbBlockBegin
  2
*X10
 70
    65
 10
0.0
 20
0.0
 30
0.0
  3
*X10
  1

  0
LINE
  5
242
100
AcDbEntity
  8
LC-005-005-----0
370
    25
390
0
 62
     2
100
AcDbLine
 10
270.515653
 20
327.084196
 30
0.0
 11
277.953278
 21
334.52182
 31
0.0
  0
LINE
  5
243
100
AcDbEntity
  8
LC-005-005-----0
370
    25
390
0
 62
     2
100
AcDbLine
 10
265.387303
 20
336.097982
 30
0.0
 11
265.576796
 21
336.287475
 31
0.0
  0
LINE
  5
244
100
AcDbEntity
  8
LC-005-005-----0
370
    25
390
0
 62
     2
100
AcDbLine
 10
267.826796
 20
338.537475
 30
0.0
 11
276.092742
 21
346.80342
 31
0.0
  0
LINE
  5
245
100
AcDbEntity
  8
LC-005-005-----0
370
    25
390
0
 62
     2
100
AcDbLine
 10
265.511807
 20
350.36462
 30
0.0
 11
276.092742
 21
360.945556
 31
0.0
  0
LINE
  5
246
100
AcDbEntity
  8
LC-005-005-----0
370
    25
390
0
 62
     2
100
AcDbLine
 10
265.63631
 20
364.631259
 30
0.0
 11
270.9457
 21
369.94065
 31
0.0
  0
LINE
  5
247
100
AcDbEntity
  8
LC-005-005-----0
370
    25
390
0
 62
     2
100
AcDbLine
 10
265.760813
 20
378.897898
 30
0.0
 11
269.78251
 21
382.919595
 31
0.0
  0
LINE
  5
248
100
AcDbEntity
  8
LC-005-005-----0
370
    25
390
0
 62
     2
100
AcDbLine
 10
270.287564
 20
380.250675
 30
0.0
 11
267.486881
 21
383.051358
 31
0.0
  0
LINE
  5
249
100
AcDbEntity
  8
LC-005-005-----0
370
    25
390
0
 62
     2
100
AcDbLine
 10
276.092742
 20
360.303361
 30
0.0
 11
265.68933
 21
370.706773
 31
0.0
  0
LINE
  5
24A
100
AcDbEntity
  8
LC-005-005-----0
370
    25
390
0
 62
     2
100
AcDbLine
 10
276.092742
 20
346.161225
 30
0.0
 11
265.566981
 21
356.686986
 31
0.0
  0
LINE
  5
24B
100
AcDbEntity
  8
LC-005-005-----0
370
    25
390
0
 62
     2
100
AcDbLine
 10
280.326795
 20
327.785037
 30
0.0
 11
267.826796
 21
340.285035
 31
0.0
  0
LINE
  5
24C
100
AcDbEntity
  8
LC-005-005-----0
370
    25
390
0
 62
     2
100
AcDbLine
 10
265.576796
 20
342.535035
 30
0.0
 11
265.444632
 21
342.6672
 31
0.0
  0
ENDBLK
  5
24D
100
AcDbEntity
  8
0
390
0
100
AcDbBlockEnd
  0
BLOCK
  5
250
100
AcDbEntity
  8
0
390
0
100
AcDbBlockBegin
  2
*X11
 70
    65
 10
0.0
 20
0.0
 30
0.0
  3
*X11
  1

  0
LINE
  5
251
100
AcDbEntity
  8
LC-005-005-----0
370
    25
390
0
 62
     2
100
AcDbLine
 10
411.937009
 20
327.084196
 30
0.0
 11
412.907955
 21
328.055141
 31
0.0
  0
LINE
  5
252
100
AcDbEntity
  8
LC-005-005-----0
370
    25
390
0
 62
     2
100
AcDbLine
 10
416.414885
 20
331.562071
 30
0.0
 11
417.385831
 21
332.533017
 31
0.0
  0
LINE
  5
253
100
AcDbEntity
  8
LC-005-005-----0
370
    25
390
0
 62
     2
100
AcDbLine
 10
419.635831
 20
334.783017
 30
0.0
 11
419.835061
 21
334.982247
 31
0.0
  0
LINE
  5
254
100
AcDbEntity
  8
LC-005-005-----0
370
    25
390
0
 62
     2
100
AcDbLine
 10
404.885832
 20
334.175154
 30
0.0
 11
405.232498
 21
334.52182
 31
0.0
  0
LINE
  5
255
100
AcDbEntity
  8
LC-005-005-----0
370
    25
390
0
 62
     2
100
AcDbLine
 10
409.119885
 20
338.409207
 30
0.0
 11
419.712712
 21
349.002034
 31
0.0
  0
LINE
  5
256
100
AcDbEntity
  8
LC-005-005-----0
370
    25
390
0
 62
     2
100
AcDbLine
 10
409.119885
 20
352.551342
 30
0.0
 11
419.590363
 21
363.02182
 31
0.0
  0
LINE
  5
257
100
AcDbEntity
  8
LC-005-005-----0
370
    25
390
0
 62
     2
100
AcDbLine
 10
409.119885
 20
366.693478
 30
0.0
 11
409.662877
 21
367.23647
 31
0.0
  0
LINE
  5
258
100
AcDbEntity
  8
LC-005-005-----0
370
    25
390
0
 62
     2
100
AcDbLine
 10
411.011987
 20
368.58558
 30
0.0
 11
411.554979
 21
369.128572
 31
0.0
  0
LINE
  5
259
100
AcDbEntity
  8
LC-005-005-----0
370
    25
390
0
 62
     2
100
AcDbLine
 10
411.67018
 20
369.243773
 30
0.0
 11
414.809862
 21
372.383456
 31
0.0
  0
LINE
  5
25A
100
AcDbEntity
  8
LC-005-005-----0
370
    25
390
0
 62
     2
100
AcDbLine
 10
414.925064
 20
372.498657
 30
0.0
 11
419.468014
 21
377.041607
 31
0.0
  0
LINE
  5
25B
100
AcDbEntity
  8
LC-005-005-----0
370
    25
390
0
 62
     2
100
AcDbLine
 10
419.508071
 20
372.451524
 30
0.0
 11
414.925064
 21
377.034531
 31
0.0
  0
LINE
  5
25C
100
AcDbEntity
  8
LC-005-005-----0
370
    25
390
0
 62
     2
100
AcDbLine
 10
419.632574
 20
358.184885
 30
0.0
 11
410.580711
 21
367.236748
 31
0.0
  0
LINE
  5
25D
100
AcDbEntity
  8
LC-005-005-----0
370
    25
390
0
 62
     2
100
AcDbLine
 10
419.757077
 20
343.918246
 30
0.0
 11
409.119885
 21
354.555439
 31
0.0
  0
LINE
  5
25E
100
AcDbEntity
  8
LC-005-005-----0
370
    25
390
0
 62
     2
100
AcDbLine
 10
417.385831
 20
332.147357
 30
0.0
 11
409.119885
 21
340.413303
 31
0.0
  0
LINE
  5
25F
100
AcDbEntity
  8
LC-005-005-----0
370
    25
390
0
 62
     2
100
AcDbLine
 10
408.306857
 20
327.084196
 30
0.0
 11
404.885832
 21
330.50522
 31
0.0
  0
ENDBLK
  5
260
100
AcDbEntity
  8
0
390
0
100
AcDbBlockEnd
  0
BLOCK
  5
274
100
AcDbEntity
  8
0
390
0
100
AcDbBlockBegin
  2
*X12
 70
    65
 10
0.0
 20
0.0
 30
0.0
  3
*X12
  1

  0
LINE
  5
275
100
AcDbEntity
  8
LC-005-005-----0
370
    25
390
0
 62
     2
100
AcDbLine
 10
269.791956
 20
391.414322
 30
0.0
 11
271.606812
 21
393.229178
 31
0.0
  0
LINE
  5
276
100
AcDbEntity
  8
LC-005-005-----0
370
    25
390
0
 62
     2
100
AcDbLine
 10
267.388606
 20
391.839399
 30
0.0
 11
271.606808
 21
396.057601
 31
0.0
  0
LINE
  5
277
100
AcDbEntity
  8
LC-005-005-----0
370
    25
390
0
 62
     2
100
AcDbLine
 10
268.706808
 20
395.986029
 30
0.0
 11
271.606804
 21
398.886025
 31
0.0
  0
LINE
  5
278
100
AcDbEntity
  8
LC-005-005-----0
370
    25
390
0
 62
     2
100
AcDbLine
 10
268.706804
 20
398.814452
 30
0.0
 11
271.6068
 21
401.714448
 31
0.0
  0
LINE
  5
279
100
AcDbEntity
  8
LC-005-005-----0
370
    25
390
0
 62
     2
100
AcDbLine
 10
268.7068
 20
401.642875
 30
0.0
 11
271.606796
 21
404.542871
 31
0.0
  0
LINE
  5
27A
100
AcDbEntity
  8
LC-005-005-----0
370
    25
390
0
 62
     2
100
AcDbLine
 10
268.706796
 20
404.471298
 30
0.0
 11
271.606792
 21
407.371294
 31
0.0
  0
LINE
  5
27B
100
AcDbEntity
  8
LC-005-005-----0
370
    25
390
0
 62
     2
100
AcDbLine
 10
268.706792
 20
407.299722
 30
0.0
 11
271.606788
 21
410.199718
 31
0.0
  0
LINE
  5
27C
100
AcDbEntity
  8
LC-005-005-----0
370
    25
390
0
 62
     2
100
AcDbLine
 10
268.706789
 20
410.128145
 30
0.0
 11
272.106784
 21
413.52814
 31
0.0
  0
LINE
  5
27D
100
AcDbEntity
  8
LC-005-005-----0
370
    25
390
0
 62
     2
100
AcDbLine
 10
268.706785
 20
412.956568
 30
0.0
 11
272.10678
 21
416.356563
 31
0.0
  0
LINE
  5
27E
100
AcDbEntity
  8
LC-005-005-----0
370
    25
390
0
 62
     2
100
AcDbLine
 10
268.706781
 20
415.784991
 30
0.0
 11
272.106776
 21
419.184987
 31
0.0
  0
LINE
  5
27F
100
AcDbEntity
  8
LC-005-005-----0
370
    25
390
0
 62
     2
100
AcDbLine
 10
268.706777
 20
418.613415
 30
0.0
 11
270.507685
 21
420.414322
 31
0.0
  0
ENDBLK
  5
280
100
AcDbEntity
  8
0
390
0
100
AcDbBlockEnd
  0
BLOCK
  5
2A1
100
AcDbEntity
  8
0
390
0
100
AcDbBlockBegin
  2
*X13
 70
    65
 10
0.0
 20
0.0
 30
0.0
  3
*X13
  1

  0
LINE
  5
2A2
100
AcDbEntity
  8
LC-005-005-----0
370
    25
390
0
 62
     2
100
AcDbLine
 10
285.481783
 20
455.18741
 30
0.0
 11
286.410805
 21
456.116432
 31
0.0
  0
LINE
  5
2A3
100
AcDbEntity
  8
LC-005-005-----0
370
    25
390
0
 62
     2
100
AcDbLine
 10
285.970477
 20
458.504531
 30
0.0
 11
286.410805
 21
458.944859
 31
0.0
  0
LINE
  5
2A4
100
AcDbEntity
  8
LC-005-005-----0
370
    25
390
0
 62
     2
100
AcDbLine
 10
298.755663
 20
491.088708
 30
0.0
 11
300.762404
 21
493.095449
 31
0.0
  0
LINE
  5
2A5
100
AcDbEntity
  8
LC-005-005-----0
370
    25
390
0
 62
     2
100
AcDbLine
 10
298.919094
 20
494.080566
 30
0.0
 11
300.252858
 21
495.41433
 31
0.0
  0
ENDBLK
  5
2A6
100
AcDbEntity
  8
0
390
0
100
AcDbBlockEnd
  0
BLOCK
  5
2A9
100
AcDbEntity
  8
0
390
0
100
AcDbBlockBegin
  2
*X14
 70
    65
 10
0.0
 20
0.0
 30
0.0
  3
*X14
  1

  0
LINE
  5
2AA
100
AcDbEntity
  8
LC-005-005-----0
370
    25
390
0
 62
     2
100
AcDbLine
 10
398.802122
 20
455.370665
 30
0.0
 11
399.96125
 21
456.529793
 31
0.0
  0
LINE
  5
2AB
100
AcDbEntity
  8
LC-005-005-----0
370
    25
390
0
 62
     2
100
AcDbLine
 10
398.802114
 20
458.199084
 30
0.0
 11
399.206491
 21
458.60346
 31
0.0
  0
LINE
  5
2AC
100
AcDbEntity
  8
LC-005-005-----0
370
    25
390
0
 62
     2
100
AcDbLine
 10
386.440043
 20
491.091847
 30
0.0
 11
387.130336
 21
491.782139
 31
0.0
  0
LINE
  5
2AD
100
AcDbEntity
  8
LC-005-005-----0
370
    25
390
0
 62
     2
100
AcDbLine
 10
384.761274
 20
492.241505
 30
0.0
 11
386.375576
 21
493.855807
 31
0.0
  0
LINE
  5
2AE
100
AcDbEntity
  8
LC-005-005-----0
370
    25
390
0
 62
     2
100
AcDbLine
 10
384.006514
 20
494.315172
 30
0.0
 11
385.105788
 21
495.414446
 31
0.0
  0
ENDBLK
  5
2AF
100
AcDbEntity
  8
0
390
0
100
AcDbBlockEnd
  0
BLOCK
  5
2B4
100
AcDbEntity
  8
0
390
0
100
AcDbBlockBegin
  2
*X15
 70
    65
 10
0.0
 20
0.0
 30
0.0
  3
*X15
  1

  0
LINE
  5
2B5
100
AcDbEntity
  8
LC-005-005-----0
370
    25
390
0
 62
     2
100
AcDbLine
 10
416.87037
 20
391.414526
 30
0.0
 11
417.998096
 21
392.542252
 31
0.0
  0
LINE
  5
2B6
100
AcDbEntity
  8
LC-005-005-----0
370
    25
390
0
 62
     2
100
AcDbLine
 10
414.041935
 20
391.414518
 30
0.0
 11
416.507474
 21
393.880057
 31
0.0
  0
LINE
  5
2B7
100
AcDbEntity
  8
LC-005-005-----0
370
    25
390
0
 62
     2
100
AcDbLine
 10
413.606285
 20
393.807295
 30
0.0
 11
416.506281
 21
396.707291
 31
0.0
  0
LINE
  5
2B8
100
AcDbEntity
  8
LC-005-005-----0
370
    25
390
0
 62
     2
100
AcDbLine
 10
413.606281
 20
396.635718
 30
0.0
 11
416.506277
 21
399.535714
 31
0.0
  0
LINE
  5
2B9
100
AcDbEntity
  8
LC-005-005-----0
370
    25
390
0
 62
     2
100
AcDbLine
 10
413.606277
 20
399.464141
 30
0.0
 11
416.506273
 21
402.364137
 31
0.0
  0
LINE
  5
2BA
100
AcDbEntity
  8
LC-005-005-----0
370
    25
390
0
 62
     2
100
AcDbLine
 10
413.606273
 20
402.292565
 30
0.0
 11
416.506269
 21
405.192561
 31
0.0
  0
LINE
  5
2BB
100
AcDbEntity
  8
LC-005-005-----0
370
    25
390
0
 62
     2
100
AcDbLine
 10
413.606269
 20
405.120988
 30
0.0
 11
416.506265
 21
408.020984
 31
0.0
  0
LINE
  5
2BC
100
AcDbEntity
  8
LC-005-005-----0
370
    25
390
0
 62
     2
100
AcDbLine
 10
413.606265
 20
407.949411
 30
0.0
 11
416.506261
 21
410.849407
 31
0.0
  0
LINE
  5
2BD
100
AcDbEntity
  8
LC-005-005-----0
370
    25
390
0
 62
     2
100
AcDbLine
 10
413.606261
 20
410.777834
 30
0.0
 11
416.506257
 21
413.67783
 31
0.0
  0
LINE
  5
2BE
100
AcDbEntity
  8
LC-005-005-----0
370
    25
390
0
 62
     2
100
AcDbLine
 10
413.106258
 20
413.106258
 30
0.0
 11
416.506254
 21
416.506254
 31
0.0
  0
LINE
  5
2BF
100
AcDbEntity
  8
LC-005-005-----0
370
    25
390
0
 62
     2
100
AcDbLine
 10
413.106254
 20
415.934682
 30
0.0
 11
416.50625
 21
419.334677
 31
0.0
  0
LINE
  5
2C0
100
AcDbEntity
  8
LC-005-005-----0
370
    25
390
0
 62
     2
100
AcDbLine
 10
413.106251
 20
418.763105
 30
0.0
 11
414.757666
 21
420.41452
 31
0.0
  0
ENDBLK
  5
2C1
100
AcDbEntity
  8
0
390
0
100
AcDbBlockEnd
  0
ENDSEC
  0
SECTION
  2
ENTITIES
  0
VIEWPORT
  5
2FF
100
AcDbEntity
 67
     1
  8
LC-VIEWPORT
390
0
100
AcDbViewport
 10
420.0
 20
297.0
 30
0.0
 40
840.0
 41
594.0
 68
     1
 69
     1
 12
420.0
 22
297.0
 13
0.0
 23
0.0
 14
1.0
 24
1.0
 15
0.0
 25
0.0
 16
0.0
 26
0.0
 36
1.0
 17
0.0
 27
0.0
 37
0.0
 42
50.0
 43
0.0
 44
0.0
 45
594.0
 50
0.0
 51
0.0
 72
   100
 90
    32928
340
0
  1

281
     0
 71
     0
 74
     1
110
0.0
120
0.0
130
0.0
111
1.0
121
0.0
131
0.0
112
0.0
122
1.0
132
0.0
345
0
346
0
 79
     0
146
0.0
  0
LINE
  5
2B
102
{ACAD_REACTORS
330
300
102
}
100
AcDbEntity
  8
LC-001-103-D10-0
370
    50
390
0
 62
     1
100
AcDbLine
 10
419.113616
 20
385.65562
 30
0.0
 11
411.973278
 21
385.65562
 31
0.0
  0
ARC
  5
2C
102
{ACAD_REACTORS
330
300
102
}
100
AcDbEntity
  8
LC-001-103-D10-0
370
    50
390
0
 62
     1
100
AcDbCircle
 10
410.121524
 20
368.126933
 30
0.0
 40
1.001639
100
AcDbArc
 50
90.0
 51
180.0
  0
LINE
  5
2D
102
{ACAD_REACTORS
330
300
102
}
100
AcDbEntity
  8
LC-001-103-D10-0
370
    50
390
0
 62
     1
100
AcDbLine
 10
412.420965
 20
369.128572
 30
0.0
 11
410.121524
 21
369.128572
 31
0.0
  0
ARC
  5
2E
102
{ACAD_REACTORS
330
300
102
}
100
AcDbEntity
  8
LC-001-103-D10-0
370
    50
390
0
 62
     1
100
AcDbCircle
 10
412.420965
 20
371.63267
 30
0.0
 40
2.504098
100
AcDbArc
 50
270.0
 51
0.0
  0
LINE
  5
2F
102
{ACAD_REACTORS
330
300
102
}
100
AcDbEntity
  8
LC-001-103-D10-0
370
    50
390
0
 62
     1
100
AcDbLine
 10
414.925064
 20
371.63267
 30
0.0
 11
414.925064
 21
382.049719
 31
0.0
  0
ARC
  5
30
102
{ACAD_REACTORS
330
300
102
}
100
AcDbEntity
  8
LC-001-103-D10-0
370
    50
390
0
 62
     1
100
AcDbCircle
 10
415.926703
 20
382.049719
 30
0.0
 40
1.001639
100
AcDbArc
 50
90.0
 51
180.0
  0
LINE
  5
31
102
{ACAD_REACTORS
330
300
102
}
100
AcDbEntity
  8
LC-001-103-D10-0
370
    50
390
0
 62
     1
100
AcDbLine
 10
418.440188
 20
383.051358
 30
0.0
 11
415.926703
 21
383.051358
 31
0.0
  0
LINE
  5
32
102
{ACAD_REACTORS
330
300
102
}
100
AcDbEntity
  8
LC-001-103-D10-0
370
    50
390
0
 62
     1
100
AcDbLine
 10
419.759992
 20
343.584196
 30
0.0
 11
419.424079
 21
382.076016
 31
0.0
  0
LINE
  5
34
100
AcDbEntity
  8
LC-002-002-----0
370
    50
390
0
 62
     1
100
AcDbLine
 10
417.826796
 20
342.084196
 30
0.0
 11
418.126796
 21
342.084196
 31
0.0
  0
LINE
  5
35
102
{ACAD_REACTORS
330
300
102
}
100
AcDbEntity
  8
LC-001-103-D10-0
370
    50
390
0
 62
     1
100
AcDbLine
 10
422.737456
 20
400.204768
 30
0.0
 11
422.737456
 21
334.584196
 31
0.0
  0
LINE
  5
36
102
{ACAD_REACTORS
330
300
102
}
100
AcDbEntity
  8
LC-001-103-D10-0
370
    50
390
0
 62
     1
100
AcDbLine
 10
424.200628
 20
416.416917
 30
0.0
 11
424.201916
 21
402.741286
 31
0.0
  0
LINE
  5
37
102
{ACAD_REACTORS
330
300
102
}
100
AcDbEntity
  8
LC-001-103-D10-0
370
    50
390
0
 62
     1
100
AcDbLine
 10
519.896455
 20
417.400845
 30
0.0
 11
425.184463
 21
417.400845
 31
0.0
  0
LINE
  5
38
102
{ACAD_REACTORS
330
300
102
}
100
AcDbEntity
  8
LC-001-103-D10-0
370
    50
390
0
 62
     1
100
AcDbLine
 10
519.896459
 20
418.410389
 30
0.0
 11
519.896455
 21
417.400845
 31
0.0
  0
ARC
  5
39
102
{ACAD_REACTORS
330
300
102
}
100
AcDbEntity
  8
LC-001-103-D10-0
370
    50
390
0
 62
     1
100
AcDbCircle
 10
517.893181
 20
418.410397
 30
0.0
 40
2.003279
100
AcDbArc
 50
359.999773
 51
89.999788
  0
LINE
  5
3A
102
{ACAD_REACTORS
330
300
102
}
100
AcDbEntity
  8
LC-001-103-D10-0
370
    50
390
0
 62
     1
100
AcDbLine
 10
517.893188
 20
420.413675
 30
0.0
 11
422.378546
 21
420.414028
 31
0.0
  0
LINE
  5
3B
102
{ACAD_REACTORS
330
300
102
}
100
AcDbEntity
  8
LC-001-103-D10-0
370
    50
390
0
 62
     1
100
AcDbLine
 10
411.973278
 20
373.635949
 30
0.0
 11
411.973278
 21
385.65562
 31
0.0
  0
ARC
  5
3C
102
{ACAD_REACTORS
330
300
102
}
100
AcDbEntity
  8
LC-001-103-D10-0
370
    50
390
0
 62
     1
100
AcDbCircle
 10
410.971639
 20
373.635949
 30
0.0
 40
1.001639
100
AcDbArc
 50
270.0
 51
0.0
  0
LINE
  5
3D
102
{ACAD_REACTORS
330
300
102
}
100
AcDbEntity
  8
LC-001-103-D10-0
370
    50
390
0
 62
     1
100
AcDbLine
 10
410.971639
 20
372.634309
 30
0.0
 11
406.972953
 21
372.634309
 31
0.0
  0
ARC
  5
3E
102
{ACAD_REACTORS
330
300
102
}
100
AcDbEntity
  8
LC-001-103-D10-0
370
    50
390
0
 62
     1
100
AcDbCircle
 10
406.972953
 20
371.63267
 30
0.0
 40
1.001639
100
AcDbArc
 50
90.0
 51
180.0
  0
LINE
  5
3F
102
{ACAD_REACTORS
330
300
102
}
100
AcDbEntity
  8
LC-001-103-D10-0
370
    50
390
0
 62
     1
100
AcDbLine
 10
405.971314
 20
337.473606
 30
0.0
 11
405.971314
 21
371.63267
 31
0.0
  0
LINE
  5
40
102
{ACAD_REACTORS
330
300
102
}
100
AcDbEntity
  8
LC-001-103-D10-0
370
    50
390
0
 62
     1
100
AcDbLine
 10
409.119885
 20
334.52182
 30
0.0
 11
409.119885
 21
368.126933
 31
0.0
  0
LINE
  5
43
102
{ACAD_REACTORS
330
300
102
}
100
AcDbEntity
  8
LC-003-102-D10-0
370
    25
390
0
 62
     2
100
AcDbLine
 10
342.606314
 20
420.414322
 30
0.0
 11
342.606314
 21
268.584196
 31
0.0
  0
LINE
  5
44
102
{ACAD_REACTORS
330
300
102
}
100
AcDbEntity
  8
LC-001-103-D10-0
370
    50
390
0
 62
     1
100
AcDbLine
 10
405.971314
 20
337.473606
 30
0.0
 11
395.211566
 21
337.473606
 31
0.0
  0
LINE
  5
45
102
{ACAD_REACTORS
330
300
102
}
100
AcDbEntity
  8
LC-001-103-D10-0
370
    50
390
0
 62
     1
100
AcDbLine
 10
421.394614
 20
403.782467
 30
0.0
 11
421.394614
 21
419.430099
 31
0.0
  0
LINE
  5
46
102
{ACAD_REACTORS
330
300
102
}
100
AcDbEntity
  8
LC-001-103-D10-0
370
    50
390
0
 62
     1
100
AcDbLine
 10
417.284812
 20
396.664083
 30
0.0
 11
421.394614
 21
403.782467
 31
0.0
  0
LINE
  5
47
102
{ACAD_REACTORS
330
300
102
}
100
AcDbEntity
  8
LC-001-103-D10-0
370
    50
390
0
 62
     1
100
AcDbLine
 10
417.284812
 20
396.180498
 30
0.0
 11
417.284812
 21
396.664083
 31
0.0
  0
ARC
  5
48
102
{ACAD_REACTORS
330
300
102
}
100
AcDbEntity
  8
LC-001-103-D10-0
370
    50
390
0
 62
     1
100
AcDbCircle
 10
422.378542
 20
419.430099
 30
0.0
 40
0.983929
100
AcDbArc
 50
89.999788
 51
180.0
  0
LINE
  5
49
102
{ACAD_REACTORS
330
300
102
}
100
AcDbEntity
  8
LC-001-103-D10-0
370
    50
390
0
 62
     1
100
AcDbLine
 10
425.184463
 20
417.400845
 30
0.0
 11
424.200628
 21
416.416917
 31
0.0
  0
LINE
  5
4A
102
{ACAD_REACTORS
330
300
102
}
100
AcDbEntity
  8
LC-001-103-D10-0
370
    50
390
0
 62
     1
100
AcDbLine
 10
422.737456
 20
400.204768
 30
0.0
 11
424.201916
 21
402.741286
 31
0.0
  0
LINE
  5
4B
102
{ACAD_REACTORS
330
300
102
}
100
AcDbEntity
  8
LC-001-103-D10-0
370
    50
390
0
 62
     1
100
AcDbLine
 10
419.113616
 20
390.25562
 30
0.0
 11
419.113616
 21
385.65562
 31
0.0
  0
LINE
  5
4C
102
{ACAD_REACTORS
330
300
102
}
100
AcDbEntity
  8
LC-001-103-D10-0
370
    50
390
0
 62
     1
100
AcDbLine
 10
417.484812
 20
395.834088
 30
0.0
 11
418.113616
 21
395.471048
 31
0.0
  0
ARC
  5
4D
102
{ACAD_REACTORS
330
300
102
}
100
AcDbEntity
  8
LC-001-103-D10-0
370
    50
390
0
 62
     1
100
AcDbCircle
 10
418.440188
 20
382.067429
 30
0.0
 40
0.983929
100
AcDbArc
 50
0.5
 51
90.0
  0
ARC
  5
4E
102
{ACAD_REACTORS
330
300
102
}
100
AcDbEntity
  8
LC-001-103-D10-0
370
    50
390
0
 62
     1
100
AcDbCircle
 10
266.772439
 20
382.067429
 30
0.0
 40
0.983929
100
AcDbArc
 50
90.0
 51
179.5
  0
LINE
  5
4F
102
{ACAD_REACTORS
330
300
102
}
100
AcDbEntity
  8
LC-001-103-D10-0
370
    50
390
0
 62
     1
100
AcDbLine
 10
262.475171
 20
400.204768
 30
0.0
 11
261.010711
 21
402.741286
 31
0.0
  0
LINE
  5
50
102
{ACAD_REACTORS
330
300
102
}
100
AcDbEntity
  8
LC-001-103-D10-0
370
    50
390
0
 62
     1
100
AcDbLine
 10
260.028164
 20
417.400845
 30
0.0
 11
261.012
 21
416.416917
 31
0.0
  0
ARC
  5
51
102
{ACAD_REACTORS
330
300
102
}
100
AcDbEntity
  8
LC-001-103-D10-0
370
    50
390
0
 62
     1
100
AcDbCircle
 10
262.834085
 20
419.430099
 30
0.0
 40
0.983929
100
AcDbArc
 50
0.0
 51
90.000212
  0
LINE
  5
52
102
{ACAD_REACTORS
330
300
102
}
100
AcDbEntity
  8
LC-001-103-D10-0
370
    50
390
0
 62
     1
100
AcDbLine
 10
267.927815
 20
396.664083
 30
0.0
 11
263.818014
 21
403.782467
 31
0.0
  0
LINE
  5
53
102
{ACAD_REACTORS
330
300
102
}
100
AcDbEntity
  8
LC-001-103-D10-0
370
    50
390
0
 62
     1
100
AcDbLine
 10
263.818014
 20
403.782467
 30
0.0
 11
263.818014
 21
419.430099
 31
0.0
  0
LINE
  5
54
102
{ACAD_REACTORS
330
300
102
}
100
AcDbEntity
  8
LC-001-103-D10-0
370
    50
390
0
 62
     1
100
AcDbLine
 10
279.241314
 20
337.473606
 30
0.0
 11
283.326795
 21
337.473606
 31
0.0
  0
LINE
  5
55
102
{ACAD_REACTORS
330
300
102
}
100
AcDbEntity
  8
LC-001-103-D10-0
370
    50
390
0
 62
     1
100
AcDbLine
 10
276.092742
 20
334.52182
 30
0.0
 11
276.092742
 21
368.126933
 31
0.0
  0
LINE
  5
56
102
{ACAD_REACTORS
330
300
102
}
100
AcDbEntity
  8
LC-001-103-D10-0
370
    50
390
0
 62
     1
100
AcDbLine
 10
279.241314
 20
337.473606
 30
0.0
 11
279.241314
 21
371.63267
 31
0.0
  0
ARC
  5
57
102
{ACAD_REACTORS
330
300
102
}
100
AcDbEntity
  8
LC-001-103-D10-0
370
    50
390
0
 62
     1
100
AcDbCircle
 10
278.239674
 20
371.63267
 30
0.0
 40
1.001639
100
AcDbArc
 50
0.0
 51
90.0
  0
LINE
  5
58
102
{ACAD_REACTORS
330
300
102
}
100
AcDbEntity
  8
LC-001-103-D10-0
370
    50
390
0
 62
     1
100
AcDbLine
 10
274.240989
 20
372.634309
 30
0.0
 11
278.239674
 21
372.634309
 31
0.0
  0
ARC
  5
59
102
{ACAD_REACTORS
330
300
102
}
100
AcDbEntity
  8
LC-001-103-D10-0
370
    50
390
0
 62
     1
100
AcDbCircle
 10
274.240989
 20
373.635949
 30
0.0
 40
1.001639
100
AcDbArc
 50
180.0
 51
270.0
  0
LINE
  5
5A
102
{ACAD_REACTORS
330
300
102
}
100
AcDbEntity
  8
LC-001-103-D10-0
370
    50
390
0
 62
     1
100
AcDbLine
 10
273.239349
 20
373.635949
 30
0.0
 11
273.239349
 21
385.65562
 31
0.0
  0
LINE
  5
5B
102
{ACAD_REACTORS
330
300
102
}
100
AcDbEntity
  8
LC-001-103-D10-0
370
    50
390
0
 62
     1
100
AcDbLine
 10
167.319439
 20
420.413675
 30
0.0
 11
262.834081
 21
420.414028
 31
0.0
  0
ARC
  5
5C
102
{ACAD_REACTORS
330
300
102
}
100
AcDbEntity
  8
LC-001-103-D10-0
370
    50
390
0
 62
     1
100
AcDbCircle
 10
167.319447
 20
418.410397
 30
0.0
 40
2.003279
100
AcDbArc
 50
90.000212
 51
180.000227
  0
LINE
  5
5D
102
{ACAD_REACTORS
330
300
102
}
100
AcDbEntity
  8
LC-001-103-D10-0
370
    13
390
0
 62
     7
100
AcDbLine
 10
165.316168
 20
418.410389
 30
0.0
 11
165.316172
 21
417.400845
 31
0.0
  0
LINE
  5
5E
102
{ACAD_REACTORS
330
300
102
}
100
AcDbEntity
  8
LC-001-103-D10-0
370
    50
390
0
 62
     1
100
AcDbLine
 10
165.316172
 20
417.400845
 30
0.0
 11
260.028164
 21
417.400845
 31
0.0
  0
LINE
  5
5F
102
{ACAD_REACTORS
330
300
102
}
100
AcDbEntity
  8
LC-001-103-D10-0
370
    50
390
0
 62
     1
100
AcDbLine
 10
261.012
 20
416.416917
 30
0.0
 11
261.010711
 21
402.741286
 31
0.0
  0
LINE
  5
60
102
{ACAD_REACTORS
330
300
102
}
100
AcDbEntity
  8
LC-001-103-D10-0
370
    50
390
0
 62
     1
100
AcDbLine
 10
262.475171
 20
400.204768
 30
0.0
 11
262.475171
 21
334.584196
 31
0.0
  0
LINE
  5
61
102
{ACAD_REACTORS
330
300
102
}
100
AcDbEntity
  8
LC-001-103-D10-0
370
    50
390
0
 62
     1
100
AcDbLine
 10
265.374093
 20
334.584196
 30
0.0
 11
265.788548
 21
382.076016
 31
0.0
  0
LINE
  5
62
102
{ACAD_REACTORS
330
300
102
}
100
AcDbEntity
  8
LC-001-103-D10-0
370
    50
390
0
 62
     1
100
AcDbLine
 10
266.772439
 20
383.051358
 30
0.0
 11
269.285924
 21
383.051358
 31
0.0
  0
ARC
  5
63
102
{ACAD_REACTORS
330
300
102
}
100
AcDbEntity
  8
LC-001-103-D10-0
370
    50
390
0
 62
     1
100
AcDbCircle
 10
269.285924
 20
382.049719
 30
0.0
 40
1.001639
100
AcDbArc
 50
0.0
 51
90.0
  0
LINE
  5
64
102
{ACAD_REACTORS
330
300
102
}
100
AcDbEntity
  8
LC-001-103-D10-0
370
    50
390
0
 62
     1
100
AcDbLine
 10
270.287564
 20
371.63267
 30
0.0
 11
270.287564
 21
382.049719
 31
0.0
  0
ARC
  5
65
102
{ACAD_REACTORS
330
300
102
}
100
AcDbEntity
  8
LC-001-103-D10-0
370
    50
390
0
 62
     1
100
AcDbCircle
 10
272.791662
 20
371.63267
 30
0.0
 40
2.504098
100
AcDbArc
 50
180.0
 51
270.0
  0
LINE
  5
66
102
{ACAD_REACTORS
330
300
102
}
100
AcDbEntity
  8
LC-001-103-D10-0
370
    50
390
0
 62
     1
100
AcDbLine
 10
272.791662
 20
369.128572
 30
0.0
 11
275.091103
 21
369.128572
 31
0.0
  0
ARC
  5
67
102
{ACAD_REACTORS
330
300
102
}
100
AcDbEntity
  8
LC-001-103-D10-0
370
    50
390
0
 62
     1
100
AcDbCircle
 10
275.091103
 20
368.126933
 30
0.0
 40
1.001639
100
AcDbArc
 50
0.0
 51
90.0
  0
LINE
  5
68
102
{ACAD_REACTORS
330
300
102
}
100
AcDbEntity
  8
LC-001-103-D10-0
370
    50
390
0
 62
     1
100
AcDbLine
 10
266.099011
 20
385.65562
 30
0.0
 11
273.239349
 21
385.65562
 31
0.0
  0
LINE
  5
69
102
{ACAD_REACTORS
330
300
102
}
100
AcDbEntity
  8
LC-001-103-D10-0
370
    50
390
0
 62
     1
100
AcDbLine
 10
267.099011
 20
391.25562
 30
0.0
 11
276.224529
 21
391.25562
 31
0.0
  0
LINE
  5
6A
102
{ACAD_REACTORS
330
300
102
}
100
AcDbEntity
  8
LC-001-103-D10-0
370
    50
390
0
 62
     1
100
AcDbLine
 10
276.723844
 20
390.781788
 30
0.0
 11
277.139237
 21
382.85562
 31
0.0
  0
LINE
  5
6B
102
{ACAD_REACTORS
330
300
102
}
100
AcDbEntity
  8
LC-001-103-D10-0
370
    50
390
0
 62
     1
100
AcDbLine
 10
273.899011
 20
382.85562
 30
0.0
 11
277.139237
 21
382.85562
 31
0.0
  0
LINE
  5
6C
102
{ACAD_REACTORS
330
300
102
}
100
AcDbEntity
  8
LC-001-103-D10-0
370
    50
390
0
 62
     1
100
AcDbLine
 10
273.899011
 20
387.85562
 30
0.0
 11
273.899011
 21
382.85562
 31
0.0
  0
LINE
  5
6D
102
{ACAD_REACTORS
330
300
102
}
100
AcDbEntity
  8
LC-001-103-D10-0
370
    50
390
0
 62
     1
100
AcDbLine
 10
269.799011
 20
387.85562
 30
0.0
 11
273.899011
 21
387.85562
 31
0.0
  0
LINE
  5
6E
102
{ACAD_REACTORS
330
300
102
}
100
AcDbEntity
  8
LC-001-103-D10-0
370
    50
390
0
 62
     1
100
AcDbLine
 10
269.799011
 20
387.85562
 30
0.0
 11
269.799011
 21
385.65562
 31
0.0
  0
LINE
  5
70
102
{ACAD_REACTORS
330
300
102
}
100
AcDbEntity
  8
LC-004-104-D10-0
370
    25
390
0
 62
     2
100
AcDbLine
 10
269.799011
 20
385.65562
 30
0.0
 11
266.899011
 21
385.65562
 31
0.0
  0
LINE
  5
71
102
{ACAD_REACTORS
330
300
102
}
100
AcDbEntity
  8
LC-001-103-D10-0
370
    50
390
0
 62
     1
100
AcDbLine
 10
266.099011
 20
386.45562
 30
0.0
 11
266.099011
 21
390.25562
 31
0.0
  0
ARC
  5
72
102
{ACAD_REACTORS
330
300
102
}
100
AcDbEntity
  8
LC-001-103-D10-0
370
    50
390
0
 62
     1
100
AcDbCircle
 10
276.224529
 20
390.75562
 30
0.0
 40
0.5
100
AcDbArc
 50
3.0
 51
90.0
  0
ARC
  5
73
102
{ACAD_REACTORS
330
300
102
}
100
AcDbEntity
  8
LC-001-103-D10-0
370
    50
390
0
 62
     1
100
AcDbCircle
 10
266.899011
 20
386.45562
 30
0.0
 40
0.8
100
AcDbArc
 50
180.0
 51
270.0
  0
ARC
  5
74
102
{ACAD_REACTORS
330
300
102
}
100
AcDbEntity
  8
LC-001-103-D10-0
370
    50
390
0
 62
     1
100
AcDbCircle
 10
266.099011
 20
391.25562
 30
0.0
 40
1.0
100
AcDbArc
 50
270.0
 51
0.0
  0
ARC
  5
75
102
{ACAD_REACTORS
330
300
102
}
100
AcDbEntity
  8
LC-001-103-D10-0
370
    50
390
0
 62
     1
100
AcDbCircle
 10
419.113616
 20
391.25562
 30
0.0
 40
1.0
100
AcDbArc
 50
180.0
 51
270.0
  0
ARC
  5
76
102
{ACAD_REACTORS
330
300
102
}
100
AcDbEntity
  8
LC-001-103-D10-0
370
    50
390
0
 62
     1
100
AcDbCircle
 10
418.313616
 20
386.45562
 30
0.0
 40
0.8
100
AcDbArc
 50
270.0
 51
0.0
  0
ARC
  5
77
102
{ACAD_REACTORS
330
300
102
}
100
AcDbEntity
  8
LC-001-103-D10-0
370
    50
390
0
 62
     1
100
AcDbCircle
 10
408.988098
 20
390.75562
 30
0.0
 40
0.5
100
AcDbArc
 50
90.0
 51
177.0
  0
LINE
  5
78
102
{ACAD_REACTORS
330
300
102
}
100
AcDbEntity
  8
LC-004-104-D10-0
370
    25
390
0
 62
     2
100
AcDbLine
 10
419.113616
 20
386.45562
 30
0.0
 11
419.113616
 21
390.25562
 31
0.0
  0
LINE
  5
79
102
{ACAD_REACTORS
330
300
102
}
100
AcDbEntity
  8
LC-001-103-D10-0
370
    50
390
0
 62
     1
100
AcDbLine
 10
415.413616
 20
385.65562
 30
0.0
 11
418.313616
 21
385.65562
 31
0.0
  0
LINE
  5
7A
102
{ACAD_REACTORS
330
300
102
}
100
AcDbEntity
  8
LC-001-103-D10-0
370
    50
390
0
 62
     1
100
AcDbLine
 10
415.413616
 20
387.85562
 30
0.0
 11
415.413616
 21
385.65562
 31
0.0
  0
LINE
  5
7B
102
{ACAD_REACTORS
330
300
102
}
100
AcDbEntity
  8
LC-001-103-D10-0
370
    50
390
0
 62
     1
100
AcDbLine
 10
415.413616
 20
387.85562
 30
0.0
 11
411.313616
 21
387.85562
 31
0.0
  0
LINE
  5
7C
102
{ACAD_REACTORS
330
300
102
}
100
AcDbEntity
  8
LC-001-103-D10-0
370
    50
390
0
 62
     1
100
AcDbLine
 10
411.313616
 20
387.85562
 30
0.0
 11
411.313616
 21
382.85562
 31
0.0
  0
LINE
  5
7D
102
{ACAD_REACTORS
330
300
102
}
100
AcDbEntity
  8
LC-001-103-D10-0
370
    50
390
0
 62
     1
100
AcDbLine
 10
411.313616
 20
382.85562
 30
0.0
 11
408.07339
 21
382.85562
 31
0.0
  0
LINE
  5
7E
102
{ACAD_REACTORS
330
300
102
}
100
AcDbEntity
  8
LC-001-103-D10-0
370
    50
390
0
 62
     1
100
AcDbLine
 10
408.488783
 20
390.781788
 30
0.0
 11
408.07339
 21
382.85562
 31
0.0
  0
LINE
  5
7F
102
{ACAD_REACTORS
330
300
102
}
100
AcDbEntity
  8
LC-001-103-D10-0
370
    50
390
0
 62
     1
100
AcDbLine
 10
418.113616
 20
391.25562
 30
0.0
 11
408.988098
 21
391.25562
 31
0.0
  0
LINE
  5
80
102
{ACAD_REACTORS
330
300
102
}
100
AcDbEntity
  8
LC-001-103-D10-0
370
    50
390
0
 62
     1
100
AcDbLine
 10
419.113616
 20
390.25562
 30
0.0
 11
418.113616
 21
391.25562
 31
0.0
  0
LINE
  5
81
102
{ACAD_REACTORS
330
300
102
}
100
AcDbEntity
  8
LC-001-103-D10-0
370
    50
390
0
 62
     1
100
AcDbLine
 10
418.113616
 20
391.25562
 30
0.0
 11
418.113616
 21
395.471048
 31
0.0
  0
ARC
  5
82
102
{ACAD_REACTORS
330
300
102
}
100
AcDbEntity
  8
LC-001-103-D10-0
370
    50
390
0
 62
     1
100
AcDbCircle
 10
417.684812
 20
396.180498
 30
0.0
 40
0.4
100
AcDbArc
 50
180.0
 51
240.0
  0
ARC
  5
83
102
{ACAD_REACTORS
330
300
102
}
100
AcDbEntity
  8
LC-001-103-D10-0
370
    50
390
0
 62
     1
100
AcDbCircle
 10
267.527815
 20
396.180498
 30
0.0
 40
0.4
100
AcDbArc
 50
300.0
 51
0.0
  0
LINE
  5
84
102
{ACAD_REACTORS
330
300
102
}
100
AcDbEntity
  8
LC-001-103-D10-0
370
    50
390
0
 62
     1
100
AcDbLine
 10
267.099011
 20
391.25562
 30
0.0
 11
267.099011
 21
395.471048
 31
0.0
  0
LINE
  5
85
102
{ACAD_REACTORS
330
300
102
}
100
AcDbEntity
  8
LC-001-103-D10-0
370
    50
390
0
 62
     1
100
AcDbLine
 10
266.099011
 20
390.25562
 30
0.0
 11
267.099011
 21
391.25562
 31
0.0
  0
LINE
  5
86
102
{ACAD_REACTORS
330
300
102
}
100
AcDbEntity
  8
LC-001-103-D10-0
370
    50
390
0
 62
     1
100
AcDbLine
 10
267.727815
 20
395.834088
 30
0.0
 11
267.099011
 21
395.471048
 31
0.0
  0
LINE
  5
87
102
{ACAD_REACTORS
330
300
102
}
100
AcDbEntity
  8
LC-001-103-D10-0
370
    50
390
0
 62
     1
100
AcDbLine
 10
266.099011
 20
390.25562
 30
0.0
 11
266.099011
 21
385.65562
 31
0.0
  0
LINE
  5
88
102
{ACAD_REACTORS
330
300
102
}
100
AcDbEntity
  8
LC-001-103-D10-0
370
    50
390
0
 62
     1
100
AcDbLine
 10
267.927815
 20
396.180498
 30
0.0
 11
267.927815
 21
396.664083
 31
0.0
  0
LINE
  5
89
102
{ACAD_REACTORS
330
300
102
}
100
AcDbEntity
  8
LC-001-103-D10-0
370
    50
390
0
 62
     1
100
AcDbLine
 10
409.119885
 20
334.52182
 30
0.0
 11
405.326795
 21
334.52182
 31
0.0
  0
LINE
  5
8A
102
{ACAD_REACTORS
330
300
102
}
100
AcDbEntity
  8
LC-001-103-D10-0
370
    50
390
0
 62
     1
100
AcDbLine
 10
276.092742
 20
334.52182
 30
0.0
 11
280.326795
 21
334.52182
 31
0.0
  0
INSERT
  5
96
102
{ACAD_REACTORS
330
300
102
}
100
AcDbEntity
  8
LC-005-005-----0
370
    25
390
0
 62
     2
100
AcDbBlockReference
  2
*X0
 10
0.0
 20
0.0
 30
0.0
  0
INSERT
  5
A1
102
{ACAD_REACTORS
330
300
102
}
100
AcDbEntity
  8
LC-005-005-----0
370
    25
390
0
 62
     2
100
AcDbBlockReference
  2
*X1
 10
0.0
 20
0.0
 30
0.0
  0
LINE
  5
A2
102
{ACAD_REACTORS
330
300
102
}
100
AcDbEntity
  8
LC-002-002-----0
370
    50
390
0
 62
     1
100
AcDbLine
 10
283.326795
 20
337.473606
 30
0.0
 11
395.211566
 21
337.473606
 31
0.0
  0
LINE
  5
A3
102
{ACAD_REACTORS
330
300
102
}
100
AcDbEntity
  8
LC-002-002-----0
370
    50
390
0
 62
     1
100
AcDbLine
 10
276.240331
 20
372.634309
 30
0.0
 11
278.239674
 21
372.634309
 31
0.0
  0
LINE
  5
A4
102
{ACAD_REACTORS
330
300
102
}
100
AcDbEntity
  8
LC-002-002-----0
370
    50
390
0
 62
     1
100
AcDbLine
 10
277.139237
 20
382.85562
 30
0.0
 11
408.07339
 21
382.85562
 31
0.0
  0
LINE
  5
A5
102
{ACAD_REACTORS
330
300
102
}
100
AcDbEntity
  8
LC-002-002-----0
370
    50
390
0
 62
     1
100
AcDbLine
 10
276.224529
 20
391.25562
 30
0.0
 11
408.988098
 21
391.25562
 31
0.0
  0
DIMENSION
  5
C4
100
AcDbEntity
  8
LC-008-003-----0
370
    25
390
0
 62
     2
100
AcDbDimension
  2
*D2
 10
342.606314
 20
507.39
 30
0.0
 11
342.606314
 21
507.39
 31
0.0
 71
     5
 72
     1
 41
1.0
 42
0.0
  1
%%c354
  3
LC-DIM-L-0140-02-02
100
AcDbAlignedDimension
 13
165.316172
 23
417.400845
 33
0.0
 14
519.896455
 24
417.400845
 34
0.0
100
AcDbRotatedDimension
  0
DIMENSION
  5
DE
100
AcDbEntity
  8
LC-008-003-----0
370
    25
390
0
 62
     2
100
AcDbDimension
  2
*D3
 10
342.606314
 20
175.344
 30
0.0
 11
342.606314
 21
175.344
 31
0.0
 71
     5
 72
     1
 41
1.0
 42
0.0
  1
%%c160
  3
LC-DIM-L-0140-02-02
100
AcDbAlignedDimension
 13
262.475171
 23
334.52182
 33
0.0
 14
422.737456
 24
334.52182
 34
0.0
100
AcDbRotatedDimension
  0
DIMENSION
  5
EF
100
AcDbEntity
  8
LC-008-003-----0
370
    25
390
0
 62
     2
100
AcDbDimension
  2
*D4
 10
156.8
 20
370.961333
 30
0.0
 11
156.8
 21
370.961333
 31
0.0
 71
     5
 72
     1
 41
1.0
 42
0.0
  1
93
  3
LC-DIM-L-0140-02-02
100
AcDbAlignedDimension
 13
269.975171
 23
324.52182
 33
0.0
 14
165.316172
 24
417.400845
 34
0.0
 50
90.0
100
AcDbRotatedDimension
  0
LINE
  5
F0
100
AcDbEntity
  8
LC-002-002-----0
370
    50
390
0
 62
     1
100
AcDbLine
 10
280.326795
 20
273.084196
 30
0.0
 11
281.532566
 21
268.584196
 31
0.0
  0
LINE
  5
F1
100
AcDbEntity
  8
LC-002-002-----0
370
    50
390
0
 62
     1
100
AcDbLine
 10
405.326795
 20
273.084196
 30
0.0
 11
404.121024
 21
268.584196
 31
0.0
  0
DIMENSION
  5
10B
100
AcDbEntity
  8
LC-008-003-----0
370
    25
390
0
 62
     2
100
AcDbDimension
  2
*D5
 10
342.826795
 20
224.646
 30
0.0
 11
342.826795
 21
224.646
 31
0.0
 71
     5
 72
     1
 41
1.0
 42
0.0
  1
DN125
  3
LC-DIM-L-0140-02-02
100
AcDbAlignedDimension
 13
280.326795
 23
273.084196
 33
0.0
 14
405.326795
 24
273.084196
 34
0.0
100
AcDbRotatedDimension
  0
LINE
  5
10C
100
AcDbEntity
  8
LC-002-002-----0
370
    50
390
0
 62
     1
100
AcDbLine
 10
404.121024
 20
268.584196
 30
0.0
 11
283.326795
 21
268.584196
 31
0.0
  0
LINE
  5
10D
100
AcDbEntity
  8
LC-002-002-----0
370
    50
390
0
 62
     1
100
AcDbLine
 10
342.826795
 20
268.584196
 30
0.0
 11
342.606314
 21
268.584196
 31
0.0
  0
LINE
  5
10E
100
AcDbEntity
  8
LC-002-002-----0
370
    50
390
0
 62
     1
100
AcDbLine
 10
283.326795
 20
337.473606
 30
0.0
 11
283.326795
 21
268.584196
 31
0.0
  0
LINE
  5
10F
100
AcDbEntity
  8
LC-002-002-----0
370
    50
390
0
 62
     1
100
AcDbLine
 10
280.326795
 20
334.52182
 30
0.0
 11
280.326795
 21
273.084196
 31
0.0
  0
LINE
  5
110
100
AcDbEntity
  8
LC-002-002-----0
370
    50
390
0
 62
     1
100
AcDbLine
 10
402.326795
 20
337.473606
 30
0.0
 11
402.326795
 21
268.584196
 31
0.0
  0
LINE
  5
111
100
AcDbEntity
  8
LC-002-002-----0
370
    50
390
0
 62
     1
100
AcDbLine
 10
405.326795
 20
334.52182
 30
0.0
 11
405.326795
 21
273.084196
 31
0.0
  0
LINE
  5
112
102
{ACAD_REACTORS
330
301
102
}
100
AcDbEntity
  8
LC-002-002-----0
370
    50
390
0
 62
     1
100
AcDbLine
 10
420.076796
 20
334.584196
 30
0.0
 11
420.076796
 21
343.584196
 31
0.0
  0
LINE
  5
113
102
{ACAD_REACTORS
330
301
102
}
100
AcDbEntity
  8
LC-002-002-----0
370
    50
390
0
 62
     1
100
AcDbLine
 10
423.076796
 20
334.584196
 30
0.0
 11
420.076796
 21
334.584196
 31
0.0
  0
ARC
  5
115
102
{ACAD_REACTORS
330
301
102
}
100
AcDbEntity
  8
LC-009-002-RND-0
370
    50
390
0
 62
     1
100
AcDbCircle
 10
415.326796
 20
329.584196
 30
0.0
 40
2.5
100
AcDbArc
 50
270.0
 51
0.0
  0
LINE
  5
116
102
{ACAD_REACTORS
330
301
102
}
100
AcDbEntity
  8
LC-002-002-----0
370
    50
390
0
 62
     1
100
AcDbLine
 10
423.076796
 20
332.584196
 30
0.0
 11
423.076796
 21
334.584196
 31
0.0
  0
ARC
  5
117
102
{ACAD_REACTORS
330
301
102
}
100
AcDbEntity
  8
LC-009-002-RND-0
370
    50
390
0
 62
     1
100
AcDbCircle
 10
415.076796
 20
332.584196
 30
0.0
 40
8.0
100
AcDbArc
 50
270.0
 51
0.0
  0
LINE
  5
118
102
{ACAD_REACTORS
330
301
102
}
100
AcDbEntity
  8
LC-002-002-----0
370
    50
390
0
 62
     1
100
AcDbLine
 10
405.576796
 20
324.584196
 30
0.0
 11
405.576796
 21
327.084196
 31
0.0
  0
LINE
  5
119
102
{ACAD_REACTORS
330
301
102
}
100
AcDbEntity
  8
LC-002-002-----0
370
    50
390
0
 62
     1
100
AcDbLine
 10
280.076796
 20
324.584196
 30
0.0
 11
280.076796
 21
327.084196
 31
0.0
  0
LINE
  5
11A
102
{ACAD_REACTORS
330
301
102
}
100
AcDbEntity
  8
LC-002-002-----0
370
    50
390
0
 62
     1
100
AcDbLine
 10
418.126796
 20
342.084196
 30
0.0
 11
418.126796
 21
343.584196
 31
0.0
  0
LINE
  5
11B
102
{ACAD_REACTORS
330
301
102
}
100
AcDbEntity
  8
LC-002-002-----0
370
    50
390
0
 62
     1
100
AcDbLine
 10
417.826796
 20
329.584196
 30
0.0
 11
417.826796
 21
342.084196
 31
0.0
  0
LINE
  5
11C
102
{ACAD_REACTORS
330
301
102
}
100
AcDbEntity
  8
LC-002-002-----0
370
    50
390
0
 62
     1
100
AcDbLine
 10
420.076796
 20
343.584196
 30
0.0
 11
418.126796
 21
343.584196
 31
0.0
  0
LINE
  5
11D
102
{ACAD_REACTORS
330
301
102
}
100
AcDbEntity
  8
LC-002-002-----0
370
    50
390
0
 62
     1
100
AcDbLine
 10
265.576796
 20
343.584196
 30
0.0
 11
267.526796
 21
343.584196
 31
0.0
  0
LINE
  5
11E
102
{ACAD_REACTORS
330
301
102
}
100
AcDbEntity
  8
LC-002-002-----0
370
    50
390
0
 62
     1
100
AcDbLine
 10
262.576796
 20
332.584196
 30
0.0
 11
262.576796
 21
334.584196
 31
0.0
  0
ARC
  5
11F
102
{ACAD_REACTORS
330
301
102
}
100
AcDbEntity
  8
LC-009-002-RND-0
370
    50
390
0
 62
     1
100
AcDbCircle
 10
270.576796
 20
332.584196
 30
0.0
 40
8.0
100
AcDbArc
 50
180.0
 51
270.0
  0
LINE
  5
120
102
{ACAD_REACTORS
330
301
102
}
100
AcDbEntity
  8
LC-002-002-----0
370
    50
390
0
 62
     1
100
AcDbLine
 10
262.475171
 20
334.584196
 30
0.0
 11
265.576796
 21
334.584196
 31
0.0
  0
LINE
  5
121
102
{ACAD_REACTORS
330
301
102
}
100
AcDbEntity
  8
LC-002-002-----0
370
    50
390
0
 62
     1
100
AcDbLine
 10
265.576796
 20
334.584196
 30
0.0
 11
265.576796
 21
343.584196
 31
0.0
  0
ARC
  5
122
102
{ACAD_REACTORS
330
301
102
}
100
AcDbEntity
  8
LC-009-002-RND-0
370
    50
390
0
 62
     1
100
AcDbCircle
 10
270.326796
 20
329.584196
 30
0.0
 40
2.5
100
AcDbArc
 50
180.0
 51
270.0
  0
LINE
  5
123
102
{ACAD_REACTORS
330
301
102
}
100
AcDbEntity
  8
LC-002-002-----0
370
    50
390
0
 62
     1
100
AcDbLine
 10
267.826796
 20
329.584196
 30
0.0
 11
267.826796
 21
342.084196
 31
0.0
  0
LINE
  5
124
102
{ACAD_REACTORS
330
301
102
}
100
AcDbEntity
  8
LC-002-002-----0
370
    50
390
0
 62
     1
100
AcDbLine
 10
267.526796
 20
342.084196
 30
0.0
 11
267.526796
 21
343.584196
 31
0.0
  0
LINE
  5
125
102
{ACAD_REACTORS
330
301
102
}
100
AcDbEntity
  8
LC-002-002-----0
370
    50
390
0
 62
     1
100
AcDbLine
 10
267.526796
 20
342.084196
 30
0.0
 11
267.826796
 21
342.084196
 31
0.0
  0
INSERT
  5
134
102
{ACAD_REACTORS
330
301
102
}
100
AcDbEntity
  8
LC-005-005-----0
370
    25
390
0
 62
     2
100
AcDbBlockReference
  2
*X6
 10
0.0
 20
0.0
 30
0.0
  0
LINE
  5
135
102
{ACAD_REACTORS
330
301
102
}
100
AcDbEntity
  8
LC-002-002-----0
370
    50
390
0
 62
     1
100
AcDbLine
 10
415.076796
 20
324.584196
 30
0.0
 11
413.569389
 21
324.584196
 31
0.0
  0
INSERT
  5
146
102
{ACAD_REACTORS
330
301
102
}
100
AcDbEntity
  8
LC-005-005-----0
370
    25
390
0
 62
     2
100
AcDbBlockReference
  2
*X7
 10
0.0
 20
0.0
 30
0.0
  0
LINE
  5
147
102
{ACAD_REACTORS
330
301
102
}
100
AcDbEntity
  8
LC-002-002-----0
370
    50
390
0
 62
     1
100
AcDbLine
 10
413.569389
 20
324.584196
 30
0.0
 11
413.569389
 21
322.584196
 31
0.0
  0
LINE
  5
148
102
{ACAD_REACTORS
330
301
102
}
100
AcDbEntity
  8
LC-002-002-----0
370
    50
390
0
 62
     1
100
AcDbLine
 10
413.569389
 20
322.584196
 30
0.0
 11
405.326795
 21
322.584196
 31
0.0
  0
LINE
  5
149
102
{ACAD_REACTORS
330
301
102
}
100
AcDbEntity
  8
LC-002-002-----0
370
    50
390
0
 62
     1
100
AcDbLine
 10
405.576796
 20
322.584196
 30
0.0
 11
405.576796
 21
324.584196
 31
0.0
  0
LINE
  5
14A
102
{ACAD_REACTORS
330
301
102
}
100
AcDbEntity
  8
LC-002-002-----0
370
    50
390
0
 62
     1
100
AcDbLine
 10
405.576796
 20
324.584196
 30
0.0
 11
405.576796
 21
324.584196
 31
0.0
  0
LINE
  5
14B
102
{ACAD_REACTORS
330
301
102
}
100
AcDbEntity
  8
LC-002-002-----0
370
    50
390
0
 62
     1
100
AcDbLine
 10
415.326796
 20
327.084196
 30
0.0
 11
405.326795
 21
327.084196
 31
0.0
  0
LINE
  5
14C
102
{ACAD_REACTORS
330
301
102
}
100
AcDbEntity
  8
LC-002-002-----0
370
    50
390
0
 62
     1
100
AcDbLine
 10
280.076796
 20
324.584196
 30
0.0
 11
280.076796
 21
322.584196
 31
0.0
  0
LINE
  5
14D
102
{ACAD_REACTORS
330
301
102
}
100
AcDbEntity
  8
LC-002-002-----0
370
    50
390
0
 62
     1
100
AcDbLine
 10
280.326795
 20
322.584196
 30
0.0
 11
272.075508
 21
322.584196
 31
0.0
  0
LINE
  5
14E
102
{ACAD_REACTORS
330
301
102
}
100
AcDbEntity
  8
LC-002-002-----0
370
    50
390
0
 62
     1
100
AcDbLine
 10
272.075508
 20
322.584196
 30
0.0
 11
272.075508
 21
324.584196
 31
0.0
  0
LINE
  5
14F
102
{ACAD_REACTORS
330
301
102
}
100
AcDbEntity
  8
LC-002-002-----0
370
    50
390
0
 62
     1
100
AcDbLine
 10
280.076796
 20
324.584196
 30
0.0
 11
280.076796
 21
324.584196
 31
0.0
  0
LINE
  5
150
102
{ACAD_REACTORS
330
301
102
}
100
AcDbEntity
  8
LC-002-002-----0
370
    50
390
0
 62
     1
100
AcDbLine
 10
272.075508
 20
324.584196
 30
0.0
 11
270.576796
 21
324.584196
 31
0.0
  0
LINE
  5
151
102
{ACAD_REACTORS
330
301
102
}
100
AcDbEntity
  8
LC-002-002-----0
370
    50
390
0
 62
     1
100
AcDbLine
 10
270.326796
 20
327.084196
 30
0.0
 11
280.326795
 21
327.084196
 31
0.0
  0
LINE
  5
152
102
{ACAD_REACTORS
330
300
102
}
100
AcDbEntity
  8
LC-002-002-----0
370
    50
390
0
 62
     1
100
AcDbLine
 10
278.239674
 20
372.634309
 30
0.0
 11
409.413258
 21
372.634309
 31
0.0
  0
LINE
  5
153
100
AcDbEntity
  8
LC-002-002-----0
370
    50
390
0
 62
     1
100
AcDbLine
 10
283.326795
 20
268.584196
 30
0.0
 11
281.532566
 21
268.584196
 31
0.0
  0
INSERT
  5
1C7
100
AcDbEntity
  8
LC-005-005-----0
370
    25
390
0
 62
     2
100
AcDbBlockReference
  2
*X8
 10
0.0
 20
0.0
 30
0.0
  0
INSERT
  5
23F
100
AcDbEntity
  8
LC-005-005-----0
370
    25
390
0
 62
     2
100
AcDbBlockReference
  2
*X9
 10
0.0
 20
0.0
 30
0.0
  0
INSERT
  5
24E
100
AcDbEntity
  8
LC-005-005-----0
370
    25
390
0
 62
     2
100
AcDbBlockReference
  2
*X10
 10
0.0
 20
0.0
 30
0.0
  0
INSERT
  5
261
100
AcDbEntity
  8
LC-005-005-----0
370
    25
390
0
 62
     2
100
AcDbBlockReference
  2
*X11
 10
0.0
 20
0.0
 30
0.0
  0
LINE
  5
262
100
AcDbEntity
  8
LC-002-002-----0
370
    50
390
0
 62
     1
100
AcDbLine
 10
401.885832
 20
337.473606
 30
0.0
 11
290.001061
 21
337.473606
 31
0.0
  0
LINE
  5
263
102
{ACAD_REACTORS
330
302
102
}
100
AcDbEntity
  8
LC-002-002-----0
370
    50
390
0
 62
     1
100
AcDbLine
 10
339.301095
 20
480.614383
 30
0.0
 11
339.301095
 21
495.414383
 31
0.0
  0
LINE
  5
264
102
{ACAD_REACTORS
330
302
102
}
100
AcDbEntity
  8
LC-002-002-----0
370
    50
390
0
 62
     1
100
AcDbLine
 10
345.911762
 20
480.614392
 30
0.0
 11
345.911722
 21
495.414392
 31
0.0
  0
ARC
  5
265
102
{ACAD_REACTORS
330
302
102
}
100
AcDbEntity
  8
LC-009-002-RND-0
370
    50
390
0
 62
     1
100
AcDbCircle
 10
391.055034
 20
480.414454
 30
0.0
 40
15.0
100
AcDbArc
 50
20.000157
 51
90.000079
  0
LINE
  5
266
102
{ACAD_REACTORS
330
302
102
}
100
AcDbEntity
  8
LC-002-002-----0
370
    50
390
0
 62
     1
100
AcDbLine
 10
257.020943
 20
422.238647
 30
0.0
 11
280.062434
 21
485.544623
 31
0.0
  0
ARC
  5
267
102
{ACAD_REACTORS
330
302
102
}
100
AcDbEntity
  8
LC-009-002-RND-0
370
    50
390
0
 62
     1
100
AcDbCircle
 10
294.157824
 20
480.414321
 30
0.0
 40
15.0
100
AcDbArc
 50
90.000079
 51
160.0
  0
LINE
  5
268
102
{ACAD_REACTORS
330
302
102
}
100
AcDbEntity
  8
LC-002-002-----0
370
    50
390
0
 62
     1
100
AcDbLine
 10
428.192075
 20
422.238881
 30
0.0
 11
405.15041
 21
485.544795
 31
0.0
  0
LINE
  5
269
102
{ACAD_REACTORS
330
302
102
}
100
AcDbEntity
  8
LC-002-002-----0
370
    50
390
0
 62
     1
100
AcDbLine
 10
294.157803
 20
495.414321
 30
0.0
 11
390.168059
 21
495.414453
 31
0.0
  0
LINE
  5
26A
102
{ACAD_REACTORS
330
302
102
}
100
AcDbEntity
  8
LC-002-002-----0
370
    50
390
0
 62
     1
100
AcDbLine
 10
413.106248
 20
420.414516
 30
0.0
 11
385.808273
 21
495.414447
 31
0.0
  0
LINE
  5
26B
102
{ACAD_REACTORS
330
302
102
}
100
AcDbEntity
  8
LC-002-002-----0
370
    50
390
0
 62
     1
100
AcDbLine
 10
385.093287
 20
491.329313
 30
0.0
 11
383.606408
 21
495.414444
 31
0.0
  0
LINE
  5
26C
102
{ACAD_REACTORS
330
302
102
}
100
AcDbEntity
  8
LC-002-002-----0
370
    50
390
0
 62
     1
100
AcDbLine
 10
387.446153
 20
490.914445
 30
0.0
 11
385.093287
 21
491.329313
 31
0.0
  0
LINE
  5
26D
102
{ACAD_REACTORS
330
302
102
}
100
AcDbEntity
  8
LC-002-002-----0
370
    50
390
0
 62
     1
100
AcDbLine
 10
272.106774
 20
420.414322
 30
0.0
 11
299.404544
 21
495.414328
 31
0.0
  0
LINE
  5
26E
102
{ACAD_REACTORS
330
302
102
}
100
AcDbEntity
  8
LC-002-002-----0
370
    50
390
0
 62
     1
100
AcDbLine
 10
300.119541
 20
491.329196
 30
0.0
 11
301.606408
 21
495.414331
 31
0.0
  0
LINE
  5
26F
102
{ACAD_REACTORS
330
302
102
}
100
AcDbEntity
  8
LC-002-002-----0
370
    50
390
0
 62
     1
100
AcDbLine
 10
297.766676
 20
490.914322
 30
0.0
 11
300.119541
 21
491.329196
 31
0.0
  0
LINE
  5
271
102
{ACAD_REACTORS
330
302
102
}
100
AcDbEntity
  8
LC-010-002-___-0
370
    25
390
0
 62
     2
100
AcDbLine
 10
411.588459
 20
403.714512
 30
0.0
 11
413.606271
 21
403.714517
 31
0.0
  0
LINE
  5
272
102
{ACAD_REACTORS
330
302
102
}
100
AcDbEntity
  8
LC-002-002-----0
370
    50
390
0
 62
     1
100
AcDbLine
 10
424.999513
 20
420.414549
 30
0.0
 11
428.192075
 21
422.238881
 31
0.0
  0
INSERT
  5
281
102
{ACAD_REACTORS
330
302
102
}
100
AcDbEntity
  8
LC-005-005-----0
370
    25
390
0
 62
     2
100
AcDbBlockReference
  2
*X12
 10
0.0
 20
0.0
 30
0.0
  0
ARC
  5
282
102
{ACAD_REACTORS
330
302
102
}
100
AcDbEntity
  8
LC-009-002-RND-0
370
    50
390
0
 62
     1
100
AcDbCircle
 10
417.006287
 20
392.414527
 30
0.0
 40
1.0
100
AcDbArc
 50
0.000079
 51
90.000157
  0
LINE
  5
283
102
{ACAD_REACTORS
330
302
102
}
100
AcDbEntity
  8
LC-002-002-----0
370
    50
390
0
 62
     1
100
AcDbLine
 10
398.80211
 20
459.714477
 30
0.0
 11
398.802122
 21
455.351376
 31
0.0
  0
ARC
  5
284
102
{ACAD_REACTORS
330
302
102
}
100
AcDbEntity
  8
LC-009-002-RND-0
370
    50
390
0
 62
     1
100
AcDbCircle
 10
417.006287
 20
392.414527
 30
0.0
 40
1.0
100
AcDbArc
 50
270.000157
 51
0.000079
  0
LINE
  5
285
102
{ACAD_REACTORS
330
302
102
}
100
AcDbEntity
  8
LC-002-002-----0
370
    50
390
0
 62
     1
100
AcDbLine
 10
417.106289
 20
391.414527
 30
0.0
 11
415.606287
 21
391.414523
 31
0.0
  0
LINE
  5
286
102
{ACAD_REACTORS
330
302
102
}
100
AcDbEntity
  8
LC-002-002-----0
370
    50
390
0
 62
     1
100
AcDbLine
 10
260.21351
 20
420.414322
 30
0.0
 11
257.020943
 21
422.238647
 31
0.0
  0
LINE
  5
287
102
{ACAD_REACTORS
330
302
102
}
100
AcDbEntity
  8
LC-002-002-----0
370
    50
390
0
 62
     1
100
AcDbLine
 10
420.506271
 20
403.714536
 30
0.0
 11
416.506271
 21
403.714525
 31
0.0
  0
ARC
  5
288
102
{ACAD_REACTORS
330
302
102
}
100
AcDbEntity
  8
LC-009-002-RND-0
370
    50
390
0
 62
     1
100
AcDbCircle
 10
417.006285
 20
393.914527
 30
0.0
 40
0.5
100
AcDbArc
 50
180.000079
 51
270.000157
  0
LINE
  5
289
102
{ACAD_REACTORS
330
302
102
}
100
AcDbEntity
  8
LC-002-002-----0
370
    50
390
0
 62
     1
100
AcDbLine
 10
417.006289
 20
391.414527
 30
0.0
 11
413.606288
 21
391.414517
 31
0.0
  0
LINE
  5
28A
102
{ACAD_REACTORS
330
302
102
}
100
AcDbEntity
  8
LC-002-002-----0
370
    50
390
0
 62
     1
100
AcDbLine
 10
400.598553
 20
455.034622
 30
0.0
 11
398.802122
 21
455.351376
 31
0.0
  0
ARC
  5
28B
102
{ACAD_REACTORS
330
302
102
}
100
AcDbEntity
  8
LC-009-002-RND-0
370
    50
390
0
 62
     1
100
AcDbCircle
 10
420.50627
 20
404.214536
 30
0.0
 40
0.5
100
AcDbArc
 50
270.000157
 51
0.000079
  0
LINE
  5
28C
102
{ACAD_REACTORS
330
302
102
}
100
AcDbEntity
  8
LC-002-002-----0
370
    50
390
0
 62
     1
100
AcDbLine
 10
413.606259
 20
412.714517
 30
0.0
 11
413.606288
 21
391.414517
 31
0.0
  0
LINE
  5
28D
102
{ACAD_REACTORS
330
302
102
}
100
AcDbEntity
  8
LC-002-002-----0
370
    50
390
0
 62
     1
100
AcDbLine
 10
421.006248
 20
420.414538
 30
0.0
 11
421.00627
 21
404.214537
 31
0.0
  0
LINE
  5
28E
102
{ACAD_REACTORS
330
302
102
}
100
AcDbEntity
  8
LC-002-002-----0
370
    50
390
0
 62
     1
100
AcDbLine
 10
413.606259
 20
412.714517
 30
0.0
 11
413.106259
 21
412.714516
 31
0.0
  0
LINE
  5
28F
102
{ACAD_REACTORS
330
302
102
}
100
AcDbEntity
  8
LC-002-002-----0
370
    50
390
0
 62
     1
100
AcDbLine
 10
413.106248
 20
420.414516
 30
0.0
 11
413.106259
 21
412.714516
 31
0.0
  0
LINE
  5
290
102
{ACAD_REACTORS
330
302
102
}
100
AcDbEntity
  8
LC-002-002-----0
370
    50
390
0
 62
     1
100
AcDbLine
 10
416.506248
 20
420.414525
 30
0.0
 11
416.506285
 21
393.914526
 31
0.0
  0
LINE
  5
291
102
{ACAD_REACTORS
330
302
102
}
100
AcDbEntity
  8
LC-002-002-----0
370
    25
390
0
  6
DASHDOT
 62
     2
100
AcDbLine
 10
342.606408
 20
495.414388
 30
0.0
 11
342.606511
 21
420.414435
 31
0.0
  0
LINE
  5
292
102
{ACAD_REACTORS
330
302
102
}
100
AcDbEntity
  8
LC-002-002-----0
370
    50
390
0
 62
     1
100
AcDbLine
 10
343.756772
 20
480.614389
 30
0.0
 11
343.756772
 21
459.714322
 31
0.0
  0
LINE
  5
293
102
{ACAD_REACTORS
330
302
102
}
100
AcDbEntity
  8
LC-002-002-----0
370
    50
390
0
 62
     1
100
AcDbLine
 10
341.456772
 20
480.614386
 30
0.0
 11
341.456772
 21
459.714322
 31
0.0
  0
ARC
  5
294
102
{ACAD_REACTORS
330
302
102
}
100
AcDbEntity
  8
LC-009-002-RND-0
370
    50
390
0
 62
     1
100
AcDbCircle
 10
268.206813
 20
392.414322
 30
0.0
 40
1.0
100
AcDbArc
 50
90.0
 51
180.000079
  0
LINE
  5
295
102
{ACAD_REACTORS
330
302
102
}
100
AcDbEntity
  8
LC-002-002-----0
370
    50
390
0
 62
     1
100
AcDbLine
 10
286.410805
 20
459.714322
 30
0.0
 11
286.410805
 21
455.351222
 31
0.0
  0
ARC
  5
296
102
{ACAD_REACTORS
330
302
102
}
100
AcDbEntity
  8
LC-009-002-RND-0
370
    50
390
0
 62
     1
100
AcDbCircle
 10
268.206813
 20
392.414322
 30
0.0
 40
1.0
100
AcDbArc
 50
180.000079
 51
270.0
  0
LINE
  5
297
102
{ACAD_REACTORS
330
302
102
}
100
AcDbEntity
  8
LC-002-002-----0
370
    50
390
0
 62
     1
100
AcDbLine
 10
268.106813
 20
391.414322
 30
0.0
 11
269.606815
 21
391.414322
 31
0.0
  0
LINE
  5
298
102
{ACAD_REACTORS
330
302
102
}
100
AcDbEntity
  8
LC-002-002-----0
370
    50
390
0
 62
     1
100
AcDbLine
 10
264.706797
 20
403.714322
 30
0.0
 11
268.706797
 21
403.714322
 31
0.0
  0
ARC
  5
299
102
{ACAD_REACTORS
330
302
102
}
100
AcDbEntity
  8
LC-009-002-RND-0
370
    50
390
0
 62
     1
100
AcDbCircle
 10
268.206811
 20
393.914322
 30
0.0
 40
0.5
100
AcDbArc
 50
270.0
 51
0.000079
  0
LINE
  5
29A
102
{ACAD_REACTORS
330
302
102
}
100
AcDbEntity
  8
LC-002-002-----0
370
    50
390
0
 62
     1
100
AcDbLine
 10
268.206813
 20
391.414322
 30
0.0
 11
271.606814
 21
391.414322
 31
0.0
  0
LINE
  5
29B
102
{ACAD_REACTORS
330
302
102
}
100
AcDbEntity
  8
LC-002-002-----0
370
    50
390
0
 62
     1
100
AcDbLine
 10
284.71386
 20
455.052005
 30
0.0
 11
286.410805
 21
455.351222
 31
0.0
  0
ARC
  5
29C
102
{ACAD_REACTORS
330
302
102
}
100
AcDbEntity
  8
LC-009-002-RND-0
370
    50
390
0
 62
     1
100
AcDbCircle
 10
264.706797
 20
404.214322
 30
0.0
 40
0.5
100
AcDbArc
 50
180.000079
 51
270.0
  0
LINE
  5
29D
102
{ACAD_REACTORS
330
302
102
}
100
AcDbEntity
  8
LC-002-002-----0
370
    50
390
0
 62
     1
100
AcDbLine
 10
271.606785
 20
412.714322
 30
0.0
 11
271.606814
 21
391.414322
 31
0.0
  0
LINE
  5
29E
102
{ACAD_REACTORS
330
302
102
}
100
AcDbEntity
  8
LC-002-002-----0
370
    50
390
0
 62
     1
100
AcDbLine
 10
264.206775
 20
420.414322
 30
0.0
 11
264.206797
 21
404.214322
 31
0.0
  0
LINE
  5
29F
102
{ACAD_REACTORS
330
302
102
}
100
AcDbEntity
  8
LC-002-002-----0
370
    50
390
0
 62
     1
100
AcDbLine
 10
294.017782
 20
480.614321
 30
0.0
 11
391.195076
 21
480.614454
 31
0.0
  0
INSERT
  5
2A7
102
{ACAD_REACTORS
330
302
102
}
100
AcDbEntity
  8
LC-005-005-----0
370
    25
390
0
 62
     2
100
AcDbBlockReference
  2
*X13
 10
0.0
 20
0.0
 30
0.0
  0
INSERT
  5
2B0
102
{ACAD_REACTORS
330
302
102
}
100
AcDbEntity
  8
LC-005-005-----0
370
    25
390
0
 62
     2
100
AcDbBlockReference
  2
*X14
 10
0.0
 20
0.0
 30
0.0
  0
LINE
  5
2B1
102
{ACAD_REACTORS
330
302
102
}
100
AcDbEntity
  8
LC-002-002-----0
370
    50
390
0
 62
     1
100
AcDbLine
 10
286.410805
 20
459.714322
 30
0.0
 11
398.80211
 21
459.714322
 31
0.0
  0
LINE
  5
2B2
102
{ACAD_REACTORS
330
302
102
}
100
AcDbEntity
  8
LC-002-002-----0
370
    50
390
0
 62
     1
100
AcDbLine
 10
284.71386
 20
455.052005
 30
0.0
 11
400.499068
 21
455.052005
 31
0.0
  0
INSERT
  5
2C2
102
{ACAD_REACTORS
330
302
102
}
100
AcDbEntity
  8
LC-005-005-----0
370
    25
390
0
 62
     2
100
AcDbBlockReference
  2
*X15
 10
0.0
 20
0.0
 30
0.0
  0
LINE
  5
2C3
102
{ACAD_REACTORS
330
302
102
}
100
AcDbEntity
  8
LC-002-002-----0
370
    50
390
0
 62
     1
100
AcDbLine
 10
354.406523
 20
411.714356
 30
0.0
 11
354.406551
 21
391.414322
 31
0.0
  0
LINE
  5
2C4
102
{ACAD_REACTORS
330
302
102
}
100
AcDbEntity
  8
LC-002-002-----0
370
    50
390
0
 62
     1
100
AcDbLine
 10
330.806551
 20
391.414322
 30
0.0
 11
354.406551
 21
391.414322
 31
0.0
  0
LINE
  5
2C5
102
{ACAD_REACTORS
330
302
102
}
100
AcDbEntity
  8
LC-002-002-----0
370
    50
390
0
 62
     1
100
AcDbLine
 10
330.806523
 20
411.714324
 30
0.0
 11
330.806551
 21
391.414322
 31
0.0
  0
LINE
  5
2C6
102
{ACAD_REACTORS
330
302
102
}
100
AcDbEntity
  8
LC-002-002-----0
370
    50
390
0
 62
     1
100
AcDbLine
 10
272.106785
 20
412.714322
 30
0.0
 11
329.95744
 21
412.714322
 31
0.0
  0
LINE
  5
2C7
102
{ACAD_REACTORS
330
302
102
}
100
AcDbEntity
  8
LC-002-002-----0
370
    50
390
0
 62
     1
100
AcDbLine
 10
328.806523
 20
411.714321
 30
0.0
 11
328.806534
 21
403.714322
 31
0.0
  0
LINE
  5
2C8
102
{ACAD_REACTORS
330
302
102
}
100
AcDbEntity
  8
LC-002-002-----0
370
    50
390
0
 62
     1
100
AcDbLine
 10
356.406523
 20
411.714359
 30
0.0
 11
356.406534
 21
403.71436
 31
0.0
  0
ARC
  5
2C9
102
{ACAD_REACTORS
330
302
102
}
100
AcDbEntity
  8
LC-009-002-RND-0
370
    50
390
0
 62
     1
100
AcDbCircle
 10
329.806523
 20
411.714322
 30
0.0
 40
1.0
100
AcDbArc
 50
90.0
 51
180.000079
  0
LINE
  5
2CA
102
{ACAD_REACTORS
330
302
102
}
100
AcDbEntity
  8
LC-002-002-----0
370
    50
390
0
 62
     1
100
AcDbLine
 10
329.068621
 20
412.714322
 30
0.0
 11
413.106259
 21
412.714322
 31
0.0
  0
ARC
  5
2CB
102
{ACAD_REACTORS
330
302
102
}
100
AcDbEntity
  8
LC-009-002-RND-0
370
    50
390
0
 62
     1
100
AcDbCircle
 10
329.806523
 20
411.714322
 30
0.0
 40
1.0
100
AcDbArc
 50
0.000079
 51
90.0
  0
ARC
  5
2CC
102
{ACAD_REACTORS
330
302
102
}
100
AcDbEntity
  8
LC-009-002-RND-0
370
    50
390
0
 62
     1
100
AcDbCircle
 10
355.406523
 20
411.714358
 30
0.0
 40
1.0
100
AcDbArc
 50
0.000079
 51
90.000157
  0
ARC
  5
2CD
102
{ACAD_REACTORS
330
302
102
}
100
AcDbEntity
  8
LC-009-002-RND-0
370
    50
390
0
 62
     1
100
AcDbCircle
 10
355.406523
 20
411.714358
 30
0.0
 40
1.0
100
AcDbArc
 50
90.000157
 51
180.000079
  0
LINE
  5
2CE
102
{ACAD_REACTORS
330
302
102
}
100
AcDbEntity
  8
LC-002-002-----0
370
    50
390
0
 62
     1
100
AcDbLine
 10
356.406534
 20
403.714322
 30
0.0
 11
413.606271
 21
403.714322
 31
0.0
  0
LINE
  5
2CF
102
{ACAD_REACTORS
330
302
102
}
100
AcDbEntity
  8
LC-002-002-----0
370
    50
390
0
 62
     1
100
AcDbLine
 10
341.456772
 20
455.052005
 30
0.0
 11
341.456772
 21
420.414322
 31
0.0
  0
LINE
  5
2D0
102
{ACAD_REACTORS
330
302
102
}
100
AcDbEntity
  8
LC-002-002-----0
370
    50
390
0
 62
     1
100
AcDbLine
 10
343.756772
 20
455.052005
 30
0.0
 11
343.756772
 21
420.414322
 31
0.0
  0
LINE
  5
2D1
102
{ACAD_REACTORS
330
302
102
}
100
AcDbEntity
  8
LC-002-002-----0
370
    50
390
0
 62
     1
100
AcDbLine
 10
271.606785
 20
412.714322
 30
0.0
 11
272.106785
 21
412.714322
 31
0.0
  0
LINE
  5
2D2
102
{ACAD_REACTORS
330
302
102
}
100
AcDbEntity
  8
LC-002-002-----0
370
    50
390
0
 62
     1
100
AcDbLine
 10
260.21351
 20
420.414322
 30
0.0
 11
424.999117
 21
420.414322
 31
0.0
  0
LINE
  5
2D3
102
{ACAD_REACTORS
330
302
102
}
100
AcDbEntity
  8
LC-002-002-----0
370
    50
390
0
 62
     1
100
AcDbLine
 10
272.106774
 20
420.414322
 30
0.0
 11
272.106785
 21
412.714322
 31
0.0
  0
LINE
  5
2D4
102
{ACAD_REACTORS
330
302
102
}
100
AcDbEntity
  8
LC-002-002-----0
370
    50
390
0
 62
     1
100
AcDbLine
 10
268.706774
 20
420.414322
 30
0.0
 11
268.706811
 21
393.914323
 31
0.0
  0
LINE
  5
2D5
102
{ACAD_REACTORS
330
302
102
}
100
AcDbEntity
  8
LC-002-002-----0
370
    50
390
0
 62
     1
100
AcDbLine
 10
290.999757
 20
459.714322
 30
0.0
 11
299.606547
 21
480.614329
 31
0.0
  0
LINE
  5
2D6
102
{ACAD_REACTORS
330
302
102
}
100
AcDbEntity
  8
LC-002-002-----0
370
    50
390
0
 62
     1
100
AcDbLine
 10
282.135104
 20
420.414322
 30
0.0
 11
294.923922
 21
455.052005
 31
0.0
  0
LINE
  5
2D7
102
{ACAD_REACTORS
330
302
102
}
100
AcDbEntity
  8
LC-002-002-----0
370
    50
390
0
 62
     1
100
AcDbLine
 10
308.357391
 20
420.414322
 30
0.0
 11
315.741016
 21
455.052005
 31
0.0
  0
LINE
  5
2D8
102
{ACAD_REACTORS
330
302
102
}
100
AcDbEntity
  8
LC-002-002-----0
370
    50
390
0
 62
     1
100
AcDbLine
 10
306.365533
 20
420.414322
 30
0.0
 11
313.749158
 21
455.052005
 31
0.0
  0
LINE
  5
2D9
102
{ACAD_REACTORS
330
302
102
}
100
AcDbEntity
  8
LC-002-002-----0
370
    50
390
0
 62
     1
100
AcDbLine
 10
323.251642
 20
420.414322
 30
0.0
 11
327.073687
 21
455.052005
 31
0.0
  0
LINE
  5
2DA
102
{ACAD_REACTORS
330
302
102
}
100
AcDbEntity
  8
LC-002-002-----0
370
    50
390
0
 62
     1
100
AcDbLine
 10
325.473272
 20
420.414322
 30
0.0
 11
329.295316
 21
455.052005
 31
0.0
  0
LINE
  5
2DB
102
{ACAD_REACTORS
330
302
102
}
100
AcDbEntity
  8
LC-002-002-----0
370
    50
390
0
 62
     1
100
AcDbLine
 10
280.985104
 20
420.414322
 30
0.0
 11
293.773922
 21
455.052005
 31
0.0
  0
LINE
  5
2DC
102
{ACAD_REACTORS
330
302
102
}
100
AcDbEntity
  8
LC-002-002-----0
370
    50
390
0
 62
     1
100
AcDbLine
 10
290.404474
 20
459.714322
 30
0.0
 11
299.011263
 21
480.614328
 31
0.0
  0
LINE
  5
2DD
102
{ACAD_REACTORS
330
302
102
}
100
AcDbEntity
  8
LC-002-002-----0
370
    50
390
0
 62
     1
100
AcDbLine
 10
293.575549
 20
420.414322
 30
0.0
 11
304.0358
 21
455.052005
 31
0.0
  0
LINE
  5
2DE
102
{ACAD_REACTORS
330
302
102
}
100
AcDbEntity
  8
LC-002-002-----0
370
    50
390
0
 62
     1
100
AcDbLine
 10
291.949204
 20
420.414322
 30
0.0
 11
302.391228
 21
455.052005
 31
0.0
  0
LINE
  5
2DF
102
{ACAD_REACTORS
330
302
102
}
100
AcDbEntity
  8
LC-002-002-----0
370
    50
390
0
 62
     1
100
AcDbLine
 10
295.495329
 20
459.714322
 30
0.0
 11
303.211966
 21
480.614334
 31
0.0
  0
LINE
  5
2E0
102
{ACAD_REACTORS
330
302
102
}
100
AcDbEntity
  8
LC-002-002-----0
370
    50
390
0
 62
     1
100
AcDbLine
 10
296.645328
 20
459.714322
 30
0.0
 11
304.361966
 21
480.614335
 31
0.0
  0
LINE
  5
2E1
102
{ACAD_REACTORS
330
302
102
}
100
AcDbEntity
  8
LC-002-002-----0
370
    50
390
0
 62
     1
100
AcDbLine
 10
274.815704
 20
420.414322
 30
0.0
 11
289.079778
 21
455.052005
 31
0.0
  0
LINE
  5
2E2
102
{ACAD_REACTORS
330
302
102
}
100
AcDbEntity
  8
LC-002-002-----0
370
    50
390
0
 62
     1
100
AcDbLine
 10
274.22042
 20
420.414322
 30
0.0
 11
288.484494
 21
455.052005
 31
0.0
  0
LINE
  5
2E3
102
{ACAD_REACTORS
330
302
102
}
100
AcDbEntity
  8
LC-002-002-----0
370
    50
390
0
 62
     1
100
AcDbLine
 10
303.79675
 20
459.714322
 30
0.0
 11
310.09736
 21
480.614343
 31
0.0
  0
LINE
  5
2E4
102
{ACAD_REACTORS
330
302
102
}
100
AcDbEntity
  8
LC-002-002-----0
370
    50
390
0
 62
     1
100
AcDbLine
 10
305.443775
 20
459.714322
 30
0.0
 11
311.755384
 21
480.614345
 31
0.0
  0
LINE
  5
2E5
102
{ACAD_REACTORS
330
302
102
}
100
AcDbEntity
  8
LC-002-002-----0
370
    50
390
0
 62
     1
100
AcDbLine
 10
314.743012
 20
459.714322
 30
0.0
 11
319.198217
 21
480.614356
 31
0.0
  0
LINE
  5
2E6
102
{ACAD_REACTORS
330
302
102
}
100
AcDbEntity
  8
LC-002-002-----0
370
    50
390
0
 62
     1
100
AcDbLine
 10
316.73487
 20
459.714322
 30
0.0
 11
321.190076
 21
480.614358
 31
0.0
  0
LINE
  5
2E7
102
{ACAD_REACTORS
330
302
102
}
100
AcDbEntity
  8
LC-002-002-----0
370
    50
390
0
 62
     1
100
AcDbLine
 10
327.588143
 20
459.714322
 30
0.0
 11
329.894329
 21
480.61437
 31
0.0
  0
LINE
  5
2E8
102
{ACAD_REACTORS
330
302
102
}
100
AcDbEntity
  8
LC-002-002-----0
370
    50
390
0
 62
     1
100
AcDbLine
 10
329.809773
 20
459.714322
 30
0.0
 11
332.115958
 21
480.614373
 31
0.0
  0
LINE
  5
2E9
102
{ACAD_REACTORS
330
302
102
}
100
AcDbEntity
  8
LC-002-002-----0
370
    50
390
0
 62
     1
100
AcDbLine
 10
359.739751
 20
420.414369
 30
0.0
 11
355.917612
 21
455.052041
 31
0.0
  0
LINE
  5
2EA
102
{ACAD_REACTORS
330
302
102
}
100
AcDbEntity
  8
LC-002-002-----0
370
    50
390
0
 62
     1
100
AcDbLine
 10
361.96138
 20
420.414376
 30
0.0
 11
358.139241
 21
455.052047
 31
0.0
  0
LINE
  5
2EB
102
{ACAD_REACTORS
330
302
102
}
100
AcDbEntity
  8
LC-002-002-----0
370
    50
390
0
 62
     1
100
AcDbLine
 10
355.403142
 20
459.714358
 30
0.0
 11
353.096899
 21
480.614402
 31
0.0
  0
LINE
  5
2EC
102
{ACAD_REACTORS
330
302
102
}
100
AcDbEntity
  8
LC-002-002-----0
370
    50
390
0
 62
     1
100
AcDbLine
 10
357.624771
 20
459.714364
 30
0.0
 11
355.318529
 21
480.614405
 31
0.0
  0
LINE
  5
2ED
102
{ACAD_REACTORS
330
302
102
}
100
AcDbEntity
  8
LC-002-002-----0
370
    50
390
0
 62
     1
100
AcDbLine
 10
368.478045
 20
459.714393
 30
0.0
 11
364.022782
 21
480.614417
 31
0.0
  0
LINE
  5
2EE
102
{ACAD_REACTORS
330
302
102
}
100
AcDbEntity
  8
LC-002-002-----0
370
    50
390
0
 62
     1
100
AcDbLine
 10
370.469903
 20
459.714399
 30
0.0
 11
366.01464
 21
480.61442
 31
0.0
  0
LINE
  5
2EF
102
{ACAD_REACTORS
330
302
102
}
100
AcDbEntity
  8
LC-002-002-----0
370
    50
390
0
 62
     1
100
AcDbLine
 10
379.769139
 20
459.714424
 30
0.0
 11
373.457474
 21
480.61443
 31
0.0
  0
LINE
  5
2F0
102
{ACAD_REACTORS
330
302
102
}
100
AcDbEntity
  8
LC-002-002-----0
370
    50
390
0
 62
     1
100
AcDbLine
 10
381.416164
 20
459.714429
 30
0.0
 11
375.115497
 21
480.614432
 31
0.0
  0
LINE
  5
2F1
102
{ACAD_REACTORS
330
302
102
}
100
AcDbEntity
  8
LC-002-002-----0
370
    50
390
0
 62
     1
100
AcDbLine
 10
378.84749
 20
420.414422
 30
0.0
 11
371.46377
 21
455.052084
 31
0.0
  0
LINE
  5
2F2
102
{ACAD_REACTORS
330
302
102
}
100
AcDbEntity
  8
LC-002-002-----0
370
    50
390
0
 62
     1
100
AcDbLine
 10
376.855631
 20
420.414416
 30
0.0
 11
369.471912
 21
455.052079
 31
0.0
  0
LINE
  5
2F3
102
{ACAD_REACTORS
330
302
102
}
100
AcDbEntity
  8
LC-002-002-----0
370
    50
390
0
 62
     1
100
AcDbLine
 10
391.637473
 20
420.414457
 30
0.0
 11
381.177128
 21
455.052111
 31
0.0
  0
LINE
  5
2F4
102
{ACAD_REACTORS
330
302
102
}
100
AcDbEntity
  8
LC-002-002-----0
370
    50
390
0
 62
     1
100
AcDbLine
 10
393.263819
 20
420.414461
 30
0.0
 11
382.821699
 21
455.052115
 31
0.0
  0
LINE
  5
2F5
102
{ACAD_REACTORS
330
302
102
}
100
AcDbEntity
  8
LC-002-002-----0
370
    50
390
0
 62
     1
100
AcDbLine
 10
403.077918
 20
420.414488
 30
0.0
 11
390.289006
 21
455.052136
 31
0.0
  0
LINE
  5
2F6
102
{ACAD_REACTORS
330
302
102
}
100
AcDbEntity
  8
LC-002-002-----0
370
    50
390
0
 62
     1
100
AcDbLine
 10
404.227918
 20
420.414492
 30
0.0
 11
391.439005
 21
455.052139
 31
0.0
  0
LINE
  5
2F7
102
{ACAD_REACTORS
330
302
102
}
100
AcDbEntity
  8
LC-002-002-----0
370
    50
390
0
 62
     1
100
AcDbLine
 10
388.567587
 20
459.714449
 30
0.0
 11
380.850891
 21
480.61444
 31
0.0
  0
LINE
  5
2F8
102
{ACAD_REACTORS
330
302
102
}
100
AcDbEntity
  8
LC-002-002-----0
370
    50
390
0
 62
     1
100
AcDbLine
 10
389.717586
 20
459.714452
 30
0.0
 11
382.000891
 21
480.614442
 31
0.0
  0
LINE
  5
2F9
102
{ACAD_REACTORS
330
302
102
}
100
AcDbEntity
  8
LC-002-002-----0
370
    50
390
0
 62
     1
100
AcDbLine
 10
394.213158
 20
459.714464
 30
0.0
 11
385.606311
 21
480.614447
 31
0.0
  0
LINE
  5
2FA
102
{ACAD_REACTORS
330
302
102
}
100
AcDbEntity
  8
LC-002-002-----0
370
    50
390
0
 62
     1
100
AcDbLine
 10
394.213158
 20
459.714464
 30
0.0
 11
385.606311
 21
480.614447
 31
0.0
  0
LINE
  5
2FB
102
{ACAD_REACTORS
330
302
102
}
100
AcDbEntity
  8
LC-002-002-----0
370
    50
390
0
 62
     1
100
AcDbLine
 10
394.808441
 20
459.714466
 30
0.0
 11
386.201595
 21
480.614448
 31
0.0
  0
LINE
  5
2FC
102
{ACAD_REACTORS
330
302
102
}
100
AcDbEntity
  8
LC-002-002-----0
370
    50
390
0
 62
     1
100
AcDbLine
 10
410.397319
 20
420.414508
 30
0.0
 11
396.13315
 21
455.052152
 31
0.0
  0
LINE
  5
2FD
102
{ACAD_REACTORS
330
302
102
}
100
AcDbEntity
  8
LC-002-002-----0
370
    50
390
0
 62
     1
100
AcDbLine
 10
410.992603
 20
420.41451
 30
0.0
 11
396.728434
 21
455.052153
 31
0.0
  0
LINE
  5
2FE
100
AcDbEntity
  8
LC-002-002-----0
370
    50
390
0
 62
     1
100
AcDbLine
 10
328.806093
 20
403.714322
 30
0.0
 11
271.606356
 21
403.714322
 31
0.0
  0
ENDSEC
  0
SECTION
  2
OBJECTS
  0
DICTIONARY
  5
19
100
AcDbDictionary
280
     0
281
     1
  3
ACAD_GROUP
350
1A
  3
ACAD_MLINESTYLE
350
1B
  3
ACAD_LAYOUT
350
1E
  3
ACAD_PLOTSETTINGS
350
22
  3
ACAD_PLOTSTYLENAME
350
1F
  0
DICTIONARY
  5
1A
102
{ACAD_REACTORS
330
19
102
}
100
AcDbDictionary
280
     0
281
     1
  3
Gehõuse
350
300
  3
deckel
350
301
  3
Laubfang
350
302
  0
DICTIONARY
  5
1B
102
{ACAD_REACTORS
330
19
102
}
100
AcDbDictionary
280
     0
281
     1
  3
Standard
350
1C
  0
MLINESTYLE
  5
1C
102
{ACAD_REACTORS
330
1B
102
}
100
AcDbMlineStyle
  2
Standard
 70
     0
  3

 62
     0
 51
90.0
 52
90.0
 71
     2
 49
0.5
 62
   256
  6
ByLayer
 49
-0.5
 62
   256
  6
ByLayer
  0
ACDBDICTIONARYWDFLT
  5
1F
102
{ACAD_REACTORS
330
19
102
}
100
AcDbDictionary
281
     1
  3
Normal
350
1D
100
AcDbDictionaryWithDefault
340
1D
  0
ACDBPLACEHOLDER
  5
1D
102
{ACAD_REACTORS
330
1F
102
}
  0
LAYOUT
  5
20
102
{ACAD_REACTORS
330
1E
102
}
100
AcDbPlotSettings
  1

  2

  4

  6

 40
0.0
 41
0.0
 42
0.0
 43
0.0
 44
0.0
 45
0.0
 46
0.0
 47
0.0
 48
0.0
 49
0.0
140
0.0
141
0.0
142
1.0
143
1.0
 70
  1152
 72
     0
 73
     0
 74
     0
  7

 75
     0
147
1.0
148
0.0
149
0.0
100
AcDbLayout
  1
Model
 70
     0
 71
     0
 10
0.0
 20
0.0
 11
0.0
 21
0.0
 12
0.0
 22
0.0
 32
0.0
 14
0.0
 24
0.0
 34
0.0
 15
0.0
 25
0.0
 35
0.0
146
0.0
 13
0.0
 23
0.0
 33
0.0
 16
0.0
 26
0.0
 36
0.0
 17
0.0
 27
0.0
 37
0.0
 76
     0
330
A
331
0
345
0
346
0
  0
LAYOUT
  5
21
102
{ACAD_REACTORS
330
1E
102
}
100
AcDbPlotSettings
  1

  2

  4

  6

 40
0.0
 41
0.0
 42
0.0
 43
0.0
 44
0.0
 45
0.0
 46
0.0
 47
0.0
 48
0.0
 49
0.0
140
0.0
141
0.0
142
1.0
143
1.0
 70
   128
 72
     0
 73
     0
 74
     0
  7

 75
     0
147
1.0
148
0.0
149
0.0
100
AcDbLayout
  1
Layout1
 70
     0
 71
     0
 10
0.0
 20
0.0
 11
0.0
 21
0.0
 12
0.0
 22
0.0
 32
0.0
 14
0.0
 24
0.0
 34
0.0
 15
0.0
 25
0.0
 35
0.0
146
0.0
 13
0.0
 23
0.0
 33
0.0
 16
0.0
 26
0.0
 36
0.0
 17
0.0
 27
0.0
 37
0.0
 76
     0
330
B
331
0
345
0
346
0
  0
DICTIONARY
  5
1E
102
{ACAD_REACTORS
330
19
102
}
100
AcDbDictionary
280
     0
281
     1
  3
Layout1
350
21
  3
Model
350
20
  0
DICTIONARY
  5
22
102
{ACAD_REACTORS
330
19
102
}
100
AcDbDictionary
280
     0
281
     1
  0
GROUP
  5
300
102
{ACAD_REACTORS
330
1A
102
}
100
AcDbGroup
300
Gehõuse
 70
     0
 71
     1
340
2B
340
2C
340
2D
340
2E
340
2F
340
30
340
31
340
32
340
35
340
36
340
37
340
38
340
39
340
3A
340
3B
340
3C
340
3D
340
3E
340
3F
340
40
340
43
340
44
340
45
340
46
340
47
340
48
340
49
340
4A
340
4B
340
4C
340
4D
340
4E
340
4F
340
50
340
51
340
52
340
53
340
54
340
55
340
56
340
57
340
58
340
59
340
5A
340
5B
340
5C
340
5D
340
5E
340
5F
340
60
340
61
340
62
340
63
340
64
340
65
340
66
340
67
340
68
340
69
340
6A
340
6B
340
6C
340
6D
340
6E
340
70
340
71
340
72
340
73
340
74
340
75
340
76
340
77
340
78
340
79
340
7A
340
7B
340
7C
340
7D
340
7E
340
7F
340
80
340
81
340
82
340
83
340
84
340
85
340
86
340
87
340
88
340
89
340
8A
340
96
340
A1
340
A2
340
A3
340
A4
340
A5
340
152
  0
GROUP
  5
301
102
{ACAD_REACTORS
330
1A
102
}
100
AcDbGroup
300
deckel
 70
     0
 71
     1
340
112
340
113
340
115
340
116
340
117
340
118
340
119
340
11A
340
11B
340
11C
340
11D
340
11E
340
11F
340
120
340
121
340
122
340
123
340
124
340
125
340
134
340
135
340
146
340
147
340
148
340
149
340
14A
340
14B
340
14C
340
14D
340
14E
340
14F
340
150
340
151
  0
GROUP
  5
302
102
{ACAD_REACTORS
330
1A
102
}
100
AcDbGroup
300
Laubfang
 70
     0
 71
     1
340
263
340
264
340
265
340
266
340
267
340
268
340
269
340
26A
340
26B
340
26C
340
26D
340
26E
340
26F
340
271
340
272
340
281
340
282
340
283
340
284
340
285
340
286
340
287
340
288
340
289
340
28A
340
28B
340
28C
340
28D
340
28E
340
28F
340
290
340
291
340
292
340
293
340
294
340
295
340
296
340
297
340
298
340
299
340
29A
340
29B
340
29C
340
29D
340
29E
340
29F
340
2A7
340
2B0
340
2B1
340
2B2
340
2C2
340
2C3
340
2C4
340
2C5
340
2C6
340
2C7
340
2C8
340
2C9
340
2CA
340
2CB
340
2CC
340
2CD
340
2CE
340
2CF
340
2D0
340
2D1
340
2D2
340
2D3
340
2D4
340
2D5
340
2D6
340
2D7
340
2D8
340
2D9
340
2DA
340
2DB
340
2DC
340
2DD
340
2DE
340
2DF
340
2E0
340
2E1
340
2E2
340
2E3
340
2E4
340
2E5
340
2E6
340
2E7
340
2E8
340
2E9
340
2EA
340
2EB
340
2EC
340
2ED
340
2EE
340
2EF
340
2F0
340
2F1
340
2F2
340
2F3
340
2F4
340
2F5
340
2F6
340
2F7
340
2F8
340
2F9
340
2FA
340
2FB
340
2FC
340
2FD
  0
ENDSEC
  0
EOF
