  0
SECTION
  2
HEADER
  9
$ACADVER
  1
AC1009
  9
$INSBASE
 10
0.0
 20
0.0
 30
0.0
  9
$EXTMIN
 10
-210.0
 20
-148.5
 30
0.0
  9
$EXTMAX
 10
630.0
 20
445.5
 30
0.0
  9
$LIMMIN
 10
-210.0
 20
-148.5
  9
$LIMMAX
 10
630.0
 20
445.5
  9
$ORTHOMODE
 70
     0
  9
$REGENMODE
 70
     1
  9
$FILLMODE
 70
     1
  9
$QTEXTMODE
 70
     0
  9
$MIRRTEXT
 70
     1
  9
$DRAGMODE
 70
     2
  9
$LTSCALE
 40
2.0
  9
$OSMODE
 70
     0
  9
$ATTMODE
 70
     1
  9
$TEXTSIZE
 40
0.2
  9
$TRACEWID
 40
0.05
  9
$TEXTSTYLE
  7
STANDARD
  9
$CLAYER
  8
0
  9
$CELTYPE
  6
BYLAYER
  9
$CECOLOR
 62
     7
  9
$DIMSCALE
 40
2.0
  9
$DIMASZ
 40
3.5
  9
$DIMEXO
 40
0.0625
  9
$DIMDLI
 40
0.38
  9
$DIMRND
 40
0.0
  9
$DIMDLE
 40
0.0
  9
$DIMEXE
 40
0.18
  9
$DIMTP
 40
0.0
  9
$DIMTM
 40
0.0
  9
$DIMTXT
 40
3.5
  9
$DIMCEN
 40
0.09
  9
$DIMTSZ
 40
0.0
  9
$DIMTOL
 70
     0
  9
$DIMLIM
 70
     0
  9
$DIMTIH
 70
     1
  9
$DIMTOH
 70
     1
  9
$DIMSE1
 70
     0
  9
$DIMSE2
 70
     0
  9
$DIMTAD
 70
     1
  9
$DIMZIN
 70
     0
  9
$DIMBLK
  1

  9
$DIMASO
 70
     1
  9
$DIMSHO
 70
     1
  9
$DIMPOST
  1

  9
$DIMAPOST
  1

  9
$DIMALT
 70
     0
  9
$DIMALTD
 70
     2
  9
$DIMALTF
 40
25.4
  9
$DIMLFAC
 40
1.0
  9
$DIMTOFL
 70
     0
  9
$DIMTVP
 40
0.0
  9
$DIMTIX
 70
     0
  9
$DIMSOXD
 70
     0
  9
$DIMSAH
 70
     0
  9
$DIMBLK1
  1

  9
$DIMBLK2
  1

  9
$DIMSTYLE
  2
STANDARD
  9
$DIMCLRD
 70
     0
  9
$DIMCLRE
 70
     0
  9
$DIMCLRT
 70
     0
  9
$DIMTFAC
 40
1.0
  9
$DIMGAP
 40
0.09
  9
$LUNITS
 70
     2
  9
$LUPREC
 70
     2
  9
$AXISMODE
 70
     0
  9
$AXISUNIT
 10
0.0
 20
0.0
  9
$SKETCHINC
 40
0.1
  9
$FILLETRAD
 40
0.0
  9
$AUNITS
 70
     0
  9
$AUPREC
 70
     0
  9
$MENU
  1
acad
  9
$ELEVATION
 40
0.0
  9
$PELEVATION
 40
0.0
  9
$THICKNESS
 40
0.0
  9
$LIMCHECK
 70
     0
  9
$BLIPMODE
 70
     1
  9
$CHAMFERA
 40
0.0
  9
$CHAMFERB
 40
0.0
  9
$SKPOLY
 70
     0
  9
$TDCREATE
 40
0.000000000
  9
$TDUPDATE
 40
0.000000000
  9
$TDINDWG
 40
0.0000000000
  9
$TDUSRTIMER
 40
0.0000000000
  9
$USRTIMER
 70
     1
  9
$ANGBASE
 50
0.0
  9
$ANGDIR
 70
     0
  9
$PDMODE
 70
     0
  9
$PDSIZE
 40
0.0
  9
$PLINEWID
 40
0.0
  9
$COORDS
 70
     0
  9
$SPLFRAME
 70
     0
  9
$SPLINETYPE
 70
     6
  9
$SPLINESEGS
 70
     8
  9
$ATTDIA
 70
     0
  9
$ATTREQ
 70
     1
  9
$HANDLING
 70
     1
  9
$HANDSEED
  5
57D
  9
$SURFTAB1
 70
     6
  9
$SURFTAB2
 70
     6
  9
$SURFTYPE
 70
     6
  9
$SURFU
 70
     6
  9
$SURFV
 70
     6
  9
$UCSNAME
  2

  9
$UCSORG
 10
0.0
 20
0.0
 30
0.0
  9
$UCSXDIR
 10
1.0
 20
0.0
 30
0.0
  9
$UCSYDIR
 10
0.0
 20
1.0
 30
0.0
  9
$PUCSNAME
  2

  9
$PUCSORG
 10
0.0
 20
0.0
 30
0.0
  9
$PUCSXDIR
 10
1.0
 20
0.0
 30
0.0
  9
$PUCSYDIR
 10
0.0
 20
1.0
 30
0.0
  9
$USERI1
 70
     0
  9
$USERI2
 70
     0
  9
$USERI3
 70
     0
  9
$USERI4
 70
     0
  9
$USERI5
 70
     0
  9
$USERR1
 40
0.0
  9
$USERR2
 40
0.0
  9
$USERR3
 40
0.0
  9
$USERR4
 40
0.0
  9
$USERR5
 40
0.0
  9
$WORLDVIEW
 70
     1
  9
$SHADEDGE
 70
     3
  9
$SHADEDIF
 70
    70
  9
$TILEMODE
 70
     1
  9
$MAXACTVP
 70
    16
  9
$PINSBASE
 10
0.0
 20
0.0
 30
0.0
  9
$PLIMCHECK
 70
     0
  9
$PEXTMIN
 10
1.000000E+20
 20
1.000000E+20
 30
1.000000E+20
  9
$PEXTMAX
 10
-1.000000E+20
 20
-1.000000E+20
 30
-1.000000E+20
  9
$PLIMMIN
 10
-210.0
 20
-148.5
  9
$PLIMMAX
 10
630.0
 20
445.5
  9
$UNITMODE
 70
     0
  9
$VISRETAIN
 70
     0
  9
$PLINEGEN
 70
     1
  9
$PSLTSCALE
 70
     0
  9
$TREEDEPTH
 70
  3020
  9
$DWGCODEPAGE
  3
dos850
  0
ENDSEC
  0
SECTION
  2
TABLES
  0
TABLE
  2
VPORT
 70
     1
  0
VPORT
  2
*ACTIVE
 70
     0
 10
0.0
 20
0.0
 11
1.0
 21
1.0
 12
420.0
 22
297.0
 13
0.0
 23
0.0
 14
1.0
 24
1.0
 15
0.0
 25
0.0
 16
0.0
 26
0.0
 36
1.0
 17
-210.0
 27
-148.5
 37
0.0
 40
594.0
 41
1.604229
 42
50.0
 43
0.0
 44
0.0
 50
0.0
 51
0.0
 71
     0
 72
   100
 73
     1
 74
     1
 75
     0
 76
     0
 77
     0
 78
     0
  0
ENDTAB
  0
TABLE
  2
LTYPE
 70
     4
  0
LTYPE
  2
CONTINUOUS
 70
    64
  3
Solid line
 72
    65
 73
     0
 40
0.0
  0
LTYPE
  2
DASHED
 70
    64
  3
__ __ __ __ __
 72
    65
 73
     2
 40
6.25
 49
5.0
 49
-1.25
  0
LTYPE
  2
DASHDOT
 70
    64
  3
__ . __ . __ . __ . __
 72
    65
 73
     4
 40
7.5
 49
5.0
 49
-1.25
 49
0.0
 49
-1.25
  0
LTYPE
  2
CENTER
 70
    64
  3
__ . __ . __ . __ . __
 72
    65
 73
     4
 40
7.5
 49
5.0
 49
-1.25
 49
0.0
 49
-1.25
  0
ENDTAB
  0
TABLE
  2
LAYER
 70
    13
  0
LAYER
  2
0
 70
     0
 62
     7
  6
CONTINUOUS
  0
LAYER
  2
LC-INFO-1-2-MM-A3-0
 70
     1
 62
    -1
  6
CONTINUOUS
  0
LAYER
  2
LC-004-005-----0
 70
     0
 62
     2
  6
CONTINUOUS
  0
LAYER
  2
LC-001-002-----0
 70
     0
 62
     1
  6
CONTINUOUS
  0
LAYER
  2
LC-009-003-MTH-0
 70
     0
 62
     2
  6
CONTINUOUS
  0
LAYER
  2
LC-010-003-MTG-0
 70
     0
 62
     2
  6
CONTINUOUS
  0
LAYER
  2
LC-008-003-----0
 70
     0
 62
     2
  6
CONTINUOUS
  0
LAYER
  2
LC-003-000-----0
 70
     0
 62
     7
  6
CONTINUOUS
  0
LAYER
  2
LC-002-002-RND-0
 70
     0
 62
     1
  6
CONTINUOUS
  0
LAYER
  2
LC-005-002-___-0
 70
     0
 62
     2
  6
DASHED
  0
LAYER
  2
LC-006-006-MLN-0
 70
     0
 62
     2
  6
CENTER
  0
LAYER
  2
LC-007-007-KH--0
 70
     0
 62
     7
  6
DASHDOT
  0
LAYER
  2
LC-000
 70
     0
 62
     7
  6
CONTINUOUS
  0
ENDTAB
  0
TABLE
  2
STYLE
 70
     3
  0
STYLE
  2
STANDARD
 70
     0
 40
0.0
 41
1.0
 50
0.0
 71
     0
 42
0.0
  3
txt
  4

  0
STYLE
  2
LC-TXTSTYLE-150-400-0-0-A1
 70
    64
 40
0.0
 41
1.0
 50
15.0
 71
     0
 42
3.5
  3
Arial
  4

  0
STYLE
  2
LC-STANDARD
 70
    64
 40
0.0
 41
1.0
 50
0.0
 71
     0
 42
3.5
  3
MONOTXT
  4

  0
ENDTAB
  0
TABLE
  2
VIEW
 70
     0
  0
ENDTAB
  0
TABLE
  2
UCS
 70
     0
  0
ENDTAB
  0
TABLE
  2
APPID
 70
     1
  0
APPID
  2
ACAD
 70
     0
  0
ENDTAB
  0
TABLE
  2
DIMSTYLE
 70
     3
  0
DIMSTYLE
  2
STANDARD
 70
     0
  3

  4

  5

  6

  7

 40
1.0
 41
0.18
 42
0.0625
 43
0.38
 44
0.18
 45
0.0
 46
0.0
 47
0.0
 48
0.0
 71
     0
 72
     0
 73
     1
 74
     1
 75
     0
 76
     0
 77
     0
 78
     0
140
0.18
141
0.09
142
0.0
143
25.4
144
1.0
145
0.0
146
1.0
147
0.09
170
     0
171
     2
172
     0
173
     0
174
     0
175
     0
176
     0
177
     0
178
     0
  0
DIMSTYLE
  2
LC-STANDARD
 70
     0
  3

  4

  5

  6

  7

 40
1.0
 41
3.5
 42
0.0
 43
7.5
 44
1.8
 45
0.0
 46
0.0
 47
0.0
 48
0.0
 71
     0
 72
     0
 73
     0
 74
     0
 75
     0
 76
     0
 77
     1
 78
     8
140
3.5
141
0.0
142
0.0
143
25.4
144
1.0
145
0.0
146
0.71
147
1.5
170
     0
171
     2
172
     1
173
     0
174
     0
175
     0
176
     0
177
     0
178
     3
  0
DIMSTYLE
  2
LC-DIM-L-0140-02-02
 70
     0
  3

  4

  5

  6

  7

 40
2.0
 41
3.5
 42
0.0
 43
7.5
 44
1.8
 45
0.0
 46
0.0
 47
0.0
 48
0.0
 71
     0
 72
     0
 73
     0
 74
     0
 75
     0
 76
     0
 77
     1
 78
     8
140
14.0
141
0.0
142
0.0
143
25.4
144
1.0
145
0.0
146
0.71
147
1.5
170
     0
171
     2
172
     0
173
     0
174
     0
175
     0
176
     2
177
     2
178
     8
  0
ENDTAB
  0
ENDSEC
  0
SECTION
  2
BLOCKS
  0
BLOCK
  8
0
  5
23
  2
BLK1
 70
    64
 10
0.0
 20
0.0
 30
0.0
  3
BLK1
  0
ENDBLK
  8
0
  5
24
  0
BLOCK
  8
0
  5
26
  2
BLK2
 70
    64
 10
0.0
 20
0.0
 30
0.0
  3
BLK2
  0
ENDBLK
  8
0
  5
27
  0
BLOCK
  8
0
  5
29
  2
*X2
 70
    65
 10
-60.833632
 20
208.655789
 30
0.0
  3
*X2
  0
LINE
  8
LC-004-005-----0
  6
CONTINUOUS
  5
2B
 10
-57.216361
 20
208.655789
 30
0.0
 11
-56.433632
 21
209.438518
 31
0.0
  0
LINE
  8
LC-004-005-----0
  6
CONTINUOUS
  5
2C
 10
-60.026093
 20
208.674484
 30
0.0
 11
-56.433635
 21
212.266941
 31
0.0
  0
LINE
  8
LC-004-005-----0
  6
CONTINUOUS
  5
2D
 10
-59.333635
 20
212.195369
 30
0.0
 11
-56.433639
 21
215.095365
 31
0.0
  0
LINE
  8
LC-004-005-----0
  6
CONTINUOUS
  5
2E
 10
-59.333639
 20
215.023792
 30
0.0
 11
-56.433643
 21
217.923788
 31
0.0
  0
LINE
  8
LC-004-005-----0
  6
CONTINUOUS
  5
2F
 10
-59.333643
 20
217.852215
 30
0.0
 11
-56.433647
 21
220.752211
 31
0.0
  0
LINE
  8
LC-004-005-----0
  6
CONTINUOUS
  5
30
 10
-59.333647
 20
220.680638
 30
0.0
 11
-56.433651
 21
223.580634
 31
0.0
  0
LINE
  8
LC-004-005-----0
  6
CONTINUOUS
  5
31
 10
-59.333651
 20
223.509062
 30
0.0
 11
-56.433655
 21
226.409058
 31
0.0
  0
LINE
  8
LC-004-005-----0
  6
CONTINUOUS
  5
32
 10
-59.333655
 20
226.337485
 30
0.0
 11
-56.433659
 21
229.237481
 31
0.0
  0
LINE
  8
LC-004-005-----0
  6
CONTINUOUS
  5
33
 10
-59.333659
 20
229.165908
 30
0.0
 11
-55.933663
 21
232.565903
 31
0.0
  0
LINE
  8
LC-004-005-----0
  6
CONTINUOUS
  5
34
 10
-59.333663
 20
231.994331
 30
0.0
 11
-55.933667
 21
235.394327
 31
0.0
  0
LINE
  8
LC-004-005-----0
  6
CONTINUOUS
  5
35
 10
-59.333666
 20
234.822755
 30
0.0
 11
-56.500632
 21
237.655789
 31
0.0
  0
LINE
  8
LC-004-005-----0
  6
CONTINUOUS
  5
36
 10
-59.33367
 20
237.651178
 30
0.0
 11
-59.32906
 21
237.655789
 31
0.0
  0
ENDBLK
  8
0
  5
37
  0
BLOCK
  8
0
  5
39
  2
*X3
 70
    65
 10
85.065804
 20
208.655983
 30
0.0
  3
*X3
  0
LINE
  8
LC-004-005-----0
  6
CONTINUOUS
  5
3A
 10
87.033621
 20
208.655987
 30
0.0
 11
89.03147
 21
210.653837
 31
0.0
  0
LINE
  8
LC-004-005-----0
  6
CONTINUOUS
  5
3B
 10
85.565841
 20
210.016635
 30
0.0
 11
88.465837
 21
212.916631
 31
0.0
  0
LINE
  8
LC-004-005-----0
  6
CONTINUOUS
  5
3C
 10
85.565838
 20
212.845058
 30
0.0
 11
88.465834
 21
215.745054
 31
0.0
  0
LINE
  8
LC-004-005-----0
  6
CONTINUOUS
  5
3D
 10
85.565834
 20
215.673481
 30
0.0
 11
88.46583
 21
218.573477
 31
0.0
  0
LINE
  8
LC-004-005-----0
  6
CONTINUOUS
  5
3E
 10
85.56583
 20
218.501905
 30
0.0
 11
88.465826
 21
221.401901
 31
0.0
  0
LINE
  8
LC-004-005-----0
  6
CONTINUOUS
  5
3F
 10
85.565826
 20
221.330328
 30
0.0
 11
88.465822
 21
224.230324
 31
0.0
  0
LINE
  8
LC-004-005-----0
  6
CONTINUOUS
  5
40
 10
85.565822
 20
224.158751
 30
0.0
 11
88.465818
 21
227.058747
 31
0.0
  0
LINE
  8
LC-004-005-----0
  6
CONTINUOUS
  5
41
 10
85.565818
 20
226.987174
 30
0.0
 11
88.465814
 21
229.88717
 31
0.0
  0
LINE
  8
LC-004-005-----0
  6
CONTINUOUS
  5
42
 10
85.565814
 20
229.815598
 30
0.0
 11
88.46581
 21
232.715594
 31
0.0
  0
LINE
  8
LC-004-005-----0
  6
CONTINUOUS
  5
43
 10
85.065811
 20
232.144022
 30
0.0
 11
88.465806
 21
235.544017
 31
0.0
  0
LINE
  8
LC-004-005-----0
  6
CONTINUOUS
  5
44
 10
85.065807
 20
234.972445
 30
0.0
 11
87.749352
 21
237.655989
 31
0.0
  0
ENDBLK
  8
0
  5
45
  0
BLOCK
  8
0
  5
47
  2
*X4
 70
    65
 10
-43.326585
 20
272.293471
 30
0.0
  3
*X4
  0
LINE
  8
LC-004-005-----0
  6
CONTINUOUS
  5
48
 10
-42.660607
 20
274.123231
 30
0.0
 11
-41.62964
 21
275.154198
 31
0.0
  0
LINE
  8
LC-004-005-----0
  6
CONTINUOUS
  5
49
 10
-28.031703
 20
308.551125
 30
0.0
 11
-27.868679
 21
308.714149
 31
0.0
  0
LINE
  8
LC-004-005-----0
  6
CONTINUOUS
  5
4A
 10
-29.711989
 20
309.699266
 30
0.0
 11
-26.755458
 21
312.655797
 31
0.0
  0
ENDBLK
  8
0
  5
4B
  0
BLOCK
  8
0
  5
4D
  2
BLK3
 70
    64
 10
0.0
 20
0.0
 30
0.0
  3
BLK3
  0
ENDBLK
  8
0
  5
4E
  0
BLOCK
  8
0
  5
50
  2
*X6
 70
    65
 10
112.05997
 20
236.684462
 30
0.0
  3
*X6
  0
LINE
  8
LC-004-005-----0
  6
CONTINUOUS
  5
51
 10
139.025411
 20
242.81225
 30
0.0
 11
138.939319
 21
242.898343
 31
0.0
  0
LINE
  8
LC-004-005-----0
  6
CONTINUOUS
  5
52
 10
137.688808
 20
241.320426
 30
0.0
 11
136.935161
 21
242.074074
 31
0.0
  0
LINE
  8
LC-004-005-----0
  6
CONTINUOUS
  5
53
 10
135.462116
 20
240.718692
 30
0.0
 11
134.61899
 21
241.561818
 31
0.0
  0
LINE
  8
LC-004-005-----0
  6
CONTINUOUS
  5
54
 10
133.12951
 20
240.22287
 30
0.0
 11
132.286384
 21
241.065996
 31
0.0
  0
LINE
  8
LC-004-005-----0
  6
CONTINUOUS
  5
55
 10
130.796904
 20
239.727049
 30
0.0
 11
129.953778
 21
240.570175
 31
0.0
  0
LINE
  8
LC-004-005-----0
  6
CONTINUOUS
  5
56
 10
128.464298
 20
239.231228
 30
0.0
 11
127.621172
 21
240.074354
 31
0.0
  0
LINE
  8
LC-004-005-----0
  6
CONTINUOUS
  5
57
 10
126.131692
 20
238.735407
 30
0.0
 11
125.288567
 21
239.578533
 31
0.0
  0
LINE
  8
LC-004-005-----0
  6
CONTINUOUS
  5
58
 10
123.799086
 20
238.239586
 30
0.0
 11
122.955961
 21
239.082711
 31
0.0
  0
LINE
  8
LC-004-005-----0
  6
CONTINUOUS
  5
59
 10
121.466481
 20
237.743764
 30
0.0
 11
120.623355
 21
238.58689
 31
0.0
  0
LINE
  8
LC-004-005-----0
  6
CONTINUOUS
  5
5A
 10
119.133875
 20
237.247943
 30
0.0
 11
118.290749
 21
238.091069
 31
0.0
  0
LINE
  8
LC-004-005-----0
  6
CONTINUOUS
  5
5B
 10
116.801269
 20
236.752122
 30
0.0
 11
115.868922
 21
237.684469
 31
0.0
  0
LINE
  8
LC-004-005-----0
  6
CONTINUOUS
  5
5C
 10
112.540492
 20
238.184471
 30
0.0
 11
112.05997
 21
238.664994
 31
0.0
  0
ENDBLK
  8
0
  5
5D
  0
BLOCK
  8
0
  5
5F
  2
*X7
 70
    65
 10
-75.939331
 20
212.684138
 30
0.0
  3
*X7
  0
LINE
  8
LC-004-005-----0
  6
CONTINUOUS
  5
60
 10
-64.439383
 20
234.145011
 30
0.0
 11
-65.511802
 21
235.217429
 31
0.0
  0
LINE
  8
LC-004-005-----0
  6
CONTINUOUS
  5
61
 10
-66.906069
 20
236.611697
 30
0.0
 11
-67.978499
 21
237.684126
 31
0.0
  0
LINE
  8
LC-004-005-----0
  6
CONTINUOUS
  5
62
 10
-64.439377
 20
231.316577
 30
0.0
 11
-65.439379
 21
232.316579
 31
0.0
  0
LINE
  8
LC-004-005-----0
  6
CONTINUOUS
  5
63
 10
-69.806904
 20
236.684105
 30
0.0
 11
-70.806926
 21
237.684126
 31
0.0
  0
LINE
  8
LC-004-005-----0
  6
CONTINUOUS
  5
64
 10
-64.43937
 20
228.488143
 30
0.0
 11
-65.439372
 21
229.488146
 31
0.0
  0
LINE
  8
LC-004-005-----0
  6
CONTINUOUS
  5
65
 10
-72.639678
 20
236.688451
 30
0.0
 11
-75.13531
 21
239.184083
 31
0.0
  0
LINE
  8
LC-004-005-----0
  6
CONTINUOUS
  5
66
 10
-64.439364
 20
225.65971
 30
0.0
 11
-65.439366
 21
226.659712
 31
0.0
  0
LINE
  8
LC-004-005-----0
  6
CONTINUOUS
  5
67
 10
-64.439357
 20
222.831276
 30
0.0
 11
-65.439359
 21
223.831278
 31
0.0
  0
LINE
  8
LC-004-005-----0
  6
CONTINUOUS
  5
68
 10
-64.439351
 20
220.002842
 30
0.0
 11
-65.439353
 21
221.002845
 31
0.0
  0
LINE
  8
LC-004-005-----0
  6
CONTINUOUS
  5
69
 10
-60.439693
 20
213.174758
 30
0.0
 11
-61.439693
 21
214.174758
 31
0.0
  0
LINE
  8
LC-004-005-----0
  6
CONTINUOUS
  5
6A
 10
-63.002362
 20
215.737426
 30
0.0
 11
-65.386043
 21
218.121108
 31
0.0
  0
ENDBLK
  8
0
  5
6B
  0
BLOCK
  8
0
  5
6D
  2
*X8
 70
    65
 10
-110.1303
 20
236.684021
 30
0.0
  3
*X8
  0
LINE
  8
LC-004-005-----0
  6
CONTINUOUS
  5
6E
 10
-82.939328
 20
238.502819
 30
0.0
 11
-83.620554
 21
239.184046
 31
0.0
  0
LINE
  8
LC-004-005-----0
  6
CONTINUOUS
  5
6F
 10
-84.93349
 20
237.668555
 30
0.0
 11
-85.661044
 21
238.396108
 31
0.0
  0
LINE
  8
LC-004-005-----0
  6
CONTINUOUS
  5
70
 10
-86.777393
 20
236.68403
 30
0.0
 11
-87.917796
 21
237.824434
 31
0.0
  0
LINE
  8
LC-004-005-----0
  6
CONTINUOUS
  5
71
 10
-90.211404
 20
237.289614
 30
0.0
 11
-91.509707
 21
238.587918
 31
0.0
  0
LINE
  8
LC-004-005-----0
  6
CONTINUOUS
  5
72
 10
-93.803315
 20
238.053099
 30
0.0
 11
-95.101619
 21
239.351402
 31
0.0
  0
LINE
  8
LC-004-005-----0
  6
CONTINUOUS
  5
73
 10
-97.395227
 20
238.816583
 30
0.0
 11
-98.69353
 21
240.114887
 31
0.0
  0
LINE
  8
LC-004-005-----0
  6
CONTINUOUS
  5
74
 10
-100.987138
 20
239.580067
 30
0.0
 11
-102.285442
 21
240.878371
 31
0.0
  0
LINE
  8
LC-004-005-----0
  6
CONTINUOUS
  5
75
 10
-104.57905
 20
240.343552
 30
0.0
 11
-105.877353
 21
241.641855
 31
0.0
  0
LINE
  8
LC-004-005-----0
  6
CONTINUOUS
  5
76
 10
-108.222771
 20
241.158846
 30
0.0
 11
-109.924312
 21
242.860387
 31
0.0
  0
ENDBLK
  8
0
  5
77
  0
BLOCK
  8
0
  5
79
  2
*X9
 70
    65
 10
88.560075
 20
212.684462
 30
0.0
  3
*X9
  0
LINE
  8
LC-004-005-----0
  6
CONTINUOUS
  5
7A
 10
104.055212
 20
238.184471
 30
0.0
 11
103.15203
 21
239.087652
 31
0.0
  0
LINE
  8
LC-004-005-----0
  6
CONTINUOUS
  5
7B
 10
102.404037
 20
237.007218
 30
0.0
 11
101.696931
 21
237.714324
 31
0.0
  0
LINE
  8
LC-004-005-----0
  6
CONTINUOUS
  5
7C
 10
99.898358
 20
236.68447
 30
0.0
 11
98.898337
 21
237.684491
 31
0.0
  0
LINE
  8
LC-004-005-----0
  6
CONTINUOUS
  5
7D
 10
97.069932
 20
236.684469
 30
0.0
 11
96.104681
 21
237.64972
 31
0.0
  0
LINE
  8
LC-004-005-----0
  6
CONTINUOUS
  5
7E
 10
94.995558
 20
235.930416
 30
0.0
 11
94.285436
 21
236.640538
 31
0.0
  0
LINE
  8
LC-004-005-----0
  6
CONTINUOUS
  5
7F
 10
94.560045
 20
233.537501
 30
0.0
 11
93.560043
 21
234.537503
 31
0.0
  0
LINE
  8
LC-004-005-----0
  6
CONTINUOUS
  5
80
 10
94.560051
 20
230.709068
 30
0.0
 11
93.560049
 21
231.70907
 31
0.0
  0
LINE
  8
LC-004-005-----0
  6
CONTINUOUS
  5
81
 10
94.560057
 20
227.880635
 30
0.0
 11
93.560055
 21
228.880637
 31
0.0
  0
LINE
  8
LC-004-005-----0
  6
CONTINUOUS
  5
82
 10
94.560063
 20
225.052202
 30
0.0
 11
93.560061
 21
226.052204
 31
0.0
  0
LINE
  8
LC-004-005-----0
  6
CONTINUOUS
  5
83
 10
94.560068
 20
222.22377
 30
0.0
 11
93.560066
 21
223.223772
 31
0.0
  0
LINE
  8
LC-004-005-----0
  6
CONTINUOUS
  5
84
 10
94.560074
 20
219.395337
 30
0.0
 11
93.560072
 21
220.395339
 31
0.0
  0
LINE
  8
LC-004-005-----0
  6
CONTINUOUS
  5
85
 10
94.076228
 20
217.050755
 30
0.0
 11
93.34492
 21
217.782064
 31
0.0
  0
LINE
  8
LC-004-005-----0
  6
CONTINUOUS
  5
86
 10
92.472107
 20
215.826449
 30
0.0
 11
91.613379
 21
216.685177
 31
0.0
  0
LINE
  8
LC-004-005-----0
  6
CONTINUOUS
  5
87
 10
90.560438
 20
214.909692
 30
0.0
 11
89.685663
 21
215.784466
 31
0.0
  0
LINE
  8
LC-004-005-----0
  6
CONTINUOUS
  5
88
 10
89.957238
 20
212.684464
 30
0.0
 11
89.560445
 21
213.081257
 31
0.0
  0
ENDBLK
  8
0
  5
89
  0
BLOCK
  8
0
  5
8B
  2
BLK4
 70
    64
 10
0.0
 20
0.0
 30
0.0
  3
BLK4
  0
ENDBLK
  8
0
  5
8C
  0
BLOCK
  8
0
  5
8E
  2
BLK5
 70
    64
 10
0.0
 20
0.0
 30
0.0
  3
BLK5
  0
ENDBLK
  8
0
  5
8F
  0
BLOCK
  8
0
  5
91
  2
BLK6
 70
    64
 10
0.0
 20
0.0
 30
0.0
  3
BLK6
  0
ENDBLK
  8
0
  5
92
  0
BLOCK
  8
0
  5
94
  2
*X13
 70
    65
 10
55.565964
 20
272.29363
 30
0.0
  3
*X13
  0
LINE
  8
LC-004-005-----0
  6
CONTINUOUS
  5
95
 10
71.622698
 20
272.441024
 30
0.0
 11
72.196227
 21
273.014552
 31
0.0
  0
LINE
  8
LC-004-005-----0
  6
CONTINUOUS
  5
96
 10
70.761672
 20
274.408425
 30
0.0
 11
71.441467
 21
275.08822
 31
0.0
  0
LINE
  8
LC-004-005-----0
  6
CONTINUOUS
  5
97
 10
59.277016
 20
308.178603
 30
0.0
 11
59.365312
 21
308.266899
 31
0.0
  0
LINE
  8
LC-004-005-----0
  6
CONTINUOUS
  5
98
 10
56.99625
 20
308.726264
 30
0.0
 11
58.610552
 21
310.340567
 31
0.0
  0
LINE
  8
LC-004-005-----0
  6
CONTINUOUS
  5
99
 10
56.24149
 20
310.799932
 30
0.0
 11
57.855793
 21
312.414234
 31
0.0
  0
ENDBLK
  8
0
  5
9A
  0
BLOCK
  8
0
  5
9C
  2
BLK7
 70
    64
 10
0.0
 20
0.0
 30
0.0
  3
BLK7
  0
ENDBLK
  8
0
  5
9D
  0
BLOCK
  8
0
  5
9F
  2
BLK8
 70
    64
 10
0.0
 20
0.0
 30
0.0
  3
BLK8
  0
ENDBLK
  8
0
  5
A0
  0
BLOCK
  8
0
  5
A2
  2
BLK9
 70
    64
 10
0.0
 20
0.0
 30
0.0
  3
BLK9
  0
ENDBLK
  8
0
  5
A3
  0
BLOCK
  8
0
  5
A5
  2
BLK10
 70
    64
 10
0.0
 20
0.0
 30
0.0
  3
BLK10
  0
ARC
  8
LC-001-002-----0
  6
CONTINUOUS
  5
A7
 10
-83.080003
 20
214.093111
 30
0.0
 40
0.88241
 50
43.261043
 51
64.786099
  0
ARC
  8
LC-001-002-----0
  6
CONTINUOUS
  5
A8
 10
-83.531639
 20
213.196276
 30
0.0
 40
1.886381
 50
63.979499
 51
77.898183
  0
ARC
  8
LC-001-002-----0
  6
CONTINUOUS
  5
A9
 10
-83.749784
 20
212.262456
 30
0.0
 40
2.845236
 50
77.545331
 51
88.115595
  0
ENDBLK
  8
0
  5
AA
  0
BLOCK
  8
0
  5
AC
  2
BLK11
 70
    64
 10
0.0
 20
0.0
 30
0.0
  3
BLK11
  0
ARC
  8
LC-001-002-----0
  6
CONTINUOUS
  5
AD
 10
-74.048848
 20
214.425448
 30
0.0
 40
0.385191
 50
2.018909
 51
44.427197
  0
ARC
  8
LC-001-002-----0
  6
CONTINUOUS
  5
AE
 10
-74.464942
 20
214.032897
 30
0.0
 40
0.95719
 50
43.772899
 51
66.721011
  0
ARC
  8
LC-001-002-----0
  6
CONTINUOUS
  5
AF
 10
-74.919003
 20
213.053442
 30
0.0
 40
2.036578
 50
65.876784
 51
79.701704
  0
ARC
  8
LC-001-002-----0
  6
CONTINUOUS
  5
B0
 10
-75.100982
 20
212.15589
 30
0.0
 40
2.952262
 50
79.340928
 51
90.122105
  0
ENDBLK
  8
0
  5
B1
  0
BLOCK
  8
0
  5
B3
  2
BLK12
 70
    64
 10
0.0
 20
0.0
 30
0.0
  3
BLK12
  0
ARC
  8
LC-001-002-----0
  6
CONTINUOUS
  5
B4
 10
-75.762908
 20
210.966108
 30
0.0
 40
0.935529
 50
223.865296
 51
245.959244
  0
ARC
  8
LC-001-002-----0
  6
CONTINUOUS
  5
B5
 10
-75.315464
 20
211.902097
 30
0.0
 40
1.972798
 50
245.165703
 51
258.849172
  0
ARC
  8
LC-001-002-----0
  6
CONTINUOUS
  5
B6
 10
-75.118475
 20
212.811074
 30
0.0
 40
2.902764
 50
258.504134
 51
269.069552
  0
ENDBLK
  8
0
  5
B7
  0
BLOCK
  8
0
  5
B9
  2
BLK13
 70
    64
 10
0.0
 20
0.0
 30
0.0
  3
BLK13
  0
ARC
  8
LC-001-002-----0
  6
CONTINUOUS
  5
BA
 10
-84.825951
 20
210.590843
 30
0.0
 40
0.385189
 50
182.018675
 51
224.427045
  0
ARC
  8
LC-001-002-----0
  6
CONTINUOUS
  5
BB
 10
-84.409858
 20
210.983392
 30
0.0
 40
0.957186
 50
223.77276
 51
246.720935
  0
ARC
  8
LC-001-002-----0
  6
CONTINUOUS
  5
BC
 10
-83.955796
 20
211.962845
 30
0.0
 40
2.036573
 50
245.876705
 51
259.701648
  0
ARC
  8
LC-001-002-----0
  6
CONTINUOUS
  5
BD
 10
-83.773816
 20
212.860399
 30
0.0
 40
2.95226
 50
259.340871
 51
270.122053
  0
ENDBLK
  8
0
  5
BE
  0
BLOCK
  8
0
  5
C0
  2
BLK14
 70
    64
 10
0.0
 20
0.0
 30
0.0
  3
BLK14
  0
ENDBLK
  8
0
  5
C1
  0
BLOCK
  8
0
  5
C3
  2
BLK15
 70
    64
 10
0.0
 20
0.0
 30
0.0
  3
BLK15
  0
ENDBLK
  8
0
  5
C4
  0
BLOCK
  8
0
  5
C6
  2
BLK16
 70
    64
 10
0.0
 20
0.0
 30
0.0
  3
BLK16
  0
ARC
  8
LC-001-002-----0
  6
CONTINUOUS
  5
C7
 10
-83.773816
 20
212.155892
 30
0.0
 40
2.952261
 50
89.877925
 51
100.659105
  0
ARC
  8
LC-001-002-----0
  6
CONTINUOUS
  5
C8
 10
-83.955796
 20
213.053445
 30
0.0
 40
2.036575
 50
100.298328
 51
114.123262
  0
ARC
  8
LC-001-002-----0
  6
CONTINUOUS
  5
C9
 10
-84.409857
 20
214.032899
 30
0.0
 40
0.957187
 50
113.279034
 51
136.227183
  0
ARC
  8
LC-001-002-----0
  6
CONTINUOUS
  5
CA
 10
-84.82595
 20
214.425449
 30
0.0
 40
0.38519
 50
135.572893
 51
177.981231
  0
ENDBLK
  8
0
  5
CB
  0
BLOCK
  8
0
  5
CD
  2
BLK17
 70
    64
 10
0.0
 20
0.0
 30
0.0
  3
BLK17
  0
ENDBLK
  8
0
  5
CE
  0
BLOCK
  8
0
  5
D0
  2
BLK18
 70
    64
 10
0.0
 20
0.0
 30
0.0
  3
BLK18
  0
ENDBLK
  8
0
  5
D1
  0
BLOCK
  8
0
  5
D3
  2
BLK19
 70
    64
 10
0.0
 20
0.0
 30
0.0
  3
BLK19
  0
ARC
  8
LC-001-002-----0
  6
CONTINUOUS
  5
D4
 10
-75.126648
 20
212.274252
 30
0.0
 40
2.833346
 50
92.161965
 51
102.568484
  0
ARC
  8
LC-001-002-----0
  6
CONTINUOUS
  5
D5
 10
-75.343451
 20
213.195877
 30
0.0
 40
1.886661
 50
102.232724
 51
115.895493
  0
ARC
  8
LC-001-002-----0
  6
CONTINUOUS
  5
D6
 10
-75.786326
 20
214.080955
 30
0.0
 40
0.897113
 50
115.137669
 51
136.530557
  0
ENDBLK
  8
0
  5
D7
  0
BLOCK
  8
0
  5
D9
  2
BLK20
 70
    64
 10
0.0
 20
0.0
 30
0.0
  3
BLK20
  0
ARC
  8
LC-001-002-----0
  6
CONTINUOUS
  5
DA
 10
-83.752913
 20
212.780181
 30
0.0
 40
2.871728
 50
271.463232
 51
282.021484
  0
ARC
  8
LC-001-002-----0
  6
CONTINUOUS
  5
DB
 10
-83.544417
 20
211.857308
 30
0.0
 40
1.925705
 50
281.673088
 51
295.470569
  0
ARC
  8
LC-001-002-----0
  6
CONTINUOUS
  5
DC
 10
-83.094852
 20
210.942925
 30
0.0
 40
0.906947
 50
294.671916
 51
316.461269
  0
ENDBLK
  8
0
  5
DD
  0
BLOCK
  8
0
  5
DF
  2
BLK21
 70
    64
 10
0.0
 20
0.0
 30
0.0
  3
BLK21
  0
ENDBLK
  8
0
  5
E0
  0
BLOCK
  8
0
  5
E2
  2
BLK22
 70
    64
 10
0.0
 20
0.0
 30
0.0
  3
BLK22
  0
ENDBLK
  8
0
  5
E3
  0
BLOCK
  8
0
  5
E5
  2
BLK23
 70
    64
 10
0.0
 20
0.0
 30
0.0
  3
BLK23
  0
ARC
  8
LC-001-002-----0
  6
CONTINUOUS
  5
E6
 10
-75.100982
 20
212.8604
 30
0.0
 40
2.952261
 50
269.877925
 51
280.65911
  0
ARC
  8
LC-001-002-----0
  6
CONTINUOUS
  5
E7
 10
-74.919001
 20
211.962846
 30
0.0
 40
2.036574
 50
280.298333
 51
294.123276
  0
ARC
  8
LC-001-002-----0
  6
CONTINUOUS
  5
E8
 10
-74.46494
 20
210.983392
 30
0.0
 40
0.957186
 50
293.279046
 51
316.227222
  0
ARC
  8
LC-001-002-----0
  6
CONTINUOUS
  5
E9
 10
-74.048846
 20
210.590843
 30
0.0
 40
0.38519
 50
315.572935
 51
357.981322
  0
ENDBLK
  8
0
  5
EA
  0
BLOCK
  8
0
  5
EC
  2
BLK24
 70
    64
 10
0.0
 20
0.0
 30
0.0
  3
BLK24
  0
ARC
  8
LC-001-002-----0
  6
CONTINUOUS
  5
ED
 10
112.881917
 20
212.262456
 30
0.0
 40
2.845236
 50
91.884405
 51
102.454669
  0
ARC
  8
LC-001-002-----0
  6
CONTINUOUS
  5
EE
 10
112.663772
 20
213.196276
 30
0.0
 40
1.886381
 50
102.101817
 51
116.020501
  0
ARC
  8
LC-001-002-----0
  6
CONTINUOUS
  5
EF
 10
112.212136
 20
214.093111
 30
0.0
 40
0.88241
 50
115.213901
 51
138.388342
  0
ARC
  8
LC-001-002-----0
  6
CONTINUOUS
  5
F0
 10
111.829859
 20
214.429002
 30
0.0
 40
0.373547
 50
137.969798
 51
179.342441
  0
ENDBLK
  8
0
  5
F1
  0
BLOCK
  8
0
  5
F3
  2
BLK25
 70
    64
 10
0.0
 20
0.0
 30
0.0
  3
BLK25
  0
ARC
  8
LC-001-002-----0
  6
CONTINUOUS
  5
F4
 10
104.233115
 20
212.15589
 30
0.0
 40
2.952262
 50
89.877895
 51
100.659072
  0
ARC
  8
LC-001-002-----0
  6
CONTINUOUS
  5
F5
 10
104.051136
 20
213.053442
 30
0.0
 40
2.036578
 50
100.298296
 51
114.123216
  0
ARC
  8
LC-001-002-----0
  6
CONTINUOUS
  5
F6
 10
103.597075
 20
214.032897
 30
0.0
 40
0.95719
 50
113.278989
 51
136.227101
  0
ARC
  8
LC-001-002-----0
  6
CONTINUOUS
  5
F7
 10
103.180981
 20
214.425448
 30
0.0
 40
0.385191
 50
135.572803
 51
177.981091
  0
ENDBLK
  8
0
  5
F8
  0
BLOCK
  8
0
  5
FA
  2
BLK26
 70
    64
 10
0.0
 20
0.0
 30
0.0
  3
BLK26
  0
ARC
  8
LC-001-002-----0
  6
CONTINUOUS
  5
FB
 10
104.250609
 20
212.811074
 30
0.0
 40
2.902764
 50
270.930448
 51
281.495866
  0
ARC
  8
LC-001-002-----0
  6
CONTINUOUS
  5
FC
 10
104.447597
 20
211.902097
 30
0.0
 40
1.972798
 50
281.150828
 51
294.834297
  0
ARC
  8
LC-001-002-----0
  6
CONTINUOUS
  5
FD
 10
104.895041
 20
210.966108
 30
0.0
 40
0.935529
 50
294.040756
 51
316.614974
  0
ARC
  8
LC-001-002-----0
  6
CONTINUOUS
  5
FE
 10
105.29693
 20
210.591744
 30
0.0
 40
0.386326
 50
316.023858
 51
357.00404
  0
ENDBLK
  8
0
  5
FF
  0
BLOCK
  8
0
  5
101
  2
BLK27
 70
    64
 10
0.0
 20
0.0
 30
0.0
  3
BLK27
  0
ARC
  8
LC-001-002-----0
  6
CONTINUOUS
  5
102
 10
112.905949
 20
212.860399
 30
0.0
 40
2.95226
 50
269.877947
 51
280.659129
  0
ARC
  8
LC-001-002-----0
  6
CONTINUOUS
  5
103
 10
113.08793
 20
211.962845
 30
0.0
 40
2.036573
 50
280.298352
 51
294.123295
  0
ARC
  8
LC-001-002-----0
  6
CONTINUOUS
  5
104
 10
113.541991
 20
210.983392
 30
0.0
 40
0.957186
 50
293.279065
 51
316.22724
  0
ARC
  8
LC-001-002-----0
  6
CONTINUOUS
  5
105
 10
113.958084
 20
210.590843
 30
0.0
 40
0.385189
 50
315.572955
 51
357.981325
  0
ENDBLK
  8
0
  5
106
  0
BLOCK
  8
0
  5
108
  2
BLK28
 70
    64
 10
0.0
 20
0.0
 30
0.0
  3
BLK28
  0
ARC
  8
LC-001-002-----0
  6
CONTINUOUS
  5
109
 10
108.507343
 20
204.235275
 30
0.0
 40
10.871784
 50
91.410777
 51
96.722757
  0
ARC
  8
LC-001-002-----0
  6
CONTINUOUS
  5
10A
 10
107.944663
 20
208.758145
 30
0.0
 40
6.31421
 50
96.456515
 51
104.098152
  0
ARC
  8
LC-001-002-----0
  6
CONTINUOUS
  5
10B
 10
106.867823
 20
212.882027
 30
0.0
 40
2.052627
 50
102.984478
 51
119.231263
  0
ARC
  8
LC-001-002-----0
  6
CONTINUOUS
  5
10C
 10
105.983005
 20
214.3944
 30
0.0
 40
0.302628
 50
112.857592
 51
172.616289
  0
ENDBLK
  8
0
  5
10D
  0
BLOCK
  8
0
  5
10F
  2
BLK29
 70
    64
 10
0.0
 20
0.0
 30
0.0
  3
BLK29
  0
ARC
  8
LC-001-002-----0
  6
CONTINUOUS
  5
110
 10
108.594599
 20
221.380841
 30
0.0
 40
11.472542
 50
270.361636
 51
275.73709
  0
ARC
  8
LC-001-002-----0
  6
CONTINUOUS
  5
111
 10
109.069035
 20
216.975716
 30
0.0
 40
7.042127
 50
275.479124
 51
282.931391
  0
ARC
  8
LC-001-002-----0
  6
CONTINUOUS
  5
112
 10
110.158513
 20
212.425856
 30
0.0
 40
2.364252
 50
281.873227
 51
297.379072
  0
ARC
  8
LC-001-002-----0
  6
CONTINUOUS
  5
113
 10
111.128487
 20
210.638621
 30
0.0
 40
0.333487
 50
290.59143
 51
349.399935
  0
ENDBLK
  8
0
  5
114
  0
BLOCK
  8
0
  5
116
  2
BLK30
 70
    64
 10
0.0
 20
0.0
 30
0.0
  3
BLK30
  0
ARC
  8
LC-001-002-----0
  6
CONTINUOUS
  5
117
 10
113.958084
 20
214.425449
 30
0.0
 40
0.38519
 50
2.018769
 51
44.427107
  0
ARC
  8
LC-001-002-----0
  6
CONTINUOUS
  5
118
 10
113.54199
 20
214.032899
 30
0.0
 40
0.957187
 50
43.772817
 51
66.720966
  0
ARC
  8
LC-001-002-----0
  6
CONTINUOUS
  5
119
 10
113.087929
 20
213.053445
 30
0.0
 40
2.036575
 50
65.876738
 51
79.701672
  0
ARC
  8
LC-001-002-----0
  6
CONTINUOUS
  5
11A
 10
112.905949
 20
212.155892
 30
0.0
 40
2.952261
 50
79.340895
 51
90.122075
  0
ENDBLK
  8
0
  5
11B
  0
BLOCK
  8
0
  5
11D
  2
BLK31
 70
    64
 10
0.0
 20
0.0
 30
0.0
  3
BLK31
  0
ARC
  8
LC-001-002-----0
  6
CONTINUOUS
  5
11E
 10
111.14262
 20
214.387888
 30
0.0
 40
0.316829
 50
8.239897
 51
68.865476
  0
ARC
  8
LC-001-002-----0
  6
CONTINUOUS
  5
11F
 10
110.193931
 20
212.686833
 30
0.0
 40
2.261882
 50
61.970315
 51
77.86899
  0
ARC
  8
LC-001-002-----0
  6
CONTINUOUS
  5
120
 10
109.098205
 20
208.217223
 30
0.0
 40
6.863217
 50
76.767118
 51
84.313137
  0
ARC
  8
LC-001-002-----0
  6
CONTINUOUS
  5
121
 10
108.600655
 20
203.749564
 30
0.0
 40
11.358311
 50
84.048844
 51
89.434904
  0
ENDBLK
  8
0
  5
122
  0
BLOCK
  8
0
  5
124
  2
BLK32
 70
    64
 10
0.0
 20
0.0
 30
0.0
  3
BLK32
  0
ENDBLK
  8
0
  5
125
  0
BLOCK
  8
0
  5
127
  2
BLK33
 70
    64
 10
0.0
 20
0.0
 30
0.0
  3
BLK33
  0
ARC
  8
LC-001-002-----0
  6
CONTINUOUS
  5
128
 10
105.301276
 20
214.425767
 30
0.0
 40
0.381924
 50
2.848292
 51
42.845413
  0
ARC
  8
LC-001-002-----0
  6
CONTINUOUS
  5
129
 10
104.918459
 20
214.080955
 30
0.0
 40
0.897113
 50
42.365692
 51
64.862331
  0
ARC
  8
LC-001-002-----0
  6
CONTINUOUS
  5
12A
 10
104.475584
 20
213.195877
 30
0.0
 40
1.886661
 50
64.104507
 51
77.767276
  0
ARC
  8
LC-001-002-----0
  6
CONTINUOUS
  5
12B
 10
104.258782
 20
212.274252
 30
0.0
 40
2.833346
 50
77.431516
 51
87.838035
  0
ENDBLK
  8
0
  5
12C
  0
BLOCK
  8
0
  5
12E
  2
BLK34
 70
    64
 10
0.0
 20
0.0
 30
0.0
  3
BLK34
  0
ARC
  8
LC-001-002-----0
  6
CONTINUOUS
  5
12F
 10
111.835663
 20
210.589345
 30
0.0
 40
0.379571
 50
181.82233
 51
222.962059
  0
ARC
  8
LC-001-002-----0
  6
CONTINUOUS
  5
130
 10
112.226985
 20
210.942925
 30
0.0
 40
0.906947
 50
222.460434
 51
245.328084
  0
ARC
  8
LC-001-002-----0
  6
CONTINUOUS
  5
131
 10
112.67655
 20
211.857308
 30
0.0
 40
1.925705
 50
244.529431
 51
258.326912
  0
ARC
  8
LC-001-002-----0
  6
CONTINUOUS
  5
132
 10
112.885046
 20
212.780181
 30
0.0
 40
2.871728
 50
257.978516
 51
268.536768
  0
ENDBLK
  8
0
  5
133
  0
BLOCK
  8
0
  5
135
  2
BLK35
 70
    64
 10
0.0
 20
0.0
 30
0.0
  3
BLK35
  0
ENDBLK
  8
0
  5
136
  0
BLOCK
  8
0
  5
138
  2
BLK36
 70
    64
 10
0.0
 20
0.0
 30
0.0
  3
BLK36
  0
ARC
  8
LC-001-002-----0
  6
CONTINUOUS
  5
139
 10
106.037309
 20
210.656982
 30
0.0
 40
0.364574
 50
193.552353
 51
251.097141
  0
ARC
  8
LC-001-002-----0
  6
CONTINUOUS
  5
13A
 10
107.078174
 20
212.697946
 30
0.0
 40
2.652475
 50
244.09117
 51
258.99502
  0
ARC
  8
LC-001-002-----0
  6
CONTINUOUS
  5
13B
 10
108.16515
 20
217.581289
 30
0.0
 40
7.654702
 50
257.986099
 51
265.302468
  0
ARC
  8
LC-001-002-----0
  6
CONTINUOUS
  5
13C
 10
108.561717
 20
221.768537
 30
0.0
 40
11.860476
 50
265.049728
 51
270.507105
  0
ENDBLK
  8
0
  5
13D
  0
BLOCK
  8
0
  5
13F
  2
BLK37
 70
    64
 10
0.0
 20
0.0
 30
0.0
  3
BLK37
  0
ARC
  8
LC-001-002-----0
  6
CONTINUOUS
  5
140
 10
103.18098
 20
210.590843
 30
0.0
 40
0.38519
 50
182.018678
 51
224.427065
  0
ARC
  8
LC-001-002-----0
  6
CONTINUOUS
  5
141
 10
103.597073
 20
210.983392
 30
0.0
 40
0.957186
 50
223.772778
 51
246.720954
  0
ARC
  8
LC-001-002-----0
  6
CONTINUOUS
  5
142
 10
104.051135
 20
211.962846
 30
0.0
 40
2.036574
 50
245.876724
 51
259.701667
  0
ARC
  8
LC-001-002-----0
  6
CONTINUOUS
  5
143
 10
104.233115
 20
212.8604
 30
0.0
 40
2.952261
 50
259.34089
 51
270.122075
  0
ENDBLK
  8
0
  5
144
  0
BLOCK
  8
0
  5
146
  2
*X45
 70
    65
 10
-61.933933
 20
149.382827
 30
0.0
  3
*X45
  0
LINE
  8
LC-004-005-----0
  6
CONTINUOUS
  5
147
 10
-54.263926
 20
149.382827
 30
0.0
 11
-53.183226
 21
150.463526
 31
0.0
  0
LINE
  8
LC-004-005-----0
  6
CONTINUOUS
  5
148
 10
-57.092353
 20
149.382827
 30
0.0
 11
-53.842353
 21
152.632827
 31
0.0
  0
LINE
  8
LC-004-005-----0
  6
CONTINUOUS
  5
149
 10
-59.92078
 20
149.382827
 30
0.0
 11
-56.67078
 21
152.632827
 31
0.0
  0
LINE
  8
LC-004-005-----0
  6
CONTINUOUS
  5
14A
 10
-61.933933
 20
150.198101
 30
0.0
 11
-59.499208
 21
152.632827
 31
0.0
  0
ENDBLK
  8
0
  5
14B
  0
BLOCK
  8
0
  5
14D
  2
*X46
 70
    65
 10
82.31536
 20
149.382827
 30
0.0
  3
*X46
  0
LINE
  8
LC-004-005-----0
  6
CONTINUOUS
  5
14E
 10
89.985857
 20
149.382827
 30
0.0
 11
91.066067
 21
150.463036
 31
0.0
  0
LINE
  8
LC-004-005-----0
  6
CONTINUOUS
  5
14F
 10
87.15743
 20
149.382827
 30
0.0
 11
90.40743
 21
152.632827
 31
0.0
  0
LINE
  8
LC-004-005-----0
  6
CONTINUOUS
  5
150
 10
84.329003
 20
149.382827
 30
0.0
 11
87.579003
 21
152.632827
 31
0.0
  0
LINE
  8
LC-004-005-----0
  6
CONTINUOUS
  5
151
 10
82.31536
 20
150.197611
 30
0.0
 11
84.750576
 21
152.632827
 31
0.0
  0
ENDBLK
  8
0
  5
152
  0
BLOCK
  8
0
  5
154
  2
*X47
 70
    65
 10
82.31536
 20
152.632827
 30
0.0
  3
*X47
  0
LINE
  8
LC-004-005-----0
  6
CONTINUOUS
  5
155
 10
91.066067
 20
191.776646
 30
0.0
 11
87.61536
 21
195.227353
 31
0.0
  0
LINE
  8
LC-004-005-----0
  6
CONTINUOUS
  5
156
 10
91.066067
 20
177.63451
 30
0.0
 11
84.767636
 21
183.93294
 31
0.0
  0
LINE
  8
LC-004-005-----0
  6
CONTINUOUS
  5
157
 10
91.066067
 20
163.492375
 30
0.0
 11
82.31536
 21
172.243082
 31
0.0
  0
LINE
  8
LC-004-005-----0
  6
CONTINUOUS
  5
158
 10
87.783479
 20
152.632827
 30
0.0
 11
82.31536
 21
158.100946
 31
0.0
  0
ENDBLK
  8
0
  5
159
  0
BLOCK
  8
0
  5
15B
  2
*X48
 70
    65
 10
82.31536
 20
152.632827
 30
0.0
  3
*X48
  0
LINE
  8
LC-004-005-----0
  6
CONTINUOUS
  5
15C
 10
82.31536
 20
153.026038
 30
0.0
 11
91.066067
 21
161.776745
 31
0.0
  0
LINE
  8
LC-004-005-----0
  6
CONTINUOUS
  5
15D
 10
82.31536
 20
167.168173
 30
0.0
 11
91.066067
 21
175.91888
 31
0.0
  0
LINE
  8
LC-004-005-----0
  6
CONTINUOUS
  5
15E
 10
82.31536
 20
181.310309
 30
0.0
 11
84.937991
 21
183.93294
 31
0.0
  0
LINE
  8
LC-004-005-----0
  6
CONTINUOUS
  5
15F
 10
87.61536
 20
186.610309
 30
0.0
 11
91.066067
 21
190.061016
 31
0.0
  0
ENDBLK
  8
0
  5
160
  0
BLOCK
  8
0
  5
162
  2
*D49
 70
    65
 10
0.0
 20
0.0
 30
0.0
  3
*D49
  0
LINE
  8
LC-009-003-MTH-0
  6
CONTINUOUS
  5
164
 10
-65.433933
 20
89.382827
 30
0.0
 11
-65.433933
 21
22.4
 31
0.0
  0
LINE
  8
LC-009-003-MTH-0
  6
CONTINUOUS
  5
165
 10
94.566067
 20
89.382827
 30
0.0
 11
94.566067
 21
22.4
 31
0.0
  0
LINE
  8
LC-010-003-MTG-0
  6
CONTINUOUS
  5
167
 10
-65.433933
 20
39.2
 30
0.0
 11
94.566067
 21
39.2
 31
0.0
  0
LINE
  8
LC-008-003-----0
  6
CONTINUOUS
  5
169
 10
-37.673477
 20
42.854733
 30
0.0
 11
-65.433933
 21
39.2
 31
0.0
  0
LINE
  8
LC-008-003-----0
  6
CONTINUOUS
  5
16A
 10
-65.433933
 20
39.2
 30
0.0
 11
-37.673477
 21
35.545267
 31
0.0
  0
LINE
  8
LC-008-003-----0
  6
CONTINUOUS
  5
16B
 10
-37.673477
 20
35.545267
 30
0.0
 11
-37.673477
 21
42.854733
 31
0.0
  0
LINE
  8
LC-008-003-----0
  6
CONTINUOUS
  5
16C
 10
-37.611196
 20
41.904503
 30
0.0
 11
-58.153933
 21
39.2
 31
0.0
  0
LINE
  8
LC-008-003-----0
  6
CONTINUOUS
  5
16D
 10
-58.153933
 20
39.2
 30
0.0
 11
-37.611196
 21
36.495497
 31
0.0
  0
LINE
  8
LC-008-003-----0
  6
CONTINUOUS
  5
16E
 10
-37.548914
 20
40.954272
 30
0.0
 11
-50.873933
 21
39.2
 31
0.0
  0
LINE
  8
LC-008-003-----0
  6
CONTINUOUS
  5
16F
 10
-50.873933
 20
39.2
 30
0.0
 11
-37.548914
 21
37.445728
 31
0.0
  0
LINE
  8
LC-008-003-----0
  6
CONTINUOUS
  5
170
 10
-37.486633
 20
40.004041
 30
0.0
 11
-43.593933
 21
39.2
 31
0.0
  0
LINE
  8
LC-008-003-----0
  6
CONTINUOUS
  5
171
 10
-43.593933
 20
39.2
 30
0.0
 11
-37.486633
 21
38.395959
 31
0.0
  0
LINE
  8
LC-008-003-----0
  6
CONTINUOUS
  5
172
 10
66.80561
 20
35.545267
 30
0.0
 11
94.566067
 21
39.2
 31
0.0
  0
LINE
  8
LC-008-003-----0
  6
CONTINUOUS
  5
173
 10
94.566067
 20
39.2
 30
0.0
 11
66.80561
 21
42.854733
 31
0.0
  0
LINE
  8
LC-008-003-----0
  6
CONTINUOUS
  5
174
 10
66.80561
 20
42.854733
 30
0.0
 11
66.80561
 21
35.545267
 31
0.0
  0
LINE
  8
LC-008-003-----0
  6
CONTINUOUS
  5
175
 10
66.743329
 20
36.495497
 30
0.0
 11
87.286067
 21
39.2
 31
0.0
  0
LINE
  8
LC-008-003-----0
  6
CONTINUOUS
  5
176
 10
87.286067
 20
39.2
 30
0.0
 11
66.743329
 21
41.904503
 31
0.0
  0
LINE
  8
LC-008-003-----0
  6
CONTINUOUS
  5
177
 10
66.681048
 20
37.445728
 30
0.0
 11
80.006067
 21
39.2
 31
0.0
  0
LINE
  8
LC-008-003-----0
  6
CONTINUOUS
  5
178
 10
80.006067
 20
39.2
 30
0.0
 11
66.681048
 21
40.954272
 31
0.0
  0
LINE
  8
LC-008-003-----0
  6
CONTINUOUS
  5
179
 10
66.618766
 20
38.395959
 30
0.0
 11
72.726067
 21
39.2
 31
0.0
  0
LINE
  8
LC-008-003-----0
  6
CONTINUOUS
  5
17A
 10
72.726067
 20
39.2
 30
0.0
 11
66.618766
 21
40.004041
 31
0.0
  0
TEXT
  8
LC-008-003-----0
  6
CONTINUOUS
 62
     8
  5
17B
 10
-30.291923
 20
47.027554
 30
0.0
 40
28.0
  1
DN150
 41
0.9
 51
15.0
  7
LC-TXTSTYLE-150-400-0-0-A0
 72
     1
 11
18.914227
 21
47.027554
 31
0.0
  0
ENDBLK
  8
0
  5
17C
  0
BLOCK
  8
0
  5
17E
  2
*X50
 70
    65
 10
-162.433926
 20
216.127717
 30
0.0
  3
*X50
  0
LINE
  8
LC-004-005-----0
  6
CONTINUOUS
  5
17F
 10
-83.685551
 20
216.127724
 30
0.0
 11
-82.437398
 21
217.375878
 31
0.0
  0
LINE
  8
LC-004-005-----0
  6
CONTINUOUS
  5
180
 10
-85.38751
 20
217.254193
 30
0.0
 11
-82.437398
 21
220.204305
 31
0.0
  0
LINE
  8
LC-004-005-----0
  6
CONTINUOUS
  5
181
 10
-85.387526
 20
220.082603
 30
0.0
 11
-83.494795
 21
221.975334
 31
0.0
  0
LINE
  8
LC-004-005-----0
  6
CONTINUOUS
  5
182
 10
-85.387543
 20
222.911014
 30
0.0
 11
-84.437398
 21
223.861159
 31
0.0
  0
LINE
  8
LC-004-005-----0
  6
CONTINUOUS
  5
183
 10
-85.387559
 20
225.739425
 30
0.0
 11
-84.437398
 21
226.689586
 31
0.0
  0
LINE
  8
LC-004-005-----0
  6
CONTINUOUS
  5
184
 10
-85.387576
 20
228.567835
 30
0.0
 11
-82.437398
 21
231.518013
 31
0.0
  0
LINE
  8
LC-004-005-----0
  6
CONTINUOUS
  5
185
 10
-85.387592
 20
231.396246
 30
0.0
 11
-82.437398
 21
234.34644
 31
0.0
  0
LINE
  8
LC-004-005-----0
  6
CONTINUOUS
  5
186
 10
-87.485204
 20
232.127061
 30
0.0
 11
-84.985164
 21
234.627101
 31
0.0
  0
LINE
  8
LC-004-005-----0
  6
CONTINUOUS
  5
187
 10
-90.312486
 20
232.128206
 30
0.0
 11
-87.812705
 21
234.627988
 31
0.0
  0
LINE
  8
LC-004-005-----0
  6
CONTINUOUS
  5
188
 10
-92.507308
 20
232.761812
 30
0.0
 11
-90.234672
 21
235.034447
 31
0.0
  0
LINE
  8
LC-004-005-----0
  6
CONTINUOUS
  5
189
 10
-94.580987
 20
233.516559
 30
0.0
 11
-92.308352
 21
235.789195
 31
0.0
  0
LINE
  8
LC-004-005-----0
  6
CONTINUOUS
  5
18A
 10
-96.654667
 20
234.271307
 30
0.0
 11
-94.382031
 21
236.543942
 31
0.0
  0
LINE
  8
LC-004-005-----0
  6
CONTINUOUS
  5
18B
 10
-98.728346
 20
235.026054
 30
0.0
 11
-96.455711
 21
237.29869
 31
0.0
  0
LINE
  8
LC-004-005-----0
  6
CONTINUOUS
  5
18C
 10
-100.802026
 20
235.780802
 30
0.0
 11
-98.52939
 21
238.053437
 31
0.0
  0
LINE
  8
LC-004-005-----0
  6
CONTINUOUS
  5
18D
 10
-102.875706
 20
236.535549
 30
0.0
 11
-100.60307
 21
238.808185
 31
0.0
  0
LINE
  8
LC-004-005-----0
  6
CONTINUOUS
  5
18E
 10
-104.949385
 20
237.290297
 30
0.0
 11
-102.67675
 21
239.562932
 31
0.0
  0
LINE
  8
LC-004-005-----0
  6
CONTINUOUS
  5
18F
 10
-107.023065
 20
238.045044
 30
0.0
 11
-104.750429
 21
240.31768
 31
0.0
  0
LINE
  8
LC-004-005-----0
  6
CONTINUOUS
  5
190
 10
-109.096745
 20
238.799792
 30
0.0
 11
-106.824109
 21
241.072427
 31
0.0
  0
LINE
  8
LC-004-005-----0
  6
CONTINUOUS
  5
191
 10
-111.170424
 20
239.554539
 30
0.0
 11
-108.897789
 21
241.827175
 31
0.0
  0
LINE
  8
LC-004-005-----0
  6
CONTINUOUS
  5
192
 10
-113.249616
 20
240.303774
 30
0.0
 11
-110.971468
 21
242.581922
 31
0.0
  0
LINE
  8
LC-004-005-----0
  6
CONTINUOUS
  5
193
 10
-116.078054
 20
240.303764
 30
0.0
 11
-113.078043
 21
243.303775
 31
0.0
  0
LINE
  8
LC-004-005-----0
  6
CONTINUOUS
  5
194
 10
-118.906492
 20
240.303753
 30
0.0
 11
-115.90648
 21
243.303765
 31
0.0
  0
LINE
  8
LC-004-005-----0
  6
CONTINUOUS
  5
195
 10
-121.734929
 20
240.303743
 30
0.0
 11
-118.734918
 21
243.303754
 31
0.0
  0
LINE
  8
LC-004-005-----0
  6
CONTINUOUS
  5
196
 10
-124.563367
 20
240.303732
 30
0.0
 11
-121.563355
 21
243.303744
 31
0.0
  0
LINE
  8
LC-004-005-----0
  6
CONTINUOUS
  5
197
 10
-127.391804
 20
240.303722
 30
0.0
 11
-124.391793
 21
243.303733
 31
0.0
  0
LINE
  8
LC-004-005-----0
  6
CONTINUOUS
  5
198
 10
-130.220242
 20
240.303712
 30
0.0
 11
-127.220231
 21
243.303723
 31
0.0
  0
LINE
  8
LC-004-005-----0
  6
CONTINUOUS
  5
199
 10
-133.048679
 20
240.303701
 30
0.0
 11
-130.048668
 21
243.303712
 31
0.0
  0
LINE
  8
LC-004-005-----0
  6
CONTINUOUS
  5
19A
 10
-135.877117
 20
240.303691
 30
0.0
 11
-132.877106
 21
243.303702
 31
0.0
  0
LINE
  8
LC-004-005-----0
  6
CONTINUOUS
  5
19B
 10
-138.705554
 20
240.30368
 30
0.0
 11
-135.705543
 21
243.303691
 31
0.0
  0
LINE
  8
LC-004-005-----0
  6
CONTINUOUS
  5
19C
 10
-141.533992
 20
240.30367
 30
0.0
 11
-138.533981
 21
243.303681
 31
0.0
  0
LINE
  8
LC-004-005-----0
  6
CONTINUOUS
  5
19D
 10
-144.36243
 20
240.303659
 30
0.0
 11
-141.362418
 21
243.30367
 31
0.0
  0
LINE
  8
LC-004-005-----0
  6
CONTINUOUS
  5
19E
 10
-147.190867
 20
240.303649
 30
0.0
 11
-144.190856
 21
243.30366
 31
0.0
  0
LINE
  8
LC-004-005-----0
  6
CONTINUOUS
  5
19F
 10
-150.019305
 20
240.303638
 30
0.0
 11
-147.019294
 21
243.30365
 31
0.0
  0
LINE
  8
LC-004-005-----0
  6
CONTINUOUS
  5
1A0
 10
-152.847742
 20
240.303628
 30
0.0
 11
-149.847731
 21
243.303639
 31
0.0
  0
LINE
  8
LC-004-005-----0
  6
CONTINUOUS
  5
1A1
 10
-155.67618
 20
240.303618
 30
0.0
 11
-152.676169
 21
243.303629
 31
0.0
  0
LINE
  8
LC-004-005-----0
  6
CONTINUOUS
  5
1A2
 10
-158.504617
 20
240.303607
 30
0.0
 11
-155.504606
 21
243.303618
 31
0.0
  0
LINE
  8
LC-004-005-----0
  6
CONTINUOUS
  5
1A3
 10
-161.333055
 20
240.303597
 30
0.0
 11
-158.333044
 21
243.303608
 31
0.0
  0
LINE
  8
LC-004-005-----0
  6
CONTINUOUS
  5
1A4
 10
-162.17202
 20
242.293059
 30
0.0
 11
-161.423385
 21
243.041694
 31
0.0
  0
ENDBLK
  8
0
  5
1A5
  0
BLOCK
  8
0
  5
1A7
  2
*X51
 70
    65
 10
111.319719
 20
216.127743
 30
0.0
  3
*X51
  0
LINE
  8
LC-004-005-----0
  6
CONTINUOUS
  5
1A8
 10
189.393203
 20
240.304891
 30
0.0
 11
191.332026
 21
242.243714
 31
0.0
  0
LINE
  8
LC-004-005-----0
  6
CONTINUOUS
  5
1A9
 10
186.564765
 20
240.304881
 30
0.0
 11
189.564778
 21
243.304893
 31
0.0
  0
LINE
  8
LC-004-005-----0
  6
CONTINUOUS
  5
1AA
 10
183.736328
 20
240.30487
 30
0.0
 11
186.73634
 21
243.304883
 31
0.0
  0
LINE
  8
LC-004-005-----0
  6
CONTINUOUS
  5
1AB
 10
180.90789
 20
240.30486
 30
0.0
 11
183.907903
 21
243.304872
 31
0.0
  0
LINE
  8
LC-004-005-----0
  6
CONTINUOUS
  5
1AC
 10
178.079453
 20
240.304849
 30
0.0
 11
181.079465
 21
243.304862
 31
0.0
  0
LINE
  8
LC-004-005-----0
  6
CONTINUOUS
  5
1AD
 10
175.251015
 20
240.304839
 30
0.0
 11
178.251027
 21
243.304851
 31
0.0
  0
LINE
  8
LC-004-005-----0
  6
CONTINUOUS
  5
1AE
 10
172.422578
 20
240.304829
 30
0.0
 11
175.42259
 21
243.304841
 31
0.0
  0
LINE
  8
LC-004-005-----0
  6
CONTINUOUS
  5
1AF
 10
169.59414
 20
240.304818
 30
0.0
 11
172.594152
 21
243.30483
 31
0.0
  0
LINE
  8
LC-004-005-----0
  6
CONTINUOUS
  5
1B0
 10
166.765702
 20
240.304808
 30
0.0
 11
169.765715
 21
243.30482
 31
0.0
  0
LINE
  8
LC-004-005-----0
  6
CONTINUOUS
  5
1B1
 10
163.937265
 20
240.304797
 30
0.0
 11
166.937277
 21
243.30481
 31
0.0
  0
LINE
  8
LC-004-005-----0
  6
CONTINUOUS
  5
1B2
 10
161.108827
 20
240.304787
 30
0.0
 11
164.10884
 21
243.304799
 31
0.0
  0
LINE
  8
LC-004-005-----0
  6
CONTINUOUS
  5
1B3
 10
158.28039
 20
240.304776
 30
0.0
 11
161.280402
 21
243.304789
 31
0.0
  0
LINE
  8
LC-004-005-----0
  6
CONTINUOUS
  5
1B4
 10
155.451952
 20
240.304766
 30
0.0
 11
158.451964
 21
243.304778
 31
0.0
  0
LINE
  8
LC-004-005-----0
  6
CONTINUOUS
  5
1B5
 10
152.623515
 20
240.304755
 30
0.0
 11
155.623527
 21
243.304768
 31
0.0
  0
LINE
  8
LC-004-005-----0
  6
CONTINUOUS
  5
1B6
 10
149.795077
 20
240.304745
 30
0.0
 11
152.795089
 21
243.304757
 31
0.0
  0
LINE
  8
LC-004-005-----0
  6
CONTINUOUS
  5
1B7
 10
146.966639
 20
240.304735
 30
0.0
 11
149.966652
 21
243.304747
 31
0.0
  0
LINE
  8
LC-004-005-----0
  6
CONTINUOUS
  5
1B8
 10
144.138202
 20
240.304724
 30
0.0
 11
147.138214
 21
243.304736
 31
0.0
  0
LINE
  8
LC-004-005-----0
  6
CONTINUOUS
  5
1B9
 10
140.710195
 20
239.705145
 30
0.0
 11
144.309777
 21
243.304726
 31
0.0
  0
LINE
  8
LC-004-005-----0
  6
CONTINUOUS
  5
1BA
 10
114.304366
 20
216.127743
 30
0.0
 11
114.519811
 21
216.343187
 31
0.0
  0
LINE
  8
LC-004-005-----0
  6
CONTINUOUS
  5
1BB
 10
136.263982
 20
238.087358
 30
0.0
 11
141.136644
 21
242.960021
 31
0.0
  0
LINE
  8
LC-004-005-----0
  6
CONTINUOUS
  5
1BC
 10
111.475939
 20
216.127743
 30
0.0
 11
114.519808
 21
219.171612
 31
0.0
  0
LINE
  8
LC-004-005-----0
  6
CONTINUOUS
  5
1BD
 10
131.817768
 20
236.469572
 30
0.0
 11
136.690402
 21
241.342205
 31
0.0
  0
LINE
  8
LC-004-005-----0
  6
CONTINUOUS
  5
1BE
 10
111.319954
 20
218.800185
 30
0.0
 11
114.519806
 21
222.000037
 31
0.0
  0
LINE
  8
LC-004-005-----0
  6
CONTINUOUS
  5
1BF
 10
127.371554
 20
234.851785
 30
0.0
 11
132.244159
 21
239.72439
 31
0.0
  0
LINE
  8
LC-004-005-----0
  6
CONTINUOUS
  5
1C0
 10
111.320203
 20
221.628861
 30
0.0
 11
114.519804
 21
224.828462
 31
0.0
  0
LINE
  8
LC-004-005-----0
  6
CONTINUOUS
  5
1C1
 10
122.925341
 20
233.233998
 30
0.0
 11
127.797917
 21
238.106575
 31
0.0
  0
LINE
  8
LC-004-005-----0
  6
CONTINUOUS
  5
1C2
 10
111.320452
 20
224.457537
 30
0.0
 11
114.519802
 21
227.656887
 31
0.0
  0
LINE
  8
LC-004-005-----0
  6
CONTINUOUS
  5
1C3
 10
118.989558
 20
232.126643
 30
0.0
 11
123.351674
 21
236.488759
 31
0.0
  0
LINE
  8
LC-004-005-----0
  6
CONTINUOUS
  5
1C4
 10
111.320701
 20
227.286213
 30
0.0
 11
114.519799
 21
230.485312
 31
0.0
  0
LINE
  8
LC-004-005-----0
  6
CONTINUOUS
  5
1C5
 10
116.161131
 20
232.126643
 30
0.0
 11
118.905432
 21
234.870944
 31
0.0
  0
LINE
  8
LC-004-005-----0
  6
CONTINUOUS
  5
1C6
 10
111.32095
 20
230.11489
 30
0.0
 11
115.832704
 21
234.626643
 31
0.0
  0
LINE
  8
LC-004-005-----0
  6
CONTINUOUS
  5
1C7
 10
111.321199
 20
232.943566
 30
0.0
 11
113.004277
 21
234.626643
 31
0.0
  0
ENDBLK
  8
0
  5
1C8
  0
BLOCK
  8
0
  5
1CA
  2
*X52
 70
    65
 10
79.066067
 20
83.382827
 30
0.0
  3
*X52
  0
LINE
  8
LC-004-005-----0
  6
CONTINUOUS
  5
1CB
 10
91.868108
 20
83.382827
 30
0.0
 11
93.357435
 21
84.872154
 31
0.0
  0
LINE
  8
LC-004-005-----0
  6
CONTINUOUS
  5
1CC
 10
91.066067
 20
85.409212
 30
0.0
 11
94.392712
 21
88.735857
 31
0.0
  0
LINE
  8
LC-004-005-----0
  6
CONTINUOUS
  5
1CD
 10
91.066067
 20
88.237639
 30
0.0
 11
94.566061
 21
91.737634
 31
0.0
  0
LINE
  8
LC-004-005-----0
  6
CONTINUOUS
  5
1CE
 10
91.066067
 20
91.066067
 30
0.0
 11
94.566054
 21
94.566054
 31
0.0
  0
LINE
  8
LC-004-005-----0
  6
CONTINUOUS
  5
1CF
 10
91.066067
 20
93.894494
 30
0.0
 11
94.566048
 21
97.394475
 31
0.0
  0
LINE
  8
LC-004-005-----0
  6
CONTINUOUS
  5
1D0
 10
91.066067
 20
96.722921
 30
0.0
 11
94.566041
 21
100.222895
 31
0.0
  0
LINE
  8
LC-004-005-----0
  6
CONTINUOUS
  5
1D1
 10
91.066067
 20
99.551348
 30
0.0
 11
94.566034
 21
103.051316
 31
0.0
  0
LINE
  8
LC-004-005-----0
  6
CONTINUOUS
  5
1D2
 10
91.066067
 20
102.379775
 30
0.0
 11
94.566028
 21
105.879736
 31
0.0
  0
LINE
  8
LC-004-005-----0
  6
CONTINUOUS
  5
1D3
 10
91.066067
 20
105.208202
 30
0.0
 11
94.566021
 21
108.708157
 31
0.0
  0
LINE
  8
LC-004-005-----0
  6
CONTINUOUS
  5
1D4
 10
91.066067
 20
108.036629
 30
0.0
 11
94.566014
 21
111.536577
 31
0.0
  0
LINE
  8
LC-004-005-----0
  6
CONTINUOUS
  5
1D5
 10
91.066067
 20
110.865056
 30
0.0
 11
94.566008
 21
114.364997
 31
0.0
  0
LINE
  8
LC-004-005-----0
  6
CONTINUOUS
  5
1D6
 10
91.066067
 20
113.693484
 30
0.0
 11
94.566001
 21
117.193418
 31
0.0
  0
LINE
  8
LC-004-005-----0
  6
CONTINUOUS
  5
1D7
 10
91.066067
 20
116.521911
 30
0.0
 11
94.565994
 21
120.021838
 31
0.0
  0
LINE
  8
LC-004-005-----0
  6
CONTINUOUS
  5
1D8
 10
91.066067
 20
119.350338
 30
0.0
 11
94.565987
 21
122.850259
 31
0.0
  0
LINE
  8
LC-004-005-----0
  6
CONTINUOUS
  5
1D9
 10
91.066067
 20
122.178765
 30
0.0
 11
94.565981
 21
125.678679
 31
0.0
  0
LINE
  8
LC-004-005-----0
  6
CONTINUOUS
  5
1DA
 10
91.066067
 20
125.007192
 30
0.0
 11
94.565974
 21
128.5071
 31
0.0
  0
LINE
  8
LC-004-005-----0
  6
CONTINUOUS
  5
1DB
 10
91.066067
 20
127.835619
 30
0.0
 11
94.565967
 21
131.33552
 31
0.0
  0
LINE
  8
LC-004-005-----0
  6
CONTINUOUS
  5
1DC
 10
91.066067
 20
130.664046
 30
0.0
 11
94.565961
 21
134.16394
 31
0.0
  0
LINE
  8
LC-004-005-----0
  6
CONTINUOUS
  5
1DD
 10
91.066067
 20
133.492473
 30
0.0
 11
94.565954
 21
136.992361
 31
0.0
  0
LINE
  8
LC-004-005-----0
  6
CONTINUOUS
  5
1DE
 10
91.066067
 20
136.320901
 30
0.0
 11
94.565947
 21
139.820781
 31
0.0
  0
LINE
  8
LC-004-005-----0
  6
CONTINUOUS
  5
1DF
 10
91.066067
 20
139.149328
 30
0.0
 11
94.565941
 21
142.649202
 31
0.0
  0
LINE
  8
LC-004-005-----0
  6
CONTINUOUS
  5
1E0
 10
91.066067
 20
141.977755
 30
0.0
 11
94.565934
 21
145.477622
 31
0.0
  0
LINE
  8
LC-004-005-----0
  6
CONTINUOUS
  5
1E1
 10
91.066067
 20
144.806182
 30
0.0
 11
94.565927
 21
148.306043
 31
0.0
  0
LINE
  8
LC-004-005-----0
  6
CONTINUOUS
  5
1E2
 10
91.066067
 20
147.634609
 30
0.0
 11
94.565921
 21
151.134463
 31
0.0
  0
LINE
  8
LC-004-005-----0
  6
CONTINUOUS
  5
1E3
 10
91.066067
 20
150.463036
 30
0.0
 11
94.565914
 21
153.962884
 31
0.0
  0
LINE
  8
LC-004-005-----0
  6
CONTINUOUS
  5
1E4
 10
91.066067
 20
153.291463
 30
0.0
 11
94.565907
 21
156.791304
 31
0.0
  0
LINE
  8
LC-004-005-----0
  6
CONTINUOUS
  5
1E5
 10
91.066067
 20
156.11989
 30
0.0
 11
94.565901
 21
159.619724
 31
0.0
  0
LINE
  8
LC-004-005-----0
  6
CONTINUOUS
  5
1E6
 10
81.500576
 20
149.382827
 30
0.0
 11
82.31536
 21
150.197611
 31
0.0
  0
LINE
  8
LC-004-005-----0
  6
CONTINUOUS
  5
1E7
 10
91.066067
 20
158.948318
 30
0.0
 11
94.565894
 21
162.448145
 31
0.0
  0
LINE
  8
LC-004-005-----0
  6
CONTINUOUS
  5
1E8
 10
79.066067
 20
149.776745
 30
0.0
 11
82.31536
 21
153.026038
 31
0.0
  0
LINE
  8
LC-004-005-----0
  6
CONTINUOUS
  5
1E9
 10
91.066067
 20
161.776745
 30
0.0
 11
94.565887
 21
165.276565
 31
0.0
  0
LINE
  8
LC-004-005-----0
  6
CONTINUOUS
  5
1EA
 10
79.066067
 20
152.605172
 30
0.0
 11
82.31536
 21
155.854465
 31
0.0
  0
LINE
  8
LC-004-005-----0
  6
CONTINUOUS
  5
1EB
 10
91.066067
 20
164.605172
 30
0.0
 11
94.56588
 21
168.104986
 31
0.0
  0
LINE
  8
LC-004-005-----0
  6
CONTINUOUS
  5
1EC
 10
79.066067
 20
155.433599
 30
0.0
 11
82.31536
 21
158.682892
 31
0.0
  0
LINE
  8
LC-004-005-----0
  6
CONTINUOUS
  5
1ED
 10
91.066067
 20
167.433599
 30
0.0
 11
94.565874
 21
170.933406
 31
0.0
  0
LINE
  8
LC-004-005-----0
  6
CONTINUOUS
  5
1EE
 10
79.066067
 20
158.262026
 30
0.0
 11
82.31536
 21
161.511319
 31
0.0
  0
LINE
  8
LC-004-005-----0
  6
CONTINUOUS
  5
1EF
 10
91.066067
 20
170.262026
 30
0.0
 11
94.565867
 21
173.761827
 31
0.0
  0
LINE
  8
LC-004-005-----0
  6
CONTINUOUS
  5
1F0
 10
79.066067
 20
161.090453
 30
0.0
 11
82.31536
 21
164.339746
 31
0.0
  0
LINE
  8
LC-004-005-----0
  6
CONTINUOUS
  5
1F1
 10
91.066067
 20
173.090453
 30
0.0
 11
94.56586
 21
176.590247
 31
0.0
  0
LINE
  8
LC-004-005-----0
  6
CONTINUOUS
  5
1F2
 10
79.066067
 20
163.91888
 30
0.0
 11
82.31536
 21
167.168173
 31
0.0
  0
LINE
  8
LC-004-005-----0
  6
CONTINUOUS
  5
1F3
 10
91.066067
 20
175.91888
 30
0.0
 11
94.565854
 21
179.418667
 31
0.0
  0
LINE
  8
LC-004-005-----0
  6
CONTINUOUS
  5
1F4
 10
79.066067
 20
166.747307
 30
0.0
 11
82.31536
 21
169.996601
 31
0.0
  0
LINE
  8
LC-004-005-----0
  6
CONTINUOUS
  5
1F5
 10
91.066067
 20
178.747307
 30
0.0
 11
94.565847
 21
182.247088
 31
0.0
  0
LINE
  8
LC-004-005-----0
  6
CONTINUOUS
  5
1F6
 10
79.066067
 20
169.575735
 30
0.0
 11
82.31536
 21
172.825028
 31
0.0
  0
LINE
  8
LC-004-005-----0
  6
CONTINUOUS
  5
1F7
 10
91.066067
 20
181.575735
 30
0.0
 11
94.56584
 21
185.075508
 31
0.0
  0
LINE
  8
LC-004-005-----0
  6
CONTINUOUS
  5
1F8
 10
79.066067
 20
172.404162
 30
0.0
 11
82.31536
 21
175.653455
 31
0.0
  0
LINE
  8
LC-004-005-----0
  6
CONTINUOUS
  5
1F9
 10
91.066067
 20
184.404162
 30
0.0
 11
94.565834
 21
187.903929
 31
0.0
  0
LINE
  8
LC-004-005-----0
  6
CONTINUOUS
  5
1FA
 10
79.066067
 20
175.232589
 30
0.0
 11
82.31536
 21
178.481882
 31
0.0
  0
LINE
  8
LC-004-005-----0
  6
CONTINUOUS
  5
1FB
 10
91.066067
 20
187.232589
 30
0.0
 11
94.565827
 21
190.732349
 31
0.0
  0
LINE
  8
LC-004-005-----0
  6
CONTINUOUS
  5
1FC
 10
79.066067
 20
178.061016
 30
0.0
 11
82.31536
 21
181.310309
 31
0.0
  0
LINE
  8
LC-004-005-----0
  6
CONTINUOUS
  5
1FD
 10
84.887991
 20
183.88294
 30
0.0
 11
87.61536
 21
186.610309
 31
0.0
  0
LINE
  8
LC-004-005-----0
  6
CONTINUOUS
  5
1FE
 10
91.066067
 20
190.061016
 30
0.0
 11
94.56582
 21
193.56077
 31
0.0
  0
LINE
  8
LC-004-005-----0
  6
CONTINUOUS
  5
1FF
 10
79.066067
 20
180.889443
 30
0.0
 11
87.61536
 21
189.438736
 31
0.0
  0
LINE
  8
LC-004-005-----0
  6
CONTINUOUS
  5
200
 10
91.066067
 20
192.889443
 30
0.0
 11
94.565814
 21
196.38919
 31
0.0
  0
LINE
  8
LC-004-005-----0
  6
CONTINUOUS
  5
201
 10
79.066067
 20
183.71787
 30
0.0
 11
82.781137
 21
187.43294
 31
0.0
  0
LINE
  8
LC-004-005-----0
  6
CONTINUOUS
  5
202
 10
85.066067
 20
189.71787
 30
0.0
 11
87.61536
 21
192.267163
 31
0.0
  0
LINE
  8
LC-004-005-----0
  6
CONTINUOUS
  5
203
 10
91.066067
 20
195.71787
 30
0.0
 11
94.565807
 21
199.217611
 31
0.0
  0
LINE
  8
LC-004-005-----0
  6
CONTINUOUS
  5
204
 10
79.073373
 20
186.553604
 30
0.0
 11
79.945403
 21
187.425634
 31
0.0
  0
LINE
  8
LC-004-005-----0
  6
CONTINUOUS
  5
205
 10
85.066067
 20
192.546297
 30
0.0
 11
87.61536
 21
195.09559
 31
0.0
  0
LINE
  8
LC-004-005-----0
  6
CONTINUOUS
  5
206
 10
90.319946
 20
197.800176
 30
0.0
 11
94.5658
 21
202.046031
 31
0.0
  0
LINE
  8
LC-004-005-----0
  6
CONTINUOUS
  5
207
 10
85.066067
 20
195.374724
 30
0.0
 11
94.565794
 21
204.874451
 31
0.0
  0
LINE
  8
LC-004-005-----0
  6
CONTINUOUS
  5
208
 10
105.819085
 20
216.127743
 30
0.0
 11
105.819719
 21
216.128377
 31
0.0
  0
LINE
  8
LC-004-005-----0
  6
CONTINUOUS
  5
209
 10
85.066067
 20
198.203152
 30
0.0
 11
89.295855
 21
202.43294
 31
0.0
  0
LINE
  8
LC-004-005-----0
  6
CONTINUOUS
  5
20A
 10
92.316067
 20
205.453152
 30
0.0
 11
94.565787
 21
207.702872
 31
0.0
  0
LINE
  8
LC-004-005-----0
  6
CONTINUOUS
  5
20B
 10
102.990658
 20
216.127743
 30
0.0
 11
105.819968
 21
218.957053
 31
0.0
  0
LINE
  8
LC-004-005-----0
  6
CONTINUOUS
  5
20C
 10
85.066067
 20
201.031579
 30
0.0
 11
86.467428
 21
202.43294
 31
0.0
  0
LINE
  8
LC-004-005-----0
  6
CONTINUOUS
  5
20D
 10
92.316067
 20
208.281579
 30
0.0
 11
94.56578
 21
210.531292
 31
0.0
  0
LINE
  8
LC-004-005-----0
  6
CONTINUOUS
  5
20E
 10
97.782563
 20
213.748076
 30
0.0
 11
99.566365
 21
215.531877
 31
0.0
  0
LINE
  8
LC-004-005-----0
  6
CONTINUOUS
  5
20F
 10
102.566077
 20
218.531589
 30
0.0
 11
105.820217
 21
221.785729
 31
0.0
  0
LINE
  8
LC-004-005-----0
  6
CONTINUOUS
  5
210
 10
92.316067
 20
211.110006
 30
0.0
 11
99.566114
 21
218.360053
 31
0.0
  0
LINE
  8
LC-004-005-----0
  6
CONTINUOUS
  5
211
 10
102.566075
 20
221.360014
 30
0.0
 11
105.820466
 21
224.614405
 31
0.0
  0
LINE
  8
LC-004-005-----0
  6
CONTINUOUS
  5
212
 10
97.066067
 20
218.688433
 30
0.0
 11
99.565864
 21
221.18823
 31
0.0
  0
LINE
  8
LC-004-005-----0
  6
CONTINUOUS
  5
213
 10
102.566073
 20
224.188439
 30
0.0
 11
105.820715
 21
227.443081
 31
0.0
  0
LINE
  8
LC-004-005-----0
  6
CONTINUOUS
  5
214
 10
97.066067
 20
221.51686
 30
0.0
 11
99.565613
 21
224.016406
 31
0.0
  0
LINE
  8
LC-004-005-----0
  6
CONTINUOUS
  5
215
 10
102.566071
 20
227.016864
 30
0.0
 11
105.820964
 21
230.271758
 31
0.0
  0
LINE
  8
LC-004-005-----0
  6
CONTINUOUS
  5
216
 10
97.066067
 20
224.345287
 30
0.0
 11
99.565362
 21
226.844583
 31
0.0
  0
LINE
  8
LC-004-005-----0
  6
CONTINUOUS
  5
217
 10
102.566068
 20
229.845289
 30
0.0
 11
105.821213
 21
233.100434
 31
0.0
  0
LINE
  8
LC-004-005-----0
  6
CONTINUOUS
  5
218
 10
97.066067
 20
227.173714
 30
0.0
 11
99.565112
 21
229.67276
 31
0.0
  0
LINE
  8
LC-004-005-----0
  6
CONTINUOUS
  5
219
 10
102.018563
 20
232.126211
 30
0.0
 11
104.519626
 21
234.627274
 31
0.0
  0
LINE
  8
LC-004-005-----0
  6
CONTINUOUS
  5
21A
 10
97.066067
 20
230.002141
 30
0.0
 11
101.691462
 21
234.627537
 31
0.0
  0
LINE
  8
LC-004-005-----0
  6
CONTINUOUS
  5
21B
 10
97.066067
 20
232.830569
 30
0.0
 11
98.863297
 21
234.627799
 31
0.0
  0
ENDBLK
  8
0
  5
21C
  0
BLOCK
  8
0
  5
21E
  2
*D53
 70
    65
 10
0.0
 20
0.0
 30
0.0
  3
*D53
  0
LINE
  8
LC-009-003-MTH-0
  6
CONTINUOUS
  5
21F
 10
-162.433921
 20
240.374929
 30
0.0
 11
-162.433921
 21
352.8
 31
0.0
  0
LINE
  8
LC-009-003-MTH-0
  6
CONTINUOUS
  5
220
 10
191.566066
 20
240.384126
 30
0.0
 11
191.566066
 21
352.8
 31
0.0
  0
LINE
  8
LC-010-003-MTG-0
  6
CONTINUOUS
  5
221
 10
-162.433921
 20
336.0
 30
0.0
 11
191.566066
 21
336.0
 31
0.0
  0
LINE
  8
LC-008-003-----0
  6
CONTINUOUS
  5
222
 10
-134.673465
 20
339.654733
 30
0.0
 11
-162.433921
 21
336.0
 31
0.0
  0
LINE
  8
LC-008-003-----0
  6
CONTINUOUS
  5
223
 10
-162.433921
 20
336.0
 30
0.0
 11
-134.673465
 21
332.345267
 31
0.0
  0
LINE
  8
LC-008-003-----0
  6
CONTINUOUS
  5
224
 10
-134.673465
 20
332.345267
 30
0.0
 11
-134.673465
 21
339.654733
 31
0.0
  0
LINE
  8
LC-008-003-----0
  6
CONTINUOUS
  5
225
 10
-134.611184
 20
338.704503
 30
0.0
 11
-155.153921
 21
336.0
 31
0.0
  0
LINE
  8
LC-008-003-----0
  6
CONTINUOUS
  5
226
 10
-155.153921
 20
336.0
 30
0.0
 11
-134.611184
 21
333.295497
 31
0.0
  0
LINE
  8
LC-008-003-----0
  6
CONTINUOUS
  5
227
 10
-134.548902
 20
337.754272
 30
0.0
 11
-147.873921
 21
336.0
 31
0.0
  0
LINE
  8
LC-008-003-----0
  6
CONTINUOUS
  5
228
 10
-147.873921
 20
336.0
 30
0.0
 11
-134.548902
 21
334.245728
 31
0.0
  0
LINE
  8
LC-008-003-----0
  6
CONTINUOUS
  5
229
 10
-134.486621
 20
336.804041
 30
0.0
 11
-140.593921
 21
336.0
 31
0.0
  0
LINE
  8
LC-008-003-----0
  6
CONTINUOUS
  5
22A
 10
-140.593921
 20
336.0
 30
0.0
 11
-134.486621
 21
335.195959
 31
0.0
  0
LINE
  8
LC-008-003-----0
  6
CONTINUOUS
  5
22B
 10
163.805609
 20
332.345267
 30
0.0
 11
191.566066
 21
336.0
 31
0.0
  0
LINE
  8
LC-008-003-----0
  6
CONTINUOUS
  5
22C
 10
191.566066
 20
336.0
 30
0.0
 11
163.805609
 21
339.654733
 31
0.0
  0
LINE
  8
LC-008-003-----0
  6
CONTINUOUS
  5
22D
 10
163.805609
 20
339.654733
 30
0.0
 11
163.805609
 21
332.345267
 31
0.0
  0
LINE
  8
LC-008-003-----0
  6
CONTINUOUS
  5
22E
 10
163.743328
 20
333.295497
 30
0.0
 11
184.286066
 21
336.0
 31
0.0
  0
LINE
  8
LC-008-003-----0
  6
CONTINUOUS
  5
22F
 10
184.286066
 20
336.0
 30
0.0
 11
163.743328
 21
338.704503
 31
0.0
  0
LINE
  8
LC-008-003-----0
  6
CONTINUOUS
  5
230
 10
163.681047
 20
334.245728
 30
0.0
 11
177.006066
 21
336.0
 31
0.0
  0
LINE
  8
LC-008-003-----0
  6
CONTINUOUS
  5
231
 10
177.006066
 20
336.0
 30
0.0
 11
163.681047
 21
337.754272
 31
0.0
  0
LINE
  8
LC-008-003-----0
  6
CONTINUOUS
  5
232
 10
163.618765
 20
335.195959
 30
0.0
 11
169.726066
 21
336.0
 31
0.0
  0
LINE
  8
LC-008-003-----0
  6
CONTINUOUS
  5
233
 10
169.726066
 20
336.0
 30
0.0
 11
163.618765
 21
336.804041
 31
0.0
  0
TEXT
  8
LC-008-003-----0
  6
CONTINUOUS
 62
     8
  5
234
 10
-19.357218
 20
343.827554
 30
0.0
 40
28.0
  1
Ø354
 41
0.9
 51
15.0
  7
LC-TXTSTYLE-150-400-0-0-A0
 72
     1
 11
18.914232
 21
343.827554
 31
0.0
  0
ENDBLK
  8
0
  5
235
  0
BLOCK
  8
0
  5
237
  2
*D54
 70
    65
 10
0.0
 20
0.0
 30
0.0
  3
*D54
  0
LINE
  8
LC-009-003-MTH-0
  6
CONTINUOUS
  5
238
 10
-63.826238
 20
83.382827
 30
0.0
 11
-184.8
 21
83.382827
 31
0.0
  0
LINE
  8
LC-009-003-MTH-0
  6
CONTINUOUS
  5
239
 10
-162.433921
 20
240.374929
 30
0.0
 11
-184.8
 21
240.374929
 31
0.0
  0
LINE
  8
LC-010-003-MTG-0
  6
CONTINUOUS
  5
23A
 10
-168.0
 20
83.382827
 30
0.0
 11
-168.0
 21
240.374929
 31
0.0
  0
LINE
  8
LC-008-003-----0
  6
CONTINUOUS
  5
23B
 10
-171.654733
 20
111.143283
 30
0.0
 11
-168.0
 21
83.382827
 31
0.0
  0
LINE
  8
LC-008-003-----0
  6
CONTINUOUS
  5
23C
 10
-168.0
 20
83.382827
 30
0.0
 11
-164.345267
 21
111.143283
 31
0.0
  0
LINE
  8
LC-008-003-----0
  6
CONTINUOUS
  5
23D
 10
-164.345267
 20
111.143283
 30
0.0
 11
-171.654733
 21
111.143283
 31
0.0
  0
LINE
  8
LC-008-003-----0
  6
CONTINUOUS
  5
23E
 10
-170.704503
 20
111.205564
 30
0.0
 11
-168.0
 21
90.662827
 31
0.0
  0
LINE
  8
LC-008-003-----0
  6
CONTINUOUS
  5
23F
 10
-168.0
 20
90.662827
 30
0.0
 11
-165.295497
 21
111.205564
 31
0.0
  0
LINE
  8
LC-008-003-----0
  6
CONTINUOUS
  5
240
 10
-169.754272
 20
111.267846
 30
0.0
 11
-168.0
 21
97.942827
 31
0.0
  0
LINE
  8
LC-008-003-----0
  6
CONTINUOUS
  5
241
 10
-168.0
 20
97.942827
 30
0.0
 11
-166.245728
 21
111.267846
 31
0.0
  0
LINE
  8
LC-008-003-----0
  6
CONTINUOUS
  5
242
 10
-168.804041
 20
111.330127
 30
0.0
 11
-168.0
 21
105.222827
 31
0.0
  0
LINE
  8
LC-008-003-----0
  6
CONTINUOUS
  5
243
 10
-168.0
 20
105.222827
 30
0.0
 11
-167.195959
 21
111.330127
 31
0.0
  0
LINE
  8
LC-008-003-----0
  6
CONTINUOUS
  5
244
 10
-164.345267
 20
212.614473
 30
0.0
 11
-168.0
 21
240.374929
 31
0.0
  0
LINE
  8
LC-008-003-----0
  6
CONTINUOUS
  5
245
 10
-168.0
 20
240.374929
 30
0.0
 11
-171.654733
 21
212.614473
 31
0.0
  0
LINE
  8
LC-008-003-----0
  6
CONTINUOUS
  5
246
 10
-171.654733
 20
212.614473
 30
0.0
 11
-164.345267
 21
212.614473
 31
0.0
  0
LINE
  8
LC-008-003-----0
  6
CONTINUOUS
  5
247
 10
-165.295497
 20
212.552191
 30
0.0
 11
-168.0
 21
233.094929
 31
0.0
  0
LINE
  8
LC-008-003-----0
  6
CONTINUOUS
  5
248
 10
-168.0
 20
233.094929
 30
0.0
 11
-170.704503
 21
212.552191
 31
0.0
  0
LINE
  8
LC-008-003-----0
  6
CONTINUOUS
  5
249
 10
-166.245728
 20
212.48991
 30
0.0
 11
-168.0
 21
225.814929
 31
0.0
  0
LINE
  8
LC-008-003-----0
  6
CONTINUOUS
  5
24A
 10
-168.0
 20
225.814929
 30
0.0
 11
-169.754272
 21
212.48991
 31
0.0
  0
LINE
  8
LC-008-003-----0
  6
CONTINUOUS
  5
24B
 10
-167.195959
 20
212.427628
 30
0.0
 11
-168.0
 21
218.534929
 31
0.0
  0
LINE
  8
LC-008-003-----0
  6
CONTINUOUS
  5
24C
 10
-168.0
 20
218.534929
 30
0.0
 11
-168.804041
 21
212.427628
 31
0.0
  0
TEXT
  8
LC-008-003-----0
  6
CONTINUOUS
 62
     8
  5
24D
 10
-175.827554
 20
139.823738
 30
0.0
 40
28.0
  1
157
 50
90.0
 41
0.9
 51
15.0
  7
LC-TXTSTYLE-150-400-0-0-A0
 72
     1
 11
-175.827554
 21
166.227038
 31
0.0
  0
ENDBLK
  8
0
  5
24E
  0
BLOCK
  8
0
  5
250
  2
*X55
 70
    65
 10
103.090199
 20
239.184471
 30
0.0
  3
*X55
  0
LINE
  8
LC-004-005-----0
  6
CONTINUOUS
  5
251
 10
114.050947
 20
240.916658
 30
0.0
 11
113.809626
 21
241.157978
 31
0.0
  0
LINE
  8
LC-004-005-----0
  6
CONTINUOUS
  5
252
 10
113.804963
 20
240.455534
 30
0.0
 11
113.345697
 21
240.914801
 31
0.0
  0
LINE
  8
LC-004-005-----0
  6
CONTINUOUS
  5
253
 10
113.341034
 20
240.212357
 30
0.0
 11
112.881767
 21
240.671623
 31
0.0
  0
LINE
  8
LC-004-005-----0
  6
CONTINUOUS
  5
254
 10
112.877105
 20
239.969179
 30
0.0
 11
112.261813
 21
240.584471
 31
0.0
  0
LINE
  8
LC-004-005-----0
  6
CONTINUOUS
  5
255
 10
112.254706
 20
239.884471
 30
0.0
 11
111.770573
 21
240.368604
 31
0.0
  0
LINE
  8
LC-004-005-----0
  6
CONTINUOUS
  5
256
 10
105.370573
 20
240.404643
 30
0.0
 11
105.190745
 21
240.584471
 31
0.0
  0
LINE
  8
LC-004-005-----0
  6
CONTINUOUS
  5
257
 10
105.183638
 20
239.884471
 30
0.0
 11
104.483638
 21
240.584471
 31
0.0
  0
LINE
  8
LC-004-005-----0
  6
CONTINUOUS
  5
258
 10
104.476532
 20
239.884471
 30
0.0
 11
103.999765
 21
240.361237
 31
0.0
  0
LINE
  8
LC-004-005-----0
  6
CONTINUOUS
  5
259
 10
103.995102
 20
239.658793
 30
0.0
 11
103.535836
 21
240.11806
 31
0.0
  0
LINE
  8
LC-004-005-----0
  6
CONTINUOUS
  5
25A
 10
103.531173
 20
239.415616
 30
0.0
 11
103.090199
 21
239.85659
 31
0.0
  0
ENDBLK
  8
0
  5
25B
  0
BLOCK
  8
0
  5
25D
  2
BLK38
 70
    64
 10
0.0
 20
0.0
 30
0.0
  3
BLK38
  0
ENDBLK
  8
0
  5
25E
  0
BLOCK
  8
0
  5
260
  2
BLK39
 70
    64
 10
0.0
 20
0.0
 30
0.0
  3
BLK39
  0
ENDBLK
  8
0
  5
261
  0
BLOCK
  8
0
  5
263
  2
*X58
 70
    65
 10
-84.918754
 20
239.184505
 30
0.0
  3
*X58
  0
LINE
  8
LC-004-005-----0
  6
CONTINUOUS
  5
264
 10
-73.958006
 20
239.420993
 30
0.0
 11
-74.932117
 21
240.395104
 31
0.0
  0
LINE
  8
LC-004-005-----0
  6
CONTINUOUS
  5
265
 10
-74.947053
 20
239.702933
 30
0.0
 11
-75.828625
 21
240.584505
 31
0.0
  0
LINE
  8
LC-004-005-----0
  6
CONTINUOUS
  5
266
 10
-75.835732
 20
239.884505
 30
0.0
 11
-76.23838
 21
240.287153
 31
0.0
  0
LINE
  8
LC-004-005-----0
  6
CONTINUOUS
  5
267
 10
-82.63838
 20
240.323192
 30
0.0
 11
-82.899696
 21
240.584508
 31
0.0
  0
LINE
  8
LC-004-005-----0
  6
CONTINUOUS
  5
268
 10
-82.906803
 20
239.884508
 30
0.0
 11
-83.632686
 21
240.610391
 31
0.0
  0
LINE
  8
LC-004-005-----0
  6
CONTINUOUS
  5
269
 10
-83.647621
 20
239.91822
 30
0.0
 11
-84.918753
 21
241.189352
 31
0.0
  0
ENDBLK
  8
0
  5
26A
  0
BLOCK
  8
0
  5
26C
  2
BLK40
 70
    64
 10
0.0
 20
0.0
 30
0.0
  3
BLK40
  0
ENDBLK
  8
0
  5
26D
  0
BLOCK
  8
0
  5
26F
  2
BLK41
 70
    64
 10
0.0
 20
0.0
 30
0.0
  3
BLK41
  0
ENDBLK
  8
0
  5
270
  0
BLOCK
  8
0
  5
272
  2
*X61
 70
    65
 10
-61.433226
 20
177.322346
 30
0.0
  3
*X61
  0
LINE
  8
LC-004-005-----0
  6
CONTINUOUS
  5
273
 10
-57.32051
 20
177.438942
 30
0.0
 11
-55.049823
 21
179.709629
 31
0.0
  0
LINE
  8
LC-004-005-----0
  6
CONTINUOUS
  5
274
 10
-58.793506
 20
177.380158
 30
0.0
 11
-54.991039
 21
181.182626
 31
0.0
  0
LINE
  8
LC-004-005-----0
  6
CONTINUOUS
  5
275
 10
-59.822075
 20
177.765804
 30
0.0
 11
-55.376685
 21
182.211194
 31
0.0
  0
LINE
  8
LC-004-005-----0
  6
CONTINUOUS
  5
276
 10
-60.601276
 20
178.400816
 30
0.0
 11
-56.011697
 21
182.990395
 31
0.0
  0
LINE
  8
LC-004-005-----0
  6
CONTINUOUS
  5
277
 10
-61.156428
 20
179.259878
 30
0.0
 11
-56.870758
 21
183.545547
 31
0.0
  0
LINE
  8
LC-004-005-----0
  6
CONTINUOUS
  5
278
 10
-61.428747
 20
180.401772
 30
0.0
 11
-58.012653
 21
183.817866
 31
0.0
  0
LINE
  8
LC-004-005-----0
  6
CONTINUOUS
  5
279
 10
-60.920868
 20
182.323865
 30
0.0
 11
-59.934746
 21
183.309987
 31
0.0
  0
ENDBLK
  8
0
  5
27A
  0
BLOCK
  8
0
  5
27C
  2
BLK42
 70
    64
 10
0.0
 20
0.0
 30
0.0
  3
BLK42
  0
ENDBLK
  8
0
  5
27D
  0
BLOCK
  8
0
  5
27F
  2
BLK43
 70
    64
 10
0.0
 20
0.0
 30
0.0
  3
BLK43
  0
ENDBLK
  8
0
  5
280
  0
BLOCK
  8
0
  5
282
  2
BLK44
 70
    64
 10
0.0
 20
0.0
 30
0.0
  3
BLK44
  0
ENDBLK
  8
0
  5
283
  0
BLOCK
  8
0
  5
285
  2
*D65
 70
    65
 10
0.0
 20
0.0
 30
0.0
  3
*D65
  0
LINE
  8
LC-009-003-MTH-0
  6
CONTINUOUS
  5
286
 10
-86.937422
 20
220.918132
 30
0.0
 11
-86.187398
 21
-17.071703
 31
0.0
  0
LINE
  8
LC-009-003-MTH-0
  6
CONTINUOUS
  5
287
 10
116.069555
 20
221.557908
 30
0.0
 11
116.819579
 21
-16.431927
 31
0.0
  0
LINE
  8
LC-010-003-MTG-0
  6
CONTINUOUS
  5
288
 10
-86.240342
 20
-0.271786
 30
0.0
 11
116.766635
 21
0.36799
 31
0.0
  0
LINE
  8
LC-008-003-----0
  6
CONTINUOUS
  5
289
 10
-58.491542
 20
3.470416
 30
0.0
 11
-86.240342
 21
-0.271786
 31
0.0
  0
LINE
  8
LC-008-003-----0
  6
CONTINUOUS
  5
28A
 10
-86.240342
 20
-0.271786
 30
0.0
 11
-58.468506
 21
-3.839015
 31
0.0
  0
LINE
  8
LC-008-003-----0
  6
CONTINUOUS
  5
28B
 10
-58.468506
 20
-3.839015
 30
0.0
 11
-58.491542
 21
3.470416
 31
0.0
  0
LINE
  8
LC-008-003-----0
  6
CONTINUOUS
  5
28C
 10
-58.426266
 20
2.520386
 30
0.0
 11
-78.960379
 21
-0.248843
 31
0.0
  0
LINE
  8
LC-008-003-----0
  6
CONTINUOUS
  5
28D
 10
-78.960379
 20
-0.248843
 30
0.0
 11
-58.40922
 21
-2.888593
 31
0.0
  0
LINE
  8
LC-008-003-----0
  6
CONTINUOUS
  5
28E
 10
-58.360991
 20
1.570356
 30
0.0
 11
-71.680415
 21
-0.225901
 31
0.0
  0
LINE
  8
LC-008-003-----0
  6
CONTINUOUS
  5
28F
 10
-71.680415
 20
-0.225901
 30
0.0
 11
-58.349933
 21
-1.93817
 31
0.0
  0
LINE
  8
LC-008-003-----0
  6
CONTINUOUS
  5
290
 10
-58.295715
 20
0.620327
 30
0.0
 11
-64.400451
 21
-0.202958
 31
0.0
  0
LINE
  8
LC-008-003-----0
  6
CONTINUOUS
  5
291
 10
-64.400451
 20
-0.202958
 30
0.0
 11
-58.290647
 21
-0.987748
 31
0.0
  0
LINE
  8
LC-008-003-----0
  6
CONTINUOUS
  5
292
 10
89.017834
 20
-3.374212
 30
0.0
 11
116.766635
 21
0.36799
 31
0.0
  0
LINE
  8
LC-008-003-----0
  6
CONTINUOUS
  5
293
 10
116.766635
 20
0.36799
 30
0.0
 11
88.994798
 21
3.935218
 31
0.0
  0
LINE
  8
LC-008-003-----0
  6
CONTINUOUS
  5
294
 10
88.994798
 20
3.935218
 30
0.0
 11
89.017834
 21
-3.374212
 31
0.0
  0
LINE
  8
LC-008-003-----0
  6
CONTINUOUS
  5
295
 10
88.952558
 20
-2.424182
 30
0.0
 11
109.486671
 21
0.345047
 31
0.0
  0
LINE
  8
LC-008-003-----0
  6
CONTINUOUS
  5
296
 10
109.486671
 20
0.345047
 30
0.0
 11
88.935512
 21
2.984796
 31
0.0
  0
LINE
  8
LC-008-003-----0
  6
CONTINUOUS
  5
297
 10
88.887283
 20
-1.474153
 30
0.0
 11
102.206707
 21
0.322104
 31
0.0
  0
LINE
  8
LC-008-003-----0
  6
CONTINUOUS
  5
298
 10
102.206707
 20
0.322104
 30
0.0
 11
88.876226
 21
2.034374
 31
0.0
  0
LINE
  8
LC-008-003-----0
  6
CONTINUOUS
  5
299
 10
88.822007
 20
-0.524123
 30
0.0
 11
94.926743
 21
0.299161
 31
0.0
  0
LINE
  8
LC-008-003-----0
  6
CONTINUOUS
  5
29A
 10
94.926743
 20
0.299161
 30
0.0
 11
88.816939
 21
1.083952
 31
0.0
  0
TEXT
  8
LC-008-003-----0
  6
CONTINUOUS
 62
     8
  5
29B
 10
-18.69011
 20
7.757184
 30
0.0
 40
28.0
  1
Ø203
 50
0.2
 41
0.9
 51
15.0
  7
LC-TXTSTYLE-150-400-0-0-A0
 72
     1
 11
19.581107
 21
7.890776
 31
0.0
  0
ENDBLK
  8
0
  5
29C
  0
ENDSEC
  0
SECTION
  2
ENTITIES
  0
VIEWPORT
  8
LC-000
  5
569
 67
     1
 68
     1
 10
420.0
 20
297.0
 30
0.0
 40
840.0
 41
594.0
 69
     1
1001
ACAD
1000
MVIEW
1002
{
1070
    16
1010
0.0
1020
0.0
1030
0.0
1010
0.0
1020
0.0
1030
1.0
1040
0.0
1040
594.0
1040
420.0
1040
297.0
1040
50.0
1040
0.0
1040
0.0
1070
     0
1070
   100
1070
     1
1070
     1
1070
     0
1070
     0
1070
     0
1070
     0
1040
0.0
1040
0.0
1040
0.0
1040
1.0
1040
1.0
1040
0.0
1040
0.0
1070
     0
1002
{
1002
}
1002
}
  0
VIEWPORT
  8
0
  5
56A
 67
     1
 68
     1
 10
0.0
 20
0.0
 30
0.0
 40
0.0
 41
0.0
 69
     1
1001
ACAD
1000
MVIEW
1002
{
1070
    16
1010
0.0
1020
0.0
1030
0.0
1010
0.0
1020
0.0
1030
1.0
1040
0.0
1040
594.0
1040
0.0
1040
0.0
1040
50.0
1040
0.0
1040
0.0
1070
     0
1070
   100
1070
     0
1070
     1
1070
     0
1070
     0
1070
     0
1070
     0
1040
0.0
1040
0.0
1040
0.0
1040
0.5
1040
0.5
1040
0.5
1040
0.5
1070
     0
1002
{
1002
}
1002
}
  0
INSERT
  8
LC-003-000-----0
  5
29E
  2
BLK1
 10
0.0
 20
0.0
 30
0.0
  0
INSERT
  8
LC-003-000-----0
  5
29F
  2
BLK2
 10
0.0
 20
0.0
 30
0.0
  0
INSERT
  8
LC-004-005-----0
  6
CONTINUOUS
  5
2A0
  2
*X2
 10
-60.833632
 20
208.655789
 30
0.0
  0
INSERT
  8
LC-004-005-----0
  6
CONTINUOUS
  5
2A1
  2
*X3
 10
85.065804
 20
208.655983
 30
0.0
  0
INSERT
  8
LC-004-005-----0
  6
CONTINUOUS
  5
2A2
  2
*X4
 10
-43.326585
 20
272.293471
 30
0.0
  0
INSERT
  8
LC-003-000-----0
  5
2A3
  2
BLK3
 10
0.0
 20
0.0
 30
0.0
  0
INSERT
  8
LC-004-005-----0
  6
CONTINUOUS
  5
2A4
  2
*X6
 10
112.05997
 20
236.684462
 30
0.0
  0
INSERT
  8
LC-004-005-----0
  6
CONTINUOUS
  5
2A5
  2
*X7
 10
-75.939331
 20
212.684138
 30
0.0
  0
INSERT
  8
LC-004-005-----0
  6
CONTINUOUS
  5
2A6
  2
*X8
 10
-110.1303
 20
236.684021
 30
0.0
  0
INSERT
  8
LC-004-005-----0
  6
CONTINUOUS
  5
2A7
  2
*X9
 10
88.560075
 20
212.684462
 30
0.0
  0
INSERT
  8
LC-003-000-----0
  5
2A8
  2
BLK4
 10
0.0
 20
0.0
 30
0.0
  0
INSERT
  8
LC-003-000-----0
  5
2A9
  2
BLK5
 10
0.0
 20
0.0
 30
0.0
  0
INSERT
  8
LC-003-000-----0
  5
2AA
  2
BLK6
 10
0.0
 20
0.0
 30
0.0
  0
INSERT
  8
LC-004-005-----0
  6
CONTINUOUS
  5
2AB
  2
*X13
 10
55.565964
 20
272.29363
 30
0.0
  0
INSERT
  8
LC-003-000-----0
  5
2AC
  2
BLK7
 10
0.0
 20
0.0
 30
0.0
  0
INSERT
  8
LC-003-000-----0
  5
2AD
  2
BLK8
 10
0.0
 20
0.0
 30
0.0
  0
INSERT
  8
LC-003-000-----0
  5
2AE
  2
BLK9
 10
0.0
 20
0.0
 30
0.0
  0
INSERT
  8
LC-001-002-----0
  6
CONTINUOUS
  5
2AF
  2
BLK10
 10
0.0
 20
0.0
 30
0.0
  0
INSERT
  8
LC-001-002-----0
  6
CONTINUOUS
  5
2B0
  2
BLK11
 10
0.0
 20
0.0
 30
0.0
  0
INSERT
  8
LC-001-002-----0
  6
CONTINUOUS
  5
2B1
  2
BLK12
 10
0.0
 20
0.0
 30
0.0
  0
INSERT
  8
LC-001-002-----0
  6
CONTINUOUS
  5
2B2
  2
BLK13
 10
0.0
 20
0.0
 30
0.0
  0
INSERT
  8
LC-001-002-----0
  6
CONTINUOUS
  5
2B3
  2
BLK14
 10
0.0
 20
0.0
 30
0.0
  0
INSERT
  8
LC-001-002-----0
  6
CONTINUOUS
  5
2B4
  2
BLK15
 10
0.0
 20
0.0
 30
0.0
  0
INSERT
  8
LC-001-002-----0
  6
CONTINUOUS
  5
2B5
  2
BLK16
 10
0.0
 20
0.0
 30
0.0
  0
INSERT
  8
LC-001-002-----0
  6
CONTINUOUS
  5
2B6
  2
BLK17
 10
0.0
 20
0.0
 30
0.0
  0
INSERT
  8
LC-001-002-----0
  6
CONTINUOUS
  5
2B7
  2
BLK18
 10
0.0
 20
0.0
 30
0.0
  0
INSERT
  8
LC-001-002-----0
  6
CONTINUOUS
  5
2B8
  2
BLK19
 10
0.0
 20
0.0
 30
0.0
  0
INSERT
  8
LC-001-002-----0
  6
CONTINUOUS
  5
2B9
  2
BLK20
 10
0.0
 20
0.0
 30
0.0
  0
INSERT
  8
LC-001-002-----0
  6
CONTINUOUS
  5
2BA
  2
BLK21
 10
0.0
 20
0.0
 30
0.0
  0
INSERT
  8
LC-001-002-----0
  6
CONTINUOUS
  5
2BB
  2
BLK22
 10
0.0
 20
0.0
 30
0.0
  0
INSERT
  8
LC-001-002-----0
  6
CONTINUOUS
  5
2BC
  2
BLK23
 10
0.0
 20
0.0
 30
0.0
  0
INSERT
  8
LC-001-002-----0
  6
CONTINUOUS
  5
2BD
  2
BLK24
 10
0.0
 20
0.0
 30
0.0
  0
INSERT
  8
LC-001-002-----0
  6
CONTINUOUS
  5
2BE
  2
BLK25
 10
0.0
 20
0.0
 30
0.0
  0
INSERT
  8
LC-001-002-----0
  6
CONTINUOUS
  5
2BF
  2
BLK26
 10
0.0
 20
0.0
 30
0.0
  0
INSERT
  8
LC-001-002-----0
  6
CONTINUOUS
  5
2C0
  2
BLK27
 10
0.0
 20
0.0
 30
0.0
  0
INSERT
  8
LC-001-002-----0
  6
CONTINUOUS
  5
2C1
  2
BLK28
 10
0.0
 20
0.0
 30
0.0
  0
INSERT
  8
LC-001-002-----0
  6
CONTINUOUS
  5
2C2
  2
BLK29
 10
0.0
 20
0.0
 30
0.0
  0
INSERT
  8
LC-001-002-----0
  6
CONTINUOUS
  5
2C3
  2
BLK30
 10
0.0
 20
0.0
 30
0.0
  0
INSERT
  8
LC-001-002-----0
  6
CONTINUOUS
  5
2C4
  2
BLK31
 10
0.0
 20
0.0
 30
0.0
  0
INSERT
  8
LC-001-002-----0
  6
CONTINUOUS
  5
2C5
  2
BLK32
 10
0.0
 20
0.0
 30
0.0
  0
INSERT
  8
LC-001-002-----0
  6
CONTINUOUS
  5
2C6
  2
BLK33
 10
0.0
 20
0.0
 30
0.0
  0
INSERT
  8
LC-001-002-----0
  6
CONTINUOUS
  5
2C7
  2
BLK34
 10
0.0
 20
0.0
 30
0.0
  0
INSERT
  8
LC-001-002-----0
  6
CONTINUOUS
  5
2C8
  2
BLK35
 10
0.0
 20
0.0
 30
0.0
  0
INSERT
  8
LC-001-002-----0
  6
CONTINUOUS
  5
2C9
  2
BLK36
 10
0.0
 20
0.0
 30
0.0
  0
INSERT
  8
LC-001-002-----0
  6
CONTINUOUS
  5
2CA
  2
BLK37
 10
0.0
 20
0.0
 30
0.0
  0
INSERT
  8
LC-004-005-----0
  6
CONTINUOUS
  5
2CB
  2
*X45
 10
-61.933933
 20
149.382827
 30
0.0
  0
INSERT
  8
LC-004-005-----0
  6
CONTINUOUS
  5
2CC
  2
*X46
 10
82.31536
 20
149.382827
 30
0.0
  0
INSERT
  8
LC-004-005-----0
  6
CONTINUOUS
  5
2CD
  2
*X47
 10
82.31536
 20
152.632827
 30
0.0
  0
INSERT
  8
LC-004-005-----0
  6
CONTINUOUS
  5
2CE
  2
*X48
 10
82.31536
 20
152.632827
 30
0.0
  0
DIMENSION
  8
LC-008-003-----0
  6
CONTINUOUS
  5
2CF
  2
*D49
 10
14.566067
 20
39.2
 30
0.0
 11
14.566067
 21
39.2
 31
0.0
  1
DN150
 13
-65.433933
 23
89.382827
 33
0.0
 14
94.566067
 24
89.382827
 34
0.0
  3
LC-DIM-L-0140-02-02
  0
INSERT
  8
LC-004-005-----0
  6
CONTINUOUS
  5
2D0
  2
*X50
 10
-162.433926
 20
216.127717
 30
0.0
  0
INSERT
  8
LC-004-005-----0
  6
CONTINUOUS
  5
2D1
  2
*X51
 10
111.319719
 20
216.127743
 30
0.0
  0
INSERT
  8
LC-004-005-----0
  6
CONTINUOUS
  5
2D2
  2
*X52
 10
79.066067
 20
83.382827
 30
0.0
  0
DIMENSION
  8
LC-008-003-----0
  6
CONTINUOUS
  5
2D3
  2
*D53
 10
14.566072
 20
336.0
 30
0.0
 11
14.566072
 21
336.0
 31
0.0
  1
%%c<>
 13
-162.433921
 23
240.374929
 33
0.0
 14
191.566066
 24
240.384126
 34
0.0
  3
LC-DIM-L-0140-02-02
  0
DIMENSION
  8
LC-008-003-----0
  6
CONTINUOUS
  5
2D4
  2
*D54
 10
-168.0
 20
161.878878
 30
0.0
 11
-168.0
 21
161.878878
 31
0.0
  1
157
 13
-162.433921
 23
240.374929
 33
0.0
 14
-63.826238
 24
83.382827
 34
0.0
 50
90.0
  3
LC-DIM-L-0140-02-02
  0
INSERT
  8
LC-004-005-----0
  6
CONTINUOUS
  5
2D5
  2
*X55
 10
103.090199
 20
239.184471
 30
0.0
  0
INSERT
  8
LC-003-000-----0
  5
2D6
  2
BLK38
 10
0.0
 20
0.0
 30
0.0
  0
INSERT
  8
LC-003-000-----0
  5
2D7
  2
BLK39
 10
0.0
 20
0.0
 30
0.0
  0
INSERT
  8
LC-004-005-----0
  6
CONTINUOUS
  5
2D8
  2
*X58
 10
-84.918754
 20
239.184505
 30
0.0
  0
INSERT
  8
LC-003-000-----0
  5
2D9
  2
BLK40
 10
0.0
 20
0.0
 30
0.0
  0
INSERT
  8
LC-003-000-----0
  5
2DA
  2
BLK41
 10
0.0
 20
0.0
 30
0.0
  0
INSERT
  8
LC-004-005-----0
  6
CONTINUOUS
  5
2DB
  2
*X61
 10
-61.433226
 20
177.322346
 30
0.0
  0
INSERT
  8
LC-004-005-----0
  6
CONTINUOUS
  5
2DC
  2
BLK42
 10
0.0
 20
0.0
 30
0.0
  0
INSERT
  8
LC-004-005-----0
  6
CONTINUOUS
  5
2DD
  2
BLK43
 10
0.0
 20
0.0
 30
0.0
  0
INSERT
  8
LC-004-005-----0
  6
CONTINUOUS
  5
2DE
  2
BLK44
 10
0.0
 20
0.0
 30
0.0
  0
DIMENSION
  8
LC-008-003-----0
  6
CONTINUOUS
  5
2DF
  2
*D65
 10
15.263146
 20
0.048102
 30
0.0
 11
15.263146
 21
0.048102
 31
0.0
 70
     1
  1
%%c203
 13
-86.937422
 23
220.918132
 33
0.0
 14
116.069555
 24
221.557908
 34
0.0
  3
LC-DIM-L-0140-02-02
  0
LINE
  8
LC-001-002-----0
  6
CONTINUOUS
  5
2E0
 10
-86.937422
 20
216.608586
 30
0.0
 11
-86.937422
 21
230.608586
 31
0.0
  0
LINE
  8
LC-001-002-----0
  6
CONTINUOUS
  5
2E1
 10
-85.937422
 20
216.608586
 30
0.0
 11
-85.937422
 21
230.608586
 31
0.0
  0
LINE
  8
LC-001-002-----0
  6
CONTINUOUS
  5
2E2
 10
-75.937422
 20
216.108586
 30
0.0
 11
-75.937422
 21
215.108586
 31
0.0
  0
LINE
  8
LC-001-002-----0
  6
CONTINUOUS
  5
2E3
 10
-85.437422
 20
215.108586
 30
0.0
 11
-82.937422
 21
215.108586
 31
0.0
  0
LINE
  8
LC-001-002-----0
  6
CONTINUOUS
  5
2E4
 10
-72.386817
 20
215.108586
 30
0.0
 11
-72.386817
 21
216.108586
 31
0.0
  0
LINE
  8
LC-001-002-----0
  6
CONTINUOUS
  5
2E5
 10
116.069555
 20
216.608586
 30
0.0
 11
116.069555
 21
230.608586
 31
0.0
  0
LINE
  8
LC-001-002-----0
  6
CONTINUOUS
  5
2E6
 10
115.069555
 20
216.608586
 30
0.0
 11
115.069555
 21
230.608586
 31
0.0
  0
LINE
  8
LC-001-002-----0
  6
CONTINUOUS
  5
2E7
 10
-85.437422
 20
216.108586
 30
0.0
 11
-82.937422
 21
216.108586
 31
0.0
  0
LINE
  8
LC-001-002-----0
  6
CONTINUOUS
  5
2E8
 10
105.069555
 20
216.108586
 30
0.0
 11
105.069555
 21
215.108586
 31
0.0
  0
LINE
  8
LC-001-002-----0
  6
CONTINUOUS
  5
2E9
 10
114.569555
 20
215.108586
 30
0.0
 11
101.51895
 21
215.108586
 31
0.0
  0
ARC
  8
LC-002-002-RND-0
  6
CONTINUOUS
  5
2EB
 10
116.569555
 20
230.608586
 30
0.0
 40
1.5
 50
90.0
 51
180.0
  0
ARC
  8
LC-002-002-RND-0
  6
CONTINUOUS
  5
2EC
 10
114.569555
 20
216.608586
 30
0.0
 40
1.5
 50
270.0
 51
0.0
  0
ARC
  8
LC-002-002-RND-0
  6
CONTINUOUS
  5
2ED
 10
116.569555
 20
230.608586
 30
0.0
 40
0.5
 50
90.0
 51
180.0
  0
LINE
  8
LC-001-002-----0
  6
CONTINUOUS
  5
2EE
 10
11.26065
 20
297.855849
 30
0.0
 11
11.26065
 21
312.655849
 31
0.0
  0
LINE
  8
LC-001-002-----0
  6
CONTINUOUS
  5
2EF
 10
-109.873862
 20
239.082636
 30
0.0
 11
-90.712818
 21
232.108586
 31
0.0
  0
LINE
  8
LC-001-002-----0
  6
CONTINUOUS
  5
2F0
 10
-87.437422
 20
232.108586
 30
0.0
 11
-90.712818
 21
232.108586
 31
0.0
  0
LINE
  8
LC-001-002-----0
  6
CONTINUOUS
  5
2F1
 10
-87.437422
 20
231.108586
 30
0.0
 11
-90.477309
 21
231.108586
 31
0.0
  0
ARC
  8
LC-002-002-RND-0
  6
CONTINUOUS
  5
2F2
 10
-87.437422
 20
230.608586
 30
0.0
 40
0.5
 50
0.0
 51
90.0
  0
LINE
  8
LC-001-002-----0
  6
CONTINUOUS
  5
2F3
 10
-110.167707
 20
238.275305
 30
0.0
 11
-90.477309
 21
231.108586
 31
0.0
  0
LINE
  8
LC-001-002-----0
  6
CONTINUOUS
  5
2F4
 10
139.29984
 20
238.275305
 30
0.0
 11
119.609442
 21
231.108586
 31
0.0
  0
ARC
  8
LC-002-002-RND-0
  6
CONTINUOUS
  5
2F5
 10
-87.437422
 20
230.608586
 30
0.0
 40
1.5
 50
0.0
 51
90.0
  0
LINE
  8
LC-001-002-----0
  6
CONTINUOUS
  5
2F6
 10
-82.937422
 20
216.108586
 30
0.0
 11
-82.937422
 21
215.108586
 31
0.0
  0
ARC
  8
LC-002-002-RND-0
  6
CONTINUOUS
  5
2F7
 10
-85.437422
 20
216.608586
 30
0.0
 40
1.5
 50
180.0
 51
270.0
  0
ARC
  8
LC-002-002-RND-0
  6
CONTINUOUS
  5
2F8
 10
-85.437422
 20
216.608586
 30
0.0
 40
0.5
 50
180.0
 51
270.0
  0
LINE
  8
LC-001-002-----0
  6
CONTINUOUS
  5
2F9
 10
17.871318
 20
297.855858
 30
0.0
 11
17.871277
 21
312.655858
 31
0.0
  0
LINE
  8
LC-001-002-----0
  6
CONTINUOUS
  5
2FA
 10
-110.167707
 20
238.275305
 30
0.0
 11
-109.873862
 21
239.082636
 31
0.0
  0
LINE
  8
LC-001-002-----0
  6
CONTINUOUS
  5
2FB
 10
72.458623
 20
272.29363
 30
0.0
 11
14.566019
 21
272.293471
 31
0.0
  0
LINE
  8
LC-001-002-----0
  6
CONTINUOUS
  5
2FC
 10
116.569555
 20
231.108586
 30
0.0
 11
119.609442
 21
231.108586
 31
0.0
  0
LINE
  8
LC-001-002-----0
  6
CONTINUOUS
  5
2FD
 10
-53.820025
 20
237.655789
 30
0.0
 11
-39.555951
 21
272.293471
 31
0.0
  0
ARC
  8
LC-002-002-RND-0
  6
CONTINUOUS
  5
2FE
 10
114.569555
 20
216.608586
 30
0.0
 40
0.5
 50
270.0
 51
0.0
  0
LINE
  8
LC-001-002-----0
  6
CONTINUOUS
  5
2FF
 10
139.29984
 20
238.275305
 30
0.0
 11
139.005995
 21
239.082636
 31
0.0
  0
LINE
  8
LC-001-002-----0
  6
CONTINUOUS
  5
300
 10
112.069555
 20
216.108586
 30
0.0
 11
112.069555
 21
215.108586
 31
0.0
  0
LINE
  8
LC-001-002-----0
  6
CONTINUOUS
  5
301
 10
139.005995
 20
239.082636
 30
0.0
 11
119.844952
 21
232.108586
 31
0.0
  0
LINE
  8
LC-004-005-----0
  6
CONTINUOUS
  5
302
 10
139.018541
 20
238.206902
 30
0.0
 11
138.373146
 21
238.852297
 31
0.0
  0
LINE
  8
LC-001-002-----0
  6
CONTINUOUS
  5
303
 10
116.569555
 20
232.108586
 30
0.0
 11
119.844952
 21
232.108586
 31
0.0
  0
LINE
  8
LC-001-002-----0
  6
CONTINUOUS
  5
304
 10
101.51895
 20
215.108586
 30
0.0
 11
101.51895
 21
216.108586
 31
0.0
  0
LINE
  8
LC-001-002-----0
  6
CONTINUOUS
  5
305
 10
114.569555
 20
216.108586
 30
0.0
 11
101.51895
 21
216.108586
 31
0.0
  0
ARC
  8
LC-002-002-RND-0
  6
CONTINUOUS
  5
306
 10
-33.882621
 20
297.655787
 30
0.0
 40
15.0
 50
90.000079
 51
160.0
  0
LINE
  8
LC-001-002-----0
  6
CONTINUOUS
  5
307
 10
2.766106
 20
208.655789
 30
0.0
 11
14.530363
 21
208.655789
 31
0.0
  0
LINE
  8
LC-004-005-----0
  6
CONTINUOUS
  5
308
 10
105.069555
 20
215.587345
 30
0.0
 11
104.548314
 21
216.108586
 31
0.0
  0
LINE
  8
LC-004-005-----0
  6
CONTINUOUS
  5
309
 10
102.719887
 20
215.108586
 30
0.0
 11
101.719887
 21
216.108586
 31
0.0
  0
LINE
  8
LC-004-005-----0
  6
CONTINUOUS
  5
30A
 10
-85.937422
 20
228.403413
 30
0.0
 11
-86.937422
 21
229.403413
 31
0.0
  0
LINE
  8
LC-004-005-----0
  6
CONTINUOUS
  5
30B
 10
-88.642595
 20
231.108586
 30
0.0
 11
-89.642595
 21
232.108586
 31
0.0
  0
LINE
  8
LC-004-005-----0
  6
CONTINUOUS
  5
30C
 10
-85.937422
 20
225.574986
 30
0.0
 11
-86.937422
 21
226.574986
 31
0.0
  0
LINE
  8
LC-004-005-----0
  6
CONTINUOUS
  5
30D
 10
-92.039677
 20
231.677242
 30
0.0
 11
-93.47716
 21
233.114724
 31
0.0
  0
LINE
  8
LC-004-005-----0
  6
CONTINUOUS
  5
30E
 10
-85.937422
 20
222.746559
 30
0.0
 11
-86.937422
 21
223.746559
 31
0.0
  0
LINE
  8
LC-004-005-----0
  6
CONTINUOUS
  5
30F
 10
-96.486682
 20
233.295819
 30
0.0
 11
-97.924164
 21
234.733301
 31
0.0
  0
LINE
  8
LC-004-005-----0
  6
CONTINUOUS
  5
310
 10
-85.937422
 20
219.918132
 30
0.0
 11
-86.937422
 21
220.918132
 31
0.0
  0
LINE
  8
LC-004-005-----0
  6
CONTINUOUS
  5
311
 10
-100.933686
 20
234.914396
 30
0.0
 11
-102.371168
 21
236.351878
 31
0.0
  0
LINE
  8
LC-004-005-----0
  6
CONTINUOUS
  5
312
 10
-83.956303
 20
215.108586
 30
0.0
 11
-84.956303
 21
216.108586
 31
0.0
  0
LINE
  8
LC-004-005-----0
  6
CONTINUOUS
  5
313
 10
-85.937422
 20
217.089705
 30
0.0
 11
-86.937422
 21
218.089705
 31
0.0
  0
LINE
  8
LC-004-005-----0
  6
CONTINUOUS
  5
314
 10
-105.38069
 20
236.532973
 30
0.0
 11
-106.818173
 21
237.970456
 31
0.0
  0
LINE
  8
LC-004-005-----0
  6
CONTINUOUS
  5
315
 10
-109.827695
 20
238.15155
 30
0.0
 11
-109.886361
 21
238.210216
 31
0.0
  0
LINE
  8
LC-004-005-----0
  6
CONTINUOUS
  5
316
 10
-72.642595
 20
215.108586
 30
0.0
 11
-73.642595
 21
216.108586
 31
0.0
  0
LINE
  8
LC-004-005-----0
  6
CONTINUOUS
  5
317
 10
-75.471022
 20
215.108586
 30
0.0
 11
-75.937422
 21
215.574986
 31
0.0
  0
LINE
  8
LC-004-005-----0
  6
CONTINUOUS
  5
318
 10
136.969782
 20
237.427233
 30
0.0
 11
136.299473
 21
238.097542
 31
0.0
  0
LINE
  8
LC-004-005-----0
  6
CONTINUOUS
  5
319
 10
134.89611
 20
236.672478
 30
0.0
 11
134.225801
 21
237.342787
 31
0.0
  0
LINE
  8
LC-004-005-----0
  6
CONTINUOUS
  5
31A
 10
132.822438
 20
235.917723
 30
0.0
 11
132.152129
 21
236.588032
 31
0.0
  0
LINE
  8
LC-004-005-----0
  6
CONTINUOUS
  5
31B
 10
130.748766
 20
235.162968
 30
0.0
 11
130.078457
 21
235.833277
 31
0.0
  0
LINE
  8
LC-004-005-----0
  6
CONTINUOUS
  5
31C
 10
128.675094
 20
234.408213
 30
0.0
 11
128.004785
 21
235.078522
 31
0.0
  0
LINE
  8
LC-004-005-----0
  6
CONTINUOUS
  5
31D
 10
126.601422
 20
233.653458
 30
0.0
 11
125.931113
 21
234.323767
 31
0.0
  0
LINE
  8
LC-004-005-----0
  6
CONTINUOUS
  5
31E
 10
124.527749
 20
232.898703
 30
0.0
 11
123.85744
 21
233.569013
 31
0.0
  0
LINE
  8
LC-004-005-----0
  6
CONTINUOUS
  5
31F
 10
122.454077
 20
232.143949
 30
0.0
 11
121.783768
 21
232.814258
 31
0.0
  0
LINE
  8
LC-004-005-----0
  6
CONTINUOUS
  5
320
 10
120.380405
 20
231.389194
 30
0.0
 11
119.661013
 21
232.108586
 31
0.0
  0
LINE
  8
LC-004-005-----0
  6
CONTINUOUS
  5
321
 10
117.832586
 20
231.108586
 30
0.0
 11
116.832586
 21
232.108586
 31
0.0
  0
LINE
  8
LC-004-005-----0
  6
CONTINUOUS
  5
322
 10
116.069555
 20
230.043189
 30
0.0
 11
115.11967
 21
230.993075
 31
0.0
  0
LINE
  8
LC-004-005-----0
  6
CONTINUOUS
  5
323
 10
116.069555
 20
227.214762
 30
0.0
 11
115.069555
 21
228.214762
 31
0.0
  0
LINE
  8
LC-004-005-----0
  6
CONTINUOUS
  5
324
 10
116.069555
 20
224.386335
 30
0.0
 11
115.069555
 21
225.386335
 31
0.0
  0
LINE
  8
LC-004-005-----0
  6
CONTINUOUS
  5
325
 10
116.069555
 20
221.557908
 30
0.0
 11
115.069555
 21
222.557908
 31
0.0
  0
LINE
  8
LC-004-005-----0
  6
CONTINUOUS
  5
326
 10
116.069555
 20
218.729481
 30
0.0
 11
115.069555
 21
219.729481
 31
0.0
  0
LINE
  8
LC-004-005-----0
  6
CONTINUOUS
  5
327
 10
115.82336
 20
216.147249
 30
0.0
 11
115.069555
 21
216.901054
 31
0.0
  0
LINE
  8
LC-004-005-----0
  6
CONTINUOUS
  5
328
 10
114.033596
 20
215.108586
 30
0.0
 11
113.033596
 21
216.108586
 31
0.0
  0
LINE
  8
LC-001-002-----0
  6
CONTINUOUS
  5
329
 10
-11.305575
 20
276.955789
 30
0.0
 11
-6.850369
 21
297.855824
 31
0.0
  0
LINE
  8
LC-001-002-----0
  6
CONTINUOUS
  5
32A
 10
-33.882642
 20
312.655787
 30
0.0
 11
14.565964
 21
312.655854
 31
0.0
  0
LINE
  8
LC-001-002-----0
  6
CONTINUOUS
  5
32B
 10
26.366079
 20
228.955822
 30
0.0
 11
26.366106
 21
208.655821
 31
0.0
  0
LINE
  8
LC-001-002-----0
  6
CONTINUOUS
  5
32C
 10
82.952158
 20
237.655976
 30
0.0
 11
68.687989
 21
272.293619
 31
0.0
  0
ARC
  8
LC-002-002-RND-0
  6
CONTINUOUS
  5
32D
 10
63.01459
 20
297.65592
 30
0.0
 40
15.0
 50
20.000157
 51
90.000079
  0
LINE
  8
LC-001-002-----0
  6
CONTINUOUS
  5
32E
 10
-55.93367
 20
237.655789
 30
0.0
 11
-28.635901
 21
312.655795
 31
0.0
  0
LINE
  8
LC-001-002-----0
  6
CONTINUOUS
  5
32F
 10
-27.920904
 20
308.570662
 30
0.0
 11
-26.434036
 21
312.655798
 31
0.0
  0
LINE
  8
LC-001-002-----0
  6
CONTINUOUS
  5
330
 10
-30.273769
 20
308.155789
 30
0.0
 11
-27.920904
 21
308.570662
 31
0.0
  0
LINE
  8
LC-001-002-----0
  6
CONTINUOUS
  5
331
 10
26.366106
 20
208.655821
 30
0.0
 11
14.601849
 21
208.655789
 31
0.0
  0
LINE
  8
LC-001-002-----0
  6
CONTINUOUS
  5
332
 10
40.4376
 20
276.95586
 30
0.0
 11
35.982337
 21
297.855883
 31
0.0
  0
LINE
  8
LC-001-002-----0
  6
CONTINUOUS
  5
333
 10
100.15163
 20
239.480347
 30
0.0
 11
97.23057
 21
247.505825
 31
0.0
  0
LINE
  8
LC-001-002-----0
  6
CONTINUOUS
  5
334
 10
85.065814
 20
229.955982
 30
0.0
 11
27.215159
 21
229.955823
 31
0.0
  0
LINE
  8
LC-001-002-----0
  6
CONTINUOUS
  5
335
 10
28.366079
 20
228.955825
 30
0.0
 11
28.36609
 21
220.955826
 31
0.0
  0
ARC
  8
LC-002-002-RND-0
  6
CONTINUOUS
  5
336
 10
27.366079
 20
228.955824
 30
0.0
 40
1.0
 50
90.000157
 51
180.000079
  0
LINE
  8
LC-001-002-----0
  6
CONTINUOUS
  5
337
 10
85.065804
 20
237.655982
 30
0.0
 11
57.767828
 21
312.655913
 31
0.0
  0
LINE
  8
LC-001-002-----0
  6
CONTINUOUS
  5
338
 10
-67.826935
 20
237.655789
 30
0.0
 11
-71.019502
 21
239.480113
 31
0.0
  0
LINE
  8
LC-001-002-----0
  6
CONTINUOUS
  5
339
 10
57.052843
 20
308.570779
 30
0.0
 11
55.565964
 21
312.65591
 31
0.0
  0
LINE
  8
LC-001-002-----0
  6
CONTINUOUS
  5
33A
 10
59.405709
 20
308.155912
 30
0.0
 11
57.052843
 21
308.570779
 31
0.0
  0
LINE
  8
LC-001-002-----0
  6
CONTINUOUS
  5
33B
 10
94.006258
 20
256.364473
 30
0.0
 11
77.109965
 21
302.786261
 31
0.0
  0
LINE
  8
LC-001-002-----0
  6
CONTINUOUS
  5
33C
 10
82.356874
 20
237.655975
 30
0.0
 11
68.092705
 21
272.293618
 31
0.0
  0
LINE
  8
LC-001-002-----0
  6
CONTINUOUS
  5
33D
 10
60.527142
 20
276.955915
 30
0.0
 11
52.810447
 21
297.855906
 31
0.0
  0
LINE
  8
LC-001-002-----0
  6
CONTINUOUS
  5
33E
 10
61.677141
 20
276.955918
 30
0.0
 11
53.960447
 21
297.855908
 31
0.0
  0
LINE
  8
LC-005-002-___-0
  6
DASHED
  5
341
 10
83.548015
 20
220.955978
 30
0.0
 11
85.565826
 21
220.955983
 31
0.0
  0
LINE
  8
LC-001-002-----0
  6
CONTINUOUS
  5
342
 10
65.223374
 20
237.655928
 30
0.0
 11
54.781255
 21
272.293581
 31
0.0
  0
LINE
  8
LC-001-002-----0
  6
CONTINUOUS
  5
343
 10
63.597029
 20
237.655923
 30
0.0
 11
53.136683
 21
272.293577
 31
0.0
  0
LINE
  8
LC-001-002-----0
  6
CONTINUOUS
  5
344
 10
66.767997
 20
276.955932
 30
0.0
 11
58.16115
 21
297.855914
 31
0.0
  0
LINE
  8
LC-001-002-----0
  6
CONTINUOUS
  5
345
 10
96.959068
 20
237.656015
 30
0.0
 11
100.15163
 21
239.480347
 31
0.0
  0
LINE
  8
LC-001-002-----0
  6
CONTINUOUS
  5
346
 10
13.416327
 20
297.855852
 30
0.0
 11
13.416327
 21
276.955789
 31
0.0
  0
ARC
  8
LC-002-002-RND-0
  6
CONTINUOUS
  5
347
 10
-59.833632
 20
209.655789
 30
0.0
 40
1.0
 50
90.0
 51
180.000079
  0
LINE
  8
LC-001-002-----0
  6
CONTINUOUS
  5
348
 10
-41.62964
 20
276.955789
 30
0.0
 11
-41.62964
 21
272.592688
 31
0.0
  0
ARC
  8
LC-002-002-RND-0
  6
CONTINUOUS
  5
349
 10
-59.833632
 20
209.655789
 30
0.0
 40
1.0
 50
180.000079
 51
270.0
  0
LINE
  8
LC-001-002-----0
  6
CONTINUOUS
  5
34A
 10
-59.933632
 20
208.655789
 30
0.0
 11
-58.43363
 21
208.655789
 31
0.0
  0
LINE
  8
LC-001-002-----0
  6
CONTINUOUS
  5
34B
 10
-63.333647
 20
220.955789
 30
0.0
 11
-59.333647
 21
220.955789
 31
0.0
  0
ARC
  8
LC-002-002-RND-0
  6
CONTINUOUS
  5
34C
 10
-59.833634
 20
211.155789
 30
0.0
 40
0.5
 50
270.0
 51
0.000079
  0
LINE
  8
LC-001-002-----0
  6
CONTINUOUS
  5
34D
 10
-59.833632
 20
208.655789
 30
0.0
 11
-56.433631
 21
208.655789
 31
0.0
  0
LINE
  8
LC-001-002-----0
  6
CONTINUOUS
  5
34E
 10
-22.596669
 20
276.955789
 30
0.0
 11
-16.285061
 21
297.855811
 31
0.0
  0
LINE
  8
LC-001-002-----0
  6
CONTINUOUS
  5
34F
 10
-43.326585
 20
272.293471
 30
0.0
 11
-41.62964
 21
272.592688
 31
0.0
  0
ARC
  8
LC-002-002-RND-0
  6
CONTINUOUS
  5
350
 10
-63.333647
 20
221.455789
 30
0.0
 40
0.5
 50
180.000079
 51
270.0
  0
LINE
  8
LC-001-002-----0
  6
CONTINUOUS
  5
351
 10
-24.243694
 20
276.955789
 30
0.0
 11
-17.943084
 21
297.855809
 31
0.0
  0
LINE
  8
LC-001-002-----0
  6
CONTINUOUS
  5
352
 10
-56.43366
 20
229.955789
 30
0.0
 11
-56.433631
 21
208.655789
 31
0.0
  0
LINE
  8
LC-001-002-----0
  6
CONTINUOUS
  5
353
 10
-56.433647
 20
220.955789
 30
0.0
 11
0.76609
 21
220.955789
 31
0.0
  0
LINE
  8
LC-001-002-----0
  6
CONTINUOUS
  5
354
 10
-63.83367
 20
237.655789
 30
0.0
 11
-63.833647
 21
221.455788
 31
0.0
  0
LINE
  8
LC-001-002-----0
  6
CONTINUOUS
  5
355
 10
-34.022663
 20
297.855787
 30
0.0
 11
14.565984
 21
297.855854
 31
0.0
  0
LINE
  8
LC-001-002-----0
  6
CONTINUOUS
  5
356
 10
-13.297433
 20
276.955789
 30
0.0
 11
-8.842227
 21
297.855822
 31
0.0
  0
LINE
  8
LC-001-002-----0
  6
CONTINUOUS
  5
357
 10
-41.62964
 20
276.955789
 30
0.0
 11
14.566013
 21
276.955789
 31
0.0
  0
LINE
  8
LC-001-002-----0
  6
CONTINUOUS
  5
358
 10
-43.326585
 20
272.293471
 30
0.0
 11
14.566019
 21
272.293471
 31
0.0
  0
LINE
  8
LC-001-002-----0
  6
CONTINUOUS
  5
359
 10
76.187474
 20
237.655958
 30
0.0
 11
63.398561
 21
272.293605
 31
0.0
  0
LINE
  8
LC-001-002-----0
  6
CONTINUOUS
  5
35A
 10
31.699306
 20
237.655836
 30
0.0
 11
27.877167
 21
272.293507
 31
0.0
  0
LINE
  8
LC-001-002-----0
  6
CONTINUOUS
  5
35B
 10
-0.452301
 20
276.955789
 30
0.0
 11
1.853884
 21
297.855836
 31
0.0
  0
LINE
  8
LC-001-002-----0
  6
CONTINUOUS
  5
35C
 10
2.766079
 20
228.95579
 30
0.0
 11
2.766106
 21
208.655789
 31
0.0
  0
LINE
  8
LC-001-002-----0
  6
CONTINUOUS
  5
35D
 10
-55.93366
 20
229.955789
 30
0.0
 11
1.916995
 21
229.955789
 31
0.0
  0
LINE
  8
LC-001-002-----0
  6
CONTINUOUS
  5
35E
 10
0.766079
 20
228.955787
 30
0.0
 11
0.76609
 21
220.955789
 31
0.0
  0
LINE
  8
LC-001-002-----0
  6
CONTINUOUS
  5
35F
 10
33.920936
 20
237.655842
 30
0.0
 11
30.098796
 21
272.293514
 31
0.0
  0
LINE
  8
LC-006-006-MLN-0
  6
DASHDOT
  5
363
 10
-79.439329
 20
262.983511
 30
0.0
 11
-79.439329
 21
198.383511
 31
0.0
  0
ARC
  8
LC-002-002-RND-0
  6
CONTINUOUS
  5
364
 10
-62.439348
 20
218.684122
 30
0.0
 40
3.0
 50
180.000136
 51
270.0
  0
LINE
  8
LC-001-002-----0
  6
CONTINUOUS
  5
365
 10
-65.439384
 20
234.684123
 30
0.0
 11
-65.439348
 21
218.684115
 31
0.0
  0
ARC
  8
LC-002-002-RND-0
  6
CONTINUOUS
  5
366
 10
-67.439384
 20
234.684114
 30
0.0
 40
2.0
 50
0.000248
 51
90.000248
  0
LINE
  8
LC-001-002-----0
  6
CONTINUOUS
  5
367
 10
-72.546427
 20
236.684094
 30
0.0
 11
-67.439393
 21
236.684114
 31
0.0
  0
LINE
  8
LC-001-002-----0
  6
CONTINUOUS
  5
368
 10
-76.437398
 20
238.184077
 30
0.0
 11
-74.460647
 21
238.184086
 31
0.0
  0
LINE
  8
LC-001-002-----0
  6
CONTINUOUS
  5
369
 10
-87.362312
 20
236.684021
 30
0.0
 11
-86.332201
 21
236.684037
 31
0.0
  0
LINE
  8
LC-001-002-----0
  6
CONTINUOUS
  5
36A
 10
-87.362312
 20
236.684021
 30
0.0
 11
-107.754035
 21
241.018416
 31
0.0
  0
ARC
  8
LC-002-002-RND-0
  6
CONTINUOUS
  5
36B
 10
1.766079
 20
228.955789
 30
0.0
 40
1.0
 50
90.0
 51
180.000079
  0
LINE
  8
LC-001-002-----0
  6
CONTINUOUS
  5
36C
 10
-82.939331
 20
239.184049
 30
0.0
 11
-82.939326
 21
238.184049
 31
0.0
  0
LINE
  8
LC-001-002-----0
  6
CONTINUOUS
  5
36D
 10
-75.939331
 20
239.18408
 30
0.0
 11
-75.939326
 21
238.18408
 31
0.0
  0
ARC
  8
LC-002-002-RND-0
  6
CONTINUOUS
  5
36E
 10
-72.546431
 20
237.684094
 30
0.0
 40
1.0
 50
225.000248
 51
270.000228
  0
ARC
  8
LC-002-002-RND-0
  6
CONTINUOUS
  5
36F
 10
-86.332215
 20
237.684037
 30
0.0
 40
1.0
 50
270.000823
 51
315.000248
  0
ARC
  8
LC-002-002-RND-0
  6
CONTINUOUS
  5
370
 10
-89.449242
 20
236.098048
 30
0.0
 40
1.0
 50
71.979964
 51
78.771454
  0
LINE
  8
LC-001-002-----0
  6
CONTINUOUS
  5
371
 10
-84.418006
 20
238.184043
 30
0.0
 11
-82.439326
 21
238.184051
 31
0.0
  0
LINE
  8
LC-001-002-----0
  6
CONTINUOUS
  5
372
 10
-73.253535
 20
236.976984
 30
0.0
 11
-74.460647
 21
238.184086
 31
0.0
  0
LINE
  8
LC-001-002-----0
  6
CONTINUOUS
  5
373
 10
-84.418006
 20
238.184043
 30
0.0
 11
-85.625105
 21
236.976933
 31
0.0
  0
LINE
  8
LC-001-002-----0
  6
CONTINUOUS
  5
374
 10
50.807045
 20
237.655888
 30
0.0
 11
43.423325
 21
272.29355
 31
0.0
  0
ARC
  8
LC-002-002-RND-0
  6
CONTINUOUS
  5
375
 10
1.766079
 20
228.955789
 30
0.0
 40
1.0
 50
0.000079
 51
90.0
  0
LINE
  8
LC-001-002-----0
  6
CONTINUOUS
  5
376
 10
-109.939265
 20
242.899428
 30
0.0
 11
-108.82096
 21
242.88437
 31
0.0
  0
LINE
  8
LC-007-007-KH--0
  6
DASHDOT
  5
378
 10
1301.789276
 20
254.393953
 30
0.0
 11
1301.789276
 21
1254.393953
 31
0.0
  0
LINE
  8
LC-001-002-----0
  6
CONTINUOUS
  5
379
 10
-62.439348
 20
215.684122
 30
0.0
 11
-61.939693
 21
215.684122
 31
0.0
  0
LINE
  8
LC-001-002-----0
  6
CONTINUOUS
  5
37A
 10
-67.439384
 20
237.684126
 30
0.0
 11
-72.546463
 21
237.684126
 31
0.0
  0
LINE
  8
LC-001-002-----0
  6
CONTINUOUS
  5
37B
 10
-60.439693
 20
215.184136
 30
0.0
 11
-60.439693
 21
212.684138
 31
0.0
  0
ARC
  8
LC-002-002-RND-0
  6
CONTINUOUS
  5
37C
 10
-62.439348
 20
218.684134
 30
0.0
 40
2.0
 50
180.000136
 51
270.000228
  0
ARC
  8
LC-002-002-RND-0
  6
CONTINUOUS
  5
37D
 10
-67.439384
 20
234.684126
 30
0.0
 40
3.0
 50
0.000136
 51
90.0
  0
ARC
  8
LC-001-002-----0
  6
CONTINUOUS
  5
37E
 10
-107.1303
 20
243.952858
 30
0.0
 40
3.0
 50
200.557271
 51
258.0
  0
ARC
  8
LC-001-002-----0
  6
CONTINUOUS
  5
37F
 10
-107.1303
 20
243.952858
 30
0.0
 40
2.0
 50
212.292677
 51
258.0
  0
ARC
  8
LC-002-002-RND-0
  6
CONTINUOUS
  5
380
 10
-61.939693
 20
215.184122
 30
0.0
 40
0.5
 50
0.0
 51
90.0
  0
ARC
  8
LC-002-002-RND-0
  6
CONTINUOUS
  5
381
 10
-61.939693
 20
215.184136
 30
0.0
 40
1.5
 50
0.0
 51
90.000228
  0
LINE
  8
LC-001-002-----0
  6
CONTINUOUS
  5
382
 10
-61.439693
 20
215.184122
 30
0.0
 11
-61.439693
 21
212.684138
 31
0.0
  0
LINE
  8
LC-001-002-----0
  6
CONTINUOUS
  5
383
 10
-61.439693
 20
212.684138
 30
0.0
 11
-60.439693
 21
212.684138
 31
0.0
  0
LINE
  8
LC-001-002-----0
  6
CONTINUOUS
  5
384
 10
-62.43934
 20
216.684134
 30
0.0
 11
-61.939699
 21
216.684136
 31
0.0
  0
LINE
  8
LC-001-002-----0
  6
CONTINUOUS
  5
385
 10
-64.439384
 20
234.684133
 30
0.0
 11
-64.439348
 21
218.684129
 31
0.0
  0
LINE
  8
LC-001-002-----0
  6
CONTINUOUS
  5
386
 10
-74.460651
 20
239.184086
 30
0.0
 11
-76.437398
 21
239.184077
 31
0.0
  0
LINE
  8
LC-001-002-----0
  6
CONTINUOUS
  5
387
 10
-82.437398
 20
239.184051
 30
0.0
 11
-84.418011
 21
239.184043
 31
0.0
  0
LINE
  8
LC-001-002-----0
  6
CONTINUOUS
  5
388
 10
-72.546431
 20
237.684094
 30
0.0
 11
-73.753543
 21
238.891196
 31
0.0
  0
LINE
  8
LC-001-002-----0
  6
CONTINUOUS
  5
389
 10
-87.257215
 20
237.684023
 30
0.0
 11
-86.332215
 21
237.684037
 31
0.0
  0
LINE
  8
LC-001-002-----0
  6
CONTINUOUS
  5
38A
 10
-85.125116
 20
238.891147
 30
0.0
 11
-86.332215
 21
237.684037
 31
0.0
  0
LINE
  8
LC-001-002-----0
  6
CONTINUOUS
  5
38B
 10
-87.257215
 20
237.684023
 30
0.0
 11
-107.546123
 21
241.996563
 31
0.0
  0
ARC
  8
LC-002-002-RND-0
  6
CONTINUOUS
  5
38C
 10
-74.460647
 20
238.184086
 30
0.0
 40
1.0
 50
45.000248
 51
90.000248
  0
ARC
  8
LC-002-002-RND-0
  6
CONTINUOUS
  5
38D
 10
-84.418006
 20
238.184043
 30
0.0
 40
1.0
 50
90.000248
 51
135.000248
  0
LINE
  8
LC-001-002-----0
  6
CONTINUOUS
  5
38E
 10
48.815187
 20
237.655883
 30
0.0
 11
41.431467
 21
272.293545
 31
0.0
  0
LINE
  8
LC-001-002-----0
  6
CONTINUOUS
  5
38F
 10
75.037474
 20
237.655954
 30
0.0
 11
62.248561
 21
272.293602
 31
0.0
  0
LINE
  8
LC-001-002-----0
  6
CONTINUOUS
  5
390
 10
1.769328
 20
276.955789
 30
0.0
 11
4.075513
 21
297.855839
 31
0.0
  0
LINE
  8
LC-001-002-----0
  6
CONTINUOUS
  5
391
 10
13.416327
 20
272.293471
 30
0.0
 11
13.416327
 21
237.655789
 31
0.0
  0
ARC
  8
LC-002-002-RND-0
  6
CONTINUOUS
  5
392
 10
91.560075
 20
218.684455
 30
0.0
 40
3.0
 50
270.000248
 51
0.000111
  0
LINE
  8
LC-001-002-----0
  6
CONTINUOUS
  5
393
 10
94.560043
 20
234.684469
 30
0.0
 11
94.560075
 21
218.684461
 31
0.0
  0
ARC
  8
LC-002-002-RND-0
  6
CONTINUOUS
  5
394
 10
96.560043
 20
234.684469
 30
0.0
 40
2.0
 50
90.0
 51
180.0
  0
LINE
  8
LC-001-002-----0
  6
CONTINUOUS
  5
395
 10
101.667077
 20
236.684471
 30
0.0
 11
96.560043
 21
236.684469
 31
0.0
  0
LINE
  8
LC-001-002-----0
  6
CONTINUOUS
  5
396
 10
105.55997
 20
238.184471
 30
0.0
 11
103.58129
 21
238.18447
 31
0.0
  0
LINE
  8
LC-001-002-----0
  6
CONTINUOUS
  5
397
 10
116.482962
 20
236.684462
 30
0.0
 11
115.452851
 21
236.684473
 31
0.0
  0
LINE
  8
LC-001-002-----0
  6
CONTINUOUS
  5
398
 10
116.482962
 20
236.684462
 30
0.0
 11
136.874666
 21
241.018945
 31
0.0
  0
LINE
  8
LC-001-002-----0
  6
CONTINUOUS
  5
399
 10
105.55997
 20
238.184471
 30
0.0
 11
105.562565
 21
238.184471
 31
0.0
  0
LINE
  8
LC-001-002-----0
  6
CONTINUOUS
  5
39A
 10
112.05997
 20
239.184471
 30
0.0
 11
112.05997
 21
238.184471
 31
0.0
  0
LINE
  8
LC-001-002-----0
  6
CONTINUOUS
  5
39B
 10
105.05997
 20
239.184471
 30
0.0
 11
105.05997
 21
238.184471
 31
0.0
  0
ARC
  8
LC-002-002-RND-0
  6
CONTINUOUS
  5
39C
 10
101.667077
 20
237.684471
 30
0.0
 40
1.0
 50
270.00002
 51
315.0
  0
ARC
  8
LC-002-002-RND-0
  6
CONTINUOUS
  5
39D
 10
115.452861
 20
237.684473
 30
0.0
 40
1.0
 50
225.0
 51
269.999425
  0
ARC
  8
LC-002-002-RND-0
  6
CONTINUOUS
  5
39E
 10
118.569895
 20
236.098499
 30
0.0
 40
1.0
 50
101.228794
 51
108.020284
  0
LINE
  8
LC-001-002-----0
  6
CONTINUOUS
  5
39F
 10
113.538649
 20
238.184471
 30
0.0
 11
111.55997
 21
238.184471
 31
0.0
  0
LINE
  8
LC-001-002-----0
  6
CONTINUOUS
  5
3A0
 10
102.374183
 20
236.977364
 30
0.0
 11
103.58129
 21
238.18447
 31
0.0
  0
LINE
  8
LC-001-002-----0
  6
CONTINUOUS
  5
3A1
 10
113.538649
 20
238.184471
 30
0.0
 11
114.745754
 21
236.977367
 31
0.0
  0
LINE
  8
LC-001-002-----0
  6
CONTINUOUS
  5
3A2
 10
66.172713
 20
276.95593
 30
0.0
 11
57.565866
 21
297.855913
 31
0.0
  0
LINE
  8
LC-001-002-----0
  6
CONTINUOUS
  5
3A3
 10
-56.43366
 20
229.955789
 30
0.0
 11
-55.93366
 21
229.955789
 31
0.0
  0
LINE
  8
LC-001-002-----0
  6
CONTINUOUS
  5
3A4
 10
139.059888
 20
242.899967
 30
0.0
 11
137.941583
 21
242.884904
 31
0.0
  0
LINE
  8
LC-001-002-----0
  6
CONTINUOUS
  5
3A5
 10
91.560088
 20
215.684455
 30
0.0
 11
91.060434
 21
215.684453
 31
0.0
  0
LINE
  8
LC-001-002-----0
  6
CONTINUOUS
  5
3A6
 10
96.56003
 20
237.684481
 30
0.0
 11
101.667109
 21
237.684503
 31
0.0
  0
LINE
  8
LC-001-002-----0
  6
CONTINUOUS
  5
3A7
 10
89.560436
 20
215.18446
 30
0.0
 11
89.560447
 21
212.684462
 31
0.0
  0
ARC
  8
LC-002-002-RND-0
  6
CONTINUOUS
  5
3A8
 10
91.560075
 20
218.684467
 30
0.0
 40
2.0
 50
270.00002
 51
0.000111
  0
ARC
  8
LC-002-002-RND-0
  6
CONTINUOUS
  5
3A9
 10
96.560043
 20
234.684481
 30
0.0
 40
3.0
 50
90.000248
 51
180.000111
  0
ARC
  8
LC-001-002-----0
  6
CONTINUOUS
  5
3AA
 10
136.250918
 20
243.953385
 30
0.0
 40
3.0
 50
282.000248
 51
339.442977
  0
ARC
  8
LC-001-002-----0
  6
CONTINUOUS
  5
3AB
 10
136.250918
 20
243.953385
 30
0.0
 40
2.0
 50
282.000248
 51
327.70757
  0
ARC
  8
LC-002-002-RND-0
  6
CONTINUOUS
  5
3AC
 10
91.060436
 20
215.184453
 30
0.0
 40
0.5
 50
90.000248
 51
180.000248
  0
ARC
  8
LC-002-002-RND-0
  6
CONTINUOUS
  5
3AD
 10
91.060436
 20
215.184467
 30
0.0
 40
1.5
 50
90.00002
 51
180.000248
  0
LINE
  8
LC-001-002-----0
  6
CONTINUOUS
  5
3AE
 10
90.560436
 20
215.184451
 30
0.0
 11
90.560447
 21
212.684467
 31
0.0
  0
LINE
  8
LC-001-002-----0
  6
CONTINUOUS
  5
3AF
 10
90.560447
 20
212.684467
 30
0.0
 11
89.560447
 21
212.684462
 31
0.0
  0
LINE
  8
LC-001-002-----0
  6
CONTINUOUS
  5
3B0
 10
91.560076
 20
216.684467
 30
0.0
 11
91.060436
 21
216.684467
 31
0.0
  0
LINE
  8
LC-001-002-----0
  6
CONTINUOUS
  5
3B1
 10
93.560043
 20
234.684475
 30
0.0
 11
93.560075
 21
218.684471
 31
0.0
  0
LINE
  8
LC-001-002-----0
  6
CONTINUOUS
  5
3B2
 10
103.581291
 20
239.184471
 30
0.0
 11
105.569533
 21
239.184471
 31
0.0
  0
LINE
  8
LC-001-002-----0
  6
CONTINUOUS
  5
3B3
 10
101.667077
 20
237.684471
 30
0.0
 11
102.874184
 21
238.891578
 31
0.0
  0
LINE
  8
LC-001-002-----0
  6
CONTINUOUS
  5
3B4
 10
116.377861
 20
237.684463
 30
0.0
 11
115.452861
 21
237.684473
 31
0.0
  0
LINE
  8
LC-001-002-----0
  6
CONTINUOUS
  5
3B5
 10
114.245757
 20
238.891578
 30
0.0
 11
115.452861
 21
237.684473
 31
0.0
  0
LINE
  8
LC-001-002-----0
  6
CONTINUOUS
  5
3B6
 10
116.377861
 20
237.684463
 30
0.0
 11
136.66675
 21
241.997092
 31
0.0
  0
ARC
  8
LC-002-002-RND-0
  6
CONTINUOUS
  5
3B7
 10
103.581291
 20
238.184471
 30
0.0
 40
1.0
 50
90.0
 51
135.0
  0
ARC
  8
LC-002-002-RND-0
  6
CONTINUOUS
  5
3B8
 10
113.53865
 20
238.184471
 30
0.0
 40
1.0
 50
45.0
 51
90.0
  0
LINE
  8
LC-001-002-----0
  6
CONTINUOUS
  5
3B9
 10
1.028176
 20
229.955789
 30
0.0
 11
14.566094
 21
229.955789
 31
0.0
  0
LINE
  8
LC-001-002-----0
  6
CONTINUOUS
  5
3BA
 10
-55.93367
 20
237.655789
 30
0.0
 11
-55.93366
 21
229.955789
 31
0.0
  0
LINE
  8
LC-001-002-----0
  6
CONTINUOUS
  5
3BB
 10
94.519521
 20
231.484832
 30
0.0
 11
94.56005
 21
231.484832
 31
0.0
  0
LINE
  8
LC-001-002-----0
  6
CONTINUOUS
  5
3BC
 10
-59.33367
 20
237.655789
 30
0.0
 11
-59.333634
 21
211.155789
 31
0.0
  0
LINE
  8
LC-001-002-----0
  6
CONTINUOUS
  5
3BD
 10
-73.437435
 20
241.284471
 30
0.0
 11
-76.437398
 21
241.284471
 31
0.0
  0
LINE
  8
LC-001-002-----0
  6
CONTINUOUS
  5
3BE
 10
-82.437398
 20
241.284471
 30
0.0
 11
-85.437435
 21
241.284471
 31
0.0
  0
LINE
  8
LC-001-002-----0
  6
CONTINUOUS
  5
3BF
 10
-37.040688
 20
276.955789
 30
0.0
 11
-28.433898
 21
297.855795
 31
0.0
  0
LINE
  8
LC-001-002-----0
  6
CONTINUOUS
  5
3C0
 10
-74.437435
 20
250.284471
 30
0.0
 11
-76.437398
 21
250.284471
 31
0.0
  0
LINE
  8
LC-001-002-----0
  6
CONTINUOUS
  5
3C1
 10
-82.437398
 20
250.284471
 30
0.0
 11
-84.437435
 21
250.284471
 31
0.0
  0
LINE
  8
LC-001-002-----0
  6
CONTINUOUS
  5
3C2
 10
-86.125334
 20
255.972297
 30
0.0
 11
-84.437435
 21
250.284471
 31
0.0
  0
LINE
  8
LC-001-002-----0
  6
CONTINUOUS
  5
3C3
 10
-73.437435
 20
241.284471
 30
0.0
 11
-74.437435
 21
250.284471
 31
0.0
  0
LINE
  8
LC-001-002-----0
  6
CONTINUOUS
  5
3C4
 10
-84.437435
 20
250.284471
 30
0.0
 11
-85.437435
 21
241.284471
 31
0.0
  0
ARC
  8
LC-002-002-RND-0
  6
CONTINUOUS
  5
3C5
 10
-89.740901
 20
254.359481
 30
0.0
 40
3.925
 50
24.105895
 51
90.12741
  0
ARC
  8
LC-001-002-----0
  6
CONTINUOUS
  5
3C6
 10
-89.749725
 20
252.751713
 30
0.0
 40
5.576109
 50
89.908616
 51
139.911749
  0
ARC
  8
LC-002-002-RND-0
  6
CONTINUOUS
  5
3C7
 10
-91.012912
 20
253.814972
 30
0.0
 40
3.925
 50
139.911749
 51
224.495814
  0
LINE
  8
LC-001-002-----0
  6
CONTINUOUS
  5
3C8
 10
-72.749535
 20
255.972297
 30
0.0
 11
-74.437435
 21
250.284471
 31
0.0
  0
ARC
  8
LC-002-002-RND-0
  6
CONTINUOUS
  5
3C9
 10
-67.861957
 20
253.814972
 30
0.0
 40
3.925
 50
315.504186
 51
40.088251
  0
LINE
  8
LC-001-002-----0
  6
CONTINUOUS
  5
3CA
 10
-64.882551
 20
251.259828
 30
0.0
 11
-73.437435
 21
241.284471
 31
0.0
  0
LINE
  8
LC-001-002-----0
  6
CONTINUOUS
  5
3CB
 10
-93.992319
 20
251.259828
 30
0.0
 11
-85.437435
 21
241.284471
 31
0.0
  0
ARC
  8
LC-002-002-RND-0
  6
CONTINUOUS
  5
3CC
 10
-69.133969
 20
254.359481
 30
0.0
 40
3.925
 50
89.87259
 51
155.894105
  0
ARC
  8
LC-001-002-----0
  6
CONTINUOUS
  5
3CD
 10
-69.125144
 20
252.751713
 30
0.0
 40
5.576109
 50
40.088251
 51
90.091384
  0
LINE
  8
LC-001-002-----0
  6
CONTINUOUS
  5
3CE
 10
-82.437436
 20
239.184471
 30
0.0
 11
-82.437436
 21
239.184471
 31
0.0
  0
LINE
  8
LC-001-002-----0
  6
CONTINUOUS
  5
3CF
 10
-45.90534
 20
237.655789
 30
0.0
 11
-33.116523
 21
272.293471
 31
0.0
  0
LINE
  8
LC-001-002-----0
  6
CONTINUOUS
  5
3D0
 10
-19.683054
 20
237.655789
 30
0.0
 11
-12.299429
 21
272.293471
 31
0.0
  0
LINE
  8
LC-001-002-----0
  6
CONTINUOUS
  5
3D1
 10
-21.674912
 20
237.655789
 30
0.0
 11
-14.291287
 21
272.293471
 31
0.0
  0
LINE
  8
LC-001-002-----0
  6
CONTINUOUS
  5
3D2
 10
-4.788802
 20
237.655789
 30
0.0
 11
-0.966758
 21
272.293471
 31
0.0
  0
LINE
  8
LC-001-002-----0
  6
CONTINUOUS
  5
3D3
 10
-2.567173
 20
237.655789
 30
0.0
 11
1.254871
 21
272.293471
 31
0.0
  0
LINE
  8
LC-001-002-----0
  6
CONTINUOUS
  5
3D4
 10
114.566014
 20
241.284471
 30
0.0
 11
111.569533
 21
241.284471
 31
0.0
  0
LINE
  8
LC-001-002-----0
  6
CONTINUOUS
  5
3D5
 10
-47.05534
 20
237.655789
 30
0.0
 11
-34.266523
 21
272.293471
 31
0.0
  0
LINE
  8
LC-001-002-----0
  6
CONTINUOUS
  5
3D6
 10
113.566014
 20
250.284471
 30
0.0
 11
111.569533
 21
250.284471
 31
0.0
  0
LINE
  8
LC-001-002-----0
  6
CONTINUOUS
  5
3D7
 10
101.878115
 20
255.972297
 30
0.0
 11
103.566014
 21
250.284471
 31
0.0
  0
LINE
  8
LC-001-002-----0
  6
CONTINUOUS
  5
3D8
 10
114.566014
 20
241.284471
 30
0.0
 11
113.566014
 21
250.284471
 31
0.0
  0
LINE
  8
LC-001-002-----0
  6
CONTINUOUS
  5
3D9
 10
103.566014
 20
250.284471
 30
0.0
 11
102.566014
 21
241.284471
 31
0.0
  0
ARC
  8
LC-002-002-RND-0
  6
CONTINUOUS
  5
3DA
 10
98.262548
 20
254.359481
 30
0.0
 40
3.925
 50
24.105895
 51
90.12741
  0
ARC
  8
LC-001-002-----0
  6
CONTINUOUS
  5
3DB
 10
98.253724
 20
252.751713
 30
0.0
 40
5.576109
 50
89.908616
 51
139.911749
  0
ARC
  8
LC-002-002-RND-0
  6
CONTINUOUS
  5
3DC
 10
96.990537
 20
253.814972
 30
0.0
 40
3.925
 50
139.911749
 51
224.495814
  0
LINE
  8
LC-001-002-----0
  6
CONTINUOUS
  5
3DD
 10
115.253914
 20
255.972297
 30
0.0
 11
113.566014
 21
250.284471
 31
0.0
  0
ARC
  8
LC-002-002-RND-0
  6
CONTINUOUS
  5
3DE
 10
120.141492
 20
253.814972
 30
0.0
 40
3.925
 50
315.504186
 51
40.088251
  0
LINE
  8
LC-001-002-----0
  6
CONTINUOUS
  5
3DF
 10
123.120898
 20
251.259828
 30
0.0
 11
114.566014
 21
241.284471
 31
0.0
  0
LINE
  8
LC-001-002-----0
  6
CONTINUOUS
  5
3E0
 10
94.01113
 20
251.259828
 30
0.0
 11
102.566014
 21
241.284471
 31
0.0
  0
ARC
  8
LC-002-002-RND-0
  6
CONTINUOUS
  5
3E1
 10
118.869481
 20
254.359481
 30
0.0
 40
3.925
 50
89.87259
 51
155.894105
  0
ARC
  8
LC-001-002-----0
  6
CONTINUOUS
  5
3E2
 10
118.878305
 20
252.751713
 30
0.0
 40
5.576109
 50
40.088251
 51
90.091384
  0
LINE
  8
LC-001-002-----0
  6
CONTINUOUS
  5
3E3
 10
105.562564
 20
239.184471
 30
0.0
 11
105.562564
 21
239.184471
 31
0.0
  0
LINE
  8
LC-001-002-----0
  6
CONTINUOUS
  5
3E4
 10
-37.635971
 20
276.955789
 30
0.0
 11
-29.029182
 21
297.855794
 31
0.0
  0
LINE
  8
LC-001-002-----0
  6
CONTINUOUS
  5
3E5
 10
-34.464895
 20
237.655789
 30
0.0
 11
-24.004645
 21
272.293471
 31
0.0
  0
LINE
  8
LC-001-002-----0
  6
CONTINUOUS
  5
3E6
 10
-36.091241
 20
237.655789
 30
0.0
 11
-25.649217
 21
272.293471
 31
0.0
  0
LINE
  8
LC-001-002-----0
  6
CONTINUOUS
  5
3E7
 10
-32.545116
 20
276.955789
 30
0.0
 11
-24.828479
 21
297.8558
 31
0.0
  0
LINE
  8
LC-001-002-----0
  6
CONTINUOUS
  5
3E8
 10
-31.395116
 20
276.955789
 30
0.0
 11
-23.678479
 21
297.855801
 31
0.0
  0
LINE
  8
LC-001-002-----0
  6
CONTINUOUS
  5
3E9
 10
-53.224741
 20
237.655789
 30
0.0
 11
-38.960667
 21
272.293471
 31
0.0
  0
LINE
  8
LC-001-002-----0
  6
CONTINUOUS
  5
3EA
 10
-64.879394
 20
256.34992
 30
0.0
 11
-47.97801
 21
302.786089
 31
0.0
  0
LINE
  8
LC-001-002-----0
  6
CONTINUOUS
  5
3EB
 10
88.465804
 20
237.655991
 30
0.0
 11
88.46584
 21
211.155992
 31
0.0
  0
LINE
  8
LC-001-002-----0
  6
CONTINUOUS
  5
3EC
 10
85.065804
 20
237.655982
 30
0.0
 11
85.065814
 21
229.955982
 31
0.0
  0
LINE
  8
LC-001-002-----0
  6
CONTINUOUS
  5
3ED
 10
28.103978
 20
229.955826
 30
0.0
 11
14.56606
 21
229.955789
 31
0.0
  0
LINE
  8
LC-001-002-----0
  6
CONTINUOUS
  5
3EE
 10
85.565814
 20
229.955983
 30
0.0
 11
85.065814
 21
229.955982
 31
0.0
  0
LINE
  8
LC-001-002-----0
  6
CONTINUOUS
  5
3EF
 10
-71.019502
 20
239.480113
 30
0.0
 11
-68.09572
 21
247.513136
 31
0.0
  0
LINE
  8
LC-001-002-----0
  6
CONTINUOUS
  5
3F0
 10
-67.433629
 20
237.684126
 30
0.0
 11
14.566054
 21
237.684303
 31
0.0
  0
ARC
  8
LC-002-002-RND-0
  6
CONTINUOUS
  5
3F1
 10
27.366079
 20
228.955824
 30
0.0
 40
1.0
 50
0.000079
 51
90.000157
  0
LINE
  8
LC-001-002-----0
  6
CONTINUOUS
  5
3F2
 10
15.715641
 20
297.855855
 30
0.0
 11
15.715698
 21
276.955792
 31
0.0
  0
ARC
  8
LC-002-002-RND-0
  6
CONTINUOUS
  5
3F3
 10
88.965842
 20
209.655993
 30
0.0
 40
1.0
 50
0.000079
 51
90.000157
  0
LINE
  8
LC-001-002-----0
  6
CONTINUOUS
  5
3F4
 10
70.761665
 20
276.955943
 30
0.0
 11
70.761677
 21
272.592842
 31
0.0
  0
ARC
  8
LC-002-002-RND-0
  6
CONTINUOUS
  5
3F5
 10
88.965842
 20
209.655993
 30
0.0
 40
1.0
 50
270.000157
 51
0.000079
  0
LINE
  8
LC-001-002-----0
  6
CONTINUOUS
  5
3F6
 10
89.065845
 20
208.655993
 30
0.0
 11
87.565843
 21
208.655989
 31
0.0
  0
LINE
  8
LC-001-002-----0
  6
CONTINUOUS
  5
3F7
 10
-82.437435
 20
238.184051
 30
0.0
 11
-82.439326
 21
238.184051
 31
0.0
  0
LINE
  8
LC-001-002-----0
  6
CONTINUOUS
  5
3F8
 10
92.465826
 20
220.956002
 30
0.0
 11
88.465826
 21
220.955991
 31
0.0
  0
ARC
  8
LC-002-002-RND-0
  6
CONTINUOUS
  5
3F9
 10
88.96584
 20
211.155993
 30
0.0
 40
0.5
 50
180.000079
 51
270.000157
  0
LINE
  8
LC-001-002-----0
  6
CONTINUOUS
  5
3FA
 10
88.965845
 20
208.655993
 30
0.0
 11
85.565843
 21
208.655983
 31
0.0
  0
LINE
  8
LC-001-002-----0
  6
CONTINUOUS
  5
3FB
 10
51.728695
 20
276.955891
 30
0.0
 11
45.417029
 21
297.855896
 31
0.0
  0
LINE
  8
LC-001-002-----0
  6
CONTINUOUS
  5
3FC
 10
72.458623
 20
272.29363
 30
0.0
 11
70.761677
 21
272.592842
 31
0.0
  0
ARC
  8
LC-002-002-RND-0
  6
CONTINUOUS
  5
3FD
 10
92.465825
 20
221.456002
 30
0.0
 40
0.5
 50
270.000157
 51
0.000079
  0
LINE
  8
LC-001-002-----0
  6
CONTINUOUS
  5
3FE
 10
53.37572
 20
276.955895
 30
0.0
 11
47.075052
 21
297.855898
 31
0.0
  0
LINE
  8
LC-001-002-----0
  6
CONTINUOUS
  5
3FF
 10
85.565814
 20
229.955983
 30
0.0
 11
85.565843
 21
208.655983
 31
0.0
  0
LINE
  8
LC-001-002-----0
  6
CONTINUOUS
  5
400
 10
85.565826
 20
220.955983
 30
0.0
 11
28.36609
 21
220.955826
 31
0.0
  0
LINE
  8
LC-001-002-----0
  6
CONTINUOUS
  5
401
 10
92.965803
 20
237.656004
 30
0.0
 11
92.965825
 21
221.456003
 31
0.0
  0
LINE
  8
LC-001-002-----0
  6
CONTINUOUS
  5
402
 10
63.014569
 20
312.65592
 30
0.0
 11
14.565964
 21
312.655854
 31
0.0
  0
LINE
  8
LC-001-002-----0
  6
CONTINUOUS
  5
403
 10
42.429458
 20
276.955865
 30
0.0
 11
37.974195
 21
297.855886
 31
0.0
  0
LINE
  8
LC-001-002-----0
  6
CONTINUOUS
  5
404
 10
63.154631
 20
297.85592
 30
0.0
 11
14.565984
 21
297.855854
 31
0.0
  0
LINE
  8
LC-001-002-----0
  6
CONTINUOUS
  5
405
 10
70.761665
 20
276.955943
 30
0.0
 11
14.566013
 21
276.955789
 31
0.0
  0
LINE
  8
LC-001-002-----0
  6
CONTINUOUS
  5
406
 10
15.715711
 20
272.293474
 30
0.0
 11
15.715806
 21
237.655792
 31
0.0
  0
LINE
  8
LC-001-002-----0
  6
CONTINUOUS
  5
407
 10
27.362698
 20
276.955824
 30
0.0
 11
25.056455
 21
297.855868
 31
0.0
  0
LINE
  8
LC-001-002-----0
  6
CONTINUOUS
  5
408
 10
29.584327
 20
276.95583
 30
0.0
 11
27.278084
 21
297.855871
 31
0.0
  0
LINE
  8
LC-001-002-----0
  6
CONTINUOUS
  5
409
 10
96.565763
 20
237.684351
 30
0.0
 11
14.56608
 21
237.684303
 31
0.0
  0
LINE
  8
LC-007-007-KH--0
  6
DASHDOT
  5
40A
 10
1280.242588
 20
120.038737
 30
0.0
 11
1280.242588
 21
1120.038737
 31
0.0
  0
LINE
  8
LC-001-002-----0
  6
CONTINUOUS
  5
40B
 10
105.069555
 20
216.108586
 30
0.0
 11
102.562565
 21
216.108586
 31
0.0
  0
LINE
  8
LC-001-002-----0
  6
CONTINUOUS
  5
40C
 10
-75.937422
 20
216.108586
 30
0.0
 11
-72.386817
 21
216.108586
 31
0.0
  0
LINE
  8
LC-001-002-----0
  6
CONTINUOUS
  5
40D
 10
-82.437398
 20
210.127965
 30
0.0
 11
-82.437398
 21
221.627965
 31
0.0
  0
LINE
  8
LC-001-002-----0
  6
CONTINUOUS
  5
40E
 10
-76.937398
 20
209.627965
 30
0.0
 11
-81.937398
 21
209.627965
 31
0.0
  0
LINE
  8
LC-001-002-----0
  6
CONTINUOUS
  5
40F
 10
-76.437398
 20
210.127965
 30
0.0
 11
-76.437398
 21
221.627965
 31
0.0
  0
LINE
  8
LC-001-002-----0
  6
CONTINUOUS
  5
410
 10
-81.937398
 20
259.627965
 30
0.0
 11
-76.937398
 21
259.627965
 31
0.0
  0
LINE
  8
LC-001-002-----0
  6
CONTINUOUS
  5
411
 10
-81.937398
 20
259.627965
 30
0.0
 11
-82.437398
 21
259.127965
 31
0.0
  0
LINE
  8
LC-001-002-----0
  6
CONTINUOUS
  5
412
 10
-76.937398
 20
259.627965
 30
0.0
 11
-76.437398
 21
259.127965
 31
0.0
  0
LINE
  8
LC-001-002-----0
  6
CONTINUOUS
  5
413
 10
-82.437398
 20
259.127965
 30
0.0
 11
-76.437398
 21
259.127965
 31
0.0
  0
LINE
  8
LC-001-002-----0
  6
CONTINUOUS
  5
414
 10
-76.937398
 20
209.627965
 30
0.0
 11
-76.437398
 21
210.127965
 31
0.0
  0
LINE
  8
LC-001-002-----0
  6
CONTINUOUS
  5
415
 10
-81.937398
 20
209.627965
 30
0.0
 11
-82.437398
 21
210.127965
 31
0.0
  0
LINE
  8
LC-001-002-----0
  6
CONTINUOUS
  5
416
 10
-76.437398
 20
210.127965
 30
0.0
 11
-82.437398
 21
210.127965
 31
0.0
  0
LINE
  8
LC-008-003-----0
  6
CONTINUOUS
  5
417
 10
-81.937398
 20
209.627965
 30
0.0
 11
-81.937398
 21
221.627965
 31
0.0
  0
LINE
  8
LC-008-003-----0
  6
CONTINUOUS
  5
418
 10
-76.937398
 20
209.627965
 30
0.0
 11
-76.937398
 21
221.627965
 31
0.0
  0
LINE
  8
LC-001-002-----0
  6
CONTINUOUS
  5
419
 10
-76.437398
 20
221.627965
 30
0.0
 11
-78.437398
 21
221.627965
 31
0.0
  0
LINE
  8
LC-001-002-----0
  6
CONTINUOUS
  5
41A
 10
-74.437398
 20
227.627965
 30
0.0
 11
-74.437398
 21
223.627965
 31
0.0
  0
LINE
  8
LC-001-002-----0
  6
CONTINUOUS
  5
41B
 10
-84.437398
 20
227.627965
 30
0.0
 11
-84.437398
 21
223.627965
 31
0.0
  0
LINE
  8
LC-001-002-----0
  6
CONTINUOUS
  5
41C
 10
-76.437398
 20
229.627965
 30
0.0
 11
-78.437398
 21
229.627965
 31
0.0
  0
LINE
  8
LC-001-002-----0
  6
CONTINUOUS
  5
41D
 10
-80.437398
 20
229.627965
 30
0.0
 11
-82.437398
 21
229.627965
 31
0.0
  0
LINE
  8
LC-001-002-----0
  6
CONTINUOUS
  5
41E
 10
-80.437398
 20
221.627965
 30
0.0
 11
-82.437398
 21
221.627965
 31
0.0
  0
LINE
  8
LC-001-002-----0
  6
CONTINUOUS
  5
41F
 10
-82.437398
 20
229.627965
 30
0.0
 11
-82.437398
 21
259.127965
 31
0.0
  0
LINE
  8
LC-001-002-----0
  6
CONTINUOUS
  5
420
 10
-76.437398
 20
229.627965
 30
0.0
 11
-76.437398
 21
259.127965
 31
0.0
  0
LINE
  8
LC-008-003-----0
  6
CONTINUOUS
  5
421
 10
-76.937398
 20
229.627965
 30
0.0
 11
-76.937398
 21
259.627965
 31
0.0
  0
LINE
  8
LC-008-003-----0
  6
CONTINUOUS
  5
422
 10
-81.937398
 20
229.627965
 30
0.0
 11
-81.937398
 21
259.627965
 31
0.0
  0
LINE
  8
LC-001-002-----0
  6
CONTINUOUS
  5
423
 10
-80.437398
 20
229.627965
 30
0.0
 11
-80.437398
 21
221.627965
 31
0.0
  0
LINE
  8
LC-001-002-----0
  6
CONTINUOUS
  5
424
 10
-78.437398
 20
229.627965
 30
0.0
 11
-78.437398
 21
221.627965
 31
0.0
  0
ARC
  8
LC-002-002-RND-0
  6
CONTINUOUS
  5
425
 10
-82.437398
 20
227.627965
 30
0.0
 40
2.0
 50
90.0
 51
180.0
  0
ARC
  8
LC-002-002-RND-0
  6
CONTINUOUS
  5
426
 10
-82.437398
 20
223.627965
 30
0.0
 40
2.0
 50
180.0
 51
270.0
  0
ARC
  8
LC-002-002-RND-0
  6
CONTINUOUS
  5
427
 10
-76.437398
 20
223.627965
 30
0.0
 40
2.0
 50
270.0
 51
0.0
  0
ARC
  8
LC-002-002-RND-0
  6
CONTINUOUS
  5
428
 10
-76.437398
 20
227.627965
 30
0.0
 40
2.0
 50
0.0
 51
90.0
  0
LINE
  8
LC-001-002-----0
  6
CONTINUOUS
  5
429
 10
111.569533
 20
210.127965
 30
0.0
 11
111.569533
 21
221.627965
 31
0.0
  0
LINE
  8
LC-001-002-----0
  6
CONTINUOUS
  5
42A
 10
106.069533
 20
209.627965
 30
0.0
 11
111.069533
 21
209.627965
 31
0.0
  0
LINE
  8
LC-001-002-----0
  6
CONTINUOUS
  5
42B
 10
105.569533
 20
210.127965
 30
0.0
 11
105.569533
 21
221.627965
 31
0.0
  0
LINE
  8
LC-001-002-----0
  6
CONTINUOUS
  5
42C
 10
111.069533
 20
259.627965
 30
0.0
 11
111.569533
 21
259.127965
 31
0.0
  0
LINE
  8
LC-001-002-----0
  6
CONTINUOUS
  5
42D
 10
106.069533
 20
259.627965
 30
0.0
 11
105.569533
 21
259.127965
 31
0.0
  0
LINE
  8
LC-001-002-----0
  6
CONTINUOUS
  5
42E
 10
111.569533
 20
259.127965
 30
0.0
 11
105.569533
 21
259.127965
 31
0.0
  0
LINE
  8
LC-001-002-----0
  6
CONTINUOUS
  5
42F
 10
106.069533
 20
209.627965
 30
0.0
 11
105.569533
 21
210.127965
 31
0.0
  0
LINE
  8
LC-001-002-----0
  6
CONTINUOUS
  5
430
 10
111.069533
 20
209.627965
 30
0.0
 11
111.569533
 21
210.127965
 31
0.0
  0
LINE
  8
LC-001-002-----0
  6
CONTINUOUS
  5
431
 10
105.569533
 20
210.127965
 30
0.0
 11
111.569533
 21
210.127965
 31
0.0
  0
LINE
  8
LC-008-003-----0
  6
CONTINUOUS
  5
432
 10
111.069533
 20
209.627965
 30
0.0
 11
111.069533
 21
221.627965
 31
0.0
  0
LINE
  8
LC-008-003-----0
  6
CONTINUOUS
  5
433
 10
106.069533
 20
209.627965
 30
0.0
 11
106.069533
 21
221.627965
 31
0.0
  0
LINE
  8
LC-001-002-----0
  6
CONTINUOUS
  5
434
 10
105.569533
 20
221.627965
 30
0.0
 11
107.569533
 21
221.627965
 31
0.0
  0
LINE
  8
LC-001-002-----0
  6
CONTINUOUS
  5
435
 10
103.569533
 20
227.627965
 30
0.0
 11
103.569533
 21
223.627965
 31
0.0
  0
LINE
  8
LC-001-002-----0
  6
CONTINUOUS
  5
436
 10
113.569533
 20
227.627965
 30
0.0
 11
113.569533
 21
223.627965
 31
0.0
  0
LINE
  8
LC-001-002-----0
  6
CONTINUOUS
  5
437
 10
105.569533
 20
229.627965
 30
0.0
 11
107.569533
 21
229.627965
 31
0.0
  0
LINE
  8
LC-001-002-----0
  6
CONTINUOUS
  5
438
 10
109.569533
 20
229.627965
 30
0.0
 11
111.569533
 21
229.627965
 31
0.0
  0
LINE
  8
LC-001-002-----0
  6
CONTINUOUS
  5
439
 10
109.569533
 20
221.627965
 30
0.0
 11
111.569533
 21
221.627965
 31
0.0
  0
LINE
  8
LC-001-002-----0
  6
CONTINUOUS
  5
43A
 10
111.569533
 20
229.627965
 30
0.0
 11
111.569533
 21
259.127965
 31
0.0
  0
LINE
  8
LC-001-002-----0
  6
CONTINUOUS
  5
43B
 10
105.569533
 20
229.627965
 30
0.0
 11
105.569533
 21
259.127965
 31
0.0
  0
LINE
  8
LC-008-003-----0
  6
CONTINUOUS
  5
43C
 10
106.069533
 20
229.627965
 30
0.0
 11
106.069533
 21
259.627965
 31
0.0
  0
LINE
  8
LC-008-003-----0
  6
CONTINUOUS
  5
43D
 10
111.069533
 20
229.627965
 30
0.0
 11
111.069533
 21
259.627965
 31
0.0
  0
LINE
  8
LC-001-002-----0
  6
CONTINUOUS
  5
43E
 10
109.569533
 20
229.627965
 30
0.0
 11
109.569533
 21
221.627965
 31
0.0
  0
LINE
  8
LC-001-002-----0
  6
CONTINUOUS
  5
43F
 10
107.569533
 20
229.627965
 30
0.0
 11
107.569533
 21
221.627965
 31
0.0
  0
ARC
  8
LC-002-002-RND-0
  6
CONTINUOUS
  5
440
 10
111.569533
 20
227.627965
 30
0.0
 40
2.0
 50
360.0
 51
90.0
  0
ARC
  8
LC-002-002-RND-0
  6
CONTINUOUS
  5
441
 10
111.569533
 20
223.627965
 30
0.0
 40
2.0
 50
270.0
 51
360.0
  0
ARC
  8
LC-002-002-RND-0
  6
CONTINUOUS
  5
442
 10
105.569533
 20
223.627965
 30
0.0
 40
2.0
 50
180.0
 51
270.0
  0
ARC
  8
LC-002-002-RND-0
  6
CONTINUOUS
  5
443
 10
105.569533
 20
227.627965
 30
0.0
 40
2.0
 50
90.0
 51
180.0
  0
LINE
  8
LC-001-002-----0
  6
CONTINUOUS
  5
444
 10
-83.767527
 20
209.908146
 30
0.0
 11
-82.217579
 21
209.908146
 31
0.0
  0
LINE
  8
LC-001-002-----0
  6
CONTINUOUS
  5
445
 10
-76.657216
 20
209.908146
 30
0.0
 11
-75.107272
 21
209.908146
 31
0.0
  0
LINE
  8
LC-001-002-----0
  6
CONTINUOUS
  5
446
 10
-83.767527
 20
215.108146
 30
0.0
 11
-82.437398
 21
215.108146
 31
0.0
  0
LINE
  8
LC-001-002-----0
  6
CONTINUOUS
  5
447
 10
-76.437398
 20
215.108146
 30
0.0
 11
-75.107273
 21
215.108146
 31
0.0
  0
LINE
  8
LC-001-002-----0
  6
CONTINUOUS
  5
448
 10
-85.210901
 20
214.439018
 30
0.0
 11
-85.210901
 21
210.577275
 31
0.0
  0
LINE
  8
LC-001-002-----0
  6
CONTINUOUS
  5
449
 10
-73.663896
 20
214.439018
 30
0.0
 11
-73.663896
 21
210.577275
 31
0.0
  0
LINE
  8
LC-001-002-----0
  6
CONTINUOUS
  5
44A
 10
112.89966
 20
209.908146
 30
0.0
 11
104.239405
 21
209.908146
 31
0.0
  0
LINE
  8
LC-001-002-----0
  6
CONTINUOUS
  5
44B
 10
112.89966
 20
215.108146
 30
0.0
 11
104.239407
 21
215.108146
 31
0.0
  0
LINE
  8
LC-001-002-----0
  6
CONTINUOUS
  5
44C
 10
114.343035
 20
214.439018
 30
0.0
 11
114.343035
 21
210.577275
 31
0.0
  0
LINE
  8
LC-001-002-----0
  6
CONTINUOUS
  5
44D
 10
102.796029
 20
214.439018
 30
0.0
 11
102.796029
 21
210.577275
 31
0.0
  0
LINE
  8
LC-001-002-----0
  6
CONTINUOUS
  5
44E
 10
111.456283
 20
210.577223
 30
0.0
 11
111.456283
 21
214.444746
 31
0.0
  0
LINE
  8
LC-001-002-----0
  6
CONTINUOUS
  5
44F
 10
105.682781
 20
210.577274
 30
0.0
 11
105.682781
 21
214.438991
 31
0.0
  0
LINE
  8
LC-001-002-----0
  6
CONTINUOUS
  5
450
 10
-53.183226
 20
149.382827
 30
0.0
 11
-61.933933
 21
149.382827
 31
0.0
  0
LINE
  8
LC-001-002-----0
  6
CONTINUOUS
  5
451
 10
-53.183226
 20
152.632827
 30
0.0
 11
-61.933933
 21
152.632827
 31
0.0
  0
LINE
  8
LC-001-002-----0
  6
CONTINUOUS
  5
452
 10
82.31536
 20
149.382827
 30
0.0
 11
91.066067
 21
149.382827
 31
0.0
  0
LINE
  8
LC-001-002-----0
  6
CONTINUOUS
  5
453
 10
82.31536
 20
152.632827
 30
0.0
 11
91.066067
 21
152.632827
 31
0.0
  0
LINE
  8
LC-001-002-----0
  6
DASHDOT
 62
     2
  5
454
 10
14.566067
 20
83.382827
 30
0.0
 11
14.56611
 21
312.655854
 31
0.0
  0
LINE
  8
LC-001-002-----0
  6
CONTINUOUS
  5
455
 10
-62.683933
 20
202.43294
 30
0.0
 11
-56.933933
 21
202.43294
 31
0.0
  0
LINE
  8
LC-001-002-----0
  6
CONTINUOUS
  5
456
 10
92.958371
 20
83.382827
 30
0.0
 11
94.633109
 21
89.633031
 31
0.0
  0
LINE
  8
LC-001-002-----0
  6
CONTINUOUS
  5
457
 10
-63.826238
 20
83.382827
 30
0.0
 11
-65.433933
 21
89.382827
 31
0.0
  0
LINE
  8
LC-001-002-----0
  6
CONTINUOUS
  5
458
 10
-56.933933
 20
202.43294
 30
0.0
 11
86.066067
 21
202.43294
 31
0.0
  0
LINE
  8
LC-001-002-----0
  6
CONTINUOUS
  5
459
 10
-61.933933
 20
83.382827
 30
0.0
 11
-63.826238
 21
83.382827
 31
0.0
  0
LINE
  8
LC-001-002-----0
  6
CONTINUOUS
  5
45A
 10
-50.933933
 20
187.43294
 30
0.0
 11
80.066067
 21
187.43294
 31
0.0
  0
LINE
  8
LC-001-002-----0
  6
CONTINUOUS
  5
45B
 10
91.066067
 20
83.382827
 30
0.0
 11
92.958371
 21
83.382827
 31
0.0
  0
LINE
  8
LC-001-002-----0
  6
CONTINUOUS
  5
45C
 10
-67.933933
 20
217.884148
 30
0.0
 11
-67.933933
 21
234.627965
 31
0.0
  0
LINE
  8
LC-001-002-----0
  6
CONTINUOUS
  5
45D
 10
97.066067
 20
234.627965
 30
0.0
 11
97.066067
 21
217.884148
 31
0.0
  0
LINE
  8
LC-001-002-----0
  6
CONTINUOUS
  5
45E
 10
-53.183226
 20
149.382827
 30
0.0
 11
-49.933933
 21
149.382827
 31
0.0
  0
LINE
  8
LC-001-002-----0
  6
CONTINUOUS
  5
45F
 10
-61.933933
 20
83.382827
 30
0.0
 11
91.066067
 21
83.382827
 31
0.0
  0
LINE
  8
LC-001-002-----0
  6
CONTINUOUS
  5
460
 10
-49.933933
 20
149.382827
 30
0.0
 11
14.566067
 21
149.382827
 31
0.0
  0
LINE
  8
LC-001-002-----0
  6
CONTINUOUS
  5
461
 10
-49.933933
 20
149.382827
 30
0.0
 11
-49.933933
 21
186.43294
 31
0.0
  0
LINE
  8
LC-001-002-----0
  6
CONTINUOUS
  5
462
 10
-67.933933
 20
217.884148
 30
0.0
 11
-63.183933
 21
213.134148
 31
0.0
  0
LINE
  8
LC-001-002-----0
  6
CONTINUOUS
  5
463
 10
-62.683933
 20
202.43294
 30
0.0
 11
-56.933933
 21
202.43294
 31
0.0
  0
LINE
  8
LC-001-002-----0
  6
CONTINUOUS
  5
464
 10
-70.396347
 20
213.748076
 30
0.0
 11
-66.433616
 21
213.748076
 31
0.0
  0
LINE
  8
LC-001-002-----0
  6
CONTINUOUS
  5
465
 10
97.066067
 20
217.884148
 30
0.0
 11
92.316067
 21
213.134148
 31
0.0
  0
LINE
  8
LC-001-002-----0
  6
CONTINUOUS
  5
466
 10
91.816067
 20
202.43294
 30
0.0
 11
86.066067
 21
202.43294
 31
0.0
  0
LINE
  8
LC-001-002-----0
  6
CONTINUOUS
  5
467
 10
-55.933933
 20
187.93294
 30
0.0
 11
-55.933933
 21
201.43294
 31
0.0
  0
ARC
  8
LC-002-002-RND-0
  6
CONTINUOUS
  5
468
 10
-56.933933
 20
201.43294
 30
0.0
 40
1.0
 50
0.0
 51
90.0
  0
ARC
  8
LC-002-002-RND-0
  6
CONTINUOUS
  5
469
 10
-55.433933
 20
187.93294
 30
0.0
 40
0.5
 50
180.0
 51
270.0
  0
ARC
  8
LC-002-002-RND-0
  6
CONTINUOUS
  5
46A
 10
-50.933933
 20
186.43294
 30
0.0
 40
1.0
 50
0.0
 51
90.0
  0
LINE
  8
LC-001-002-----0
  6
CONTINUOUS
  5
46B
 10
79.066067
 20
149.382827
 30
0.0
 11
14.566067
 21
149.382827
 31
0.0
  0
LINE
  8
LC-001-002-----0
  6
CONTINUOUS
  5
46C
 10
79.066067
 20
149.382827
 30
0.0
 11
79.066067
 21
186.43294
 31
0.0
  0
LINE
  8
LC-001-002-----0
  6
CONTINUOUS
  5
46D
 10
94.565775
 20
212.748076
 30
0.0
 11
95.56577
 21
213.748076
 31
0.0
  0
LINE
  8
LC-001-002-----0
  6
CONTINUOUS
  5
46E
 10
95.56577
 20
213.748076
 30
0.0
 11
99.566523
 21
213.748076
 31
0.0
  0
LINE
  8
LC-001-002-----0
  6
CONTINUOUS
  5
46F
 10
-113.172444
 20
243.383001
 30
0.0
 11
-89.119043
 21
234.628397
 31
0.0
  0
LINE
  8
LC-001-002-----0
  6
CONTINUOUS
  5
470
 10
-113.446633
 20
240.383
 30
0.0
 11
-90.766972
 21
232.12839
 31
0.0
  0
LINE
  8
LC-001-002-----0
  6
CONTINUOUS
  5
471
 10
-82.437398
 20
234.626303
 30
0.0
 11
-89.119043
 21
234.628397
 31
0.0
  0
LINE
  8
LC-001-002-----0
  6
CONTINUOUS
  5
472
 10
-85.387596
 20
232.126211
 30
0.0
 11
-90.766972
 21
232.12839
 31
0.0
  0
LINE
  8
LC-001-002-----0
  6
CONTINUOUS
  5
473
 10
-85.387596
 20
232.126211
 30
0.0
 11
-85.387503
 21
216.127717
 31
0.0
  0
LINE
  8
LC-001-002-----0
  6
CONTINUOUS
  5
474
 10
-85.387503
 20
216.127717
 30
0.0
 11
-82.437398
 21
216.12773
 31
0.0
  0
LINE
  8
LC-001-002-----0
  6
CONTINUOUS
  5
475
 10
-67.940853
 20
234.627608
 30
0.0
 11
-76.437398
 21
234.626783
 31
0.0
  0
LINE
  8
LC-001-002-----0
  6
CONTINUOUS
  5
476
 10
-70.394616
 20
232.126211
 30
0.0
 11
-70.396347
 21
213.748076
 31
0.0
  0
LINE
  8
LC-001-002-----0
  6
CONTINUOUS
  5
477
 10
-76.437398
 20
216.127755
 30
0.0
 11
-73.433909
 21
216.127768
 31
0.0
  0
LINE
  8
LC-001-002-----0
  6
CONTINUOUS
  5
478
 10
-53.183226
 20
149.382827
 30
0.0
 11
-53.183226
 21
182.93294
 31
0.0
  0
LINE
  8
LC-001-002-----0
  6
CONTINUOUS
  5
479
 10
-60.933933
 20
197.83294
 30
0.0
 11
-59.483226
 21
197.83294
 31
0.0
  0
LINE
  8
LC-001-002-----0
  6
CONTINUOUS
  5
47A
 10
142.575764
 20
240.383945
 30
0.0
 11
119.881962
 21
232.126643
 31
0.0
  0
LINE
  8
LC-001-002-----0
  6
CONTINUOUS
  5
47B
 10
111.321348
 20
234.626643
 30
0.0
 11
118.234022
 21
234.626643
 31
0.0
  0
LINE
  8
LC-001-002-----0
  6
CONTINUOUS
  5
47C
 10
114.519798
 20
232.126643
 30
0.0
 11
119.881962
 21
232.126643
 31
0.0
  0
LINE
  8
LC-001-002-----0
  6
CONTINUOUS
  5
47D
 10
114.519798
 20
232.126643
 30
0.0
 11
114.519811
 21
216.127743
 31
0.0
  0
LINE
  8
LC-001-002-----0
  6
CONTINUOUS
  5
47E
 10
114.519811
 20
216.127743
 30
0.0
 11
111.319719
 21
216.127743
 31
0.0
  0
LINE
  8
LC-001-002-----0
  6
CONTINUOUS
  5
47F
 10
111.319719
 20
216.127743
 30
0.0
 11
105.819719
 21
216.127743
 31
0.0
  0
LINE
  8
LC-006-006-MLN-0
  6
DASHDOT
  5
480
 10
108.574371
 20
269.127965
 30
0.0
 11
108.568254
 21
199.627965
 31
0.0
  0
LINE
  8
LC-001-002-----0
  6
CONTINUOUS
  5
481
 10
105.821348
 20
234.627154
 30
0.0
 11
105.819719
 21
216.127743
 31
0.0
  0
LINE
  8
LC-001-002-----0
  6
CONTINUOUS
  5
482
 10
97.073044
 20
234.627965
 30
0.0
 11
105.821348
 21
234.627154
 31
0.0
  0
LINE
  8
LC-001-002-----0
  6
CONTINUOUS
  5
483
 10
99.564894
 20
232.126211
 30
0.0
 11
99.566523
 21
213.748076
 31
0.0
  0
LINE
  8
LC-001-002-----0
  6
CONTINUOUS
  5
484
 10
111.321348
 20
234.626643
 30
0.0
 11
111.319719
 21
216.127743
 31
0.0
  0
LINE
  8
LC-001-002-----0
  6
CONTINUOUS
  5
485
 10
105.819719
 20
216.127743
 30
0.0
 11
102.566079
 21
216.127743
 31
0.0
  0
LINE
  8
LC-001-002-----0
  6
CONTINUOUS
  5
486
 10
-58.483226
 20
186.43294
 30
0.0
 11
-58.483226
 21
196.83294
 31
0.0
  0
ARC
  8
LC-002-002-RND-0
  6
CONTINUOUS
  5
487
 10
-59.483226
 20
196.83294
 30
0.0
 40
1.0
 50
0.0
 51
90.0
  0
ARC
  8
LC-002-002-RND-0
  6
CONTINUOUS
  5
488
 10
-60.933933
 20
196.83294
 30
0.0
 40
1.0
 50
90.0
 51
180.0
  0
LINE
  8
LC-001-002-----0
  6
CONTINUOUS
  5
489
 10
91.816067
 20
202.43294
 30
0.0
 11
86.066067
 21
202.43294
 31
0.0
  0
ARC
  8
LC-002-002-RND-0
  6
CONTINUOUS
  5
48A
 10
-62.683933
 20
202.93294
 30
0.0
 40
0.5
 50
180.0
 51
270.0
  0
LINE
  8
LC-001-002-----0
  6
CONTINUOUS
  5
48B
 10
85.066067
 20
187.93294
 30
0.0
 11
85.066067
 21
201.43294
 31
0.0
  0
LINE
  8
LC-001-002-----0
  6
CONTINUOUS
  5
48C
 10
79.066067
 20
149.382827
 30
0.0
 11
82.31536
 21
149.382827
 31
0.0
  0
LINE
  8
LC-001-002-----0
  6
CONTINUOUS
  5
48D
 10
-66.433616
 20
213.748076
 30
0.0
 11
-65.433619
 21
212.748078
 31
0.0
  0
ARC
  8
LC-002-002-RND-0
  6
CONTINUOUS
  5
48E
 10
86.066067
 20
201.43294
 30
0.0
 40
1.0
 50
90.0
 51
180.0
  0
ARC
  8
LC-002-002-RND-0
  6
CONTINUOUS
  5
48F
 10
84.566067
 20
187.93294
 30
0.0
 40
0.5
 50
270.0
 51
0.0
  0
ARC
  8
LC-002-002-RND-0
  6
CONTINUOUS
  5
490
 10
80.066067
 20
186.43294
 30
0.0
 40
1.0
 50
90.0
 51
180.0
  0
LINE
  8
LC-001-002-----0
  6
CONTINUOUS
  5
491
 10
82.31536
 20
149.382827
 30
0.0
 11
82.31536
 21
182.88294
 31
0.0
  0
LINE
  8
LC-001-002-----0
  6
CONTINUOUS
  5
492
 10
90.066067
 20
197.83294
 30
0.0
 11
88.61536
 21
197.83294
 31
0.0
  0
LINE
  8
LC-001-002-----0
  6
CONTINUOUS
  5
493
 10
87.61536
 20
186.38294
 30
0.0
 11
87.61536
 21
196.83294
 31
0.0
  0
ARC
  8
LC-002-002-RND-0
  6
CONTINUOUS
  5
494
 10
88.61536
 20
196.83294
 30
0.0
 40
1.0
 50
90.0
 51
180.0
  0
ARC
  8
LC-002-002-RND-0
  6
CONTINUOUS
  5
495
 10
90.066067
 20
196.83294
 30
0.0
 40
1.0
 50
0.0
 51
90.0
  0
ARC
  8
LC-002-002-RND-0
  6
CONTINUOUS
  5
496
 10
91.816067
 20
202.93294
 30
0.0
 40
0.5
 50
270.0
 51
0.0
  0
LINE
  8
LC-001-002-----0
  6
CONTINUOUS
  5
497
 10
-63.183933
 20
202.93294
 30
0.0
 11
-63.183933
 21
213.134148
 31
0.0
  0
LINE
  8
LC-001-002-----0
  6
CONTINUOUS
  5
498
 10
92.316067
 20
202.93294
 30
0.0
 11
92.316067
 21
213.134148
 31
0.0
  0
LINE
  8
LC-001-002-----0
  6
CONTINUOUS
  5
499
 10
84.566067
 20
187.43294
 30
0.0
 11
80.066067
 21
187.43294
 31
0.0
  0
ARC
  8
LC-002-002-RND-0
  6
CONTINUOUS
  5
49A
 10
85.11536
 20
186.38294
 30
0.0
 40
2.5
 50
270.0
 51
0.0
  0
ARC
  8
LC-002-002-RND-0
  6
CONTINUOUS
  5
49B
 10
83.31536
 20
182.88294
 30
0.0
 40
1.0
 50
90.0
 51
180.0
  0
LINE
  8
LC-001-002-----0
  6
CONTINUOUS
  5
49C
 10
85.11536
 20
183.88294
 30
0.0
 11
83.31536
 21
183.88294
 31
0.0
  0
LINE
  8
LC-001-002-----0
  6
CONTINUOUS
  5
49D
 10
-55.433933
 20
187.43294
 30
0.0
 11
-50.933933
 21
187.43294
 31
0.0
  0
ARC
  8
LC-002-002-RND-0
  6
CONTINUOUS
  5
49E
 10
-55.983226
 20
186.43294
 30
0.0
 40
2.5
 50
180.0
 51
270.0
  0
ARC
  8
LC-002-002-RND-0
  6
CONTINUOUS
  5
49F
 10
-54.183226
 20
182.93294
 30
0.0
 40
1.0
 50
0.0
 51
90.0
  0
LINE
  8
LC-001-002-----0
  6
CONTINUOUS
  5
4A0
 10
-55.983226
 20
183.93294
 30
0.0
 11
-54.183226
 21
183.93294
 31
0.0
  0
LINE
  8
LC-001-002-----0
  6
CONTINUOUS
  5
4A1
 10
91.066067
 20
83.382827
 30
0.0
 11
91.066067
 21
196.83294
 31
0.0
  0
LINE
  8
LC-001-002-----0
  6
CONTINUOUS
  5
4A2
 10
94.566067
 20
89.382827
 30
0.0
 11
94.565775
 21
212.748076
 31
0.0
  0
LINE
  8
LC-001-002-----0
  6
CONTINUOUS
  5
4A3
 10
-61.933933
 20
83.382827
 30
0.0
 11
-61.933933
 21
158.231366
 31
0.0
  0
LINE
  8
LC-001-002-----0
  6
CONTINUOUS
  5
4A4
 10
-65.433619
 20
212.748078
 30
0.0
 11
-65.433743
 21
164.27098
 31
0.0
  0
LINE
  8
LC-001-002-----0
  6
CONTINUOUS
  5
4A5
 10
-73.433909
 20
216.127768
 30
0.0
 11
-73.433933
 21
232.126211
 31
0.0
  0
LINE
  8
LC-001-002-----0
  6
CONTINUOUS
  5
4A6
 10
-73.433933
 20
232.126211
 30
0.0
 11
-70.394616
 21
232.126211
 31
0.0
  0
LINE
  8
LC-001-002-----0
  6
CONTINUOUS
  5
4A7
 10
102.566079
 20
216.127743
 30
0.0
 11
102.566067
 21
232.126211
 31
0.0
  0
LINE
  8
LC-001-002-----0
  6
CONTINUOUS
  5
4A8
 10
102.566067
 20
232.126211
 30
0.0
 11
99.564894
 21
232.126211
 31
0.0
  0
LINE
  8
LC-001-002-----0
  6
CONTINUOUS
  5
4A9
 10
-160.433933
 20
243.382827
 30
0.0
 11
-87.23722
 21
243.383097
 31
0.0
  0
LINE
  8
LC-001-002-----0
  6
CONTINUOUS
  5
4AA
 10
-162.433921
 20
240.382819
 30
0.0
 11
-113.446633
 21
240.383
 31
0.0
  0
LINE
  8
LC-001-002-----0
  6
CONTINUOUS
  5
4AB
 10
-162.433926
 20
241.382818
 30
0.0
 11
-162.433921
 21
240.374929
 31
0.0
  0
ARC
  8
LC-002-002-RND-0
  6
CONTINUOUS
  5
4AC
 10
-160.433926
 20
241.382827
 30
0.0
 40
2.0
 50
90.000212
 51
180.000248
  0
LINE
  8
LC-001-002-----0
  6
CONTINUOUS
  5
4AD
 10
191.566066
 20
241.38412
 30
0.0
 11
191.566066
 21
240.38443
 31
0.0
  0
LINE
  8
LC-001-002-----0
  6
CONTINUOUS
  5
4AE
 10
142.301716
 20
243.383945
 30
0.0
 11
118.234021
 21
234.626643
 31
0.0
  0
LINE
  8
LC-001-002-----0
  6
CONTINUOUS
  5
4AF
 10
142.575764
 20
240.383945
 30
0.0
 11
191.566066
 21
240.384126
 31
0.0
  0
ARC
  8
LC-002-002-RND-0
  6
CONTINUOUS
  5
4B0
 10
189.566066
 20
241.38412
 30
0.0
 40
2.0
 50
0.0
 51
90.000212
  0
LINE
  8
LC-001-002-----0
  6
CONTINUOUS
  5
4B1
 10
142.082839
 20
243.383945
 30
0.0
 11
189.566058
 21
243.38412
 31
0.0
  0
LINE
  8
LC-001-002-----0
  6
CONTINUOUS
  5
4B2
 10
-75.937422
 20
215.108586
 30
0.0
 11
-72.386817
 21
215.108586
 31
0.0
  0
LINE
  8
LC-001-002-----0
  6
CONTINUOUS
  5
4B3
 10
116.366445
 20
243.38385
 30
0.0
 11
142.083975
 21
243.383945
 31
0.0
  0
LINE
  8
LC-001-002-----0
  6
CONTINUOUS
  5
4B4
 10
105.573148
 20
242.074656
 30
0.0
 11
105.576962
 21
242.074656
 31
0.0
  0
LINE
  8
LC-001-002-----0
  6
CONTINUOUS
  5
4B5
 10
114.050947
 20
241.284471
 30
0.0
 11
111.569533
 21
241.284471
 31
0.0
  0
LINE
  8
LC-001-002-----0
  6
CONTINUOUS
  5
4B6
 10
105.572983
 20
241.284471
 30
0.0
 11
105.572983
 21
241.284471
 31
0.0
  0
LINE
  8
LC-001-002-----0
  6
CONTINUOUS
  5
4B7
 10
111.573193
 20
240.584471
 30
0.0
 11
112.7155
 21
240.584471
 31
0.0
  0
LINE
  8
LC-001-002-----0
  6
CONTINUOUS
  5
4B8
 10
111.573193
 20
239.884471
 30
0.0
 11
112.7155
 21
239.884471
 31
0.0
  0
LINE
  8
LC-001-002-----0
  6
CONTINUOUS
  5
4B9
 10
103.090199
 20
241.284471
 30
0.0
 11
105.569533
 21
241.284471
 31
0.0
  0
LINE
  8
LC-001-002-----0
  6
CONTINUOUS
  5
4BA
 10
105.370573
 20
240.584471
 30
0.0
 11
105.370573
 21
239.884471
 31
0.0
  0
LINE
  8
LC-001-002-----0
  6
CONTINUOUS
  5
4BB
 10
111.770573
 20
239.884471
 30
0.0
 11
111.770573
 21
240.584471
 31
0.0
  0
LINE
  8
LC-001-002-----0
  6
CONTINUOUS
  5
4BC
 10
103.090199
 20
239.184471
 30
0.0
 11
104.425646
 21
239.884471
 31
0.0
  0
LINE
  8
LC-001-002-----0
  6
CONTINUOUS
  5
4BD
 10
103.090199
 20
240.584471
 30
0.0
 11
103.757922
 21
240.234471
 31
0.0
  0
LINE
  8
LC-001-002-----0
  6
CONTINUOUS
  5
4BE
 10
103.090199
 20
240.584471
 30
0.0
 11
103.090199
 21
241.284471
 31
0.0
  0
LINE
  8
LC-001-002-----0
  6
CONTINUOUS
  5
4BF
 10
103.090199
 20
241.284471
 30
0.0
 11
104.425646
 21
240.584471
 31
0.0
  0
LINE
  8
LC-001-002-----0
  6
CONTINUOUS
  5
4C0
 10
114.050947
 20
241.284471
 30
0.0
 11
112.7155
 21
240.584471
 31
0.0
  0
LINE
  8
LC-001-002-----0
  6
CONTINUOUS
  5
4C1
 10
114.050947
 20
240.584471
 30
0.0
 11
112.7155
 21
239.884471
 31
0.0
  0
LINE
  8
LC-001-002-----0
  6
CONTINUOUS
  5
4C2
 10
114.050947
 20
239.884471
 30
0.0
 11
113.383223
 21
240.234471
 31
0.0
  0
LINE
  8
LC-001-002-----0
  6
CONTINUOUS
  5
4C3
 10
114.050947
 20
239.184471
 30
0.0
 11
112.7155
 21
239.884471
 31
0.0
  0
LINE
  8
LC-001-002-----0
  6
CONTINUOUS
  5
4C4
 10
104.425646
 20
240.584471
 30
0.0
 11
105.573193
 21
240.584471
 31
0.0
  0
LINE
  8
LC-001-002-----0
  6
CONTINUOUS
  5
4C5
 10
104.425646
 20
239.884471
 30
0.0
 11
105.573193
 21
239.884471
 31
0.0
  0
LINE
  8
LC-001-002-----0
  6
CONTINUOUS
  5
4C6
 10
103.090199
 20
239.884471
 30
0.0
 11
104.425646
 21
240.584471
 31
0.0
  0
LINE
  8
LC-001-002-----0
  6
CONTINUOUS
  5
4C7
 10
103.090199
 20
239.884471
 30
0.0
 11
103.090199
 21
239.184471
 31
0.0
  0
LINE
  8
LC-001-002-----0
  6
CONTINUOUS
  5
4C8
 10
114.050947
 20
239.884471
 30
0.0
 11
114.050947
 21
239.184471
 31
0.0
  0
LINE
  8
LC-001-002-----0
  6
CONTINUOUS
  5
4C9
 10
114.050947
 20
240.584471
 30
0.0
 11
114.050947
 21
241.284471
 31
0.0
  0
LINE
  8
LC-001-002-----0
  6
CONTINUOUS
  5
4CA
 10
103.090199
 20
239.184471
 30
0.0
 11
105.569533
 21
239.184471
 31
0.0
  0
LINE
  8
LC-001-002-----0
  6
CONTINUOUS
  5
4CB
 10
114.050947
 20
239.184471
 30
0.0
 11
111.569191
 21
239.184471
 31
0.0
  0
LINE
  8
LC-001-002-----0
  6
CONTINUOUS
  5
4CC
 10
-84.918753
 20
241.284509
 30
0.0
 11
-82.437398
 21
241.284508
 31
0.0
  0
LINE
  8
LC-001-002-----0
  6
CONTINUOUS
  5
4CD
 10
-76.437398
 20
241.284506
 30
0.0
 11
-73.958006
 21
241.284505
 31
0.0
  0
LINE
  8
LC-001-002-----0
  6
CONTINUOUS
  5
4CE
 10
-76.440789
 20
241.284506
 30
0.0
 11
-76.440789
 21
241.284506
 31
0.0
  0
LINE
  8
LC-001-002-----0
  6
CONTINUOUS
  5
4CF
 10
-82.441
 20
240.584508
 30
0.0
 11
-83.583307
 21
240.584508
 31
0.0
  0
LINE
  8
LC-001-002-----0
  6
CONTINUOUS
  5
4D0
 10
-82.441
 20
239.884508
 30
0.0
 11
-83.583307
 21
239.884508
 31
0.0
  0
LINE
  8
LC-001-002-----0
  6
CONTINUOUS
  5
4D1
 10
-73.958006
 20
241.284505
 30
0.0
 11
-76.437398
 21
241.284506
 31
0.0
  0
LINE
  8
LC-001-002-----0
  6
CONTINUOUS
  5
4D2
 10
-82.437398
 20
241.284508
 30
0.0
 11
-84.918753
 21
241.284509
 31
0.0
  0
LINE
  8
LC-001-002-----0
  6
CONTINUOUS
  5
4D3
 10
-76.23838
 20
240.584505
 30
0.0
 11
-76.23838
 21
239.884505
 31
0.0
  0
LINE
  8
LC-001-002-----0
  6
CONTINUOUS
  5
4D4
 10
-82.63838
 20
239.884508
 30
0.0
 11
-82.63838
 21
240.584508
 31
0.0
  0
LINE
  8
LC-001-002-----0
  6
CONTINUOUS
  5
4D5
 10
-73.958006
 20
239.184505
 30
0.0
 11
-75.293453
 21
239.884505
 31
0.0
  0
LINE
  8
LC-001-002-----0
  6
CONTINUOUS
  5
4D6
 10
-73.958006
 20
240.584505
 30
0.0
 11
-74.625729
 21
240.234505
 31
0.0
  0
LINE
  8
LC-001-002-----0
  6
CONTINUOUS
  5
4D7
 10
-73.958006
 20
240.584505
 30
0.0
 11
-73.958006
 21
241.284505
 31
0.0
  0
LINE
  8
LC-001-002-----0
  6
CONTINUOUS
  5
4D8
 10
-73.958006
 20
241.284505
 30
0.0
 11
-75.293452
 21
240.584505
 31
0.0
  0
LINE
  8
LC-001-002-----0
  6
CONTINUOUS
  5
4D9
 10
-84.918753
 20
241.284509
 30
0.0
 11
-83.583307
 21
240.584508
 31
0.0
  0
LINE
  8
LC-001-002-----0
  6
CONTINUOUS
  5
4DA
 10
-84.918754
 20
240.584509
 30
0.0
 11
-83.583307
 21
239.884508
 31
0.0
  0
LINE
  8
LC-001-002-----0
  6
CONTINUOUS
  5
4DB
 10
-84.918754
 20
239.884509
 30
0.0
 11
-84.25103
 21
240.234509
 31
0.0
  0
LINE
  8
LC-001-002-----0
  6
CONTINUOUS
  5
4DC
 10
-84.918754
 20
239.184509
 30
0.0
 11
-83.583307
 21
239.884508
 31
0.0
  0
LINE
  8
LC-001-002-----0
  6
CONTINUOUS
  5
4DD
 10
-75.293452
 20
240.584505
 30
0.0
 11
-76.437398
 21
240.584506
 31
0.0
  0
LINE
  8
LC-001-002-----0
  6
CONTINUOUS
  5
4DE
 10
-75.293453
 20
239.884505
 30
0.0
 11
-76.437398
 21
239.884506
 31
0.0
  0
LINE
  8
LC-001-002-----0
  6
CONTINUOUS
  5
4DF
 10
-73.958006
 20
239.884505
 30
0.0
 11
-75.293452
 21
240.584505
 31
0.0
  0
LINE
  8
LC-001-002-----0
  6
CONTINUOUS
  5
4E0
 10
-73.958006
 20
239.884505
 30
0.0
 11
-73.958006
 21
239.184505
 31
0.0
  0
LINE
  8
LC-001-002-----0
  6
CONTINUOUS
  5
4E1
 10
-84.918754
 20
239.884509
 30
0.0
 11
-84.918754
 21
239.184509
 31
0.0
  0
LINE
  8
LC-001-002-----0
  6
CONTINUOUS
  5
4E2
 10
-84.918754
 20
240.584509
 30
0.0
 11
-84.918753
 21
241.284509
 31
0.0
  0
LINE
  8
LC-001-002-----0
  6
CONTINUOUS
  5
4E3
 10
-73.958006
 20
239.184505
 30
0.0
 11
-76.437398
 21
239.184506
 31
0.0
  0
LINE
  8
LC-001-002-----0
  6
CONTINUOUS
  5
4E4
 10
-84.918754
 20
239.184509
 30
0.0
 11
-82.437398
 21
239.184508
 31
0.0
  0
LINE
  8
LC-001-002-----0
  6
CONTINUOUS
  5
4E5
 10
105.569533
 20
250.284471
 30
0.0
 11
103.566014
 21
250.284471
 31
0.0
  0
LINE
  8
LC-001-002-----0
  6
CONTINUOUS
  5
4E6
 10
111.569533
 20
239.184471
 30
0.0
 11
113.53865
 21
239.184471
 31
0.0
  0
LINE
  8
LC-001-002-----0
  6
CONTINUOUS
  5
4E7
 10
106.069533
 20
259.627965
 30
0.0
 11
111.069533
 21
259.627965
 31
0.0
  0
LINE
  8
LC-001-002-----0
  6
CONTINUOUS
  5
4E8
 10
111.569533
 20
241.284471
 30
0.0
 11
114.050947
 21
241.284471
 31
0.0
  0
LINE
  8
LC-001-002-----0
  6
CONTINUOUS
  5
4E9
 10
105.569533
 20
241.284471
 30
0.0
 11
102.566014
 21
241.284471
 31
0.0
  0
LINE
  8
LC-001-002-----0
  6
CONTINUOUS
  5
4EA
 10
105.569533
 20
241.284471
 30
0.0
 11
103.090199
 21
241.284471
 31
0.0
  0
LINE
  8
LC-001-002-----0
  6
CONTINUOUS
  5
4EB
 10
-101.433226
 20
164.27098
 30
0.0
 11
-64.933226
 21
164.27098
 31
0.0
  0
LINE
  8
LC-001-002-----0
  6
CONTINUOUS
  5
4EC
 10
-101.433226
 20
157.77098
 30
0.0
 11
-64.933226
 21
157.77098
 31
0.0
  0
LINE
  8
LC-001-002-----0
  6
DASHDOT
 62
     2
  5
4ED
 10
-103.433226
 20
169.384049
 30
0.0
 11
-103.433226
 21
155.700527
 31
0.0
  0
LINE
  8
LC-001-002-----0
  6
DASHDOT
 62
     2
  5
4EE
 10
-101.433226
 20
169.384049
 30
0.0
 11
-101.433226
 21
155.700527
 31
0.0
  0
LINE
  8
LC-001-002-----0
  6
CONTINUOUS
  5
4EF
 10
-103.433226
 20
157.77098
 30
0.0
 11
-116.802036
 21
157.77098
 31
0.0
  0
LINE
  8
LC-001-002-----0
  6
CONTINUOUS
  5
4F0
 10
-103.433226
 20
164.27098
 30
0.0
 11
-116.802036
 21
164.27098
 31
0.0
  0
LINE
  8
LC-001-002-----0
  6
CONTINUOUS
  5
4F1
 10
-116.802036
 20
164.27098
 30
0.0
 11
-116.802036
 21
157.77098
 31
0.0
  0
LINE
  8
LC-001-002-----0
  6
CONTINUOUS
  5
4F2
 10
-116.802036
 20
163.273039
 30
0.0
 11
-141.548848
 21
164.569964
 31
0.0
  0
LINE
  8
LC-001-002-----0
  6
CONTINUOUS
  5
4F3
 10
-116.802036
 20
161.77098
 30
0.0
 11
-141.71737
 21
163.076737
 31
0.0
  0
LINE
  8
LC-001-002-----0
  6
CONTINUOUS
  5
4F4
 10
-116.802036
 20
161.77098
 30
0.0
 11
-141.802036
 21
161.77098
 31
0.0
  0
LINE
  8
LC-001-002-----0
  6
CONTINUOUS
  5
4F5
 10
-116.802036
 20
160.27098
 30
0.0
 11
-141.802036
 21
160.27098
 31
0.0
  0
LINE
  8
LC-001-002-----0
  6
CONTINUOUS
  5
4F6
 10
-116.802036
 20
160.27098
 30
0.0
 11
-141.71737
 21
158.965223
 31
0.0
  0
LINE
  8
LC-001-002-----0
  6
CONTINUOUS
  5
4F7
 10
-116.802036
 20
158.768922
 30
0.0
 11
-141.548848
 21
157.471996
 31
0.0
  0
LINE
  8
LC-001-002-----0
  6
CONTINUOUS
  5
4F8
 10
-141.576935
 20
157.720867
 30
0.0
 11
-148.591152
 21
157.353268
 31
0.0
  0
LINE
  8
LC-001-002-----0
  6
CONTINUOUS
  5
4F9
 10
-141.689283
 20
158.716352
 30
0.0
 11
-148.690323
 21
158.349443
 31
0.0
  0
LINE
  8
LC-001-002-----0
  6
CONTINUOUS
  5
4FA
 10
-141.802036
 20
160.52098
 30
0.0
 11
-148.802036
 21
160.52098
 31
0.0
  0
LINE
  8
LC-001-002-----0
  6
CONTINUOUS
  5
4FB
 10
-141.802036
 20
161.52098
 30
0.0
 11
-148.802036
 21
161.52098
 31
0.0
  0
LINE
  8
LC-001-002-----0
  6
CONTINUOUS
  5
4FC
 10
-141.689283
 20
163.325609
 30
0.0
 11
-148.690323
 21
163.692518
 31
0.0
  0
LINE
  8
LC-001-002-----0
  6
CONTINUOUS
  5
4FD
 10
-141.576935
 20
164.321093
 30
0.0
 11
-148.591152
 21
164.688693
 31
0.0
  0
LINE
  8
LC-001-002-----0
  6
CONTINUOUS
  5
4FE
 10
-141.548848
 20
164.569964
 30
0.0
 11
-141.71737
 21
163.076737
 31
0.0
  0
LINE
  8
LC-001-002-----0
  6
CONTINUOUS
  5
4FF
 10
-141.802036
 20
161.77098
 30
0.0
 11
-141.802036
 21
160.27098
 31
0.0
  0
LINE
  8
LC-001-002-----0
  6
CONTINUOUS
  5
500
 10
-141.548848
 20
157.471996
 30
0.0
 11
-141.71737
 21
158.965223
 31
0.0
  0
LINE
  8
LC-001-002-----0
  6
CONTINUOUS
  5
501
 10
-148.591152
 20
157.353268
 30
0.0
 11
-148.690323
 21
158.349443
 31
0.0
  0
LINE
  8
LC-001-002-----0
  6
CONTINUOUS
  5
502
 10
-148.802036
 20
161.52098
 30
0.0
 11
-148.802036
 21
160.52098
 31
0.0
  0
LINE
  8
LC-001-002-----0
  6
CONTINUOUS
  5
503
 10
-148.591152
 20
164.688693
 30
0.0
 11
-148.690323
 21
163.692518
 31
0.0
  0
ARC
  8
LC-002-002-RND-0
  6
CONTINUOUS
  5
504
 10
-64.933226
 20
167.77098
 30
0.0
 40
3.5
 50
270.0
 51
360.0
  0
ARC
  8
LC-002-002-RND-0
  6
CONTINUOUS
  5
505
 10
-64.933226
 20
167.77098
 30
0.0
 40
10.0
 50
270.0
 51
360.0
  0
LINE
  8
LC-001-002-----0
  6
CONTINUOUS
  5
506
 10
-61.433226
 20
180.572346
 30
0.0
 11
-61.433226
 21
167.77098
 31
0.0
  0
LINE
  8
LC-001-002-----0
  6
CONTINUOUS
  5
507
 10
-54.933226
 20
180.572346
 30
0.0
 11
-54.933226
 21
167.77098
 31
0.0
  0
CIRCLE
  8
LC-001-002-----0
  6
CONTINUOUS
  5
508
 10
-58.183226
 20
180.572346
 30
0.0
 40
3.25
  0
LINE
  8
LC-004-005-----0
  6
CONTINUOUS
  5
509
 10
-53.183226
 20
180.462447
 30
0.0
 11
-56.786173
 21
184.065394
 31
0.0
  0
LINE
  8
LC-004-005-----0
  6
CONTINUOUS
  5
50A
 10
-58.350773
 20
185.629994
 30
0.0
 11
-61.933933
 21
189.213154
 31
0.0
  0
LINE
  8
LC-004-005-----0
  6
CONTINUOUS
  5
50B
 10
-53.183226
 20
166.320311
 30
0.0
 11
-54.933226
 21
168.070311
 31
0.0
  0
LINE
  8
LC-004-005-----0
  6
CONTINUOUS
  5
50C
 10
-53.637877
 20
152.632827
 30
0.0
 11
-60.049615
 21
159.044564
 31
0.0
  0
LINE
  8
LC-004-005-----0
  6
CONTINUOUS
  5
50D
 10
-59.499208
 20
152.632827
 30
0.0
 11
-53.183226
 21
158.948808
 31
0.0
  0
LINE
  8
LC-004-005-----0
  6
CONTINUOUS
  5
50E
 10
-54.933226
 20
171.340943
 30
0.0
 11
-53.183226
 21
173.090943
 31
0.0
  0
LINE
  8
LC-004-005-----0
  6
CONTINUOUS
  5
50F
 10
-61.933933
 20
178.482372
 30
0.0
 11
-61.156428
 21
179.259878
 31
0.0
  0
LINE
  8
LC-004-005-----0
  6
CONTINUOUS
  5
510
 10
-61.933933
 20
192.624508
 30
0.0
 11
-58.483226
 21
196.075215
 31
0.0
  0
LINE
  8
LC-004-005-----0
  6
CONTINUOUS
  5
511
 10
-63.695384
 20
83.382827
 30
0.0
 11
-61.933933
 21
85.144277
 31
0.0
  0
LINE
  8
LC-004-005-----0
  6
CONTINUOUS
  5
512
 10
-64.396302
 20
85.510335
 30
0.0
 11
-61.933933
 21
87.972704
 31
0.0
  0
LINE
  8
LC-004-005-----0
  6
CONTINUOUS
  5
513
 10
-64.994019
 20
87.741045
 30
0.0
 11
-61.933933
 21
90.801131
 31
0.0
  0
LINE
  8
LC-004-005-----0
  6
CONTINUOUS
  5
514
 10
-65.433931
 20
90.12956
 30
0.0
 11
-61.933933
 21
93.629558
 31
0.0
  0
LINE
  8
LC-004-005-----0
  6
CONTINUOUS
  5
515
 10
-65.433924
 20
92.957995
 30
0.0
 11
-61.933933
 21
96.457986
 31
0.0
  0
LINE
  8
LC-004-005-----0
  6
CONTINUOUS
  5
516
 10
-65.433917
 20
95.786429
 30
0.0
 11
-61.933933
 21
99.286413
 31
0.0
  0
LINE
  8
LC-004-005-----0
  6
CONTINUOUS
  5
517
 10
-65.43391
 20
98.614863
 30
0.0
 11
-61.933933
 21
102.11484
 31
0.0
  0
LINE
  8
LC-004-005-----0
  6
CONTINUOUS
  5
518
 10
-65.433903
 20
101.443298
 30
0.0
 11
-61.933933
 21
104.943267
 31
0.0
  0
LINE
  8
LC-004-005-----0
  6
CONTINUOUS
  5
519
 10
-65.433895
 20
104.271732
 30
0.0
 11
-61.933933
 21
107.771694
 31
0.0
  0
LINE
  8
LC-004-005-----0
  6
CONTINUOUS
  5
51A
 10
-65.433888
 20
107.100166
 30
0.0
 11
-61.933933
 21
110.600121
 31
0.0
  0
LINE
  8
LC-004-005-----0
  6
CONTINUOUS
  5
51B
 10
-65.433881
 20
109.928601
 30
0.0
 11
-61.933933
 21
113.428548
 31
0.0
  0
LINE
  8
LC-004-005-----0
  6
CONTINUOUS
  5
51C
 10
-65.433874
 20
112.757035
 30
0.0
 11
-61.933933
 21
116.256975
 31
0.0
  0
LINE
  8
LC-004-005-----0
  6
CONTINUOUS
  5
51D
 10
-65.433867
 20
115.585469
 30
0.0
 11
-61.933933
 21
119.085403
 31
0.0
  0
LINE
  8
LC-004-005-----0
  6
CONTINUOUS
  5
51E
 10
-65.433859
 20
118.413904
 30
0.0
 11
-61.933933
 21
121.91383
 31
0.0
  0
LINE
  8
LC-004-005-----0
  6
CONTINUOUS
  5
51F
 10
-65.433852
 20
121.242338
 30
0.0
 11
-61.933933
 21
124.742257
 31
0.0
  0
LINE
  8
LC-004-005-----0
  6
CONTINUOUS
  5
520
 10
-65.433845
 20
124.070772
 30
0.0
 11
-61.933933
 21
127.570684
 31
0.0
  0
LINE
  8
LC-004-005-----0
  6
CONTINUOUS
  5
521
 10
-65.433838
 20
126.899207
 30
0.0
 11
-61.933933
 21
130.399111
 31
0.0
  0
LINE
  8
LC-004-005-----0
  6
CONTINUOUS
  5
522
 10
-65.433831
 20
129.727641
 30
0.0
 11
-61.933933
 21
133.227538
 31
0.0
  0
LINE
  8
LC-004-005-----0
  6
CONTINUOUS
  5
523
 10
-65.433823
 20
132.556075
 30
0.0
 11
-61.933933
 21
136.055965
 31
0.0
  0
LINE
  8
LC-004-005-----0
  6
CONTINUOUS
  5
524
 10
-65.433816
 20
135.38451
 30
0.0
 11
-61.933933
 21
138.884392
 31
0.0
  0
LINE
  8
LC-004-005-----0
  6
CONTINUOUS
  5
525
 10
-51.435499
 20
149.382827
 30
0.0
 11
-49.933933
 21
150.884392
 31
0.0
  0
LINE
  8
LC-004-005-----0
  6
CONTINUOUS
  5
526
 10
-65.433809
 20
138.212944
 30
0.0
 11
-61.933933
 21
141.71282
 31
0.0
  0
LINE
  8
LC-004-005-----0
  6
CONTINUOUS
  5
527
 10
-53.183226
 20
150.463526
 30
0.0
 11
-49.933933
 21
153.71282
 31
0.0
  0
LINE
  8
LC-004-005-----0
  6
CONTINUOUS
  5
528
 10
-65.433802
 20
141.041378
 30
0.0
 11
-61.933933
 21
144.541247
 31
0.0
  0
LINE
  8
LC-004-005-----0
  6
CONTINUOUS
  5
529
 10
-53.183226
 20
153.291954
 30
0.0
 11
-49.933933
 21
156.541247
 31
0.0
  0
LINE
  8
LC-004-005-----0
  6
CONTINUOUS
  5
52A
 10
-65.433795
 20
143.869813
 30
0.0
 11
-61.933933
 21
147.369674
 31
0.0
  0
LINE
  8
LC-004-005-----0
  6
CONTINUOUS
  5
52B
 10
-53.183226
 20
156.120381
 30
0.0
 11
-49.933933
 21
159.369674
 31
0.0
  0
LINE
  8
LC-004-005-----0
  6
CONTINUOUS
  5
52C
 10
-65.433787
 20
146.698247
 30
0.0
 11
-61.933933
 21
150.198101
 31
0.0
  0
LINE
  8
LC-004-005-----0
  6
CONTINUOUS
  5
52D
 10
-53.183226
 20
158.948808
 30
0.0
 11
-49.933933
 21
162.198101
 31
0.0
  0
LINE
  8
LC-004-005-----0
  6
CONTINUOUS
  5
52E
 10
-65.43378
 20
149.526681
 30
0.0
 11
-61.933933
 21
153.026528
 31
0.0
  0
LINE
  8
LC-004-005-----0
  6
CONTINUOUS
  5
52F
 10
-53.183226
 20
161.777235
 30
0.0
 11
-49.933933
 21
165.026528
 31
0.0
  0
LINE
  8
LC-004-005-----0
  6
CONTINUOUS
  5
530
 10
-65.433773
 20
152.355116
 30
0.0
 11
-61.933933
 21
155.854955
 31
0.0
  0
LINE
  8
LC-004-005-----0
  6
CONTINUOUS
  5
531
 10
-53.183226
 20
164.605662
 30
0.0
 11
-49.933933
 21
167.854955
 31
0.0
  0
LINE
  8
LC-004-005-----0
  6
CONTINUOUS
  5
532
 10
-65.433766
 20
155.18355
 30
0.0
 11
-62.560853
 21
158.056463
 31
0.0
  0
LINE
  8
LC-004-005-----0
  6
CONTINUOUS
  5
533
 10
-53.183226
 20
167.434089
 30
0.0
 11
-49.933933
 21
170.683382
 31
0.0
  0
LINE
  8
LC-004-005-----0
  6
CONTINUOUS
  5
534
 10
-53.183226
 20
170.262516
 30
0.0
 11
-49.933933
 21
173.511809
 31
0.0
  0
LINE
  8
LC-004-005-----0
  6
CONTINUOUS
  5
535
 10
-53.183226
 20
173.090943
 30
0.0
 11
-49.933933
 21
176.340237
 31
0.0
  0
LINE
  8
LC-004-005-----0
  6
CONTINUOUS
  5
536
 10
-64.830097
 20
164.2725
 30
0.0
 11
-61.933933
 21
167.168664
 31
0.0
  0
LINE
  8
LC-004-005-----0
  6
CONTINUOUS
  5
537
 10
-53.183226
 20
175.919371
 30
0.0
 11
-49.933933
 21
179.168664
 31
0.0
  0
LINE
  8
LC-004-005-----0
  6
CONTINUOUS
  5
538
 10
-65.433737
 20
166.497287
 30
0.0
 11
-61.933933
 21
169.997091
 31
0.0
  0
LINE
  8
LC-004-005-----0
  6
CONTINUOUS
  5
539
 10
-53.183226
 20
178.747798
 30
0.0
 11
-49.933933
 21
181.997091
 31
0.0
  0
LINE
  8
LC-004-005-----0
  6
CONTINUOUS
  5
53A
 10
-65.43373
 20
169.325722
 30
0.0
 11
-61.933933
 21
172.825518
 31
0.0
  0
LINE
  8
LC-004-005-----0
  6
CONTINUOUS
  5
53B
 10
-53.183226
 20
181.576225
 30
0.0
 11
-49.933933
 21
184.825518
 31
0.0
  0
LINE
  8
LC-004-005-----0
  6
CONTINUOUS
  5
53C
 10
-65.433722
 20
172.154156
 30
0.0
 11
-61.933933
 21
175.653945
 31
0.0
  0
LINE
  8
LC-004-005-----0
  6
CONTINUOUS
  5
53D
 10
-53.75247
 20
183.835409
 30
0.0
 11
-50.346017
 21
187.241862
 31
0.0
  0
LINE
  8
LC-004-005-----0
  6
CONTINUOUS
  5
53E
 10
-65.433715
 20
174.98259
 30
0.0
 11
-61.933933
 21
178.482372
 31
0.0
  0
LINE
  8
LC-004-005-----0
  6
CONTINUOUS
  5
53F
 10
-56.441081
 20
183.975224
 30
0.0
 11
-52.983365
 21
187.43294
 31
0.0
  0
LINE
  8
LC-004-005-----0
  6
CONTINUOUS
  5
540
 10
-65.433708
 20
177.811025
 30
0.0
 11
-61.933933
 21
181.310799
 31
0.0
  0
LINE
  8
LC-004-005-----0
  6
CONTINUOUS
  5
541
 10
-58.116046
 20
185.128686
 30
0.0
 11
-55.721102
 21
187.523631
 31
0.0
  0
LINE
  8
LC-004-005-----0
  6
CONTINUOUS
  5
542
 10
-65.433701
 20
180.639459
 30
0.0
 11
-61.933933
 21
184.139226
 31
0.0
  0
LINE
  8
LC-004-005-----0
  6
CONTINUOUS
  5
543
 10
-58.483226
 20
187.589933
 30
0.0
 11
-55.933933
 21
190.139226
 31
0.0
  0
LINE
  8
LC-004-005-----0
  6
CONTINUOUS
  5
544
 10
-65.433694
 20
183.467893
 30
0.0
 11
-61.933933
 21
186.967654
 31
0.0
  0
LINE
  8
LC-004-005-----0
  6
CONTINUOUS
  5
545
 10
-58.483226
 20
190.41836
 30
0.0
 11
-55.933933
 21
192.967654
 31
0.0
  0
LINE
  8
LC-004-005-----0
  6
CONTINUOUS
  5
546
 10
-65.433686
 20
186.296328
 30
0.0
 11
-61.933933
 21
189.796081
 31
0.0
  0
LINE
  8
LC-004-005-----0
  6
CONTINUOUS
  5
547
 10
-58.483226
 20
193.246788
 30
0.0
 11
-55.933933
 21
195.796081
 31
0.0
  0
LINE
  8
LC-004-005-----0
  6
CONTINUOUS
  5
548
 10
-65.433679
 20
189.124762
 30
0.0
 11
-61.933933
 21
192.624508
 31
0.0
  0
LINE
  8
LC-004-005-----0
  6
CONTINUOUS
  5
549
 10
-58.483226
 20
196.075215
 30
0.0
 11
-55.933933
 21
198.624508
 31
0.0
  0
LINE
  8
LC-004-005-----0
  6
CONTINUOUS
  5
54A
 10
-65.433672
 20
191.953196
 30
0.0
 11
-61.933933
 21
195.452935
 31
0.0
  0
LINE
  8
LC-004-005-----0
  6
CONTINUOUS
  5
54B
 10
-59.553928
 20
197.83294
 30
0.0
 11
-55.934129
 21
201.452739
 31
0.0
  0
LINE
  8
LC-004-005-----0
  6
CONTINUOUS
  5
54C
 10
-65.433665
 20
194.781631
 30
0.0
 11
-57.782355
 21
202.43294
 31
0.0
  0
LINE
  8
LC-004-005-----0
  6
CONTINUOUS
  5
54D
 10
-65.433658
 20
197.610065
 30
0.0
 11
-60.610782
 21
202.43294
 31
0.0
  0
LINE
  8
LC-004-005-----0
  6
CONTINUOUS
  5
54E
 10
-65.43365
 20
200.438499
 30
0.0
 11
-63.141281
 21
202.730869
 31
0.0
  0
LINE
  8
LC-004-005-----0
  6
CONTINUOUS
  5
54F
 10
-65.433643
 20
203.266934
 30
0.0
 11
-63.183933
 21
205.516643
 31
0.0
  0
LINE
  8
LC-004-005-----0
  6
CONTINUOUS
  5
550
 10
-65.433636
 20
206.095368
 30
0.0
 11
-63.183933
 21
208.345071
 31
0.0
  0
LINE
  8
LC-004-005-----0
  6
CONTINUOUS
  5
551
 10
-65.433629
 20
208.923802
 30
0.0
 11
-63.183933
 21
211.173498
 31
0.0
  0
LINE
  8
LC-004-005-----0
  6
CONTINUOUS
  5
552
 10
-65.433622
 20
211.752237
 30
0.0
 11
-63.617822
 21
213.568037
 31
0.0
  0
LINE
  8
LC-004-005-----0
  6
CONTINUOUS
  5
553
 10
-66.349913
 20
213.664372
 30
0.0
 11
-65.032035
 21
214.98225
 31
0.0
  0
LINE
  8
LC-004-005-----0
  6
CONTINUOUS
  5
554
 10
-69.094637
 20
213.748076
 30
0.0
 11
-66.446249
 21
216.396464
 31
0.0
  0
LINE
  8
LC-004-005-----0
  6
CONTINUOUS
  5
555
 10
-70.396203
 20
215.274936
 30
0.0
 11
-67.860462
 21
217.810677
 31
0.0
  0
LINE
  8
LC-004-005-----0
  6
CONTINUOUS
  5
556
 10
-70.395937
 20
218.10363
 30
0.0
 11
-67.933933
 21
220.565633
 31
0.0
  0
LINE
  8
LC-004-005-----0
  6
CONTINUOUS
  5
557
 10
-75.200233
 20
216.127761
 30
0.0
 11
-73.433912
 21
217.894082
 31
0.0
  0
LINE
  8
LC-004-005-----0
  6
CONTINUOUS
  5
558
 10
-70.395671
 20
220.932323
 30
0.0
 11
-67.933933
 21
223.39406
 31
0.0
  0
LINE
  8
LC-004-005-----0
  6
CONTINUOUS
  5
559
 10
-76.437398
 20
217.719023
 30
0.0
 11
-73.433916
 21
220.722505
 31
0.0
  0
LINE
  8
LC-004-005-----0
  6
CONTINUOUS
  5
55A
 10
-70.395404
 20
223.761017
 30
0.0
 11
-67.933933
 21
226.222488
 31
0.0
  0
LINE
  8
LC-004-005-----0
  6
CONTINUOUS
  5
55B
 10
-76.437398
 20
220.54745
 30
0.0
 11
-73.433921
 21
223.550928
 31
0.0
  0
LINE
  8
LC-004-005-----0
  6
CONTINUOUS
  5
55C
 10
-70.395138
 20
226.58971
 30
0.0
 11
-67.933933
 21
229.050915
 31
0.0
  0
LINE
  8
LC-004-005-----0
  6
CONTINUOUS
  5
55D
 10
-74.437398
 20
225.375878
 30
0.0
 11
-73.433925
 21
226.37935
 31
0.0
  0
LINE
  8
LC-004-005-----0
  6
CONTINUOUS
  5
55E
 10
-70.394871
 20
229.418404
 30
0.0
 11
-67.933933
 21
231.879342
 31
0.0
  0
LINE
  8
LC-004-005-----0
  6
CONTINUOUS
  5
55F
 10
-74.533019
 20
228.108684
 30
0.0
 11
-73.433929
 21
229.207773
 31
0.0
  0
LINE
  8
LC-004-005-----0
  6
CONTINUOUS
  5
560
 10
-70.515491
 20
232.126211
 30
0.0
 11
-68.014101
 21
234.627601
 31
0.0
  0
LINE
  8
LC-004-005-----0
  6
CONTINUOUS
  5
561
 10
-75.94092
 20
229.529209
 30
0.0
 11
-73.433933
 21
232.036196
 31
0.0
  0
LINE
  8
LC-004-005-----0
  6
CONTINUOUS
  5
562
 10
-73.343918
 20
232.126211
 30
0.0
 11
-70.842803
 21
234.627326
 31
0.0
  0
LINE
  8
LC-004-005-----0
  6
CONTINUOUS
  5
563
 10
-76.437398
 20
231.861159
 30
0.0
 11
-73.671505
 21
234.627052
 31
0.0
  0
LINE
  8
LC-004-005-----0
  6
CONTINUOUS
  5
564
 10
-61.433226
 20
174.570311
 30
0.0
 11
-61.933933
 21
175.071018
 31
0.0
  0
LINE
  8
LC-004-005-----0
  6
CONTINUOUS
  5
565
 10
-56.870758
 20
183.545547
 30
0.0
 11
-56.441081
 21
183.975224
 31
0.0
  0
LINE
  8
LC-001-002-----0
  6
CONTINUOUS
  5
566
 10
-61.933933
 20
165.967029
 30
0.0
 11
-61.933933
 21
196.83294
 31
0.0
  0
LINE
  8
LC-001-002-----0
  6
CONTINUOUS
  5
567
 10
-65.433759
 20
157.77098
 30
0.0
 11
-65.433933
 21
89.382827
 31
0.0
  0
ENDSEC
  0
EOF
