  0
SECTION
  2
HEADER
  9
$ACADVER
  1
AC1009
  9
$INSBASE
 10
0.0
 20
0.0
 30
0.0
  9
$EXTMIN
 10
0.0
 20
0.0
 30
0.0
  9
$EXTMAX
 10
840.0
 20
594.0
 30
0.0
  9
$LIMMIN
 10
0.0
 20
0.0
  9
$LIMMAX
 10
840.0
 20
594.0
  9
$ORTHOMODE
 70
     0
  9
$REGENMODE
 70
     1
  9
$FILLMODE
 70
     1
  9
$QTEXTMODE
 70
     0
  9
$MIRRTEXT
 70
     1
  9
$DRAGMODE
 70
     2
  9
$LTSCALE
 40
2.0
  9
$OSMODE
 70
     0
  9
$ATTMODE
 70
     1
  9
$TEXTSIZE
 40
0.2
  9
$TRACEWID
 40
0.05
  9
$TEXTSTYLE
  7
STANDARD
  9
$CLAYER
  8
0
  9
$CELTYPE
  6
BYLAYER
  9
$CECOLOR
 62
     7
  9
$DIMSCALE
 40
2.0
  9
$DIMASZ
 40
3.5
  9
$DIMEXO
 40
0.0625
  9
$DIMDLI
 40
0.38
  9
$DIMRND
 40
0.0
  9
$DIMDLE
 40
0.0
  9
$DIMEXE
 40
0.18
  9
$DIMTP
 40
0.0
  9
$DIMTM
 40
0.0
  9
$DIMTXT
 40
3.5
  9
$DIMCEN
 40
0.09
  9
$DIMTSZ
 40
0.0
  9
$DIMTOL
 70
     0
  9
$DIMLIM
 70
     0
  9
$DIMTIH
 70
     1
  9
$DIMTOH
 70
     1
  9
$DIMSE1
 70
     0
  9
$DIMSE2
 70
     0
  9
$DIMTAD
 70
     1
  9
$DIMZIN
 70
     0
  9
$DIMBLK
  1

  9
$DIMASO
 70
     1
  9
$DIMSHO
 70
     1
  9
$DIMPOST
  1

  9
$DIMAPOST
  1

  9
$DIMALT
 70
     0
  9
$DIMALTD
 70
     2
  9
$DIMALTF
 40
25.4
  9
$DIMLFAC
 40
1.0
  9
$DIMTOFL
 70
     0
  9
$DIMTVP
 40
0.0
  9
$DIMTIX
 70
     0
  9
$DIMSOXD
 70
     0
  9
$DIMSAH
 70
     0
  9
$DIMBLK1
  1

  9
$DIMBLK2
  1

  9
$DIMSTYLE
  2
STANDARD
  9
$DIMCLRD
 70
     0
  9
$DIMCLRE
 70
     0
  9
$DIMCLRT
 70
     0
  9
$DIMTFAC
 40
1.0
  9
$DIMGAP
 40
0.09
  9
$LUNITS
 70
     2
  9
$LUPREC
 70
     2
  9
$AXISMODE
 70
     0
  9
$AXISUNIT
 10
0.0
 20
0.0
  9
$SKETCHINC
 40
0.1
  9
$FILLETRAD
 40
0.0
  9
$AUNITS
 70
     0
  9
$AUPREC
 70
     0
  9
$MENU
  1
acad
  9
$ELEVATION
 40
0.0
  9
$PELEVATION
 40
0.0
  9
$THICKNESS
 40
0.0
  9
$LIMCHECK
 70
     0
  9
$BLIPMODE
 70
     1
  9
$CHAMFERA
 40
0.0
  9
$CHAMFERB
 40
0.0
  9
$SKPOLY
 70
     0
  9
$TDCREATE
 40
0.000000000
  9
$TDUPDATE
 40
0.000000000
  9
$TDINDWG
 40
0.0000000000
  9
$TDUSRTIMER
 40
0.0000000000
  9
$USRTIMER
 70
     1
  9
$ANGBASE
 50
0.0
  9
$ANGDIR
 70
     0
  9
$PDMODE
 70
     0
  9
$PDSIZE
 40
0.0
  9
$PLINEWID
 40
0.0
  9
$COORDS
 70
     0
  9
$SPLFRAME
 70
     0
  9
$SPLINETYPE
 70
     6
  9
$SPLINESEGS
 70
     8
  9
$ATTDIA
 70
     0
  9
$ATTREQ
 70
     1
  9
$HANDLING
 70
     1
  9
$HANDSEED
  5
677
  9
$SURFTAB1
 70
     6
  9
$SURFTAB2
 70
     6
  9
$SURFTYPE
 70
     6
  9
$SURFU
 70
     6
  9
$SURFV
 70
     6
  9
$UCSNAME
  2

  9
$UCSORG
 10
0.0
 20
0.0
 30
0.0
  9
$UCSXDIR
 10
1.0
 20
0.0
 30
0.0
  9
$UCSYDIR
 10
0.0
 20
1.0
 30
0.0
  9
$PUCSNAME
  2

  9
$PUCSORG
 10
0.0
 20
0.0
 30
0.0
  9
$PUCSXDIR
 10
1.0
 20
0.0
 30
0.0
  9
$PUCSYDIR
 10
0.0
 20
1.0
 30
0.0
  9
$USERI1
 70
     0
  9
$USERI2
 70
     0
  9
$USERI3
 70
     0
  9
$USERI4
 70
     0
  9
$USERI5
 70
     0
  9
$USERR1
 40
0.0
  9
$USERR2
 40
0.0
  9
$USERR3
 40
0.0
  9
$USERR4
 40
0.0
  9
$USERR5
 40
0.0
  9
$WORLDVIEW
 70
     1
  9
$SHADEDGE
 70
     3
  9
$SHADEDIF
 70
    70
  9
$TILEMODE
 70
     1
  9
$MAXACTVP
 70
    16
  9
$PINSBASE
 10
0.0
 20
0.0
 30
0.0
  9
$PLIMCHECK
 70
     0
  9
$PEXTMIN
 10
1.000000E+20
 20
1.000000E+20
 30
1.000000E+20
  9
$PEXTMAX
 10
-1.000000E+20
 20
-1.000000E+20
 30
-1.000000E+20
  9
$PLIMMIN
 10
0.0
 20
0.0
  9
$PLIMMAX
 10
840.0
 20
594.0
  9
$UNITMODE
 70
     0
  9
$VISRETAIN
 70
     0
  9
$PLINEGEN
 70
     1
  9
$PSLTSCALE
 70
     0
  9
$TREEDEPTH
 70
  3020
  9
$DWGCODEPAGE
  3
dos850
  0
ENDSEC
  0
SECTION
  2
TABLES
  0
TABLE
  2
VPORT
 70
     1
  0
VPORT
  2
*ACTIVE
 70
     0
 10
0.0
 20
0.0
 11
1.0
 21
1.0
 12
420.0
 22
297.0
 13
0.0
 23
0.0
 14
1.0
 24
1.0
 15
0.0
 25
0.0
 16
0.0
 26
0.0
 36
1.0
 17
0.0
 27
0.0
 37
0.0
 40
594.0
 41
1.604229
 42
50.0
 43
0.0
 44
0.0
 50
0.0
 51
0.0
 71
     0
 72
   100
 73
     1
 74
     1
 75
     0
 76
     0
 77
     0
 78
     0
  0
ENDTAB
  0
TABLE
  2
LTYPE
 70
     2
  0
LTYPE
  2
CONTINUOUS
 70
    64
  3
Solid line
 72
    65
 73
     0
 40
0.0
  0
LTYPE
  2
DASHDOT
 70
    64
  3
__ . __ . __ . __ . __
 72
    65
 73
     4
 40
7.5
 49
5.0
 49
-1.25
 49
0.0
 49
-1.25
  0
ENDTAB
  0
TABLE
  2
LAYER
 70
    13
  0
LAYER
  2
0
 70
     0
 62
     7
  6
CONTINUOUS
  0
LAYER
  2
LC-INFO-1-2-MM-A3-0
 70
     1
 62
    -1
  6
CONTINUOUS
  0
LAYER
  2
LC-006-005-----0
 70
     0
 62
     2
  6
CONTINUOUS
  0
LAYER
  2
LC-009-003-MTH-0
 70
     0
 62
     2
  6
CONTINUOUS
  0
LAYER
  2
LC-010-003-MTG-0
 70
     0
 62
     2
  6
CONTINUOUS
  0
LAYER
  2
LC-008-003-----0
 70
     0
 62
     2
  6
CONTINUOUS
  0
LAYER
  2
LC-003-000-----0
 70
     0
 62
     7
  6
CONTINUOUS
  0
LAYER
  2
LC-007-000-----0
 70
     0
 62
     7
  6
CONTINUOUS
  0
LAYER
  2
LC-001-002-----0
 70
     0
 62
     1
  6
CONTINUOUS
  0
LAYER
  2
LC-002-002-RND-0
 70
     0
 62
     1
  6
CONTINUOUS
  0
LAYER
  2
LC-004-001-RND-0
 70
     0
 62
     1
  6
CONTINUOUS
  0
LAYER
  2
LC-005-001-----0
 70
     0
 62
     1
  6
CONTINUOUS
  0
LAYER
  2
LC-000
 70
     0
 62
     7
  6
CONTINUOUS
  0
ENDTAB
  0
TABLE
  2
STYLE
 70
     4
  0
STYLE
  2
STANDARD
 70
     0
 40
0.0
 41
1.0
 50
0.0
 71
     0
 42
0.0
  3
txt
  4

  0
STYLE
  2
LC-STANDARD
 70
    64
 40
0.0
 41
1.0
 50
0.0
 71
     0
 42
3.5
  3
MONOTXT
  4

  0
STYLE
  2
LC-TXTSTYLE-150-400-0-0-A2
 70
    64
 40
0.0
 41
1.0
 50
15.0
 71
     0
 42
3.5
  3
MONOTXT
  4

  0
STYLE
  2
LC-TXTSTYLE-150-400-0-0-D3
 70
    64
 40
0.0
 41
1.0
 50
15.0
 71
     0
 42
3.5
  3
LC-STANDARD
  4

  0
ENDTAB
  0
TABLE
  2
VIEW
 70
     0
  0
ENDTAB
  0
TABLE
  2
UCS
 70
     0
  0
ENDTAB
  0
TABLE
  2
APPID
 70
     1
  0
APPID
  2
ACAD
 70
     0
  0
ENDTAB
  0
TABLE
  2
DIMSTYLE
 70
     3
  0
DIMSTYLE
  2
STANDARD
 70
     0
  3

  4

  5

  6

  7

 40
1.0
 41
0.18
 42
0.0625
 43
0.38
 44
0.18
 45
0.0
 46
0.0
 47
0.0
 48
0.0
 71
     0
 72
     0
 73
     1
 74
     1
 75
     0
 76
     0
 77
     0
 78
     0
140
0.18
141
0.09
142
0.0
143
25.4
144
1.0
145
0.0
146
1.0
147
0.09
170
     0
171
     2
172
     0
173
     0
174
     0
175
     0
176
     0
177
     0
178
     0
  0
DIMSTYLE
  2
LC-STANDARD
 70
     0
  3

  4

  5

  6

  7

 40
1.0
 41
3.5
 42
0.0
 43
7.5
 44
1.8
 45
0.0
 46
0.0
 47
0.0
 48
0.0
 71
     0
 72
     0
 73
     0
 74
     0
 75
     0
 76
     0
 77
     1
 78
     8
140
3.5
141
0.0
142
0.0
143
25.4
144
1.0
145
0.0
146
0.71
147
1.5
170
     0
171
     2
172
     1
173
     0
174
     0
175
     0
176
     0
177
     0
178
     3
  0
DIMSTYLE
  2
LC-DIM-L-0140-02-02
 70
     0
  3

  4

  5

  6

  7

 40
2.0
 41
3.5
 42
0.0
 43
7.5
 44
1.8
 45
0.0
 46
0.0
 47
0.0
 48
0.0
 71
     0
 72
     0
 73
     0
 74
     0
 75
     0
 76
     0
 77
     1
 78
     8
140
14.0
141
0.0
142
0.0
143
25.4
144
1.0
145
0.0
146
0.71
147
1.5
170
     0
171
     2
172
     0
173
     0
174
     0
175
     0
176
     2
177
     2
178
     8
  0
ENDTAB
  0
ENDSEC
  0
SECTION
  2
BLOCKS
  0
BLOCK
  8
0
  5
23
  2
BLK1
 70
    64
 10
0.0
 20
0.0
 30
0.0
  3
BLK1
  0
ENDBLK
  8
0
  5
24
  0
BLOCK
  8
0
  5
26
  2
*X1
 70
    65
 10
242.910686
 20
221.945542
 30
0.0
  3
*X1
  0
LINE
  8
LC-006-005-----0
  6
CONTINUOUS
  5
28
 10
369.724537
 20
242.445316
 30
0.0
 11
371.662429
 21
244.383208
 31
0.0
  0
LINE
  8
LC-006-005-----0
  6
CONTINUOUS
  5
29
 10
369.028836
 20
244.578042
 30
0.0
 11
371.662429
 21
247.211635
 31
0.0
  0
LINE
  8
LC-006-005-----0
  6
CONTINUOUS
  5
2A
 10
368.662429
 20
247.040063
 30
0.0
 11
371.662429
 21
250.040063
 31
0.0
  0
LINE
  8
LC-006-005-----0
  6
CONTINUOUS
  5
2B
 10
340.739482
 20
221.945543
 30
0.0
 11
341.662429
 21
222.86849
 31
0.0
  0
LINE
  8
LC-006-005-----0
  6
CONTINUOUS
  5
2C
 10
368.662429
 20
249.86849
 30
0.0
 11
371.662429
 21
252.86849
 31
0.0
  0
LINE
  8
LC-006-005-----0
  6
CONTINUOUS
  5
2D
 10
339.560269
 20
223.594757
 30
0.0
 11
341.662429
 21
225.696917
 31
0.0
  0
LINE
  8
LC-006-005-----0
  6
CONTINUOUS
  5
2E
 10
368.662429
 20
252.696917
 30
0.0
 11
371.662429
 21
255.696917
 31
0.0
  0
LINE
  8
LC-006-005-----0
  6
CONTINUOUS
  5
2F
 10
338.962552
 20
225.825468
 30
0.0
 11
341.662429
 21
228.525344
 31
0.0
  0
LINE
  8
LC-006-005-----0
  6
CONTINUOUS
  5
30
 10
368.662429
 20
255.525344
 30
0.0
 11
371.662429
 21
258.525344
 31
0.0
  0
LINE
  8
LC-006-005-----0
  6
CONTINUOUS
  5
31
 10
338.662429
 20
228.353771
 30
0.0
 11
341.662429
 21
231.353771
 31
0.0
  0
LINE
  8
LC-006-005-----0
  6
CONTINUOUS
  5
32
 10
368.662429
 20
258.353771
 30
0.0
 11
371.662429
 21
261.353771
 31
0.0
  0
LINE
  8
LC-006-005-----0
  6
CONTINUOUS
  5
33
 10
338.662429
 20
231.182198
 30
0.0
 11
341.662429
 21
234.182198
 31
0.0
  0
LINE
  8
LC-006-005-----0
  6
CONTINUOUS
  5
34
 10
368.662429
 20
261.182198
 30
0.0
 11
371.662429
 21
264.182198
 31
0.0
  0
LINE
  8
LC-006-005-----0
  6
CONTINUOUS
  5
35
 10
338.662429
 20
234.010625
 30
0.0
 11
341.662429
 21
237.010625
 31
0.0
  0
LINE
  8
LC-006-005-----0
  6
CONTINUOUS
  5
36
 10
368.662429
 20
264.010625
 30
0.0
 11
371.662429
 21
267.010625
 31
0.0
  0
LINE
  8
LC-006-005-----0
  6
CONTINUOUS
  5
37
 10
338.662429
 20
236.839052
 30
0.0
 11
341.662429
 21
239.839052
 31
0.0
  0
LINE
  8
LC-006-005-----0
  6
CONTINUOUS
  5
38
 10
368.662429
 20
266.839052
 30
0.0
 11
371.662429
 21
269.839052
 31
0.0
  0
LINE
  8
LC-006-005-----0
  6
CONTINUOUS
  5
39
 10
338.662429
 20
239.66748
 30
0.0
 11
341.662429
 21
242.66748
 31
0.0
  0
LINE
  8
LC-006-005-----0
  6
CONTINUOUS
  5
3A
 10
368.662429
 20
269.66748
 30
0.0
 11
371.662429
 21
272.66748
 31
0.0
  0
LINE
  8
LC-006-005-----0
  6
CONTINUOUS
  5
3B
 10
338.662429
 20
242.495907
 30
0.0
 11
341.662429
 21
245.495907
 31
0.0
  0
LINE
  8
LC-006-005-----0
  6
CONTINUOUS
  5
3C
 10
368.662429
 20
272.495907
 30
0.0
 11
371.662429
 21
275.495907
 31
0.0
  0
LINE
  8
LC-006-005-----0
  6
CONTINUOUS
  5
3D
 10
338.662429
 20
245.324334
 30
0.0
 11
341.662429
 21
248.324334
 31
0.0
  0
LINE
  8
LC-006-005-----0
  6
CONTINUOUS
  5
3E
 10
368.662429
 20
275.324334
 30
0.0
 11
371.662429
 21
278.324334
 31
0.0
  0
LINE
  8
LC-006-005-----0
  6
CONTINUOUS
  5
3F
 10
338.662429
 20
248.152761
 30
0.0
 11
341.662429
 21
251.152761
 31
0.0
  0
LINE
  8
LC-006-005-----0
  6
CONTINUOUS
  5
40
 10
368.662429
 20
278.152761
 30
0.0
 11
371.662429
 21
281.152761
 31
0.0
  0
LINE
  8
LC-006-005-----0
  6
CONTINUOUS
  5
41
 10
338.662429
 20
250.981188
 30
0.0
 11
341.662429
 21
253.981188
 31
0.0
  0
LINE
  8
LC-006-005-----0
  6
CONTINUOUS
  5
42
 10
368.662429
 20
280.981188
 30
0.0
 11
371.662429
 21
283.981188
 31
0.0
  0
LINE
  8
LC-006-005-----0
  6
CONTINUOUS
  5
43
 10
338.662429
 20
253.809615
 30
0.0
 11
341.662429
 21
256.809615
 31
0.0
  0
LINE
  8
LC-006-005-----0
  6
CONTINUOUS
  5
44
 10
368.662429
 20
283.809615
 30
0.0
 11
371.662429
 21
286.809615
 31
0.0
  0
LINE
  8
LC-006-005-----0
  6
CONTINUOUS
  5
45
 10
338.662429
 20
256.638042
 30
0.0
 11
341.662429
 21
259.638042
 31
0.0
  0
LINE
  8
LC-006-005-----0
  6
CONTINUOUS
  5
46
 10
368.662429
 20
286.638042
 30
0.0
 11
371.662429
 21
289.638042
 31
0.0
  0
LINE
  8
LC-006-005-----0
  6
CONTINUOUS
  5
47
 10
338.662429
 20
259.466469
 30
0.0
 11
341.662429
 21
262.466469
 31
0.0
  0
LINE
  8
LC-006-005-----0
  6
CONTINUOUS
  5
48
 10
368.662429
 20
289.466469
 30
0.0
 11
371.662429
 21
292.466469
 31
0.0
  0
LINE
  8
LC-006-005-----0
  6
CONTINUOUS
  5
49
 10
338.662429
 20
262.294897
 30
0.0
 11
341.662429
 21
265.294897
 31
0.0
  0
LINE
  8
LC-006-005-----0
  6
CONTINUOUS
  5
4A
 10
368.662429
 20
292.294897
 30
0.0
 11
371.662429
 21
295.294897
 31
0.0
  0
LINE
  8
LC-006-005-----0
  6
CONTINUOUS
  5
4B
 10
338.662429
 20
265.123324
 30
0.0
 11
341.662429
 21
268.123324
 31
0.0
  0
LINE
  8
LC-006-005-----0
  6
CONTINUOUS
  5
4C
 10
368.51196
 20
294.972855
 30
0.0
 11
370.938542
 21
297.399437
 31
0.0
  0
LINE
  8
LC-006-005-----0
  6
CONTINUOUS
  5
4D
 10
338.662429
 20
267.951751
 30
0.0
 11
341.662429
 21
270.951751
 31
0.0
  0
LINE
  8
LC-006-005-----0
  6
CONTINUOUS
  5
4E
 10
366.474588
 20
295.76391
 30
0.0
 11
369.120753
 21
298.410075
 31
0.0
  0
LINE
  8
LC-006-005-----0
  6
CONTINUOUS
  5
4F
 10
338.662429
 20
270.780178
 30
0.0
 11
341.662429
 21
273.780178
 31
0.0
  0
LINE
  8
LC-006-005-----0
  6
CONTINUOUS
  5
50
 10
365.431667
 20
297.549416
 30
0.0
 11
366.966689
 21
299.084438
 31
0.0
  0
LINE
  8
LC-006-005-----0
  6
CONTINUOUS
  5
51
 10
338.662429
 20
273.608605
 30
0.0
 11
341.662429
 21
276.608605
 31
0.0
  0
LINE
  8
LC-006-005-----0
  6
CONTINUOUS
  5
52
 10
360.49914
 20
295.445316
 30
0.0
 11
366.139388
 21
301.085564
 31
0.0
  0
LINE
  8
LC-006-005-----0
  6
CONTINUOUS
  5
53
 10
338.662429
 20
276.437032
 30
0.0
 11
341.662429
 21
279.437032
 31
0.0
  0
LINE
  8
LC-006-005-----0
  6
CONTINUOUS
  5
54
 10
357.670713
 20
295.445316
 30
0.0
 11
360.723681
 21
298.498284
 31
0.0
  0
LINE
  8
LC-006-005-----0
  6
CONTINUOUS
  5
55
 10
363.109461
 20
300.884064
 30
0.0
 11
366.114918
 21
303.889521
 31
0.0
  0
LINE
  8
LC-006-005-----0
  6
CONTINUOUS
  5
56
 10
338.662429
 20
279.265459
 30
0.0
 11
341.662429
 21
282.265459
 31
0.0
  0
LINE
  8
LC-006-005-----0
  6
CONTINUOUS
  5
57
 10
354.842286
 20
295.445316
 30
0.0
 11
357.842286
 21
298.445316
 31
0.0
  0
LINE
  8
LC-006-005-----0
  6
CONTINUOUS
  5
58
 10
363.162429
 20
303.765459
 30
0.0
 11
366.090448
 21
306.693479
 31
0.0
  0
LINE
  8
LC-006-005-----0
  6
CONTINUOUS
  5
59
 10
338.662429
 20
282.093886
 30
0.0
 11
341.662429
 21
285.093886
 31
0.0
  0
LINE
  8
LC-006-005-----0
  6
CONTINUOUS
  5
5A
 10
352.013858
 20
295.445316
 30
0.0
 11
355.013858
 21
298.445316
 31
0.0
  0
LINE
  8
LC-006-005-----0
  6
CONTINUOUS
  5
5B
 10
363.162429
 20
306.593886
 30
0.0
 11
366.065979
 21
309.497436
 31
0.0
  0
LINE
  8
LC-006-005-----0
  6
CONTINUOUS
  5
5C
 10
338.662429
 20
284.922314
 30
0.0
 11
341.662429
 21
287.922314
 31
0.0
  0
LINE
  8
LC-006-005-----0
  6
CONTINUOUS
  5
5D
 10
349.185431
 20
295.445316
 30
0.0
 11
352.185431
 21
298.445316
 31
0.0
  0
LINE
  8
LC-006-005-----0
  6
CONTINUOUS
  5
5E
 10
363.162429
 20
309.422314
 30
0.0
 11
366.041509
 21
312.301393
 31
0.0
  0
LINE
  8
LC-006-005-----0
  6
CONTINUOUS
  5
5F
 10
338.662429
 20
287.750741
 30
0.0
 11
341.662429
 21
290.750741
 31
0.0
  0
LINE
  8
LC-006-005-----0
  6
CONTINUOUS
  5
60
 10
346.357004
 20
295.445316
 30
0.0
 11
349.357004
 21
298.445316
 31
0.0
  0
LINE
  8
LC-006-005-----0
  6
CONTINUOUS
  5
61
 10
363.162429
 20
312.250741
 30
0.0
 11
366.017039
 21
315.105351
 31
0.0
  0
LINE
  8
LC-006-005-----0
  6
CONTINUOUS
  5
62
 10
338.662429
 20
290.579168
 30
0.0
 11
341.662429
 21
293.579168
 31
0.0
  0
LINE
  8
LC-006-005-----0
  6
CONTINUOUS
  5
63
 10
343.528577
 20
295.445316
 30
0.0
 11
346.528577
 21
298.445316
 31
0.0
  0
LINE
  8
LC-006-005-----0
  6
CONTINUOUS
  5
64
 10
363.162429
 20
315.079168
 30
0.0
 11
365.992569
 21
317.909308
 31
0.0
  0
LINE
  8
LC-006-005-----0
  6
CONTINUOUS
  5
65
 10
338.662429
 20
293.407595
 30
0.0
 11
343.70015
 21
298.445316
 31
0.0
  0
LINE
  8
LC-006-005-----0
  6
CONTINUOUS
  5
66
 10
363.162429
 20
317.907595
 30
0.0
 11
365.968099
 21
320.713265
 31
0.0
  0
LINE
  8
LC-006-005-----0
  6
CONTINUOUS
  5
67
 10
337.871723
 20
295.445316
 30
0.0
 11
340.871723
 21
298.445316
 31
0.0
  0
LINE
  8
LC-006-005-----0
  6
CONTINUOUS
  5
68
 10
363.162429
 20
320.736022
 30
0.0
 11
365.94363
 21
323.517223
 31
0.0
  0
LINE
  8
LC-006-005-----0
  6
CONTINUOUS
  5
69
 10
335.043296
 20
295.445316
 30
0.0
 11
338.043296
 21
298.445316
 31
0.0
  0
LINE
  8
LC-006-005-----0
  6
CONTINUOUS
  5
6A
 10
363.162429
 20
323.564449
 30
0.0
 11
365.91916
 21
326.32118
 31
0.0
  0
LINE
  8
LC-006-005-----0
  6
CONTINUOUS
  5
6B
 10
332.214869
 20
295.445316
 30
0.0
 11
335.214869
 21
298.445316
 31
0.0
  0
LINE
  8
LC-006-005-----0
  6
CONTINUOUS
  5
6C
 10
363.162429
 20
326.392876
 30
0.0
 11
365.89469
 21
329.125138
 31
0.0
  0
LINE
  8
LC-006-005-----0
  6
CONTINUOUS
  5
6D
 10
329.386441
 20
295.445316
 30
0.0
 11
332.386441
 21
298.445316
 31
0.0
  0
LINE
  8
LC-006-005-----0
  6
CONTINUOUS
  5
6E
 10
363.162429
 20
329.221303
 30
0.0
 11
365.87022
 21
331.929095
 31
0.0
  0
LINE
  8
LC-006-005-----0
  6
CONTINUOUS
  5
6F
 10
326.558014
 20
295.445316
 30
0.0
 11
329.558014
 21
298.445316
 31
0.0
  0
LINE
  8
LC-006-005-----0
  6
CONTINUOUS
  5
70
 10
363.162429
 20
332.049731
 30
0.0
 11
365.845751
 21
334.733052
 31
0.0
  0
LINE
  8
LC-006-005-----0
  6
CONTINUOUS
  5
71
 10
323.80792
 20
295.523649
 30
0.0
 11
326.729587
 21
298.445316
 31
0.0
  0
LINE
  8
LC-006-005-----0
  6
CONTINUOUS
  5
72
 10
363.162429
 20
334.878158
 30
0.0
 11
365.821281
 21
337.53701
 31
0.0
  0
LINE
  8
LC-006-005-----0
  6
CONTINUOUS
  5
73
 10
321.489856
 20
296.034012
 30
0.0
 11
323.979352
 21
298.523508
 31
0.0
  0
LINE
  8
LC-006-005-----0
  6
CONTINUOUS
  5
74
 10
363.162429
 20
337.706585
 30
0.0
 11
365.796811
 21
340.340967
 31
0.0
  0
LINE
  8
LC-006-005-----0
  6
CONTINUOUS
  5
75
 10
319.517517
 20
296.8901
 30
0.0
 11
321.746481
 21
299.119064
 31
0.0
  0
LINE
  8
LC-006-005-----0
  6
CONTINUOUS
  5
76
 10
363.162429
 20
340.535012
 30
0.0
 11
365.772341
 21
343.144924
 31
0.0
  0
LINE
  8
LC-006-005-----0
  6
CONTINUOUS
  5
77
 10
317.820504
 20
298.021514
 30
0.0
 11
319.92541
 21
300.12642
 31
0.0
  0
LINE
  8
LC-006-005-----0
  6
CONTINUOUS
  5
78
 10
363.162429
 20
343.363439
 30
0.0
 11
365.747872
 21
345.948882
 31
0.0
  0
LINE
  8
LC-006-005-----0
  6
CONTINUOUS
  5
79
 10
316.370604
 20
299.400041
 30
0.0
 11
318.436524
 21
301.465961
 31
0.0
  0
LINE
  8
LC-006-005-----0
  6
CONTINUOUS
  5
7A
 10
363.162429
 20
346.191866
 30
0.0
 11
365.723402
 21
348.752839
 31
0.0
  0
LINE
  8
LC-006-005-----0
  6
CONTINUOUS
  5
7B
 10
315.164544
 20
301.022408
 30
0.0
 11
317.267625
 21
303.125489
 31
0.0
  0
LINE
  8
LC-006-005-----0
  6
CONTINUOUS
  5
7C
 10
363.162429
 20
349.020293
 30
0.0
 11
365.698932
 21
351.556796
 31
0.0
  0
LINE
  8
LC-006-005-----0
  6
CONTINUOUS
  5
7D
 10
314.222298
 20
302.908589
 30
0.0
 11
316.461367
 21
305.147659
 31
0.0
  0
LINE
  8
LC-006-005-----0
  6
CONTINUOUS
  5
7E
 10
363.162429
 20
351.84872
 30
0.0
 11
365.674462
 21
354.360754
 31
0.0
  0
LINE
  8
LC-006-005-----0
  6
CONTINUOUS
  5
7F
 10
313.598393
 20
305.113112
 30
0.0
 11
316.163136
 21
307.677854
 31
0.0
  0
LINE
  8
LC-006-005-----0
  6
CONTINUOUS
  5
80
 10
363.162429
 20
354.677148
 30
0.0
 11
365.649993
 21
357.164711
 31
0.0
  0
LINE
  8
LC-006-005-----0
  6
CONTINUOUS
  5
81
 10
313.412429
 20
307.755575
 30
0.0
 11
316.163136
 21
310.506282
 31
0.0
  0
LINE
  8
LC-006-005-----0
  6
CONTINUOUS
  5
82
 10
363.162429
 20
357.505575
 30
0.0
 11
365.625523
 21
359.968669
 31
0.0
  0
LINE
  8
LC-006-005-----0
  6
CONTINUOUS
  5
83
 10
313.412429
 20
310.584002
 30
0.0
 11
316.163136
 21
313.334709
 31
0.0
  0
LINE
  8
LC-006-005-----0
  6
CONTINUOUS
  5
84
 10
363.162429
 20
360.334002
 30
0.0
 11
365.601053
 21
362.772626
 31
0.0
  0
LINE
  8
LC-006-005-----0
  6
CONTINUOUS
  5
85
 10
313.412429
 20
313.412429
 30
0.0
 11
316.163136
 21
316.163136
 31
0.0
  0
LINE
  8
LC-006-005-----0
  6
CONTINUOUS
  5
86
 10
363.162429
 20
363.162429
 30
0.0
 11
365.576583
 21
365.576583
 31
0.0
  0
LINE
  8
LC-006-005-----0
  6
CONTINUOUS
  5
87
 10
313.412429
 20
316.240856
 30
0.0
 11
316.163136
 21
318.991563
 31
0.0
  0
LINE
  8
LC-006-005-----0
  6
CONTINUOUS
  5
88
 10
363.162429
 20
365.990856
 30
0.0
 11
365.552113
 21
368.380541
 31
0.0
  0
LINE
  8
LC-006-005-----0
  6
CONTINUOUS
  5
89
 10
313.412429
 20
319.069283
 30
0.0
 11
316.163136
 21
321.81999
 31
0.0
  0
LINE
  8
LC-006-005-----0
  6
CONTINUOUS
  5
8A
 10
363.162429
 20
368.819283
 30
0.0
 11
365.527644
 21
371.184498
 31
0.0
  0
LINE
  8
LC-006-005-----0
  6
CONTINUOUS
  5
8B
 10
313.412429
 20
321.89771
 30
0.0
 11
316.163136
 21
324.648417
 31
0.0
  0
LINE
  8
LC-006-005-----0
  6
CONTINUOUS
  5
8C
 10
363.162429
 20
371.64771
 30
0.0
 11
364.960035
 21
373.445316
 31
0.0
  0
LINE
  8
LC-006-005-----0
  6
CONTINUOUS
  5
8D
 10
313.412429
 20
324.726137
 30
0.0
 11
316.163136
 21
327.476844
 31
0.0
  0
LINE
  8
LC-006-005-----0
  6
CONTINUOUS
  5
8E
 10
313.412429
 20
327.554565
 30
0.0
 11
316.163136
 21
330.305271
 31
0.0
  0
LINE
  8
LC-006-005-----0
  6
CONTINUOUS
  5
8F
 10
313.412429
 20
330.382992
 30
0.0
 11
316.163136
 21
333.133699
 31
0.0
  0
LINE
  8
LC-006-005-----0
  6
CONTINUOUS
  5
90
 10
313.412429
 20
333.211419
 30
0.0
 11
316.163136
 21
335.962126
 31
0.0
  0
LINE
  8
LC-006-005-----0
  6
CONTINUOUS
  5
91
 10
313.412429
 20
336.039846
 30
0.0
 11
316.163136
 21
338.790553
 31
0.0
  0
LINE
  8
LC-006-005-----0
  6
CONTINUOUS
  5
92
 10
313.412429
 20
338.868273
 30
0.0
 11
316.163136
 21
341.61898
 31
0.0
  0
LINE
  8
LC-006-005-----0
  6
CONTINUOUS
  5
93
 10
313.412429
 20
341.6967
 30
0.0
 11
316.163136
 21
344.447407
 31
0.0
  0
LINE
  8
LC-006-005-----0
  6
CONTINUOUS
  5
94
 10
313.412429
 20
344.525127
 30
0.0
 11
316.163136
 21
347.275834
 31
0.0
  0
LINE
  8
LC-006-005-----0
  6
CONTINUOUS
  5
95
 10
313.412429
 20
347.353554
 30
0.0
 11
316.163136
 21
350.104261
 31
0.0
  0
LINE
  8
LC-006-005-----0
  6
CONTINUOUS
  5
96
 10
313.412429
 20
350.181982
 30
0.0
 11
316.163136
 21
352.932688
 31
0.0
  0
LINE
  8
LC-006-005-----0
  6
CONTINUOUS
  5
97
 10
313.412429
 20
353.010409
 30
0.0
 11
316.163136
 21
355.761116
 31
0.0
  0
LINE
  8
LC-006-005-----0
  6
CONTINUOUS
  5
98
 10
313.412429
 20
355.838836
 30
0.0
 11
316.163136
 21
358.589543
 31
0.0
  0
LINE
  8
LC-006-005-----0
  6
CONTINUOUS
  5
99
 10
313.412429
 20
358.667263
 30
0.0
 11
316.163136
 21
361.41797
 31
0.0
  0
LINE
  8
LC-006-005-----0
  6
CONTINUOUS
  5
9A
 10
313.412429
 20
361.49569
 30
0.0
 11
316.163136
 21
364.246397
 31
0.0
  0
LINE
  8
LC-006-005-----0
  6
CONTINUOUS
  5
9B
 10
313.412429
 20
364.324117
 30
0.0
 11
316.163136
 21
367.074824
 31
0.0
  0
LINE
  8
LC-006-005-----0
  6
CONTINUOUS
  5
9C
 10
313.412429
 20
367.152544
 30
0.0
 11
316.163136
 21
369.903251
 31
0.0
  0
LINE
  8
LC-006-005-----0
  6
CONTINUOUS
  5
9D
 10
313.373298
 20
369.941841
 30
0.0
 11
316.163136
 21
372.731678
 31
0.0
  0
LINE
  8
LC-006-005-----0
  6
CONTINUOUS
  5
9E
 10
312.208449
 20
371.605418
 30
0.0
 11
315.613136
 21
375.010105
 31
0.0
  0
LINE
  8
LC-006-005-----0
  6
CONTINUOUS
  5
9F
 10
311.043599
 20
373.268996
 30
0.0
 11
315.613136
 21
377.838533
 31
0.0
  0
LINE
  8
LC-006-005-----0
  6
CONTINUOUS
  5
A0
 10
309.87875
 20
374.932573
 30
0.0
 11
316.161608
 21
381.215432
 31
0.0
  0
LINE
  8
LC-006-005-----0
  6
CONTINUOUS
  5
A1
 10
308.7139
 20
376.596151
 30
0.0
 11
314.213065
 21
382.095316
 31
0.0
  0
LINE
  8
LC-006-005-----0
  6
CONTINUOUS
  5
A2
 10
307.549051
 20
378.259729
 30
0.0
 11
311.384638
 21
382.095316
 31
0.0
  0
LINE
  8
LC-006-005-----0
  6
CONTINUOUS
  5
A3
 10
306.384201
 20
379.923306
 30
0.0
 11
308.556211
 21
382.095316
 31
0.0
  0
LINE
  8
LC-006-005-----0
  6
CONTINUOUS
  5
A4
 10
305.219351
 20
381.586884
 30
0.0
 11
306.914518
 21
383.28205
 31
0.0
  0
LINE
  8
LC-006-005-----0
  6
CONTINUOUS
  5
A5
 10
304.163136
 20
383.359095
 30
0.0
 11
306.914518
 21
386.110477
 31
0.0
  0
LINE
  8
LC-006-005-----0
  6
CONTINUOUS
  5
A6
 10
304.163136
 20
386.187522
 30
0.0
 11
306.914518
 21
388.938904
 31
0.0
  0
LINE
  8
LC-006-005-----0
  6
CONTINUOUS
  5
A7
 10
304.163136
 20
389.01595
 30
0.0
 11
306.914518
 21
391.767331
 31
0.0
  0
LINE
  8
LC-006-005-----0
  6
CONTINUOUS
  5
A8
 10
303.152324
 20
390.833564
 30
0.0
 11
306.914518
 21
394.595759
 31
0.0
  0
LINE
  8
LC-006-005-----0
  6
CONTINUOUS
  5
A9
 10
300.79243
 20
391.302098
 30
0.0
 11
303.085648
 21
393.595316
 31
0.0
  0
LINE
  8
LC-006-005-----0
  6
CONTINUOUS
  5
AA
 10
304.913136
 20
395.422804
 30
0.0
 11
306.914518
 21
397.424186
 31
0.0
  0
LINE
  8
LC-006-005-----0
  6
CONTINUOUS
  5
AB
 10
299.277342
 20
392.615437
 30
0.0
 11
301.830675
 21
395.16877
 31
0.0
  0
LINE
  8
LC-006-005-----0
  6
CONTINUOUS
  5
AC
 10
304.913136
 20
398.251231
 30
0.0
 11
306.260788
 21
399.598883
 31
0.0
  0
LINE
  8
LC-006-005-----0
  6
CONTINUOUS
  5
AD
 10
298.835307
 20
395.001829
 30
0.0
 11
301.689825
 21
397.856347
 31
0.0
  0
LINE
  8
LC-006-005-----0
  6
CONTINUOUS
  5
AE
 10
298.694457
 20
397.689406
 30
0.0
 11
301.548975
 21
400.543924
 31
0.0
  0
LINE
  8
LC-006-005-----0
  6
CONTINUOUS
  5
AF
 10
297.939629
 20
399.763006
 30
0.0
 11
300.911903
 21
402.735279
 31
0.0
  0
LINE
  8
LC-006-005-----0
  6
CONTINUOUS
  5
B0
 10
295.457555
 20
400.109359
 30
0.0
 11
298.268332
 21
402.920136
 31
0.0
  0
LINE
  8
LC-006-005-----0
  6
CONTINUOUS
  5
B1
 10
292.813984
 20
400.294215
 30
0.0
 11
295.624761
 21
403.104992
 31
0.0
  0
LINE
  8
LC-006-005-----0
  6
CONTINUOUS
  5
B2
 10
290.170413
 20
400.479071
 30
0.0
 11
292.981191
 21
403.289848
 31
0.0
  0
LINE
  8
LC-006-005-----0
  6
CONTINUOUS
  5
B3
 10
287.526843
 20
400.663928
 30
0.0
 11
290.33762
 21
403.474705
 31
0.0
  0
LINE
  8
LC-006-005-----0
  6
CONTINUOUS
  5
B4
 10
284.883272
 20
400.848784
 30
0.0
 11
287.694049
 21
403.659561
 31
0.0
  0
LINE
  8
LC-006-005-----0
  6
CONTINUOUS
  5
B5
 10
283.138581
 20
401.93252
 30
0.0
 11
285.2315
 21
404.025439
 31
0.0
  0
LINE
  8
LC-006-005-----0
  6
CONTINUOUS
  5
B6
 10
281.008182
 20
402.630549
 30
0.0
 11
283.765137
 21
405.387503
 31
0.0
  0
LINE
  8
LC-006-005-----0
  6
CONTINUOUS
  5
B7
 10
278.228279
 20
402.679072
 30
0.0
 11
281.177261
 21
405.628054
 31
0.0
  0
LINE
  8
LC-006-005-----0
  6
CONTINUOUS
  5
B8
 10
275.448375
 20
402.727596
 30
0.0
 11
278.397357
 21
405.676578
 31
0.0
  0
LINE
  8
LC-006-005-----0
  6
CONTINUOUS
  5
B9
 10
272.668471
 20
402.776119
 30
0.0
 11
275.617454
 21
405.725101
 31
0.0
  0
LINE
  8
LC-006-005-----0
  6
CONTINUOUS
  5
BA
 10
269.888567
 20
402.824642
 30
0.0
 11
272.83755
 21
405.773625
 31
0.0
  0
LINE
  8
LC-006-005-----0
  6
CONTINUOUS
  5
BB
 10
267.108664
 20
402.873166
 30
0.0
 11
270.057646
 21
405.822148
 31
0.0
  0
LINE
  8
LC-006-005-----0
  6
CONTINUOUS
  5
BC
 10
264.32876
 20
402.921689
 30
0.0
 11
267.277742
 21
405.870671
 31
0.0
  0
LINE
  8
LC-006-005-----0
  6
CONTINUOUS
  5
BD
 10
261.548856
 20
402.970213
 30
0.0
 11
264.497839
 21
405.919195
 31
0.0
  0
LINE
  8
LC-006-005-----0
  6
CONTINUOUS
  5
BE
 10
258.768953
 20
403.018736
 30
0.0
 11
261.717935
 21
405.967718
 31
0.0
  0
LINE
  8
LC-006-005-----0
  6
CONTINUOUS
  5
BF
 10
255.989049
 20
403.067259
 30
0.0
 11
258.938031
 21
406.016242
 31
0.0
  0
LINE
  8
LC-006-005-----0
  6
CONTINUOUS
  5
C0
 10
253.209145
 20
403.115783
 30
0.0
 11
256.158127
 21
406.064765
 31
0.0
  0
LINE
  8
LC-006-005-----0
  6
CONTINUOUS
  5
C1
 10
250.429241
 20
403.164306
 30
0.0
 11
253.378224
 21
406.113288
 31
0.0
  0
LINE
  8
LC-006-005-----0
  6
CONTINUOUS
  5
C2
 10
247.649338
 20
403.21283
 30
0.0
 11
250.59832
 21
406.161812
 31
0.0
  0
LINE
  8
LC-006-005-----0
  6
CONTINUOUS
  5
C3
 10
244.869434
 20
403.261353
 30
0.0
 11
247.818416
 21
406.210335
 31
0.0
  0
LINE
  8
LC-006-005-----0
  6
CONTINUOUS
  5
C4
 10
242.910686
 20
404.131032
 30
0.0
 11
245.038513
 21
406.258859
 31
0.0
  0
ENDBLK
  8
0
  5
C5
  0
BLOCK
  8
0
  5
C7
  2
*X2
 70
    65
 10
415.662553
 20
221.945473
 30
0.0
  3
*X2
  0
LINE
  8
LC-006-005-----0
  6
CONTINUOUS
  5
C8
 10
445.662429
 20
222.216686
 30
0.0
 11
448.029649
 21
224.583906
 31
0.0
  0
LINE
  8
LC-006-005-----0
  6
CONTINUOUS
  5
C9
 10
445.662429
 20
225.045113
 30
0.0
 11
448.662429
 21
228.045113
 31
0.0
  0
LINE
  8
LC-006-005-----0
  6
CONTINUOUS
  5
CA
 10
445.662429
 20
227.87354
 30
0.0
 11
448.662429
 21
230.87354
 31
0.0
  0
LINE
  8
LC-006-005-----0
  6
CONTINUOUS
  5
CB
 10
445.662429
 20
230.701967
 30
0.0
 11
448.662429
 21
233.701967
 31
0.0
  0
LINE
  8
LC-006-005-----0
  6
CONTINUOUS
  5
CC
 10
445.662429
 20
233.530395
 30
0.0
 11
448.662429
 21
236.530395
 31
0.0
  0
LINE
  8
LC-006-005-----0
  6
CONTINUOUS
  5
CD
 10
445.662429
 20
236.358822
 30
0.0
 11
448.662429
 21
239.358822
 31
0.0
  0
LINE
  8
LC-006-005-----0
  6
CONTINUOUS
  5
CE
 10
445.662429
 20
239.187249
 30
0.0
 11
448.662429
 21
242.187249
 31
0.0
  0
LINE
  8
LC-006-005-----0
  6
CONTINUOUS
  5
CF
 10
445.662429
 20
242.015676
 30
0.0
 11
448.662429
 21
245.015676
 31
0.0
  0
LINE
  8
LC-006-005-----0
  6
CONTINUOUS
  5
D0
 10
445.662429
 20
244.844103
 30
0.0
 11
448.662429
 21
247.844103
 31
0.0
  0
LINE
  8
LC-006-005-----0
  6
CONTINUOUS
  5
D1
 10
445.662429
 20
247.67253
 30
0.0
 11
448.662429
 21
250.67253
 31
0.0
  0
LINE
  8
LC-006-005-----0
  6
CONTINUOUS
  5
D2
 10
445.662429
 20
250.500957
 30
0.0
 11
448.662429
 21
253.500957
 31
0.0
  0
LINE
  8
LC-006-005-----0
  6
CONTINUOUS
  5
D3
 10
445.662429
 20
253.329384
 30
0.0
 11
448.662429
 21
256.329384
 31
0.0
  0
LINE
  8
LC-006-005-----0
  6
CONTINUOUS
  5
D4
 10
445.662429
 20
256.157812
 30
0.0
 11
448.662429
 21
259.157812
 31
0.0
  0
LINE
  8
LC-006-005-----0
  6
CONTINUOUS
  5
D5
 10
445.662429
 20
258.986239
 30
0.0
 11
448.662429
 21
261.986239
 31
0.0
  0
LINE
  8
LC-006-005-----0
  6
CONTINUOUS
  5
D6
 10
445.662429
 20
261.814666
 30
0.0
 11
448.662429
 21
264.814666
 31
0.0
  0
LINE
  8
LC-006-005-----0
  6
CONTINUOUS
  5
D7
 10
445.662429
 20
264.643093
 30
0.0
 11
448.662429
 21
267.643093
 31
0.0
  0
LINE
  8
LC-006-005-----0
  6
CONTINUOUS
  5
D8
 10
445.662429
 20
267.47152
 30
0.0
 11
448.662429
 21
270.47152
 31
0.0
  0
LINE
  8
LC-006-005-----0
  6
CONTINUOUS
  5
D9
 10
445.662429
 20
270.299947
 30
0.0
 11
448.662429
 21
273.299947
 31
0.0
  0
LINE
  8
LC-006-005-----0
  6
CONTINUOUS
  5
DA
 10
415.662554
 20
243.128499
 30
0.0
 11
418.662429
 21
246.128374
 31
0.0
  0
LINE
  8
LC-006-005-----0
  6
CONTINUOUS
  5
DB
 10
445.662429
 20
273.128374
 30
0.0
 11
448.662429
 21
276.128374
 31
0.0
  0
LINE
  8
LC-006-005-----0
  6
CONTINUOUS
  5
DC
 10
415.662555
 20
245.956928
 30
0.0
 11
418.662429
 21
248.956801
 31
0.0
  0
LINE
  8
LC-006-005-----0
  6
CONTINUOUS
  5
DD
 10
445.662429
 20
275.956801
 30
0.0
 11
448.662429
 21
278.956801
 31
0.0
  0
LINE
  8
LC-006-005-----0
  6
CONTINUOUS
  5
DE
 10
465.694546
 20
295.988918
 30
0.0
 11
473.368974
 21
303.663346
 31
0.0
  0
LINE
  8
LC-006-005-----0
  6
CONTINUOUS
  5
DF
 10
415.662557
 20
248.785357
 30
0.0
 11
418.662429
 21
251.785229
 31
0.0
  0
LINE
  8
LC-006-005-----0
  6
CONTINUOUS
  5
E0
 10
445.662429
 20
278.785229
 30
0.0
 11
448.662429
 21
281.785229
 31
0.0
  0
LINE
  8
LC-006-005-----0
  6
CONTINUOUS
  5
E1
 10
462.323771
 20
295.446571
 30
0.0
 11
466.363617
 21
299.486417
 31
0.0
  0
LINE
  8
LC-006-005-----0
  6
CONTINUOUS
  5
E2
 10
470.120621
 20
303.243421
 30
0.0
 11
473.911321
 21
307.034121
 31
0.0
  0
LINE
  8
LC-006-005-----0
  6
CONTINUOUS
  5
E3
 10
415.662559
 20
251.613786
 30
0.0
 11
418.662429
 21
254.613656
 31
0.0
  0
LINE
  8
LC-006-005-----0
  6
CONTINUOUS
  5
E4
 10
445.662429
 20
281.613656
 30
0.0
 11
448.662429
 21
284.613656
 31
0.0
  0
LINE
  8
LC-006-005-----0
  6
CONTINUOUS
  5
E5
 10
459.494238
 20
295.445465
 30
0.0
 11
462.500466
 21
298.451693
 31
0.0
  0
LINE
  8
LC-006-005-----0
  6
CONTINUOUS
  5
E6
 10
471.155345
 20
307.106572
 30
0.0
 11
473.912429
 21
309.863656
 31
0.0
  0
LINE
  8
LC-006-005-----0
  6
CONTINUOUS
  5
E7
 10
415.662561
 20
254.442215
 30
0.0
 11
418.662429
 21
257.442083
 31
0.0
  0
LINE
  8
LC-006-005-----0
  6
CONTINUOUS
  5
E8
 10
445.662429
 20
284.442083
 30
0.0
 11
448.662429
 21
287.442083
 31
0.0
  0
LINE
  8
LC-006-005-----0
  6
CONTINUOUS
  5
E9
 10
456.665813
 20
295.445467
 30
0.0
 11
459.665662
 21
298.445316
 31
0.0
  0
LINE
  8
LC-006-005-----0
  6
CONTINUOUS
  5
EA
 10
471.161722
 20
309.941376
 30
0.0
 11
473.912429
 21
312.692083
 31
0.0
  0
LINE
  8
LC-006-005-----0
  6
CONTINUOUS
  5
EB
 10
415.662563
 20
257.270644
 30
0.0
 11
418.662429
 21
260.27051
 31
0.0
  0
LINE
  8
LC-006-005-----0
  6
CONTINUOUS
  5
EC
 10
445.662429
 20
287.27051
 30
0.0
 11
448.662429
 21
290.27051
 31
0.0
  0
LINE
  8
LC-006-005-----0
  6
CONTINUOUS
  5
ED
 10
453.837388
 20
295.445469
 30
0.0
 11
456.837235
 21
298.445316
 31
0.0
  0
LINE
  8
LC-006-005-----0
  6
CONTINUOUS
  5
EE
 10
471.161722
 20
312.769803
 30
0.0
 11
473.912429
 21
315.52051
 31
0.0
  0
LINE
  8
LC-006-005-----0
  6
CONTINUOUS
  5
EF
 10
415.662565
 20
260.099073
 30
0.0
 11
418.662429
 21
263.098937
 31
0.0
  0
LINE
  8
LC-006-005-----0
  6
CONTINUOUS
  5
F0
 10
445.662429
 20
290.098937
 30
0.0
 11
448.662429
 21
293.098937
 31
0.0
  0
LINE
  8
LC-006-005-----0
  6
CONTINUOUS
  5
F1
 10
451.008962
 20
295.44547
 30
0.0
 11
454.008808
 21
298.445316
 31
0.0
  0
LINE
  8
LC-006-005-----0
  6
CONTINUOUS
  5
F2
 10
471.161722
 20
315.59823
 30
0.0
 11
473.912429
 21
318.348937
 31
0.0
  0
LINE
  8
LC-006-005-----0
  6
CONTINUOUS
  5
F3
 10
415.662567
 20
262.927502
 30
0.0
 11
418.662429
 21
265.927364
 31
0.0
  0
LINE
  8
LC-006-005-----0
  6
CONTINUOUS
  5
F4
 10
445.662429
 20
292.927364
 30
0.0
 11
451.180381
 21
298.445316
 31
0.0
  0
LINE
  8
LC-006-005-----0
  6
CONTINUOUS
  5
F5
 10
471.161722
 20
318.426657
 30
0.0
 11
473.912429
 21
321.177364
 31
0.0
  0
LINE
  8
LC-006-005-----0
  6
CONTINUOUS
  5
F6
 10
415.662568
 20
265.755931
 30
0.0
 11
418.662429
 21
268.755791
 31
0.0
  0
LINE
  8
LC-006-005-----0
  6
CONTINUOUS
  5
F7
 10
445.352112
 20
295.445474
 30
0.0
 11
448.351954
 21
298.445316
 31
0.0
  0
LINE
  8
LC-006-005-----0
  6
CONTINUOUS
  5
F8
 10
471.161722
 20
321.255084
 30
0.0
 11
473.912429
 21
324.005791
 31
0.0
  0
LINE
  8
LC-006-005-----0
  6
CONTINUOUS
  5
F9
 10
415.66257
 20
268.58436
 30
0.0
 11
418.662429
 21
271.584218
 31
0.0
  0
LINE
  8
LC-006-005-----0
  6
CONTINUOUS
  5
FA
 10
442.523687
 20
295.445476
 30
0.0
 11
445.523526
 21
298.445316
 31
0.0
  0
LINE
  8
LC-006-005-----0
  6
CONTINUOUS
  5
FB
 10
471.161722
 20
324.083512
 30
0.0
 11
473.912429
 21
326.834218
 31
0.0
  0
LINE
  8
LC-006-005-----0
  6
CONTINUOUS
  5
FC
 10
415.662572
 20
271.412789
 30
0.0
 11
418.662429
 21
274.412646
 31
0.0
  0
LINE
  8
LC-006-005-----0
  6
CONTINUOUS
  5
FD
 10
439.695261
 20
295.445478
 30
0.0
 11
442.695099
 21
298.445316
 31
0.0
  0
LINE
  8
LC-006-005-----0
  6
CONTINUOUS
  5
FE
 10
471.161722
 20
326.911939
 30
0.0
 11
473.912429
 21
329.662646
 31
0.0
  0
LINE
  8
LC-006-005-----0
  6
CONTINUOUS
  5
FF
 10
415.662574
 20
274.241218
 30
0.0
 11
418.662429
 21
277.241073
 31
0.0
  0
LINE
  8
LC-006-005-----0
  6
CONTINUOUS
  5
100
 10
436.866836
 20
295.44548
 30
0.0
 11
439.866672
 21
298.445316
 31
0.0
  0
LINE
  8
LC-006-005-----0
  6
CONTINUOUS
  5
101
 10
471.161722
 20
329.740366
 30
0.0
 11
473.912429
 21
332.491073
 31
0.0
  0
LINE
  8
LC-006-005-----0
  6
CONTINUOUS
  5
102
 10
415.662576
 20
277.069647
 30
0.0
 11
418.662429
 21
280.0695
 31
0.0
  0
LINE
  8
LC-006-005-----0
  6
CONTINUOUS
  5
103
 10
434.038411
 20
295.445482
 30
0.0
 11
437.038245
 21
298.445316
 31
0.0
  0
LINE
  8
LC-006-005-----0
  6
CONTINUOUS
  5
104
 10
471.161722
 20
332.568793
 30
0.0
 11
473.912429
 21
335.3195
 31
0.0
  0
LINE
  8
LC-006-005-----0
  6
CONTINUOUS
  5
105
 10
541.843466
 20
403.250537
 30
0.0
 11
544.421886
 21
405.828957
 31
0.0
  0
LINE
  8
LC-006-005-----0
  6
CONTINUOUS
  5
106
 10
415.662578
 20
279.898076
 30
0.0
 11
418.662429
 21
282.897927
 31
0.0
  0
LINE
  8
LC-006-005-----0
  6
CONTINUOUS
  5
107
 10
431.209985
 20
295.445483
 30
0.0
 11
434.209818
 21
298.445316
 31
0.0
  0
LINE
  8
LC-006-005-----0
  6
CONTINUOUS
  5
108
 10
471.161722
 20
335.39722
 30
0.0
 11
473.912429
 21
338.147927
 31
0.0
  0
LINE
  8
LC-006-005-----0
  6
CONTINUOUS
  5
109
 10
538.964791
 20
403.200289
 30
0.0
 11
542.018552
 21
406.25405
 31
0.0
  0
LINE
  8
LC-006-005-----0
  6
CONTINUOUS
  5
10A
 10
415.662579
 20
282.726505
 30
0.0
 11
418.662429
 21
285.726354
 31
0.0
  0
LINE
  8
LC-006-005-----0
  6
CONTINUOUS
  5
10B
 10
428.38156
 20
295.445485
 30
0.0
 11
431.381391
 21
298.445316
 31
0.0
  0
LINE
  8
LC-006-005-----0
  6
CONTINUOUS
  5
10C
 10
471.161722
 20
338.225647
 30
0.0
 11
473.912429
 21
340.976354
 31
0.0
  0
LINE
  8
LC-006-005-----0
  6
CONTINUOUS
  5
10D
 10
536.086116
 20
403.150042
 30
0.0
 11
539.139877
 21
406.203802
 31
0.0
  0
LINE
  8
LC-006-005-----0
  6
CONTINUOUS
  5
10E
 10
415.662581
 20
285.554934
 30
0.0
 11
418.662429
 21
288.554781
 31
0.0
  0
LINE
  8
LC-006-005-----0
  6
CONTINUOUS
  5
10F
 10
425.553135
 20
295.445487
 30
0.0
 11
428.552964
 21
298.445316
 31
0.0
  0
LINE
  8
LC-006-005-----0
  6
CONTINUOUS
  5
110
 10
471.161722
 20
341.054074
 30
0.0
 11
473.912429
 21
343.804781
 31
0.0
  0
LINE
  8
LC-006-005-----0
  6
CONTINUOUS
  5
111
 10
533.207442
 20
403.099794
 30
0.0
 11
536.261202
 21
406.153555
 31
0.0
  0
LINE
  8
LC-006-005-----0
  6
CONTINUOUS
  5
112
 10
415.662583
 20
288.383363
 30
0.0
 11
418.662429
 21
291.383208
 31
0.0
  0
LINE
  8
LC-006-005-----0
  6
CONTINUOUS
  5
113
 10
423.970516
 20
296.691295
 30
0.0
 11
425.971186
 21
298.691965
 31
0.0
  0
LINE
  8
LC-006-005-----0
  6
CONTINUOUS
  5
114
 10
471.161722
 20
343.882501
 30
0.0
 11
473.912429
 21
346.633208
 31
0.0
  0
LINE
  8
LC-006-005-----0
  6
CONTINUOUS
  5
115
 10
530.328767
 20
403.049547
 30
0.0
 11
533.382528
 21
406.103307
 31
0.0
  0
LINE
  8
LC-006-005-----0
  6
CONTINUOUS
  5
116
 10
415.662585
 20
291.211791
 30
0.0
 11
418.662429
 21
294.211635
 31
0.0
  0
LINE
  8
LC-006-005-----0
  6
CONTINUOUS
  5
117
 10
419.896284
 20
295.445491
 30
0.0
 11
421.718474
 21
297.267681
 31
0.0
  0
LINE
  8
LC-006-005-----0
  6
CONTINUOUS
  5
118
 10
422.310645
 20
297.859851
 30
0.0
 11
424.504644
 21
300.05385
 31
0.0
  0
LINE
  8
LC-006-005-----0
  6
CONTINUOUS
  5
119
 10
471.161722
 20
346.710929
 30
0.0
 11
473.912429
 21
349.461635
 31
0.0
  0
LINE
  8
LC-006-005-----0
  6
CONTINUOUS
  5
11A
 10
527.450093
 20
402.999299
 30
0.0
 11
530.503853
 21
406.05306
 31
0.0
  0
LINE
  8
LC-006-005-----0
  6
CONTINUOUS
  5
11B
 10
415.662587
 20
294.04022
 30
0.0
 11
424.162429
 21
302.540063
 31
0.0
  0
LINE
  8
LC-006-005-----0
  6
CONTINUOUS
  5
11C
 10
471.161722
 20
349.539356
 30
0.0
 11
473.912429
 21
352.290063
 31
0.0
  0
LINE
  8
LC-006-005-----0
  6
CONTINUOUS
  5
11D
 10
524.571418
 20
402.949052
 30
0.0
 11
527.625179
 21
406.002812
 31
0.0
  0
LINE
  8
LC-006-005-----0
  6
CONTINUOUS
  5
11E
 10
421.204313
 20
302.410374
 30
0.0
 11
424.162429
 21
305.36849
 31
0.0
  0
LINE
  8
LC-006-005-----0
  6
CONTINUOUS
  5
11F
 10
471.161722
 20
352.367783
 30
0.0
 11
473.912429
 21
355.11849
 31
0.0
  0
LINE
  8
LC-006-005-----0
  6
CONTINUOUS
  5
120
 10
521.692744
 20
402.898804
 30
0.0
 11
524.746504
 21
405.952565
 31
0.0
  0
LINE
  8
LC-006-005-----0
  6
CONTINUOUS
  5
121
 10
421.23451
 20
305.268998
 30
0.0
 11
424.162429
 21
308.196917
 31
0.0
  0
LINE
  8
LC-006-005-----0
  6
CONTINUOUS
  5
122
 10
471.161722
 20
355.19621
 30
0.0
 11
473.912429
 21
357.946917
 31
0.0
  0
LINE
  8
LC-006-005-----0
  6
CONTINUOUS
  5
123
 10
518.814069
 20
402.848557
 30
0.0
 11
521.86783
 21
405.902317
 31
0.0
  0
LINE
  8
LC-006-005-----0
  6
CONTINUOUS
  5
124
 10
421.264707
 20
308.127622
 30
0.0
 11
424.162429
 21
311.025344
 31
0.0
  0
LINE
  8
LC-006-005-----0
  6
CONTINUOUS
  5
125
 10
471.161722
 20
358.024637
 30
0.0
 11
473.912429
 21
360.775344
 31
0.0
  0
LINE
  8
LC-006-005-----0
  6
CONTINUOUS
  5
126
 10
515.935394
 20
402.798309
 30
0.0
 11
518.989155
 21
405.85207
 31
0.0
  0
LINE
  8
LC-006-005-----0
  6
CONTINUOUS
  5
127
 10
421.294904
 20
310.986246
 30
0.0
 11
424.162429
 21
313.853771
 31
0.0
  0
LINE
  8
LC-006-005-----0
  6
CONTINUOUS
  5
128
 10
471.161722
 20
360.853064
 30
0.0
 11
473.912429
 21
363.603771
 31
0.0
  0
LINE
  8
LC-006-005-----0
  6
CONTINUOUS
  5
129
 10
513.05672
 20
402.748062
 30
0.0
 11
516.11048
 21
405.801823
 31
0.0
  0
LINE
  8
LC-006-005-----0
  6
CONTINUOUS
  5
12A
 10
421.3251
 20
313.84487
 30
0.0
 11
424.162429
 21
316.682198
 31
0.0
  0
LINE
  8
LC-006-005-----0
  6
CONTINUOUS
  5
12B
 10
471.161722
 20
363.681491
 30
0.0
 11
473.912429
 21
366.432198
 31
0.0
  0
LINE
  8
LC-006-005-----0
  6
CONTINUOUS
  5
12C
 10
510.178045
 20
402.697815
 30
0.0
 11
513.231806
 21
405.751575
 31
0.0
  0
LINE
  8
LC-006-005-----0
  6
CONTINUOUS
  5
12D
 10
421.355297
 20
316.703493
 30
0.0
 11
424.162429
 21
319.510625
 31
0.0
  0
LINE
  8
LC-006-005-----0
  6
CONTINUOUS
  5
12E
 10
471.161722
 20
366.509918
 30
0.0
 11
473.912429
 21
369.260625
 31
0.0
  0
LINE
  8
LC-006-005-----0
  6
CONTINUOUS
  5
12F
 10
507.299371
 20
402.647567
 30
0.0
 11
510.353131
 21
405.701328
 31
0.0
  0
LINE
  8
LC-006-005-----0
  6
CONTINUOUS
  5
130
 10
421.385494
 20
319.562117
 30
0.0
 11
424.162429
 21
322.339052
 31
0.0
  0
LINE
  8
LC-006-005-----0
  6
CONTINUOUS
  5
131
 10
471.161722
 20
369.338346
 30
0.0
 11
479.083802
 21
377.260426
 31
0.0
  0
LINE
  8
LC-006-005-----0
  6
CONTINUOUS
  5
132
 10
502.688916
 20
400.865539
 30
0.0
 11
507.474457
 21
405.65108
 31
0.0
  0
LINE
  8
LC-006-005-----0
  6
CONTINUOUS
  5
133
 10
421.41569
 20
322.420741
 30
0.0
 11
424.162429
 21
325.16748
 31
0.0
  0
LINE
  8
LC-006-005-----0
  6
CONTINUOUS
  5
134
 10
471.161722
 20
372.166773
 30
0.0
 11
483.169436
 21
384.174487
 31
0.0
  0
LINE
  8
LC-006-005-----0
  6
CONTINUOUS
  5
135
 10
499.647836
 20
400.652887
 30
0.0
 11
504.595782
 21
405.600833
 31
0.0
  0
LINE
  8
LC-006-005-----0
  6
CONTINUOUS
  5
136
 10
421.445887
 20
325.279365
 30
0.0
 11
424.162429
 21
327.995907
 31
0.0
  0
LINE
  8
LC-006-005-----0
  6
CONTINUOUS
  5
137
 10
471.719436
 20
375.552914
 30
0.0
 11
478.261838
 21
382.095316
 31
0.0
  0
LINE
  8
LC-006-005-----0
  6
CONTINUOUS
  5
138
 10
480.419436
 20
384.252914
 30
0.0
 11
483.169436
 21
387.002914
 31
0.0
  0
LINE
  8
LC-006-005-----0
  6
CONTINUOUS
  5
139
 10
496.606756
 20
400.440234
 30
0.0
 11
499.840185
 21
403.673663
 31
0.0
  0
LINE
  8
LC-006-005-----0
  6
CONTINUOUS
  5
13A
 10
421.476084
 20
328.137989
 30
0.0
 11
424.162429
 21
330.824334
 31
0.0
  0
LINE
  8
LC-006-005-----0
  6
CONTINUOUS
  5
13B
 10
471.719436
 20
378.381341
 30
0.0
 11
475.433411
 21
382.095316
 31
0.0
  0
LINE
  8
LC-006-005-----0
  6
CONTINUOUS
  5
13C
 10
480.419436
 20
387.081341
 30
0.0
 11
483.442897
 21
390.104802
 31
0.0
  0
LINE
  8
LC-006-005-----0
  6
CONTINUOUS
  5
13D
 10
484.15995
 20
390.821855
 30
0.0
 11
488.505968
 21
395.167873
 31
0.0
  0
LINE
  8
LC-006-005-----0
  6
CONTINUOUS
  5
13E
 10
493.565676
 20
400.227581
 30
0.0
 11
496.799105
 21
403.46101
 31
0.0
  0
LINE
  8
LC-006-005-----0
  6
CONTINUOUS
  5
13F
 10
421.506281
 20
330.996613
 30
0.0
 11
424.162429
 21
333.652761
 31
0.0
  0
LINE
  8
LC-006-005-----0
  6
CONTINUOUS
  5
140
 10
470.719436
 20
380.209768
 30
0.0
 11
472.604984
 21
382.095316
 31
0.0
  0
LINE
  8
LC-006-005-----0
  6
CONTINUOUS
  5
141
 10
480.419436
 20
389.909768
 30
0.0
 11
484.108551
 21
393.598883
 31
0.0
  0
LINE
  8
LC-006-005-----0
  6
CONTINUOUS
  5
142
 10
485.492134
 20
394.982466
 30
0.0
 11
488.662397
 21
398.152729
 31
0.0
  0
LINE
  8
LC-006-005-----0
  6
CONTINUOUS
  5
143
 10
490.524596
 20
400.014928
 30
0.0
 11
493.758025
 21
403.248357
 31
0.0
  0
LINE
  8
LC-006-005-----0
  6
CONTINUOUS
  5
144
 10
421.536477
 20
333.855237
 30
0.0
 11
424.162429
 21
336.481188
 31
0.0
  0
LINE
  8
LC-006-005-----0
  6
CONTINUOUS
  5
145
 10
480.419436
 20
392.738196
 30
0.0
 11
482.418055
 21
394.736814
 31
0.0
  0
LINE
  8
LC-006-005-----0
  6
CONTINUOUS
  5
146
 10
485.648564
 20
397.967323
 30
0.0
 11
490.716945
 21
403.035704
 31
0.0
  0
LINE
  8
LC-006-005-----0
  6
CONTINUOUS
  5
147
 10
421.566674
 20
336.71386
 30
0.0
 11
424.162429
 21
339.309615
 31
0.0
  0
LINE
  8
LC-006-005-----0
  6
CONTINUOUS
  5
148
 10
480.419436
 20
395.566623
 30
0.0
 11
482.418055
 21
397.565241
 31
0.0
  0
LINE
  8
LC-006-005-----0
  6
CONTINUOUS
  5
149
 10
485.804993
 20
400.95218
 30
0.0
 11
487.675865
 21
402.823051
 31
0.0
  0
LINE
  8
LC-006-005-----0
  6
CONTINUOUS
  5
14A
 10
421.596871
 20
339.572484
 30
0.0
 11
424.162429
 21
342.138042
 31
0.0
  0
LINE
  8
LC-006-005-----0
  6
CONTINUOUS
  5
14B
 10
480.419436
 20
398.39505
 30
0.0
 11
481.619703
 21
399.595316
 31
0.0
  0
LINE
  8
LC-006-005-----0
  6
CONTINUOUS
  5
14C
 10
421.627068
 20
342.431108
 30
0.0
 11
424.162429
 21
344.966469
 31
0.0
  0
LINE
  8
LC-006-005-----0
  6
CONTINUOUS
  5
14D
 10
421.657264
 20
345.289732
 30
0.0
 11
424.162429
 21
347.794897
 31
0.0
  0
LINE
  8
LC-006-005-----0
  6
CONTINUOUS
  5
14E
 10
421.687461
 20
348.148356
 30
0.0
 11
424.162429
 21
350.623324
 31
0.0
  0
LINE
  8
LC-006-005-----0
  6
CONTINUOUS
  5
14F
 10
421.717658
 20
351.00698
 30
0.0
 11
424.162429
 21
353.451751
 31
0.0
  0
LINE
  8
LC-006-005-----0
  6
CONTINUOUS
  5
150
 10
421.747854
 20
353.865604
 30
0.0
 11
424.162429
 21
356.280178
 31
0.0
  0
LINE
  8
LC-006-005-----0
  6
CONTINUOUS
  5
151
 10
421.778051
 20
356.724227
 30
0.0
 11
424.162429
 21
359.108605
 31
0.0
  0
LINE
  8
LC-006-005-----0
  6
CONTINUOUS
  5
152
 10
421.808248
 20
359.582851
 30
0.0
 11
424.162429
 21
361.937032
 31
0.0
  0
LINE
  8
LC-006-005-----0
  6
CONTINUOUS
  5
153
 10
421.838445
 20
362.441475
 30
0.0
 11
424.162429
 21
364.765459
 31
0.0
  0
LINE
  8
LC-006-005-----0
  6
CONTINUOUS
  5
154
 10
421.868641
 20
365.300099
 30
0.0
 11
424.162429
 21
367.593886
 31
0.0
  0
LINE
  8
LC-006-005-----0
  6
CONTINUOUS
  5
155
 10
421.898838
 20
368.158723
 30
0.0
 11
424.162429
 21
370.422314
 31
0.0
  0
LINE
  8
LC-006-005-----0
  6
CONTINUOUS
  5
156
 10
421.929035
 20
371.017347
 30
0.0
 11
424.162429
 21
373.250741
 31
0.0
  0
LINE
  8
LC-006-005-----0
  6
CONTINUOUS
  5
157
 10
421.188793
 20
373.105532
 30
0.0
 11
421.502213
 21
373.418952
 31
0.0
  0
ENDBLK
  8
0
  5
158
  0
BLOCK
  8
0
  5
15A
  2
BLK2
 70
    64
 10
0.0
 20
0.0
 30
0.0
  3
BLK2
  0
ENDBLK
  8
0
  5
15B
  0
BLOCK
  8
0
  5
15D
  2
*D4
 70
    65
 10
0.0
 20
0.0
 30
0.0
  3
*D4
  0
LINE
  8
LC-009-003-MTH-0
  6
CONTINUOUS
  5
15F
 10
242.910686
 20
406.296
 30
0.0
 11
242.910686
 21
487.2
 31
0.0
  0
LINE
  8
LC-009-003-MTH-0
  6
CONTINUOUS
  5
160
 10
544.421886
 20
406.296
 30
0.0
 11
544.421886
 21
487.2
 31
0.0
  0
LINE
  8
LC-010-003-MTG-0
  6
CONTINUOUS
  5
162
 10
242.910686
 20
470.4
 30
0.0
 11
544.421886
 21
470.4
 31
0.0
  0
LINE
  8
LC-008-003-----0
  6
CONTINUOUS
  5
164
 10
270.671142
 20
474.054733
 30
0.0
 11
242.910686
 21
470.4
 31
0.0
  0
LINE
  8
LC-008-003-----0
  6
CONTINUOUS
  5
165
 10
242.910686
 20
470.4
 30
0.0
 11
270.671142
 21
466.745267
 31
0.0
  0
LINE
  8
LC-008-003-----0
  6
CONTINUOUS
  5
166
 10
270.671142
 20
466.745267
 30
0.0
 11
270.671142
 21
474.054733
 31
0.0
  0
LINE
  8
LC-008-003-----0
  6
CONTINUOUS
  5
167
 10
270.733424
 20
473.104503
 30
0.0
 11
250.190686
 21
470.4
 31
0.0
  0
LINE
  8
LC-008-003-----0
  6
CONTINUOUS
  5
168
 10
250.190686
 20
470.4
 30
0.0
 11
270.733424
 21
467.695497
 31
0.0
  0
LINE
  8
LC-008-003-----0
  6
CONTINUOUS
  5
169
 10
270.795705
 20
472.154272
 30
0.0
 11
257.470686
 21
470.4
 31
0.0
  0
LINE
  8
LC-008-003-----0
  6
CONTINUOUS
  5
16A
 10
257.470686
 20
470.4
 30
0.0
 11
270.795705
 21
468.645728
 31
0.0
  0
LINE
  8
LC-008-003-----0
  6
CONTINUOUS
  5
16B
 10
270.857986
 20
471.204041
 30
0.0
 11
264.750686
 21
470.4
 31
0.0
  0
LINE
  8
LC-008-003-----0
  6
CONTINUOUS
  5
16C
 10
264.750686
 20
470.4
 30
0.0
 11
270.857986
 21
469.595959
 31
0.0
  0
LINE
  8
LC-008-003-----0
  6
CONTINUOUS
  5
16D
 10
516.66143
 20
466.745267
 30
0.0
 11
544.421886
 21
470.4
 31
0.0
  0
LINE
  8
LC-008-003-----0
  6
CONTINUOUS
  5
16E
 10
544.421886
 20
470.4
 30
0.0
 11
516.66143
 21
474.054733
 31
0.0
  0
LINE
  8
LC-008-003-----0
  6
CONTINUOUS
  5
16F
 10
516.66143
 20
474.054733
 30
0.0
 11
516.66143
 21
466.745267
 31
0.0
  0
LINE
  8
LC-008-003-----0
  6
CONTINUOUS
  5
170
 10
516.599149
 20
467.695497
 30
0.0
 11
537.141886
 21
470.4
 31
0.0
  0
LINE
  8
LC-008-003-----0
  6
CONTINUOUS
  5
171
 10
537.141886
 20
470.4
 30
0.0
 11
516.599149
 21
473.104503
 31
0.0
  0
LINE
  8
LC-008-003-----0
  6
CONTINUOUS
  5
172
 10
516.536867
 20
468.645728
 30
0.0
 11
529.861886
 21
470.4
 31
0.0
  0
LINE
  8
LC-008-003-----0
  6
CONTINUOUS
  5
173
 10
529.861886
 20
470.4
 30
0.0
 11
516.536867
 21
472.154272
 31
0.0
  0
LINE
  8
LC-008-003-----0
  6
CONTINUOUS
  5
174
 10
516.474586
 20
469.595959
 30
0.0
 11
522.581886
 21
470.4
 31
0.0
  0
LINE
  8
LC-008-003-----0
  6
CONTINUOUS
  5
175
 10
522.581886
 20
470.4
 30
0.0
 11
516.474586
 21
471.204041
 31
0.0
  0
TEXT
  8
LC-008-003-----0
  6
CONTINUOUS
 62
     8
  5
177
 10
359.916808
 20
478.227554
 30
0.0
 40
28.0
  1
Ø300
 41
0.9
 51
15.0
  7
LC-TXTSTYLE-150-400-0-0-D0
 72
     1
 11
398.014446
 21
478.227554
 31
0.0
  0
ENDBLK
  8
0
  5
178
  0
BLOCK
  8
0
  5
17A
  2
*D5
 70
    65
 10
0.0
 20
0.0
 30
0.0
  3
*D5
  0
LINE
  8
LC-009-003-MTH-0
  6
CONTINUOUS
  5
17B
 10
298.769785
 20
396.25206
 30
0.0
 11
298.770222
 21
447.997475
 31
0.0
  0
LINE
  8
LC-009-003-MTH-0
  6
CONTINUOUS
  5
17C
 10
488.562703
 20
396.250456
 30
0.0
 11
488.563141
 21
447.99587
 31
0.0
  0
LINE
  8
LC-010-003-MTG-0
  6
CONTINUOUS
  5
17D
 10
298.77008
 20
431.197475
 30
0.0
 11
488.562999
 21
431.19587
 31
0.0
  0
LINE
  8
LC-008-003-----0
  6
CONTINUOUS
  5
17E
 10
326.530567
 20
434.851973
 30
0.0
 11
298.77008
 21
431.197475
 31
0.0
  0
LINE
  8
LC-008-003-----0
  6
CONTINUOUS
  5
17F
 10
298.77008
 20
431.197475
 30
0.0
 11
326.530505
 21
427.542506
 31
0.0
  0
LINE
  8
LC-008-003-----0
  6
CONTINUOUS
  5
180
 10
326.530505
 20
427.542506
 30
0.0
 11
326.530567
 21
434.851973
 31
0.0
  0
LINE
  8
LC-008-003-----0
  6
CONTINUOUS
  5
181
 10
326.592841
 20
433.901742
 30
0.0
 11
306.05008
 21
431.197413
 31
0.0
  0
LINE
  8
LC-008-003-----0
  6
CONTINUOUS
  5
182
 10
306.05008
 20
431.197413
 30
0.0
 11
326.592795
 21
428.492737
 31
0.0
  0
LINE
  8
LC-008-003-----0
  6
CONTINUOUS
  5
183
 10
326.655114
 20
432.951511
 30
0.0
 11
313.33008
 21
431.197351
 31
0.0
  0
LINE
  8
LC-008-003-----0
  6
CONTINUOUS
  5
184
 10
313.33008
 20
431.197351
 30
0.0
 11
326.655084
 21
429.442967
 31
0.0
  0
LINE
  8
LC-008-003-----0
  6
CONTINUOUS
  5
185
 10
326.717387
 20
432.00128
 30
0.0
 11
320.61008
 21
431.19729
 31
0.0
  0
LINE
  8
LC-008-003-----0
  6
CONTINUOUS
  5
186
 10
320.61008
 20
431.19729
 30
0.0
 11
326.717374
 21
430.393197
 31
0.0
  0
LINE
  8
LC-008-003-----0
  6
CONTINUOUS
  5
187
 10
460.802512
 20
427.541371
 30
0.0
 11
488.562999
 21
431.19587
 31
0.0
  0
LINE
  8
LC-008-003-----0
  6
CONTINUOUS
  5
188
 10
488.562999
 20
431.19587
 30
0.0
 11
460.802574
 21
434.850838
 31
0.0
  0
LINE
  8
LC-008-003-----0
  6
CONTINUOUS
  5
189
 10
460.802574
 20
434.850838
 30
0.0
 11
460.802512
 21
427.541371
 31
0.0
  0
LINE
  8
LC-008-003-----0
  6
CONTINUOUS
  5
18A
 10
460.740238
 20
428.491603
 30
0.0
 11
481.282999
 21
431.195932
 31
0.0
  0
LINE
  8
LC-008-003-----0
  6
CONTINUOUS
  5
18B
 10
481.282999
 20
431.195932
 30
0.0
 11
460.740284
 21
433.900608
 31
0.0
  0
LINE
  8
LC-008-003-----0
  6
CONTINUOUS
  5
18C
 10
460.677965
 20
429.441834
 30
0.0
 11
474.002999
 21
431.195993
 31
0.0
  0
LINE
  8
LC-008-003-----0
  6
CONTINUOUS
  5
18D
 10
474.002999
 20
431.195993
 30
0.0
 11
460.677995
 21
432.950378
 31
0.0
  0
LINE
  8
LC-008-003-----0
  6
CONTINUOUS
  5
18E
 10
460.615692
 20
430.392065
 30
0.0
 11
466.722999
 21
431.196055
 31
0.0
  0
LINE
  8
LC-008-003-----0
  6
CONTINUOUS
  5
18F
 10
466.722999
 20
431.196055
 30
0.0
 11
460.615705
 21
432.000148
 31
0.0
  0
TEXT
  8
LC-008-003-----0
  6
CONTINUOUS
 62
     8
  5
190
 10
359.916991
 20
439.024226
 30
0.0
 40
28.0
  1
Ø190
 50
360.0
 51
15.0
  7
LC-TXTSTYLE-150-400-0-0-D0
 72
     1
 11
398.014628
 21
439.024226
 31
0.0
  0
ENDBLK
  8
0
  5
191
  0
BLOCK
  8
0
  5
193
  2
*D6
 70
    65
 10
0.0
 20
0.0
 30
0.0
  3
*D6
  0
LINE
  8
LC-009-003-MTH-0
  6
CONTINUOUS
  5
194
 10
313.412429
 20
307.195316
 30
0.0
 11
313.412618
 21
100.800288
 31
0.0
  0
LINE
  8
LC-009-003-MTH-0
  6
CONTINUOUS
  5
195
 10
473.912429
 20
307.195463
 30
0.0
 11
473.912618
 21
100.800435
 31
0.0
  0
LINE
  8
LC-010-003-MTG-0
  6
CONTINUOUS
  5
196
 10
313.412603
 20
117.600288
 30
0.0
 11
473.912603
 21
117.600435
 31
0.0
  0
LINE
  8
LC-008-003-----0
  6
CONTINUOUS
  5
197
 10
341.173056
 20
121.255046
 30
0.0
 11
313.412603
 21
117.600288
 31
0.0
  0
LINE
  8
LC-008-003-----0
  6
CONTINUOUS
  5
198
 10
313.412603
 20
117.600288
 30
0.0
 11
341.173062
 21
113.94558
 31
0.0
  0
LINE
  8
LC-008-003-----0
  6
CONTINUOUS
  5
199
 10
341.173062
 20
113.94558
 30
0.0
 11
341.173056
 21
121.255046
 31
0.0
  0
LINE
  8
LC-008-003-----0
  6
CONTINUOUS
  5
19A
 10
341.235338
 20
120.304816
 30
0.0
 11
320.692603
 21
117.600294
 31
0.0
  0
LINE
  8
LC-008-003-----0
  6
CONTINUOUS
  5
19B
 10
320.692603
 20
117.600294
 30
0.0
 11
341.235343
 21
114.89581
 31
0.0
  0
LINE
  8
LC-008-003-----0
  6
CONTINUOUS
  5
19C
 10
341.29762
 20
119.354585
 30
0.0
 11
327.972603
 21
117.600301
 31
0.0
  0
LINE
  8
LC-008-003-----0
  6
CONTINUOUS
  5
19D
 10
327.972603
 20
117.600301
 30
0.0
 11
341.297623
 21
115.846041
 31
0.0
  0
LINE
  8
LC-008-003-----0
  6
CONTINUOUS
  5
19E
 10
341.359903
 20
118.404355
 30
0.0
 11
335.252603
 21
117.600308
 31
0.0
  0
LINE
  8
LC-008-003-----0
  6
CONTINUOUS
  5
19F
 10
335.252603
 20
117.600308
 30
0.0
 11
341.359904
 21
116.796272
 31
0.0
  0
LINE
  8
LC-008-003-----0
  6
CONTINUOUS
  5
1A0
 10
446.15215
 20
113.945676
 30
0.0
 11
473.912603
 21
117.600435
 31
0.0
  0
LINE
  8
LC-008-003-----0
  6
CONTINUOUS
  5
1A1
 10
473.912603
 20
117.600435
 30
0.0
 11
446.152143
 21
121.255143
 31
0.0
  0
LINE
  8
LC-008-003-----0
  6
CONTINUOUS
  5
1A2
 10
446.152143
 20
121.255143
 30
0.0
 11
446.15215
 21
113.945676
 31
0.0
  0
LINE
  8
LC-008-003-----0
  6
CONTINUOUS
  5
1A3
 10
446.089868
 20
114.895907
 30
0.0
 11
466.632603
 21
117.600428
 31
0.0
  0
LINE
  8
LC-008-003-----0
  6
CONTINUOUS
  5
1A4
 10
466.632603
 20
117.600428
 30
0.0
 11
446.089863
 21
120.304912
 31
0.0
  0
LINE
  8
LC-008-003-----0
  6
CONTINUOUS
  5
1A5
 10
446.027586
 20
115.846137
 30
0.0
 11
459.352603
 21
117.600422
 31
0.0
  0
LINE
  8
LC-008-003-----0
  6
CONTINUOUS
  5
1A6
 10
459.352603
 20
117.600422
 30
0.0
 11
446.027582
 21
119.354681
 31
0.0
  0
LINE
  8
LC-008-003-----0
  6
CONTINUOUS
  5
1A7
 10
445.965303
 20
116.796368
 30
0.0
 11
452.072603
 21
117.600415
 31
0.0
  0
LINE
  8
LC-008-003-----0
  6
CONTINUOUS
  5
1A8
 10
452.072603
 20
117.600415
 30
0.0
 11
445.965302
 21
118.404451
 31
0.0
  0
TEXT
  8
LC-008-003-----0
  6
CONTINUOUS
 62
     8
  5
1A9
 10
359.913133
 20
125.427915
 30
0.0
 40
28.0
  1
Ø160
 51
15.0
  7
LC-TXTSTYLE-150-400-0-0-D0
 72
     1
 11
398.010771
 21
125.427915
 31
0.0
  0
ENDBLK
  8
0
  5
1AA
  0
BLOCK
  8
0
  5
1AC
  2
*D7
 70
    65
 10
0.0
 20
0.0
 30
0.0
  3
*D7
  0
LINE
  8
LC-009-003-MTH-0
  6
CONTINUOUS
  5
1AD
 10
338.662429
 20
226.945544
 30
0.0
 11
338.662429
 21
140.0
 31
0.0
  0
LINE
  8
LC-009-003-MTH-0
  6
CONTINUOUS
  5
1AE
 10
448.662429
 20
226.945472
 30
0.0
 11
448.662429
 21
140.0
 31
0.0
  0
LINE
  8
LC-010-003-MTG-0
  6
CONTINUOUS
  5
1AF
 10
338.662429
 20
156.8
 30
0.0
 11
448.662429
 21
156.8
 31
0.0
  0
LINE
  8
LC-008-003-----0
  6
CONTINUOUS
  5
1B0
 10
366.422885
 20
160.454733
 30
0.0
 11
338.662429
 21
156.8
 31
0.0
  0
LINE
  8
LC-008-003-----0
  6
CONTINUOUS
  5
1B1
 10
338.662429
 20
156.8
 30
0.0
 11
366.422885
 21
153.145267
 31
0.0
  0
LINE
  8
LC-008-003-----0
  6
CONTINUOUS
  5
1B2
 10
366.422885
 20
153.145267
 30
0.0
 11
366.422885
 21
160.454733
 31
0.0
  0
LINE
  8
LC-008-003-----0
  6
CONTINUOUS
  5
1B3
 10
366.485166
 20
159.504503
 30
0.0
 11
345.942429
 21
156.8
 31
0.0
  0
LINE
  8
LC-008-003-----0
  6
CONTINUOUS
  5
1B4
 10
345.942429
 20
156.8
 30
0.0
 11
366.485166
 21
154.095497
 31
0.0
  0
LINE
  8
LC-008-003-----0
  6
CONTINUOUS
  5
1B5
 10
366.547448
 20
158.554272
 30
0.0
 11
353.222429
 21
156.8
 31
0.0
  0
LINE
  8
LC-008-003-----0
  6
CONTINUOUS
  5
1B6
 10
353.222429
 20
156.8
 30
0.0
 11
366.547448
 21
155.045728
 31
0.0
  0
LINE
  8
LC-008-003-----0
  6
CONTINUOUS
  5
1B7
 10
366.609729
 20
157.604041
 30
0.0
 11
360.502429
 21
156.8
 31
0.0
  0
LINE
  8
LC-008-003-----0
  6
CONTINUOUS
  5
1B8
 10
360.502429
 20
156.8
 30
0.0
 11
366.609729
 21
155.995959
 31
0.0
  0
LINE
  8
LC-008-003-----0
  6
CONTINUOUS
  5
1B9
 10
420.901973
 20
153.145267
 30
0.0
 11
448.662429
 21
156.8
 31
0.0
  0
LINE
  8
LC-008-003-----0
  6
CONTINUOUS
  5
1BA
 10
448.662429
 20
156.8
 30
0.0
 11
420.901973
 21
160.454733
 31
0.0
  0
LINE
  8
LC-008-003-----0
  6
CONTINUOUS
  5
1BB
 10
420.901973
 20
160.454733
 30
0.0
 11
420.901973
 21
153.145267
 31
0.0
  0
LINE
  8
LC-008-003-----0
  6
CONTINUOUS
  5
1BC
 10
420.839691
 20
154.095497
 30
0.0
 11
441.382429
 21
156.8
 31
0.0
  0
LINE
  8
LC-008-003-----0
  6
CONTINUOUS
  5
1BD
 10
441.382429
 20
156.8
 30
0.0
 11
420.839691
 21
159.504503
 31
0.0
  0
LINE
  8
LC-008-003-----0
  6
CONTINUOUS
  5
1BE
 10
420.77741
 20
155.045728
 30
0.0
 11
434.102429
 21
156.8
 31
0.0
  0
LINE
  8
LC-008-003-----0
  6
CONTINUOUS
  5
1BF
 10
434.102429
 20
156.8
 30
0.0
 11
420.77741
 21
158.554272
 31
0.0
  0
LINE
  8
LC-008-003-----0
  6
CONTINUOUS
  5
1C0
 10
420.715129
 20
155.995959
 30
0.0
 11
426.822429
 21
156.8
 31
0.0
  0
LINE
  8
LC-008-003-----0
  6
CONTINUOUS
  5
1C1
 10
426.822429
 20
156.8
 30
0.0
 11
420.715129
 21
157.604041
 31
0.0
  0
TEXT
  8
LC-008-003-----0
  6
CONTINUOUS
 62
     8
  5
1C2
 10
351.446809
 20
164.627554
 30
0.0
 40
28.0
  1
DN100
 51
15.0
  7
LC-TXTSTYLE-150-400-0-0-D0
 72
     1
 11
398.010589
 21
164.627554
 31
0.0
  0
ENDBLK
  8
0
  5
1C3
  0
BLOCK
  8
0
  5
1C5
  2
*D8
 70
    65
 10
0.0
 20
0.0
 30
0.0
  3
*D8
  0
LINE
  8
LC-009-003-MTH-0
  6
CONTINUOUS
  5
1C6
 10
325.162429
 20
295.445316
 30
0.0
 11
218.4
 21
295.445316
 31
0.0
  0
LINE
  8
LC-009-003-MTH-0
  6
CONTINUOUS
  5
1C7
 10
242.910686
 20
403.295543
 30
0.0
 11
218.4
 21
403.295543
 31
0.0
  0
LINE
  8
LC-010-003-MTG-0
  6
CONTINUOUS
  5
1C8
 10
235.2
 20
295.445316
 30
0.0
 11
235.2
 21
403.295543
 31
0.0
  0
LINE
  8
LC-008-003-----0
  6
CONTINUOUS
  5
1C9
 10
231.545267
 20
323.205772
 30
0.0
 11
235.2
 21
295.445316
 31
0.0
  0
LINE
  8
LC-008-003-----0
  6
CONTINUOUS
  5
1CA
 10
235.2
 20
295.445316
 30
0.0
 11
238.854733
 21
323.205772
 31
0.0
  0
LINE
  8
LC-008-003-----0
  6
CONTINUOUS
  5
1CB
 10
238.854733
 20
323.205772
 30
0.0
 11
231.545267
 21
323.205772
 31
0.0
  0
LINE
  8
LC-008-003-----0
  6
CONTINUOUS
  5
1CC
 10
232.495497
 20
323.268053
 30
0.0
 11
235.2
 21
302.725316
 31
0.0
  0
LINE
  8
LC-008-003-----0
  6
CONTINUOUS
  5
1CD
 10
235.2
 20
302.725316
 30
0.0
 11
237.904503
 21
323.268053
 31
0.0
  0
LINE
  8
LC-008-003-----0
  6
CONTINUOUS
  5
1CE
 10
233.445728
 20
323.330335
 30
0.0
 11
235.2
 21
310.005316
 31
0.0
  0
LINE
  8
LC-008-003-----0
  6
CONTINUOUS
  5
1CF
 10
235.2
 20
310.005316
 30
0.0
 11
236.954272
 21
323.330335
 31
0.0
  0
LINE
  8
LC-008-003-----0
  6
CONTINUOUS
  5
1D0
 10
234.395959
 20
323.392616
 30
0.0
 11
235.2
 21
317.285316
 31
0.0
  0
LINE
  8
LC-008-003-----0
  6
CONTINUOUS
  5
1D1
 10
235.2
 20
317.285316
 30
0.0
 11
236.004041
 21
323.392616
 31
0.0
  0
LINE
  8
LC-008-003-----0
  6
CONTINUOUS
  5
1D2
 10
238.854733
 20
375.535087
 30
0.0
 11
235.2
 21
403.295543
 31
0.0
  0
LINE
  8
LC-008-003-----0
  6
CONTINUOUS
  5
1D3
 10
235.2
 20
403.295543
 30
0.0
 11
231.545267
 21
375.535087
 31
0.0
  0
LINE
  8
LC-008-003-----0
  6
CONTINUOUS
  5
1D4
 10
231.545267
 20
375.535087
 30
0.0
 11
238.854733
 21
375.535087
 31
0.0
  0
LINE
  8
LC-008-003-----0
  6
CONTINUOUS
  5
1D5
 10
237.904503
 20
375.472805
 30
0.0
 11
235.2
 21
396.015543
 31
0.0
  0
LINE
  8
LC-008-003-----0
  6
CONTINUOUS
  5
1D6
 10
235.2
 20
396.015543
 30
0.0
 11
232.495497
 21
375.472805
 31
0.0
  0
LINE
  8
LC-008-003-----0
  6
CONTINUOUS
  5
1D7
 10
236.954272
 20
375.410524
 30
0.0
 11
235.2
 21
388.735543
 31
0.0
  0
LINE
  8
LC-008-003-----0
  6
CONTINUOUS
  5
1D8
 10
235.2
 20
388.735543
 30
0.0
 11
233.445728
 21
375.410524
 31
0.0
  0
LINE
  8
LC-008-003-----0
  6
CONTINUOUS
  5
1D9
 10
236.004041
 20
375.348243
 30
0.0
 11
235.2
 21
381.455543
 31
0.0
  0
LINE
  8
LC-008-003-----0
  6
CONTINUOUS
  5
1DA
 10
235.2
 20
381.455543
 30
0.0
 11
234.395959
 21
375.348243
 31
0.0
  0
TEXT
  8
LC-008-003-----0
  6
CONTINUOUS
 62
     8
  5
1DB
 10
227.372446
 20
323.95481
 30
0.0
 40
28.0
  1
110
 50
90.0
 51
15.0
  7
LC-TXTSTYLE-150-400-0-0-D0
 72
     1
 11
227.372446
 21
353.718589
 31
0.0
  0
ENDBLK
  8
0
  5
1DC
  0
BLOCK
  8
0
  5
1DE
  2
*D9
 70
    65
 10
0.0
 20
0.0
 30
0.0
  3
*D9
  0
LINE
  8
LC-009-003-MTH-0
  6
CONTINUOUS
  5
1DF
 10
352.166099
 20
323.945251
 30
0.0
 11
263.2
 21
323.945251
 31
0.0
  0
LINE
  8
LC-009-003-MTH-0
  6
CONTINUOUS
  5
1E0
 10
362.408381
 20
373.445253
 30
0.0
 11
263.2
 21
373.445253
 31
0.0
  0
LINE
  8
LC-008-003-----0
  6
CONTINUOUS
  5
1E1
 10
283.654733
 20
296.184795
 30
0.0
 11
280.0
 21
323.945251
 31
0.0
  0
LINE
  8
LC-008-003-----0
  6
CONTINUOUS
  5
1E2
 10
280.0
 20
323.945251
 30
0.0
 11
276.345267
 21
296.184795
 31
0.0
  0
LINE
  8
LC-008-003-----0
  6
CONTINUOUS
  5
1E3
 10
276.345267
 20
296.184795
 30
0.0
 11
283.654733
 21
296.184795
 31
0.0
  0
LINE
  8
LC-008-003-----0
  6
CONTINUOUS
  5
1E4
 10
282.704503
 20
296.122513
 30
0.0
 11
280.0
 21
316.665251
 31
0.0
  0
LINE
  8
LC-008-003-----0
  6
CONTINUOUS
  5
1E5
 10
280.0
 20
316.665251
 30
0.0
 11
277.295497
 21
296.122513
 31
0.0
  0
LINE
  8
LC-008-003-----0
  6
CONTINUOUS
  5
1E6
 10
281.754272
 20
296.060232
 30
0.0
 11
280.0
 21
309.385251
 31
0.0
  0
LINE
  8
LC-008-003-----0
  6
CONTINUOUS
  5
1E7
 10
280.0
 20
309.385251
 30
0.0
 11
278.245728
 21
296.060232
 31
0.0
  0
LINE
  8
LC-008-003-----0
  6
CONTINUOUS
  5
1E8
 10
280.804041
 20
295.99795
 30
0.0
 11
280.0
 21
302.105251
 31
0.0
  0
LINE
  8
LC-008-003-----0
  6
CONTINUOUS
  5
1E9
 10
280.0
 20
302.105251
 30
0.0
 11
279.195959
 21
295.99795
 31
0.0
  0
LINE
  8
LC-008-003-----0
  6
CONTINUOUS
  5
1EA
 10
276.345267
 20
401.20571
 30
0.0
 11
280.0
 21
373.445253
 31
0.0
  0
LINE
  8
LC-008-003-----0
  6
CONTINUOUS
  5
1EB
 10
280.0
 20
373.445253
 30
0.0
 11
283.654733
 21
401.20571
 31
0.0
  0
LINE
  8
LC-008-003-----0
  6
CONTINUOUS
  5
1EC
 10
283.654733
 20
401.20571
 30
0.0
 11
276.345267
 21
401.20571
 31
0.0
  0
LINE
  8
LC-008-003-----0
  6
CONTINUOUS
  5
1ED
 10
277.295497
 20
401.267991
 30
0.0
 11
280.0
 21
380.725253
 31
0.0
  0
LINE
  8
LC-008-003-----0
  6
CONTINUOUS
  5
1EE
 10
280.0
 20
380.725253
 30
0.0
 11
282.704503
 21
401.267991
 31
0.0
  0
LINE
  8
LC-008-003-----0
  6
CONTINUOUS
  5
1EF
 10
278.245728
 20
401.330272
 30
0.0
 11
280.0
 21
388.005253
 31
0.0
  0
LINE
  8
LC-008-003-----0
  6
CONTINUOUS
  5
1F0
 10
280.0
 20
388.005253
 30
0.0
 11
281.754272
 21
401.330272
 31
0.0
  0
LINE
  8
LC-008-003-----0
  6
CONTINUOUS
  5
1F1
 10
279.195959
 20
401.392554
 30
0.0
 11
280.0
 21
395.285253
 31
0.0
  0
LINE
  8
LC-008-003-----0
  6
CONTINUOUS
  5
1F2
 10
280.0
 20
395.285253
 30
0.0
 11
280.804041
 21
401.392554
 31
0.0
  0
LINE
  8
LC-010-003-MTG-0
  6
CONTINUOUS
  5
1F3
 10
280.0
 20
284.745251
 30
0.0
 11
280.0
 21
412.645253
 31
0.0
  0
TEXT
  8
LC-008-003-----0
  6
CONTINUOUS
 62
     8
  5
1F4
 10
272.172446
 20
336.640262
 30
0.0
 40
28.0
  1
50
 50
90.0
 51
15.0
  7
LC-TXTSTYLE-150-400-0-0-D0
 72
     1
 11
272.172446
 21
353.043412
 31
0.0
  0
ENDBLK
  8
0
  5
1F5
  0
BLOCK
  8
0
  5
1F7
  2
*X10
 70
    65
 10
284.313048
 20
377.53981
 30
0.0
  3
*X10
  0
LINE
  8
LC-006-005-----0
  6
CONTINUOUS
  5
1F8
 10
318.142841
 20
377.53981
 30
0.0
 11
318.842841
 21
378.23981
 31
0.0
  0
LINE
  8
LC-006-005-----0
  6
CONTINUOUS
  5
1F9
 10
316.455997
 20
378.681393
 30
0.0
 11
317.227369
 21
379.452766
 31
0.0
  0
LINE
  8
LC-006-005-----0
  6
CONTINUOUS
  5
1FA
 10
317.49959
 20
379.724987
 30
0.0
 11
318.912546
 21
381.137943
 31
0.0
  0
LINE
  8
LC-006-005-----0
  6
CONTINUOUS
  5
1FB
 10
318.193167
 20
383.246991
 30
0.0
 11
318.701354
 21
383.755178
 31
0.0
  0
LINE
  8
LC-006-005-----0
  6
CONTINUOUS
  5
1FC
 10
316.077308
 20
383.959559
 30
0.0
 11
316.589733
 21
384.471984
 31
0.0
  0
LINE
  8
LC-006-005-----0
  6
CONTINUOUS
  5
1FD
 10
314.743495
 20
385.454174
 30
0.0
 11
315.278765
 21
385.989443
 31
0.0
  0
LINE
  8
LC-006-005-----0
  6
CONTINUOUS
  5
1FE
 10
314.412546
 20
387.951652
 30
0.0
 11
315.112546
 21
388.651652
 31
0.0
  0
LINE
  8
LC-006-005-----0
  6
CONTINUOUS
  5
1FF
 10
314.412546
 20
390.780079
 30
0.0
 11
315.112546
 21
391.480079
 31
0.0
  0
LINE
  8
LC-006-005-----0
  6
CONTINUOUS
  5
200
 10
314.412546
 20
393.608506
 30
0.0
 11
315.112546
 21
394.308506
 31
0.0
  0
LINE
  8
LC-006-005-----0
  6
CONTINUOUS
  5
201
 10
314.412546
 20
396.436933
 30
0.0
 11
315.112546
 21
397.136933
 31
0.0
  0
LINE
  8
LC-006-005-----0
  6
CONTINUOUS
  5
202
 10
314.412546
 20
399.26536
 30
0.0
 11
315.112546
 21
399.96536
 31
0.0
  0
LINE
  8
LC-006-005-----0
  6
CONTINUOUS
  5
203
 10
314.271631
 20
401.952872
 30
0.0
 11
314.84673
 21
402.527971
 31
0.0
  0
LINE
  8
LC-006-005-----0
  6
CONTINUOUS
  5
204
 10
313.455798
 20
403.965466
 30
0.0
 11
313.958265
 21
404.467933
 31
0.0
  0
LINE
  8
LC-006-005-----0
  6
CONTINUOUS
  5
205
 10
312.136889
 20
405.474984
 30
0.0
 11
312.62804
 21
405.966135
 31
0.0
  0
LINE
  8
LC-006-005-----0
  6
CONTINUOUS
  5
206
 10
310.350454
 20
406.516977
 30
0.0
 11
310.880324
 21
407.046846
 31
0.0
  0
LINE
  8
LC-006-005-----0
  6
CONTINUOUS
  5
207
 10
307.959024
 20
406.953973
 30
0.0
 11
308.604982
 21
407.599931
 31
0.0
  0
LINE
  8
LC-006-005-----0
  6
CONTINUOUS
  5
208
 10
305.315453
 20
407.13883
 30
0.0
 11
305.961412
 21
407.784789
 31
0.0
  0
LINE
  8
LC-006-005-----0
  6
CONTINUOUS
  5
209
 10
302.671882
 20
407.323686
 30
0.0
 11
303.317842
 21
407.969645
 31
0.0
  0
LINE
  8
LC-006-005-----0
  6
CONTINUOUS
  5
20A
 10
300.028312
 20
407.508542
 30
0.0
 11
300.674271
 21
408.154502
 31
0.0
  0
LINE
  8
LC-006-005-----0
  6
CONTINUOUS
  5
20B
 10
297.384741
 20
407.693399
 30
0.0
 11
298.0307
 21
408.339358
 31
0.0
  0
LINE
  8
LC-006-005-----0
  6
CONTINUOUS
  5
20C
 10
294.74117
 20
407.878255
 30
0.0
 11
295.38713
 21
408.524215
 31
0.0
  0
LINE
  8
LC-006-005-----0
  6
CONTINUOUS
  5
20D
 10
292.0976
 20
408.063112
 30
0.0
 11
292.743559
 21
408.709071
 31
0.0
  0
LINE
  8
LC-006-005-----0
  6
CONTINUOUS
  5
20E
 10
289.563333
 20
408.357272
 30
0.0
 11
290.149506
 21
408.943445
 31
0.0
  0
LINE
  8
LC-006-005-----0
  6
CONTINUOUS
  5
20F
 10
287.586863
 20
409.209229
 30
0.0
 11
288.096002
 21
409.718369
 31
0.0
  0
LINE
  8
LC-006-005-----0
  6
CONTINUOUS
  5
210
 10
286.058907
 20
410.509701
 30
0.0
 11
286.278375
 21
410.729168
 31
0.0
  0
ENDBLK
  8
0
  5
211
  0
BLOCK
  8
0
  5
213
  2
*X11
 70
    65
 10
143.865333
 20
406.295284
 30
0.0
  3
*X11
  0
LINE
  8
LC-006-005-----0
  6
CONTINUOUS
  5
214
 10
153.433899
 20
406.295284
 30
0.0
 11
153.865333
 21
406.726718
 31
0.0
  0
LINE
  8
LC-006-005-----0
  6
CONTINUOUS
  5
215
 10
152.868214
 20
406.295284
 30
0.0
 11
153.865333
 21
407.292404
 31
0.0
  0
LINE
  8
LC-006-005-----0
  6
CONTINUOUS
  5
216
 10
152.302528
 20
406.295284
 30
0.0
 11
153.865333
 21
407.858089
 31
0.0
  0
LINE
  8
LC-006-005-----0
  6
CONTINUOUS
  5
217
 10
151.736843
 20
406.295284
 30
0.0
 11
153.865333
 21
408.423775
 31
0.0
  0
LINE
  8
LC-006-005-----0
  6
CONTINUOUS
  5
218
 10
151.171158
 20
406.295284
 30
0.0
 11
153.865333
 21
408.98946
 31
0.0
  0
LINE
  8
LC-006-005-----0
  6
CONTINUOUS
  5
219
 10
150.605472
 20
406.295284
 30
0.0
 11
153.865333
 21
409.555145
 31
0.0
  0
LINE
  8
LC-006-005-----0
  6
CONTINUOUS
  5
21A
 10
150.039787
 20
406.295284
 30
0.0
 11
153.865333
 21
410.120831
 31
0.0
  0
LINE
  8
LC-006-005-----0
  6
CONTINUOUS
  5
21B
 10
149.474101
 20
406.295284
 30
0.0
 11
153.865333
 21
410.686516
 31
0.0
  0
LINE
  8
LC-006-005-----0
  6
CONTINUOUS
  5
21C
 10
148.908416
 20
406.295284
 30
0.0
 11
153.608416
 21
410.995284
 31
0.0
  0
LINE
  8
LC-006-005-----0
  6
CONTINUOUS
  5
21D
 10
148.34273
 20
406.295284
 30
0.0
 11
153.04273
 21
410.995284
 31
0.0
  0
LINE
  8
LC-006-005-----0
  6
CONTINUOUS
  5
21E
 10
147.777045
 20
406.295284
 30
0.0
 11
152.477045
 21
410.995284
 31
0.0
  0
LINE
  8
LC-006-005-----0
  6
CONTINUOUS
  5
21F
 10
147.21136
 20
406.295284
 30
0.0
 11
151.91136
 21
410.995284
 31
0.0
  0
LINE
  8
LC-006-005-----0
  6
CONTINUOUS
  5
220
 10
146.645674
 20
406.295284
 30
0.0
 11
151.345674
 21
410.995284
 31
0.0
  0
LINE
  8
LC-006-005-----0
  6
CONTINUOUS
  5
221
 10
146.079989
 20
406.295284
 30
0.0
 11
150.779989
 21
410.995284
 31
0.0
  0
LINE
  8
LC-006-005-----0
  6
CONTINUOUS
  5
222
 10
145.514303
 20
406.295284
 30
0.0
 11
150.214303
 21
410.995284
 31
0.0
  0
LINE
  8
LC-006-005-----0
  6
CONTINUOUS
  5
223
 10
144.948618
 20
406.295284
 30
0.0
 11
149.648618
 21
410.995284
 31
0.0
  0
LINE
  8
LC-006-005-----0
  6
CONTINUOUS
  5
224
 10
144.382932
 20
406.295284
 30
0.0
 11
149.082932
 21
410.995284
 31
0.0
  0
LINE
  8
LC-006-005-----0
  6
CONTINUOUS
  5
225
 10
143.865333
 20
406.343371
 30
0.0
 11
148.517247
 21
410.995284
 31
0.0
  0
LINE
  8
LC-006-005-----0
  6
CONTINUOUS
  5
226
 10
143.865333
 20
406.909056
 30
0.0
 11
147.951562
 21
410.995284
 31
0.0
  0
LINE
  8
LC-006-005-----0
  6
CONTINUOUS
  5
227
 10
143.865333
 20
407.474741
 30
0.0
 11
147.385876
 21
410.995284
 31
0.0
  0
LINE
  8
LC-006-005-----0
  6
CONTINUOUS
  5
228
 10
143.865333
 20
408.040427
 30
0.0
 11
146.820191
 21
410.995284
 31
0.0
  0
LINE
  8
LC-006-005-----0
  6
CONTINUOUS
  5
229
 10
143.865333
 20
408.606112
 30
0.0
 11
146.254505
 21
410.995284
 31
0.0
  0
LINE
  8
LC-006-005-----0
  6
CONTINUOUS
  5
22A
 10
143.865333
 20
409.171798
 30
0.0
 11
145.68882
 21
410.995284
 31
0.0
  0
LINE
  8
LC-006-005-----0
  6
CONTINUOUS
  5
22B
 10
143.865333
 20
409.737483
 30
0.0
 11
145.123134
 21
410.995284
 31
0.0
  0
LINE
  8
LC-006-005-----0
  6
CONTINUOUS
  5
22C
 10
143.865333
 20
410.303169
 30
0.0
 11
144.557449
 21
410.995284
 31
0.0
  0
LINE
  8
LC-006-005-----0
  6
CONTINUOUS
  5
22D
 10
143.865333
 20
410.868854
 30
0.0
 11
143.991764
 21
410.995284
 31
0.0
  0
ENDBLK
  8
0
  5
22E
  0
BLOCK
  8
0
  5
230
  2
*X12
 70
    65
 10
163.865333
 20
406.295284
 30
0.0
  3
*X12
  0
LINE
  8
LC-006-005-----0
  6
CONTINUOUS
  5
231
 10
173.798575
 20
406.295284
 30
0.0
 11
173.865333
 21
406.362043
 31
0.0
  0
LINE
  8
LC-006-005-----0
  6
CONTINUOUS
  5
232
 10
173.232889
 20
406.295284
 30
0.0
 11
173.865333
 21
406.927728
 31
0.0
  0
LINE
  8
LC-006-005-----0
  6
CONTINUOUS
  5
233
 10
172.667204
 20
406.295284
 30
0.0
 11
173.865333
 21
407.493414
 31
0.0
  0
LINE
  8
LC-006-005-----0
  6
CONTINUOUS
  5
234
 10
172.101518
 20
406.295284
 30
0.0
 11
173.865333
 21
408.059099
 31
0.0
  0
LINE
  8
LC-006-005-----0
  6
CONTINUOUS
  5
235
 10
171.535833
 20
406.295284
 30
0.0
 11
173.865333
 21
408.624785
 31
0.0
  0
LINE
  8
LC-006-005-----0
  6
CONTINUOUS
  5
236
 10
170.970147
 20
406.295284
 30
0.0
 11
173.865333
 21
409.19047
 31
0.0
  0
LINE
  8
LC-006-005-----0
  6
CONTINUOUS
  5
237
 10
170.404462
 20
406.295284
 30
0.0
 11
173.865333
 21
409.756156
 31
0.0
  0
LINE
  8
LC-006-005-----0
  6
CONTINUOUS
  5
238
 10
169.838777
 20
406.295284
 30
0.0
 11
173.865333
 21
410.321841
 31
0.0
  0
LINE
  8
LC-006-005-----0
  6
CONTINUOUS
  5
239
 10
169.273091
 20
406.295284
 30
0.0
 11
173.865333
 21
410.887526
 31
0.0
  0
LINE
  8
LC-006-005-----0
  6
CONTINUOUS
  5
23A
 10
168.707406
 20
406.295284
 30
0.0
 11
173.407406
 21
410.995284
 31
0.0
  0
LINE
  8
LC-006-005-----0
  6
CONTINUOUS
  5
23B
 10
168.14172
 20
406.295284
 30
0.0
 11
172.84172
 21
410.995284
 31
0.0
  0
LINE
  8
LC-006-005-----0
  6
CONTINUOUS
  5
23C
 10
167.576035
 20
406.295284
 30
0.0
 11
172.276035
 21
410.995284
 31
0.0
  0
LINE
  8
LC-006-005-----0
  6
CONTINUOUS
  5
23D
 10
167.010349
 20
406.295284
 30
0.0
 11
171.710349
 21
410.995284
 31
0.0
  0
LINE
  8
LC-006-005-----0
  6
CONTINUOUS
  5
23E
 10
166.444664
 20
406.295284
 30
0.0
 11
171.144664
 21
410.995284
 31
0.0
  0
LINE
  8
LC-006-005-----0
  6
CONTINUOUS
  5
23F
 10
165.878979
 20
406.295284
 30
0.0
 11
170.578979
 21
410.995284
 31
0.0
  0
LINE
  8
LC-006-005-----0
  6
CONTINUOUS
  5
240
 10
165.313293
 20
406.295284
 30
0.0
 11
170.013293
 21
410.995284
 31
0.0
  0
LINE
  8
LC-006-005-----0
  6
CONTINUOUS
  5
241
 10
164.747608
 20
406.295284
 30
0.0
 11
169.447608
 21
410.995284
 31
0.0
  0
LINE
  8
LC-006-005-----0
  6
CONTINUOUS
  5
242
 10
164.181922
 20
406.295284
 30
0.0
 11
168.881922
 21
410.995284
 31
0.0
  0
LINE
  8
LC-006-005-----0
  6
CONTINUOUS
  5
243
 10
163.865333
 20
406.544381
 30
0.0
 11
168.316237
 21
410.995284
 31
0.0
  0
LINE
  8
LC-006-005-----0
  6
CONTINUOUS
  5
244
 10
163.865333
 20
407.110066
 30
0.0
 11
167.750551
 21
410.995284
 31
0.0
  0
LINE
  8
LC-006-005-----0
  6
CONTINUOUS
  5
245
 10
163.865333
 20
407.675752
 30
0.0
 11
167.184866
 21
410.995284
 31
0.0
  0
LINE
  8
LC-006-005-----0
  6
CONTINUOUS
  5
246
 10
163.865333
 20
408.241437
 30
0.0
 11
166.619181
 21
410.995284
 31
0.0
  0
LINE
  8
LC-006-005-----0
  6
CONTINUOUS
  5
247
 10
163.865333
 20
408.807122
 30
0.0
 11
166.053495
 21
410.995284
 31
0.0
  0
LINE
  8
LC-006-005-----0
  6
CONTINUOUS
  5
248
 10
163.865333
 20
409.372808
 30
0.0
 11
165.48781
 21
410.995284
 31
0.0
  0
LINE
  8
LC-006-005-----0
  6
CONTINUOUS
  5
249
 10
163.865333
 20
409.938493
 30
0.0
 11
164.922124
 21
410.995284
 31
0.0
  0
LINE
  8
LC-006-005-----0
  6
CONTINUOUS
  5
24A
 10
163.865333
 20
410.504179
 30
0.0
 11
164.356439
 21
410.995284
 31
0.0
  0
ENDBLK
  8
0
  5
24B
  0
BLOCK
  8
0
  5
24D
  2
*X13
 70
    65
 10
183.865333
 20
406.295284
 30
0.0
  3
*X13
  0
LINE
  8
LC-006-005-----0
  6
CONTINUOUS
  5
24E
 10
193.597564
 20
406.295284
 30
0.0
 11
193.865333
 21
406.563053
 31
0.0
  0
LINE
  8
LC-006-005-----0
  6
CONTINUOUS
  5
24F
 10
193.031879
 20
406.295284
 30
0.0
 11
193.865333
 21
407.128739
 31
0.0
  0
LINE
  8
LC-006-005-----0
  6
CONTINUOUS
  5
250
 10
192.466194
 20
406.295284
 30
0.0
 11
193.865333
 21
407.694424
 31
0.0
  0
LINE
  8
LC-006-005-----0
  6
CONTINUOUS
  5
251
 10
191.900508
 20
406.295284
 30
0.0
 11
193.865333
 21
408.260109
 31
0.0
  0
LINE
  8
LC-006-005-----0
  6
CONTINUOUS
  5
252
 10
191.334823
 20
406.295284
 30
0.0
 11
193.865333
 21
408.825795
 31
0.0
  0
LINE
  8
LC-006-005-----0
  6
CONTINUOUS
  5
253
 10
190.769137
 20
406.295284
 30
0.0
 11
193.865333
 21
409.39148
 31
0.0
  0
LINE
  8
LC-006-005-----0
  6
CONTINUOUS
  5
254
 10
190.203452
 20
406.295284
 30
0.0
 11
193.865333
 21
409.957166
 31
0.0
  0
LINE
  8
LC-006-005-----0
  6
CONTINUOUS
  5
255
 10
189.637766
 20
406.295284
 30
0.0
 11
193.865333
 21
410.522851
 31
0.0
  0
LINE
  8
LC-006-005-----0
  6
CONTINUOUS
  5
256
 10
189.072081
 20
406.295284
 30
0.0
 11
193.772081
 21
410.995284
 31
0.0
  0
LINE
  8
LC-006-005-----0
  6
CONTINUOUS
  5
257
 10
188.506396
 20
406.295284
 30
0.0
 11
193.206396
 21
410.995284
 31
0.0
  0
LINE
  8
LC-006-005-----0
  6
CONTINUOUS
  5
258
 10
187.94071
 20
406.295284
 30
0.0
 11
192.64071
 21
410.995284
 31
0.0
  0
LINE
  8
LC-006-005-----0
  6
CONTINUOUS
  5
259
 10
187.375025
 20
406.295284
 30
0.0
 11
192.075025
 21
410.995284
 31
0.0
  0
LINE
  8
LC-006-005-----0
  6
CONTINUOUS
  5
25A
 10
186.809339
 20
406.295284
 30
0.0
 11
191.509339
 21
410.995284
 31
0.0
  0
LINE
  8
LC-006-005-----0
  6
CONTINUOUS
  5
25B
 10
186.243654
 20
406.295284
 30
0.0
 11
190.943654
 21
410.995284
 31
0.0
  0
LINE
  8
LC-006-005-----0
  6
CONTINUOUS
  5
25C
 10
185.677968
 20
406.295284
 30
0.0
 11
190.377968
 21
410.995284
 31
0.0
  0
LINE
  8
LC-006-005-----0
  6
CONTINUOUS
  5
25D
 10
185.112283
 20
406.295284
 30
0.0
 11
189.812283
 21
410.995284
 31
0.0
  0
LINE
  8
LC-006-005-----0
  6
CONTINUOUS
  5
25E
 10
184.546598
 20
406.295284
 30
0.0
 11
189.246598
 21
410.995284
 31
0.0
  0
LINE
  8
LC-006-005-----0
  6
CONTINUOUS
  5
25F
 10
183.980912
 20
406.295284
 30
0.0
 11
188.680912
 21
410.995284
 31
0.0
  0
LINE
  8
LC-006-005-----0
  6
CONTINUOUS
  5
260
 10
183.865333
 20
406.745391
 30
0.0
 11
188.115227
 21
410.995284
 31
0.0
  0
LINE
  8
LC-006-005-----0
  6
CONTINUOUS
  5
261
 10
183.865333
 20
407.311076
 30
0.0
 11
187.549541
 21
410.995284
 31
0.0
  0
LINE
  8
LC-006-005-----0
  6
CONTINUOUS
  5
262
 10
183.865333
 20
407.876762
 30
0.0
 11
186.983856
 21
410.995284
 31
0.0
  0
LINE
  8
LC-006-005-----0
  6
CONTINUOUS
  5
263
 10
183.865333
 20
408.442447
 30
0.0
 11
186.41817
 21
410.995284
 31
0.0
  0
LINE
  8
LC-006-005-----0
  6
CONTINUOUS
  5
264
 10
183.865333
 20
409.008132
 30
0.0
 11
185.852485
 21
410.995284
 31
0.0
  0
LINE
  8
LC-006-005-----0
  6
CONTINUOUS
  5
265
 10
183.865333
 20
409.573818
 30
0.0
 11
185.2868
 21
410.995284
 31
0.0
  0
LINE
  8
LC-006-005-----0
  6
CONTINUOUS
  5
266
 10
183.865333
 20
410.139503
 30
0.0
 11
184.721114
 21
410.995284
 31
0.0
  0
LINE
  8
LC-006-005-----0
  6
CONTINUOUS
  5
267
 10
183.865333
 20
410.705189
 30
0.0
 11
184.155429
 21
410.995284
 31
0.0
  0
ENDBLK
  8
0
  5
268
  0
BLOCK
  8
0
  5
26A
  2
*X14
 70
    65
 10
203.865333
 20
406.295284
 30
0.0
  3
*X14
  0
LINE
  8
LC-006-005-----0
  6
CONTINUOUS
  5
26B
 10
213.396554
 20
406.295284
 30
0.0
 11
213.865333
 21
406.764063
 31
0.0
  0
LINE
  8
LC-006-005-----0
  6
CONTINUOUS
  5
26C
 10
212.830869
 20
406.295284
 30
0.0
 11
213.865333
 21
407.329749
 31
0.0
  0
LINE
  8
LC-006-005-----0
  6
CONTINUOUS
  5
26D
 10
212.265183
 20
406.295284
 30
0.0
 11
213.865333
 21
407.895434
 31
0.0
  0
LINE
  8
LC-006-005-----0
  6
CONTINUOUS
  5
26E
 10
211.699498
 20
406.295284
 30
0.0
 11
213.865333
 21
408.46112
 31
0.0
  0
LINE
  8
LC-006-005-----0
  6
CONTINUOUS
  5
26F
 10
211.133813
 20
406.295284
 30
0.0
 11
213.865333
 21
409.026805
 31
0.0
  0
LINE
  8
LC-006-005-----0
  6
CONTINUOUS
  5
270
 10
210.568127
 20
406.295284
 30
0.0
 11
213.865333
 21
409.59249
 31
0.0
  0
LINE
  8
LC-006-005-----0
  6
CONTINUOUS
  5
271
 10
210.002442
 20
406.295284
 30
0.0
 11
213.865333
 21
410.158176
 31
0.0
  0
LINE
  8
LC-006-005-----0
  6
CONTINUOUS
  5
272
 10
209.436756
 20
406.295284
 30
0.0
 11
213.865333
 21
410.723861
 31
0.0
  0
LINE
  8
LC-006-005-----0
  6
CONTINUOUS
  5
273
 10
208.871071
 20
406.295284
 30
0.0
 11
213.571071
 21
410.995284
 31
0.0
  0
LINE
  8
LC-006-005-----0
  6
CONTINUOUS
  5
274
 10
208.305385
 20
406.295284
 30
0.0
 11
213.005385
 21
410.995284
 31
0.0
  0
LINE
  8
LC-006-005-----0
  6
CONTINUOUS
  5
275
 10
207.7397
 20
406.295284
 30
0.0
 11
212.4397
 21
410.995284
 31
0.0
  0
LINE
  8
LC-006-005-----0
  6
CONTINUOUS
  5
276
 10
207.174015
 20
406.295284
 30
0.0
 11
211.874015
 21
410.995284
 31
0.0
  0
LINE
  8
LC-006-005-----0
  6
CONTINUOUS
  5
277
 10
206.608329
 20
406.295284
 30
0.0
 11
211.308329
 21
410.995284
 31
0.0
  0
LINE
  8
LC-006-005-----0
  6
CONTINUOUS
  5
278
 10
206.042644
 20
406.295284
 30
0.0
 11
210.742644
 21
410.995284
 31
0.0
  0
LINE
  8
LC-006-005-----0
  6
CONTINUOUS
  5
279
 10
205.476958
 20
406.295284
 30
0.0
 11
210.176958
 21
410.995284
 31
0.0
  0
LINE
  8
LC-006-005-----0
  6
CONTINUOUS
  5
27A
 10
204.911273
 20
406.295284
 30
0.0
 11
209.611273
 21
410.995284
 31
0.0
  0
LINE
  8
LC-006-005-----0
  6
CONTINUOUS
  5
27B
 10
204.345587
 20
406.295284
 30
0.0
 11
209.045587
 21
410.995284
 31
0.0
  0
LINE
  8
LC-006-005-----0
  6
CONTINUOUS
  5
27C
 10
203.865333
 20
406.380715
 30
0.0
 11
208.479902
 21
410.995284
 31
0.0
  0
LINE
  8
LC-006-005-----0
  6
CONTINUOUS
  5
27D
 10
203.865333
 20
406.946401
 30
0.0
 11
207.914217
 21
410.995284
 31
0.0
  0
LINE
  8
LC-006-005-----0
  6
CONTINUOUS
  5
27E
 10
203.865333
 20
407.512086
 30
0.0
 11
207.348531
 21
410.995284
 31
0.0
  0
LINE
  8
LC-006-005-----0
  6
CONTINUOUS
  5
27F
 10
203.865333
 20
408.077772
 30
0.0
 11
206.782846
 21
410.995284
 31
0.0
  0
LINE
  8
LC-006-005-----0
  6
CONTINUOUS
  5
280
 10
203.865333
 20
408.643457
 30
0.0
 11
206.21716
 21
410.995284
 31
0.0
  0
LINE
  8
LC-006-005-----0
  6
CONTINUOUS
  5
281
 10
203.865333
 20
409.209143
 30
0.0
 11
205.651475
 21
410.995284
 31
0.0
  0
LINE
  8
LC-006-005-----0
  6
CONTINUOUS
  5
282
 10
203.865333
 20
409.774828
 30
0.0
 11
205.085789
 21
410.995284
 31
0.0
  0
LINE
  8
LC-006-005-----0
  6
CONTINUOUS
  5
283
 10
203.865333
 20
410.340513
 30
0.0
 11
204.520104
 21
410.995284
 31
0.0
  0
LINE
  8
LC-006-005-----0
  6
CONTINUOUS
  5
284
 10
203.865333
 20
410.906199
 30
0.0
 11
203.954419
 21
410.995284
 31
0.0
  0
ENDBLK
  8
0
  5
285
  0
BLOCK
  8
0
  5
287
  2
*X15
 70
    65
 10
223.865333
 20
406.295284
 30
0.0
  3
*X15
  0
LINE
  8
LC-006-005-----0
  6
CONTINUOUS
  5
288
 10
233.76123
 20
406.295284
 30
0.0
 11
233.865333
 21
406.399388
 31
0.0
  0
LINE
  8
LC-006-005-----0
  6
CONTINUOUS
  5
289
 10
233.195544
 20
406.295284
 30
0.0
 11
233.865333
 21
406.965073
 31
0.0
  0
LINE
  8
LC-006-005-----0
  6
CONTINUOUS
  5
28A
 10
232.629859
 20
406.295284
 30
0.0
 11
233.865333
 21
407.530759
 31
0.0
  0
LINE
  8
LC-006-005-----0
  6
CONTINUOUS
  5
28B
 10
232.064173
 20
406.295284
 30
0.0
 11
233.865333
 21
408.096444
 31
0.0
  0
LINE
  8
LC-006-005-----0
  6
CONTINUOUS
  5
28C
 10
231.498488
 20
406.295284
 30
0.0
 11
233.865333
 21
408.66213
 31
0.0
  0
LINE
  8
LC-006-005-----0
  6
CONTINUOUS
  5
28D
 10
230.932802
 20
406.295284
 30
0.0
 11
233.865333
 21
409.227815
 31
0.0
  0
LINE
  8
LC-006-005-----0
  6
CONTINUOUS
  5
28E
 10
230.367117
 20
406.295284
 30
0.0
 11
233.865333
 21
409.793501
 31
0.0
  0
LINE
  8
LC-006-005-----0
  6
CONTINUOUS
  5
28F
 10
229.801432
 20
406.295284
 30
0.0
 11
233.865333
 21
410.359186
 31
0.0
  0
LINE
  8
LC-006-005-----0
  6
CONTINUOUS
  5
290
 10
229.235746
 20
406.295284
 30
0.0
 11
233.865333
 21
410.924871
 31
0.0
  0
LINE
  8
LC-006-005-----0
  6
CONTINUOUS
  5
291
 10
228.670061
 20
406.295284
 30
0.0
 11
233.370061
 21
410.995284
 31
0.0
  0
LINE
  8
LC-006-005-----0
  6
CONTINUOUS
  5
292
 10
228.104375
 20
406.295284
 30
0.0
 11
232.804375
 21
410.995284
 31
0.0
  0
LINE
  8
LC-006-005-----0
  6
CONTINUOUS
  5
293
 10
227.53869
 20
406.295284
 30
0.0
 11
232.23869
 21
410.995284
 31
0.0
  0
LINE
  8
LC-006-005-----0
  6
CONTINUOUS
  5
294
 10
226.973004
 20
406.295284
 30
0.0
 11
231.673004
 21
410.995284
 31
0.0
  0
LINE
  8
LC-006-005-----0
  6
CONTINUOUS
  5
295
 10
226.407319
 20
406.295284
 30
0.0
 11
231.107319
 21
410.995284
 31
0.0
  0
LINE
  8
LC-006-005-----0
  6
CONTINUOUS
  5
296
 10
225.841634
 20
406.295284
 30
0.0
 11
230.541634
 21
410.995284
 31
0.0
  0
LINE
  8
LC-006-005-----0
  6
CONTINUOUS
  5
297
 10
225.275948
 20
406.295284
 30
0.0
 11
229.975948
 21
410.995284
 31
0.0
  0
LINE
  8
LC-006-005-----0
  6
CONTINUOUS
  5
298
 10
224.710263
 20
406.295284
 30
0.0
 11
229.410263
 21
410.995284
 31
0.0
  0
LINE
  8
LC-006-005-----0
  6
CONTINUOUS
  5
299
 10
224.144577
 20
406.295284
 30
0.0
 11
228.844577
 21
410.995284
 31
0.0
  0
LINE
  8
LC-006-005-----0
  6
CONTINUOUS
  5
29A
 10
223.865333
 20
406.581726
 30
0.0
 11
228.278892
 21
410.995284
 31
0.0
  0
LINE
  8
LC-006-005-----0
  6
CONTINUOUS
  5
29B
 10
223.865333
 20
407.147411
 30
0.0
 11
227.713206
 21
410.995284
 31
0.0
  0
LINE
  8
LC-006-005-----0
  6
CONTINUOUS
  5
29C
 10
223.865333
 20
407.713096
 30
0.0
 11
227.147521
 21
410.995284
 31
0.0
  0
LINE
  8
LC-006-005-----0
  6
CONTINUOUS
  5
29D
 10
223.865333
 20
408.278782
 30
0.0
 11
226.581836
 21
410.995284
 31
0.0
  0
LINE
  8
LC-006-005-----0
  6
CONTINUOUS
  5
29E
 10
223.865333
 20
408.844467
 30
0.0
 11
226.01615
 21
410.995284
 31
0.0
  0
LINE
  8
LC-006-005-----0
  6
CONTINUOUS
  5
29F
 10
223.865333
 20
409.410153
 30
0.0
 11
225.450465
 21
410.995284
 31
0.0
  0
LINE
  8
LC-006-005-----0
  6
CONTINUOUS
  5
2A0
 10
223.865333
 20
409.975838
 30
0.0
 11
224.884779
 21
410.995284
 31
0.0
  0
LINE
  8
LC-006-005-----0
  6
CONTINUOUS
  5
2A1
 10
223.865333
 20
410.541524
 30
0.0
 11
224.319094
 21
410.995284
 31
0.0
  0
ENDBLK
  8
0
  5
2A2
  0
BLOCK
  8
0
  5
2A4
  2
*X16
 70
    65
 10
462.174941
 20
384.140477
 30
0.0
  3
*X16
  0
LINE
  8
LC-006-005-----0
  6
CONTINUOUS
  5
2A5
 10
468.993291
 20
384.140477
 30
0.0
 11
472.174941
 21
387.322127
 31
0.0
  0
LINE
  8
LC-006-005-----0
  6
CONTINUOUS
  5
2A6
 10
466.164864
 20
384.140477
 30
0.0
 11
468.664864
 21
386.640477
 31
0.0
  0
LINE
  8
LC-006-005-----0
  6
CONTINUOUS
  5
2A7
 10
469.674941
 20
387.650554
 30
0.0
 11
472.174941
 21
390.150554
 31
0.0
  0
LINE
  8
LC-006-005-----0
  6
CONTINUOUS
  5
2A8
 10
463.336437
 20
384.140477
 30
0.0
 11
465.836437
 21
386.640477
 31
0.0
  0
LINE
  8
LC-006-005-----0
  6
CONTINUOUS
  5
2A9
 10
469.674941
 20
390.478981
 30
0.0
 11
472.174941
 21
392.978981
 31
0.0
  0
LINE
  8
LC-006-005-----0
  6
CONTINUOUS
  5
2AA
 10
462.174941
 20
385.807408
 30
0.0
 11
463.00801
 21
386.640477
 31
0.0
  0
LINE
  8
LC-006-005-----0
  6
CONTINUOUS
  5
2AB
 10
469.674941
 20
393.307408
 30
0.0
 11
472.174941
 21
395.807408
 31
0.0
  0
LINE
  8
LC-006-005-----0
  6
CONTINUOUS
  5
2AC
 10
469.674941
 20
396.135835
 30
0.0
 11
472.174941
 21
398.635835
 31
0.0
  0
LINE
  8
LC-006-005-----0
  6
CONTINUOUS
  5
2AD
 10
469.674941
 20
398.964263
 30
0.0
 11
472.174941
 21
401.464263
 31
0.0
  0
LINE
  8
LC-006-005-----0
  6
CONTINUOUS
  5
2AE
 10
469.674941
 20
401.79269
 30
0.0
 11
472.022373
 21
404.140122
 31
0.0
  0
ENDBLK
  8
0
  5
2AF
  0
BLOCK
  8
0
  5
2B1
  2
*X17
 70
    65
 10
315.174941
 20
384.140477
 30
0.0
  3
*X17
  0
LINE
  8
LC-006-005-----0
  6
CONTINUOUS
  5
2B2
 10
324.743508
 20
384.140477
 30
0.0
 11
325.174941
 21
384.57191
 31
0.0
  0
LINE
  8
LC-006-005-----0
  6
CONTINUOUS
  5
2B3
 10
321.915081
 20
384.140477
 30
0.0
 11
324.415081
 21
386.640477
 31
0.0
  0
LINE
  8
LC-006-005-----0
  6
CONTINUOUS
  5
2B4
 10
319.086653
 20
384.140477
 30
0.0
 11
321.586653
 21
386.640477
 31
0.0
  0
LINE
  8
LC-006-005-----0
  6
CONTINUOUS
  5
2B5
 10
317.216583
 20
385.098834
 30
0.0
 11
318.758226
 21
386.640477
 31
0.0
  0
LINE
  8
LC-006-005-----0
  6
CONTINUOUS
  5
2B6
 10
315.80237
 20
386.513048
 30
0.0
 11
317.674941
 21
388.385619
 31
0.0
  0
LINE
  8
LC-006-005-----0
  6
CONTINUOUS
  5
2B7
 10
315.174941
 20
388.714046
 30
0.0
 11
317.674941
 21
391.214046
 31
0.0
  0
LINE
  8
LC-006-005-----0
  6
CONTINUOUS
  5
2B8
 10
315.174941
 20
391.542473
 30
0.0
 11
317.674941
 21
394.042473
 31
0.0
  0
LINE
  8
LC-006-005-----0
  6
CONTINUOUS
  5
2B9
 10
315.174941
 20
394.3709
 30
0.0
 11
317.674941
 21
396.8709
 31
0.0
  0
LINE
  8
LC-006-005-----0
  6
CONTINUOUS
  5
2BA
 10
315.174941
 20
397.199327
 30
0.0
 11
317.674941
 21
399.699327
 31
0.0
  0
LINE
  8
LC-006-005-----0
  6
CONTINUOUS
  5
2BB
 10
315.174941
 20
400.027754
 30
0.0
 11
317.674941
 21
402.527754
 31
0.0
  0
LINE
  8
LC-006-005-----0
  6
CONTINUOUS
  5
2BC
 10
315.174941
 20
402.856182
 30
0.0
 11
316.458881
 21
404.140122
 31
0.0
  0
ENDBLK
  8
0
  5
2BD
  0
BLOCK
  8
0
  5
2BF
  2
*X18
 70
    65
 10
465.937335
 20
377.53981
 30
0.0
  3
*X18
  0
LINE
  8
LC-006-005-----0
  6
CONTINUOUS
  5
2C0
 10
468.049478
 20
377.53981
 30
0.0
 11
468.749478
 21
378.23981
 31
0.0
  0
LINE
  8
LC-006-005-----0
  6
CONTINUOUS
  5
2C1
 10
470.056306
 20
379.546638
 30
0.0
 11
470.552584
 21
380.042916
 31
0.0
  0
LINE
  8
LC-006-005-----0
  6
CONTINUOUS
  5
2C2
 10
499.648283
 20
409.138615
 30
0.0
 11
501.238836
 21
410.729168
 31
0.0
  0
LINE
  8
LC-006-005-----0
  6
CONTINUOUS
  5
2C3
 10
468.440578
 20
380.759337
 30
0.0
 11
469.137335
 21
381.456094
 31
0.0
  0
LINE
  8
LC-006-005-----0
  6
CONTINUOUS
  5
2C4
 10
495.781349
 20
408.100108
 30
0.0
 11
496.536123
 21
408.854883
 31
0.0
  0
LINE
  8
LC-006-005-----0
  6
CONTINUOUS
  5
2C5
 10
472.237335
 20
387.384521
 30
0.0
 11
472.937335
 21
388.084521
 31
0.0
  0
LINE
  8
LC-006-005-----0
  6
CONTINUOUS
  5
2C6
 10
492.740269
 20
407.887455
 30
0.0
 11
493.48336
 21
408.630546
 31
0.0
  0
LINE
  8
LC-006-005-----0
  6
CONTINUOUS
  5
2C7
 10
472.237335
 20
390.212948
 30
0.0
 11
472.937335
 21
390.912948
 31
0.0
  0
LINE
  8
LC-006-005-----0
  6
CONTINUOUS
  5
2C8
 10
489.699188
 20
407.674802
 30
0.0
 11
490.44228
 21
408.417893
 31
0.0
  0
LINE
  8
LC-006-005-----0
  6
CONTINUOUS
  5
2C9
 10
472.237335
 20
393.041376
 30
0.0
 11
472.937335
 21
393.741376
 31
0.0
  0
LINE
  8
LC-006-005-----0
  6
CONTINUOUS
  5
2CA
 10
486.658108
 20
407.462149
 30
0.0
 11
487.401199
 21
408.20524
 31
0.0
  0
LINE
  8
LC-006-005-----0
  6
CONTINUOUS
  5
2CB
 10
472.237335
 20
395.869803
 30
0.0
 11
472.937335
 21
396.569803
 31
0.0
  0
LINE
  8
LC-006-005-----0
  6
CONTINUOUS
  5
2CC
 10
483.617028
 20
407.249496
 30
0.0
 11
484.360119
 21
407.992587
 31
0.0
  0
LINE
  8
LC-006-005-----0
  6
CONTINUOUS
  5
2CD
 10
472.237335
 20
398.69823
 30
0.0
 11
472.937335
 21
399.39823
 31
0.0
  0
LINE
  8
LC-006-005-----0
  6
CONTINUOUS
  5
2CE
 10
480.575948
 20
407.036843
 30
0.0
 11
481.319039
 21
407.779934
 31
0.0
  0
LINE
  8
LC-006-005-----0
  6
CONTINUOUS
  5
2CF
 10
472.305999
 20
401.595321
 30
0.0
 11
473.227053
 21
402.516375
 31
0.0
  0
LINE
  8
LC-006-005-----0
  6
CONTINUOUS
  5
2D0
 10
477.348814
 20
406.638136
 30
0.0
 11
478.259288
 21
407.54861
 31
0.0
  0
ENDBLK
  8
0
  5
2D1
  0
BLOCK
  8
0
  5
2D3
  2
BLK3
 70
    64
 10
0.0
 20
0.0
 30
0.0
  3
BLK3
  0
ENDBLK
  8
0
  5
2D4
  0
BLOCK
  8
0
  5
2D6
  2
*X20
 70
    65
 10
243.708518
 20
406.107391
 30
0.0
  3
*X20
  0
LINE
  8
LC-006-005-----0
  6
CONTINUOUS
  5
2D7
 10
253.378224
 20
406.113288
 30
0.0
 11
253.7222
 21
406.457265
 31
0.0
  0
LINE
  8
LC-006-005-----0
  6
CONTINUOUS
  5
2D8
 10
252.822243
 20
406.122993
 30
0.0
 11
253.73225
 21
407.033
 31
0.0
  0
LINE
  8
LC-006-005-----0
  6
CONTINUOUS
  5
2D9
 10
252.266262
 20
406.132698
 30
0.0
 11
253.742299
 21
407.608735
 31
0.0
  0
LINE
  8
LC-006-005-----0
  6
CONTINUOUS
  5
2DA
 10
251.710281
 20
406.142402
 30
0.0
 11
253.752349
 21
408.18447
 31
0.0
  0
LINE
  8
LC-006-005-----0
  6
CONTINUOUS
  5
2DB
 10
251.154301
 20
406.152107
 30
0.0
 11
253.762398
 21
408.760205
 31
0.0
  0
LINE
  8
LC-006-005-----0
  6
CONTINUOUS
  5
2DC
 10
250.59832
 20
406.161812
 30
0.0
 11
253.772448
 21
409.335939
 31
0.0
  0
LINE
  8
LC-006-005-----0
  6
CONTINUOUS
  5
2DD
 10
250.042339
 20
406.171517
 30
0.0
 11
253.782497
 21
409.911674
 31
0.0
  0
LINE
  8
LC-006-005-----0
  6
CONTINUOUS
  5
2DE
 10
249.486358
 20
406.181221
 30
0.0
 11
253.792547
 21
410.487409
 31
0.0
  0
LINE
  8
LC-006-005-----0
  6
CONTINUOUS
  5
2DF
 10
248.930378
 20
406.190926
 30
0.0
 11
253.55045
 21
410.810998
 31
0.0
  0
LINE
  8
LC-006-005-----0
  6
CONTINUOUS
  5
2E0
 10
248.374397
 20
406.200631
 30
0.0
 11
252.994469
 21
410.820703
 31
0.0
  0
LINE
  8
LC-006-005-----0
  6
CONTINUOUS
  5
2E1
 10
247.818416
 20
406.210335
 30
0.0
 11
252.438489
 21
410.830408
 31
0.0
  0
LINE
  8
LC-006-005-----0
  6
CONTINUOUS
  5
2E2
 10
247.262436
 20
406.22004
 30
0.0
 11
251.882508
 21
410.840112
 31
0.0
  0
LINE
  8
LC-006-005-----0
  6
CONTINUOUS
  5
2E3
 10
246.706455
 20
406.229745
 30
0.0
 11
251.326527
 21
410.849817
 31
0.0
  0
LINE
  8
LC-006-005-----0
  6
CONTINUOUS
  5
2E4
 10
246.150474
 20
406.239449
 30
0.0
 11
250.770546
 21
410.859522
 31
0.0
  0
LINE
  8
LC-006-005-----0
  6
CONTINUOUS
  5
2E5
 10
245.594493
 20
406.249154
 30
0.0
 11
250.214566
 21
410.869226
 31
0.0
  0
LINE
  8
LC-006-005-----0
  6
CONTINUOUS
  5
2E6
 10
245.038513
 20
406.258859
 30
0.0
 11
249.658585
 21
410.878931
 31
0.0
  0
LINE
  8
LC-006-005-----0
  6
CONTINUOUS
  5
2E7
 10
244.482532
 20
406.268563
 30
0.0
 11
249.102604
 21
410.888636
 31
0.0
  0
LINE
  8
LC-006-005-----0
  6
CONTINUOUS
  5
2E8
 10
243.926551
 20
406.278268
 30
0.0
 11
248.546623
 21
410.89834
 31
0.0
  0
LINE
  8
LC-006-005-----0
  6
CONTINUOUS
  5
2E9
 10
243.714626
 20
406.632029
 30
0.0
 11
247.990643
 21
410.908045
 31
0.0
  0
LINE
  8
LC-006-005-----0
  6
CONTINUOUS
  5
2EA
 10
243.724676
 20
407.207764
 30
0.0
 11
247.434662
 21
410.91775
 31
0.0
  0
LINE
  8
LC-006-005-----0
  6
CONTINUOUS
  5
2EB
 10
243.734725
 20
407.783498
 30
0.0
 11
246.878681
 21
410.927454
 31
0.0
  0
LINE
  8
LC-006-005-----0
  6
CONTINUOUS
  5
2EC
 10
243.744775
 20
408.359233
 30
0.0
 11
246.3227
 21
410.937159
 31
0.0
  0
LINE
  8
LC-006-005-----0
  6
CONTINUOUS
  5
2ED
 10
243.754824
 20
408.934968
 30
0.0
 11
245.76672
 21
410.946864
 31
0.0
  0
LINE
  8
LC-006-005-----0
  6
CONTINUOUS
  5
2EE
 10
243.764874
 20
409.510703
 30
0.0
 11
245.210739
 21
410.956568
 31
0.0
  0
LINE
  8
LC-006-005-----0
  6
CONTINUOUS
  5
2EF
 10
243.774923
 20
410.086438
 30
0.0
 11
244.654758
 21
410.966273
 31
0.0
  0
LINE
  8
LC-006-005-----0
  6
CONTINUOUS
  5
2F0
 10
243.784973
 20
410.662173
 30
0.0
 11
244.098777
 21
410.975978
 31
0.0
  0
ENDBLK
  8
0
  5
2F1
  0
BLOCK
  8
0
  5
2F3
  2
*X21
 70
    65
 10
263.728411
 20
405.757942
 30
0.0
  3
*X21
  0
LINE
  8
LC-006-005-----0
  6
CONTINUOUS
  5
2F4
 10
273.393531
 20
405.76392
 30
0.0
 11
273.742176
 21
406.112566
 31
0.0
  0
LINE
  8
LC-006-005-----0
  6
CONTINUOUS
  5
2F5
 10
272.83755
 20
405.773625
 30
0.0
 11
273.752226
 21
406.688301
 31
0.0
  0
LINE
  8
LC-006-005-----0
  6
CONTINUOUS
  5
2F6
 10
272.281569
 20
405.783329
 30
0.0
 11
273.762275
 21
407.264036
 31
0.0
  0
LINE
  8
LC-006-005-----0
  6
CONTINUOUS
  5
2F7
 10
271.725588
 20
405.793034
 30
0.0
 11
273.772325
 21
407.83977
 31
0.0
  0
LINE
  8
LC-006-005-----0
  6
CONTINUOUS
  5
2F8
 10
271.169608
 20
405.802739
 30
0.0
 11
273.782374
 21
408.415505
 31
0.0
  0
LINE
  8
LC-006-005-----0
  6
CONTINUOUS
  5
2F9
 10
270.613627
 20
405.812443
 30
0.0
 11
273.792424
 21
408.99124
 31
0.0
  0
LINE
  8
LC-006-005-----0
  6
CONTINUOUS
  5
2FA
 10
270.057646
 20
405.822148
 30
0.0
 11
273.802473
 21
409.566975
 31
0.0
  0
LINE
  8
LC-006-005-----0
  6
CONTINUOUS
  5
2FB
 10
269.501665
 20
405.831853
 30
0.0
 11
273.812523
 21
410.14271
 31
0.0
  0
LINE
  8
LC-006-005-----0
  6
CONTINUOUS
  5
2FC
 10
268.945685
 20
405.841557
 30
0.0
 11
273.565757
 21
410.46163
 31
0.0
  0
LINE
  8
LC-006-005-----0
  6
CONTINUOUS
  5
2FD
 10
268.389704
 20
405.851262
 30
0.0
 11
273.009776
 21
410.471334
 31
0.0
  0
LINE
  8
LC-006-005-----0
  6
CONTINUOUS
  5
2FE
 10
267.833723
 20
405.860967
 30
0.0
 11
272.453795
 21
410.481039
 31
0.0
  0
LINE
  8
LC-006-005-----0
  6
CONTINUOUS
  5
2FF
 10
267.277742
 20
405.870671
 30
0.0
 11
271.897815
 21
410.490744
 31
0.0
  0
LINE
  8
LC-006-005-----0
  6
CONTINUOUS
  5
300
 10
266.721762
 20
405.880376
 30
0.0
 11
271.341834
 21
410.500448
 31
0.0
  0
LINE
  8
LC-006-005-----0
  6
CONTINUOUS
  5
301
 10
266.165781
 20
405.890081
 30
0.0
 11
270.785853
 21
410.510153
 31
0.0
  0
LINE
  8
LC-006-005-----0
  6
CONTINUOUS
  5
302
 10
265.6098
 20
405.899785
 30
0.0
 11
270.229872
 21
410.519858
 31
0.0
  0
LINE
  8
LC-006-005-----0
  6
CONTINUOUS
  5
303
 10
265.053819
 20
405.90949
 30
0.0
 11
269.673892
 21
410.529562
 31
0.0
  0
LINE
  8
LC-006-005-----0
  6
CONTINUOUS
  5
304
 10
264.497839
 20
405.919195
 30
0.0
 11
269.117911
 21
410.539267
 31
0.0
  0
LINE
  8
LC-006-005-----0
  6
CONTINUOUS
  5
305
 10
263.941858
 20
405.9289
 30
0.0
 11
268.56193
 21
410.548972
 31
0.0
  0
LINE
  8
LC-006-005-----0
  6
CONTINUOUS
  5
306
 10
263.734602
 20
406.28733
 30
0.0
 11
268.005949
 21
410.558676
 31
0.0
  0
LINE
  8
LC-006-005-----0
  6
CONTINUOUS
  5
307
 10
263.744652
 20
406.863064
 30
0.0
 11
267.449969
 21
410.568381
 31
0.0
  0
LINE
  8
LC-006-005-----0
  6
CONTINUOUS
  5
308
 10
263.754701
 20
407.438799
 30
0.0
 11
266.893988
 21
410.578086
 31
0.0
  0
LINE
  8
LC-006-005-----0
  6
CONTINUOUS
  5
309
 10
263.764751
 20
408.014534
 30
0.0
 11
266.338007
 21
410.587791
 31
0.0
  0
LINE
  8
LC-006-005-----0
  6
CONTINUOUS
  5
30A
 10
263.7748
 20
408.590269
 30
0.0
 11
265.782026
 21
410.597495
 31
0.0
  0
LINE
  8
LC-006-005-----0
  6
CONTINUOUS
  5
30B
 10
263.78485
 20
409.166004
 30
0.0
 11
265.226046
 21
410.6072
 31
0.0
  0
LINE
  8
LC-006-005-----0
  6
CONTINUOUS
  5
30C
 10
263.794899
 20
409.741739
 30
0.0
 11
264.670065
 21
410.616905
 31
0.0
  0
LINE
  8
LC-006-005-----0
  6
CONTINUOUS
  5
30D
 10
263.804949
 20
410.317474
 30
0.0
 11
264.114084
 21
410.626609
 31
0.0
  0
ENDBLK
  8
0
  5
30E
  0
BLOCK
  8
0
  5
310
  2
*X22
 70
    65
 10
283.865333
 20
403.228023
 30
0.0
  3
*X22
  0
LINE
  8
LC-006-005-----0
  6
CONTINUOUS
  5
311
 10
293.509905
 20
403.252877
 30
0.0
 11
293.865333
 21
403.608306
 31
0.0
  0
LINE
  8
LC-006-005-----0
  6
CONTINUOUS
  5
312
 10
292.981191
 20
403.289848
 30
0.0
 11
293.865333
 21
404.173991
 31
0.0
  0
LINE
  8
LC-006-005-----0
  6
CONTINUOUS
  5
313
 10
292.452476
 20
403.32682
 30
0.0
 11
293.865333
 21
404.739677
 31
0.0
  0
LINE
  8
LC-006-005-----0
  6
CONTINUOUS
  5
314
 10
291.923762
 20
403.363791
 30
0.0
 11
293.865333
 21
405.305362
 31
0.0
  0
LINE
  8
LC-006-005-----0
  6
CONTINUOUS
  5
315
 10
291.395048
 20
403.400762
 30
0.0
 11
293.865333
 21
405.871047
 31
0.0
  0
LINE
  8
LC-006-005-----0
  6
CONTINUOUS
  5
316
 10
290.866334
 20
403.437733
 30
0.0
 11
293.865333
 21
406.436733
 31
0.0
  0
LINE
  8
LC-006-005-----0
  6
CONTINUOUS
  5
317
 10
290.33762
 20
403.474705
 30
0.0
 11
293.865333
 21
407.002418
 31
0.0
  0
LINE
  8
LC-006-005-----0
  6
CONTINUOUS
  5
318
 10
289.808906
 20
403.511676
 30
0.0
 11
293.865333
 21
407.568104
 31
0.0
  0
LINE
  8
LC-006-005-----0
  6
CONTINUOUS
  5
319
 10
289.280191
 20
403.548647
 30
0.0
 11
293.683742
 21
407.952198
 31
0.0
  0
LINE
  8
LC-006-005-----0
  6
CONTINUOUS
  5
31A
 10
288.751477
 20
403.585619
 30
0.0
 11
293.155028
 21
407.989169
 31
0.0
  0
LINE
  8
LC-006-005-----0
  6
CONTINUOUS
  5
31B
 10
288.222763
 20
403.62259
 30
0.0
 11
292.626314
 21
408.026141
 31
0.0
  0
LINE
  8
LC-006-005-----0
  6
CONTINUOUS
  5
31C
 10
287.694049
 20
403.659561
 30
0.0
 11
292.0976
 21
408.063112
 31
0.0
  0
LINE
  8
LC-006-005-----0
  6
CONTINUOUS
  5
31D
 10
287.165335
 20
403.696532
 30
0.0
 11
291.568886
 21
408.100083
 31
0.0
  0
LINE
  8
LC-006-005-----0
  6
CONTINUOUS
  5
31E
 10
286.636621
 20
403.733504
 30
0.0
 11
291.040172
 21
408.137054
 31
0.0
  0
LINE
  8
LC-006-005-----0
  6
CONTINUOUS
  5
31F
 10
286.107906
 20
403.770475
 30
0.0
 11
290.511457
 21
408.174026
 31
0.0
  0
LINE
  8
LC-006-005-----0
  6
CONTINUOUS
  5
320
 10
285.627418
 20
403.855672
 30
0.0
 11
289.982743
 21
408.210997
 31
0.0
  0
LINE
  8
LC-006-005-----0
  6
CONTINUOUS
  5
321
 10
285.2315
 20
404.025439
 30
0.0
 11
289.454029
 21
408.247968
 31
0.0
  0
LINE
  8
LC-006-005-----0
  6
CONTINUOUS
  5
322
 10
284.899884
 20
404.259508
 30
0.0
 11
288.925315
 21
408.28494
 31
0.0
  0
LINE
  8
LC-006-005-----0
  6
CONTINUOUS
  5
323
 10
284.613665
 20
404.538975
 30
0.0
 11
288.396601
 21
408.321911
 31
0.0
  0
LINE
  8
LC-006-005-----0
  6
CONTINUOUS
  5
324
 10
284.330822
 20
404.821818
 30
0.0
 11
287.867887
 21
408.358882
 31
0.0
  0
LINE
  8
LC-006-005-----0
  6
CONTINUOUS
  5
325
 10
284.04798
 20
405.10466
 30
0.0
 11
287.371381
 21
408.428062
 31
0.0
  0
LINE
  8
LC-006-005-----0
  6
CONTINUOUS
  5
326
 10
283.865333
 20
405.4877
 30
0.0
 11
287.088539
 21
408.710905
 31
0.0
  0
LINE
  8
LC-006-005-----0
  6
CONTINUOUS
  5
327
 10
283.865333
 20
406.053385
 30
0.0
 11
286.805696
 21
408.993748
 31
0.0
  0
LINE
  8
LC-006-005-----0
  6
CONTINUOUS
  5
328
 10
283.865333
 20
406.619071
 30
0.0
 11
286.522853
 21
409.27659
 31
0.0
  0
LINE
  8
LC-006-005-----0
  6
CONTINUOUS
  5
329
 10
283.865333
 20
407.184756
 30
0.0
 11
286.240011
 21
409.559433
 31
0.0
  0
LINE
  8
LC-006-005-----0
  6
CONTINUOUS
  5
32A
 10
283.865333
 20
407.750441
 30
0.0
 11
285.957168
 21
409.842276
 31
0.0
  0
LINE
  8
LC-006-005-----0
  6
CONTINUOUS
  5
32B
 10
283.865333
 20
408.316127
 30
0.0
 11
285.674325
 21
410.125119
 31
0.0
  0
LINE
  8
LC-006-005-----0
  6
CONTINUOUS
  5
32C
 10
283.865333
 20
408.881812
 30
0.0
 11
285.241352
 21
410.257831
 31
0.0
  0
LINE
  8
LC-006-005-----0
  6
CONTINUOUS
  5
32D
 10
283.865333
 20
409.447498
 30
0.0
 11
284.685372
 21
410.267536
 31
0.0
  0
LINE
  8
LC-006-005-----0
  6
CONTINUOUS
  5
32E
 10
283.865333
 20
410.013183
 30
0.0
 11
284.129391
 21
410.277241
 31
0.0
  0
ENDBLK
  8
0
  5
32F
  0
BLOCK
  8
0
  5
331
  2
*X23
 70
    65
 10
633.459524
 20
406.295284
 30
0.0
  3
*X23
  0
LINE
  8
LC-006-005-----0
  6
CONTINUOUS
  5
332
 10
643.317477
 20
406.295284
 30
0.0
 11
643.459524
 21
406.437331
 31
0.0
  0
LINE
  8
LC-006-005-----0
  6
CONTINUOUS
  5
333
 10
642.751792
 20
406.295284
 30
0.0
 11
643.459524
 21
407.003017
 31
0.0
  0
LINE
  8
LC-006-005-----0
  6
CONTINUOUS
  5
334
 10
642.186106
 20
406.295284
 30
0.0
 11
643.459524
 21
407.568702
 31
0.0
  0
LINE
  8
LC-006-005-----0
  6
CONTINUOUS
  5
335
 10
641.620421
 20
406.295284
 30
0.0
 11
643.459524
 21
408.134388
 31
0.0
  0
LINE
  8
LC-006-005-----0
  6
CONTINUOUS
  5
336
 10
641.054736
 20
406.295284
 30
0.0
 11
643.459524
 21
408.700073
 31
0.0
  0
LINE
  8
LC-006-005-----0
  6
CONTINUOUS
  5
337
 10
640.48905
 20
406.295284
 30
0.0
 11
643.459524
 21
409.265759
 31
0.0
  0
LINE
  8
LC-006-005-----0
  6
CONTINUOUS
  5
338
 10
639.923365
 20
406.295284
 30
0.0
 11
643.459524
 21
409.831444
 31
0.0
  0
LINE
  8
LC-006-005-----0
  6
CONTINUOUS
  5
339
 10
639.357679
 20
406.295284
 30
0.0
 11
643.459524
 21
410.397129
 31
0.0
  0
LINE
  8
LC-006-005-----0
  6
CONTINUOUS
  5
33A
 10
638.791994
 20
406.295284
 30
0.0
 11
643.459524
 21
410.962815
 31
0.0
  0
LINE
  8
LC-006-005-----0
  6
CONTINUOUS
  5
33B
 10
638.226308
 20
406.295284
 30
0.0
 11
642.926308
 21
410.995284
 31
0.0
  0
LINE
  8
LC-006-005-----0
  6
CONTINUOUS
  5
33C
 10
637.660623
 20
406.295284
 30
0.0
 11
642.360623
 21
410.995284
 31
0.0
  0
LINE
  8
LC-006-005-----0
  6
CONTINUOUS
  5
33D
 10
637.094938
 20
406.295284
 30
0.0
 11
641.794938
 21
410.995284
 31
0.0
  0
LINE
  8
LC-006-005-----0
  6
CONTINUOUS
  5
33E
 10
636.529252
 20
406.295284
 30
0.0
 11
641.229252
 21
410.995284
 31
0.0
  0
LINE
  8
LC-006-005-----0
  6
CONTINUOUS
  5
33F
 10
635.963567
 20
406.295284
 30
0.0
 11
640.663567
 21
410.995284
 31
0.0
  0
LINE
  8
LC-006-005-----0
  6
CONTINUOUS
  5
340
 10
635.397881
 20
406.295284
 30
0.0
 11
640.097881
 21
410.995284
 31
0.0
  0
LINE
  8
LC-006-005-----0
  6
CONTINUOUS
  5
341
 10
634.832196
 20
406.295284
 30
0.0
 11
639.532196
 21
410.995284
 31
0.0
  0
LINE
  8
LC-006-005-----0
  6
CONTINUOUS
  5
342
 10
634.26651
 20
406.295284
 30
0.0
 11
638.96651
 21
410.995284
 31
0.0
  0
LINE
  8
LC-006-005-----0
  6
CONTINUOUS
  5
343
 10
633.700825
 20
406.295284
 30
0.0
 11
638.400825
 21
410.995284
 31
0.0
  0
LINE
  8
LC-006-005-----0
  6
CONTINUOUS
  5
344
 10
633.459524
 20
406.619669
 30
0.0
 11
637.83514
 21
410.995284
 31
0.0
  0
LINE
  8
LC-006-005-----0
  6
CONTINUOUS
  5
345
 10
633.459524
 20
407.185355
 30
0.0
 11
637.269454
 21
410.995284
 31
0.0
  0
LINE
  8
LC-006-005-----0
  6
CONTINUOUS
  5
346
 10
633.459524
 20
407.75104
 30
0.0
 11
636.703769
 21
410.995284
 31
0.0
  0
LINE
  8
LC-006-005-----0
  6
CONTINUOUS
  5
347
 10
633.459524
 20
408.316725
 30
0.0
 11
636.138083
 21
410.995284
 31
0.0
  0
LINE
  8
LC-006-005-----0
  6
CONTINUOUS
  5
348
 10
633.459524
 20
408.882411
 30
0.0
 11
635.572398
 21
410.995284
 31
0.0
  0
LINE
  8
LC-006-005-----0
  6
CONTINUOUS
  5
349
 10
633.459524
 20
409.448096
 30
0.0
 11
635.006712
 21
410.995284
 31
0.0
  0
LINE
  8
LC-006-005-----0
  6
CONTINUOUS
  5
34A
 10
633.459524
 20
410.013782
 30
0.0
 11
634.441027
 21
410.995284
 31
0.0
  0
LINE
  8
LC-006-005-----0
  6
CONTINUOUS
  5
34B
 10
633.459524
 20
410.579467
 30
0.0
 11
633.875342
 21
410.995284
 31
0.0
  0
ENDBLK
  8
0
  5
34C
  0
BLOCK
  8
0
  5
34E
  2
*X24
 70
    65
 10
613.459524
 20
406.295284
 30
0.0
  3
*X24
  0
LINE
  8
LC-006-005-----0
  6
CONTINUOUS
  5
34F
 10
622.952802
 20
406.295284
 30
0.0
 11
623.459524
 21
406.802007
 31
0.0
  0
LINE
  8
LC-006-005-----0
  6
CONTINUOUS
  5
350
 10
622.387116
 20
406.295284
 30
0.0
 11
623.459524
 21
407.367692
 31
0.0
  0
LINE
  8
LC-006-005-----0
  6
CONTINUOUS
  5
351
 10
621.821431
 20
406.295284
 30
0.0
 11
623.459524
 21
407.933378
 31
0.0
  0
LINE
  8
LC-006-005-----0
  6
CONTINUOUS
  5
352
 10
621.255746
 20
406.295284
 30
0.0
 11
623.459524
 21
408.499063
 31
0.0
  0
LINE
  8
LC-006-005-----0
  6
CONTINUOUS
  5
353
 10
620.69006
 20
406.295284
 30
0.0
 11
623.459524
 21
409.064748
 31
0.0
  0
LINE
  8
LC-006-005-----0
  6
CONTINUOUS
  5
354
 10
620.124375
 20
406.295284
 30
0.0
 11
623.459524
 21
409.630434
 31
0.0
  0
LINE
  8
LC-006-005-----0
  6
CONTINUOUS
  5
355
 10
619.558689
 20
406.295284
 30
0.0
 11
623.459524
 21
410.196119
 31
0.0
  0
LINE
  8
LC-006-005-----0
  6
CONTINUOUS
  5
356
 10
618.993004
 20
406.295284
 30
0.0
 11
623.459524
 21
410.761805
 31
0.0
  0
LINE
  8
LC-006-005-----0
  6
CONTINUOUS
  5
357
 10
618.427319
 20
406.295284
 30
0.0
 11
623.127319
 21
410.995284
 31
0.0
  0
LINE
  8
LC-006-005-----0
  6
CONTINUOUS
  5
358
 10
617.861633
 20
406.295284
 30
0.0
 11
622.561633
 21
410.995284
 31
0.0
  0
LINE
  8
LC-006-005-----0
  6
CONTINUOUS
  5
359
 10
617.295948
 20
406.295284
 30
0.0
 11
621.995948
 21
410.995284
 31
0.0
  0
LINE
  8
LC-006-005-----0
  6
CONTINUOUS
  5
35A
 10
616.730262
 20
406.295284
 30
0.0
 11
621.430262
 21
410.995284
 31
0.0
  0
LINE
  8
LC-006-005-----0
  6
CONTINUOUS
  5
35B
 10
616.164577
 20
406.295284
 30
0.0
 11
620.864577
 21
410.995284
 31
0.0
  0
LINE
  8
LC-006-005-----0
  6
CONTINUOUS
  5
35C
 10
615.598891
 20
406.295284
 30
0.0
 11
620.298891
 21
410.995284
 31
0.0
  0
LINE
  8
LC-006-005-----0
  6
CONTINUOUS
  5
35D
 10
615.033206
 20
406.295284
 30
0.0
 11
619.733206
 21
410.995284
 31
0.0
  0
LINE
  8
LC-006-005-----0
  6
CONTINUOUS
  5
35E
 10
614.467521
 20
406.295284
 30
0.0
 11
619.167521
 21
410.995284
 31
0.0
  0
LINE
  8
LC-006-005-----0
  6
CONTINUOUS
  5
35F
 10
613.901835
 20
406.295284
 30
0.0
 11
618.601835
 21
410.995284
 31
0.0
  0
LINE
  8
LC-006-005-----0
  6
CONTINUOUS
  5
360
 10
613.459524
 20
406.418659
 30
0.0
 11
618.03615
 21
410.995284
 31
0.0
  0
LINE
  8
LC-006-005-----0
  6
CONTINUOUS
  5
361
 10
613.459524
 20
406.984344
 30
0.0
 11
617.470464
 21
410.995284
 31
0.0
  0
LINE
  8
LC-006-005-----0
  6
CONTINUOUS
  5
362
 10
613.459524
 20
407.55003
 30
0.0
 11
616.904779
 21
410.995284
 31
0.0
  0
LINE
  8
LC-006-005-----0
  6
CONTINUOUS
  5
363
 10
613.459524
 20
408.115715
 30
0.0
 11
616.339093
 21
410.995284
 31
0.0
  0
LINE
  8
LC-006-005-----0
  6
CONTINUOUS
  5
364
 10
613.459524
 20
408.681401
 30
0.0
 11
615.773408
 21
410.995284
 31
0.0
  0
LINE
  8
LC-006-005-----0
  6
CONTINUOUS
  5
365
 10
613.459524
 20
409.247086
 30
0.0
 11
615.207723
 21
410.995284
 31
0.0
  0
LINE
  8
LC-006-005-----0
  6
CONTINUOUS
  5
366
 10
613.459524
 20
409.812772
 30
0.0
 11
614.642037
 21
410.995284
 31
0.0
  0
LINE
  8
LC-006-005-----0
  6
CONTINUOUS
  5
367
 10
613.459524
 20
410.378457
 30
0.0
 11
614.076352
 21
410.995284
 31
0.0
  0
LINE
  8
LC-006-005-----0
  6
CONTINUOUS
  5
368
 10
613.459524
 20
410.944142
 30
0.0
 11
613.510666
 21
410.995284
 31
0.0
  0
ENDBLK
  8
0
  5
369
  0
BLOCK
  8
0
  5
36B
  2
*X25
 70
    65
 10
593.459524
 20
406.295284
 30
0.0
  3
*X25
  0
LINE
  8
LC-006-005-----0
  6
CONTINUOUS
  5
36C
 10
603.153812
 20
406.295284
 30
0.0
 11
603.459524
 21
406.600997
 31
0.0
  0
LINE
  8
LC-006-005-----0
  6
CONTINUOUS
  5
36D
 10
602.588127
 20
406.295284
 30
0.0
 11
603.459524
 21
407.166682
 31
0.0
  0
LINE
  8
LC-006-005-----0
  6
CONTINUOUS
  5
36E
 10
602.022441
 20
406.295284
 30
0.0
 11
603.459524
 21
407.732367
 31
0.0
  0
LINE
  8
LC-006-005-----0
  6
CONTINUOUS
  5
36F
 10
601.456756
 20
406.295284
 30
0.0
 11
603.459524
 21
408.298053
 31
0.0
  0
LINE
  8
LC-006-005-----0
  6
CONTINUOUS
  5
370
 10
600.89107
 20
406.295284
 30
0.0
 11
603.459524
 21
408.863738
 31
0.0
  0
LINE
  8
LC-006-005-----0
  6
CONTINUOUS
  5
371
 10
600.325385
 20
406.295284
 30
0.0
 11
603.459524
 21
409.429424
 31
0.0
  0
LINE
  8
LC-006-005-----0
  6
CONTINUOUS
  5
372
 10
599.759699
 20
406.295284
 30
0.0
 11
603.459524
 21
409.995109
 31
0.0
  0
LINE
  8
LC-006-005-----0
  6
CONTINUOUS
  5
373
 10
599.194014
 20
406.295284
 30
0.0
 11
603.459524
 21
410.560795
 31
0.0
  0
LINE
  8
LC-006-005-----0
  6
CONTINUOUS
  5
374
 10
598.628329
 20
406.295284
 30
0.0
 11
603.328329
 21
410.995284
 31
0.0
  0
LINE
  8
LC-006-005-----0
  6
CONTINUOUS
  5
375
 10
598.062643
 20
406.295284
 30
0.0
 11
602.762643
 21
410.995284
 31
0.0
  0
LINE
  8
LC-006-005-----0
  6
CONTINUOUS
  5
376
 10
597.496958
 20
406.295284
 30
0.0
 11
602.196958
 21
410.995284
 31
0.0
  0
LINE
  8
LC-006-005-----0
  6
CONTINUOUS
  5
377
 10
596.931272
 20
406.295284
 30
0.0
 11
601.631272
 21
410.995284
 31
0.0
  0
LINE
  8
LC-006-005-----0
  6
CONTINUOUS
  5
378
 10
596.365587
 20
406.295284
 30
0.0
 11
601.065587
 21
410.995284
 31
0.0
  0
LINE
  8
LC-006-005-----0
  6
CONTINUOUS
  5
379
 10
595.799902
 20
406.295284
 30
0.0
 11
600.499902
 21
410.995284
 31
0.0
  0
LINE
  8
LC-006-005-----0
  6
CONTINUOUS
  5
37A
 10
595.234216
 20
406.295284
 30
0.0
 11
599.934216
 21
410.995284
 31
0.0
  0
LINE
  8
LC-006-005-----0
  6
CONTINUOUS
  5
37B
 10
594.668531
 20
406.295284
 30
0.0
 11
599.368531
 21
410.995284
 31
0.0
  0
LINE
  8
LC-006-005-----0
  6
CONTINUOUS
  5
37C
 10
594.102845
 20
406.295284
 30
0.0
 11
598.802845
 21
410.995284
 31
0.0
  0
LINE
  8
LC-006-005-----0
  6
CONTINUOUS
  5
37D
 10
593.53716
 20
406.295284
 30
0.0
 11
598.23716
 21
410.995284
 31
0.0
  0
LINE
  8
LC-006-005-----0
  6
CONTINUOUS
  5
37E
 10
593.459524
 20
406.783334
 30
0.0
 11
597.671474
 21
410.995284
 31
0.0
  0
LINE
  8
LC-006-005-----0
  6
CONTINUOUS
  5
37F
 10
593.459524
 20
407.34902
 30
0.0
 11
597.105789
 21
410.995284
 31
0.0
  0
LINE
  8
LC-006-005-----0
  6
CONTINUOUS
  5
380
 10
593.459524
 20
407.914705
 30
0.0
 11
596.540104
 21
410.995284
 31
0.0
  0
LINE
  8
LC-006-005-----0
  6
CONTINUOUS
  5
381
 10
593.459524
 20
408.480391
 30
0.0
 11
595.974418
 21
410.995284
 31
0.0
  0
LINE
  8
LC-006-005-----0
  6
CONTINUOUS
  5
382
 10
593.459524
 20
409.046076
 30
0.0
 11
595.408733
 21
410.995284
 31
0.0
  0
LINE
  8
LC-006-005-----0
  6
CONTINUOUS
  5
383
 10
593.459524
 20
409.611761
 30
0.0
 11
594.843047
 21
410.995284
 31
0.0
  0
LINE
  8
LC-006-005-----0
  6
CONTINUOUS
  5
384
 10
593.459524
 20
410.177447
 30
0.0
 11
594.277362
 21
410.995284
 31
0.0
  0
LINE
  8
LC-006-005-----0
  6
CONTINUOUS
  5
385
 10
593.459524
 20
410.743132
 30
0.0
 11
593.711676
 21
410.995284
 31
0.0
  0
ENDBLK
  8
0
  5
386
  0
BLOCK
  8
0
  5
388
  2
*X26
 70
    65
 10
573.459524
 20
406.295284
 30
0.0
  3
*X26
  0
LINE
  8
LC-006-005-----0
  6
CONTINUOUS
  5
389
 10
583.354822
 20
406.295284
 30
0.0
 11
583.459524
 21
406.399986
 31
0.0
  0
LINE
  8
LC-006-005-----0
  6
CONTINUOUS
  5
38A
 10
582.789137
 20
406.295284
 30
0.0
 11
583.459524
 21
406.965672
 31
0.0
  0
LINE
  8
LC-006-005-----0
  6
CONTINUOUS
  5
38B
 10
582.223451
 20
406.295284
 30
0.0
 11
583.459524
 21
407.531357
 31
0.0
  0
LINE
  8
LC-006-005-----0
  6
CONTINUOUS
  5
38C
 10
581.657766
 20
406.295284
 30
0.0
 11
583.459524
 21
408.097043
 31
0.0
  0
LINE
  8
LC-006-005-----0
  6
CONTINUOUS
  5
38D
 10
581.09208
 20
406.295284
 30
0.0
 11
583.459524
 21
408.662728
 31
0.0
  0
LINE
  8
LC-006-005-----0
  6
CONTINUOUS
  5
38E
 10
580.526395
 20
406.295284
 30
0.0
 11
583.459524
 21
409.228414
 31
0.0
  0
LINE
  8
LC-006-005-----0
  6
CONTINUOUS
  5
38F
 10
579.96071
 20
406.295284
 30
0.0
 11
583.459524
 21
409.794099
 31
0.0
  0
LINE
  8
LC-006-005-----0
  6
CONTINUOUS
  5
390
 10
579.395024
 20
406.295284
 30
0.0
 11
583.459524
 21
410.359784
 31
0.0
  0
LINE
  8
LC-006-005-----0
  6
CONTINUOUS
  5
391
 10
578.829339
 20
406.295284
 30
0.0
 11
583.459524
 21
410.92547
 31
0.0
  0
LINE
  8
LC-006-005-----0
  6
CONTINUOUS
  5
392
 10
578.263653
 20
406.295284
 30
0.0
 11
582.963653
 21
410.995284
 31
0.0
  0
LINE
  8
LC-006-005-----0
  6
CONTINUOUS
  5
393
 10
577.697968
 20
406.295284
 30
0.0
 11
582.397968
 21
410.995284
 31
0.0
  0
LINE
  8
LC-006-005-----0
  6
CONTINUOUS
  5
394
 10
577.132283
 20
406.295284
 30
0.0
 11
581.832283
 21
410.995284
 31
0.0
  0
LINE
  8
LC-006-005-----0
  6
CONTINUOUS
  5
395
 10
576.566597
 20
406.295284
 30
0.0
 11
581.266597
 21
410.995284
 31
0.0
  0
LINE
  8
LC-006-005-----0
  6
CONTINUOUS
  5
396
 10
576.000912
 20
406.295284
 30
0.0
 11
580.700912
 21
410.995284
 31
0.0
  0
LINE
  8
LC-006-005-----0
  6
CONTINUOUS
  5
397
 10
575.435226
 20
406.295284
 30
0.0
 11
580.135226
 21
410.995284
 31
0.0
  0
LINE
  8
LC-006-005-----0
  6
CONTINUOUS
  5
398
 10
574.869541
 20
406.295284
 30
0.0
 11
579.569541
 21
410.995284
 31
0.0
  0
LINE
  8
LC-006-005-----0
  6
CONTINUOUS
  5
399
 10
574.303855
 20
406.295284
 30
0.0
 11
579.003855
 21
410.995284
 31
0.0
  0
LINE
  8
LC-006-005-----0
  6
CONTINUOUS
  5
39A
 10
573.73817
 20
406.295284
 30
0.0
 11
578.43817
 21
410.995284
 31
0.0
  0
LINE
  8
LC-006-005-----0
  6
CONTINUOUS
  5
39B
 10
573.459524
 20
406.582324
 30
0.0
 11
577.872485
 21
410.995284
 31
0.0
  0
LINE
  8
LC-006-005-----0
  6
CONTINUOUS
  5
39C
 10
573.459524
 20
407.14801
 30
0.0
 11
577.306799
 21
410.995284
 31
0.0
  0
LINE
  8
LC-006-005-----0
  6
CONTINUOUS
  5
39D
 10
573.459524
 20
407.713695
 30
0.0
 11
576.741114
 21
410.995284
 31
0.0
  0
LINE
  8
LC-006-005-----0
  6
CONTINUOUS
  5
39E
 10
573.459524
 20
408.27938
 30
0.0
 11
576.175428
 21
410.995284
 31
0.0
  0
LINE
  8
LC-006-005-----0
  6
CONTINUOUS
  5
39F
 10
573.459524
 20
408.845066
 30
0.0
 11
575.609743
 21
410.995284
 31
0.0
  0
LINE
  8
LC-006-005-----0
  6
CONTINUOUS
  5
3A0
 10
573.459524
 20
409.410751
 30
0.0
 11
575.044057
 21
410.995284
 31
0.0
  0
LINE
  8
LC-006-005-----0
  6
CONTINUOUS
  5
3A1
 10
573.459524
 20
409.976437
 30
0.0
 11
574.478372
 21
410.995284
 31
0.0
  0
LINE
  8
LC-006-005-----0
  6
CONTINUOUS
  5
3A2
 10
573.459524
 20
410.542122
 30
0.0
 11
573.912687
 21
410.995284
 31
0.0
  0
ENDBLK
  8
0
  5
3A3
  0
BLOCK
  8
0
  5
3A5
  2
*X27
 70
    65
 10
553.459524
 20
406.295284
 30
0.0
  3
*X27
  0
LINE
  8
LC-006-005-----0
  6
CONTINUOUS
  5
3A6
 10
562.990147
 20
406.295284
 30
0.0
 11
563.459524
 21
406.764662
 31
0.0
  0
LINE
  8
LC-006-005-----0
  6
CONTINUOUS
  5
3A7
 10
562.424461
 20
406.295284
 30
0.0
 11
563.459524
 21
407.330347
 31
0.0
  0
LINE
  8
LC-006-005-----0
  6
CONTINUOUS
  5
3A8
 10
561.858776
 20
406.295284
 30
0.0
 11
563.459524
 21
407.896033
 31
0.0
  0
LINE
  8
LC-006-005-----0
  6
CONTINUOUS
  5
3A9
 10
561.293091
 20
406.295284
 30
0.0
 11
563.459524
 21
408.461718
 31
0.0
  0
LINE
  8
LC-006-005-----0
  6
CONTINUOUS
  5
3AA
 10
560.727405
 20
406.295284
 30
0.0
 11
563.459524
 21
409.027403
 31
0.0
  0
LINE
  8
LC-006-005-----0
  6
CONTINUOUS
  5
3AB
 10
560.16172
 20
406.295284
 30
0.0
 11
563.459524
 21
409.593089
 31
0.0
  0
LINE
  8
LC-006-005-----0
  6
CONTINUOUS
  5
3AC
 10
559.596034
 20
406.295284
 30
0.0
 11
563.459524
 21
410.158774
 31
0.0
  0
LINE
  8
LC-006-005-----0
  6
CONTINUOUS
  5
3AD
 10
559.030349
 20
406.295284
 30
0.0
 11
563.459524
 21
410.72446
 31
0.0
  0
LINE
  8
LC-006-005-----0
  6
CONTINUOUS
  5
3AE
 10
558.464663
 20
406.295284
 30
0.0
 11
563.164663
 21
410.995284
 31
0.0
  0
LINE
  8
LC-006-005-----0
  6
CONTINUOUS
  5
3AF
 10
557.898978
 20
406.295284
 30
0.0
 11
562.598978
 21
410.995284
 31
0.0
  0
LINE
  8
LC-006-005-----0
  6
CONTINUOUS
  5
3B0
 10
557.333293
 20
406.295284
 30
0.0
 11
562.033293
 21
410.995284
 31
0.0
  0
LINE
  8
LC-006-005-----0
  6
CONTINUOUS
  5
3B1
 10
556.767607
 20
406.295284
 30
0.0
 11
561.467607
 21
410.995284
 31
0.0
  0
LINE
  8
LC-006-005-----0
  6
CONTINUOUS
  5
3B2
 10
556.201922
 20
406.295284
 30
0.0
 11
560.901922
 21
410.995284
 31
0.0
  0
LINE
  8
LC-006-005-----0
  6
CONTINUOUS
  5
3B3
 10
555.636236
 20
406.295284
 30
0.0
 11
560.336236
 21
410.995284
 31
0.0
  0
LINE
  8
LC-006-005-----0
  6
CONTINUOUS
  5
3B4
 10
555.070551
 20
406.295284
 30
0.0
 11
559.770551
 21
410.995284
 31
0.0
  0
LINE
  8
LC-006-005-----0
  6
CONTINUOUS
  5
3B5
 10
554.504866
 20
406.295284
 30
0.0
 11
559.204866
 21
410.995284
 31
0.0
  0
LINE
  8
LC-006-005-----0
  6
CONTINUOUS
  5
3B6
 10
553.93918
 20
406.295284
 30
0.0
 11
558.63918
 21
410.995284
 31
0.0
  0
LINE
  8
LC-006-005-----0
  6
CONTINUOUS
  5
3B7
 10
553.459524
 20
406.381314
 30
0.0
 11
558.073495
 21
410.995284
 31
0.0
  0
LINE
  8
LC-006-005-----0
  6
CONTINUOUS
  5
3B8
 10
553.459524
 20
406.946999
 30
0.0
 11
557.507809
 21
410.995284
 31
0.0
  0
LINE
  8
LC-006-005-----0
  6
CONTINUOUS
  5
3B9
 10
553.459524
 20
407.512685
 30
0.0
 11
556.942124
 21
410.995284
 31
0.0
  0
LINE
  8
LC-006-005-----0
  6
CONTINUOUS
  5
3BA
 10
553.459524
 20
408.07837
 30
0.0
 11
556.376438
 21
410.995284
 31
0.0
  0
LINE
  8
LC-006-005-----0
  6
CONTINUOUS
  5
3BB
 10
553.459524
 20
408.644056
 30
0.0
 11
555.810753
 21
410.995284
 31
0.0
  0
LINE
  8
LC-006-005-----0
  6
CONTINUOUS
  5
3BC
 10
553.459524
 20
409.209741
 30
0.0
 11
555.245068
 21
410.995284
 31
0.0
  0
LINE
  8
LC-006-005-----0
  6
CONTINUOUS
  5
3BD
 10
553.459524
 20
409.775427
 30
0.0
 11
554.679382
 21
410.995284
 31
0.0
  0
LINE
  8
LC-006-005-----0
  6
CONTINUOUS
  5
3BE
 10
553.459524
 20
410.341112
 30
0.0
 11
554.113697
 21
410.995284
 31
0.0
  0
LINE
  8
LC-006-005-----0
  6
CONTINUOUS
  5
3BF
 10
553.459524
 20
410.906797
 30
0.0
 11
553.548011
 21
410.995284
 31
0.0
  0
ENDBLK
  8
0
  5
3C0
  0
BLOCK
  8
0
  5
3C2
  2
BLK4
 70
    64
 10
0.0
 20
0.0
 30
0.0
  3
BLK4
  0
ENDBLK
  8
0
  5
3C3
  0
BLOCK
  8
0
  5
3C5
  2
*X29
 70
    65
 10
533.526738
 20
406.107391
 30
0.0
  3
*X29
  0
LINE
  8
LC-006-005-----0
  6
CONTINUOUS
  5
3C6
 10
543.170159
 20
406.274286
 30
0.0
 11
543.608819
 21
406.712946
 31
0.0
  0
LINE
  8
LC-006-005-----0
  6
CONTINUOUS
  5
3C7
 10
542.594424
 20
406.264236
 30
0.0
 11
543.599114
 21
407.268927
 31
0.0
  0
LINE
  8
LC-006-005-----0
  6
CONTINUOUS
  5
3C8
 10
542.018689
 20
406.254187
 30
0.0
 11
543.58941
 21
407.824908
 31
0.0
  0
LINE
  8
LC-006-005-----0
  6
CONTINUOUS
  5
3C9
 10
541.442954
 20
406.244137
 30
0.0
 11
543.579705
 21
408.380889
 31
0.0
  0
LINE
  8
LC-006-005-----0
  6
CONTINUOUS
  5
3CA
 10
540.867219
 20
406.234088
 30
0.0
 11
543.57
 21
408.936869
 31
0.0
  0
LINE
  8
LC-006-005-----0
  6
CONTINUOUS
  5
3CB
 10
540.291484
 20
406.224038
 30
0.0
 11
543.560296
 21
409.49285
 31
0.0
  0
LINE
  8
LC-006-005-----0
  6
CONTINUOUS
  5
3CC
 10
539.715749
 20
406.213989
 30
0.0
 11
543.550591
 21
410.048831
 31
0.0
  0
LINE
  8
LC-006-005-----0
  6
CONTINUOUS
  5
3CD
 10
539.140014
 20
406.203939
 30
0.0
 11
543.540886
 21
410.604812
 31
0.0
  0
LINE
  8
LC-006-005-----0
  6
CONTINUOUS
  5
3CE
 10
538.564279
 20
406.19389
 30
0.0
 11
543.348504
 21
410.978115
 31
0.0
  0
LINE
  8
LC-006-005-----0
  6
CONTINUOUS
  5
3CF
 10
537.988544
 20
406.18384
 30
0.0
 11
542.772769
 21
410.968065
 31
0.0
  0
LINE
  8
LC-006-005-----0
  6
CONTINUOUS
  5
3D0
 10
537.412809
 20
406.173791
 30
0.0
 11
542.197034
 21
410.958016
 31
0.0
  0
LINE
  8
LC-006-005-----0
  6
CONTINUOUS
  5
3D1
 10
536.837074
 20
406.163741
 30
0.0
 11
541.621299
 21
410.947966
 31
0.0
  0
LINE
  8
LC-006-005-----0
  6
CONTINUOUS
  5
3D2
 10
536.26134
 20
406.153692
 30
0.0
 11
541.045564
 21
410.937917
 31
0.0
  0
LINE
  8
LC-006-005-----0
  6
CONTINUOUS
  5
3D3
 10
535.685605
 20
406.143642
 30
0.0
 11
540.46983
 21
410.927867
 31
0.0
  0
LINE
  8
LC-006-005-----0
  6
CONTINUOUS
  5
3D4
 10
535.10987
 20
406.133593
 30
0.0
 11
539.894095
 21
410.917818
 31
0.0
  0
LINE
  8
LC-006-005-----0
  6
CONTINUOUS
  5
3D5
 10
534.534135
 20
406.123543
 30
0.0
 11
539.31836
 21
410.907768
 31
0.0
  0
LINE
  8
LC-006-005-----0
  6
CONTINUOUS
  5
3D6
 10
533.9584
 20
406.113494
 30
0.0
 11
538.742625
 21
410.897719
 31
0.0
  0
LINE
  8
LC-006-005-----0
  6
CONTINUOUS
  5
3D7
 10
533.604954
 20
406.325733
 30
0.0
 11
538.16689
 21
410.887669
 31
0.0
  0
LINE
  8
LC-006-005-----0
  6
CONTINUOUS
  5
3D8
 10
533.595249
 20
406.881714
 30
0.0
 11
537.591155
 21
410.87762
 31
0.0
  0
LINE
  8
LC-006-005-----0
  6
CONTINUOUS
  5
3D9
 10
533.585544
 20
407.437694
 30
0.0
 11
537.01542
 21
410.86757
 31
0.0
  0
LINE
  8
LC-006-005-----0
  6
CONTINUOUS
  5
3DA
 10
533.57584
 20
407.993675
 30
0.0
 11
536.439685
 21
410.857521
 31
0.0
  0
LINE
  8
LC-006-005-----0
  6
CONTINUOUS
  5
3DB
 10
533.566135
 20
408.549656
 30
0.0
 11
535.86395
 21
410.847471
 31
0.0
  0
LINE
  8
LC-006-005-----0
  6
CONTINUOUS
  5
3DC
 10
533.55643
 20
409.105637
 30
0.0
 11
535.288215
 21
410.837422
 31
0.0
  0
LINE
  8
LC-006-005-----0
  6
CONTINUOUS
  5
3DD
 10
533.546726
 20
409.661617
 30
0.0
 11
534.71248
 21
410.827372
 31
0.0
  0
LINE
  8
LC-006-005-----0
  6
CONTINUOUS
  5
3DE
 10
533.537021
 20
410.217598
 30
0.0
 11
534.136745
 21
410.817323
 31
0.0
  0
LINE
  8
LC-006-005-----0
  6
CONTINUOUS
  5
3DF
 10
533.527316
 20
410.773579
 30
0.0
 11
533.561011
 21
410.807273
 31
0.0
  0
ENDBLK
  8
0
  5
3E0
  0
BLOCK
  8
0
  5
3E2
  2
*X30
 70
    65
 10
513.506845
 20
405.757942
 30
0.0
  3
*X30
  0
LINE
  8
LC-006-005-----0
  6
CONTINUOUS
  5
3E3
 10
523.595171
 20
405.932603
 30
0.0
 11
523.596425
 21
405.933857
 31
0.0
  0
LINE
  8
LC-006-005-----0
  6
CONTINUOUS
  5
3E4
 10
523.019436
 20
405.922554
 30
0.0
 11
523.586721
 21
406.489838
 31
0.0
  0
LINE
  8
LC-006-005-----0
  6
CONTINUOUS
  5
3E5
 10
522.443702
 20
405.912504
 30
0.0
 11
523.577016
 21
407.045818
 31
0.0
  0
LINE
  8
LC-006-005-----0
  6
CONTINUOUS
  5
3E6
 10
521.867967
 20
405.902455
 30
0.0
 11
523.567311
 21
407.601799
 31
0.0
  0
LINE
  8
LC-006-005-----0
  6
CONTINUOUS
  5
3E7
 10
521.292232
 20
405.892405
 30
0.0
 11
523.557607
 21
408.15778
 31
0.0
  0
LINE
  8
LC-006-005-----0
  6
CONTINUOUS
  5
3E8
 10
520.716497
 20
405.882356
 30
0.0
 11
523.547902
 21
408.713761
 31
0.0
  0
LINE
  8
LC-006-005-----0
  6
CONTINUOUS
  5
3E9
 10
520.140762
 20
405.872306
 30
0.0
 11
523.538197
 21
409.269741
 31
0.0
  0
LINE
  8
LC-006-005-----0
  6
CONTINUOUS
  5
3EA
 10
519.565027
 20
405.862257
 30
0.0
 11
523.528493
 21
409.825722
 31
0.0
  0
LINE
  8
LC-006-005-----0
  6
CONTINUOUS
  5
3EB
 10
518.989292
 20
405.852207
 30
0.0
 11
523.518788
 21
410.381703
 31
0.0
  0
LINE
  8
LC-006-005-----0
  6
CONTINUOUS
  5
3EC
 10
518.413557
 20
405.842158
 30
0.0
 11
523.197782
 21
410.626382
 31
0.0
  0
LINE
  8
LC-006-005-----0
  6
CONTINUOUS
  5
3ED
 10
517.837822
 20
405.832108
 30
0.0
 11
522.622047
 21
410.616333
 31
0.0
  0
LINE
  8
LC-006-005-----0
  6
CONTINUOUS
  5
3EE
 10
517.262087
 20
405.822059
 30
0.0
 11
522.046312
 21
410.606284
 31
0.0
  0
LINE
  8
LC-006-005-----0
  6
CONTINUOUS
  5
3EF
 10
516.686352
 20
405.812009
 30
0.0
 11
521.470577
 21
410.596234
 31
0.0
  0
LINE
  8
LC-006-005-----0
  6
CONTINUOUS
  5
3F0
 10
516.110617
 20
405.80196
 30
0.0
 11
520.894842
 21
410.586185
 31
0.0
  0
LINE
  8
LC-006-005-----0
  6
CONTINUOUS
  5
3F1
 10
515.534883
 20
405.79191
 30
0.0
 11
520.319107
 21
410.576135
 31
0.0
  0
LINE
  8
LC-006-005-----0
  6
CONTINUOUS
  5
3F2
 10
514.959148
 20
405.781861
 30
0.0
 11
519.743373
 21
410.566086
 31
0.0
  0
LINE
  8
LC-006-005-----0
  6
CONTINUOUS
  5
3F3
 10
514.383413
 20
405.771811
 30
0.0
 11
519.167638
 21
410.556036
 31
0.0
  0
LINE
  8
LC-006-005-----0
  6
CONTINUOUS
  5
3F4
 10
513.807678
 20
405.761762
 30
0.0
 11
518.591903
 21
410.545987
 31
0.0
  0
LINE
  8
LC-006-005-----0
  6
CONTINUOUS
  5
3F5
 10
513.582855
 20
406.102624
 30
0.0
 11
518.016168
 21
410.535937
 31
0.0
  0
LINE
  8
LC-006-005-----0
  6
CONTINUOUS
  5
3F6
 10
513.57315
 20
406.658605
 30
0.0
 11
517.440433
 21
410.525888
 31
0.0
  0
LINE
  8
LC-006-005-----0
  6
CONTINUOUS
  5
3F7
 10
513.563446
 20
407.214586
 30
0.0
 11
516.864698
 21
410.515838
 31
0.0
  0
LINE
  8
LC-006-005-----0
  6
CONTINUOUS
  5
3F8
 10
513.553741
 20
407.770567
 30
0.0
 11
516.288963
 21
410.505789
 31
0.0
  0
LINE
  8
LC-006-005-----0
  6
CONTINUOUS
  5
3F9
 10
513.544036
 20
408.326547
 30
0.0
 11
515.713228
 21
410.495739
 31
0.0
  0
LINE
  8
LC-006-005-----0
  6
CONTINUOUS
  5
3FA
 10
513.534332
 20
408.882528
 30
0.0
 11
515.137493
 21
410.48569
 31
0.0
  0
LINE
  8
LC-006-005-----0
  6
CONTINUOUS
  5
3FB
 10
513.524627
 20
409.438509
 30
0.0
 11
514.561758
 21
410.47564
 31
0.0
  0
LINE
  8
LC-006-005-----0
  6
CONTINUOUS
  5
3FC
 10
513.514922
 20
409.99449
 30
0.0
 11
513.986023
 21
410.465591
 31
0.0
  0
ENDBLK
  8
0
  5
3FD
  0
BLOCK
  8
0
  5
3FF
  2
*X31
 70
    65
 10
493.459524
 20
403.228023
 30
0.0
  3
*X31
  0
LINE
  8
LC-006-005-----0
  6
CONTINUOUS
  5
400
 10
501.729298
 20
403.86572
 30
0.0
 11
503.459524
 21
405.595946
 31
0.0
  0
LINE
  8
LC-006-005-----0
  6
CONTINUOUS
  5
401
 10
501.057197
 20
403.759304
 30
0.0
 11
503.459524
 21
406.161631
 31
0.0
  0
LINE
  8
LC-006-005-----0
  6
CONTINUOUS
  5
402
 10
500.448981
 20
403.716773
 30
0.0
 11
503.459524
 21
406.727317
 31
0.0
  0
LINE
  8
LC-006-005-----0
  6
CONTINUOUS
  5
403
 10
499.840765
 20
403.674243
 30
0.0
 11
503.459524
 21
407.293002
 31
0.0
  0
LINE
  8
LC-006-005-----0
  6
CONTINUOUS
  5
404
 10
499.232549
 20
403.631712
 30
0.0
 11
503.459524
 21
407.858688
 31
0.0
  0
LINE
  8
LC-006-005-----0
  6
CONTINUOUS
  5
405
 10
498.624333
 20
403.589181
 30
0.0
 11
503.459524
 21
408.424373
 31
0.0
  0
LINE
  8
LC-006-005-----0
  6
CONTINUOUS
  5
406
 10
498.016117
 20
403.546651
 30
0.0
 11
503.459524
 21
408.990059
 31
0.0
  0
LINE
  8
LC-006-005-----0
  6
CONTINUOUS
  5
407
 10
497.407901
 20
403.50412
 30
0.0
 11
503.459524
 21
409.555744
 31
0.0
  0
LINE
  8
LC-006-005-----0
  6
CONTINUOUS
  5
408
 10
496.799685
 20
403.46159
 30
0.0
 11
503.459524
 21
410.121429
 31
0.0
  0
LINE
  8
LC-006-005-----0
  6
CONTINUOUS
  5
409
 10
496.191469
 20
403.419059
 30
0.0
 11
503.04706
 21
410.27465
 31
0.0
  0
LINE
  8
LC-006-005-----0
  6
CONTINUOUS
  5
40A
 10
495.583253
 20
403.376529
 30
0.0
 11
502.471325
 21
410.264601
 31
0.0
  0
LINE
  8
LC-006-005-----0
  6
CONTINUOUS
  5
40B
 10
494.975037
 20
403.333998
 30
0.0
 11
501.89559
 21
410.254551
 31
0.0
  0
LINE
  8
LC-006-005-----0
  6
CONTINUOUS
  5
40C
 10
494.366821
 20
403.291467
 30
0.0
 11
499.432526
 21
408.357173
 31
0.0
  0
LINE
  8
LC-006-005-----0
  6
CONTINUOUS
  5
40D
 10
493.758605
 20
403.248937
 30
0.0
 11
498.82431
 21
408.314642
 31
0.0
  0
LINE
  8
LC-006-005-----0
  6
CONTINUOUS
  5
40E
 10
493.459524
 20
403.515542
 30
0.0
 11
498.216094
 21
408.272112
 31
0.0
  0
LINE
  8
LC-006-005-----0
  6
CONTINUOUS
  5
40F
 10
493.459524
 20
404.081227
 30
0.0
 11
497.607878
 21
408.229581
 31
0.0
  0
LINE
  8
LC-006-005-----0
  6
CONTINUOUS
  5
410
 10
493.459524
 20
404.646913
 30
0.0
 11
496.999662
 21
408.18705
 31
0.0
  0
LINE
  8
LC-006-005-----0
  6
CONTINUOUS
  5
411
 10
493.459524
 20
405.212598
 30
0.0
 11
496.391446
 21
408.14452
 31
0.0
  0
LINE
  8
LC-006-005-----0
  6
CONTINUOUS
  5
412
 10
493.459524
 20
405.778284
 30
0.0
 11
495.78323
 21
408.101989
 31
0.0
  0
LINE
  8
LC-006-005-----0
  6
CONTINUOUS
  5
413
 10
493.459524
 20
406.343969
 30
0.0
 11
495.175014
 21
408.059459
 31
0.0
  0
LINE
  8
LC-006-005-----0
  6
CONTINUOUS
  5
414
 10
493.459524
 20
406.909654
 30
0.0
 11
494.566798
 21
408.016928
 31
0.0
  0
LINE
  8
LC-006-005-----0
  6
CONTINUOUS
  5
415
 10
493.459524
 20
407.47534
 30
0.0
 11
493.958582
 21
407.974398
 31
0.0
  0
ENDBLK
  8
0
  5
416
  0
BLOCK
  8
0
  5
418
  2
*D32
 70
    65
 10
0.0
 20
0.0
 30
0.0
  3
*D32
  0
LINE
  8
LC-009-003-MTH-0
  6
CONTINUOUS
  5
419
 10
143.865333
 20
410.995284
 30
0.0
 11
143.865333
 21
526.4
 31
0.0
  0
LINE
  8
LC-009-003-MTH-0
  6
CONTINUOUS
  5
41A
 10
643.459524
 20
410.995284
 30
0.0
 11
643.459524
 21
526.4
 31
0.0
  0
LINE
  8
LC-010-003-MTG-0
  6
CONTINUOUS
  5
41B
 10
143.865333
 20
509.6
 30
0.0
 11
643.459524
 21
509.6
 31
0.0
  0
LINE
  8
LC-008-003-----0
  6
CONTINUOUS
  5
41C
 10
171.625789
 20
513.254733
 30
0.0
 11
143.865333
 21
509.6
 31
0.0
  0
LINE
  8
LC-008-003-----0
  6
CONTINUOUS
  5
41D
 10
143.865333
 20
509.6
 30
0.0
 11
171.625789
 21
505.945267
 31
0.0
  0
LINE
  8
LC-008-003-----0
  6
CONTINUOUS
  5
41E
 10
171.625789
 20
505.945267
 30
0.0
 11
171.625789
 21
513.254733
 31
0.0
  0
LINE
  8
LC-008-003-----0
  6
CONTINUOUS
  5
41F
 10
171.688071
 20
512.304503
 30
0.0
 11
151.145333
 21
509.6
 31
0.0
  0
LINE
  8
LC-008-003-----0
  6
CONTINUOUS
  5
420
 10
151.145333
 20
509.6
 30
0.0
 11
171.688071
 21
506.895497
 31
0.0
  0
LINE
  8
LC-008-003-----0
  6
CONTINUOUS
  5
421
 10
171.750352
 20
511.354272
 30
0.0
 11
158.425333
 21
509.6
 31
0.0
  0
LINE
  8
LC-008-003-----0
  6
CONTINUOUS
  5
422
 10
158.425333
 20
509.6
 30
0.0
 11
171.750352
 21
507.845728
 31
0.0
  0
LINE
  8
LC-008-003-----0
  6
CONTINUOUS
  5
423
 10
171.812634
 20
510.404041
 30
0.0
 11
165.705333
 21
509.6
 31
0.0
  0
LINE
  8
LC-008-003-----0
  6
CONTINUOUS
  5
424
 10
165.705333
 20
509.6
 30
0.0
 11
171.812634
 21
508.795959
 31
0.0
  0
LINE
  8
LC-008-003-----0
  6
CONTINUOUS
  5
425
 10
615.699068
 20
505.945267
 30
0.0
 11
643.459524
 21
509.6
 31
0.0
  0
LINE
  8
LC-008-003-----0
  6
CONTINUOUS
  5
426
 10
643.459524
 20
509.6
 30
0.0
 11
615.699068
 21
513.254733
 31
0.0
  0
LINE
  8
LC-008-003-----0
  6
CONTINUOUS
  5
427
 10
615.699068
 20
513.254733
 30
0.0
 11
615.699068
 21
505.945267
 31
0.0
  0
LINE
  8
LC-008-003-----0
  6
CONTINUOUS
  5
428
 10
615.636787
 20
506.895497
 30
0.0
 11
636.179524
 21
509.6
 31
0.0
  0
LINE
  8
LC-008-003-----0
  6
CONTINUOUS
  5
429
 10
636.179524
 20
509.6
 30
0.0
 11
615.636787
 21
512.304503
 31
0.0
  0
LINE
  8
LC-008-003-----0
  6
CONTINUOUS
  5
42A
 10
615.574506
 20
507.845728
 30
0.0
 11
628.899524
 21
509.6
 31
0.0
  0
LINE
  8
LC-008-003-----0
  6
CONTINUOUS
  5
42B
 10
628.899524
 20
509.6
 30
0.0
 11
615.574506
 21
511.354272
 31
0.0
  0
LINE
  8
LC-008-003-----0
  6
CONTINUOUS
  5
42C
 10
615.512224
 20
508.795959
 30
0.0
 11
621.619524
 21
509.6
 31
0.0
  0
LINE
  8
LC-008-003-----0
  6
CONTINUOUS
  5
42D
 10
621.619524
 20
509.6
 30
0.0
 11
615.512224
 21
510.404041
 31
0.0
  0
TEXT
  8
LC-008-003-----0
  6
CONTINUOUS
 62
     8
  5
42E
 10
359.912951
 20
517.427554
 30
0.0
 40
28.0
  1
Ø500
 51
15.0
  7
LC-TXTSTYLE-150-400-0-0-D0
 72
     1
 11
398.010589
 21
517.427554
 31
0.0
  0
ENDBLK
  8
0
  5
42F
  0
BLOCK
  8
0
  5
431
  2
*X33
 70
    65
 10
473.428391
 20
386.742897
 30
0.0
  3
*X33
  0
LINE
  8
LC-006-005-----0
  6
CONTINUOUS
  5
432
 10
480.080993
 20
386.742897
 30
0.0
 11
480.701493
 21
387.363398
 31
0.0
  0
LINE
  8
LC-006-005-----0
  6
CONTINUOUS
  5
433
 10
478.444868
 20
387.9352
 30
0.0
 11
480.701493
 21
390.191825
 31
0.0
  0
LINE
  8
LC-006-005-----0
  6
CONTINUOUS
  5
434
 10
484.253689
 20
393.744021
 30
0.0
 11
485.560818
 21
395.05115
 31
0.0
  0
LINE
  8
LC-006-005-----0
  6
CONTINUOUS
  5
435
 10
477.844111
 20
390.16287
 30
0.0
 11
480.701493
 21
393.020252
 31
0.0
  0
LINE
  8
LC-006-005-----0
  6
CONTINUOUS
  5
436
 10
482.419436
 20
394.738196
 30
0.0
 11
485.560818
 21
397.879577
 31
0.0
  0
LINE
  8
LC-006-005-----0
  6
CONTINUOUS
  5
437
 10
473.84293
 20
388.990116
 30
0.0
 11
480.701493
 21
395.848679
 31
0.0
  0
LINE
  8
LC-006-005-----0
  6
CONTINUOUS
  5
438
 10
482.419436
 20
397.566623
 30
0.0
 11
485.560818
 21
400.708005
 31
0.0
  0
LINE
  8
LC-006-005-----0
  6
CONTINUOUS
  5
439
 10
478.434962
 20
396.410576
 30
0.0
 11
480.701493
 21
398.677107
 31
0.0
  0
LINE
  8
LC-006-005-----0
  6
CONTINUOUS
  5
43A
 10
481.619703
 20
399.595316
 30
0.0
 11
484.399357
 21
402.374971
 31
0.0
  0
LINE
  8
LC-006-005-----0
  6
CONTINUOUS
  5
43B
 10
475.979386
 20
396.783426
 30
0.0
 11
481.358348
 21
402.162389
 31
0.0
  0
ENDBLK
  8
0
  5
43C
  0
BLOCK
  8
0
  5
43E
  2
BLK5
 70
    64
 10
0.0
 20
0.0
 30
0.0
  3
BLK5
  0
ENDBLK
  8
0
  5
43F
  0
BLOCK
  8
0
  5
441
  2
*X35
 70
    65
 10
301.76404
 20
386.742897
 30
0.0
  3
*X35
  0
LINE
  8
LC-006-005-----0
  6
CONTINUOUS
  5
442
 10
312.851886
 20
389.219418
 30
0.0
 11
313.469793
 21
389.837326
 31
0.0
  0
LINE
  8
LC-006-005-----0
  6
CONTINUOUS
  5
443
 10
307.546938
 20
386.742897
 30
0.0
 11
308.879985
 21
388.075945
 31
0.0
  0
LINE
  8
LC-006-005-----0
  6
CONTINUOUS
  5
444
 10
310.778179
 20
389.974138
 30
0.0
 11
312.104936
 21
391.300896
 31
0.0
  0
LINE
  8
LC-006-005-----0
  6
CONTINUOUS
  5
445
 10
306.623365
 20
388.647751
 30
0.0
 11
310.74008
 21
392.764466
 31
0.0
  0
LINE
  8
LC-006-005-----0
  6
CONTINUOUS
  5
446
 10
306.623365
 20
391.476178
 30
0.0
 11
309.375223
 21
394.228036
 31
0.0
  0
LINE
  8
LC-006-005-----0
  6
CONTINUOUS
  5
447
 10
311.774477
 20
396.627291
 30
0.0
 11
312.760618
 21
397.613432
 31
0.0
  0
LINE
  8
LC-006-005-----0
  6
CONTINUOUS
  5
448
 10
306.623365
 20
394.304606
 30
0.0
 11
308.947267
 21
396.628508
 31
0.0
  0
LINE
  8
LC-006-005-----0
  6
CONTINUOUS
  5
449
 10
309.509046
 20
397.190287
 30
0.0
 11
311.395761
 21
399.077002
 31
0.0
  0
LINE
  8
LC-006-005-----0
  6
CONTINUOUS
  5
44A
 10
303.223688
 20
393.733356
 30
0.0
 11
304.905421
 21
395.415089
 31
0.0
  0
LINE
  8
LC-006-005-----0
  6
CONTINUOUS
  5
44B
 10
306.623365
 20
397.133033
 30
0.0
 11
310.030904
 21
400.540572
 31
0.0
  0
LINE
  8
LC-006-005-----0
  6
CONTINUOUS
  5
44C
 10
301.76404
 20
395.102135
 30
0.0
 11
304.905421
 21
398.243517
 31
0.0
  0
LINE
  8
LC-006-005-----0
  6
CONTINUOUS
  5
44D
 10
306.257221
 20
399.595316
 30
0.0
 11
308.5506
 21
401.888695
 31
0.0
  0
LINE
  8
LC-006-005-----0
  6
CONTINUOUS
  5
44E
 10
301.76404
 20
397.930562
 30
0.0
 11
305.993949
 21
402.160471
 31
0.0
  0
LINE
  8
LC-006-005-----0
  6
CONTINUOUS
  5
44F
 10
301.76404
 20
400.758989
 30
0.0
 11
303.350324
 21
402.345274
 31
0.0
  0
ENDBLK
  8
0
  5
450
  0
BLOCK
  8
0
  5
452
  2
BLK6
 70
    64
 10
0.0
 20
0.0
 30
0.0
  3
BLK6
  0
ENDBLK
  8
0
  5
453
  0
BLOCK
  8
0
  5
455
  2
*X37
 70
    65
 10
352.165172
 20
323.945251
 30
0.0
  3
*X37
  0
LINE
  8
LC-006-005-----0
  6
CONTINUOUS
  5
456
 10
434.254226
 20
323.945568
 30
0.0
 11
435.165343
 21
324.856685
 31
0.0
  0
LINE
  8
LC-006-005-----0
  6
CONTINUOUS
  5
457
 10
434.165501
 20
326.685271
 30
0.0
 11
435.165345
 21
327.685114
 31
0.0
  0
LINE
  8
LC-006-005-----0
  6
CONTINUOUS
  5
458
 10
434.165496
 20
329.513692
 30
0.0
 11
435.165347
 21
330.513543
 31
0.0
  0
LINE
  8
LC-006-005-----0
  6
CONTINUOUS
  5
459
 10
434.16549
 20
332.342113
 30
0.0
 11
435.165348
 21
333.341972
 31
0.0
  0
LINE
  8
LC-006-005-----0
  6
CONTINUOUS
  5
45A
 10
434.165484
 20
335.170534
 30
0.0
 11
435.16535
 21
336.170401
 31
0.0
  0
LINE
  8
LC-006-005-----0
  6
CONTINUOUS
  5
45B
 10
434.165478
 20
337.998956
 30
0.0
 11
435.165352
 21
338.99883
 31
0.0
  0
LINE
  8
LC-006-005-----0
  6
CONTINUOUS
  5
45C
 10
434.165472
 20
340.827377
 30
0.0
 11
435.165354
 21
341.827259
 31
0.0
  0
LINE
  8
LC-006-005-----0
  6
CONTINUOUS
  5
45D
 10
434.165466
 20
343.655798
 30
0.0
 11
435.165356
 21
344.655688
 31
0.0
  0
LINE
  8
LC-006-005-----0
  6
CONTINUOUS
  5
45E
 10
434.16546
 20
346.48422
 30
0.0
 11
435.165358
 21
347.484117
 31
0.0
  0
LINE
  8
LC-006-005-----0
  6
CONTINUOUS
  5
45F
 10
434.165455
 20
349.312641
 30
0.0
 11
435.16536
 21
350.312546
 31
0.0
  0
LINE
  8
LC-006-005-----0
  6
CONTINUOUS
  5
460
 10
434.165449
 20
352.141062
 30
0.0
 11
435.165361
 21
353.140975
 31
0.0
  0
LINE
  8
LC-006-005-----0
  6
CONTINUOUS
  5
461
 10
434.165443
 20
354.969483
 30
0.0
 11
435.165363
 21
355.969404
 31
0.0
  0
LINE
  8
LC-006-005-----0
  6
CONTINUOUS
  5
462
 10
434.165437
 20
357.797905
 30
0.0
 11
435.165365
 21
358.797833
 31
0.0
  0
LINE
  8
LC-006-005-----0
  6
CONTINUOUS
  5
463
 10
434.165431
 20
360.626326
 30
0.0
 11
435.165367
 21
361.626262
 31
0.0
  0
LINE
  8
LC-006-005-----0
  6
CONTINUOUS
  5
464
 10
434.165425
 20
363.454747
 30
0.0
 11
435.165369
 21
364.454691
 31
0.0
  0
LINE
  8
LC-006-005-----0
  6
CONTINUOUS
  5
465
 10
434.165419
 20
366.283168
 30
0.0
 11
435.165371
 21
367.28312
 31
0.0
  0
LINE
  8
LC-006-005-----0
  6
CONTINUOUS
  5
466
 10
434.165414
 20
369.11159
 30
0.0
 11
435.165373
 21
370.111549
 31
0.0
  0
LINE
  8
LC-006-005-----0
  6
CONTINUOUS
  5
467
 10
434.165408
 20
371.940011
 30
0.0
 11
435.165374
 21
372.939978
 31
0.0
  0
LINE
  8
LC-006-005-----0
  6
CONTINUOUS
  5
468
 10
434.165402
 20
374.768432
 30
0.0
 11
435.165376
 21
375.768407
 31
0.0
  0
LINE
  8
LC-006-005-----0
  6
CONTINUOUS
  5
469
 10
434.165396
 20
377.596854
 30
0.0
 11
435.165378
 21
378.596836
 31
0.0
  0
LINE
  8
LC-006-005-----0
  6
CONTINUOUS
  5
46A
 10
434.16539
 20
380.425275
 30
0.0
 11
435.16538
 21
381.425265
 31
0.0
  0
LINE
  8
LC-006-005-----0
  6
CONTINUOUS
  5
46B
 10
434.165384
 20
383.253696
 30
0.0
 11
435.161521
 21
384.249833
 31
0.0
  0
LINE
  8
LC-006-005-----0
  6
CONTINUOUS
  5
46C
 10
433.974289
 20
385.891027
 30
0.0
 11
434.833087
 21
386.749826
 31
0.0
  0
LINE
  8
LC-006-005-----0
  6
CONTINUOUS
  5
46D
 10
433.290582
 20
388.035748
 30
0.0
 11
434.113462
 21
388.858628
 31
0.0
  0
LINE
  8
LC-006-005-----0
  6
CONTINUOUS
  5
46E
 10
432.253083
 20
389.826676
 30
0.0
 11
433.101054
 21
390.674647
 31
0.0
  0
LINE
  8
LC-006-005-----0
  6
CONTINUOUS
  5
46F
 10
430.918619
 20
391.32064
 30
0.0
 11
431.83757
 21
392.23959
 31
0.0
  0
LINE
  8
LC-006-005-----0
  6
CONTINUOUS
  5
470
 10
429.297561
 20
392.528009
 30
0.0
 11
430.336541
 21
393.566988
 31
0.0
  0
LINE
  8
LC-006-005-----0
  6
CONTINUOUS
  5
471
 10
427.361901
 20
393.420775
 30
0.0
 11
428.5903
 21
394.649175
 31
0.0
  0
LINE
  8
LC-006-005-----0
  6
CONTINUOUS
  5
472
 10
425.021416
 20
393.908718
 30
0.0
 11
426.566153
 21
395.453455
 31
0.0
  0
LINE
  8
LC-006-005-----0
  6
CONTINUOUS
  5
473
 10
352.229533
 20
323.945262
 30
0.0
 11
353.16534
 21
324.881068
 31
0.0
  0
LINE
  8
LC-006-005-----0
  6
CONTINUOUS
  5
474
 10
393.729525
 20
365.445253
 30
0.0
 11
395.101205
 21
366.816934
 31
0.0
  0
LINE
  8
LC-006-005-----0
  6
CONTINUOUS
  5
475
 10
422.229696
 20
393.945425
 30
0.0
 11
424.186198
 21
395.901927
 31
0.0
  0
LINE
  8
LC-006-005-----0
  6
CONTINUOUS
  5
476
 10
352.165335
 20
326.70949
 30
0.0
 11
353.165332
 21
327.709488
 31
0.0
  0
LINE
  8
LC-006-005-----0
  6
CONTINUOUS
  5
477
 10
390.901098
 20
365.445253
 30
0.0
 11
395.101971
 21
369.646127
 31
0.0
  0
LINE
  8
LC-006-005-----0
  6
CONTINUOUS
  5
478
 10
419.401269
 20
393.945425
 30
0.0
 11
421.40127
 21
395.945426
 31
0.0
  0
LINE
  8
LC-006-005-----0
  6
CONTINUOUS
  5
479
 10
352.165327
 20
329.53791
 30
0.0
 11
353.165324
 21
330.537907
 31
0.0
  0
LINE
  8
LC-006-005-----0
  6
CONTINUOUS
  5
47A
 10
388.07267
 20
365.445253
 30
0.0
 11
395.102736
 21
372.475319
 31
0.0
  0
LINE
  8
LC-006-005-----0
  6
CONTINUOUS
  5
47B
 10
416.572842
 20
393.945425
 30
0.0
 11
418.572845
 21
395.945428
 31
0.0
  0
LINE
  8
LC-006-005-----0
  6
CONTINUOUS
  5
47C
 10
352.165318
 20
332.366329
 30
0.0
 11
353.165316
 21
333.366326
 31
0.0
  0
LINE
  8
LC-006-005-----0
  6
CONTINUOUS
  5
47D
 10
385.244243
 20
365.445253
 30
0.0
 11
395.103502
 21
375.304512
 31
0.0
  0
LINE
  8
LC-006-005-----0
  6
CONTINUOUS
  5
47E
 10
413.744415
 20
393.945425
 30
0.0
 11
415.74442
 21
395.94543
 31
0.0
  0
LINE
  8
LC-006-005-----0
  6
CONTINUOUS
  5
47F
 10
352.16531
 20
335.194748
 30
0.0
 11
353.165308
 21
336.194745
 31
0.0
  0
LINE
  8
LC-006-005-----0
  6
CONTINUOUS
  5
480
 10
382.415816
 20
365.445253
 30
0.0
 11
395.104268
 21
378.133705
 31
0.0
  0
LINE
  8
LC-006-005-----0
  6
CONTINUOUS
  5
481
 10
410.915987
 20
393.945425
 30
0.0
 11
412.915995
 21
395.945432
 31
0.0
  0
LINE
  8
LC-006-005-----0
  6
CONTINUOUS
  5
482
 10
352.165302
 20
338.023167
 30
0.0
 11
353.1653
 21
339.023164
 31
0.0
  0
LINE
  8
LC-006-005-----0
  6
CONTINUOUS
  5
483
 10
379.587389
 20
365.445253
 30
0.0
 11
395.105034
 21
380.962898
 31
0.0
  0
LINE
  8
LC-006-005-----0
  6
CONTINUOUS
  5
484
 10
408.08756
 20
393.945425
 30
0.0
 11
410.08757
 21
395.945434
 31
0.0
  0
LINE
  8
LC-006-005-----0
  6
CONTINUOUS
  5
485
 10
352.165294
 20
340.851586
 30
0.0
 11
353.165292
 21
341.851583
 31
0.0
  0
LINE
  8
LC-006-005-----0
  6
CONTINUOUS
  5
486
 10
376.758962
 20
365.445253
 30
0.0
 11
395.1058
 21
383.792091
 31
0.0
  0
LINE
  8
LC-006-005-----0
  6
CONTINUOUS
  5
487
 10
405.259133
 20
393.945425
 30
0.0
 11
407.415171
 21
396.101462
 31
0.0
  0
LINE
  8
LC-006-005-----0
  6
CONTINUOUS
  5
488
 10
352.165286
 20
343.680005
 30
0.0
 11
353.165284
 21
344.680002
 31
0.0
  0
LINE
  8
LC-006-005-----0
  6
CONTINUOUS
  5
489
 10
373.930535
 20
365.445253
 30
0.0
 11
395.106565
 21
386.621284
 31
0.0
  0
LINE
  8
LC-006-005-----0
  6
CONTINUOUS
  5
48A
 10
402.430706
 20
393.945425
 30
0.0
 11
407.232859
 21
398.747578
 31
0.0
  0
LINE
  8
LC-006-005-----0
  6
CONTINUOUS
  5
48B
 10
352.165278
 20
346.508424
 30
0.0
 11
353.165276
 21
347.508421
 31
0.0
  0
LINE
  8
LC-006-005-----0
  6
CONTINUOUS
  5
48C
 10
371.102108
 20
365.445253
 30
0.0
 11
395.107331
 21
389.450477
 31
0.0
  0
LINE
  8
LC-006-005-----0
  6
CONTINUOUS
  5
48D
 10
399.602279
 20
393.945425
 30
0.0
 11
401.602294
 21
395.94544
 31
0.0
  0
LINE
  8
LC-006-005-----0
  6
CONTINUOUS
  5
48E
 10
403.357743
 20
397.700888
 30
0.0
 11
406.518414
 21
400.86156
 31
0.0
  0
LINE
  8
LC-006-005-----0
  6
CONTINUOUS
  5
48F
 10
352.16527
 20
349.336843
 30
0.0
 11
353.165268
 21
350.33684
 31
0.0
  0
LINE
  8
LC-006-005-----0
  6
CONTINUOUS
  5
490
 10
368.273681
 20
365.445253
 30
0.0
 11
395.108097
 21
392.27967
 31
0.0
  0
LINE
  8
LC-006-005-----0
  6
CONTINUOUS
  5
491
 10
396.773852
 20
393.945425
 30
0.0
 11
398.773869
 21
395.945442
 31
0.0
  0
LINE
  8
LC-006-005-----0
  6
CONTINUOUS
  5
492
 10
402.564096
 20
399.735669
 30
0.0
 11
405.422033
 21
402.593606
 31
0.0
  0
LINE
  8
LC-006-005-----0
  6
CONTINUOUS
  5
493
 10
352.165262
 20
352.165262
 30
0.0
 11
353.16526
 21
353.16526
 31
0.0
  0
LINE
  8
LC-006-005-----0
  6
CONTINUOUS
  5
494
 10
366.549423
 20
366.549423
 30
0.0
 11
395.945444
 21
395.945444
 31
0.0
  0
LINE
  8
LC-006-005-----0
  6
CONTINUOUS
  5
495
 10
401.138512
 20
401.138512
 30
0.0
 11
404.001592
 21
404.001592
 31
0.0
  0
LINE
  8
LC-006-005-----0
  6
CONTINUOUS
  5
496
 10
352.165254
 20
354.993682
 30
0.0
 11
353.165252
 21
355.993679
 31
0.0
  0
LINE
  8
LC-006-005-----0
  6
CONTINUOUS
  5
497
 10
365.951706
 20
368.780133
 30
0.0
 11
393.116826
 21
395.945253
 31
0.0
  0
LINE
  8
LC-006-005-----0
  6
CONTINUOUS
  5
498
 10
399.073321
 20
401.901748
 30
0.0
 11
402.256079
 21
405.084506
 31
0.0
  0
LINE
  8
LC-006-005-----0
  6
CONTINUOUS
  5
499
 10
352.165246
 20
357.822101
 30
0.0
 11
353.165244
 21
358.822098
 31
0.0
  0
LINE
  8
LC-006-005-----0
  6
CONTINUOUS
  5
49A
 10
365.907462
 20
371.564316
 30
0.0
 11
390.288399
 21
395.945253
 31
0.0
  0
LINE
  8
LC-006-005-----0
  6
CONTINUOUS
  5
49B
 10
396.288399
 20
401.945254
 30
0.0
 11
400.124572
 21
405.781427
 31
0.0
  0
LINE
  8
LC-006-005-----0
  6
CONTINUOUS
  5
49C
 10
352.165238
 20
360.65052
 30
0.0
 11
353.165236
 21
361.650517
 31
0.0
  0
LINE
  8
LC-006-005-----0
  6
CONTINUOUS
  5
49D
 10
364.959972
 20
373.445253
 30
0.0
 11
387.459972
 21
395.945253
 31
0.0
  0
LINE
  8
LC-006-005-----0
  6
CONTINUOUS
  5
49E
 10
393.459972
 20
401.945253
 30
0.0
 11
397.459972
 21
405.945254
 31
0.0
  0
LINE
  8
LC-006-005-----0
  6
CONTINUOUS
  5
49F
 10
352.16523
 20
363.478939
 30
0.0
 11
353.165228
 21
364.478936
 31
0.0
  0
LINE
  8
LC-006-005-----0
  6
CONTINUOUS
  5
4A0
 10
362.407533
 20
373.721241
 30
0.0
 11
384.631545
 21
395.945253
 31
0.0
  0
LINE
  8
LC-006-005-----0
  6
CONTINUOUS
  5
4A1
 10
390.631545
 20
401.945253
 30
0.0
 11
394.631545
 21
405.945253
 31
0.0
  0
LINE
  8
LC-006-005-----0
  6
CONTINUOUS
  5
4A2
 10
352.165222
 20
366.307358
 30
0.0
 11
353.165219
 21
367.307355
 31
0.0
  0
LINE
  8
LC-006-005-----0
  6
CONTINUOUS
  5
4A3
 10
362.408298
 20
376.550434
 30
0.0
 11
384.081312
 21
398.223448
 31
0.0
  0
LINE
  8
LC-006-005-----0
  6
CONTINUOUS
  5
4A4
 10
387.636979
 20
401.779115
 30
0.0
 11
391.803118
 21
405.945253
 31
0.0
  0
LINE
  8
LC-006-005-----0
  6
CONTINUOUS
  5
4A5
 10
352.165214
 20
369.135777
 30
0.0
 11
353.165211
 21
370.135774
 31
0.0
  0
LINE
  8
LC-006-005-----0
  6
CONTINUOUS
  5
4A6
 10
362.409064
 20
379.379627
 30
0.0
 11
378.974691
 21
395.945253
 31
0.0
  0
LINE
  8
LC-006-005-----0
  6
CONTINUOUS
  5
4A7
 10
379.915174
 20
396.885737
 30
0.0
 11
388.974691
 21
405.945253
 31
0.0
  0
LINE
  8
LC-006-005-----0
  6
CONTINUOUS
  5
4A8
 10
352.165206
 20
371.964196
 30
0.0
 11
353.165203
 21
372.964193
 31
0.0
  0
LINE
  8
LC-006-005-----0
  6
CONTINUOUS
  5
4A9
 10
362.40983
 20
382.20882
 30
0.0
 11
376.146264
 21
395.945253
 31
0.0
  0
LINE
  8
LC-006-005-----0
  6
CONTINUOUS
  5
4AA
 10
380.607253
 20
400.406243
 30
0.0
 11
385.454185
 21
405.253175
 31
0.0
  0
LINE
  8
LC-006-005-----0
  6
CONTINUOUS
  5
4AB
 10
352.165198
 20
374.792615
 30
0.0
 11
353.165195
 21
375.792612
 31
0.0
  0
LINE
  8
LC-006-005-----0
  6
CONTINUOUS
  5
4AC
 10
362.410596
 20
385.038013
 30
0.0
 11
373.317836
 21
395.945253
 31
0.0
  0
LINE
  8
LC-006-005-----0
  6
CONTINUOUS
  5
4AD
 10
352.16519
 20
377.621034
 30
0.0
 11
353.165187
 21
378.621032
 31
0.0
  0
LINE
  8
LC-006-005-----0
  6
CONTINUOUS
  5
4AE
 10
362.411362
 20
387.867206
 30
0.0
 11
370.489409
 21
395.945253
 31
0.0
  0
LINE
  8
LC-006-005-----0
  6
CONTINUOUS
  5
4AF
 10
352.165182
 20
380.449454
 30
0.0
 11
353.165179
 21
381.449451
 31
0.0
  0
LINE
  8
LC-006-005-----0
  6
CONTINUOUS
  5
4B0
 10
362.412127
 20
390.696399
 30
0.0
 11
367.660982
 21
395.945253
 31
0.0
  0
LINE
  8
LC-006-005-----0
  6
CONTINUOUS
  5
4B1
 10
352.165174
 20
383.277873
 30
0.0
 11
353.170898
 21
384.283596
 31
0.0
  0
LINE
  8
LC-006-005-----0
  6
CONTINUOUS
  5
4B2
 10
362.412893
 20
393.525592
 30
0.0
 11
364.832555
 21
395.945253
 31
0.0
  0
LINE
  8
LC-006-005-----0
  6
CONTINUOUS
  5
4B3
 10
352.408519
 20
386.349644
 30
0.0
 11
353.996847
 21
387.937972
 31
0.0
  0
LINE
  8
LC-006-005-----0
  6
CONTINUOUS
  5
4B4
 10
359.172454
 20
393.113579
 30
0.0
 11
361.760782
 21
395.701907
 31
0.0
  0
ENDBLK
  8
0
  5
4B5
  0
ENDSEC
  0
SECTION
  2
ENTITIES
  0
VIEWPORT
  8
LC-000
  5
66D
 67
     1
 68
     1
 10
420.0
 20
297.0
 30
0.0
 40
840.0
 41
594.0
 69
     1
1001
ACAD
1000
MVIEW
1002
{
1070
    16
1010
0.0
1020
0.0
1030
0.0
1010
0.0
1020
0.0
1030
1.0
1040
0.0
1040
594.0
1040
420.0
1040
297.0
1040
50.0
1040
0.0
1040
0.0
1070
     0
1070
   100
1070
     1
1070
     1
1070
     0
1070
     0
1070
     0
1070
     0
1040
0.0
1040
0.0
1040
0.0
1040
1.0
1040
1.0
1040
0.0
1040
0.0
1070
     0
1002
{
1002
}
1002
}
  0
VIEWPORT
  8
0
  5
66E
 67
     1
 68
     1
 10
0.0
 20
0.0
 30
0.0
 40
0.0
 41
0.0
 69
     1
1001
ACAD
1000
MVIEW
1002
{
1070
    16
1010
0.0
1020
0.0
1030
0.0
1010
0.0
1020
0.0
1030
1.0
1040
0.0
1040
594.0
1040
0.0
1040
0.0
1040
50.0
1040
0.0
1040
0.0
1070
     0
1070
   100
1070
     0
1070
     1
1070
     0
1070
     0
1070
     0
1070
     0
1040
0.0
1040
0.0
1040
0.0
1040
0.5
1040
0.5
1040
0.5
1040
0.5
1070
     0
1002
{
1002
}
1002
}
  0
INSERT
  8
0
  5
4B7
  2
BLK1
 10
0.0
 20
0.0
 30
0.0
  0
INSERT
  8
0
  5
4B8
  2
*X1
 10
242.910686
 20
221.945542
 30
0.0
  0
INSERT
  8
0
  5
4B9
  2
*X2
 10
415.662553
 20
221.945473
 30
0.0
  0
INSERT
  8
0
  5
4BB
  2
BLK2
 10
0.0
 20
0.0
 30
0.0
  0
DIMENSION
  8
0
  5
4BC
  2
*D4
 10
393.666286
 20
470.4
 30
0.0
 11
393.666286
 21
470.4
 31
0.0
  1
%%c300
 13
242.910686
 23
406.296
 33
0.0
 14
544.421886
 24
406.296
 34
0.0
  3
LC-DIM-L-0140-02-02
  0
DIMENSION
  8
0
  5
4BD
  2
*D5
 10
393.666539
 20
431.196672
 30
0.0
 11
393.666539
 21
431.196672
 31
0.0
 70
     1
  1
%%c190
 13
298.769785
 23
396.25206
 33
0.0
 14
488.562703
 24
396.250456
 34
0.0
  3
LC-DIM-L-0140-02-02
  0
DIMENSION
  8
0
  5
4BE
  2
*D6
 10
393.662603
 20
117.600361
 30
0.0
 11
393.662603
 21
117.600361
 31
0.0
 70
     1
  1
%%c160
 13
313.412429
 23
307.195316
 33
0.0
 14
473.912429
 24
307.195463
 34
0.0
  3
LC-DIM-L-0140-02-02
  0
DIMENSION
  8
0
  5
4BF
  2
*D7
 10
393.662429
 20
156.8
 30
0.0
 11
393.662429
 21
156.8
 31
0.0
  1
DN100
 13
338.662429
 23
226.945544
 33
0.0
 14
448.662429
 24
226.945472
 34
0.0
  3
LC-DIM-L-0140-02-02
  0
DIMENSION
  8
0
  5
4C0
  2
*D8
 10
235.2
 20
349.370429
 30
0.0
 11
235.2
 21
349.370429
 31
0.0
  1
110
 13
242.910686
 23
403.295543
 33
0.0
 14
325.162429
 24
295.445316
 34
0.0
 50
90.0
  3
LC-DIM-L-0140-02-02
  0
DIMENSION
  8
0
  5
4C1
  2
*D9
 10
280.0
 20
348.695252
 30
0.0
 11
280.0
 21
348.695252
 31
0.0
  1
50
 13
352.166099
 23
323.945251
 33
0.0
 14
362.408381
 24
373.445253
 34
0.0
 50
90.0
  3
LC-DIM-L-0140-02-02
  0
INSERT
  8
0
  5
4C2
  2
*X10
 10
284.313048
 20
377.53981
 30
0.0
  0
INSERT
  8
0
  5
4C3
  2
*X11
 10
143.865333
 20
406.295284
 30
0.0
  0
INSERT
  8
0
  5
4C4
  2
*X12
 10
163.865333
 20
406.295284
 30
0.0
  0
INSERT
  8
0
  5
4C5
  2
*X13
 10
183.865333
 20
406.295284
 30
0.0
  0
INSERT
  8
0
  5
4C6
  2
*X14
 10
203.865333
 20
406.295284
 30
0.0
  0
INSERT
  8
0
  5
4C7
  2
*X15
 10
223.865333
 20
406.295284
 30
0.0
  0
INSERT
  8
0
  5
4C8
  2
*X16
 10
462.174941
 20
384.140477
 30
0.0
  0
INSERT
  8
0
  5
4C9
  2
*X17
 10
315.174941
 20
384.140477
 30
0.0
  0
INSERT
  8
0
  5
4CA
  2
*X18
 10
465.937335
 20
377.53981
 30
0.0
  0
INSERT
  8
0
  5
4CB
  2
BLK3
 10
0.0
 20
0.0
 30
0.0
  0
INSERT
  8
0
  5
4CC
  2
*X20
 10
243.708518
 20
406.107391
 30
0.0
  0
INSERT
  8
0
  5
4CD
  2
*X21
 10
263.728411
 20
405.757942
 30
0.0
  0
INSERT
  8
0
  5
4CE
  2
*X22
 10
283.865333
 20
403.228023
 30
0.0
  0
INSERT
  8
0
  5
4CF
  2
*X23
 10
633.459524
 20
406.295284
 30
0.0
  0
INSERT
  8
0
  5
4D0
  2
*X24
 10
613.459524
 20
406.295284
 30
0.0
  0
INSERT
  8
0
  5
4D1
  2
*X25
 10
593.459524
 20
406.295284
 30
0.0
  0
INSERT
  8
0
  5
4D2
  2
*X26
 10
573.459524
 20
406.295284
 30
0.0
  0
INSERT
  8
0
  5
4D3
  2
*X27
 10
553.459524
 20
406.295284
 30
0.0
  0
INSERT
  8
0
  5
4D4
  2
BLK4
 10
0.0
 20
0.0
 30
0.0
  0
INSERT
  8
0
  5
4D5
  2
*X29
 10
533.526738
 20
406.107391
 30
0.0
  0
INSERT
  8
0
  5
4D6
  2
*X30
 10
513.506845
 20
405.757942
 30
0.0
  0
INSERT
  8
0
  5
4D7
  2
*X31
 10
493.459524
 20
403.228023
 30
0.0
  0
DIMENSION
  8
0
  5
4D8
  2
*D32
 10
393.662429
 20
509.6
 30
0.0
 11
393.662429
 21
509.6
 31
0.0
  1
%%c500
 13
143.865333
 23
410.995284
 33
0.0
 14
643.459524
 24
410.995284
 34
0.0
  3
LC-DIM-L-0140-02-02
  0
INSERT
  8
0
  5
4D9
  2
*X33
 10
473.428391
 20
386.742897
 30
0.0
  0
INSERT
  8
0
  5
4DA
  2
BLK5
 10
0.0
 20
0.0
 30
0.0
  0
INSERT
  8
0
  5
4DB
  2
*X35
 10
301.76404
 20
386.742897
 30
0.0
  0
INSERT
  8
0
  5
4DC
  2
BLK6
 10
0.0
 20
0.0
 30
0.0
  0
INSERT
  8
0
  5
4DD
  2
*X37
 10
352.165172
 20
323.945251
 30
0.0
  0
LINE
  8
LC-001-002-----0
  6
CONTINUOUS
  5
4DF
 10
388.916097
 20
405.945253
 30
0.0
 11
393.666096
 21
405.945253
 31
0.0
  0
LINE
  8
LC-001-002-----0
  6
CONTINUOUS
  5
4E0
 10
379.916097
 20
396.945253
 30
0.0
 11
379.916097
 21
395.945253
 31
0.0
  0
LINE
  8
LC-001-002-----0
  6
CONTINUOUS
  5
4E1
 10
383.916097
 20
396.945253
 30
0.0
 11
383.916097
 21
395.945253
 31
0.0
  0
LINE
  8
LC-001-002-----0
  6
CONTINUOUS
  5
4E2
 10
403.416094
 20
396.945254
 30
0.0
 11
403.416093
 21
395.945439
 31
0.0
  0
LINE
  8
LC-001-002-----0
  6
CONTINUOUS
  5
4E3
 10
407.416094
 20
396.945255
 30
0.0
 11
407.416093
 21
395.945436
 31
0.0
  0
LINE
  8
LC-001-002-----0
  6
CONTINUOUS
  5
4E4
 10
352.166096
 20
383.945253
 30
0.0
 11
352.166099
 21
323.945251
 31
0.0
  0
LINE
  8
LC-001-002-----0
  6
CONTINUOUS
  5
4E5
 10
353.166096
 20
383.945253
 30
0.0
 11
353.166266
 21
323.945418
 31
0.0
  0
LINE
  8
LC-001-002-----0
  6
CONTINUOUS
  5
4E6
 10
353.166266
 20
323.945418
 30
0.0
 11
352.166099
 21
323.945251
 31
0.0
  0
ARC
  8
LC-001-002-----0
  6
CONTINUOUS
  5
4E7
 10
363.166096
 20
383.945253
 30
0.0
 40
10.0
 50
94.313709
 51
179.999848
  0
ARC
  8
LC-002-002-RND-0
  6
CONTINUOUS
  5
4E9
 10
364.166096
 20
383.945253
 30
0.0
 40
12.0
 50
90.0
 51
180.0
  0
LINE
  8
LC-001-002-----0
  6
CONTINUOUS
  5
4EA
 10
423.166314
 20
395.945425
 30
0.0
 11
407.416093
 21
395.945436
 31
0.0
  0
LINE
  8
LC-001-002-----0
  6
CONTINUOUS
  5
4EB
 10
424.166313
 20
393.945425
 30
0.0
 11
395.108548
 21
393.945425
 31
0.0
  0
LINE
  8
LC-001-002-----0
  6
CONTINUOUS
  5
4EC
 10
364.166096
 20
395.945253
 30
0.0
 11
379.916097
 21
395.945253
 31
0.0
  0
ARC
  8
LC-002-002-RND-0
  6
CONTINUOUS
  5
4ED
 10
398.416094
 20
396.945254
 30
0.0
 40
9.0
 50
0.000006
 51
90.000006
  0
ARC
  8
LC-001-002-----0
  6
CONTINUOUS
  5
4EE
 10
424.166306
 20
383.945425
 30
0.0
 40
10.0
 50
0.000096
 51
89.999963
  0
ARC
  8
LC-001-002-----0
  6
CONTINUOUS
  5
4EF
 10
423.166306
 20
383.945425
 30
0.0
 40
12.0
 50
0.000096
 51
89.999963
  0
LINE
  8
LC-001-002-----0
  6
CONTINUOUS
  5
4F0
 10
435.166305
 20
383.945417
 30
0.0
 11
435.166266
 21
323.945417
 31
0.0
  0
LINE
  8
LC-001-002-----0
  6
CONTINUOUS
  5
4F1
 10
434.166305
 20
383.945418
 30
0.0
 11
434.16643
 21
323.945583
 31
0.0
  0
LINE
  8
LC-001-002-----0
  6
CONTINUOUS
  5
4F2
 10
434.16643
 20
323.945583
 30
0.0
 11
435.166266
 21
323.945417
 31
0.0
  0
LINE
  8
LC-001-002-----0
  6
CONTINUOUS
  5
4F3
 10
362.408381
 20
373.445253
 30
0.0
 11
362.413933
 21
393.954275
 31
0.0
  0
LINE
  8
LC-001-002-----0
  6
CONTINUOUS
  5
4F4
 10
393.666098
 20
365.445253
 30
0.0
 11
366.846207
 21
365.445253
 31
0.0
  0
LINE
  8
LC-001-002-----0
  6
CONTINUOUS
  5
4F5
 10
365.908385
 20
368.945253
 30
0.0
 11
366.846207
 21
365.445253
 31
0.0
  0
LINE
  8
LC-001-002-----0
  6
CONTINUOUS
  5
4F6
 10
365.908385
 20
372.031041
 30
0.0
 11
365.908385
 21
368.945253
 31
0.0
  0
ARC
  8
LC-001-002-----0
  6
CONTINUOUS
  5
4F7
 10
365.658381
 20
372.738147
 30
0.0
 40
0.75
 50
289.471622
 51
70.528779
  0
LINE
  8
LC-001-002-----0
  6
CONTINUOUS
  5
4F8
 10
362.408381
 20
373.445253
 30
0.0
 11
365.908381
 21
373.445253
 31
0.0
  0
LINE
  8
LC-001-002-----0
  6
CONTINUOUS
  5
4F9
 10
398.416093
 20
401.945254
 30
0.0
 11
393.666095
 21
401.945253
 31
0.0
  0
LINE
  8
LC-001-002-----0
  6
CONTINUOUS
  5
4FA
 10
403.416094
 20
395.945254
 30
0.0
 11
403.416094
 21
395.945439
 31
0.0
  0
ARC
  8
LC-001-002-----0
  6
CONTINUOUS
  5
4FB
 10
398.416094
 20
396.945254
 30
0.0
 40
5.0
 50
0.000005
 51
90.000006
  0
ARC
  8
LC-002-002-RND-0
  6
CONTINUOUS
  5
4FC
 10
388.916097
 20
396.945253
 30
0.0
 40
9.0
 50
90.0
 51
180.000001
  0
LINE
  8
LC-001-002-----0
  6
CONTINUOUS
  5
4FD
 10
388.916097
 20
401.945253
 30
0.0
 11
393.666096
 21
401.945253
 31
0.0
  0
LINE
  8
LC-001-002-----0
  6
CONTINUOUS
  5
4FE
 10
398.416093
 20
405.945254
 30
0.0
 11
393.666095
 21
405.945253
 31
0.0
  0
LINE
  8
LC-001-002-----0
  6
CONTINUOUS
  5
4FF
 10
407.416094
 20
395.945255
 30
0.0
 11
407.416094
 21
395.945436
 31
0.0
  0
ARC
  8
LC-001-002-----0
  6
CONTINUOUS
  5
500
 10
388.916097
 20
396.945253
 30
0.0
 40
5.0
 50
90.0
 51
180.000001
  0
LINE
  8
LC-001-002-----0
  6
CONTINUOUS
  5
501
 10
353.166266
 20
323.945418
 30
0.0
 11
362.666099
 21
323.945418
 31
0.0
  0
LINE
  8
LC-001-002-----0
  6
CONTINUOUS
  5
502
 10
424.666275
 20
323.945418
 30
0.0
 11
434.16643
 21
323.945418
 31
0.0
  0
LINE
  8
LC-001-002-----0
  6
CONTINUOUS
  5
503
 10
242.910686
 20
406.296
 30
0.0
 11
242.951696
 21
406.295284
 31
0.0
  0
LINE
  8
LC-001-002-----0
  6
CONTINUOUS
  5
504
 10
242.910686
 20
403.295543
 30
0.0
 11
282.465999
 21
402.605102
 31
0.0
  0
LINE
  8
LC-001-002-----0
  6
CONTINUOUS
  5
505
 10
544.421886
 20
406.296
 30
0.0
 11
503.766286
 21
405.586354
 31
0.0
  0
LINE
  8
LC-001-002-----0
  6
CONTINUOUS
  5
506
 10
418.662429
 20
294.445491
 30
0.0
 11
418.662429
 21
245.945492
 31
0.0
  0
LINE
  8
LC-001-002-----0
  6
CONTINUOUS
  5
507
 10
418.662429
 20
245.945492
 30
0.0
 11
417.724607
 21
242.445492
 31
0.0
  0
LINE
  8
LC-001-002-----0
  6
CONTINUOUS
  5
508
 10
363.162429
 20
373.445316
 30
0.0
 11
365.662429
 21
373.445316
 31
0.0
  0
LINE
  8
LC-001-002-----0
  6
CONTINUOUS
  5
509
 10
421.662429
 20
373.445316
 30
0.0
 11
408.623817
 21
373.445316
 31
0.0
  0
LINE
  8
LC-001-002-----0
  6
CONTINUOUS
  5
50A
 10
340.002175
 20
221.945543
 30
0.0
 11
341.662429
 21
221.945542
 31
0.0
  0
LINE
  8
LC-001-002-----0
  6
CONTINUOUS
  5
50B
 10
448.662429
 20
295.445472
 30
0.0
 11
448.662429
 21
226.945472
 31
0.0
  0
LINE
  8
LC-001-002-----0
  6
CONTINUOUS
  5
50C
 10
445.662429
 20
295.445474
 30
0.0
 11
445.662429
 21
221.945472
 31
0.0
  0
LINE
  8
LC-001-002-----0
  6
CONTINUOUS
  5
50D
 10
338.662429
 20
295.445472
 30
0.0
 11
338.662429
 21
226.945544
 31
0.0
  0
LINE
  8
LC-001-002-----0
  6
CONTINUOUS
  5
50E
 10
341.662429
 20
295.445474
 30
0.0
 11
341.662429
 21
221.945472
 31
0.0
  0
LINE
  8
LC-001-002-----0
  6
CONTINUOUS
  5
50F
 10
445.662429
 20
295.445474
 30
0.0
 11
420.66643
 21
295.44549
 31
0.0
  0
LINE
  8
LC-001-002-----0
  6
CONTINUOUS
  5
510
 10
338.662429
 20
295.445316
 30
0.0
 11
325.162429
 21
295.445316
 31
0.0
  0
ARC
  8
LC-002-002-RND-0
  6
CONTINUOUS
  5
511
 10
286.213062
 20
405.768005
 30
0.0
 40
2.0
 50
225.0
 51
266.000003
  0
LINE
  8
LC-001-002-----0
  6
CONTINUOUS
  5
512
 10
544.421886
 20
403.295543
 30
0.0
 11
504.866573
 21
402.605102
 31
0.0
  0
ARC
  8
LC-002-002-RND-0
  6
CONTINUOUS
  5
513
 10
501.119511
 20
405.768005
 30
0.0
 40
2.0
 50
273.999997
 51
315.0
  0
LINE
  8
LC-001-002-----0
  6
CONTINUOUS
  5
514
 10
480.418055
 20
393.098883
 30
0.0
 11
480.418055
 21
399.598883
 31
0.0
  0
LINE
  8
LC-001-002-----0
  6
CONTINUOUS
  5
515
 10
482.418055
 20
399.598883
 30
0.0
 11
480.419436
 21
399.598883
 31
0.0
  0
LINE
  8
LC-001-002-----0
  6
CONTINUOUS
  5
516
 10
482.418055
 20
393.598883
 30
0.0
 11
482.418055
 21
399.598883
 31
0.0
  0
LINE
  8
LC-001-002-----0
  6
CONTINUOUS
  5
517
 10
484.418055
 20
393.598883
 30
0.0
 11
482.418055
 21
393.598883
 31
0.0
  0
LINE
  8
LC-001-002-----0
  6
CONTINUOUS
  5
518
 10
471.719436
 20
381.295316
 30
0.0
 11
471.519436
 21
381.295316
 31
0.0
  0
LINE
  8
LC-001-002-----0
  6
CONTINUOUS
  5
519
 10
480.419436
 20
382.595316
 30
0.0
 11
480.419436
 21
399.595316
 31
0.0
  0
LINE
  8
LC-001-002-----0
  6
CONTINUOUS
  5
51A
 10
480.418055
 20
393.379948
 30
0.0
 11
480.418055
 21
393.379948
 31
0.0
  0
LINE
  8
LC-001-002-----0
  6
CONTINUOUS
  5
51B
 10
471.719436
 20
377.795316
 30
0.0
 11
471.719436
 21
379.295316
 31
0.0
  0
LINE
  8
LC-001-002-----0
  6
CONTINUOUS
  5
51C
 10
471.719436
 20
374.345316
 30
0.0
 11
471.719436
 21
374.845316
 31
0.0
  0
LINE
  8
LC-001-002-----0
  6
CONTINUOUS
  5
51D
 10
471.719436
 20
372.845316
 30
0.0
 11
471.719436
 21
375.795316
 31
0.0
  0
LINE
  8
LC-001-002-----0
  6
CONTINUOUS
  5
51E
 10
471.719436
 20
372.845316
 30
0.0
 11
471.161722
 21
372.845316
 31
0.0
  0
LINE
  8
LC-001-002-----0
  6
CONTINUOUS
  5
51F
 10
471.719436
 20
375.795316
 30
0.0
 11
471.519436
 21
375.795316
 31
0.0
  0
ARC
  8
LC-002-002-RND-0
  6
CONTINUOUS
  5
520
 10
471.519436
 20
380.495316
 30
0.0
 40
0.8
 50
90.0
 51
180.0
  0
ARC
  8
LC-002-002-RND-0
  6
CONTINUOUS
  5
521
 10
471.519436
 20
376.995316
 30
0.0
 40
0.8
 50
90.0
 51
180.0
  0
LINE
  8
LC-001-002-----0
  6
CONTINUOUS
  5
522
 10
470.719436
 20
376.595316
 30
0.0
 11
470.719436
 21
376.995316
 31
0.0
  0
LINE
  8
LC-001-002-----0
  6
CONTINUOUS
  5
523
 10
470.719436
 20
380.095316
 30
0.0
 11
470.719436
 21
380.495316
 31
0.0
  0
ARC
  8
LC-002-002-RND-0
  6
CONTINUOUS
  5
524
 10
471.519436
 20
376.595316
 30
0.0
 40
0.8
 50
180.0
 51
270.0
  0
ARC
  8
LC-002-002-RND-0
  6
CONTINUOUS
  5
525
 10
471.519436
 20
380.095316
 30
0.0
 40
0.8
 50
180.0
 51
270.0
  0
LINE
  8
LC-001-002-----0
  6
CONTINUOUS
  5
526
 10
471.719436
 20
379.295316
 30
0.0
 11
471.519436
 21
379.295316
 31
0.0
  0
ARC
  8
LC-002-002-RND-0
  6
CONTINUOUS
  5
527
 10
479.919436
 20
382.595316
 30
0.0
 40
0.5
 50
270.0
 51
0.0
  0
LINE
  8
LC-001-002-----0
  6
CONTINUOUS
  5
528
 10
501.259023
 20
403.772877
 30
0.0
 11
485.896521
 21
402.698627
 31
0.0
  0
ARC
  8
LC-002-002-RND-0
  6
CONTINUOUS
  5
529
 10
484.470472
 20
394.595316
 30
0.0
 40
1.0
 50
270.0
 51
357.0
  0
LINE
  8
LC-001-002-----0
  6
CONTINUOUS
  5
52A
 10
485.896521
 20
402.698627
 30
0.0
 11
485.469101
 21
394.54298
 31
0.0
  0
LINE
  8
LC-001-002-----0
  6
CONTINUOUS
  5
52B
 10
544.421886
 20
406.296
 30
0.0
 11
544.421886
 21
403.295543
 31
0.0
  0
LINE
  8
LC-001-002-----0
  6
CONTINUOUS
  5
52C
 10
488.683878
 20
398.562603
 30
0.0
 11
488.441529
 21
393.938308
 31
0.0
  0
LINE
  8
LC-001-002-----0
  6
CONTINUOUS
  5
52D
 10
504.866573
 20
402.605102
 30
0.0
 11
503.159948
 21
400.898477
 31
0.0
  0
LINE
  8
LC-001-002-----0
  6
CONTINUOUS
  5
52E
 10
471.719436
 20
377.795316
 30
0.0
 11
471.519436
 21
377.795316
 31
0.0
  0
ARC
  8
LC-004-001-RND-0
  6
CONTINUOUS
  5
530
 10
490.15569
 20
398.485469
 30
0.0
 40
1.5
 50
93.999997
 51
177.0
  0
LINE
  8
LC-001-002-----0
  6
CONTINUOUS
  5
531
 10
483.169436
 20
383.095316
 30
0.0
 11
473.912429
 21
369.874939
 31
0.0
  0
LINE
  8
LC-001-002-----0
  6
CONTINUOUS
  5
532
 10
485.44564
 20
391.095316
 30
0.0
 11
485.169436
 21
391.095316
 31
0.0
  0
LINE
  8
LC-001-002-----0
  6
CONTINUOUS
  5
533
 10
306.914518
 20
382.632464
 30
0.0
 11
306.914518
 21
399.598883
 31
0.0
  0
LINE
  8
LC-005-001-----0
  6
CONTINUOUS
  5
535
 10
503.159948
 20
400.898477
 30
0.0
 11
490.051055
 21
399.981815
 31
0.0
  0
ARC
  8
LC-002-002-RND-0
  6
CONTINUOUS
  5
536
 10
485.44564
 20
394.095316
 30
0.0
 40
3.0
 50
270.0
 51
357.0
  0
LINE
  8
LC-001-002-----0
  6
CONTINUOUS
  5
537
 10
304.913136
 20
399.598883
 30
0.0
 11
306.914518
 21
399.598883
 31
0.0
  0
ARC
  8
LC-002-002-RND-0
  6
CONTINUOUS
  5
538
 10
485.169436
 20
389.095316
 30
0.0
 40
2.0
 50
90.0
 51
180.0
  0
LINE
  8
LC-001-002-----0
  6
CONTINUOUS
  5
539
 10
483.169436
 20
383.095316
 30
0.0
 11
483.169436
 21
389.095316
 31
0.0
  0
LINE
  8
LC-001-002-----0
  6
CONTINUOUS
  5
53A
 10
471.719436
 20
374.345316
 30
0.0
 11
471.719436
 21
374.345316
 31
0.0
  0
LINE
  8
LC-001-002-----0
  6
CONTINUOUS
  5
53B
 10
479.919436
 20
382.095316
 30
0.0
 11
472.519436
 21
382.095316
 31
0.0
  0
LINE
  8
LC-001-002-----0
  6
CONTINUOUS
  5
53C
 10
480.419436
 20
383.595316
 30
0.0
 11
480.419436
 21
384.894698
 31
0.0
  0
LINE
  8
LC-001-002-----0
  6
CONTINUOUS
  5
53D
 10
482.419436
 20
399.595316
 30
0.0
 11
480.419436
 21
399.595316
 31
0.0
  0
LINE
  8
LC-001-002-----0
  6
CONTINUOUS
  5
53E
 10
471.719436
 20
374.095316
 30
0.0
 11
471.719436
 21
374.595316
 31
0.0
  0
LINE
  8
LC-001-002-----0
  6
CONTINUOUS
  5
53F
 10
471.719436
 20
374.295316
 30
0.0
 11
471.719436
 21
374.795316
 31
0.0
  0
LINE
  8
LC-001-002-----0
  6
CONTINUOUS
  5
540
 10
503.766286
 20
405.586354
 30
0.0
 11
502.533724
 21
404.353792
 31
0.0
  0
LINE
  8
LC-001-002-----0
  6
CONTINUOUS
  5
541
 10
471.719436
 20
374.345316
 30
0.0
 11
471.719436
 21
374.345316
 31
0.0
  0
ARC
  8
LC-002-002-RND-0
  6
CONTINUOUS
  5
542
 10
472.519436
 20
381.295316
 30
0.0
 40
0.8
 50
90.0
 51
180.0
  0
LINE
  8
LC-001-002-----0
  6
CONTINUOUS
  5
543
 10
471.719436
 20
381.295316
 30
0.0
 11
471.719436
 21
381.295316
 31
0.0
  0
LINE
  8
LC-001-002-----0
  6
CONTINUOUS
  5
544
 10
316.163136
 20
307.445316
 30
0.0
 11
316.163136
 21
372.845316
 31
0.0
  0
LINE
  8
LC-001-002-----0
  6
CONTINUOUS
  5
545
 10
415.662578
 20
280.445494
 30
0.0
 11
415.662588
 21
295.445318
 31
0.0
  0
LINE
  8
LC-001-002-----0
  6
CONTINUOUS
  5
546
 10
371.662429
 20
280.445316
 30
0.0
 11
371.662429
 21
295.445316
 31
0.0
  0
LINE
  8
LC-001-002-----0
  6
CONTINUOUS
  5
547
 10
415.662553
 20
242.445494
 30
0.0
 11
415.662578
 21
280.445494
 31
0.0
  0
LINE
  8
LC-001-002-----0
  6
CONTINUOUS
  5
548
 10
417.724607
 20
242.445492
 30
0.0
 11
393.662429
 21
242.445508
 31
0.0
  0
LINE
  8
LC-001-002-----0
  6
CONTINUOUS
  5
549
 10
315.613136
 20
381.295316
 30
0.0
 11
315.813136
 21
381.295316
 31
0.0
  0
LINE
  8
LC-001-002-----0
  6
CONTINUOUS
  5
54A
 10
306.914518
 20
393.379948
 30
0.0
 11
306.914518
 21
393.379948
 31
0.0
  0
LINE
  8
LC-001-002-----0
  6
CONTINUOUS
  5
54B
 10
315.613136
 20
377.795316
 30
0.0
 11
315.613136
 21
379.295316
 31
0.0
  0
LINE
  8
LC-001-002-----0
  6
CONTINUOUS
  5
54C
 10
315.613136
 20
374.345316
 30
0.0
 11
315.613136
 21
374.845316
 31
0.0
  0
LINE
  8
LC-001-002-----0
  6
CONTINUOUS
  5
54D
 10
315.613136
 20
372.845316
 30
0.0
 11
315.613136
 21
375.795316
 31
0.0
  0
LINE
  8
LC-001-002-----0
  6
CONTINUOUS
  5
54E
 10
315.613136
 20
372.845316
 30
0.0
 11
316.163136
 21
372.845316
 31
0.0
  0
LINE
  8
LC-001-002-----0
  6
CONTINUOUS
  5
54F
 10
315.613136
 20
375.795316
 30
0.0
 11
315.813136
 21
375.795316
 31
0.0
  0
ARC
  8
LC-002-002-RND-0
  6
CONTINUOUS
  5
550
 10
315.813136
 20
380.495316
 30
0.0
 40
0.8
 50
0.0
 51
90.0
  0
ARC
  8
LC-002-002-RND-0
  6
CONTINUOUS
  5
551
 10
315.813136
 20
376.995316
 30
0.0
 40
0.8
 50
0.0
 51
90.0
  0
LINE
  8
LC-001-002-----0
  6
CONTINUOUS
  5
552
 10
316.613136
 20
376.595316
 30
0.0
 11
316.613136
 21
376.995316
 31
0.0
  0
LINE
  8
LC-001-002-----0
  6
CONTINUOUS
  5
553
 10
316.613136
 20
380.095316
 30
0.0
 11
316.613136
 21
380.495316
 31
0.0
  0
ARC
  8
LC-002-002-RND-0
  6
CONTINUOUS
  5
554
 10
315.813136
 20
376.595316
 30
0.0
 40
0.8
 50
270.0
 51
0.0
  0
ARC
  8
LC-002-002-RND-0
  6
CONTINUOUS
  5
555
 10
315.813136
 20
380.095316
 30
0.0
 40
0.8
 50
270.0
 51
0.0
  0
LINE
  8
LC-001-002-----0
  6
CONTINUOUS
  5
556
 10
315.613136
 20
379.295316
 30
0.0
 11
315.813136
 21
379.295316
 31
0.0
  0
ARC
  8
LC-002-002-RND-0
  6
CONTINUOUS
  5
557
 10
307.413136
 20
382.595316
 30
0.0
 40
0.5
 50
180.0
 51
270.0
  0
LINE
  8
LC-001-002-----0
  6
CONTINUOUS
  5
558
 10
286.073549
 20
403.772877
 30
0.0
 11
301.436051
 21
402.698627
 31
0.0
  0
LINE
  8
LC-001-002-----0
  6
CONTINUOUS
  5
559
 10
302.8621
 20
393.595316
 30
0.0
 11
304.913136
 21
393.595316
 31
0.0
  0
ARC
  8
LC-002-002-RND-0
  6
CONTINUOUS
  5
55A
 10
302.8621
 20
394.595316
 30
0.0
 40
1.0
 50
183.0
 51
270.0
  0
LINE
  8
LC-001-002-----0
  6
CONTINUOUS
  5
55B
 10
471.161722
 20
307.445316
 30
0.0
 11
471.161722
 21
372.845316
 31
0.0
  0
LINE
  8
LC-001-002-----0
  6
CONTINUOUS
  5
55C
 10
304.913136
 20
393.595316
 30
0.0
 11
304.913136
 21
399.598883
 31
0.0
  0
LINE
  8
LC-001-002-----0
  6
CONTINUOUS
  5
55D
 10
301.436051
 20
402.698627
 30
0.0
 11
301.863471
 21
394.54298
 31
0.0
  0
LINE
  8
LC-001-002-----0
  6
CONTINUOUS
  5
55E
 10
242.910686
 20
406.296
 30
0.0
 11
242.910686
 21
403.295543
 31
0.0
  0
ARC
  8
LC-001-002-----0
  6
CONTINUOUS
  5
55F
 10
365.662429
 20
372.945316
 30
0.0
 40
0.5
 50
270.000117
 51
89.999981
  0
LINE
  8
LC-001-002-----0
  6
CONTINUOUS
  5
560
 10
282.465999
 20
402.605102
 30
0.0
 11
284.172625
 21
400.898477
 31
0.0
  0
LINE
  8
LC-001-002-----0
  6
CONTINUOUS
  5
561
 10
363.162429
 20
301.445316
 30
0.0
 11
363.162429
 21
373.445316
 31
0.0
  0
LINE
  8
LC-001-002-----0
  6
CONTINUOUS
  5
562
 10
371.662429
 20
242.445316
 30
0.0
 11
371.662429
 21
280.445316
 31
0.0
  0
LINE
  8
LC-001-002-----0
  6
CONTINUOUS
  5
563
 10
315.613136
 20
377.795316
 30
0.0
 11
315.813136
 21
377.795316
 31
0.0
  0
LINE
  8
LC-001-002-----0
  6
CONTINUOUS
  5
564
 10
369.504155
 20
242.445316
 30
0.0
 11
393.662429
 21
242.445316
 31
0.0
  0
ARC
  8
LC-002-002-RND-0
  6
CONTINUOUS
  5
565
 10
325.163136
 20
307.445316
 30
0.0
 40
9.0
 50
180.0
 51
270.0
  0
ARC
  8
LC-002-002-RND-0
  6
CONTINUOUS
  5
566
 10
462.161722
 20
307.445316
 30
0.0
 40
9.0
 50
270.0
 51
0.0
  0
LINE
  8
LC-001-002-----0
  6
CONTINUOUS
  5
567
 10
304.163136
 20
383.095316
 30
0.0
 11
313.412429
 21
369.885956
 31
0.0
  0
LINE
  8
LC-001-002-----0
  6
CONTINUOUS
  5
568
 10
301.886932
 20
391.095316
 30
0.0
 11
302.163136
 21
391.095316
 31
0.0
  0
LINE
  8
LC-005-001-----0
  6
CONTINUOUS
  5
569
 10
284.172625
 20
400.898477
 30
0.0
 11
297.255216
 21
399.983654
 31
0.0
  0
ARC
  8
LC-002-002-RND-0
  6
CONTINUOUS
  5
56A
 10
301.886932
 20
394.095316
 30
0.0
 40
3.0
 50
183.0
 51
270.0
  0
ARC
  8
LC-002-002-RND-0
  6
CONTINUOUS
  5
56B
 10
302.163136
 20
389.095316
 30
0.0
 40
2.0
 50
0.0
 51
90.0
  0
LINE
  8
LC-001-002-----0
  6
CONTINUOUS
  5
56C
 10
304.163136
 20
383.095316
 30
0.0
 11
304.163136
 21
389.095316
 31
0.0
  0
LINE
  8
LC-001-002-----0
  6
CONTINUOUS
  5
56D
 10
315.613136
 20
374.345316
 30
0.0
 11
315.613136
 21
374.345316
 31
0.0
  0
LINE
  8
LC-001-002-----0
  6
CONTINUOUS
  5
56E
 10
307.413136
 20
382.095316
 30
0.0
 11
314.813136
 21
382.095316
 31
0.0
  0
LINE
  8
LC-001-002-----0
  6
CONTINUOUS
  5
56F
 10
315.613136
 20
374.095316
 30
0.0
 11
315.613136
 21
374.595316
 31
0.0
  0
LINE
  8
LC-001-002-----0
  6
CONTINUOUS
  5
570
 10
315.613136
 20
374.295316
 30
0.0
 11
315.613136
 21
374.795316
 31
0.0
  0
LINE
  8
LC-001-002-----0
  6
CONTINUOUS
  5
571
 10
283.566286
 20
405.586354
 30
0.0
 11
284.798848
 21
404.353792
 31
0.0
  0
LINE
  8
LC-001-002-----0
  6
CONTINUOUS
  5
572
 10
315.613136
 20
374.345316
 30
0.0
 11
315.613136
 21
374.345316
 31
0.0
  0
ARC
  8
LC-002-002-RND-0
  6
CONTINUOUS
  5
573
 10
314.813136
 20
381.295316
 30
0.0
 40
0.8
 50
0.0
 51
90.0
  0
LINE
  8
LC-001-002-----0
  6
CONTINUOUS
  5
574
 10
315.613136
 20
381.295316
 30
0.0
 11
315.613136
 21
381.295316
 31
0.0
  0
LINE
  8
LC-001-002-----0
  6
CONTINUOUS
  5
575
 10
462.162421
 20
295.445463
 30
0.0
 11
448.662429
 21
295.445472
 31
0.0
  0
ARC
  8
LC-002-002-RND-0
  6
CONTINUOUS
  5
576
 10
427.162429
 20
301.445316
 30
0.0
 40
3.0
 50
180.0
 51
270.0
  0
LINE
  8
LC-001-002-----0
  6
CONTINUOUS
  5
577
 10
366.142117
 20
300.772835
 30
0.0
 11
365.516641
 21
372.445316
 31
0.0
  0
ARC
  8
LC-002-002-RND-0
  6
CONTINUOUS
  5
578
 10
360.162429
 20
301.445316
 30
0.0
 40
3.0
 50
270.0
 51
0.0
  0
LINE
  8
LC-001-002-----0
  6
CONTINUOUS
  5
579
 10
325.163136
 20
298.445316
 30
0.0
 11
360.162429
 21
298.445316
 31
0.0
  0
LINE
  8
LC-001-002-----0
  6
CONTINUOUS
  5
57A
 10
424.162429
 20
301.445316
 30
0.0
 11
424.162429
 21
373.445316
 31
0.0
  0
LINE
  8
LC-001-002-----0
  6
CONTINUOUS
  5
57B
 10
421.662428
 20
372.445316
 30
0.0
 11
421.944119
 21
372.445316
 31
0.0
  0
ARC
  8
LC-001-002-----0
  6
CONTINUOUS
  5
57C
 10
421.662429
 20
372.945316
 30
0.0
 40
0.5
 50
90.000019
 51
269.999883
  0
LINE
  8
LC-001-002-----0
  6
CONTINUOUS
  5
57D
 10
462.161722
 20
298.445316
 30
0.0
 11
427.162429
 21
298.445316
 31
0.0
  0
LINE
  8
LC-001-002-----0
  6
CONTINUOUS
  5
57E
 10
368.66227
 20
298.445316
 30
0.0
 11
418.662588
 21
298.445316
 31
0.0
  0
LINE
  8
LC-001-002-----0
  6
CONTINUOUS
  5
57F
 10
421.188558
 20
300.918909
 30
0.0
 11
421.944119
 21
372.445316
 31
0.0
  0
LINE
  8
LC-001-002-----0
  6
CONTINUOUS
  5
580
 10
424.162429
 20
373.445316
 30
0.0
 11
421.662429
 21
373.445316
 31
0.0
  0
LINE
  8
LC-001-002-----0
  6
CONTINUOUS
  5
581
 10
368.662429
 20
294.445316
 30
0.0
 11
368.662429
 21
245.945492
 31
0.0
  0
LINE
  8
LC-001-002-----0
  6
CONTINUOUS
  5
582
 10
368.662429
 20
245.945492
 30
0.0
 11
369.600251
 21
242.445492
 31
0.0
  0
ARC
  8
LC-002-002-RND-0
  6
CONTINUOUS
  5
583
 10
419.662429
 20
294.445491
 30
0.0
 40
1.0
 50
89.999963
 51
180.0
  0
ARC
  8
LC-002-002-RND-0
  6
CONTINUOUS
  5
584
 10
367.662429
 20
294.445316
 30
0.0
 40
1.0
 50
0.0
 51
90.0
  0
LINE
  8
LC-001-002-----0
  6
CONTINUOUS
  5
585
 10
448.662429
 20
226.945472
 30
0.0
 11
447.322683
 21
221.945473
 31
0.0
  0
LINE
  8
LC-001-002-----0
  6
CONTINUOUS
  5
586
 10
338.662429
 20
226.945544
 30
0.0
 11
340.002175
 21
221.945543
 31
0.0
  0
LINE
  8
LC-001-002-----0
  6
CONTINUOUS
  5
587
 10
473.912429
 20
369.874939
 30
0.0
 11
473.912429
 21
307.195463
 31
0.0
  0
LINE
  8
LC-001-002-----0
  6
CONTINUOUS
  5
588
 10
313.412429
 20
369.885956
 30
0.0
 11
313.412429
 21
307.195316
 31
0.0
  0
ARC
  8
LC-002-002-RND-0
  6
CONTINUOUS
  5
589
 10
462.162429
 20
307.195463
 30
0.0
 40
11.75
 50
269.999963
 51
0.0
  0
ARC
  8
LC-002-002-RND-0
  6
CONTINUOUS
  5
58A
 10
325.162429
 20
307.195316
 30
0.0
 40
11.75
 50
180.0
 51
270.0
  0
LINE
  8
LC-001-002-----0
  6
CONTINUOUS
  5
58B
 10
423.544132
 20
297.429813
 30
0.0
 11
424.689784
 21
295.445488
 31
0.0
  0
LINE
  8
LC-001-002-----0
  6
CONTINUOUS
  5
58C
 10
421.812082
 20
297.429813
 30
0.0
 11
420.66643
 21
295.44549
 31
0.0
  0
ARC
  8
LC-002-002-RND-0
  6
CONTINUOUS
  5
58D
 10
422.678107
 20
296.929813
 30
0.0
 40
1.0
 50
30.000037
 51
149.999963
  0
LINE
  8
LC-001-002-----0
  6
CONTINUOUS
  5
58E
 10
363.780726
 20
297.429813
 30
0.0
 11
362.634974
 21
295.445316
 31
0.0
  0
LINE
  8
LC-001-002-----0
  6
CONTINUOUS
  5
58F
 10
365.512776
 20
297.429813
 30
0.0
 11
366.658528
 21
295.445316
 31
0.0
  0
ARC
  8
LC-002-002-RND-0
  6
CONTINUOUS
  5
590
 10
364.646751
 20
296.929813
 30
0.0
 40
1.0
 50
30.000037
 51
149.999963
  0
LINE
  8
LC-001-002-----0
  6
CONTINUOUS
  5
591
 10
367.662429
 20
295.445316
 30
0.0
 11
366.658528
 21
295.445316
 31
0.0
  0
LINE
  8
LC-001-002-----0
  6
CONTINUOUS
  5
592
 10
471.161722
 20
372.845316
 30
0.0
 11
435.166298
 21
372.845316
 31
0.0
  0
LINE
  8
LC-001-002-----0
  6
CONTINUOUS
  5
593
 10
418.662588
 20
298.445316
 30
0.0
 11
418.688698
 21
298.445316
 31
0.0
  0
ARC
  8
LC-002-002-RND-0
  6
CONTINUOUS
  5
594
 10
418.662588
 20
295.445316
 30
0.0
 40
3.0
 50
90.0
 51
179.999963
  0
ARC
  8
LC-002-002-RND-0
  6
CONTINUOUS
  5
595
 10
418.688698
 20
300.945316
 30
0.0
 40
2.5
 50
270.0
 51
359.394785
  0
ARC
  8
LC-002-002-RND-0
  6
CONTINUOUS
  5
596
 10
368.63616
 20
300.945316
 30
0.0
 40
2.5
 50
180.605215
 51
270.0
  0
ARC
  8
LC-002-002-RND-0
  6
CONTINUOUS
  5
597
 10
368.66227
 20
295.445316
 30
0.0
 40
3.0
 50
0.000037
 51
90.0
  0
LINE
  8
LC-001-002-----0
  6
CONTINUOUS
  5
598
 10
420.66643
 20
295.44549
 30
0.0
 11
419.66243
 21
295.445491
 31
0.0
  0
LINE
  8
LC-001-002-----0
  6
CONTINUOUS
  5
599
 10
366.658528
 20
295.445316
 30
0.0
 11
341.662429
 21
295.445316
 31
0.0
  0
LINE
  8
LC-001-002-----0
  6
CONTINUOUS
  5
59A
 10
445.662429
 20
221.945474
 30
0.0
 11
447.322683
 21
221.945473
 31
0.0
  0
LINE
  8
LC-001-002-----0
  6
CONTINUOUS
  5
59B
 10
341.662429
 20
221.945542
 30
0.0
 11
445.662429
 21
221.945474
 31
0.0
  0
LINE
  8
LC-001-002-----0
  6
CONTINUOUS
  5
59C
 10
316.163136
 20
372.845316
 30
0.0
 11
352.166096
 21
372.845316
 31
0.0
  0
LINE
  8
LC-001-002-----0
  6
CONTINUOUS
  5
59D
 10
315.813136
 20
375.795316
 30
0.0
 11
352.166096
 21
375.795316
 31
0.0
  0
LINE
  8
LC-001-002-----0
  6
CONTINUOUS
  5
59E
 10
471.519436
 20
375.795316
 30
0.0
 11
435.166299
 21
375.795316
 31
0.0
  0
ARC
  8
LC-004-001-RND-0
  6
CONTINUOUS
  5
59F
 10
297.150582
 20
398.487308
 30
0.0
 40
1.5
 50
3.0
 51
86.000003
  0
LINE
  8
LC-001-002-----0
  6
DASHDOT
 62
     2
  5
5A1
 10
393.662429
 20
221.945508
 30
0.0
 11
393.662429
 21
365.445253
 31
0.0
  0
LINE
  8
LC-001-002-----0
  6
CONTINUOUS
  5
5A2
 10
410.373819
 20
373.445253
 30
0.0
 11
410.373819
 21
393.945425
 31
0.0
  0
ARC
  8
LC-001-002-----0
  6
CONTINUOUS
  5
5A3
 10
408.922511
 20
372.738147
 30
0.0
 40
0.767605
 50
112.900021
 51
247.099979
  0
LINE
  8
LC-001-002-----0
  6
CONTINUOUS
  5
5A4
 10
408.623817
 20
373.445253
 30
0.0
 11
410.373819
 21
373.445253
 31
0.0
  0
LINE
  8
LC-001-002-----0
  6
CONTINUOUS
  5
5A5
 10
408.623817
 20
368.945253
 30
0.0
 11
408.623817
 21
372.031041
 31
0.0
  0
LINE
  8
LC-001-002-----0
  6
CONTINUOUS
  5
5A6
 10
408.154906
 20
365.445253
 30
0.0
 11
408.623817
 21
368.945253
 31
0.0
  0
LINE
  8
LC-001-002-----0
  6
CONTINUOUS
  5
5A7
 10
393.666099
 20
365.445253
 30
0.0
 11
408.154906
 21
365.445253
 31
0.0
  0
LINE
  8
LC-001-002-----0
  6
CONTINUOUS
  5
5A8
 10
408.623817
 20
372.031041
 30
0.0
 11
421.944119
 21
372.031041
 31
0.0
  0
LINE
  8
LC-006-005-----0
  6
CONTINUOUS
  5
5A9
 10
316.488038
 20
379.299402
 30
0.0
 11
316.666063
 21
379.477428
 31
0.0
  0
LINE
  8
LC-001-002-----0
  6
CONTINUOUS
  5
5AA
 10
153.865333
 20
410.995284
 30
0.0
 11
153.865333
 21
406.295284
 31
0.0
  0
LINE
  8
LC-001-002-----0
  6
CONTINUOUS
  5
5AB
 10
163.865333
 20
410.995284
 30
0.0
 11
163.865333
 21
406.295284
 31
0.0
  0
LINE
  8
LC-001-002-----0
  6
CONTINUOUS
  5
5AC
 10
173.865333
 20
410.995284
 30
0.0
 11
173.865333
 21
406.295284
 31
0.0
  0
LINE
  8
LC-001-002-----0
  6
CONTINUOUS
  5
5AD
 10
183.865333
 20
410.995284
 30
0.0
 11
183.865333
 21
406.295284
 31
0.0
  0
LINE
  8
LC-001-002-----0
  6
CONTINUOUS
  5
5AE
 10
193.865333
 20
410.995284
 30
0.0
 11
193.865333
 21
406.295284
 31
0.0
  0
LINE
  8
LC-001-002-----0
  6
CONTINUOUS
  5
5AF
 10
203.865333
 20
410.995284
 30
0.0
 11
203.865333
 21
406.295284
 31
0.0
  0
LINE
  8
LC-001-002-----0
  6
CONTINUOUS
  5
5B0
 10
213.865333
 20
410.995284
 30
0.0
 11
213.865333
 21
406.295284
 31
0.0
  0
LINE
  8
LC-001-002-----0
  6
CONTINUOUS
  5
5B1
 10
223.865333
 20
410.995284
 30
0.0
 11
223.865333
 21
406.295284
 31
0.0
  0
LINE
  8
LC-001-002-----0
  6
CONTINUOUS
  5
5B2
 10
233.865333
 20
410.995284
 30
0.0
 11
233.865333
 21
406.295284
 31
0.0
  0
LINE
  8
LC-001-002-----0
  6
CONTINUOUS
  5
5B3
 10
285.873557
 20
410.729168
 30
0.0
 11
501.476324
 21
410.729168
 31
0.0
  0
ARC
  8
LC-001-002-----0
  6
CONTINUOUS
  5
5B4
 10
291.313048
 20
415.135066
 30
0.0
 40
7.0
 50
219.006904
 51
266.0
  0
ARC
  8
LC-001-002-----0
  6
CONTINUOUS
  5
5B5
 10
291.313048
 20
415.135066
 30
0.0
 40
6.3
 50
224.378071
 51
266.0
  0
LINE
  8
LC-001-002-----0
  6
CONTINUOUS
  5
5B6
 10
290.824753
 20
408.152118
 30
0.0
 11
308.552012
 21
406.912507
 31
0.0
  0
LINE
  8
LC-001-002-----0
  6
CONTINUOUS
  5
5B7
 10
290.871366
 20
408.839988
 30
0.0
 11
308.600842
 21
407.600222
 31
0.0
  0
ARC
  8
LC-002-002-RND-0
  6
CONTINUOUS
  5
5B8
 10
308.112546
 20
400.617274
 30
0.0
 40
7.0
 50
0.0
 51
86.0
  0
ARC
  8
LC-002-002-RND-0
  6
CONTINUOUS
  5
5B9
 10
308.112546
 20
400.627854
 30
0.0
 40
6.3
 50
0.0
 51
86.0
  0
LINE
  8
LC-001-002-----0
  6
CONTINUOUS
  5
5BA
 10
314.412546
 20
400.627854
 30
0.0
 11
314.412546
 21
386.93981
 31
0.0
  0
ARC
  8
LC-001-002-----0
  6
CONTINUOUS
  5
5BB
 10
317.912546
 20
386.93981
 30
0.0
 40
3.5
 50
180.0
 51
270.0
  0
ARC
  8
LC-001-002-----0
  6
CONTINUOUS
  5
5BC
 10
317.912546
 20
386.93981
 30
0.0
 40
2.8
 50
180.0
 51
270.0
  0
ARC
  8
LC-001-002-----0
  6
CONTINUOUS
  5
5BD
 10
317.912826
 20
383.140178
 30
0.0
 40
1.0
 50
359.99972
 51
89.99972
  0
ARC
  8
LC-001-002-----0
  6
CONTINUOUS
  5
5BE
 10
317.912826
 20
383.140178
 30
0.0
 40
0.3
 50
359.99972
 51
89.99972
  0
LINE
  8
LC-001-002-----0
  6
CONTINUOUS
  5
5BF
 10
318.212546
 20
383.13981
 30
0.0
 11
318.212546
 21
380.83981
 31
0.0
  0
LINE
  8
LC-001-002-----0
  6
CONTINUOUS
  5
5C0
 10
318.912546
 20
383.13981
 30
0.0
 11
318.912546
 21
380.83981
 31
0.0
  0
ARC
  8
LC-001-002-----0
  6
CONTINUOUS
  5
5C1
 10
317.913069
 20
380.83981
 30
0.0
 40
0.3
 50
270.0
 51
0.0
  0
ARC
  8
LC-001-002-----0
  6
CONTINUOUS
  5
5C2
 10
317.912546
 20
380.83981
 30
0.0
 40
1.0
 50
270.0
 51
0.0
  0
ARC
  8
LC-001-002-----0
  6
CONTINUOUS
  5
5C3
 10
317.912546
 20
379.03981
 30
0.0
 40
1.5
 50
90.0
 51
180.0
  0
ARC
  8
LC-001-002-----0
  6
CONTINUOUS
  5
5C4
 10
317.912546
 20
379.03981
 30
0.0
 40
0.8
 50
90.0
 51
180.0
  0
ARC
  8
LC-001-002-----0
  6
CONTINUOUS
  5
5C5
 10
317.912546
 20
379.03981
 30
0.0
 40
1.5
 50
180.0
 51
270.0
  0
ARC
  8
LC-001-002-----0
  6
CONTINUOUS
  5
5C6
 10
317.912546
 20
379.03981
 30
0.0
 40
0.8
 50
180.0
 51
270.0
  0
LINE
  8
LC-001-002-----0
  6
CONTINUOUS
  5
5C7
 10
317.912546
 20
378.23981
 30
0.0
 11
320.712546
 21
378.23981
 31
0.0
  0
LINE
  8
LC-001-002-----0
  6
CONTINUOUS
  5
5C8
 10
317.912546
 20
377.53981
 30
0.0
 11
320.712546
 21
377.53981
 31
0.0
  0
LINE
  8
LC-001-002-----0
  6
CONTINUOUS
  5
5C9
 10
320.712546
 20
377.53981
 30
0.0
 11
320.712546
 21
378.23981
 31
0.0
  0
LINE
  8
LC-001-002-----0
  6
CONTINUOUS
  5
5CA
 10
301.92146
 20
407.305113
 30
0.0
 11
293.865333
 21
407.890546
 31
0.0
  0
LINE
  8
LC-001-002-----0
  6
CONTINUOUS
  5
5CB
 10
472.174941
 20
387.140477
 30
0.0
 11
469.174941
 21
384.140477
 31
0.0
  0
LINE
  8
LC-001-002-----0
  6
CONTINUOUS
  5
5CC
 10
462.174941
 20
384.140477
 30
0.0
 11
462.174941
 21
386.640477
 31
0.0
  0
LINE
  8
LC-001-002-----0
  6
CONTINUOUS
  5
5CD
 10
469.674941
 20
403.140122
 30
0.0
 11
468.174941
 21
403.140122
 31
0.0
  0
LINE
  8
LC-001-002-----0
  6
CONTINUOUS
  5
5CE
 10
469.674941
 20
386.640477
 30
0.0
 11
469.674941
 21
404.140122
 31
0.0
  0
ARC
  8
LC-002-002-RND-0
  6
CONTINUOUS
  5
5CF
 10
468.174941
 20
401.140122
 30
0.0
 40
2.0
 50
90.0
 51
180.0
  0
LINE
  8
LC-001-002-----0
  6
CONTINUOUS
  5
5D0
 10
456.747681
 20
384.140477
 30
0.0
 11
456.747681
 21
386.640477
 31
0.0
  0
LINE
  8
LC-001-002-----0
  6
CONTINUOUS
  5
5D1
 10
449.247724
 20
386.640477
 30
0.0
 11
469.674941
 21
386.640477
 31
0.0
  0
LINE
  8
LC-001-002-----0
  6
CONTINUOUS
  5
5D2
 10
315.174941
 20
387.140477
 30
0.0
 11
318.174941
 21
384.140477
 31
0.0
  0
LINE
  8
LC-001-002-----0
  6
CONTINUOUS
  5
5D3
 10
325.174941
 20
384.140477
 30
0.0
 11
325.174941
 21
386.640477
 31
0.0
  0
LINE
  8
LC-001-002-----0
  6
CONTINUOUS
  5
5D4
 10
317.674941
 20
403.140122
 30
0.0
 11
319.174941
 21
403.140122
 31
0.0
  0
LINE
  8
LC-001-002-----0
  6
CONTINUOUS
  5
5D5
 10
317.674941
 20
403.140122
 30
0.0
 11
317.674941
 21
404.140122
 31
0.0
  0
ARC
  8
LC-002-002-RND-0
  6
CONTINUOUS
  5
5D6
 10
319.174941
 20
401.140122
 30
0.0
 40
2.0
 50
0.0
 51
90.0
  0
LINE
  8
LC-001-002-----0
  6
CONTINUOUS
  5
5D7
 10
330.602201
 20
384.140477
 30
0.0
 11
330.602201
 21
386.640477
 31
0.0
  0
LINE
  8
LC-001-002-----0
  6
CONTINUOUS
  5
5D8
 10
338.102201
 20
384.140477
 30
0.0
 11
338.102201
 21
386.640477
 31
0.0
  0
LINE
  8
LC-001-002-----0
  6
CONTINUOUS
  5
5D9
 10
349.365236
 20
384.140477
 30
0.0
 11
349.365236
 21
386.640477
 31
0.0
  0
LINE
  8
LC-001-002-----0
  6
CONTINUOUS
  5
5DA
 10
352.472689
 20
386.640477
 30
0.0
 11
349.365236
 21
386.640477
 31
0.0
  0
LINE
  8
LC-001-002-----0
  6
CONTINUOUS
  5
5DB
 10
338.102201
 20
386.640477
 30
0.0
 11
317.912546
 21
386.640477
 31
0.0
  0
LINE
  8
LC-001-002-----0
  6
CONTINUOUS
  5
5DC
 10
321.174941
 20
401.140122
 30
0.0
 11
321.174941
 21
386.640477
 31
0.0
  0
LINE
  8
LC-001-002-----0
  6
CONTINUOUS
  5
5DD
 10
315.174941
 20
404.140122
 30
0.0
 11
315.174941
 21
387.140477
 31
0.0
  0
LINE
  8
LC-001-002-----0
  6
CONTINUOUS
  5
5DE
 10
323.424941
 20
384.140477
 30
0.0
 11
352.167684
 21
384.140477
 31
0.0
  0
LINE
  8
LC-001-002-----0
  6
CONTINUOUS
  5
5DF
 10
315.174941
 20
404.140122
 30
0.0
 11
383.509262
 21
404.140122
 31
0.0
  0
LINE
  8
LC-001-002-----0
  6
CONTINUOUS
  5
5E0
 10
323.424941
 20
384.140477
 30
0.0
 11
318.174941
 21
384.140477
 31
0.0
  0
LINE
  8
LC-001-002-----0
  6
CONTINUOUS
  5
5E1
 10
466.174941
 20
401.140122
 30
0.0
 11
466.174941
 21
386.640477
 31
0.0
  0
LINE
  8
LC-001-002-----0
  6
CONTINUOUS
  5
5E2
 10
472.174941
 20
404.140122
 30
0.0
 11
472.174941
 21
387.140477
 31
0.0
  0
LINE
  8
LC-001-002-----0
  6
CONTINUOUS
  5
5E3
 10
463.924941
 20
384.140477
 30
0.0
 11
435.164721
 21
384.140477
 31
0.0
  0
LINE
  8
LC-001-002-----0
  6
CONTINUOUS
  5
5E4
 10
472.174941
 20
404.140122
 30
0.0
 11
403.82293
 21
404.140122
 31
0.0
  0
LINE
  8
LC-001-002-----0
  6
CONTINUOUS
  5
5E5
 10
463.924941
 20
384.140477
 30
0.0
 11
469.174941
 21
384.140477
 31
0.0
  0
LINE
  8
LC-001-002-----0
  6
CONTINUOUS
  5
5E6
 10
315.112546
 20
400.617274
 30
0.0
 11
315.112546
 21
386.93981
 31
0.0
  0
LINE
  8
LC-001-002-----0
  6
CONTINUOUS
  5
5E7
 10
317.674941
 20
386.640477
 30
0.0
 11
317.674941
 21
404.140122
 31
0.0
  0
ARC
  8
LC-001-002-----0
  6
CONTINUOUS
  5
5E8
 10
496.036833
 20
415.135066
 30
0.0
 40
6.3
 50
274.0
 51
315.621929
  0
ARC
  8
LC-001-002-----0
  6
CONTINUOUS
  5
5E9
 10
496.036833
 20
415.135066
 30
0.0
 40
7.0
 50
274.0
 51
320.993096
  0
LINE
  8
LC-001-002-----0
  6
CONTINUOUS
  5
5EA
 10
496.478515
 20
408.839988
 30
0.0
 11
478.74904
 21
407.600222
 31
0.0
  0
LINE
  8
LC-001-002-----0
  6
CONTINUOUS
  5
5EB
 10
496.525129
 20
408.152118
 30
0.0
 11
478.797869
 21
406.912507
 31
0.0
  0
ARC
  8
LC-002-002-RND-0
  6
CONTINUOUS
  5
5EC
 10
479.237335
 20
400.617274
 30
0.0
 40
7.0
 50
94.0
 51
180.0
  0
ARC
  8
LC-002-002-RND-0
  6
CONTINUOUS
  5
5ED
 10
479.237335
 20
400.627854
 30
0.0
 40
6.3
 50
94.0
 51
180.0
  0
LINE
  8
LC-001-002-----0
  6
CONTINUOUS
  5
5EE
 10
472.937335
 20
400.627854
 30
0.0
 11
472.937335
 21
386.93981
 31
0.0
  0
LINE
  8
LC-001-002-----0
  6
CONTINUOUS
  5
5EF
 10
472.237335
 20
400.617274
 30
0.0
 11
472.237335
 21
386.93981
 31
0.0
  0
ARC
  8
LC-001-002-----0
  6
CONTINUOUS
  5
5F0
 10
469.437335
 20
386.93981
 30
0.0
 40
2.8
 50
270.0
 51
0.0
  0
ARC
  8
LC-001-002-----0
  6
CONTINUOUS
  5
5F1
 10
469.437335
 20
386.93981
 30
0.0
 40
3.5
 50
270.0
 51
0.0
  0
ARC
  8
LC-001-002-----0
  6
CONTINUOUS
  5
5F2
 10
469.437055
 20
383.140178
 30
0.0
 40
1.0
 50
90.00028
 51
180.00028
  0
ARC
  8
LC-001-002-----0
  6
CONTINUOUS
  5
5F3
 10
469.437055
 20
383.140178
 30
0.0
 40
0.3
 50
90.00028
 51
180.00028
  0
LINE
  8
LC-001-002-----0
  6
CONTINUOUS
  5
5F4
 10
468.437335
 20
383.13981
 30
0.0
 11
468.437335
 21
380.83981
 31
0.0
  0
LINE
  8
LC-001-002-----0
  6
CONTINUOUS
  5
5F5
 10
469.137335
 20
383.13981
 30
0.0
 11
469.137335
 21
380.83981
 31
0.0
  0
ARC
  8
LC-001-002-----0
  6
CONTINUOUS
  5
5F6
 10
469.437335
 20
380.83981
 30
0.0
 40
1.0
 50
180.0
 51
270.0
  0
ARC
  8
LC-001-002-----0
  6
CONTINUOUS
  5
5F7
 10
469.436813
 20
380.83981
 30
0.0
 40
0.3
 50
180.0
 51
270.0
  0
ARC
  8
LC-001-002-----0
  6
CONTINUOUS
  5
5F8
 10
469.437335
 20
379.03981
 30
0.0
 40
1.5
 50
0.0
 51
90.0
  0
ARC
  8
LC-001-002-----0
  6
CONTINUOUS
  5
5F9
 10
469.437335
 20
379.03981
 30
0.0
 40
1.5
 50
270.0
 51
0.0
  0
ARC
  8
LC-001-002-----0
  6
CONTINUOUS
  5
5FA
 10
469.437335
 20
379.03981
 30
0.0
 40
0.8
 50
0.0
 51
90.0
  0
ARC
  8
LC-001-002-----0
  6
CONTINUOUS
  5
5FB
 10
469.437335
 20
379.03981
 30
0.0
 40
0.8
 50
270.0
 51
0.0
  0
LINE
  8
LC-001-002-----0
  6
CONTINUOUS
  5
5FC
 10
469.437335
 20
378.23981
 30
0.0
 11
466.637335
 21
378.23981
 31
0.0
  0
LINE
  8
LC-001-002-----0
  6
CONTINUOUS
  5
5FD
 10
469.437335
 20
377.53981
 30
0.0
 11
466.637335
 21
377.53981
 31
0.0
  0
LINE
  8
LC-001-002-----0
  6
CONTINUOUS
  5
5FE
 10
466.637335
 20
377.53981
 30
0.0
 11
466.637335
 21
378.23981
 31
0.0
  0
ARC
  8
LC-001-002-----0
  6
CONTINUOUS
  5
5FF
 10
457.174443
 20
401.140122
 30
0.0
 40
2.0
 50
90.0
 51
180.0
  0
LINE
  8
LC-001-002-----0
  6
CONTINUOUS
  5
600
 10
460.707252
 20
403.140122
 30
0.0
 11
457.174443
 21
403.140122
 31
0.0
  0
LINE
  8
LC-001-002-----0
  6
CONTINUOUS
  5
601
 10
460.707252
 20
386.640477
 30
0.0
 11
460.707252
 21
403.140122
 31
0.0
  0
LINE
  8
LC-001-002-----0
  6
CONTINUOUS
  5
602
 10
457.674443
 20
386.640477
 30
0.0
 11
457.674443
 21
401.140122
 31
0.0
  0
LINE
  8
LC-001-002-----0
  6
CONTINUOUS
  5
603
 10
455.174443
 20
386.640477
 30
0.0
 11
455.174443
 21
401.140122
 31
0.0
  0
ARC
  8
LC-001-002-----0
  6
CONTINUOUS
  5
604
 10
459.674443
 20
401.140122
 30
0.0
 40
2.0
 50
90.0
 51
180.0
  0
LINE
  8
LC-001-002-----0
  6
CONTINUOUS
  5
605
 10
427.738319
 20
395.04032
 30
0.0
 11
427.738319
 21
401.140122
 31
0.0
  0
LINE
  8
LC-001-002-----0
  6
CONTINUOUS
  5
606
 10
433.819439
 20
403.140122
 30
0.0
 11
429.738319
 21
403.140122
 31
0.0
  0
ARC
  8
LC-001-002-----0
  6
CONTINUOUS
  5
607
 10
429.738319
 20
401.140122
 30
0.0
 40
2.0
 50
90.0
 51
180.0
  0
ARC
  8
LC-001-002-----0
  6
CONTINUOUS
  5
608
 10
434.068446
 20
401.140122
 30
0.0
 40
2.0
 50
97.096995
 51
180.0
  0
LINE
  8
LC-001-002-----0
  6
CONTINUOUS
  5
609
 10
433.819439
 20
389.469078
 30
0.0
 11
433.819439
 21
403.140122
 31
0.0
  0
ARC
  8
LC-001-002-----0
  6
CONTINUOUS
  5
60A
 10
330.175439
 20
401.140122
 30
0.0
 40
2.0
 50
0.0
 51
90.0
  0
LINE
  8
LC-001-002-----0
  6
CONTINUOUS
  5
60B
 10
326.642629
 20
403.140122
 30
0.0
 11
330.175439
 21
403.140122
 31
0.0
  0
LINE
  8
LC-001-002-----0
  6
CONTINUOUS
  5
60C
 10
326.642629
 20
386.640477
 30
0.0
 11
326.642629
 21
403.140122
 31
0.0
  0
LINE
  8
LC-001-002-----0
  6
CONTINUOUS
  5
60D
 10
329.675439
 20
386.640477
 30
0.0
 11
329.675439
 21
401.140122
 31
0.0
  0
LINE
  8
LC-001-002-----0
  6
CONTINUOUS
  5
60E
 10
332.175439
 20
386.640477
 30
0.0
 11
332.175439
 21
401.140122
 31
0.0
  0
ARC
  8
LC-001-002-----0
  6
CONTINUOUS
  5
60F
 10
327.675439
 20
401.140122
 30
0.0
 40
2.0
 50
0.0
 51
90.0
  0
LINE
  8
LC-001-002-----0
  6
CONTINUOUS
  5
610
 10
355.281435
 20
392.011406
 30
0.0
 11
355.281435
 21
401.140122
 31
0.0
  0
LINE
  8
LC-001-002-----0
  6
CONTINUOUS
  5
611
 10
359.611562
 20
395.047335
 30
0.0
 11
359.611562
 21
401.140122
 31
0.0
  0
LINE
  8
LC-001-002-----0
  6
CONTINUOUS
  5
612
 10
353.530442
 20
403.140122
 30
0.0
 11
357.611562
 21
403.140122
 31
0.0
  0
ARC
  8
LC-001-002-----0
  6
CONTINUOUS
  5
613
 10
357.611562
 20
401.140122
 30
0.0
 40
2.0
 50
0.0
 51
90.0
  0
ARC
  8
LC-001-002-----0
  6
CONTINUOUS
  5
614
 10
353.281435
 20
401.140122
 30
0.0
 40
2.0
 50
0.0
 51
82.903005
  0
LINE
  8
LC-001-002-----0
  6
CONTINUOUS
  5
615
 10
353.530442
 20
389.502489
 30
0.0
 11
353.530442
 21
403.140122
 31
0.0
  0
LINE
  8
LC-001-002-----0
  6
CONTINUOUS
  5
616
 10
243.790544
 20
410.981358
 30
0.0
 11
253.798119
 21
410.806675
 31
0.0
  0
LINE
  8
LC-001-002-----0
  6
CONTINUOUS
  5
617
 10
287.408434
 20
408.39101
 30
0.0
 11
301.436051
 21
407.410104
 31
0.0
  0
LINE
  8
LC-001-002-----0
  6
CONTINUOUS
  5
618
 10
285.546946
 20
410.252497
 30
0.0
 11
287.408434
 21
408.39101
 31
0.0
  0
LINE
  8
LC-001-002-----0
  6
CONTINUOUS
  5
619
 10
243.790544
 20
410.995284
 30
0.0
 11
143.865333
 21
410.995284
 31
0.0
  0
LINE
  8
LC-001-002-----0
  6
CONTINUOUS
  5
61A
 10
242.992712
 20
406.295284
 30
0.0
 11
143.865333
 21
406.295284
 31
0.0
  0
LINE
  8
LC-001-002-----0
  6
CONTINUOUS
  5
61B
 10
143.865333
 20
410.995284
 30
0.0
 11
143.865333
 21
406.295284
 31
0.0
  0
LINE
  8
LC-001-002-----0
  6
CONTINUOUS
  5
61C
 10
301.436051
 20
402.698627
 30
0.0
 11
301.436051
 21
407.410104
 31
0.0
  0
LINE
  8
LC-001-002-----0
  6
CONTINUOUS
  5
61D
 10
253.798119
 20
410.806675
 30
0.0
 11
253.716093
 21
406.107391
 31
0.0
  0
LINE
  8
LC-001-002-----0
  6
CONTINUOUS
  5
61E
 10
283.865333
 20
410.28185
 30
0.0
 11
283.865333
 21
405.287307
 31
0.0
  0
LINE
  8
LC-001-002-----0
  6
CONTINUOUS
  5
61F
 10
293.865333
 20
407.9395
 30
0.0
 11
293.865333
 21
403.228023
 31
0.0
  0
LINE
  8
LC-001-002-----0
  6
CONTINUOUS
  5
620
 10
243.790544
 20
410.981358
 30
0.0
 11
243.708518
 21
406.282074
 31
0.0
  0
LINE
  8
LC-001-002-----0
  6
CONTINUOUS
  5
621
 10
263.808856
 20
410.631937
 30
0.0
 11
263.72683
 21
405.932653
 31
0.0
  0
LINE
  8
LC-001-002-----0
  6
CONTINUOUS
  5
622
 10
273.818013
 20
410.457227
 30
0.0
 11
273.735986
 21
405.757942
 31
0.0
  0
LINE
  8
LC-001-002-----0
  6
CONTINUOUS
  5
623
 10
242.9927
 20
406.294568
 30
0.0
 11
253.716093
 21
406.107391
 31
0.0
  0
LINE
  8
LC-001-002-----0
  6
CONTINUOUS
  5
624
 10
253.798119
 20
410.806675
 30
0.0
 11
283.865333
 21
410.28185
 31
0.0
  0
LINE
  8
LC-001-002-----0
  6
CONTINUOUS
  5
625
 10
253.716093
 20
406.107391
 30
0.0
 11
283.566286
 21
405.586354
 31
0.0
  0
LINE
  8
LC-001-002-----0
  6
CONTINUOUS
  5
626
 10
283.865333
 20
410.28185
 30
0.0
 11
285.546946
 21
410.252497
 31
0.0
  0
LINE
  8
LC-001-002-----0
  6
CONTINUOUS
  5
627
 10
633.459524
 20
410.995284
 30
0.0
 11
633.459524
 21
406.295284
 31
0.0
  0
LINE
  8
LC-001-002-----0
  6
CONTINUOUS
  5
628
 10
623.459524
 20
410.995284
 30
0.0
 11
623.459524
 21
406.295284
 31
0.0
  0
LINE
  8
LC-001-002-----0
  6
CONTINUOUS
  5
629
 10
613.459524
 20
410.995284
 30
0.0
 11
613.459524
 21
406.295284
 31
0.0
  0
LINE
  8
LC-001-002-----0
  6
CONTINUOUS
  5
62A
 10
603.459524
 20
410.995284
 30
0.0
 11
603.459524
 21
406.295284
 31
0.0
  0
LINE
  8
LC-001-002-----0
  6
CONTINUOUS
  5
62B
 10
593.459524
 20
410.995284
 30
0.0
 11
593.459524
 21
406.295284
 31
0.0
  0
LINE
  8
LC-001-002-----0
  6
CONTINUOUS
  5
62C
 10
583.459524
 20
410.995284
 30
0.0
 11
583.459524
 21
406.295284
 31
0.0
  0
LINE
  8
LC-001-002-----0
  6
CONTINUOUS
  5
62D
 10
573.459524
 20
410.995284
 30
0.0
 11
573.459524
 21
406.295284
 31
0.0
  0
LINE
  8
LC-001-002-----0
  6
CONTINUOUS
  5
62E
 10
563.459524
 20
410.995284
 30
0.0
 11
563.459524
 21
406.295284
 31
0.0
  0
LINE
  8
LC-001-002-----0
  6
CONTINUOUS
  5
62F
 10
553.459524
 20
410.995284
 30
0.0
 11
553.459524
 21
406.295284
 31
0.0
  0
LINE
  8
LC-001-002-----0
  6
CONTINUOUS
  5
630
 10
543.534314
 20
410.995284
 30
0.0
 11
643.459524
 21
410.995284
 31
0.0
  0
LINE
  8
LC-001-002-----0
  6
CONTINUOUS
  5
631
 10
643.459524
 20
410.995284
 30
0.0
 11
643.459524
 21
406.295284
 31
0.0
  0
LINE
  8
LC-001-002-----0
  6
CONTINUOUS
  5
632
 10
544.332145
 20
406.295284
 30
0.0
 11
643.459524
 21
406.295284
 31
0.0
  0
LINE
  8
LC-001-002-----0
  6
CONTINUOUS
  5
633
 10
543.534314
 20
410.981358
 30
0.0
 11
543.61634
 21
406.282074
 31
0.0
  0
LINE
  8
LC-001-002-----0
  6
CONTINUOUS
  5
634
 10
533.526738
 20
410.806675
 30
0.0
 11
533.608765
 21
406.107391
 31
0.0
  0
LINE
  8
LC-001-002-----0
  6
CONTINUOUS
  5
635
 10
533.526738
 20
410.806675
 30
0.0
 11
503.459524
 21
410.28185
 31
0.0
  0
LINE
  8
LC-001-002-----0
  6
CONTINUOUS
  5
636
 10
523.516001
 20
410.631937
 30
0.0
 11
523.598028
 21
405.932653
 31
0.0
  0
LINE
  8
LC-001-002-----0
  6
CONTINUOUS
  5
637
 10
513.506845
 20
410.457227
 30
0.0
 11
513.588872
 21
405.757942
 31
0.0
  0
LINE
  8
LC-001-002-----0
  6
CONTINUOUS
  5
638
 10
503.459524
 20
410.28185
 30
0.0
 11
503.459524
 21
405.287307
 31
0.0
  0
LINE
  8
LC-001-002-----0
  6
CONTINUOUS
  5
639
 10
493.459524
 20
407.9395
 30
0.0
 11
493.459524
 21
403.228023
 31
0.0
  0
LINE
  8
LC-001-002-----0
  6
CONTINUOUS
  5
63A
 10
499.916424
 20
408.39101
 30
0.0
 11
485.888806
 21
407.410104
 31
0.0
  0
LINE
  8
LC-001-002-----0
  6
CONTINUOUS
  5
63B
 10
501.777911
 20
410.252497
 30
0.0
 11
499.916424
 21
408.39101
 31
0.0
  0
LINE
  8
LC-001-002-----0
  6
CONTINUOUS
  5
63C
 10
485.888806
 20
402.698627
 30
0.0
 11
485.888806
 21
407.410104
 31
0.0
  0
LINE
  8
LC-001-002-----0
  6
CONTINUOUS
  5
63D
 10
432.068446
 20
391.992281
 30
0.0
 11
432.068446
 21
401.140122
 31
0.0
  0
LINE
  8
LC-001-002-----0
  6
CONTINUOUS
  5
63E
 10
449.222657
 20
384.140477
 30
0.0
 11
449.222657
 21
386.640477
 31
0.0
  0
LINE
  8
LC-001-002-----0
  6
CONTINUOUS
  5
63F
 10
437.959622
 20
384.140477
 30
0.0
 11
437.959622
 21
386.640477
 31
0.0
  0
LINE
  8
LC-001-002-----0
  6
CONTINUOUS
  5
640
 10
434.852169
 20
386.640477
 30
0.0
 11
437.959622
 21
386.640477
 31
0.0
  0
LINE
  8
LC-001-002-----0
  6
CONTINUOUS
  5
641
 10
485.560566
 20
402.456145
 30
0.0
 11
479.624914
 21
402.041084
 31
0.0
  0
LINE
  8
LC-001-002-----0
  6
CONTINUOUS
  5
642
 10
480.701493
 20
399.595316
 30
0.0
 11
480.701493
 21
386.742897
 31
0.0
  0
LINE
  8
LC-001-002-----0
  6
CONTINUOUS
  5
643
 10
480.701493
 20
399.595316
 30
0.0
 11
482.419436
 21
399.595316
 31
0.0
  0
LINE
  8
LC-001-002-----0
  6
CONTINUOUS
  5
644
 10
485.560818
 20
402.452541
 30
0.0
 11
485.560818
 21
394.829568
 31
0.0
  0
ARC
  8
LC-002-002-RND-0
  6
CONTINUOUS
  5
645
 10
484.480968
 20
394.842401
 30
0.0
 40
1.07985
 50
273.999997
 51
0.0
  0
LINE
  8
LC-001-002-----0
  6
CONTINUOUS
  5
646
 10
484.556295
 20
393.765181
 30
0.0
 11
482.419436
 21
393.615758
 31
0.0
  0
LINE
  8
LC-001-002-----0
  6
CONTINUOUS
  5
647
 10
482.419436
 20
393.615758
 30
0.0
 11
482.419436
 21
399.595316
 31
0.0
  0
ARC
  8
LC-001-002-----0
  6
CONTINUOUS
  5
648
 10
479.905585
 20
398.027298
 30
0.0
 40
4.023715
 50
93.998836
 51
111.246312
  0
LINE
  8
LC-001-002-----0
  6
CONTINUOUS
  5
649
 10
473.507604
 20
396.480375
 30
0.0
 11
478.447479
 21
401.777527
 31
0.0
  0
ARC
  8
LC-001-002-----0
  6
CONTINUOUS
  5
64A
 10
473.724833
 20
396.279998
 30
0.0
 40
0.296443
 50
137.000136
 51
290.000136
  0
LINE
  8
LC-001-002-----0
  6
CONTINUOUS
  5
64B
 10
473.825788
 20
395.99963
 30
0.0
 11
477.118979
 21
397.198178
 31
0.0
  0
ARC
  8
LC-001-002-----0
  6
CONTINUOUS
  5
64C
 10
477.456925
 20
396.269621
 30
0.0
 40
0.988142
 50
359.998586
 51
109.998839
  0
LINE
  8
LC-001-002-----0
  6
CONTINUOUS
  5
64D
 10
478.445067
 20
396.269621
 30
0.0
 11
478.445037
 21
394.953883
 31
0.0
  0
ARC
  8
LC-001-002-----0
  6
CONTINUOUS
  5
64E
 10
477.950966
 20
394.953894
 30
0.0
 40
0.494071
 50
316.998839
 51
359.998703
  0
LINE
  8
LC-001-002-----0
  6
CONTINUOUS
  5
64F
 10
473.507446
 20
389.464565
 30
0.0
 11
478.3123
 21
394.616931
 31
0.0
  0
ARC
  8
LC-001-002-----0
  6
CONTINUOUS
  5
650
 10
473.724833
 20
389.264188
 30
0.0
 40
0.296443
 50
137.000136
 51
290.000136
  0
LINE
  8
LC-001-002-----0
  6
CONTINUOUS
  5
651
 10
473.82563
 20
388.98382
 30
0.0
 11
477.11882
 21
390.182368
 31
0.0
  0
ARC
  8
LC-001-002-----0
  6
CONTINUOUS
  5
652
 10
477.456766
 20
389.253811
 30
0.0
 40
0.988142
 50
359.998586
 51
109.998839
  0
LINE
  8
LC-001-002-----0
  6
CONTINUOUS
  5
653
 10
478.444894
 20
389.253789
 30
0.0
 11
478.444832
 21
386.74099
 31
0.0
  0
LINE
  8
LC-001-002-----0
  6
CONTINUOUS
  5
654
 10
480.700965
 20
386.742897
 30
0.0
 11
478.444832
 21
386.742897
 31
0.0
  0
LINE
  8
LC-001-002-----0
  6
CONTINUOUS
  5
655
 10
301.764292
 20
402.456145
 30
0.0
 11
307.699944
 21
402.041084
 31
0.0
  0
LINE
  8
LC-001-002-----0
  6
CONTINUOUS
  5
656
 10
306.623365
 20
399.595316
 30
0.0
 11
306.623365
 21
386.742897
 31
0.0
  0
LINE
  8
LC-001-002-----0
  6
CONTINUOUS
  5
657
 10
306.623365
 20
399.595316
 30
0.0
 11
304.905421
 21
399.595316
 31
0.0
  0
LINE
  8
LC-001-002-----0
  6
CONTINUOUS
  5
658
 10
301.76404
 20
402.452541
 30
0.0
 11
301.76404
 21
394.829568
 31
0.0
  0
ARC
  8
LC-002-002-RND-0
  6
CONTINUOUS
  5
659
 10
302.84389
 20
394.842401
 30
0.0
 40
1.07985
 50
180.0
 51
266.000003
  0
LINE
  8
LC-001-002-----0
  6
CONTINUOUS
  5
65A
 10
302.768563
 20
393.765181
 30
0.0
 11
304.905421
 21
393.615758
 31
0.0
  0
LINE
  8
LC-001-002-----0
  6
CONTINUOUS
  5
65B
 10
304.905421
 20
393.615758
 30
0.0
 11
304.905421
 21
399.595316
 31
0.0
  0
ARC
  8
LC-001-002-----0
  6
CONTINUOUS
  5
65C
 10
307.419273
 20
398.027298
 30
0.0
 40
4.023715
 50
68.753688
 51
86.001164
  0
LINE
  8
LC-001-002-----0
  6
CONTINUOUS
  5
65D
 10
313.817254
 20
396.480375
 30
0.0
 11
308.877379
 21
401.777527
 31
0.0
  0
ARC
  8
LC-001-002-----0
  6
CONTINUOUS
  5
65E
 10
313.600025
 20
396.279998
 30
0.0
 40
0.296443
 50
249.999864
 51
42.999864
  0
LINE
  8
LC-001-002-----0
  6
CONTINUOUS
  5
65F
 10
313.499069
 20
395.99963
 30
0.0
 11
310.205879
 21
397.198178
 31
0.0
  0
ARC
  8
LC-001-002-----0
  6
CONTINUOUS
  5
660
 10
309.867933
 20
396.269621
 30
0.0
 40
0.988142
 50
70.001161
 51
180.001414
  0
LINE
  8
LC-001-002-----0
  6
CONTINUOUS
  5
661
 10
308.879791
 20
396.269621
 30
0.0
 11
308.879821
 21
394.953883
 31
0.0
  0
ARC
  8
LC-001-002-----0
  6
CONTINUOUS
  5
662
 10
309.373892
 20
394.953894
 30
0.0
 40
0.494071
 50
180.001297
 51
223.001161
  0
LINE
  8
LC-001-002-----0
  6
CONTINUOUS
  5
663
 10
313.817412
 20
389.464565
 30
0.0
 11
309.012558
 21
394.616931
 31
0.0
  0
ARC
  8
LC-001-002-----0
  6
CONTINUOUS
  5
664
 10
313.600025
 20
389.264188
 30
0.0
 40
0.296443
 50
249.999864
 51
42.999864
  0
LINE
  8
LC-001-002-----0
  6
CONTINUOUS
  5
665
 10
313.499228
 20
388.98382
 30
0.0
 11
310.206037
 21
390.182368
 31
0.0
  0
ARC
  8
LC-001-002-----0
  6
CONTINUOUS
  5
666
 10
309.868092
 20
389.253811
 30
0.0
 40
0.988142
 50
70.001161
 51
180.001414
  0
LINE
  8
LC-001-002-----0
  6
CONTINUOUS
  5
667
 10
308.879964
 20
389.253789
 30
0.0
 11
308.880026
 21
386.74099
 31
0.0
  0
LINE
  8
LC-001-002-----0
  6
CONTINUOUS
  5
668
 10
306.623893
 20
386.742897
 30
0.0
 11
308.880026
 21
386.742897
 31
0.0
  0
LINE
  8
LC-001-002-----0
  6
CONTINUOUS
  5
669
 10
395.100834
 20
365.445253
 30
0.0
 11
395.108548
 21
393.945425
 31
0.0
  0
LINE
  8
LC-001-002-----0
  6
CONTINUOUS
  5
66A
 10
383.916097
 20
395.945253
 30
0.0
 11
393.666096
 21
395.945253
 31
0.0
  0
LINE
  8
LC-001-002-----0
  6
CONTINUOUS
  5
66B
 10
403.416094
 20
395.945439
 30
0.0
 11
393.666096
 21
395.945445
 31
0.0
  0
ENDSEC
  0
EOF
