  0
SECTION
  2
HEADER
  9
$ACADVER
  1
AC1009
  9
$INSBASE
 10
0.0
 20
0.0
 30
0.0
  9
$EXTMIN
 10
0.0
 20
0.0
 30
0.0
  9
$EXTMAX
 10
840.0
 20
594.0
 30
0.0
  9
$LIMMIN
 10
0.0
 20
0.0
  9
$LIMMAX
 10
840.0
 20
594.0
  9
$ORTHOMODE
 70
     0
  9
$REGENMODE
 70
     1
  9
$FILLMODE
 70
     1
  9
$QTEXTMODE
 70
     0
  9
$MIRRTEXT
 70
     1
  9
$DRAGMODE
 70
     2
  9
$LTSCALE
 40
2.0
  9
$OSMODE
 70
     0
  9
$ATTMODE
 70
     1
  9
$TEXTSIZE
 40
0.2
  9
$TRACEWID
 40
0.05
  9
$TEXTSTYLE
  7
STANDARD
  9
$CLAYER
  8
0
  9
$CELTYPE
  6
BYLAYER
  9
$CECOLOR
 62
     7
  9
$DIMSCALE
 40
2.0
  9
$DIMASZ
 40
3.5
  9
$DIMEXO
 40
0.0625
  9
$DIMDLI
 40
0.38
  9
$DIMRND
 40
0.0
  9
$DIMDLE
 40
0.0
  9
$DIMEXE
 40
0.18
  9
$DIMTP
 40
0.0
  9
$DIMTM
 40
0.0
  9
$DIMTXT
 40
3.5
  9
$DIMCEN
 40
0.09
  9
$DIMTSZ
 40
0.0
  9
$DIMTOL
 70
     0
  9
$DIMLIM
 70
     0
  9
$DIMTIH
 70
     1
  9
$DIMTOH
 70
     1
  9
$DIMSE1
 70
     0
  9
$DIMSE2
 70
     0
  9
$DIMTAD
 70
     1
  9
$DIMZIN
 70
     0
  9
$DIMBLK
  1

  9
$DIMASO
 70
     1
  9
$DIMSHO
 70
     1
  9
$DIMPOST
  1

  9
$DIMAPOST
  1

  9
$DIMALT
 70
     0
  9
$DIMALTD
 70
     2
  9
$DIMALTF
 40
25.4
  9
$DIMLFAC
 40
1.0
  9
$DIMTOFL
 70
     0
  9
$DIMTVP
 40
0.0
  9
$DIMTIX
 70
     0
  9
$DIMSOXD
 70
     0
  9
$DIMSAH
 70
     0
  9
$DIMBLK1
  1

  9
$DIMBLK2
  1

  9
$DIMSTYLE
  2
STANDARD
  9
$DIMCLRD
 70
     0
  9
$DIMCLRE
 70
     0
  9
$DIMCLRT
 70
     0
  9
$DIMTFAC
 40
1.0
  9
$DIMGAP
 40
0.09
  9
$LUNITS
 70
     2
  9
$LUPREC
 70
     2
  9
$AXISMODE
 70
     0
  9
$AXISUNIT
 10
0.0
 20
0.0
  9
$SKETCHINC
 40
0.1
  9
$FILLETRAD
 40
0.0
  9
$AUNITS
 70
     0
  9
$AUPREC
 70
     0
  9
$MENU
  1
acad
  9
$ELEVATION
 40
0.0
  9
$PELEVATION
 40
0.0
  9
$THICKNESS
 40
0.0
  9
$LIMCHECK
 70
     0
  9
$BLIPMODE
 70
     1
  9
$CHAMFERA
 40
0.0
  9
$CHAMFERB
 40
0.0
  9
$SKPOLY
 70
     0
  9
$TDCREATE
 40
0.000000000
  9
$TDUPDATE
 40
0.000000000
  9
$TDINDWG
 40
0.0000000000
  9
$TDUSRTIMER
 40
0.0000000000
  9
$USRTIMER
 70
     1
  9
$ANGBASE
 50
0.0
  9
$ANGDIR
 70
     0
  9
$PDMODE
 70
     0
  9
$PDSIZE
 40
0.0
  9
$PLINEWID
 40
0.0
  9
$COORDS
 70
     0
  9
$SPLFRAME
 70
     0
  9
$SPLINETYPE
 70
     6
  9
$SPLINESEGS
 70
     8
  9
$ATTDIA
 70
     0
  9
$ATTREQ
 70
     1
  9
$HANDLING
 70
     1
  9
$HANDSEED
  5
68C
  9
$SURFTAB1
 70
     6
  9
$SURFTAB2
 70
     6
  9
$SURFTYPE
 70
     6
  9
$SURFU
 70
     6
  9
$SURFV
 70
     6
  9
$UCSNAME
  2

  9
$UCSORG
 10
0.0
 20
0.0
 30
0.0
  9
$UCSXDIR
 10
1.0
 20
0.0
 30
0.0
  9
$UCSYDIR
 10
0.0
 20
1.0
 30
0.0
  9
$PUCSNAME
  2

  9
$PUCSORG
 10
0.0
 20
0.0
 30
0.0
  9
$PUCSXDIR
 10
1.0
 20
0.0
 30
0.0
  9
$PUCSYDIR
 10
0.0
 20
1.0
 30
0.0
  9
$USERI1
 70
     0
  9
$USERI2
 70
     0
  9
$USERI3
 70
     0
  9
$USERI4
 70
     0
  9
$USERI5
 70
     0
  9
$USERR1
 40
0.0
  9
$USERR2
 40
0.0
  9
$USERR3
 40
0.0
  9
$USERR4
 40
0.0
  9
$USERR5
 40
0.0
  9
$WORLDVIEW
 70
     1
  9
$SHADEDGE
 70
     3
  9
$SHADEDIF
 70
    70
  9
$TILEMODE
 70
     1
  9
$MAXACTVP
 70
    16
  9
$PINSBASE
 10
0.0
 20
0.0
 30
0.0
  9
$PLIMCHECK
 70
     0
  9
$PEXTMIN
 10
1.000000E+20
 20
1.000000E+20
 30
1.000000E+20
  9
$PEXTMAX
 10
-1.000000E+20
 20
-1.000000E+20
 30
-1.000000E+20
  9
$PLIMMIN
 10
0.0
 20
0.0
  9
$PLIMMAX
 10
840.0
 20
594.0
  9
$UNITMODE
 70
     0
  9
$VISRETAIN
 70
     0
  9
$PLINEGEN
 70
     1
  9
$PSLTSCALE
 70
     0
  9
$TREEDEPTH
 70
  3020
  9
$DWGCODEPAGE
  3
dos850
  0
ENDSEC
  0
SECTION
  2
TABLES
  0
TABLE
  2
VPORT
 70
     1
  0
VPORT
  2
*ACTIVE
 70
     0
 10
0.0
 20
0.0
 11
1.0
 21
1.0
 12
420.0
 22
297.0
 13
0.0
 23
0.0
 14
1.0
 24
1.0
 15
0.0
 25
0.0
 16
0.0
 26
0.0
 36
1.0
 17
0.0
 27
0.0
 37
0.0
 40
594.0
 41
1.604229
 42
50.0
 43
0.0
 44
0.0
 50
0.0
 51
0.0
 71
     0
 72
   100
 73
     1
 74
     1
 75
     0
 76
     0
 77
     0
 78
     0
  0
ENDTAB
  0
TABLE
  2
LTYPE
 70
     2
  0
LTYPE
  2
CONTINUOUS
 70
    64
  3
Solid line
 72
    65
 73
     0
 40
0.0
  0
LTYPE
  2
DASHDOT
 70
    64
  3
__ . __ . __ . __ . __
 72
    65
 73
     4
 40
7.5
 49
5.0
 49
-1.25
 49
0.0
 49
-1.25
  0
ENDTAB
  0
TABLE
  2
LAYER
 70
    13
  0
LAYER
  2
0
 70
     0
 62
     7
  6
CONTINUOUS
  0
LAYER
  2
LC-INFO-1-2-MM-A3-0
 70
     1
 62
    -1
  6
CONTINUOUS
  0
LAYER
  2
LC-006-005-----0
 70
     0
 62
     2
  6
CONTINUOUS
  0
LAYER
  2
LC-009-003-MTH-0
 70
     0
 62
     2
  6
CONTINUOUS
  0
LAYER
  2
LC-010-003-MTG-0
 70
     0
 62
     2
  6
CONTINUOUS
  0
LAYER
  2
LC-008-003-----0
 70
     0
 62
     2
  6
CONTINUOUS
  0
LAYER
  2
LC-007-000-----0
 70
     0
 62
     7
  6
CONTINUOUS
  0
LAYER
  2
LC-001-103-D00-1
 70
     0
 62
     1
  6
CONTINUOUS
  0
LAYER
  2
LC-002-002-----0
 70
     0
 62
     1
  6
CONTINUOUS
  0
LAYER
  2
LC-003-002-RND-0
 70
     0
 62
     1
  6
CONTINUOUS
  0
LAYER
  2
LC-004-001-RND-0
 70
     0
 62
     1
  6
CONTINUOUS
  0
LAYER
  2
LC-005-001-----0
 70
     0
 62
     1
  6
CONTINUOUS
  0
LAYER
  2
LC-000
 70
     0
 62
     7
  6
CONTINUOUS
  0
ENDTAB
  0
TABLE
  2
STYLE
 70
     4
  0
STYLE
  2
STANDARD
 70
     0
 40
0.0
 41
1.0
 50
0.0
 71
     0
 42
0.0
  3
txt
  4

  0
STYLE
  2
LC-STANDARD
 70
    64
 40
0.0
 41
1.0
 50
0.0
 71
     0
 42
3.5
  3
MONOTXT
  4

  0
STYLE
  2
LC-TXTSTYLE-150-400-0-0-A2
 70
    64
 40
0.0
 41
1.0
 50
15.0
 71
     0
 42
3.5
  3
MONOTXT
  4

  0
STYLE
  2
LC-TXTSTYLE-150-400-0-0-D3
 70
    64
 40
0.0
 41
1.0
 50
15.0
 71
     0
 42
3.5
  3
LC-STANDARD
  4

  0
ENDTAB
  0
TABLE
  2
VIEW
 70
     0
  0
ENDTAB
  0
TABLE
  2
UCS
 70
     0
  0
ENDTAB
  0
TABLE
  2
APPID
 70
     1
  0
APPID
  2
ACAD
 70
     0
  0
ENDTAB
  0
TABLE
  2
DIMSTYLE
 70
     3
  0
DIMSTYLE
  2
STANDARD
 70
     0
  3

  4

  5

  6

  7

 40
1.0
 41
0.18
 42
0.0625
 43
0.38
 44
0.18
 45
0.0
 46
0.0
 47
0.0
 48
0.0
 71
     0
 72
     0
 73
     1
 74
     1
 75
     0
 76
     0
 77
     0
 78
     0
140
0.18
141
0.09
142
0.0
143
25.4
144
1.0
145
0.0
146
1.0
147
0.09
170
     0
171
     2
172
     0
173
     0
174
     0
175
     0
176
     0
177
     0
178
     0
  0
DIMSTYLE
  2
LC-STANDARD
 70
     0
  3

  4

  5

  6

  7

 40
1.0
 41
3.5
 42
0.0
 43
7.5
 44
1.8
 45
0.0
 46
0.0
 47
0.0
 48
0.0
 71
     0
 72
     0
 73
     0
 74
     0
 75
     0
 76
     0
 77
     1
 78
     8
140
3.5
141
0.0
142
0.0
143
25.4
144
1.0
145
0.0
146
0.71
147
1.5
170
     0
171
     2
172
     1
173
     0
174
     0
175
     0
176
     0
177
     0
178
     3
  0
DIMSTYLE
  2
LC-DIM-L-0140-02-02
 70
     0
  3

  4

  5

  6

  7

 40
2.0
 41
3.5
 42
0.0
 43
7.5
 44
1.8
 45
0.0
 46
0.0
 47
0.0
 48
0.0
 71
     0
 72
     0
 73
     0
 74
     0
 75
     0
 76
     0
 77
     1
 78
     8
140
14.0
141
0.0
142
0.0
143
25.4
144
1.0
145
0.0
146
0.71
147
1.5
170
     0
171
     2
172
     0
173
     0
174
     0
175
     0
176
     2
177
     2
178
     8
  0
ENDTAB
  0
ENDSEC
  0
SECTION
  2
BLOCKS
  0
BLOCK
  8
0
  5
23
  2
*X0
 70
    65
 10
372.478454
 20
248.320578
 30
0.0
  3
*X0
  0
LINE
  8
LC-006-005-----0
  6
CONTINUOUS
  5
25
 10
386.913599
 20
248.32067
 30
0.0
 11
389.817561
 21
251.224632
 31
0.0
  0
LINE
  8
LC-006-005-----0
  6
CONTINUOUS
  5
26
 10
386.889753
 20
251.125251
 30
0.0
 11
389.973679
 21
254.209177
 31
0.0
  0
LINE
  8
LC-006-005-----0
  6
CONTINUOUS
  5
27
 10
386.889875
 20
253.9538
 30
0.0
 11
389.973801
 21
257.037726
 31
0.0
  0
LINE
  8
LC-006-005-----0
  6
CONTINUOUS
  5
28
 10
386.889997
 20
256.78235
 30
0.0
 11
389.973923
 21
259.866276
 31
0.0
  0
LINE
  8
LC-006-005-----0
  6
CONTINUOUS
  5
29
 10
386.89012
 20
259.610899
 30
0.0
 11
389.974046
 21
262.694825
 31
0.0
  0
LINE
  8
LC-006-005-----0
  6
CONTINUOUS
  5
2A
 10
386.890242
 20
262.439449
 30
0.0
 11
389.974168
 21
265.523375
 31
0.0
  0
LINE
  8
LC-006-005-----0
  6
CONTINUOUS
  5
2B
 10
375.858948
 20
254.236582
 30
0.0
 11
376.788924
 21
255.166558
 31
0.0
  0
LINE
  8
LC-006-005-----0
  6
CONTINUOUS
  5
2C
 10
386.890365
 20
265.267998
 30
0.0
 11
389.974291
 21
268.351924
 31
0.0
  0
LINE
  8
LC-006-005-----0
  6
CONTINUOUS
  5
2D
 10
374.382463
 20
255.588524
 30
0.0
 11
377.473971
 21
258.680032
 31
0.0
  0
LINE
  8
LC-006-005-----0
  6
CONTINUOUS
  5
2E
 10
386.890487
 20
268.096548
 30
0.0
 11
389.974413
 21
271.180474
 31
0.0
  0
LINE
  8
LC-006-005-----0
  6
CONTINUOUS
  5
2F
 10
374.38259
 20
258.417078
 30
0.0
 11
377.474094
 21
261.508582
 31
0.0
  0
LINE
  8
LC-006-005-----0
  6
CONTINUOUS
  5
30
 10
386.890609
 20
270.925097
 30
0.0
 11
389.974535
 21
274.009023
 31
0.0
  0
LINE
  8
LC-006-005-----0
  6
CONTINUOUS
  5
31
 10
423.746037
 20
307.780525
 30
0.0
 11
431.948343
 21
315.982831
 31
0.0
  0
LINE
  8
LC-006-005-----0
  6
CONTINUOUS
  5
32
 10
374.382718
 20
261.245633
 30
0.0
 11
377.474217
 21
264.337132
 31
0.0
  0
LINE
  8
LC-006-005-----0
  6
CONTINUOUS
  5
33
 10
386.890732
 20
273.753647
 30
0.0
 11
389.974658
 21
276.837573
 31
0.0
  0
LINE
  8
LC-006-005-----0
  6
CONTINUOUS
  5
34
 10
420.456304
 20
307.319219
 30
0.0
 11
424.119466
 21
310.982381
 31
0.0
  0
LINE
  8
LC-006-005-----0
  6
CONTINUOUS
  5
35
 10
428.995479
 20
315.858394
 30
0.0
 11
432.409649
 21
319.272564
 31
0.0
  0
LINE
  8
LC-006-005-----0
  6
CONTINUOUS
  5
36
 10
374.382846
 20
264.074188
 30
0.0
 11
377.47434
 21
267.165683
 31
0.0
  0
LINE
  8
LC-006-005-----0
  6
CONTINUOUS
  5
37
 10
386.890854
 20
276.582196
 30
0.0
 11
389.97478
 21
279.666122
 31
0.0
  0
LINE
  8
LC-006-005-----0
  6
CONTINUOUS
  5
38
 10
417.627999
 20
307.319342
 30
0.0
 11
420.615904
 21
310.307246
 31
0.0
  0
LINE
  8
LC-006-005-----0
  6
CONTINUOUS
  5
39
 10
429.670622
 20
319.361964
 30
0.0
 11
432.409771
 21
322.101114
 31
0.0
  0
LINE
  8
LC-006-005-----0
  6
CONTINUOUS
  5
3A
 10
374.382973
 20
266.902743
 30
0.0
 11
377.474464
 21
269.994233
 31
0.0
  0
LINE
  8
LC-006-005-----0
  6
CONTINUOUS
  5
3B
 10
386.890977
 20
279.410746
 30
0.0
 11
389.974902
 21
282.494672
 31
0.0
  0
LINE
  8
LC-006-005-----0
  6
CONTINUOUS
  5
3C
 10
414.799695
 20
307.319464
 30
0.0
 11
417.787599
 21
310.307368
 31
0.0
  0
LINE
  8
LC-006-005-----0
  6
CONTINUOUS
  5
3D
 10
429.670745
 20
322.190514
 30
0.0
 11
432.409894
 21
324.929663
 31
0.0
  0
LINE
  8
LC-006-005-----0
  6
CONTINUOUS
  5
3E
 10
374.383101
 20
269.731297
 30
0.0
 11
377.474587
 21
272.822783
 31
0.0
  0
LINE
  8
LC-006-005-----0
  6
CONTINUOUS
  5
3F
 10
386.891099
 20
282.239295
 30
0.0
 11
389.975025
 21
285.323221
 31
0.0
  0
LINE
  8
LC-006-005-----0
  6
CONTINUOUS
  5
40
 10
411.97139
 20
307.319586
 30
0.0
 11
414.959294
 21
310.307491
 31
0.0
  0
LINE
  8
LC-006-005-----0
  6
CONTINUOUS
  5
41
 10
429.670867
 20
325.019063
 30
0.0
 11
432.410016
 21
327.758213
 31
0.0
  0
LINE
  8
LC-006-005-----0
  6
CONTINUOUS
  5
42
 10
374.383229
 20
272.559852
 30
0.0
 11
377.47471
 21
275.651333
 31
0.0
  0
LINE
  8
LC-006-005-----0
  6
CONTINUOUS
  5
43
 10
386.891221
 20
285.067845
 30
0.0
 11
389.975147
 21
288.151771
 31
0.0
  0
LINE
  8
LC-006-005-----0
  6
CONTINUOUS
  5
44
 10
409.143085
 20
307.319709
 30
0.0
 11
412.130989
 21
310.307613
 31
0.0
  0
LINE
  8
LC-006-005-----0
  6
CONTINUOUS
  5
45
 10
429.670989
 20
327.847613
 30
0.0
 11
432.410139
 21
330.586762
 31
0.0
  0
LINE
  8
LC-006-005-----0
  6
CONTINUOUS
  5
46
 10
374.383356
 20
275.388407
 30
0.0
 11
377.474833
 21
278.479883
 31
0.0
  0
LINE
  8
LC-006-005-----0
  6
CONTINUOUS
  5
47
 10
386.891344
 20
287.896394
 30
0.0
 11
389.97527
 21
290.98032
 31
0.0
  0
LINE
  8
LC-006-005-----0
  6
CONTINUOUS
  5
48
 10
406.31478
 20
307.319831
 30
0.0
 11
409.302685
 21
310.307735
 31
0.0
  0
LINE
  8
LC-006-005-----0
  6
CONTINUOUS
  5
49
 10
429.671112
 20
330.676162
 30
0.0
 11
432.410261
 21
333.415312
 31
0.0
  0
LINE
  8
LC-006-005-----0
  6
CONTINUOUS
  5
4A
 10
374.383484
 20
278.216962
 30
0.0
 11
377.474956
 21
281.308434
 31
0.0
  0
LINE
  8
LC-006-005-----0
  6
CONTINUOUS
  5
4B
 10
386.891466
 20
290.724944
 30
0.0
 11
389.975392
 21
293.80887
 31
0.0
  0
LINE
  8
LC-006-005-----0
  6
CONTINUOUS
  5
4C
 10
403.486476
 20
307.319953
 30
0.0
 11
406.47438
 21
310.307858
 31
0.0
  0
LINE
  8
LC-006-005-----0
  6
CONTINUOUS
  5
4D
 10
429.671234
 20
333.504712
 30
0.0
 11
432.410383
 21
336.243861
 31
0.0
  0
LINE
  8
LC-006-005-----0
  6
CONTINUOUS
  5
4E
 10
374.383612
 20
281.045516
 30
0.0
 11
377.475079
 21
284.136984
 31
0.0
  0
LINE
  8
LC-006-005-----0
  6
CONTINUOUS
  5
4F
 10
386.891588
 20
293.553493
 30
0.0
 11
389.975514
 21
296.637419
 31
0.0
  0
LINE
  8
LC-006-005-----0
  6
CONTINUOUS
  5
50
 10
400.658171
 20
307.320076
 30
0.0
 11
403.646075
 21
310.30798
 31
0.0
  0
LINE
  8
LC-006-005-----0
  6
CONTINUOUS
  5
51
 10
429.671356
 20
336.333261
 30
0.0
 11
432.410506
 21
339.07241
 31
0.0
  0
LINE
  8
LC-006-005-----0
  6
CONTINUOUS
  5
52
 10
374.383739
 20
283.874071
 30
0.0
 11
377.475202
 21
286.965534
 31
0.0
  0
LINE
  8
LC-006-005-----0
  6
CONTINUOUS
  5
53
 10
386.891711
 20
296.382043
 30
0.0
 11
389.975637
 21
299.465969
 31
0.0
  0
LINE
  8
LC-006-005-----0
  6
CONTINUOUS
  5
54
 10
397.829866
 20
307.320198
 30
0.0
 11
400.81777
 21
310.308102
 31
0.0
  0
LINE
  8
LC-006-005-----0
  6
CONTINUOUS
  5
55
 10
429.671479
 20
339.161811
 30
0.0
 11
432.410628
 21
341.90096
 31
0.0
  0
LINE
  8
LC-006-005-----0
  6
CONTINUOUS
  5
56
 10
374.383867
 20
286.702626
 30
0.0
 11
377.475325
 21
289.794084
 31
0.0
  0
LINE
  8
LC-006-005-----0
  6
CONTINUOUS
  5
57
 10
386.891833
 20
299.210592
 30
0.0
 11
389.975759
 21
302.294518
 31
0.0
  0
LINE
  8
LC-006-005-----0
  6
CONTINUOUS
  5
58
 10
395.001561
 20
307.32032
 30
0.0
 11
397.989466
 21
310.308225
 31
0.0
  0
LINE
  8
LC-006-005-----0
  6
CONTINUOUS
  5
59
 10
429.671601
 20
341.99036
 30
0.0
 11
432.41075
 21
344.729509
 31
0.0
  0
LINE
  8
LC-006-005-----0
  6
CONTINUOUS
  5
5A
 10
374.383994
 20
289.531181
 30
0.0
 11
377.475448
 21
292.622634
 31
0.0
  0
LINE
  8
LC-006-005-----0
  6
CONTINUOUS
  5
5B
 10
386.891956
 20
302.039142
 30
0.0
 11
389.975882
 21
305.123068
 31
0.0
  0
LINE
  8
LC-006-005-----0
  6
CONTINUOUS
  5
5C
 10
392.173256
 20
307.320443
 30
0.0
 11
395.161161
 21
310.308347
 31
0.0
  0
LINE
  8
LC-006-005-----0
  6
CONTINUOUS
  5
5D
 10
429.671723
 20
344.81891
 30
0.0
 11
432.410873
 21
347.558059
 31
0.0
  0
LINE
  8
LC-006-005-----0
  6
CONTINUOUS
  5
5E
 10
501.90253
 20
417.049716
 30
0.0
 11
502.63514
 21
417.782326
 31
0.0
  0
LINE
  8
LC-006-005-----0
  6
CONTINUOUS
  5
5F
 10
374.384122
 20
292.359735
 30
0.0
 11
377.475571
 21
295.451185
 31
0.0
  0
LINE
  8
LC-006-005-----0
  6
CONTINUOUS
  5
60
 10
386.892078
 20
304.867691
 30
0.0
 11
392.332856
 21
310.308469
 31
0.0
  0
LINE
  8
LC-006-005-----0
  6
CONTINUOUS
  5
61
 10
429.671846
 20
347.647459
 30
0.0
 11
432.410995
 21
350.386608
 31
0.0
  0
LINE
  8
LC-006-005-----0
  6
CONTINUOUS
  5
62
 10
498.861592
 20
416.837206
 30
0.0
 11
501.680835
 21
419.656448
 31
0.0
  0
LINE
  8
LC-006-005-----0
  6
CONTINUOUS
  5
63
 10
374.38425
 20
295.18829
 30
0.0
 11
377.475694
 21
298.279735
 31
0.0
  0
LINE
  8
LC-006-005-----0
  6
CONTINUOUS
  5
64
 10
386.569512
 20
307.373553
 30
0.0
 11
389.504551
 21
310.308592
 31
0.0
  0
LINE
  8
LC-006-005-----0
  6
CONTINUOUS
  5
65
 10
429.671968
 20
350.476009
 30
0.0
 11
432.411117
 21
353.215158
 31
0.0
  0
LINE
  8
LC-006-005-----0
  6
CONTINUOUS
  5
66
 10
495.820654
 20
416.624695
 30
0.0
 11
499.041026
 21
419.845066
 31
0.0
  0
LINE
  8
LC-006-005-----0
  6
CONTINUOUS
  5
67
 10
374.384377
 20
298.016845
 30
0.0
 11
377.475817
 21
301.108285
 31
0.0
  0
LINE
  8
LC-006-005-----0
  6
CONTINUOUS
  5
68
 10
383.826188
 20
307.458655
 30
0.0
 11
386.676246
 21
310.308714
 31
0.0
  0
LINE
  8
LC-006-005-----0
  6
CONTINUOUS
  5
69
 10
429.67209
 20
353.304558
 30
0.0
 11
432.41124
 21
356.043707
 31
0.0
  0
LINE
  8
LC-006-005-----0
  6
CONTINUOUS
  5
6A
 10
492.779717
 20
416.412184
 30
0.0
 11
496.000088
 21
419.632556
 31
0.0
  0
LINE
  8
LC-006-005-----0
  6
CONTINUOUS
  5
6B
 10
374.384505
 20
300.8454
 30
0.0
 11
377.475941
 21
303.936835
 31
0.0
  0
LINE
  8
LC-006-005-----0
  6
CONTINUOUS
  5
6C
 10
382.694881
 20
309.155775
 30
0.0
 11
384.287113
 21
310.748007
 31
0.0
  0
LINE
  8
LC-006-005-----0
  6
CONTINUOUS
  5
6D
 10
429.672213
 20
356.133108
 30
0.0
 11
432.411362
 21
358.872257
 31
0.0
  0
LINE
  8
LC-006-005-----0
  6
CONTINUOUS
  5
6E
 10
489.738779
 20
416.199674
 30
0.0
 11
492.95915
 21
419.420045
 31
0.0
  0
LINE
  8
LC-006-005-----0
  6
CONTINUOUS
  5
6F
 10
374.384633
 20
303.673955
 30
0.0
 11
377.476064
 21
306.765386
 31
0.0
  0
LINE
  8
LC-006-005-----0
  6
CONTINUOUS
  5
70
 10
378.845898
 20
308.13522
 30
0.0
 11
383.024794
 21
312.314116
 31
0.0
  0
LINE
  8
LC-006-005-----0
  6
CONTINUOUS
  5
71
 10
429.672335
 20
358.961657
 30
0.0
 11
432.411484
 21
361.700806
 31
0.0
  0
LINE
  8
LC-006-005-----0
  6
CONTINUOUS
  5
72
 10
486.697841
 20
415.987163
 30
0.0
 11
489.918212
 21
419.207534
 31
0.0
  0
LINE
  8
LC-006-005-----0
  6
CONTINUOUS
  5
73
 10
374.191491
 20
306.30924
 30
0.0
 11
382.858658
 21
314.976407
 31
0.0
  0
LINE
  8
LC-006-005-----0
  6
CONTINUOUS
  5
74
 10
429.672458
 20
361.790207
 30
0.0
 11
432.411607
 21
364.529356
 31
0.0
  0
LINE
  8
LC-006-005-----0
  6
CONTINUOUS
  5
75
 10
483.656903
 20
415.774652
 30
0.0
 11
486.877275
 21
418.995024
 31
0.0
  0
LINE
  8
LC-006-005-----0
  6
CONTINUOUS
  5
76
 10
372.478503
 20
307.424679
 30
0.0
 11
374.65425
 21
309.600426
 31
0.0
  0
LINE
  8
LC-006-005-----0
  6
CONTINUOUS
  5
77
 10
379.911415
 20
314.857591
 30
0.0
 11
382.858782
 21
317.804958
 31
0.0
  0
LINE
  8
LC-006-005-----0
  6
CONTINUOUS
  5
78
 10
429.67258
 20
364.618756
 30
0.0
 11
432.411729
 21
367.357905
 31
0.0
  0
LINE
  8
LC-006-005-----0
  6
CONTINUOUS
  5
79
 10
480.615965
 20
415.562142
 30
0.0
 11
483.836337
 21
418.782513
 31
0.0
  0
LINE
  8
LC-006-005-----0
  6
CONTINUOUS
  5
7A
 10
379.938393
 20
317.712996
 30
0.0
 11
382.858907
 21
320.63351
 31
0.0
  0
LINE
  8
LC-006-005-----0
  6
CONTINUOUS
  5
7B
 10
429.672702
 20
367.447305
 30
0.0
 11
432.411852
 21
370.186455
 31
0.0
  0
LINE
  8
LC-006-005-----0
  6
CONTINUOUS
  5
7C
 10
477.575028
 20
415.349631
 30
0.0
 11
480.795399
 21
418.570002
 31
0.0
  0
LINE
  8
LC-006-005-----0
  6
CONTINUOUS
  5
7D
 10
379.965371
 20
320.568401
 30
0.0
 11
382.859031
 21
323.462061
 31
0.0
  0
LINE
  8
LC-006-005-----0
  6
CONTINUOUS
  5
7E
 10
429.672825
 20
370.275855
 30
0.0
 11
432.411974
 21
373.015004
 31
0.0
  0
LINE
  8
LC-006-005-----0
  6
CONTINUOUS
  5
7F
 10
474.53409
 20
415.13712
 30
0.0
 11
477.754461
 21
418.357491
 31
0.0
  0
LINE
  8
LC-006-005-----0
  6
CONTINUOUS
  5
80
 10
379.992348
 20
323.423806
 30
0.0
 11
382.859155
 21
326.290613
 31
0.0
  0
LINE
  8
LC-006-005-----0
  6
CONTINUOUS
  5
81
 10
429.672947
 20
373.104404
 30
0.0
 11
432.412096
 21
375.843554
 31
0.0
  0
LINE
  8
LC-006-005-----0
  6
CONTINUOUS
  5
82
 10
471.493152
 20
414.92461
 30
0.0
 11
474.713523
 21
418.144981
 31
0.0
  0
LINE
  8
LC-006-005-----0
  6
CONTINUOUS
  5
83
 10
380.019326
 20
326.279211
 30
0.0
 11
382.859279
 21
329.119164
 31
0.0
  0
LINE
  8
LC-006-005-----0
  6
CONTINUOUS
  5
84
 10
429.673069
 20
375.932954
 30
0.0
 11
432.412219
 21
378.672103
 31
0.0
  0
LINE
  8
LC-006-005-----0
  6
CONTINUOUS
  5
85
 10
467.907016
 20
414.166901
 30
0.0
 11
471.672585
 21
417.93247
 31
0.0
  0
LINE
  8
LC-006-005-----0
  6
CONTINUOUS
  5
86
 10
380.046304
 20
329.134616
 30
0.0
 11
382.859404
 21
331.947715
 31
0.0
  0
LINE
  8
LC-006-005-----0
  6
CONTINUOUS
  5
87
 10
429.673192
 20
378.761503
 30
0.0
 11
432.412341
 21
381.500653
 31
0.0
  0
LINE
  8
LC-006-005-----0
  6
CONTINUOUS
  5
88
 10
463.328699
 20
412.417011
 30
0.0
 11
468.631648
 21
417.719959
 31
0.0
  0
LINE
  8
LC-006-005-----0
  6
CONTINUOUS
  5
89
 10
380.073282
 20
331.990021
 30
0.0
 11
382.859528
 21
334.776267
 31
0.0
  0
LINE
  8
LC-006-005-----0
  6
CONTINUOUS
  5
8A
 10
429.673314
 20
381.590053
 30
0.0
 11
438.224408
 21
390.141147
 31
0.0
  0
LINE
  8
LC-006-005-----0
  6
CONTINUOUS
  5
8B
 10
460.27453
 20
412.191268
 30
0.0
 11
464.105335
 21
416.022073
 31
0.0
  0
LINE
  8
LC-006-005-----0
  6
CONTINUOUS
  5
8C
 10
380.10026
 20
334.845426
 30
0.0
 11
382.859652
 21
337.604818
 31
0.0
  0
LINE
  8
LC-006-005-----0
  6
CONTINUOUS
  5
8D
 10
429.673436
 20
384.418602
 30
0.0
 11
430.044937
 21
384.790103
 31
0.0
  0
LINE
  8
LC-006-005-----0
  6
CONTINUOUS
  5
8E
 10
430.221266
 20
384.966432
 30
0.0
 11
441.626088
 21
396.371254
 31
0.0
  0
LINE
  8
LC-006-005-----0
  6
CONTINUOUS
  5
8F
 10
457.22036
 20
411.965526
 30
0.0
 11
460.461169
 21
415.206335
 31
0.0
  0
LINE
  8
LC-006-005-----0
  6
CONTINUOUS
  5
90
 10
380.127238
 20
337.700831
 30
0.0
 11
382.859776
 21
340.43337
 31
0.0
  0
LINE
  8
LC-006-005-----0
  6
CONTINUOUS
  5
91
 10
430.154738
 20
387.728331
 30
0.0
 11
436.429337
 21
394.00293
 31
0.0
  0
LINE
  8
LC-006-005-----0
  6
CONTINUOUS
  5
92
 10
438.887061
 20
396.460654
 30
0.0
 11
441.62621
 21
399.199803
 31
0.0
  0
LINE
  8
LC-006-005-----0
  6
CONTINUOUS
  5
93
 10
454.166191
 20
411.739784
 30
0.0
 11
457.409208
 21
414.982801
 31
0.0
  0
LINE
  8
LC-006-005-----0
  6
CONTINUOUS
  5
94
 10
380.154216
 20
340.556236
 30
0.0
 11
382.859901
 21
343.261921
 31
0.0
  0
LINE
  8
LC-006-005-----0
  6
CONTINUOUS
  5
95
 10
430.221511
 20
390.623531
 30
0.0
 11
433.601033
 21
394.003053
 31
0.0
  0
LINE
  8
LC-006-005-----0
  6
CONTINUOUS
  5
96
 10
438.887183
 20
399.289204
 30
0.0
 11
446.959559
 21
407.361579
 31
0.0
  0
LINE
  8
LC-006-005-----0
  6
CONTINUOUS
  5
97
 10
451.112022
 20
411.514042
 30
0.0
 11
454.357246
 21
414.759267
 31
0.0
  0
LINE
  8
LC-006-005-----0
  6
CONTINUOUS
  5
98
 10
380.181194
 20
343.411641
 30
0.0
 11
382.860025
 21
346.090472
 31
0.0
  0
LINE
  8
LC-006-005-----0
  6
CONTINUOUS
  5
99
 10
429.227017
 20
392.457464
 30
0.0
 11
429.974512
 21
393.204959
 31
0.0
  0
LINE
  8
LC-006-005-----0
  6
CONTINUOUS
  5
9A
 10
430.283304
 20
393.513752
 30
0.0
 11
430.711035
 21
393.941483
 31
0.0
  0
LINE
  8
LC-006-005-----0
  6
CONTINUOUS
  5
9B
 10
438.887306
 20
402.117753
 30
0.0
 11
442.226361
 21
405.456808
 31
0.0
  0
LINE
  8
LC-006-005-----0
  6
CONTINUOUS
  5
9C
 10
443.958355
 20
407.188802
 30
0.0
 11
447.2318
 21
410.462248
 31
0.0
  0
LINE
  8
LC-006-005-----0
  6
CONTINUOUS
  5
9D
 10
447.951985
 20
411.182433
 30
0.0
 11
451.305285
 21
414.535732
 31
0.0
  0
LINE
  8
LC-006-005-----0
  6
CONTINUOUS
  5
9E
 10
380.208172
 20
346.267046
 30
0.0
 11
382.860149
 21
348.919024
 31
0.0
  0
LINE
  8
LC-006-005-----0
  6
CONTINUOUS
  5
9F
 10
438.887428
 20
404.946302
 30
0.0
 11
440.878161
 21
406.937035
 31
0.0
  0
LINE
  8
LC-006-005-----0
  6
CONTINUOUS
  5
A0
 10
444.114921
 20
410.173796
 30
0.0
 11
448.253324
 21
414.312198
 31
0.0
  0
LINE
  8
LC-006-005-----0
  6
CONTINUOUS
  5
A1
 10
380.235149
 20
349.122451
 30
0.0
 11
382.860274
 21
351.747575
 31
0.0
  0
LINE
  8
LC-006-005-----0
  6
CONTINUOUS
  5
A2
 10
438.88755
 20
407.774852
 30
0.0
 11
440.878283
 21
409.765585
 31
0.0
  0
LINE
  8
LC-006-005-----0
  6
CONTINUOUS
  5
A3
 10
444.271487
 20
413.158789
 30
0.0
 11
445.201363
 21
414.088664
 31
0.0
  0
LINE
  8
LC-006-005-----0
  6
CONTINUOUS
  5
A4
 10
380.262127
 20
351.977856
 30
0.0
 11
382.860398
 21
354.576127
 31
0.0
  0
LINE
  8
LC-006-005-----0
  6
CONTINUOUS
  5
A5
 10
438.887673
 20
410.603401
 30
0.0
 11
439.717255
 21
411.432984
 31
0.0
  0
LINE
  8
LC-006-005-----0
  6
CONTINUOUS
  5
A6
 10
380.289105
 20
354.833261
 30
0.0
 11
382.860522
 21
357.404678
 31
0.0
  0
LINE
  8
LC-006-005-----0
  6
CONTINUOUS
  5
A7
 10
380.316083
 20
357.688666
 30
0.0
 11
382.860646
 21
360.233229
 31
0.0
  0
LINE
  8
LC-006-005-----0
  6
CONTINUOUS
  5
A8
 10
380.343061
 20
360.544071
 30
0.0
 11
382.860771
 21
363.061781
 31
0.0
  0
LINE
  8
LC-006-005-----0
  6
CONTINUOUS
  5
A9
 10
380.370039
 20
363.399476
 30
0.0
 11
382.860895
 21
365.890332
 31
0.0
  0
LINE
  8
LC-006-005-----0
  6
CONTINUOUS
  5
AA
 10
380.397017
 20
366.254881
 30
0.0
 11
382.861019
 21
368.718884
 31
0.0
  0
LINE
  8
LC-006-005-----0
  6
CONTINUOUS
  5
AB
 10
380.423995
 20
369.110286
 30
0.0
 11
382.861143
 21
371.547435
 31
0.0
  0
LINE
  8
LC-006-005-----0
  6
CONTINUOUS
  5
AC
 10
380.450972
 20
371.965691
 30
0.0
 11
382.861268
 21
374.375986
 31
0.0
  0
LINE
  8
LC-006-005-----0
  6
CONTINUOUS
  5
AD
 10
380.47795
 20
374.821096
 30
0.0
 11
382.861392
 21
377.204538
 31
0.0
  0
LINE
  8
LC-006-005-----0
  6
CONTINUOUS
  5
AE
 10
380.003603
 20
377.175175
 30
0.0
 11
381.137381
 21
378.308954
 31
0.0
  0
ENDBLK
  8
0
  5
AF
  0
BLOCK
  8
0
  5
B1
  2
*X1
 70
    65
 10
202.326708
 20
248.322159
 30
0.0
  3
*X1
  0
LINE
  8
LC-006-005-----0
  6
CONTINUOUS
  5
B2
 10
328.280181
 20
254.741075
 30
0.0
 11
330.572366
 21
257.033261
 31
0.0
  0
LINE
  8
LC-006-005-----0
  6
CONTINUOUS
  5
B3
 10
327.682457
 20
256.971778
 30
0.0
 11
330.572361
 21
259.861683
 31
0.0
  0
LINE
  8
LC-006-005-----0
  6
CONTINUOUS
  5
B4
 10
316.20441
 20
248.322159
 30
0.0
 11
318.064886
 21
250.182635
 31
0.0
  0
LINE
  8
LC-006-005-----0
  6
CONTINUOUS
  5
B5
 10
327.480994
 20
259.598743
 30
0.0
 11
330.572356
 21
262.690105
 31
0.0
  0
LINE
  8
LC-006-005-----0
  6
CONTINUOUS
  5
B6
 10
315.378633
 20
250.32481
 30
0.0
 11
318.064886
 21
253.011062
 31
0.0
  0
LINE
  8
LC-006-005-----0
  6
CONTINUOUS
  5
B7
 10
327.480993
 20
262.42717
 30
0.0
 11
330.572351
 21
265.518527
 31
0.0
  0
LINE
  8
LC-006-005-----0
  6
CONTINUOUS
  5
B8
 10
314.981094
 20
252.755697
 30
0.0
 11
318.064886
 21
255.839489
 31
0.0
  0
LINE
  8
LC-006-005-----0
  6
CONTINUOUS
  5
B9
 10
327.480993
 20
265.255596
 30
0.0
 11
330.572345
 21
268.346949
 31
0.0
  0
LINE
  8
LC-006-005-----0
  6
CONTINUOUS
  5
BA
 10
314.981094
 20
255.584124
 30
0.0
 11
318.064886
 21
258.667916
 31
0.0
  0
LINE
  8
LC-006-005-----0
  6
CONTINUOUS
  5
BB
 10
327.480992
 20
268.084022
 30
0.0
 11
330.57234
 21
271.17537
 31
0.0
  0
LINE
  8
LC-006-005-----0
  6
CONTINUOUS
  5
BC
 10
314.981094
 20
258.412551
 30
0.0
 11
318.064886
 21
261.496344
 31
0.0
  0
LINE
  8
LC-006-005-----0
  6
CONTINUOUS
  5
BD
 10
327.480991
 20
270.912449
 30
0.0
 11
330.572335
 21
274.003792
 31
0.0
  0
LINE
  8
LC-006-005-----0
  6
CONTINUOUS
  5
BE
 10
314.981094
 20
261.240978
 30
0.0
 11
318.064886
 21
264.324771
 31
0.0
  0
LINE
  8
LC-006-005-----0
  6
CONTINUOUS
  5
BF
 10
327.480991
 20
273.740875
 30
0.0
 11
330.572329
 21
276.832214
 31
0.0
  0
LINE
  8
LC-006-005-----0
  6
CONTINUOUS
  5
C0
 10
314.981093
 20
264.069405
 30
0.0
 11
318.064886
 21
267.153198
 31
0.0
  0
LINE
  8
LC-006-005-----0
  6
CONTINUOUS
  5
C1
 10
327.48099
 20
276.569302
 30
0.0
 11
330.572324
 21
279.660636
 31
0.0
  0
LINE
  8
LC-006-005-----0
  6
CONTINUOUS
  5
C2
 10
314.981093
 20
266.897832
 30
0.0
 11
318.064886
 21
269.981625
 31
0.0
  0
LINE
  8
LC-006-005-----0
  6
CONTINUOUS
  5
C3
 10
327.480989
 20
279.397728
 30
0.0
 11
330.572319
 21
282.489058
 31
0.0
  0
LINE
  8
LC-006-005-----0
  6
CONTINUOUS
  5
C4
 10
314.981093
 20
269.726259
 30
0.0
 11
318.064886
 21
272.810052
 31
0.0
  0
LINE
  8
LC-006-005-----0
  6
CONTINUOUS
  5
C5
 10
327.480988
 20
282.226154
 30
0.0
 11
330.572314
 21
285.31748
 31
0.0
  0
LINE
  8
LC-006-005-----0
  6
CONTINUOUS
  5
C6
 10
314.981093
 20
272.554687
 30
0.0
 11
318.064886
 21
275.638479
 31
0.0
  0
LINE
  8
LC-006-005-----0
  6
CONTINUOUS
  5
C7
 10
327.480988
 20
285.054581
 30
0.0
 11
330.572308
 21
288.145901
 31
0.0
  0
LINE
  8
LC-006-005-----0
  6
CONTINUOUS
  5
C8
 10
314.981093
 20
275.383114
 30
0.0
 11
318.064886
 21
278.466906
 31
0.0
  0
LINE
  8
LC-006-005-----0
  6
CONTINUOUS
  5
C9
 10
327.480987
 20
287.883007
 30
0.0
 11
330.572303
 21
290.974323
 31
0.0
  0
LINE
  8
LC-006-005-----0
  6
CONTINUOUS
  5
CA
 10
314.981093
 20
278.211541
 30
0.0
 11
318.064886
 21
281.295333
 31
0.0
  0
LINE
  8
LC-006-005-----0
  6
CONTINUOUS
  5
CB
 10
327.480986
 20
290.711434
 30
0.0
 11
330.572298
 21
293.802745
 31
0.0
  0
LINE
  8
LC-006-005-----0
  6
CONTINUOUS
  5
CC
 10
314.981093
 20
281.039968
 30
0.0
 11
318.064886
 21
284.12376
 31
0.0
  0
LINE
  8
LC-006-005-----0
  6
CONTINUOUS
  5
CD
 10
327.480985
 20
293.53986
 30
0.0
 11
330.572292
 21
296.631167
 31
0.0
  0
LINE
  8
LC-006-005-----0
  6
CONTINUOUS
  5
CE
 10
314.981093
 20
283.868395
 30
0.0
 11
318.064886
 21
286.952187
 31
0.0
  0
LINE
  8
LC-006-005-----0
  6
CONTINUOUS
  5
CF
 10
327.480985
 20
296.368286
 30
0.0
 11
330.572287
 21
299.459589
 31
0.0
  0
LINE
  8
LC-006-005-----0
  6
CONTINUOUS
  5
D0
 10
314.981093
 20
286.696822
 30
0.0
 11
318.064886
 21
289.780615
 31
0.0
  0
LINE
  8
LC-006-005-----0
  6
CONTINUOUS
  5
D1
 10
327.480984
 20
299.196713
 30
0.0
 11
330.572282
 21
302.288011
 31
0.0
  0
LINE
  8
LC-006-005-----0
  6
CONTINUOUS
  5
D2
 10
314.981093
 20
289.525249
 30
0.0
 11
318.064886
 21
292.609042
 31
0.0
  0
LINE
  8
LC-006-005-----0
  6
CONTINUOUS
  5
D3
 10
327.480983
 20
302.025139
 30
0.0
 11
330.572277
 21
305.116432
 31
0.0
  0
LINE
  8
LC-006-005-----0
  6
CONTINUOUS
  5
D4
 10
331.766024
 20
306.31018
 30
0.0
 11
332.478572
 21
307.022727
 31
0.0
  0
LINE
  8
LC-006-005-----0
  6
CONTINUOUS
  5
D5
 10
314.981093
 20
292.353676
 30
0.0
 11
318.064886
 21
295.437469
 31
0.0
  0
LINE
  8
LC-006-005-----0
  6
CONTINUOUS
  5
D6
 10
327.480983
 20
304.853566
 30
0.0
 11
331.821815
 21
309.194398
 31
0.0
  0
LINE
  8
LC-006-005-----0
  6
CONTINUOUS
  5
D7
 10
314.981093
 20
295.182103
 30
0.0
 11
318.064886
 21
298.265896
 31
0.0
  0
LINE
  8
LC-006-005-----0
  6
CONTINUOUS
  5
D8
 10
327.480982
 20
307.681992
 30
0.0
 11
329.591105
 21
309.792115
 31
0.0
  0
LINE
  8
LC-006-005-----0
  6
CONTINUOUS
  5
D9
 10
314.981093
 20
298.01053
 30
0.0
 11
318.064886
 21
301.094323
 31
0.0
  0
LINE
  8
LC-006-005-----0
  6
CONTINUOUS
  5
DA
 10
325.319154
 20
308.348591
 30
0.0
 11
327.360395
 21
310.389832
 31
0.0
  0
LINE
  8
LC-006-005-----0
  6
CONTINUOUS
  5
DB
 10
314.981093
 20
300.838958
 30
0.0
 11
318.064886
 21
303.92275
 31
0.0
  0
LINE
  8
LC-006-005-----0
  6
CONTINUOUS
  5
DC
 10
323.599572
 20
309.457436
 30
0.0
 11
325.655018
 21
311.512882
 31
0.0
  0
LINE
  8
LC-006-005-----0
  6
CONTINUOUS
  5
DD
 10
314.981093
 20
303.667385
 30
0.0
 11
318.064886
 21
306.751177
 31
0.0
  0
LINE
  8
LC-006-005-----0
  6
CONTINUOUS
  5
DE
 10
318.688736
 20
307.375027
 30
0.0
 11
325.056477
 21
313.742768
 31
0.0
  0
LINE
  8
LC-006-005-----0
  6
CONTINUOUS
  5
DF
 10
314.981093
 20
306.495812
 30
0.0
 11
318.795475
 21
310.310193
 31
0.0
  0
LINE
  8
LC-006-005-----0
  6
CONTINUOUS
  5
E0
 10
322.098744
 20
313.613462
 30
0.0
 11
325.030124
 21
316.544843
 31
0.0
  0
LINE
  8
LC-006-005-----0
  6
CONTINUOUS
  5
E1
 10
312.979014
 20
307.32216
 30
0.0
 11
315.967048
 21
310.310193
 31
0.0
  0
LINE
  8
LC-006-005-----0
  6
CONTINUOUS
  5
E2
 10
322.098742
 20
316.441888
 30
0.0
 11
325.003771
 21
319.346917
 31
0.0
  0
LINE
  8
LC-006-005-----0
  6
CONTINUOUS
  5
E3
 10
310.150587
 20
307.32216
 30
0.0
 11
313.138621
 21
310.310193
 31
0.0
  0
LINE
  8
LC-006-005-----0
  6
CONTINUOUS
  5
E4
 10
322.09874
 20
319.270313
 30
0.0
 11
324.977418
 21
322.148991
 31
0.0
  0
LINE
  8
LC-006-005-----0
  6
CONTINUOUS
  5
E5
 10
307.32216
 20
307.32216
 30
0.0
 11
310.310193
 21
310.310193
 31
0.0
  0
LINE
  8
LC-006-005-----0
  6
CONTINUOUS
  5
E6
 10
322.098738
 20
322.098738
 30
0.0
 11
324.951066
 21
324.951066
 31
0.0
  0
LINE
  8
LC-006-005-----0
  6
CONTINUOUS
  5
E7
 10
304.493733
 20
307.32216
 30
0.0
 11
307.481766
 21
310.310193
 31
0.0
  0
LINE
  8
LC-006-005-----0
  6
CONTINUOUS
  5
E8
 10
322.098736
 20
324.927163
 30
0.0
 11
324.924713
 21
327.75314
 31
0.0
  0
LINE
  8
LC-006-005-----0
  6
CONTINUOUS
  5
E9
 10
301.665306
 20
307.32216
 30
0.0
 11
304.653339
 21
310.310193
 31
0.0
  0
LINE
  8
LC-006-005-----0
  6
CONTINUOUS
  5
EA
 10
322.098734
 20
327.755588
 30
0.0
 11
324.89836
 21
330.555214
 31
0.0
  0
LINE
  8
LC-006-005-----0
  6
CONTINUOUS
  5
EB
 10
298.836878
 20
307.32216
 30
0.0
 11
301.824912
 21
310.310193
 31
0.0
  0
LINE
  8
LC-006-005-----0
  6
CONTINUOUS
  5
EC
 10
322.098732
 20
330.584014
 30
0.0
 11
324.872007
 21
333.357289
 31
0.0
  0
LINE
  8
LC-006-005-----0
  6
CONTINUOUS
  5
ED
 10
296.008451
 20
307.32216
 30
0.0
 11
298.996485
 21
310.310193
 31
0.0
  0
LINE
  8
LC-006-005-----0
  6
CONTINUOUS
  5
EE
 10
322.09873
 20
333.412439
 30
0.0
 11
324.845654
 21
336.159363
 31
0.0
  0
LINE
  8
LC-006-005-----0
  6
CONTINUOUS
  5
EF
 10
293.180024
 20
307.32216
 30
0.0
 11
296.168058
 21
310.310193
 31
0.0
  0
LINE
  8
LC-006-005-----0
  6
CONTINUOUS
  5
F0
 10
322.098728
 20
336.240864
 30
0.0
 11
324.819302
 21
338.961437
 31
0.0
  0
LINE
  8
LC-006-005-----0
  6
CONTINUOUS
  5
F1
 10
290.351597
 20
307.32216
 30
0.0
 11
293.339631
 21
310.310193
 31
0.0
  0
LINE
  8
LC-006-005-----0
  6
CONTINUOUS
  5
F2
 10
322.098727
 20
339.069289
 30
0.0
 11
324.792949
 21
341.763512
 31
0.0
  0
LINE
  8
LC-006-005-----0
  6
CONTINUOUS
  5
F3
 10
287.52317
 20
307.32216
 30
0.0
 11
290.511204
 21
310.310193
 31
0.0
  0
LINE
  8
LC-006-005-----0
  6
CONTINUOUS
  5
F4
 10
322.098725
 20
341.897715
 30
0.0
 11
324.766596
 21
344.565586
 31
0.0
  0
LINE
  8
LC-006-005-----0
  6
CONTINUOUS
  5
F5
 10
284.694743
 20
307.32216
 30
0.0
 11
287.682776
 21
310.310193
 31
0.0
  0
LINE
  8
LC-006-005-----0
  6
CONTINUOUS
  5
F6
 10
322.098723
 20
344.72614
 30
0.0
 11
324.740243
 21
347.36766
 31
0.0
  0
LINE
  8
LC-006-005-----0
  6
CONTINUOUS
  5
F7
 10
282.108111
 20
307.563955
 30
0.0
 11
284.854349
 21
310.310193
 31
0.0
  0
LINE
  8
LC-006-005-----0
  6
CONTINUOUS
  5
F8
 10
322.098721
 20
347.554565
 30
0.0
 11
324.71389
 21
350.169735
 31
0.0
  0
LINE
  8
LC-006-005-----0
  6
CONTINUOUS
  5
F9
 10
279.941401
 20
308.225673
 30
0.0
 11
282.251731
 21
310.536002
 31
0.0
  0
LINE
  8
LC-006-005-----0
  6
CONTINUOUS
  5
FA
 10
322.098719
 20
350.38299
 30
0.0
 11
324.687538
 21
352.971809
 31
0.0
  0
LINE
  8
LC-006-005-----0
  6
CONTINUOUS
  5
FB
 10
278.080072
 20
309.192771
 30
0.0
 11
280.176864
 21
311.289562
 31
0.0
  0
LINE
  8
LC-006-005-----0
  6
CONTINUOUS
  5
FC
 10
322.098717
 20
353.211415
 30
0.0
 11
324.661185
 21
355.773883
 31
0.0
  0
LINE
  8
LC-006-005-----0
  6
CONTINUOUS
  5
FD
 10
276.475457
 20
310.416582
 30
0.0
 11
278.476676
 21
312.417802
 31
0.0
  0
LINE
  8
LC-006-005-----0
  6
CONTINUOUS
  5
FE
 10
322.098715
 20
356.039841
 30
0.0
 11
324.634832
 21
358.575958
 31
0.0
  0
LINE
  8
LC-006-005-----0
  6
CONTINUOUS
  5
FF
 10
275.110064
 20
311.879616
 30
0.0
 11
277.099758
 21
313.869311
 31
0.0
  0
LINE
  8
LC-006-005-----0
  6
CONTINUOUS
  5
100
 10
322.098713
 20
358.868266
 30
0.0
 11
324.608479
 21
361.378032
 31
0.0
  0
LINE
  8
LC-006-005-----0
  6
CONTINUOUS
  5
101
 10
273.988218
 20
313.586198
 30
0.0
 11
276.052224
 21
315.650203
 31
0.0
  0
LINE
  8
LC-006-005-----0
  6
CONTINUOUS
  5
102
 10
322.098711
 20
361.696691
 30
0.0
 11
324.582126
 21
364.180106
 31
0.0
  0
LINE
  8
LC-006-005-----0
  6
CONTINUOUS
  5
103
 10
273.138213
 20
315.56462
 30
0.0
 11
275.404017
 21
317.830423
 31
0.0
  0
LINE
  8
LC-006-005-----0
  6
CONTINUOUS
  5
104
 10
322.098709
 20
364.525116
 30
0.0
 11
324.555774
 21
366.982181
 31
0.0
  0
LINE
  8
LC-006-005-----0
  6
CONTINUOUS
  5
105
 10
272.629084
 20
317.883918
 30
0.0
 11
275.286968
 21
320.541802
 31
0.0
  0
LINE
  8
LC-006-005-----0
  6
CONTINUOUS
  5
106
 10
322.098707
 20
367.353541
 30
0.0
 11
324.529421
 21
369.784255
 31
0.0
  0
LINE
  8
LC-006-005-----0
  6
CONTINUOUS
  5
107
 10
272.547938
 20
320.631199
 30
0.0
 11
275.286968
 21
323.37023
 31
0.0
  0
LINE
  8
LC-006-005-----0
  6
CONTINUOUS
  5
108
 10
322.098705
 20
370.181967
 30
0.0
 11
324.503068
 21
372.586329
 31
0.0
  0
LINE
  8
LC-006-005-----0
  6
CONTINUOUS
  5
109
 10
272.547938
 20
323.459626
 30
0.0
 11
275.286968
 21
326.198657
 31
0.0
  0
LINE
  8
LC-006-005-----0
  6
CONTINUOUS
  5
10A
 10
322.098704
 20
373.010392
 30
0.0
 11
324.476715
 21
375.388404
 31
0.0
  0
LINE
  8
LC-006-005-----0
  6
CONTINUOUS
  5
10B
 10
272.547938
 20
326.288053
 30
0.0
 11
275.286968
 21
329.027084
 31
0.0
  0
LINE
  8
LC-006-005-----0
  6
CONTINUOUS
  5
10C
 10
322.098702
 20
375.838817
 30
0.0
 11
324.507324
 21
378.247439
 31
0.0
  0
LINE
  8
LC-006-005-----0
  6
CONTINUOUS
  5
10D
 10
272.547938
 20
329.11648
 30
0.0
 11
275.286968
 21
331.855511
 31
0.0
  0
LINE
  8
LC-006-005-----0
  6
CONTINUOUS
  5
10E
 10
272.547938
 20
331.944907
 30
0.0
 11
275.286968
 21
334.683938
 31
0.0
  0
LINE
  8
LC-006-005-----0
  6
CONTINUOUS
  5
10F
 10
272.547938
 20
334.773334
 30
0.0
 11
275.286968
 21
337.512365
 31
0.0
  0
LINE
  8
LC-006-005-----0
  6
CONTINUOUS
  5
110
 10
272.547938
 20
337.601762
 30
0.0
 11
275.286968
 21
340.340792
 31
0.0
  0
LINE
  8
LC-006-005-----0
  6
CONTINUOUS
  5
111
 10
272.547938
 20
340.430189
 30
0.0
 11
275.286968
 21
343.169219
 31
0.0
  0
LINE
  8
LC-006-005-----0
  6
CONTINUOUS
  5
112
 10
272.547938
 20
343.258616
 30
0.0
 11
275.286968
 21
345.997647
 31
0.0
  0
LINE
  8
LC-006-005-----0
  6
CONTINUOUS
  5
113
 10
272.547938
 20
346.087043
 30
0.0
 11
275.286968
 21
348.826074
 31
0.0
  0
LINE
  8
LC-006-005-----0
  6
CONTINUOUS
  5
114
 10
272.547938
 20
348.91547
 30
0.0
 11
275.286968
 21
351.654501
 31
0.0
  0
LINE
  8
LC-006-005-----0
  6
CONTINUOUS
  5
115
 10
272.547938
 20
351.743897
 30
0.0
 11
275.286968
 21
354.482928
 31
0.0
  0
LINE
  8
LC-006-005-----0
  6
CONTINUOUS
  5
116
 10
272.547938
 20
354.572324
 30
0.0
 11
275.286968
 21
357.311355
 31
0.0
  0
LINE
  8
LC-006-005-----0
  6
CONTINUOUS
  5
117
 10
272.547938
 20
357.400751
 30
0.0
 11
275.286968
 21
360.139782
 31
0.0
  0
LINE
  8
LC-006-005-----0
  6
CONTINUOUS
  5
118
 10
272.547938
 20
360.229179
 30
0.0
 11
275.286968
 21
362.968209
 31
0.0
  0
LINE
  8
LC-006-005-----0
  6
CONTINUOUS
  5
119
 10
272.547938
 20
363.057606
 30
0.0
 11
275.286968
 21
365.796636
 31
0.0
  0
LINE
  8
LC-006-005-----0
  6
CONTINUOUS
  5
11A
 10
272.547938
 20
365.886033
 30
0.0
 11
275.286968
 21
368.625064
 31
0.0
  0
LINE
  8
LC-006-005-----0
  6
CONTINUOUS
  5
11B
 10
272.547938
 20
368.71446
 30
0.0
 11
275.286968
 21
371.453491
 31
0.0
  0
LINE
  8
LC-006-005-----0
  6
CONTINUOUS
  5
11C
 10
272.547938
 20
371.542887
 30
0.0
 11
275.286968
 21
374.281918
 31
0.0
  0
LINE
  8
LC-006-005-----0
  6
CONTINUOUS
  5
11D
 10
272.547938
 20
374.371314
 30
0.0
 11
275.286968
 21
377.110345
 31
0.0
  0
LINE
  8
LC-006-005-----0
  6
CONTINUOUS
  5
11E
 10
272.547938
 20
377.199741
 30
0.0
 11
275.286968
 21
379.938772
 31
0.0
  0
LINE
  8
LC-006-005-----0
  6
CONTINUOUS
  5
11F
 10
272.547938
 20
380.028168
 30
0.0
 11
275.286968
 21
382.767199
 31
0.0
  0
LINE
  8
LC-006-005-----0
  6
CONTINUOUS
  5
120
 10
272.131284
 20
382.439942
 30
0.0
 11
274.739162
 21
385.04782
 31
0.0
  0
LINE
  8
LC-006-005-----0
  6
CONTINUOUS
  5
121
 10
270.966434
 20
384.103519
 30
0.0
 11
275.735174
 21
388.872258
 31
0.0
  0
LINE
  8
LC-006-005-----0
  6
CONTINUOUS
  5
122
 10
269.801585
 20
385.767097
 30
0.0
 11
274.739162
 21
390.704674
 31
0.0
  0
LINE
  8
LC-006-005-----0
  6
CONTINUOUS
  5
123
 10
275.398516
 20
391.364028
 30
0.0
 11
275.588876
 21
391.554388
 31
0.0
  0
LINE
  8
LC-006-005-----0
  6
CONTINUOUS
  5
124
 10
268.636735
 20
387.430674
 30
0.0
 11
274.690367
 21
393.484307
 31
0.0
  0
LINE
  8
LC-006-005-----0
  6
CONTINUOUS
  5
125
 10
267.471885
 20
389.094252
 30
0.0
 11
272.384196
 21
394.006562
 31
0.0
  0
LINE
  8
LC-006-005-----0
  6
CONTINUOUS
  5
126
 10
266.307036
 20
390.757829
 30
0.0
 11
269.555768
 21
394.006562
 31
0.0
  0
LINE
  8
LC-006-005-----0
  6
CONTINUOUS
  5
127
 10
265.142186
 20
392.421407
 30
0.0
 11
266.727341
 21
394.006562
 31
0.0
  0
LINE
  8
LC-006-005-----0
  6
CONTINUOUS
  5
128
 10
263.977337
 20
394.084984
 30
0.0
 11
266.073865
 21
396.181513
 31
0.0
  0
LINE
  8
LC-006-005-----0
  6
CONTINUOUS
  5
129
 10
263.334834
 20
396.270909
 30
0.0
 11
266.073865
 21
399.00994
 31
0.0
  0
LINE
  8
LC-006-005-----0
  6
CONTINUOUS
  5
12A
 10
263.334834
 20
399.099336
 30
0.0
 11
266.073865
 21
401.838367
 31
0.0
  0
LINE
  8
LC-006-005-----0
  6
CONTINUOUS
  5
12B
 10
263.172759
 20
401.765688
 30
0.0
 11
266.073865
 21
404.666794
 31
0.0
  0
LINE
  8
LC-006-005-----0
  6
CONTINUOUS
  5
12C
 10
261.539566
 20
402.960922
 30
0.0
 11
264.039334
 21
405.460691
 31
0.0
  0
LINE
  8
LC-006-005-----0
  6
CONTINUOUS
  5
12D
 10
264.083218
 20
405.504574
 30
0.0
 11
266.073865
 21
407.495221
 31
0.0
  0
LINE
  8
LC-006-005-----0
  6
CONTINUOUS
  5
12E
 10
259.299918
 20
403.549701
 30
0.0
 11
261.42369
 21
405.673474
 31
0.0
  0
LINE
  8
LC-006-005-----0
  6
CONTINUOUS
  5
12F
 10
264.083218
 20
408.333001
 30
0.0
 11
266.073865
 21
410.323648
 31
0.0
  0
LINE
  8
LC-006-005-----0
  6
CONTINUOUS
  5
130
 10
258.166285
 20
405.244495
 30
0.0
 11
260.95879
 21
408.037001
 31
0.0
  0
LINE
  8
LC-006-005-----0
  6
CONTINUOUS
  5
131
 10
264.083218
 20
411.161429
 30
0.0
 11
264.358547
 21
411.436758
 31
0.0
  0
LINE
  8
LC-006-005-----0
  6
CONTINUOUS
  5
132
 10
257.974808
 20
407.881445
 30
0.0
 11
260.81794
 21
410.724578
 31
0.0
  0
LINE
  8
LC-006-005-----0
  6
CONTINUOUS
  5
133
 10
257.730225
 20
410.46529
 30
0.0
 11
260.67709
 21
413.412155
 31
0.0
  0
LINE
  8
LC-006-005-----0
  6
CONTINUOUS
  5
134
 10
255.809842
 20
411.373333
 30
0.0
 11
258.613248
 21
414.17674
 31
0.0
  0
LINE
  8
LC-006-005-----0
  6
CONTINUOUS
  5
135
 10
253.17619
 20
411.568108
 30
0.0
 11
255.977952
 21
414.369871
 31
0.0
  0
LINE
  8
LC-006-005-----0
  6
CONTINUOUS
  5
136
 10
250.542537
 20
411.762884
 30
0.0
 11
253.342656
 21
414.563002
 31
0.0
  0
LINE
  8
LC-006-005-----0
  6
CONTINUOUS
  5
137
 10
247.908885
 20
411.957659
 30
0.0
 11
250.70736
 21
414.756133
 31
0.0
  0
LINE
  8
LC-006-005-----0
  6
CONTINUOUS
  5
138
 10
245.275233
 20
412.152434
 30
0.0
 11
248.072064
 21
414.949264
 31
0.0
  0
LINE
  8
LC-006-005-----0
  6
CONTINUOUS
  5
139
 10
242.641581
 20
412.347209
 30
0.0
 11
245.436768
 21
415.142395
 31
0.0
  0
LINE
  8
LC-006-005-----0
  6
CONTINUOUS
  5
13A
 10
240.328961
 20
412.863015
 30
0.0
 11
242.801472
 21
415.335526
 31
0.0
  0
LINE
  8
LC-006-005-----0
  6
CONTINUOUS
  5
13B
 10
238.308287
 20
413.670769
 30
0.0
 11
240.719257
 21
416.081739
 31
0.0
  0
LINE
  8
LC-006-005-----0
  6
CONTINUOUS
  5
13C
 10
236.287614
 20
414.478523
 30
0.0
 11
238.698584
 21
416.889493
 31
0.0
  0
LINE
  8
LC-006-005-----0
  6
CONTINUOUS
  5
13D
 10
233.881544
 20
414.90088
 30
0.0
 11
236.67791
 21
417.697246
 31
0.0
  0
LINE
  8
LC-006-005-----0
  6
CONTINUOUS
  5
13E
 10
231.237973
 20
415.085736
 30
0.0
 11
234.037539
 21
417.885302
 31
0.0
  0
LINE
  8
LC-006-005-----0
  6
CONTINUOUS
  5
13F
 10
228.594402
 20
415.270593
 30
0.0
 11
231.393968
 21
418.070158
 31
0.0
  0
LINE
  8
LC-006-005-----0
  6
CONTINUOUS
  5
140
 10
225.950832
 20
415.455449
 30
0.0
 11
228.750397
 21
418.255015
 31
0.0
  0
LINE
  8
LC-006-005-----0
  6
CONTINUOUS
  5
141
 10
223.307261
 20
415.640305
 30
0.0
 11
226.106826
 21
418.439871
 31
0.0
  0
LINE
  8
LC-006-005-----0
  6
CONTINUOUS
  5
142
 10
220.66369
 20
415.825161
 30
0.0
 11
223.463256
 21
418.624727
 31
0.0
  0
LINE
  8
LC-006-005-----0
  6
CONTINUOUS
  5
143
 10
218.020119
 20
416.010018
 30
0.0
 11
220.819685
 21
418.809583
 31
0.0
  0
LINE
  8
LC-006-005-----0
  6
CONTINUOUS
  5
144
 10
215.376548
 20
416.194874
 30
0.0
 11
218.176114
 21
418.99444
 31
0.0
  0
LINE
  8
LC-006-005-----0
  6
CONTINUOUS
  5
145
 10
212.732977
 20
416.37973
 30
0.0
 11
215.532543
 21
419.179296
 31
0.0
  0
LINE
  8
LC-006-005-----0
  6
CONTINUOUS
  5
146
 10
210.089406
 20
416.564587
 30
0.0
 11
212.888972
 21
419.364152
 31
0.0
  0
LINE
  8
LC-006-005-----0
  6
CONTINUOUS
  5
147
 10
207.445836
 20
416.749443
 30
0.0
 11
210.245402
 21
419.549009
 31
0.0
  0
LINE
  8
LC-006-005-----0
  6
CONTINUOUS
  5
148
 10
204.802265
 20
416.934299
 30
0.0
 11
207.601831
 21
419.733865
 31
0.0
  0
LINE
  8
LC-006-005-----0
  6
CONTINUOUS
  5
149
 10
202.326708
 20
417.287169
 30
0.0
 11
204.95826
 21
419.918721
 31
0.0
  0
ENDBLK
  8
0
  5
14A
  0
BLOCK
  8
0
  5
14C
  2
BLK1
 70
    64
 10
0.0
 20
0.0
 30
0.0
  3
BLK1
  0
ENDBLK
  8
0
  5
14D
  0
BLOCK
  8
0
  5
14F
  2
*X3
 70
    65
 10
310.980069
 20
328.810189
 30
0.0
  3
*X3
  0
LINE
  8
LC-006-005-----0
  6
CONTINUOUS
  5
150
 10
393.864198
 20
328.810375
 30
0.0
 11
393.980239
 21
328.926415
 31
0.0
  0
LINE
  8
LC-006-005-----0
  6
CONTINUOUS
  5
151
 10
392.9804
 20
330.755003
 30
0.0
 11
393.980241
 21
331.754844
 31
0.0
  0
LINE
  8
LC-006-005-----0
  6
CONTINUOUS
  5
152
 10
392.980394
 20
333.583424
 30
0.0
 11
393.980243
 21
334.583273
 31
0.0
  0
LINE
  8
LC-006-005-----0
  6
CONTINUOUS
  5
153
 10
392.980388
 20
336.411846
 30
0.0
 11
393.980245
 21
337.411702
 31
0.0
  0
LINE
  8
LC-006-005-----0
  6
CONTINUOUS
  5
154
 10
392.980382
 20
339.240267
 30
0.0
 11
393.980247
 21
340.240131
 31
0.0
  0
LINE
  8
LC-006-005-----0
  6
CONTINUOUS
  5
155
 10
392.980376
 20
342.068688
 30
0.0
 11
393.980248
 21
343.06856
 31
0.0
  0
LINE
  8
LC-006-005-----0
  6
CONTINUOUS
  5
156
 10
392.980371
 20
344.897109
 30
0.0
 11
393.98025
 21
345.896989
 31
0.0
  0
LINE
  8
LC-006-005-----0
  6
CONTINUOUS
  5
157
 10
392.980365
 20
347.725531
 30
0.0
 11
393.980252
 21
348.725418
 31
0.0
  0
LINE
  8
LC-006-005-----0
  6
CONTINUOUS
  5
158
 10
392.980359
 20
350.553952
 30
0.0
 11
393.980254
 21
351.553847
 31
0.0
  0
LINE
  8
LC-006-005-----0
  6
CONTINUOUS
  5
159
 10
392.980353
 20
353.382373
 30
0.0
 11
393.980256
 21
354.382276
 31
0.0
  0
LINE
  8
LC-006-005-----0
  6
CONTINUOUS
  5
15A
 10
392.980347
 20
356.210794
 30
0.0
 11
393.980258
 21
357.210705
 31
0.0
  0
LINE
  8
LC-006-005-----0
  6
CONTINUOUS
  5
15B
 10
392.980341
 20
359.039216
 30
0.0
 11
393.980259
 21
360.039134
 31
0.0
  0
LINE
  8
LC-006-005-----0
  6
CONTINUOUS
  5
15C
 10
392.980335
 20
361.867637
 30
0.0
 11
393.980261
 21
362.867563
 31
0.0
  0
LINE
  8
LC-006-005-----0
  6
CONTINUOUS
  5
15D
 10
392.98033
 20
364.696058
 30
0.0
 11
393.980263
 21
365.695992
 31
0.0
  0
LINE
  8
LC-006-005-----0
  6
CONTINUOUS
  5
15E
 10
392.980324
 20
367.52448
 30
0.0
 11
393.980265
 21
368.524421
 31
0.0
  0
LINE
  8
LC-006-005-----0
  6
CONTINUOUS
  5
15F
 10
392.980318
 20
370.352901
 30
0.0
 11
393.980267
 21
371.35285
 31
0.0
  0
LINE
  8
LC-006-005-----0
  6
CONTINUOUS
  5
160
 10
392.980312
 20
373.181322
 30
0.0
 11
393.980269
 21
374.181279
 31
0.0
  0
LINE
  8
LC-006-005-----0
  6
CONTINUOUS
  5
161
 10
392.980306
 20
376.009743
 30
0.0
 11
393.980271
 21
377.009708
 31
0.0
  0
LINE
  8
LC-006-005-----0
  6
CONTINUOUS
  5
162
 10
392.9803
 20
378.838165
 30
0.0
 11
393.980272
 21
379.838137
 31
0.0
  0
LINE
  8
LC-006-005-----0
  6
CONTINUOUS
  5
163
 10
392.980294
 20
381.666586
 30
0.0
 11
393.980274
 21
382.666566
 31
0.0
  0
LINE
  8
LC-006-005-----0
  6
CONTINUOUS
  5
164
 10
392.980289
 20
384.495007
 30
0.0
 11
393.980276
 21
385.494995
 31
0.0
  0
LINE
  8
LC-006-005-----0
  6
CONTINUOUS
  5
165
 10
392.980283
 20
387.323428
 30
0.0
 11
393.980278
 21
388.323424
 31
0.0
  0
LINE
  8
LC-006-005-----0
  6
CONTINUOUS
  5
166
 10
392.90038
 20
390.071953
 30
0.0
 11
393.786518
 21
390.958091
 31
0.0
  0
LINE
  8
LC-006-005-----0
  6
CONTINUOUS
  5
167
 10
392.337567
 20
392.337567
 30
0.0
 11
393.163042
 21
393.163042
 31
0.0
  0
LINE
  8
LC-006-005-----0
  6
CONTINUOUS
  5
168
 10
391.391065
 20
394.219493
 30
0.0
 11
392.227118
 21
395.055545
 31
0.0
  0
LINE
  8
LC-006-005-----0
  6
CONTINUOUS
  5
169
 10
390.137432
 20
395.794286
 30
0.0
 11
391.031874
 21
396.688728
 31
0.0
  0
LINE
  8
LC-006-005-----0
  6
CONTINUOUS
  5
16A
 10
388.598001
 20
397.083283
 30
0.0
 11
389.597506
 21
398.082788
 31
0.0
  0
LINE
  8
LC-006-005-----0
  6
CONTINUOUS
  5
16B
 10
386.756324
 20
398.070033
 30
0.0
 11
387.922248
 21
399.235957
 31
0.0
  0
LINE
  8
LC-006-005-----0
  6
CONTINUOUS
  5
16C
 10
384.545044
 20
398.68718
 30
0.0
 11
385.981503
 21
400.123639
 31
0.0
  0
LINE
  8
LC-006-005-----0
  6
CONTINUOUS
  5
16D
 10
311.83977
 20
328.810333
 30
0.0
 11
311.980239
 21
328.950801
 31
0.0
  0
LINE
  8
LC-006-005-----0
  6
CONTINUOUS
  5
16E
 10
353.339629
 20
370.310192
 30
0.0
 11
353.915886
 21
370.886449
 31
0.0
  0
LINE
  8
LC-006-005-----0
  6
CONTINUOUS
  5
16F
 10
381.8398
 20
398.810363
 30
0.0
 11
383.713912
 21
400.684474
 31
0.0
  0
LINE
  8
LC-006-005-----0
  6
CONTINUOUS
  5
170
 10
310.980233
 20
330.779223
 30
0.0
 11
311.980231
 21
331.779221
 31
0.0
  0
LINE
  8
LC-006-005-----0
  6
CONTINUOUS
  5
171
 10
350.511202
 20
370.310192
 30
0.0
 11
353.916652
 21
373.715642
 31
0.0
  0
LINE
  8
LC-006-005-----0
  6
CONTINUOUS
  5
172
 10
379.011373
 20
398.810363
 30
0.0
 11
381.011374
 21
400.810364
 31
0.0
  0
LINE
  8
LC-006-005-----0
  6
CONTINUOUS
  5
173
 10
310.980225
 20
333.607642
 30
0.0
 11
311.980223
 21
334.60764
 31
0.0
  0
LINE
  8
LC-006-005-----0
  6
CONTINUOUS
  5
174
 10
347.682775
 20
370.310192
 30
0.0
 11
353.917418
 21
376.544835
 31
0.0
  0
LINE
  8
LC-006-005-----0
  6
CONTINUOUS
  5
175
 10
376.182946
 20
398.810363
 30
0.0
 11
378.182949
 21
400.810366
 31
0.0
  0
LINE
  8
LC-006-005-----0
  6
CONTINUOUS
  5
176
 10
310.980217
 20
336.436062
 30
0.0
 11
311.980215
 21
337.436059
 31
0.0
  0
LINE
  8
LC-006-005-----0
  6
CONTINUOUS
  5
177
 10
344.854348
 20
370.310192
 30
0.0
 11
353.918184
 21
379.374028
 31
0.0
  0
LINE
  8
LC-006-005-----0
  6
CONTINUOUS
  5
178
 10
373.354519
 20
398.810363
 30
0.0
 11
375.354524
 21
400.810368
 31
0.0
  0
LINE
  8
LC-006-005-----0
  6
CONTINUOUS
  5
179
 10
310.980209
 20
339.264481
 30
0.0
 11
311.980207
 21
340.264478
 31
0.0
  0
LINE
  8
LC-006-005-----0
  6
CONTINUOUS
  5
17A
 10
342.025921
 20
370.310192
 30
0.0
 11
353.918949
 21
382.203221
 31
0.0
  0
LINE
  8
LC-006-005-----0
  6
CONTINUOUS
  5
17B
 10
370.526092
 20
398.810363
 30
0.0
 11
372.526098
 21
400.81037
 31
0.0
  0
LINE
  8
LC-006-005-----0
  6
CONTINUOUS
  5
17C
 10
310.980201
 20
342.0929
 30
0.0
 11
311.980199
 21
343.092897
 31
0.0
  0
LINE
  8
LC-006-005-----0
  6
CONTINUOUS
  5
17D
 10
339.197493
 20
370.310192
 30
0.0
 11
353.919715
 21
385.032414
 31
0.0
  0
LINE
  8
LC-006-005-----0
  6
CONTINUOUS
  5
17E
 10
367.697665
 20
398.810363
 30
0.0
 11
369.697673
 21
400.810372
 31
0.0
  0
LINE
  8
LC-006-005-----0
  6
CONTINUOUS
  5
17F
 10
310.980193
 20
344.921319
 30
0.0
 11
311.980191
 21
345.921316
 31
0.0
  0
LINE
  8
LC-006-005-----0
  6
CONTINUOUS
  5
180
 10
336.369066
 20
370.310192
 30
0.0
 11
353.920481
 21
387.861607
 31
0.0
  0
LINE
  8
LC-006-005-----0
  6
CONTINUOUS
  5
181
 10
364.869238
 20
398.810363
 30
0.0
 11
366.869248
 21
400.810374
 31
0.0
  0
LINE
  8
LC-006-005-----0
  6
CONTINUOUS
  5
182
 10
310.980185
 20
347.749738
 30
0.0
 11
311.980183
 21
348.749735
 31
0.0
  0
LINE
  8
LC-006-005-----0
  6
CONTINUOUS
  5
183
 10
333.540639
 20
370.310192
 30
0.0
 11
353.921247
 21
390.690799
 31
0.0
  0
LINE
  8
LC-006-005-----0
  6
CONTINUOUS
  5
184
 10
362.04081
 20
398.810363
 30
0.0
 11
366.160166
 21
402.929719
 31
0.0
  0
LINE
  8
LC-006-005-----0
  6
CONTINUOUS
  5
185
 10
310.980177
 20
350.578157
 30
0.0
 11
311.980175
 21
351.578154
 31
0.0
  0
LINE
  8
LC-006-005-----0
  6
CONTINUOUS
  5
186
 10
330.712212
 20
370.310192
 30
0.0
 11
353.922013
 21
393.519992
 31
0.0
  0
LINE
  8
LC-006-005-----0
  6
CONTINUOUS
  5
187
 10
359.212383
 20
398.810363
 30
0.0
 11
361.212398
 21
400.810378
 31
0.0
  0
LINE
  8
LC-006-005-----0
  6
CONTINUOUS
  5
188
 10
362.230036
 20
401.828015
 30
0.0
 11
365.577296
 21
405.175275
 31
0.0
  0
LINE
  8
LC-006-005-----0
  6
CONTINUOUS
  5
189
 10
310.980169
 20
353.406576
 30
0.0
 11
311.980167
 21
354.406573
 31
0.0
  0
LINE
  8
LC-006-005-----0
  6
CONTINUOUS
  5
18A
 10
327.883785
 20
370.310192
 30
0.0
 11
353.922778
 21
396.349185
 31
0.0
  0
LINE
  8
LC-006-005-----0
  6
CONTINUOUS
  5
18B
 10
356.383956
 20
398.810363
 30
0.0
 11
358.383973
 21
400.81038
 31
0.0
  0
LINE
  8
LC-006-005-----0
  6
CONTINUOUS
  5
18C
 10
361.674474
 20
404.100881
 30
0.0
 11
364.579117
 21
407.005524
 31
0.0
  0
LINE
  8
LC-006-005-----0
  6
CONTINUOUS
  5
18D
 10
310.980161
 20
356.234995
 30
0.0
 11
311.980159
 21
357.234993
 31
0.0
  0
LINE
  8
LC-006-005-----0
  6
CONTINUOUS
  5
18E
 10
325.532366
 20
370.7872
 30
0.0
 11
355.555548
 21
400.810382
 31
0.0
  0
LINE
  8
LC-006-005-----0
  6
CONTINUOUS
  5
18F
 10
360.412115
 20
405.666949
 30
0.0
 11
363.247726
 21
408.50256
 31
0.0
  0
LINE
  8
LC-006-005-----0
  6
CONTINUOUS
  5
190
 10
310.980153
 20
359.063414
 30
0.0
 11
311.980151
 21
360.063412
 31
0.0
  0
LINE
  8
LC-006-005-----0
  6
CONTINUOUS
  5
191
 10
324.934649
 20
373.017911
 30
0.0
 11
352.727123
 21
400.810384
 31
0.0
  0
LINE
  8
LC-006-005-----0
  6
CONTINUOUS
  5
192
 10
358.549657
 20
406.632918
 30
0.0
 11
361.59667
 21
409.679931
 31
0.0
  0
LINE
  8
LC-006-005-----0
  6
CONTINUOUS
  5
193
 10
310.980145
 20
361.891834
 30
0.0
 11
311.980143
 21
362.891831
 31
0.0
  0
LINE
  8
LC-006-005-----0
  6
CONTINUOUS
  5
194
 10
324.722358
 20
375.634047
 30
0.0
 11
349.898504
 21
400.810192
 31
0.0
  0
LINE
  8
LC-006-005-----0
  6
CONTINUOUS
  5
195
 10
355.898504
 20
406.810192
 30
0.0
 11
359.584958
 21
410.496647
 31
0.0
  0
LINE
  8
LC-006-005-----0
  6
CONTINUOUS
  5
196
 10
310.980137
 20
364.720253
 30
0.0
 11
311.980134
 21
365.72025
 31
0.0
  0
LINE
  8
LC-006-005-----0
  6
CONTINUOUS
  5
197
 10
324.570076
 20
378.310192
 30
0.0
 11
347.070076
 21
400.810192
 31
0.0
  0
LINE
  8
LC-006-005-----0
  6
CONTINUOUS
  5
198
 10
353.070076
 20
406.810192
 30
0.0
 11
357.070077
 21
410.810192
 31
0.0
  0
LINE
  8
LC-006-005-----0
  6
CONTINUOUS
  5
199
 10
310.980129
 20
367.548672
 30
0.0
 11
311.980126
 21
368.548669
 31
0.0
  0
LINE
  8
LC-006-005-----0
  6
CONTINUOUS
  5
19A
 10
321.741649
 20
378.310192
 30
0.0
 11
344.241649
 21
400.810192
 31
0.0
  0
LINE
  8
LC-006-005-----0
  6
CONTINUOUS
  5
19B
 10
350.241649
 20
406.810192
 30
0.0
 11
354.241649
 21
410.810192
 31
0.0
  0
LINE
  8
LC-006-005-----0
  6
CONTINUOUS
  5
19C
 10
310.980121
 20
370.377091
 30
0.0
 11
311.980118
 21
371.377088
 31
0.0
  0
LINE
  8
LC-006-005-----0
  6
CONTINUOUS
  5
19D
 10
321.22298
 20
380.61995
 30
0.0
 11
342.740814
 21
402.137783
 31
0.0
  0
LINE
  8
LC-006-005-----0
  6
CONTINUOUS
  5
19E
 10
347.402479
 20
406.799449
 30
0.0
 11
351.413222
 21
410.810192
 31
0.0
  0
LINE
  8
LC-006-005-----0
  6
CONTINUOUS
  5
19F
 10
310.980113
 20
373.20551
 30
0.0
 11
311.98011
 21
374.205507
 31
0.0
  0
LINE
  8
LC-006-005-----0
  6
CONTINUOUS
  5
1A0
 10
321.223746
 20
383.449142
 30
0.0
 11
338.584795
 21
400.810192
 31
0.0
  0
LINE
  8
LC-006-005-----0
  6
CONTINUOUS
  5
1A1
 10
338.730071
 20
400.955467
 30
0.0
 11
348.584795
 21
410.810192
 31
0.0
  0
LINE
  8
LC-006-005-----0
  6
CONTINUOUS
  5
1A2
 10
310.980105
 20
376.033929
 30
0.0
 11
311.980102
 21
377.033926
 31
0.0
  0
LINE
  8
LC-006-005-----0
  6
CONTINUOUS
  5
1A3
 10
321.224512
 20
386.278335
 30
0.0
 11
335.756368
 21
400.810192
 31
0.0
  0
LINE
  8
LC-006-005-----0
  6
CONTINUOUS
  5
1A4
 10
339.019175
 20
404.072999
 30
0.0
 11
345.467264
 21
410.521088
 31
0.0
  0
LINE
  8
LC-006-005-----0
  6
CONTINUOUS
  5
1A5
 10
310.980097
 20
378.862348
 30
0.0
 11
311.980094
 21
379.862345
 31
0.0
  0
LINE
  8
LC-006-005-----0
  6
CONTINUOUS
  5
1A6
 10
321.225277
 20
389.107528
 30
0.0
 11
332.927941
 21
400.810192
 31
0.0
  0
LINE
  8
LC-006-005-----0
  6
CONTINUOUS
  5
1A7
 10
310.980089
 20
381.690767
 30
0.0
 11
311.980086
 21
382.690765
 31
0.0
  0
LINE
  8
LC-006-005-----0
  6
CONTINUOUS
  5
1A8
 10
321.226043
 20
391.936721
 30
0.0
 11
330.099514
 21
400.810192
 31
0.0
  0
LINE
  8
LC-006-005-----0
  6
CONTINUOUS
  5
1A9
 10
310.980081
 20
384.519186
 30
0.0
 11
311.980078
 21
385.519184
 31
0.0
  0
LINE
  8
LC-006-005-----0
  6
CONTINUOUS
  5
1AA
 10
321.226809
 20
394.765914
 30
0.0
 11
327.271087
 21
400.810192
 31
0.0
  0
LINE
  8
LC-006-005-----0
  6
CONTINUOUS
  5
1AB
 10
310.980073
 20
387.347606
 30
0.0
 11
311.98007
 21
388.347603
 31
0.0
  0
LINE
  8
LC-006-005-----0
  6
CONTINUOUS
  5
1AC
 10
321.227575
 20
397.595107
 30
0.0
 11
324.442659
 21
400.810192
 31
0.0
  0
LINE
  8
LC-006-005-----0
  6
CONTINUOUS
  5
1AD
 10
311.068518
 20
390.264477
 30
0.0
 11
312.366186
 21
391.562145
 31
0.0
  0
LINE
  8
LC-006-005-----0
  6
CONTINUOUS
  5
1AE
 10
319.228116
 20
398.424075
 30
0.0
 11
321.525784
 21
400.721743
 31
0.0
  0
LINE
  8
LC-006-005-----0
  6
CONTINUOUS
  5
1AF
 10
312.34592
 20
394.370307
 30
0.0
 11
317.419954
 21
399.44434
 31
0.0
  0
ENDBLK
  8
0
  5
1B0
  0
BLOCK
  8
0
  5
1B2
  2
BLK2
 70
    64
 10
0.0
 20
0.0
 30
0.0
  3
BLK2
  0
ENDBLK
  8
0
  5
1B3
  0
BLOCK
  8
0
  5
1B5
  2
*D5
 70
    65
 10
0.0
 20
0.0
 30
0.0
  3
*D5
  0
LINE
  8
LC-009-003-MTH-0
  6
CONTINUOUS
  5
1B7
 10
202.326708
 20
417.107407
 30
0.0
 11
202.326708
 21
487.2
 31
0.0
  0
LINE
  8
LC-009-003-MTH-0
  6
CONTINUOUS
  5
1B8
 10
502.627556
 20
417.107407
 30
0.0
 11
502.627556
 21
487.2
 31
0.0
  0
LINE
  8
LC-010-003-MTG-0
  6
CONTINUOUS
  5
1BA
 10
202.326708
 20
470.4
 30
0.0
 11
502.627556
 21
470.4
 31
0.0
  0
LINE
  8
LC-008-003-----0
  6
CONTINUOUS
  5
1BC
 10
230.087164
 20
474.054733
 30
0.0
 11
202.326708
 21
470.4
 31
0.0
  0
LINE
  8
LC-008-003-----0
  6
CONTINUOUS
  5
1BD
 10
202.326708
 20
470.4
 30
0.0
 11
230.087164
 21
466.745267
 31
0.0
  0
LINE
  8
LC-008-003-----0
  6
CONTINUOUS
  5
1BE
 10
230.087164
 20
466.745267
 30
0.0
 11
230.087164
 21
474.054733
 31
0.0
  0
LINE
  8
LC-008-003-----0
  6
CONTINUOUS
  5
1BF
 10
230.149445
 20
473.104503
 30
0.0
 11
209.606708
 21
470.4
 31
0.0
  0
LINE
  8
LC-008-003-----0
  6
CONTINUOUS
  5
1C0
 10
209.606708
 20
470.4
 30
0.0
 11
230.149445
 21
467.695497
 31
0.0
  0
LINE
  8
LC-008-003-----0
  6
CONTINUOUS
  5
1C1
 10
230.211727
 20
472.154272
 30
0.0
 11
216.886708
 21
470.4
 31
0.0
  0
LINE
  8
LC-008-003-----0
  6
CONTINUOUS
  5
1C2
 10
216.886708
 20
470.4
 30
0.0
 11
230.211727
 21
468.645728
 31
0.0
  0
LINE
  8
LC-008-003-----0
  6
CONTINUOUS
  5
1C3
 10
230.274008
 20
471.204041
 30
0.0
 11
224.166708
 21
470.4
 31
0.0
  0
LINE
  8
LC-008-003-----0
  6
CONTINUOUS
  5
1C4
 10
224.166708
 20
470.4
 30
0.0
 11
230.274008
 21
469.595959
 31
0.0
  0
LINE
  8
LC-008-003-----0
  6
CONTINUOUS
  5
1C5
 10
474.8671
 20
466.745267
 30
0.0
 11
502.627556
 21
470.4
 31
0.0
  0
LINE
  8
LC-008-003-----0
  6
CONTINUOUS
  5
1C6
 10
502.627556
 20
470.4
 30
0.0
 11
474.8671
 21
474.054733
 31
0.0
  0
LINE
  8
LC-008-003-----0
  6
CONTINUOUS
  5
1C7
 10
474.8671
 20
474.054733
 30
0.0
 11
474.8671
 21
466.745267
 31
0.0
  0
LINE
  8
LC-008-003-----0
  6
CONTINUOUS
  5
1C8
 10
474.804819
 20
467.695497
 30
0.0
 11
495.347556
 21
470.4
 31
0.0
  0
LINE
  8
LC-008-003-----0
  6
CONTINUOUS
  5
1C9
 10
495.347556
 20
470.4
 30
0.0
 11
474.804819
 21
473.104503
 31
0.0
  0
LINE
  8
LC-008-003-----0
  6
CONTINUOUS
  5
1CA
 10
474.742537
 20
468.645728
 30
0.0
 11
488.067556
 21
470.4
 31
0.0
  0
LINE
  8
LC-008-003-----0
  6
CONTINUOUS
  5
1CB
 10
488.067556
 20
470.4
 30
0.0
 11
474.742537
 21
472.154272
 31
0.0
  0
LINE
  8
LC-008-003-----0
  6
CONTINUOUS
  5
1CC
 10
474.680256
 20
469.595959
 30
0.0
 11
480.787556
 21
470.4
 31
0.0
  0
LINE
  8
LC-008-003-----0
  6
CONTINUOUS
  5
1CD
 10
480.787556
 20
470.4
 30
0.0
 11
474.680256
 21
471.204041
 31
0.0
  0
TEXT
  8
LC-008-003-----0
  6
CONTINUOUS
 62
     8
  5
1CF
 10
318.727654
 20
478.227554
 30
0.0
 40
28.0
  1
Ø300
 41
0.9
 51
15.0
  7
LC-TXTSTYLE-150-400-0-0-D0
 72
     1
 11
356.825292
 21
478.227554
 31
0.0
  0
ENDBLK
  8
0
  5
1D0
  0
BLOCK
  8
0
  5
1D2
  2
*D6
 70
    65
 10
0.0
 20
0.0
 30
0.0
  3
*D6
  0
LINE
  8
LC-009-003-MTH-0
  6
CONTINUOUS
  5
1D3
 10
314.981094
 20
251.808374
 30
0.0
 11
314.981094
 21
183.2
 31
0.0
  0
LINE
  8
LC-009-003-MTH-0
  6
CONTINUOUS
  5
1D4
 10
389.980856
 20
251.808374
 30
0.0
 11
389.980856
 21
183.2
 31
0.0
  0
LINE
  8
LC-008-003-----0
  6
CONTINUOUS
  5
1D5
 10
287.220637
 20
196.345267
 30
0.0
 11
314.981094
 21
200.0
 31
0.0
  0
LINE
  8
LC-008-003-----0
  6
CONTINUOUS
  5
1D6
 10
314.981094
 20
200.0
 30
0.0
 11
287.220637
 21
203.654733
 31
0.0
  0
LINE
  8
LC-008-003-----0
  6
CONTINUOUS
  5
1D7
 10
287.220637
 20
203.654733
 30
0.0
 11
287.220637
 21
196.345267
 31
0.0
  0
LINE
  8
LC-008-003-----0
  6
CONTINUOUS
  5
1D8
 10
287.158356
 20
197.295497
 30
0.0
 11
307.701094
 21
200.0
 31
0.0
  0
LINE
  8
LC-008-003-----0
  6
CONTINUOUS
  5
1D9
 10
307.701094
 20
200.0
 30
0.0
 11
287.158356
 21
202.704503
 31
0.0
  0
LINE
  8
LC-008-003-----0
  6
CONTINUOUS
  5
1DA
 10
287.096075
 20
198.245728
 30
0.0
 11
300.421094
 21
200.0
 31
0.0
  0
LINE
  8
LC-008-003-----0
  6
CONTINUOUS
  5
1DB
 10
300.421094
 20
200.0
 30
0.0
 11
287.096075
 21
201.754272
 31
0.0
  0
LINE
  8
LC-008-003-----0
  6
CONTINUOUS
  5
1DC
 10
287.033793
 20
199.195959
 30
0.0
 11
293.141094
 21
200.0
 31
0.0
  0
LINE
  8
LC-008-003-----0
  6
CONTINUOUS
  5
1DD
 10
293.141094
 20
200.0
 30
0.0
 11
287.033793
 21
200.804041
 31
0.0
  0
LINE
  8
LC-008-003-----0
  6
CONTINUOUS
  5
1DE
 10
417.741312
 20
203.654733
 30
0.0
 11
389.980856
 21
200.0
 31
0.0
  0
LINE
  8
LC-008-003-----0
  6
CONTINUOUS
  5
1DF
 10
389.980856
 20
200.0
 30
0.0
 11
417.741312
 21
196.345267
 31
0.0
  0
LINE
  8
LC-008-003-----0
  6
CONTINUOUS
  5
1E0
 10
417.741312
 20
196.345267
 30
0.0
 11
417.741312
 21
203.654733
 31
0.0
  0
LINE
  8
LC-008-003-----0
  6
CONTINUOUS
  5
1E1
 10
417.803593
 20
202.704503
 30
0.0
 11
397.260856
 21
200.0
 31
0.0
  0
LINE
  8
LC-008-003-----0
  6
CONTINUOUS
  5
1E2
 10
397.260856
 20
200.0
 30
0.0
 11
417.803593
 21
197.295497
 31
0.0
  0
LINE
  8
LC-008-003-----0
  6
CONTINUOUS
  5
1E3
 10
417.865875
 20
201.754272
 30
0.0
 11
404.540856
 21
200.0
 31
0.0
  0
LINE
  8
LC-008-003-----0
  6
CONTINUOUS
  5
1E4
 10
404.540856
 20
200.0
 30
0.0
 11
417.865875
 21
198.245728
 31
0.0
  0
LINE
  8
LC-008-003-----0
  6
CONTINUOUS
  5
1E5
 10
417.928156
 20
200.804041
 30
0.0
 11
411.820856
 21
200.0
 31
0.0
  0
LINE
  8
LC-008-003-----0
  6
CONTINUOUS
  5
1E6
 10
411.820856
 20
200.0
 30
0.0
 11
417.928156
 21
199.195959
 31
0.0
  0
LINE
  8
LC-010-003-MTG-0
  6
CONTINUOUS
  5
1E7
 10
275.781094
 20
200.0
 30
0.0
 11
518.950956
 21
200.0
 31
0.0
  0
TEXT
  8
LC-008-003-----0
  6
CONTINUOUS
 62
     8
  5
1E8
 10
432.409016
 20
207.827554
 30
0.0
 40
28.0
  1
DN70
 51
15.0
  7
LC-TXTSTYLE-150-400-0-0-D0
  0
ENDBLK
  8
0
  5
1E9
  0
BLOCK
  8
0
  5
1EB
  2
*D7
 70
    65
 10
0.0
 20
0.0
 30
0.0
  3
*D7
  0
LINE
  8
LC-009-003-MTH-0
  6
CONTINUOUS
  5
1EC
 10
327.480995
 20
257.723634
 30
0.0
 11
327.480995
 21
218.4
 31
0.0
  0
LINE
  8
LC-009-003-MTH-0
  6
CONTINUOUS
  5
1ED
 10
377.480996
 20
257.723634
 30
0.0
 11
377.480996
 21
218.4
 31
0.0
  0
LINE
  8
LC-008-003-----0
  6
CONTINUOUS
  5
1EE
 10
299.720539
 20
231.545267
 30
0.0
 11
327.480995
 21
235.2
 31
0.0
  0
LINE
  8
LC-008-003-----0
  6
CONTINUOUS
  5
1EF
 10
327.480995
 20
235.2
 30
0.0
 11
299.720539
 21
238.854733
 31
0.0
  0
LINE
  8
LC-008-003-----0
  6
CONTINUOUS
  5
1F0
 10
299.720539
 20
238.854733
 30
0.0
 11
299.720539
 21
231.545267
 31
0.0
  0
LINE
  8
LC-008-003-----0
  6
CONTINUOUS
  5
1F1
 10
299.658257
 20
232.495497
 30
0.0
 11
320.200995
 21
235.2
 31
0.0
  0
LINE
  8
LC-008-003-----0
  6
CONTINUOUS
  5
1F2
 10
320.200995
 20
235.2
 30
0.0
 11
299.658257
 21
237.904503
 31
0.0
  0
LINE
  8
LC-008-003-----0
  6
CONTINUOUS
  5
1F3
 10
299.595976
 20
233.445728
 30
0.0
 11
312.920995
 21
235.2
 31
0.0
  0
LINE
  8
LC-008-003-----0
  6
CONTINUOUS
  5
1F4
 10
312.920995
 20
235.2
 30
0.0
 11
299.595976
 21
236.954272
 31
0.0
  0
LINE
  8
LC-008-003-----0
  6
CONTINUOUS
  5
1F5
 10
299.533694
 20
234.395959
 30
0.0
 11
305.640995
 21
235.2
 31
0.0
  0
LINE
  8
LC-008-003-----0
  6
CONTINUOUS
  5
1F6
 10
305.640995
 20
235.2
 30
0.0
 11
299.533694
 21
236.004041
 31
0.0
  0
LINE
  8
LC-008-003-----0
  6
CONTINUOUS
  5
1F7
 10
405.241452
 20
238.854733
 30
0.0
 11
377.480996
 21
235.2
 31
0.0
  0
LINE
  8
LC-008-003-----0
  6
CONTINUOUS
  5
1F8
 10
377.480996
 20
235.2
 30
0.0
 11
405.241452
 21
231.545267
 31
0.0
  0
LINE
  8
LC-008-003-----0
  6
CONTINUOUS
  5
1F9
 10
405.241452
 20
231.545267
 30
0.0
 11
405.241452
 21
238.854733
 31
0.0
  0
LINE
  8
LC-008-003-----0
  6
CONTINUOUS
  5
1FA
 10
405.303733
 20
237.904503
 30
0.0
 11
384.760996
 21
235.2
 31
0.0
  0
LINE
  8
LC-008-003-----0
  6
CONTINUOUS
  5
1FB
 10
384.760996
 20
235.2
 30
0.0
 11
405.303733
 21
232.495497
 31
0.0
  0
LINE
  8
LC-008-003-----0
  6
CONTINUOUS
  5
1FC
 10
405.366015
 20
236.954272
 30
0.0
 11
392.040996
 21
235.2
 31
0.0
  0
LINE
  8
LC-008-003-----0
  6
CONTINUOUS
  5
1FD
 10
392.040996
 20
235.2
 30
0.0
 11
405.366015
 21
233.445728
 31
0.0
  0
LINE
  8
LC-008-003-----0
  6
CONTINUOUS
  5
1FE
 10
405.428296
 20
236.004041
 30
0.0
 11
399.320996
 21
235.2
 31
0.0
  0
LINE
  8
LC-008-003-----0
  6
CONTINUOUS
  5
1FF
 10
399.320996
 20
235.2
 30
0.0
 11
405.428296
 21
234.395959
 31
0.0
  0
LINE
  8
LC-010-003-MTG-0
  6
CONTINUOUS
  5
200
 10
288.280995
 20
235.2
 30
0.0
 11
519.83781
 21
235.2
 31
0.0
  0
TEXT
  8
LC-008-003-----0
  6
CONTINUOUS
 62
     8
  5
201
 10
433.29587
 20
243.027554
 30
0.0
 40
28.0
  1
DN50
 51
15.0
  7
LC-TXTSTYLE-150-400-0-0-D0
  0
ENDBLK
  8
0
  5
202
  0
BLOCK
  8
0
  5
204
  2
*D8
 70
    65
 10
0.0
 20
0.0
 30
0.0
  3
*D8
  0
LINE
  8
LC-009-003-MTH-0
  6
CONTINUOUS
  5
205
 10
284.500072
 20
307.32216
 30
0.0
 11
183.2
 21
307.32216
 31
0.0
  0
LINE
  8
LC-009-003-MTH-0
  6
CONTINUOUS
  5
206
 10
202.326708
 20
417.107407
 30
0.0
 11
183.2
 21
417.107407
 31
0.0
  0
LINE
  8
LC-010-003-MTG-0
  6
CONTINUOUS
  5
207
 10
200.0
 20
307.32216
 30
0.0
 11
200.0
 21
417.107407
 31
0.0
  0
LINE
  8
LC-008-003-----0
  6
CONTINUOUS
  5
208
 10
196.345267
 20
335.082616
 30
0.0
 11
200.0
 21
307.32216
 31
0.0
  0
LINE
  8
LC-008-003-----0
  6
CONTINUOUS
  5
209
 10
200.0
 20
307.32216
 30
0.0
 11
203.654733
 21
335.082616
 31
0.0
  0
LINE
  8
LC-008-003-----0
  6
CONTINUOUS
  5
20A
 10
203.654733
 20
335.082616
 30
0.0
 11
196.345267
 21
335.082616
 31
0.0
  0
LINE
  8
LC-008-003-----0
  6
CONTINUOUS
  5
20B
 10
197.295497
 20
335.144897
 30
0.0
 11
200.0
 21
314.60216
 31
0.0
  0
LINE
  8
LC-008-003-----0
  6
CONTINUOUS
  5
20C
 10
200.0
 20
314.60216
 30
0.0
 11
202.704503
 21
335.144897
 31
0.0
  0
LINE
  8
LC-008-003-----0
  6
CONTINUOUS
  5
20D
 10
198.245728
 20
335.207179
 30
0.0
 11
200.0
 21
321.88216
 31
0.0
  0
LINE
  8
LC-008-003-----0
  6
CONTINUOUS
  5
20E
 10
200.0
 20
321.88216
 30
0.0
 11
201.754272
 21
335.207179
 31
0.0
  0
LINE
  8
LC-008-003-----0
  6
CONTINUOUS
  5
20F
 10
199.195959
 20
335.26946
 30
0.0
 11
200.0
 21
329.16216
 31
0.0
  0
LINE
  8
LC-008-003-----0
  6
CONTINUOUS
  5
210
 10
200.0
 20
329.16216
 30
0.0
 11
200.804041
 21
335.26946
 31
0.0
  0
LINE
  8
LC-008-003-----0
  6
CONTINUOUS
  5
211
 10
203.654733
 20
389.346951
 30
0.0
 11
200.0
 21
417.107407
 31
0.0
  0
LINE
  8
LC-008-003-----0
  6
CONTINUOUS
  5
212
 10
200.0
 20
417.107407
 30
0.0
 11
196.345267
 21
389.346951
 31
0.0
  0
LINE
  8
LC-008-003-----0
  6
CONTINUOUS
  5
213
 10
196.345267
 20
389.346951
 30
0.0
 11
203.654733
 21
389.346951
 31
0.0
  0
LINE
  8
LC-008-003-----0
  6
CONTINUOUS
  5
214
 10
202.704503
 20
389.284669
 30
0.0
 11
200.0
 21
409.827407
 31
0.0
  0
LINE
  8
LC-008-003-----0
  6
CONTINUOUS
  5
215
 10
200.0
 20
409.827407
 30
0.0
 11
197.295497
 21
389.284669
 31
0.0
  0
LINE
  8
LC-008-003-----0
  6
CONTINUOUS
  5
216
 10
201.754272
 20
389.222388
 30
0.0
 11
200.0
 21
402.547407
 31
0.0
  0
LINE
  8
LC-008-003-----0
  6
CONTINUOUS
  5
217
 10
200.0
 20
402.547407
 30
0.0
 11
198.245728
 21
389.222388
 31
0.0
  0
LINE
  8
LC-008-003-----0
  6
CONTINUOUS
  5
218
 10
200.804041
 20
389.160106
 30
0.0
 11
200.0
 21
395.267407
 31
0.0
  0
LINE
  8
LC-008-003-----0
  6
CONTINUOUS
  5
219
 10
200.0
 20
395.267407
 30
0.0
 11
199.195959
 21
389.160106
 31
0.0
  0
TEXT
  8
LC-008-003-----0
  6
CONTINUOUS
 62
     8
  5
21A
 10
192.172446
 20
336.799164
 30
0.0
 40
28.0
  1
110
 50
90.0
 51
15.0
  7
LC-TXTSTYLE-150-400-0-0-D0
 72
     1
 11
192.172446
 21
366.562943
 31
0.0
  0
ENDBLK
  8
0
  5
21B
  0
BLOCK
  8
0
  5
21D
  2
*D9
 70
    65
 10
0.0
 20
0.0
 30
0.0
  3
*D9
  0
LINE
  8
LC-009-003-MTH-0
  6
CONTINUOUS
  5
21E
 10
310.980073
 20
328.810189
 30
0.0
 11
223.2
 21
328.810189
 31
0.0
  0
LINE
  8
LC-009-003-MTH-0
  6
CONTINUOUS
  5
21F
 10
321.222355
 20
378.310192
 30
0.0
 11
223.2
 21
378.310192
 31
0.0
  0
LINE
  8
LC-008-003-----0
  6
CONTINUOUS
  5
220
 10
243.654733
 20
301.049733
 30
0.0
 11
240.0
 21
328.810189
 31
0.0
  0
LINE
  8
LC-008-003-----0
  6
CONTINUOUS
  5
221
 10
240.0
 20
328.810189
 30
0.0
 11
236.345267
 21
301.049733
 31
0.0
  0
LINE
  8
LC-008-003-----0
  6
CONTINUOUS
  5
222
 10
236.345267
 20
301.049733
 30
0.0
 11
243.654733
 21
301.049733
 31
0.0
  0
LINE
  8
LC-008-003-----0
  6
CONTINUOUS
  5
223
 10
242.704503
 20
300.987452
 30
0.0
 11
240.0
 21
321.530189
 31
0.0
  0
LINE
  8
LC-008-003-----0
  6
CONTINUOUS
  5
224
 10
240.0
 20
321.530189
 30
0.0
 11
237.295497
 21
300.987452
 31
0.0
  0
LINE
  8
LC-008-003-----0
  6
CONTINUOUS
  5
225
 10
241.754272
 20
300.92517
 30
0.0
 11
240.0
 21
314.250189
 31
0.0
  0
LINE
  8
LC-008-003-----0
  6
CONTINUOUS
  5
226
 10
240.0
 20
314.250189
 30
0.0
 11
238.245728
 21
300.92517
 31
0.0
  0
LINE
  8
LC-008-003-----0
  6
CONTINUOUS
  5
227
 10
240.804041
 20
300.862889
 30
0.0
 11
240.0
 21
306.970189
 31
0.0
  0
LINE
  8
LC-008-003-----0
  6
CONTINUOUS
  5
228
 10
240.0
 20
306.970189
 30
0.0
 11
239.195959
 21
300.862889
 31
0.0
  0
LINE
  8
LC-008-003-----0
  6
CONTINUOUS
  5
229
 10
236.345267
 20
406.070648
 30
0.0
 11
240.0
 21
378.310192
 31
0.0
  0
LINE
  8
LC-008-003-----0
  6
CONTINUOUS
  5
22A
 10
240.0
 20
378.310192
 30
0.0
 11
243.654733
 21
406.070648
 31
0.0
  0
LINE
  8
LC-008-003-----0
  6
CONTINUOUS
  5
22B
 10
243.654733
 20
406.070648
 30
0.0
 11
236.345267
 21
406.070648
 31
0.0
  0
LINE
  8
LC-008-003-----0
  6
CONTINUOUS
  5
22C
 10
237.295497
 20
406.132929
 30
0.0
 11
240.0
 21
385.590192
 31
0.0
  0
LINE
  8
LC-008-003-----0
  6
CONTINUOUS
  5
22D
 10
240.0
 20
385.590192
 30
0.0
 11
242.704503
 21
406.132929
 31
0.0
  0
LINE
  8
LC-008-003-----0
  6
CONTINUOUS
  5
22E
 10
238.245728
 20
406.195211
 30
0.0
 11
240.0
 21
392.870192
 31
0.0
  0
LINE
  8
LC-008-003-----0
  6
CONTINUOUS
  5
22F
 10
240.0
 20
392.870192
 30
0.0
 11
241.754272
 21
406.195211
 31
0.0
  0
LINE
  8
LC-008-003-----0
  6
CONTINUOUS
  5
230
 10
239.195959
 20
406.257492
 30
0.0
 11
240.0
 21
400.150192
 31
0.0
  0
LINE
  8
LC-008-003-----0
  6
CONTINUOUS
  5
231
 10
240.0
 20
400.150192
 30
0.0
 11
240.804041
 21
406.257492
 31
0.0
  0
LINE
  8
LC-010-003-MTG-0
  6
CONTINUOUS
  5
232
 10
240.0
 20
289.610189
 30
0.0
 11
240.0
 21
417.510192
 31
0.0
  0
TEXT
  8
LC-008-003-----0
  6
CONTINUOUS
 62
     8
  5
233
 10
232.172446
 20
341.505201
 30
0.0
 40
28.0
  1
50
 50
90.0
 51
15.0
  7
LC-TXTSTYLE-150-400-0-0-D0
 72
     1
 11
232.172446
 21
357.90835
 31
0.0
  0
ENDBLK
  8
0
  5
234
  0
BLOCK
  8
0
  5
236
  2
*D10
 70
    65
 10
0.0
 20
0.0
 30
0.0
  3
*D10
  0
LINE
  8
LC-009-003-MTH-0
  6
CONTINUOUS
  5
237
 10
257.976094
 20
407.856919
 30
0.0
 11
257.976094
 21
448.0
 31
0.0
  0
LINE
  8
LC-009-003-MTH-0
  6
CONTINUOUS
  5
238
 10
446.978171
 20
407.856919
 30
0.0
 11
446.978171
 21
448.0
 31
0.0
  0
LINE
  8
LC-010-003-MTG-0
  6
CONTINUOUS
  5
239
 10
257.976094
 20
431.2
 30
0.0
 11
446.978171
 21
431.2
 31
0.0
  0
LINE
  8
LC-008-003-----0
  6
CONTINUOUS
  5
23A
 10
285.73655
 20
434.854733
 30
0.0
 11
257.976094
 21
431.2
 31
0.0
  0
LINE
  8
LC-008-003-----0
  6
CONTINUOUS
  5
23B
 10
257.976094
 20
431.2
 30
0.0
 11
285.73655
 21
427.545267
 31
0.0
  0
LINE
  8
LC-008-003-----0
  6
CONTINUOUS
  5
23C
 10
285.73655
 20
427.545267
 30
0.0
 11
285.73655
 21
434.854733
 31
0.0
  0
LINE
  8
LC-008-003-----0
  6
CONTINUOUS
  5
23D
 10
285.798831
 20
433.904503
 30
0.0
 11
265.256094
 21
431.2
 31
0.0
  0
LINE
  8
LC-008-003-----0
  6
CONTINUOUS
  5
23E
 10
265.256094
 20
431.2
 30
0.0
 11
285.798831
 21
428.495497
 31
0.0
  0
LINE
  8
LC-008-003-----0
  6
CONTINUOUS
  5
23F
 10
285.861113
 20
432.954272
 30
0.0
 11
272.536094
 21
431.2
 31
0.0
  0
LINE
  8
LC-008-003-----0
  6
CONTINUOUS
  5
240
 10
272.536094
 20
431.2
 30
0.0
 11
285.861113
 21
429.445728
 31
0.0
  0
LINE
  8
LC-008-003-----0
  6
CONTINUOUS
  5
241
 10
285.923394
 20
432.004041
 30
0.0
 11
279.816094
 21
431.2
 31
0.0
  0
LINE
  8
LC-008-003-----0
  6
CONTINUOUS
  5
242
 10
279.816094
 20
431.2
 30
0.0
 11
285.923394
 21
430.395959
 31
0.0
  0
LINE
  8
LC-008-003-----0
  6
CONTINUOUS
  5
243
 10
419.217715
 20
427.545267
 30
0.0
 11
446.978171
 21
431.2
 31
0.0
  0
LINE
  8
LC-008-003-----0
  6
CONTINUOUS
  5
244
 10
446.978171
 20
431.2
 30
0.0
 11
419.217715
 21
434.854733
 31
0.0
  0
LINE
  8
LC-008-003-----0
  6
CONTINUOUS
  5
245
 10
419.217715
 20
434.854733
 30
0.0
 11
419.217715
 21
427.545267
 31
0.0
  0
LINE
  8
LC-008-003-----0
  6
CONTINUOUS
  5
246
 10
419.155433
 20
428.495497
 30
0.0
 11
439.698171
 21
431.2
 31
0.0
  0
LINE
  8
LC-008-003-----0
  6
CONTINUOUS
  5
247
 10
439.698171
 20
431.2
 30
0.0
 11
419.155433
 21
433.904503
 31
0.0
  0
LINE
  8
LC-008-003-----0
  6
CONTINUOUS
  5
248
 10
419.093152
 20
429.445728
 30
0.0
 11
432.418171
 21
431.2
 31
0.0
  0
LINE
  8
LC-008-003-----0
  6
CONTINUOUS
  5
249
 10
432.418171
 20
431.2
 30
0.0
 11
419.093152
 21
432.954272
 31
0.0
  0
LINE
  8
LC-008-003-----0
  6
CONTINUOUS
  5
24A
 10
419.03087
 20
430.395959
 30
0.0
 11
425.138171
 21
431.2
 31
0.0
  0
LINE
  8
LC-008-003-----0
  6
CONTINUOUS
  5
24B
 10
425.138171
 20
431.2
 30
0.0
 11
419.03087
 21
432.004041
 31
0.0
  0
TEXT
  8
LC-008-003-----0
  6
CONTINUOUS
 62
     8
  5
24C
 10
318.727654
 20
439.027554
 30
0.0
 40
28.0
  1
Ø190
 51
15.0
  7
LC-TXTSTYLE-150-400-0-0-D0
 72
     1
 11
356.825292
 21
439.027554
 31
0.0
  0
ENDBLK
  8
0
  5
24D
  0
BLOCK
  8
0
  5
24F
  2
*D11
 70
    65
 10
0.0
 20
0.0
 30
0.0
  3
*D11
  0
LINE
  8
LC-009-003-MTH-0
  6
CONTINUOUS
  5
250
 10
272.547938
 20
319.274294
 30
0.0
 11
272.547938
 21
140.0
 31
0.0
  0
LINE
  8
LC-009-003-MTH-0
  6
CONTINUOUS
  5
251
 10
432.414011
 20
210.276
 30
0.0
 11
432.414011
 21
140.0
 31
0.0
  0
LINE
  8
LC-010-003-MTG-0
  6
CONTINUOUS
  5
252
 10
272.547938
 20
156.8
 30
0.0
 11
432.414011
 21
156.8
 31
0.0
  0
LINE
  8
LC-008-003-----0
  6
CONTINUOUS
  5
253
 10
300.308394
 20
160.454733
 30
0.0
 11
272.547938
 21
156.8
 31
0.0
  0
LINE
  8
LC-008-003-----0
  6
CONTINUOUS
  5
254
 10
272.547938
 20
156.8
 30
0.0
 11
300.308394
 21
153.145267
 31
0.0
  0
LINE
  8
LC-008-003-----0
  6
CONTINUOUS
  5
255
 10
300.308394
 20
153.145267
 30
0.0
 11
300.308394
 21
160.454733
 31
0.0
  0
LINE
  8
LC-008-003-----0
  6
CONTINUOUS
  5
256
 10
300.370675
 20
159.504503
 30
0.0
 11
279.827938
 21
156.8
 31
0.0
  0
LINE
  8
LC-008-003-----0
  6
CONTINUOUS
  5
257
 10
279.827938
 20
156.8
 30
0.0
 11
300.370675
 21
154.095497
 31
0.0
  0
LINE
  8
LC-008-003-----0
  6
CONTINUOUS
  5
258
 10
300.432957
 20
158.554272
 30
0.0
 11
287.107938
 21
156.8
 31
0.0
  0
LINE
  8
LC-008-003-----0
  6
CONTINUOUS
  5
259
 10
287.107938
 20
156.8
 30
0.0
 11
300.432957
 21
155.045728
 31
0.0
  0
LINE
  8
LC-008-003-----0
  6
CONTINUOUS
  5
25A
 10
300.495238
 20
157.604041
 30
0.0
 11
294.387938
 21
156.8
 31
0.0
  0
LINE
  8
LC-008-003-----0
  6
CONTINUOUS
  5
25B
 10
294.387938
 20
156.8
 30
0.0
 11
300.495238
 21
155.995959
 31
0.0
  0
LINE
  8
LC-008-003-----0
  6
CONTINUOUS
  5
25C
 10
404.653555
 20
153.145267
 30
0.0
 11
432.414011
 21
156.8
 31
0.0
  0
LINE
  8
LC-008-003-----0
  6
CONTINUOUS
  5
25D
 10
432.414011
 20
156.8
 30
0.0
 11
404.653555
 21
160.454733
 31
0.0
  0
LINE
  8
LC-008-003-----0
  6
CONTINUOUS
  5
25E
 10
404.653555
 20
160.454733
 30
0.0
 11
404.653555
 21
153.145267
 31
0.0
  0
LINE
  8
LC-008-003-----0
  6
CONTINUOUS
  5
25F
 10
404.591273
 20
154.095497
 30
0.0
 11
425.134011
 21
156.8
 31
0.0
  0
LINE
  8
LC-008-003-----0
  6
CONTINUOUS
  5
260
 10
425.134011
 20
156.8
 30
0.0
 11
404.591273
 21
159.504503
 31
0.0
  0
LINE
  8
LC-008-003-----0
  6
CONTINUOUS
  5
261
 10
404.528992
 20
155.045728
 30
0.0
 11
417.854011
 21
156.8
 31
0.0
  0
LINE
  8
LC-008-003-----0
  6
CONTINUOUS
  5
262
 10
417.854011
 20
156.8
 30
0.0
 11
404.528992
 21
158.554272
 31
0.0
  0
LINE
  8
LC-008-003-----0
  6
CONTINUOUS
  5
263
 10
404.46671
 20
155.995959
 30
0.0
 11
410.574011
 21
156.8
 31
0.0
  0
LINE
  8
LC-008-003-----0
  6
CONTINUOUS
  5
264
 10
410.574011
 20
156.8
 30
0.0
 11
404.46671
 21
157.604041
 31
0.0
  0
TEXT
  8
LC-008-003-----0
  6
CONTINUOUS
 62
     8
  5
265
 10
322.486895
 20
164.627554
 30
0.0
 40
28.0
  1
Ø160
 51
15.0
  7
LC-TXTSTYLE-150-400-0-0-D0
 72
     2
 11
398.682171
 21
164.627554
 31
0.0
  0
ENDBLK
  8
0
  5
266
  0
BLOCK
  8
0
  5
268
  2
*X12
 70
    65
 10
243.130688
 20
388.966237
 30
0.0
  3
*X12
  0
LINE
  8
LC-006-005-----0
  6
CONTINUOUS
  5
269
 10
278.657579
 20
388.966237
 30
0.0
 11
279.357579
 21
389.666237
 31
0.0
  0
LINE
  8
LC-006-005-----0
  6
CONTINUOUS
  5
26A
 10
276.012167
 20
389.149252
 30
0.0
 11
276.549763
 21
389.686848
 31
0.0
  0
LINE
  8
LC-006-005-----0
  6
CONTINUOUS
  5
26B
 10
277.030186
 20
392.995699
 30
0.0
 11
277.730186
 21
393.695699
 31
0.0
  0
LINE
  8
LC-006-005-----0
  6
CONTINUOUS
  5
26C
 10
276.125014
 20
394.918953
 30
0.0
 11
276.77181
 21
395.56575
 31
0.0
  0
LINE
  8
LC-006-005-----0
  6
CONTINUOUS
  5
26D
 10
274.262164
 20
395.88453
 30
0.0
 11
274.757141
 21
396.379508
 31
0.0
  0
LINE
  8
LC-006-005-----0
  6
CONTINUOUS
  5
26E
 10
273.287058
 20
397.737852
 30
0.0
 11
273.930186
 21
398.38098
 31
0.0
  0
LINE
  8
LC-006-005-----0
  6
CONTINUOUS
  5
26F
 10
273.230186
 20
400.509407
 30
0.0
 11
273.930186
 21
401.209407
 31
0.0
  0
LINE
  8
LC-006-005-----0
  6
CONTINUOUS
  5
270
 10
273.230186
 20
403.337834
 30
0.0
 11
273.930186
 21
404.037834
 31
0.0
  0
LINE
  8
LC-006-005-----0
  6
CONTINUOUS
  5
271
 10
273.230186
 20
406.166261
 30
0.0
 11
273.930186
 21
406.866261
 31
0.0
  0
LINE
  8
LC-006-005-----0
  6
CONTINUOUS
  5
272
 10
273.230186
 20
408.994688
 30
0.0
 11
273.930186
 21
409.694688
 31
0.0
  0
LINE
  8
LC-006-005-----0
  6
CONTINUOUS
  5
273
 10
273.230186
 20
411.823116
 30
0.0
 11
273.91479
 21
412.507719
 31
0.0
  0
LINE
  8
LC-006-005-----0
  6
CONTINUOUS
  5
274
 10
272.833398
 20
414.254755
 30
0.0
 11
273.368867
 21
414.790223
 31
0.0
  0
LINE
  8
LC-006-005-----0
  6
CONTINUOUS
  5
275
 10
271.800613
 20
416.050396
 30
0.0
 11
272.292923
 21
416.542706
 31
0.0
  0
LINE
  8
LC-006-005-----0
  6
CONTINUOUS
  5
276
 10
270.299432
 20
417.377642
 30
0.0
 11
270.799126
 21
417.877336
 31
0.0
  0
LINE
  8
LC-006-005-----0
  6
CONTINUOUS
  5
277
 10
268.297481
 20
418.204118
 30
0.0
 11
268.864501
 21
418.771139
 31
0.0
  0
LINE
  8
LC-006-005-----0
  6
CONTINUOUS
  5
278
 10
265.719275
 20
418.454339
 30
0.0
 11
266.365234
 21
419.100299
 31
0.0
  0
LINE
  8
LC-006-005-----0
  6
CONTINUOUS
  5
279
 10
263.075704
 20
418.639196
 30
0.0
 11
263.721663
 21
419.285155
 31
0.0
  0
LINE
  8
LC-006-005-----0
  6
CONTINUOUS
  5
27A
 10
260.432133
 20
418.824052
 30
0.0
 11
261.078093
 21
419.470012
 31
0.0
  0
LINE
  8
LC-006-005-----0
  6
CONTINUOUS
  5
27B
 10
257.788563
 20
419.008909
 30
0.0
 11
258.434522
 21
419.654868
 31
0.0
  0
LINE
  8
LC-006-005-----0
  6
CONTINUOUS
  5
27C
 10
255.144992
 20
419.193765
 30
0.0
 11
255.790951
 21
419.839725
 31
0.0
  0
LINE
  8
LC-006-005-----0
  6
CONTINUOUS
  5
27D
 10
252.501421
 20
419.378622
 30
0.0
 11
253.147381
 21
420.024581
 31
0.0
  0
LINE
  8
LC-006-005-----0
  6
CONTINUOUS
  5
27E
 10
247.528917
 20
420.062971
 30
0.0
 11
248.072964
 21
420.607018
 31
0.0
  0
LINE
  8
LC-006-005-----0
  6
CONTINUOUS
  5
27F
 10
245.744009
 20
421.106491
 30
0.0
 11
246.242218
 21
421.6047
 31
0.0
  0
ENDBLK
  8
0
  5
280
  0
BLOCK
  8
0
  5
282
  2
*X13
 70
    65
 10
102.682974
 20
420.17672
 30
0.0
  3
*X13
  0
LINE
  8
LC-006-005-----0
  6
CONTINUOUS
  5
283
 10
112.443849
 20
420.17672
 30
0.0
 11
112.682974
 21
420.415845
 31
0.0
  0
LINE
  8
LC-006-005-----0
  6
CONTINUOUS
  5
284
 10
111.878164
 20
420.17672
 30
0.0
 11
112.682974
 21
420.98153
 31
0.0
  0
LINE
  8
LC-006-005-----0
  6
CONTINUOUS
  5
285
 10
111.312478
 20
420.17672
 30
0.0
 11
112.682974
 21
421.547216
 31
0.0
  0
LINE
  8
LC-006-005-----0
  6
CONTINUOUS
  5
286
 10
110.746793
 20
420.17672
 30
0.0
 11
112.682974
 21
422.112901
 31
0.0
  0
LINE
  8
LC-006-005-----0
  6
CONTINUOUS
  5
287
 10
110.181107
 20
420.17672
 30
0.0
 11
112.682974
 21
422.678586
 31
0.0
  0
LINE
  8
LC-006-005-----0
  6
CONTINUOUS
  5
288
 10
109.615422
 20
420.17672
 30
0.0
 11
112.682974
 21
423.244272
 31
0.0
  0
LINE
  8
LC-006-005-----0
  6
CONTINUOUS
  5
289
 10
109.049736
 20
420.17672
 30
0.0
 11
112.682974
 21
423.809957
 31
0.0
  0
LINE
  8
LC-006-005-----0
  6
CONTINUOUS
  5
28A
 10
108.484051
 20
420.17672
 30
0.0
 11
112.682974
 21
424.375643
 31
0.0
  0
LINE
  8
LC-006-005-----0
  6
CONTINUOUS
  5
28B
 10
107.918366
 20
420.17672
 30
0.0
 11
112.618366
 21
424.87672
 31
0.0
  0
LINE
  8
LC-006-005-----0
  6
CONTINUOUS
  5
28C
 10
107.35268
 20
420.17672
 30
0.0
 11
112.05268
 21
424.87672
 31
0.0
  0
LINE
  8
LC-006-005-----0
  6
CONTINUOUS
  5
28D
 10
106.786995
 20
420.17672
 30
0.0
 11
111.486995
 21
424.87672
 31
0.0
  0
LINE
  8
LC-006-005-----0
  6
CONTINUOUS
  5
28E
 10
106.221309
 20
420.17672
 30
0.0
 11
110.921309
 21
424.87672
 31
0.0
  0
LINE
  8
LC-006-005-----0
  6
CONTINUOUS
  5
28F
 10
105.655624
 20
420.17672
 30
0.0
 11
110.355624
 21
424.87672
 31
0.0
  0
LINE
  8
LC-006-005-----0
  6
CONTINUOUS
  5
290
 10
105.089939
 20
420.17672
 30
0.0
 11
109.789939
 21
424.87672
 31
0.0
  0
LINE
  8
LC-006-005-----0
  6
CONTINUOUS
  5
291
 10
104.524253
 20
420.17672
 30
0.0
 11
109.224253
 21
424.87672
 31
0.0
  0
LINE
  8
LC-006-005-----0
  6
CONTINUOUS
  5
292
 10
103.958568
 20
420.17672
 30
0.0
 11
108.658568
 21
424.87672
 31
0.0
  0
LINE
  8
LC-006-005-----0
  6
CONTINUOUS
  5
293
 10
103.392882
 20
420.17672
 30
0.0
 11
108.092882
 21
424.87672
 31
0.0
  0
LINE
  8
LC-006-005-----0
  6
CONTINUOUS
  5
294
 10
102.827197
 20
420.17672
 30
0.0
 11
107.527197
 21
424.87672
 31
0.0
  0
LINE
  8
LC-006-005-----0
  6
CONTINUOUS
  5
295
 10
102.682974
 20
420.598182
 30
0.0
 11
106.961511
 21
424.87672
 31
0.0
  0
LINE
  8
LC-006-005-----0
  6
CONTINUOUS
  5
296
 10
102.682974
 20
421.163868
 30
0.0
 11
106.395826
 21
424.87672
 31
0.0
  0
LINE
  8
LC-006-005-----0
  6
CONTINUOUS
  5
297
 10
102.682974
 20
421.729553
 30
0.0
 11
105.830141
 21
424.87672
 31
0.0
  0
LINE
  8
LC-006-005-----0
  6
CONTINUOUS
  5
298
 10
102.682974
 20
422.295239
 30
0.0
 11
105.264455
 21
424.87672
 31
0.0
  0
LINE
  8
LC-006-005-----0
  6
CONTINUOUS
  5
299
 10
102.682974
 20
422.860924
 30
0.0
 11
104.69877
 21
424.87672
 31
0.0
  0
LINE
  8
LC-006-005-----0
  6
CONTINUOUS
  5
29A
 10
102.682974
 20
423.426609
 30
0.0
 11
104.133084
 21
424.87672
 31
0.0
  0
LINE
  8
LC-006-005-----0
  6
CONTINUOUS
  5
29B
 10
102.682974
 20
423.992295
 30
0.0
 11
103.567399
 21
424.87672
 31
0.0
  0
LINE
  8
LC-006-005-----0
  6
CONTINUOUS
  5
29C
 10
102.682974
 20
424.55798
 30
0.0
 11
103.001713
 21
424.87672
 31
0.0
  0
ENDBLK
  8
0
  5
29D
  0
BLOCK
  8
0
  5
29F
  2
*X14
 70
    65
 10
122.682974
 20
420.17672
 30
0.0
  3
*X14
  0
LINE
  8
LC-006-005-----0
  6
CONTINUOUS
  5
2A0
 10
132.242839
 20
420.17672
 30
0.0
 11
132.682974
 21
420.616855
 31
0.0
  0
LINE
  8
LC-006-005-----0
  6
CONTINUOUS
  5
2A1
 10
131.677153
 20
420.17672
 30
0.0
 11
132.682974
 21
421.18254
 31
0.0
  0
LINE
  8
LC-006-005-----0
  6
CONTINUOUS
  5
2A2
 10
131.111468
 20
420.17672
 30
0.0
 11
132.682974
 21
421.748226
 31
0.0
  0
LINE
  8
LC-006-005-----0
  6
CONTINUOUS
  5
2A3
 10
130.545783
 20
420.17672
 30
0.0
 11
132.682974
 21
422.313911
 31
0.0
  0
LINE
  8
LC-006-005-----0
  6
CONTINUOUS
  5
2A4
 10
129.980097
 20
420.17672
 30
0.0
 11
132.682974
 21
422.879597
 31
0.0
  0
LINE
  8
LC-006-005-----0
  6
CONTINUOUS
  5
2A5
 10
129.414412
 20
420.17672
 30
0.0
 11
132.682974
 21
423.445282
 31
0.0
  0
LINE
  8
LC-006-005-----0
  6
CONTINUOUS
  5
2A6
 10
128.848726
 20
420.17672
 30
0.0
 11
132.682974
 21
424.010967
 31
0.0
  0
LINE
  8
LC-006-005-----0
  6
CONTINUOUS
  5
2A7
 10
128.283041
 20
420.17672
 30
0.0
 11
132.682974
 21
424.576653
 31
0.0
  0
LINE
  8
LC-006-005-----0
  6
CONTINUOUS
  5
2A8
 10
127.717356
 20
420.17672
 30
0.0
 11
132.417356
 21
424.87672
 31
0.0
  0
LINE
  8
LC-006-005-----0
  6
CONTINUOUS
  5
2A9
 10
127.15167
 20
420.17672
 30
0.0
 11
131.85167
 21
424.87672
 31
0.0
  0
LINE
  8
LC-006-005-----0
  6
CONTINUOUS
  5
2AA
 10
126.585985
 20
420.17672
 30
0.0
 11
131.285985
 21
424.87672
 31
0.0
  0
LINE
  8
LC-006-005-----0
  6
CONTINUOUS
  5
2AB
 10
126.020299
 20
420.17672
 30
0.0
 11
130.720299
 21
424.87672
 31
0.0
  0
LINE
  8
LC-006-005-----0
  6
CONTINUOUS
  5
2AC
 10
125.454614
 20
420.17672
 30
0.0
 11
130.154614
 21
424.87672
 31
0.0
  0
LINE
  8
LC-006-005-----0
  6
CONTINUOUS
  5
2AD
 10
124.888928
 20
420.17672
 30
0.0
 11
129.588928
 21
424.87672
 31
0.0
  0
LINE
  8
LC-006-005-----0
  6
CONTINUOUS
  5
2AE
 10
124.323243
 20
420.17672
 30
0.0
 11
129.023243
 21
424.87672
 31
0.0
  0
LINE
  8
LC-006-005-----0
  6
CONTINUOUS
  5
2AF
 10
123.757558
 20
420.17672
 30
0.0
 11
128.457558
 21
424.87672
 31
0.0
  0
LINE
  8
LC-006-005-----0
  6
CONTINUOUS
  5
2B0
 10
123.191872
 20
420.17672
 30
0.0
 11
127.891872
 21
424.87672
 31
0.0
  0
LINE
  8
LC-006-005-----0
  6
CONTINUOUS
  5
2B1
 10
122.682974
 20
420.233507
 30
0.0
 11
127.326187
 21
424.87672
 31
0.0
  0
LINE
  8
LC-006-005-----0
  6
CONTINUOUS
  5
2B2
 10
122.682974
 20
420.799192
 30
0.0
 11
126.760501
 21
424.87672
 31
0.0
  0
LINE
  8
LC-006-005-----0
  6
CONTINUOUS
  5
2B3
 10
122.682974
 20
421.364878
 30
0.0
 11
126.194816
 21
424.87672
 31
0.0
  0
LINE
  8
LC-006-005-----0
  6
CONTINUOUS
  5
2B4
 10
122.682974
 20
421.930563
 30
0.0
 11
125.62913
 21
424.87672
 31
0.0
  0
LINE
  8
LC-006-005-----0
  6
CONTINUOUS
  5
2B5
 10
122.682974
 20
422.496249
 30
0.0
 11
125.063445
 21
424.87672
 31
0.0
  0
LINE
  8
LC-006-005-----0
  6
CONTINUOUS
  5
2B6
 10
122.682974
 20
423.061934
 30
0.0
 11
124.49776
 21
424.87672
 31
0.0
  0
LINE
  8
LC-006-005-----0
  6
CONTINUOUS
  5
2B7
 10
122.682974
 20
423.62762
 30
0.0
 11
123.932074
 21
424.87672
 31
0.0
  0
LINE
  8
LC-006-005-----0
  6
CONTINUOUS
  5
2B8
 10
122.682974
 20
424.193305
 30
0.0
 11
123.366389
 21
424.87672
 31
0.0
  0
LINE
  8
LC-006-005-----0
  6
CONTINUOUS
  5
2B9
 10
122.682974
 20
424.75899
 30
0.0
 11
122.800703
 21
424.87672
 31
0.0
  0
ENDBLK
  8
0
  5
2BA
  0
BLOCK
  8
0
  5
2BC
  2
*X15
 70
    65
 10
142.682974
 20
420.17672
 30
0.0
  3
*X15
  0
LINE
  8
LC-006-005-----0
  6
CONTINUOUS
  5
2BD
 10
152.607514
 20
420.17672
 30
0.0
 11
152.682974
 21
420.25218
 31
0.0
  0
LINE
  8
LC-006-005-----0
  6
CONTINUOUS
  5
2BE
 10
152.041829
 20
420.17672
 30
0.0
 11
152.682974
 21
420.817865
 31
0.0
  0
LINE
  8
LC-006-005-----0
  6
CONTINUOUS
  5
2BF
 10
151.476143
 20
420.17672
 30
0.0
 11
152.682974
 21
421.38355
 31
0.0
  0
LINE
  8
LC-006-005-----0
  6
CONTINUOUS
  5
2C0
 10
150.910458
 20
420.17672
 30
0.0
 11
152.682974
 21
421.949236
 31
0.0
  0
LINE
  8
LC-006-005-----0
  6
CONTINUOUS
  5
2C1
 10
150.344773
 20
420.17672
 30
0.0
 11
152.682974
 21
422.514921
 31
0.0
  0
LINE
  8
LC-006-005-----0
  6
CONTINUOUS
  5
2C2
 10
149.779087
 20
420.17672
 30
0.0
 11
152.682974
 21
423.080607
 31
0.0
  0
LINE
  8
LC-006-005-----0
  6
CONTINUOUS
  5
2C3
 10
149.213402
 20
420.17672
 30
0.0
 11
152.682974
 21
423.646292
 31
0.0
  0
LINE
  8
LC-006-005-----0
  6
CONTINUOUS
  5
2C4
 10
148.647716
 20
420.17672
 30
0.0
 11
152.682974
 21
424.211977
 31
0.0
  0
LINE
  8
LC-006-005-----0
  6
CONTINUOUS
  5
2C5
 10
148.082031
 20
420.17672
 30
0.0
 11
152.682974
 21
424.777663
 31
0.0
  0
LINE
  8
LC-006-005-----0
  6
CONTINUOUS
  5
2C6
 10
147.516345
 20
420.17672
 30
0.0
 11
152.216345
 21
424.87672
 31
0.0
  0
LINE
  8
LC-006-005-----0
  6
CONTINUOUS
  5
2C7
 10
146.95066
 20
420.17672
 30
0.0
 11
151.65066
 21
424.87672
 31
0.0
  0
LINE
  8
LC-006-005-----0
  6
CONTINUOUS
  5
2C8
 10
146.384975
 20
420.17672
 30
0.0
 11
151.084975
 21
424.87672
 31
0.0
  0
LINE
  8
LC-006-005-----0
  6
CONTINUOUS
  5
2C9
 10
145.819289
 20
420.17672
 30
0.0
 11
150.519289
 21
424.87672
 31
0.0
  0
LINE
  8
LC-006-005-----0
  6
CONTINUOUS
  5
2CA
 10
145.253604
 20
420.17672
 30
0.0
 11
149.953604
 21
424.87672
 31
0.0
  0
LINE
  8
LC-006-005-----0
  6
CONTINUOUS
  5
2CB
 10
144.687918
 20
420.17672
 30
0.0
 11
149.387918
 21
424.87672
 31
0.0
  0
LINE
  8
LC-006-005-----0
  6
CONTINUOUS
  5
2CC
 10
144.122233
 20
420.17672
 30
0.0
 11
148.822233
 21
424.87672
 31
0.0
  0
LINE
  8
LC-006-005-----0
  6
CONTINUOUS
  5
2CD
 10
143.556547
 20
420.17672
 30
0.0
 11
148.256547
 21
424.87672
 31
0.0
  0
LINE
  8
LC-006-005-----0
  6
CONTINUOUS
  5
2CE
 10
142.990862
 20
420.17672
 30
0.0
 11
147.690862
 21
424.87672
 31
0.0
  0
LINE
  8
LC-006-005-----0
  6
CONTINUOUS
  5
2CF
 10
142.682974
 20
420.434517
 30
0.0
 11
147.125177
 21
424.87672
 31
0.0
  0
LINE
  8
LC-006-005-----0
  6
CONTINUOUS
  5
2D0
 10
142.682974
 20
421.000203
 30
0.0
 11
146.559491
 21
424.87672
 31
0.0
  0
LINE
  8
LC-006-005-----0
  6
CONTINUOUS
  5
2D1
 10
142.682974
 20
421.565888
 30
0.0
 11
145.993806
 21
424.87672
 31
0.0
  0
LINE
  8
LC-006-005-----0
  6
CONTINUOUS
  5
2D2
 10
142.682974
 20
422.131573
 30
0.0
 11
145.42812
 21
424.87672
 31
0.0
  0
LINE
  8
LC-006-005-----0
  6
CONTINUOUS
  5
2D3
 10
142.682974
 20
422.697259
 30
0.0
 11
144.862435
 21
424.87672
 31
0.0
  0
LINE
  8
LC-006-005-----0
  6
CONTINUOUS
  5
2D4
 10
142.682974
 20
423.262944
 30
0.0
 11
144.296749
 21
424.87672
 31
0.0
  0
LINE
  8
LC-006-005-----0
  6
CONTINUOUS
  5
2D5
 10
142.682974
 20
423.82863
 30
0.0
 11
143.731064
 21
424.87672
 31
0.0
  0
LINE
  8
LC-006-005-----0
  6
CONTINUOUS
  5
2D6
 10
142.682974
 20
424.394315
 30
0.0
 11
143.165379
 21
424.87672
 31
0.0
  0
ENDBLK
  8
0
  5
2D7
  0
BLOCK
  8
0
  5
2D9
  2
*X16
 70
    65
 10
162.682974
 20
420.17672
 30
0.0
  3
*X16
  0
LINE
  8
LC-006-005-----0
  6
CONTINUOUS
  5
2DA
 10
172.406504
 20
420.17672
 30
0.0
 11
172.682974
 21
420.45319
 31
0.0
  0
LINE
  8
LC-006-005-----0
  6
CONTINUOUS
  5
2DB
 10
171.840819
 20
420.17672
 30
0.0
 11
172.682974
 21
421.018875
 31
0.0
  0
LINE
  8
LC-006-005-----0
  6
CONTINUOUS
  5
2DC
 10
171.275133
 20
420.17672
 30
0.0
 11
172.682974
 21
421.58456
 31
0.0
  0
LINE
  8
LC-006-005-----0
  6
CONTINUOUS
  5
2DD
 10
170.709448
 20
420.17672
 30
0.0
 11
172.682974
 21
422.150246
 31
0.0
  0
LINE
  8
LC-006-005-----0
  6
CONTINUOUS
  5
2DE
 10
170.143762
 20
420.17672
 30
0.0
 11
172.682974
 21
422.715931
 31
0.0
  0
LINE
  8
LC-006-005-----0
  6
CONTINUOUS
  5
2DF
 10
169.578077
 20
420.17672
 30
0.0
 11
172.682974
 21
423.281617
 31
0.0
  0
LINE
  8
LC-006-005-----0
  6
CONTINUOUS
  5
2E0
 10
169.012392
 20
420.17672
 30
0.0
 11
172.682974
 21
423.847302
 31
0.0
  0
LINE
  8
LC-006-005-----0
  6
CONTINUOUS
  5
2E1
 10
168.446706
 20
420.17672
 30
0.0
 11
172.682974
 21
424.412988
 31
0.0
  0
LINE
  8
LC-006-005-----0
  6
CONTINUOUS
  5
2E2
 10
167.881021
 20
420.17672
 30
0.0
 11
172.581021
 21
424.87672
 31
0.0
  0
LINE
  8
LC-006-005-----0
  6
CONTINUOUS
  5
2E3
 10
167.315335
 20
420.17672
 30
0.0
 11
172.015335
 21
424.87672
 31
0.0
  0
LINE
  8
LC-006-005-----0
  6
CONTINUOUS
  5
2E4
 10
166.74965
 20
420.17672
 30
0.0
 11
171.44965
 21
424.87672
 31
0.0
  0
LINE
  8
LC-006-005-----0
  6
CONTINUOUS
  5
2E5
 10
166.183964
 20
420.17672
 30
0.0
 11
170.883964
 21
424.87672
 31
0.0
  0
LINE
  8
LC-006-005-----0
  6
CONTINUOUS
  5
2E6
 10
165.618279
 20
420.17672
 30
0.0
 11
170.318279
 21
424.87672
 31
0.0
  0
LINE
  8
LC-006-005-----0
  6
CONTINUOUS
  5
2E7
 10
165.052594
 20
420.17672
 30
0.0
 11
169.752594
 21
424.87672
 31
0.0
  0
LINE
  8
LC-006-005-----0
  6
CONTINUOUS
  5
2E8
 10
164.486908
 20
420.17672
 30
0.0
 11
169.186908
 21
424.87672
 31
0.0
  0
LINE
  8
LC-006-005-----0
  6
CONTINUOUS
  5
2E9
 10
163.921223
 20
420.17672
 30
0.0
 11
168.621223
 21
424.87672
 31
0.0
  0
LINE
  8
LC-006-005-----0
  6
CONTINUOUS
  5
2EA
 10
163.355537
 20
420.17672
 30
0.0
 11
168.055537
 21
424.87672
 31
0.0
  0
LINE
  8
LC-006-005-----0
  6
CONTINUOUS
  5
2EB
 10
162.789852
 20
420.17672
 30
0.0
 11
167.489852
 21
424.87672
 31
0.0
  0
LINE
  8
LC-006-005-----0
  6
CONTINUOUS
  5
2EC
 10
162.682974
 20
420.635527
 30
0.0
 11
166.924166
 21
424.87672
 31
0.0
  0
LINE
  8
LC-006-005-----0
  6
CONTINUOUS
  5
2ED
 10
162.682974
 20
421.201213
 30
0.0
 11
166.358481
 21
424.87672
 31
0.0
  0
LINE
  8
LC-006-005-----0
  6
CONTINUOUS
  5
2EE
 10
162.682974
 20
421.766898
 30
0.0
 11
165.792796
 21
424.87672
 31
0.0
  0
LINE
  8
LC-006-005-----0
  6
CONTINUOUS
  5
2EF
 10
162.682974
 20
422.332584
 30
0.0
 11
165.22711
 21
424.87672
 31
0.0
  0
LINE
  8
LC-006-005-----0
  6
CONTINUOUS
  5
2F0
 10
162.682974
 20
422.898269
 30
0.0
 11
164.661425
 21
424.87672
 31
0.0
  0
LINE
  8
LC-006-005-----0
  6
CONTINUOUS
  5
2F1
 10
162.682974
 20
423.463954
 30
0.0
 11
164.095739
 21
424.87672
 31
0.0
  0
LINE
  8
LC-006-005-----0
  6
CONTINUOUS
  5
2F2
 10
162.682974
 20
424.02964
 30
0.0
 11
163.530054
 21
424.87672
 31
0.0
  0
LINE
  8
LC-006-005-----0
  6
CONTINUOUS
  5
2F3
 10
162.682974
 20
424.595325
 30
0.0
 11
162.964368
 21
424.87672
 31
0.0
  0
ENDBLK
  8
0
  5
2F4
  0
BLOCK
  8
0
  5
2F6
  2
*X17
 70
    65
 10
182.682974
 20
420.17672
 30
0.0
  3
*X17
  0
LINE
  8
LC-006-005-----0
  6
CONTINUOUS
  5
2F7
 10
192.205494
 20
420.17672
 30
0.0
 11
192.682974
 21
420.6542
 31
0.0
  0
LINE
  8
LC-006-005-----0
  6
CONTINUOUS
  5
2F8
 10
191.639809
 20
420.17672
 30
0.0
 11
192.682974
 21
421.219885
 31
0.0
  0
LINE
  8
LC-006-005-----0
  6
CONTINUOUS
  5
2F9
 10
191.074123
 20
420.17672
 30
0.0
 11
192.682974
 21
421.785571
 31
0.0
  0
LINE
  8
LC-006-005-----0
  6
CONTINUOUS
  5
2FA
 10
190.508438
 20
420.17672
 30
0.0
 11
192.682974
 21
422.351256
 31
0.0
  0
LINE
  8
LC-006-005-----0
  6
CONTINUOUS
  5
2FB
 10
189.942752
 20
420.17672
 30
0.0
 11
192.682974
 21
422.916941
 31
0.0
  0
LINE
  8
LC-006-005-----0
  6
CONTINUOUS
  5
2FC
 10
189.377067
 20
420.17672
 30
0.0
 11
192.682974
 21
423.482627
 31
0.0
  0
LINE
  8
LC-006-005-----0
  6
CONTINUOUS
  5
2FD
 10
188.811381
 20
420.17672
 30
0.0
 11
192.682974
 21
424.048312
 31
0.0
  0
LINE
  8
LC-006-005-----0
  6
CONTINUOUS
  5
2FE
 10
188.245696
 20
420.17672
 30
0.0
 11
192.682974
 21
424.613998
 31
0.0
  0
LINE
  8
LC-006-005-----0
  6
CONTINUOUS
  5
2FF
 10
187.680011
 20
420.17672
 30
0.0
 11
192.380011
 21
424.87672
 31
0.0
  0
LINE
  8
LC-006-005-----0
  6
CONTINUOUS
  5
300
 10
187.114325
 20
420.17672
 30
0.0
 11
191.814325
 21
424.87672
 31
0.0
  0
LINE
  8
LC-006-005-----0
  6
CONTINUOUS
  5
301
 10
186.54864
 20
420.17672
 30
0.0
 11
191.24864
 21
424.87672
 31
0.0
  0
LINE
  8
LC-006-005-----0
  6
CONTINUOUS
  5
302
 10
185.982954
 20
420.17672
 30
0.0
 11
190.682954
 21
424.87672
 31
0.0
  0
LINE
  8
LC-006-005-----0
  6
CONTINUOUS
  5
303
 10
185.417269
 20
420.17672
 30
0.0
 11
190.117269
 21
424.87672
 31
0.0
  0
LINE
  8
LC-006-005-----0
  6
CONTINUOUS
  5
304
 10
184.851583
 20
420.17672
 30
0.0
 11
189.551583
 21
424.87672
 31
0.0
  0
LINE
  8
LC-006-005-----0
  6
CONTINUOUS
  5
305
 10
184.285898
 20
420.17672
 30
0.0
 11
188.985898
 21
424.87672
 31
0.0
  0
LINE
  8
LC-006-005-----0
  6
CONTINUOUS
  5
306
 10
183.720213
 20
420.17672
 30
0.0
 11
188.420213
 21
424.87672
 31
0.0
  0
LINE
  8
LC-006-005-----0
  6
CONTINUOUS
  5
307
 10
183.154527
 20
420.17672
 30
0.0
 11
187.854527
 21
424.87672
 31
0.0
  0
LINE
  8
LC-006-005-----0
  6
CONTINUOUS
  5
308
 10
182.682974
 20
420.270852
 30
0.0
 11
187.288842
 21
424.87672
 31
0.0
  0
LINE
  8
LC-006-005-----0
  6
CONTINUOUS
  5
309
 10
182.682974
 20
420.836537
 30
0.0
 11
186.723156
 21
424.87672
 31
0.0
  0
LINE
  8
LC-006-005-----0
  6
CONTINUOUS
  5
30A
 10
182.682974
 20
421.402223
 30
0.0
 11
186.157471
 21
424.87672
 31
0.0
  0
LINE
  8
LC-006-005-----0
  6
CONTINUOUS
  5
30B
 10
182.682974
 20
421.967908
 30
0.0
 11
185.591785
 21
424.87672
 31
0.0
  0
LINE
  8
LC-006-005-----0
  6
CONTINUOUS
  5
30C
 10
182.682974
 20
422.533594
 30
0.0
 11
185.0261
 21
424.87672
 31
0.0
  0
LINE
  8
LC-006-005-----0
  6
CONTINUOUS
  5
30D
 10
182.682974
 20
423.099279
 30
0.0
 11
184.460415
 21
424.87672
 31
0.0
  0
LINE
  8
LC-006-005-----0
  6
CONTINUOUS
  5
30E
 10
182.682974
 20
423.664965
 30
0.0
 11
183.894729
 21
424.87672
 31
0.0
  0
LINE
  8
LC-006-005-----0
  6
CONTINUOUS
  5
30F
 10
182.682974
 20
424.23065
 30
0.0
 11
183.329044
 21
424.87672
 31
0.0
  0
LINE
  8
LC-006-005-----0
  6
CONTINUOUS
  5
310
 10
182.682974
 20
424.796335
 30
0.0
 11
182.763358
 21
424.87672
 31
0.0
  0
ENDBLK
  8
0
  5
311
  0
BLOCK
  8
0
  5
313
  2
*X18
 70
    65
 10
202.682974
 20
419.401208
 30
0.0
  3
*X18
  0
LINE
  8
LC-006-005-----0
  6
CONTINUOUS
  5
314
 10
212.381119
 20
419.421984
 30
0.0
 11
212.682974
 21
419.723839
 31
0.0
  0
LINE
  8
LC-006-005-----0
  6
CONTINUOUS
  5
315
 10
211.852102
 20
419.458653
 30
0.0
 11
212.682974
 21
420.289524
 31
0.0
  0
LINE
  8
LC-006-005-----0
  6
CONTINUOUS
  5
316
 10
211.323085
 20
419.495322
 30
0.0
 11
212.682974
 21
420.85521
 31
0.0
  0
LINE
  8
LC-006-005-----0
  6
CONTINUOUS
  5
317
 10
210.794069
 20
419.53199
 30
0.0
 11
212.682974
 21
421.420895
 31
0.0
  0
LINE
  8
LC-006-005-----0
  6
CONTINUOUS
  5
318
 10
210.265052
 20
419.568659
 30
0.0
 11
212.682974
 21
421.986581
 31
0.0
  0
LINE
  8
LC-006-005-----0
  6
CONTINUOUS
  5
319
 10
209.736035
 20
419.605328
 30
0.0
 11
212.682974
 21
422.552266
 31
0.0
  0
LINE
  8
LC-006-005-----0
  6
CONTINUOUS
  5
31A
 10
209.207018
 20
419.641996
 30
0.0
 11
212.682974
 21
423.117952
 31
0.0
  0
LINE
  8
LC-006-005-----0
  6
CONTINUOUS
  5
31B
 10
208.678001
 20
419.678665
 30
0.0
 11
212.682974
 21
423.683637
 31
0.0
  0
LINE
  8
LC-006-005-----0
  6
CONTINUOUS
  5
31C
 10
208.148985
 20
419.715334
 30
0.0
 11
212.554869
 21
424.121218
 31
0.0
  0
LINE
  8
LC-006-005-----0
  6
CONTINUOUS
  5
31D
 10
207.619968
 20
419.752002
 30
0.0
 11
212.025852
 21
424.157887
 31
0.0
  0
LINE
  8
LC-006-005-----0
  6
CONTINUOUS
  5
31E
 10
207.090951
 20
419.788671
 30
0.0
 11
211.496836
 21
424.194555
 31
0.0
  0
LINE
  8
LC-006-005-----0
  6
CONTINUOUS
  5
31F
 10
206.561934
 20
419.825339
 30
0.0
 11
210.967819
 21
424.231224
 31
0.0
  0
LINE
  8
LC-006-005-----0
  6
CONTINUOUS
  5
320
 10
206.032917
 20
419.862008
 30
0.0
 11
210.438802
 21
424.267893
 31
0.0
  0
LINE
  8
LC-006-005-----0
  6
CONTINUOUS
  5
321
 10
205.503901
 20
419.898677
 30
0.0
 11
209.909785
 21
424.304561
 31
0.0
  0
LINE
  8
LC-006-005-----0
  6
CONTINUOUS
  5
322
 10
204.974884
 20
419.935345
 30
0.0
 11
209.380768
 21
424.34123
 31
0.0
  0
LINE
  8
LC-006-005-----0
  6
CONTINUOUS
  5
323
 10
204.445867
 20
419.972014
 30
0.0
 11
208.851752
 21
424.377899
 31
0.0
  0
LINE
  8
LC-006-005-----0
  6
CONTINUOUS
  5
324
 10
203.91685
 20
420.008683
 30
0.0
 11
208.322735
 21
424.414567
 31
0.0
  0
LINE
  8
LC-006-005-----0
  6
CONTINUOUS
  5
325
 10
203.387834
 20
420.045351
 30
0.0
 11
207.793718
 21
424.451236
 31
0.0
  0
LINE
  8
LC-006-005-----0
  6
CONTINUOUS
  5
326
 10
202.858817
 20
420.08202
 30
0.0
 11
207.264701
 21
424.487905
 31
0.0
  0
LINE
  8
LC-006-005-----0
  6
CONTINUOUS
  5
327
 10
202.682974
 20
420.471862
 30
0.0
 11
206.735685
 21
424.524573
 31
0.0
  0
LINE
  8
LC-006-005-----0
  6
CONTINUOUS
  5
328
 10
202.682974
 20
421.037548
 30
0.0
 11
206.206668
 21
424.561242
 31
0.0
  0
LINE
  8
LC-006-005-----0
  6
CONTINUOUS
  5
329
 10
202.682974
 20
421.603233
 30
0.0
 11
205.677651
 21
424.59791
 31
0.0
  0
LINE
  8
LC-006-005-----0
  6
CONTINUOUS
  5
32A
 10
202.682974
 20
422.168918
 30
0.0
 11
205.148634
 21
424.634579
 31
0.0
  0
LINE
  8
LC-006-005-----0
  6
CONTINUOUS
  5
32B
 10
202.682974
 20
422.734604
 30
0.0
 11
204.619617
 21
424.671248
 31
0.0
  0
LINE
  8
LC-006-005-----0
  6
CONTINUOUS
  5
32C
 10
202.682974
 20
423.300289
 30
0.0
 11
204.090601
 21
424.707916
 31
0.0
  0
LINE
  8
LC-006-005-----0
  6
CONTINUOUS
  5
32D
 10
202.682974
 20
423.865975
 30
0.0
 11
203.561584
 21
424.744585
 31
0.0
  0
LINE
  8
LC-006-005-----0
  6
CONTINUOUS
  5
32E
 10
202.682974
 20
424.43166
 30
0.0
 11
203.032567
 21
424.781254
 31
0.0
  0
ENDBLK
  8
0
  5
32F
  0
BLOCK
  8
0
  5
331
  2
*X19
 70
    65
 10
222.682974
 20
418.014914
 30
0.0
  3
*X19
  0
LINE
  8
LC-006-005-----0
  6
CONTINUOUS
  5
332
 10
232.483757
 20
418.028576
 30
0.0
 11
232.682974
 21
418.227793
 31
0.0
  0
LINE
  8
LC-006-005-----0
  6
CONTINUOUS
  5
333
 10
231.95474
 20
418.065245
 30
0.0
 11
232.682974
 21
418.793478
 31
0.0
  0
LINE
  8
LC-006-005-----0
  6
CONTINUOUS
  5
334
 10
231.425723
 20
418.101913
 30
0.0
 11
232.682974
 21
419.359164
 31
0.0
  0
LINE
  8
LC-006-005-----0
  6
CONTINUOUS
  5
335
 10
230.896706
 20
418.138582
 30
0.0
 11
232.682974
 21
419.924849
 31
0.0
  0
LINE
  8
LC-006-005-----0
  6
CONTINUOUS
  5
336
 10
230.367689
 20
418.175251
 30
0.0
 11
232.682974
 21
420.490535
 31
0.0
  0
LINE
  8
LC-006-005-----0
  6
CONTINUOUS
  5
337
 10
229.838673
 20
418.211919
 30
0.0
 11
232.682974
 21
421.05622
 31
0.0
  0
LINE
  8
LC-006-005-----0
  6
CONTINUOUS
  5
338
 10
229.309656
 20
418.248588
 30
0.0
 11
232.682974
 21
421.621905
 31
0.0
  0
LINE
  8
LC-006-005-----0
  6
CONTINUOUS
  5
339
 10
228.780639
 20
418.285256
 30
0.0
 11
232.682974
 21
422.187591
 31
0.0
  0
LINE
  8
LC-006-005-----0
  6
CONTINUOUS
  5
33A
 10
228.251622
 20
418.321925
 30
0.0
 11
232.657507
 21
422.72781
 31
0.0
  0
LINE
  8
LC-006-005-----0
  6
CONTINUOUS
  5
33B
 10
227.722606
 20
418.358594
 30
0.0
 11
232.12849
 21
422.764478
 31
0.0
  0
LINE
  8
LC-006-005-----0
  6
CONTINUOUS
  5
33C
 10
227.193589
 20
418.395262
 30
0.0
 11
231.599473
 21
422.801147
 31
0.0
  0
LINE
  8
LC-006-005-----0
  6
CONTINUOUS
  5
33D
 10
226.664572
 20
418.431931
 30
0.0
 11
231.070457
 21
422.837816
 31
0.0
  0
LINE
  8
LC-006-005-----0
  6
CONTINUOUS
  5
33E
 10
226.135555
 20
418.4686
 30
0.0
 11
230.54144
 21
422.874484
 31
0.0
  0
LINE
  8
LC-006-005-----0
  6
CONTINUOUS
  5
33F
 10
225.606538
 20
418.505268
 30
0.0
 11
230.012423
 21
422.911153
 31
0.0
  0
LINE
  8
LC-006-005-----0
  6
CONTINUOUS
  5
340
 10
225.077522
 20
418.541937
 30
0.0
 11
229.483406
 21
422.947822
 31
0.0
  0
LINE
  8
LC-006-005-----0
  6
CONTINUOUS
  5
341
 10
224.548505
 20
418.578606
 30
0.0
 11
228.954389
 21
422.98449
 31
0.0
  0
LINE
  8
LC-006-005-----0
  6
CONTINUOUS
  5
342
 10
224.019488
 20
418.615274
 30
0.0
 11
228.425373
 21
423.021159
 31
0.0
  0
LINE
  8
LC-006-005-----0
  6
CONTINUOUS
  5
343
 10
223.490471
 20
418.651943
 30
0.0
 11
227.896356
 21
423.057827
 31
0.0
  0
LINE
  8
LC-006-005-----0
  6
CONTINUOUS
  5
344
 10
222.961455
 20
418.688612
 30
0.0
 11
227.367339
 21
423.094496
 31
0.0
  0
LINE
  8
LC-006-005-----0
  6
CONTINUOUS
  5
345
 10
222.682974
 20
418.975816
 30
0.0
 11
226.838322
 21
423.131165
 31
0.0
  0
LINE
  8
LC-006-005-----0
  6
CONTINUOUS
  5
346
 10
222.682974
 20
419.541501
 30
0.0
 11
226.309305
 21
423.167833
 31
0.0
  0
LINE
  8
LC-006-005-----0
  6
CONTINUOUS
  5
347
 10
222.682974
 20
420.107187
 30
0.0
 11
225.780289
 21
423.204502
 31
0.0
  0
LINE
  8
LC-006-005-----0
  6
CONTINUOUS
  5
348
 10
222.682974
 20
420.672872
 30
0.0
 11
225.251272
 21
423.241171
 31
0.0
  0
LINE
  8
LC-006-005-----0
  6
CONTINUOUS
  5
349
 10
222.682974
 20
421.238558
 30
0.0
 11
224.722255
 21
423.277839
 31
0.0
  0
LINE
  8
LC-006-005-----0
  6
CONTINUOUS
  5
34A
 10
222.682974
 20
421.804243
 30
0.0
 11
224.193238
 21
423.314508
 31
0.0
  0
LINE
  8
LC-006-005-----0
  6
CONTINUOUS
  5
34B
 10
222.682974
 20
422.369929
 30
0.0
 11
223.664222
 21
423.351177
 31
0.0
  0
LINE
  8
LC-006-005-----0
  6
CONTINUOUS
  5
34C
 10
222.682974
 20
422.935614
 30
0.0
 11
223.135205
 21
423.387845
 31
0.0
  0
ENDBLK
  8
0
  5
34D
  0
BLOCK
  8
0
  5
34F
  2
*X20
 70
    65
 10
228.870752
 20
414.557265
 30
0.0
  3
*X20
  0
LINE
  8
LC-006-005-----0
  6
CONTINUOUS
  5
350
 10
252.283721
 20
414.635438
 30
0.0
 11
252.682974
 21
415.03469
 31
0.0
  0
LINE
  8
LC-006-005-----0
  6
CONTINUOUS
  5
351
 10
251.756359
 20
414.673761
 30
0.0
 11
252.682974
 21
415.600376
 31
0.0
  0
LINE
  8
LC-006-005-----0
  6
CONTINUOUS
  5
352
 10
251.228997
 20
414.712085
 30
0.0
 11
252.682974
 21
416.166061
 31
0.0
  0
LINE
  8
LC-006-005-----0
  6
CONTINUOUS
  5
353
 10
250.701634
 20
414.750408
 30
0.0
 11
252.682974
 21
416.731747
 31
0.0
  0
LINE
  8
LC-006-005-----0
  6
CONTINUOUS
  5
354
 10
250.174272
 20
414.788731
 30
0.0
 11
252.682974
 21
417.297432
 31
0.0
  0
LINE
  8
LC-006-005-----0
  6
CONTINUOUS
  5
355
 10
249.64691
 20
414.827054
 30
0.0
 11
252.682974
 21
417.863118
 31
0.0
  0
LINE
  8
LC-006-005-----0
  6
CONTINUOUS
  5
356
 10
249.119547
 20
414.865377
 30
0.0
 11
252.682974
 21
418.428803
 31
0.0
  0
LINE
  8
LC-006-005-----0
  6
CONTINUOUS
  5
357
 10
248.592185
 20
414.9037
 30
0.0
 11
252.682974
 21
418.994488
 31
0.0
  0
LINE
  8
LC-006-005-----0
  6
CONTINUOUS
  5
358
 10
248.064823
 20
414.942023
 30
0.0
 11
252.456248
 21
419.333449
 31
0.0
  0
LINE
  8
LC-006-005-----0
  6
CONTINUOUS
  5
359
 10
247.581908
 20
415.024793
 30
0.0
 11
251.928886
 21
419.371772
 31
0.0
  0
LINE
  8
LC-006-005-----0
  6
CONTINUOUS
  5
35A
 10
247.115851
 20
415.124422
 30
0.0
 11
251.401524
 21
419.410095
 31
0.0
  0
LINE
  8
LC-006-005-----0
  6
CONTINUOUS
  5
35B
 10
246.657829
 20
415.232085
 30
0.0
 11
250.874161
 21
419.448418
 31
0.0
  0
LINE
  8
LC-006-005-----0
  6
CONTINUOUS
  5
35C
 10
246.207546
 20
415.347488
 30
0.0
 11
250.346799
 21
419.486741
 31
0.0
  0
LINE
  8
LC-006-005-----0
  6
CONTINUOUS
  5
35D
 10
245.764734
 20
415.470361
 30
0.0
 11
249.819437
 21
419.525064
 31
0.0
  0
LINE
  8
LC-006-005-----0
  6
CONTINUOUS
  5
35E
 10
245.329147
 20
415.600459
 30
0.0
 11
249.292074
 21
419.563387
 31
0.0
  0
LINE
  8
LC-006-005-----0
  6
CONTINUOUS
  5
35F
 10
244.90056
 20
415.737559
 30
0.0
 11
248.764712
 21
419.60171
 31
0.0
  0
LINE
  8
LC-006-005-----0
  6
CONTINUOUS
  5
360
 10
244.478769
 20
415.881453
 30
0.0
 11
248.279539
 21
419.682223
 31
0.0
  0
LINE
  8
LC-006-005-----0
  6
CONTINUOUS
  5
361
 10
244.063585
 20
416.031954
 30
0.0
 11
247.819641
 21
419.78801
 31
0.0
  0
LINE
  8
LC-006-005-----0
  6
CONTINUOUS
  5
362
 10
243.654834
 20
416.188889
 30
0.0
 11
247.369473
 21
419.903527
 31
0.0
  0
LINE
  8
LC-006-005-----0
  6
CONTINUOUS
  5
363
 10
243.252358
 20
416.352098
 30
0.0
 11
246.928613
 21
420.028353
 31
0.0
  0
LINE
  8
LC-006-005-----0
  6
CONTINUOUS
  5
364
 10
242.85601
 20
416.521436
 30
0.0
 11
246.496687
 21
420.162112
 31
0.0
  0
LINE
  8
LC-006-005-----0
  6
CONTINUOUS
  5
365
 10
242.682974
 20
416.914084
 30
0.0
 11
246.073358
 21
420.304469
 31
0.0
  0
LINE
  8
LC-006-005-----0
  6
CONTINUOUS
  5
366
 10
242.682974
 20
417.47977
 30
0.0
 11
245.658324
 21
420.45512
 31
0.0
  0
LINE
  8
LC-006-005-----0
  6
CONTINUOUS
  5
367
 10
242.682974
 20
418.045455
 30
0.0
 11
245.251315
 21
420.613797
 31
0.0
  0
LINE
  8
LC-006-005-----0
  6
CONTINUOUS
  5
368
 10
242.682974
 20
418.611141
 30
0.0
 11
244.852087
 21
420.780254
 31
0.0
  0
LINE
  8
LC-006-005-----0
  6
CONTINUOUS
  5
369
 10
242.682974
 20
419.176826
 30
0.0
 11
244.460419
 21
420.954272
 31
0.0
  0
LINE
  8
LC-006-005-----0
  6
CONTINUOUS
  5
36A
 10
242.682974
 20
419.742512
 30
0.0
 11
244.076115
 21
421.135653
 31
0.0
  0
LINE
  8
LC-006-005-----0
  6
CONTINUOUS
  5
36B
 10
242.682974
 20
420.308197
 30
0.0
 11
243.698996
 21
421.324219
 31
0.0
  0
LINE
  8
LC-006-005-----0
  6
CONTINUOUS
  5
36C
 10
242.682974
 20
420.873882
 30
0.0
 11
243.328901
 21
421.51981
 31
0.0
  0
LINE
  8
LC-006-005-----0
  6
CONTINUOUS
  5
36D
 10
242.682974
 20
421.439568
 30
0.0
 11
242.965685
 21
421.72228
 31
0.0
  0
ENDBLK
  8
0
  5
36E
  0
BLOCK
  8
0
  5
370
  2
*X21
 70
    65
 10
420.992581
 20
395.566904
 30
0.0
  3
*X21
  0
LINE
  8
LC-006-005-----0
  6
CONTINUOUS
  5
371
 10
426.679602
 20
395.566904
 30
0.0
 11
430.992581
 21
399.879882
 31
0.0
  0
LINE
  8
LC-006-005-----0
  6
CONTINUOUS
  5
372
 10
423.851175
 20
395.566904
 30
0.0
 11
426.351175
 21
398.066904
 31
0.0
  0
LINE
  8
LC-006-005-----0
  6
CONTINUOUS
  5
373
 10
428.492581
 20
400.20831
 30
0.0
 11
430.992581
 21
402.70831
 31
0.0
  0
LINE
  8
LC-006-005-----0
  6
CONTINUOUS
  5
374
 10
421.022748
 20
395.566904
 30
0.0
 11
423.522748
 21
398.066904
 31
0.0
  0
LINE
  8
LC-006-005-----0
  6
CONTINUOUS
  5
375
 10
428.492581
 20
403.036737
 30
0.0
 11
430.992581
 21
405.536737
 31
0.0
  0
LINE
  8
LC-006-005-----0
  6
CONTINUOUS
  5
376
 10
428.492581
 20
405.865164
 30
0.0
 11
430.992581
 21
408.365164
 31
0.0
  0
LINE
  8
LC-006-005-----0
  6
CONTINUOUS
  5
377
 10
428.492581
 20
408.693591
 30
0.0
 11
430.992581
 21
411.193591
 31
0.0
  0
LINE
  8
LC-006-005-----0
  6
CONTINUOUS
  5
378
 10
428.492581
 20
411.522018
 30
0.0
 11
430.992581
 21
414.022018
 31
0.0
  0
LINE
  8
LC-006-005-----0
  6
CONTINUOUS
  5
379
 10
428.492581
 20
414.350445
 30
0.0
 11
429.708684
 21
415.566548
 31
0.0
  0
ENDBLK
  8
0
  5
37A
  0
BLOCK
  8
0
  5
37C
  2
*X22
 70
    65
 10
273.992581
 20
395.566904
 30
0.0
  3
*X22
  0
LINE
  8
LC-006-005-----0
  6
CONTINUOUS
  5
37D
 10
282.429819
 20
395.566904
 30
0.0
 11
283.992581
 21
397.129666
 31
0.0
  0
LINE
  8
LC-006-005-----0
  6
CONTINUOUS
  5
37E
 10
279.601392
 20
395.566904
 30
0.0
 11
282.101392
 21
398.066904
 31
0.0
  0
LINE
  8
LC-006-005-----0
  6
CONTINUOUS
  5
37F
 10
276.882773
 20
395.676712
 30
0.0
 11
279.272964
 21
398.066904
 31
0.0
  0
LINE
  8
LC-006-005-----0
  6
CONTINUOUS
  5
380
 10
275.468559
 20
397.090925
 30
0.0
 11
276.492581
 21
398.114947
 31
0.0
  0
LINE
  8
LC-006-005-----0
  6
CONTINUOUS
  5
381
 10
274.054346
 20
398.505139
 30
0.0
 11
276.492581
 21
400.943374
 31
0.0
  0
LINE
  8
LC-006-005-----0
  6
CONTINUOUS
  5
382
 10
273.992581
 20
401.271801
 30
0.0
 11
276.492581
 21
403.771801
 31
0.0
  0
LINE
  8
LC-006-005-----0
  6
CONTINUOUS
  5
383
 10
273.992581
 20
404.100229
 30
0.0
 11
276.492581
 21
406.600229
 31
0.0
  0
LINE
  8
LC-006-005-----0
  6
CONTINUOUS
  5
384
 10
273.992581
 20
406.928656
 30
0.0
 11
276.492581
 21
409.428656
 31
0.0
  0
LINE
  8
LC-006-005-----0
  6
CONTINUOUS
  5
385
 10
273.992581
 20
409.757083
 30
0.0
 11
276.492581
 21
412.257083
 31
0.0
  0
LINE
  8
LC-006-005-----0
  6
CONTINUOUS
  5
386
 10
273.992581
 20
412.58551
 30
0.0
 11
276.492581
 21
415.08551
 31
0.0
  0
LINE
  8
LC-006-005-----0
  6
CONTINUOUS
  5
387
 10
273.992581
 20
415.413937
 30
0.0
 11
274.145192
 21
415.566548
 31
0.0
  0
ENDBLK
  8
0
  5
388
  0
BLOCK
  8
0
  5
38A
  2
*X23
 70
    65
 10
592.302188
 20
420.17672
 30
0.0
  3
*X23
  0
LINE
  8
LC-006-005-----0
  6
CONTINUOUS
  5
38B
 10
601.761742
 20
420.17672
 30
0.0
 11
602.302188
 21
420.717167
 31
0.0
  0
LINE
  8
LC-006-005-----0
  6
CONTINUOUS
  5
38C
 10
601.196056
 20
420.17672
 30
0.0
 11
602.302188
 21
421.282852
 31
0.0
  0
LINE
  8
LC-006-005-----0
  6
CONTINUOUS
  5
38D
 10
600.630371
 20
420.17672
 30
0.0
 11
602.302188
 21
421.848538
 31
0.0
  0
LINE
  8
LC-006-005-----0
  6
CONTINUOUS
  5
38E
 10
600.064685
 20
420.17672
 30
0.0
 11
602.302188
 21
422.414223
 31
0.0
  0
LINE
  8
LC-006-005-----0
  6
CONTINUOUS
  5
38F
 10
599.499
 20
420.17672
 30
0.0
 11
602.302188
 21
422.979908
 31
0.0
  0
LINE
  8
LC-006-005-----0
  6
CONTINUOUS
  5
390
 10
598.933315
 20
420.17672
 30
0.0
 11
602.302188
 21
423.545594
 31
0.0
  0
LINE
  8
LC-006-005-----0
  6
CONTINUOUS
  5
391
 10
598.367629
 20
420.17672
 30
0.0
 11
602.302188
 21
424.111279
 31
0.0
  0
LINE
  8
LC-006-005-----0
  6
CONTINUOUS
  5
392
 10
597.801944
 20
420.17672
 30
0.0
 11
602.302188
 21
424.676965
 31
0.0
  0
LINE
  8
LC-006-005-----0
  6
CONTINUOUS
  5
393
 10
597.236258
 20
420.17672
 30
0.0
 11
601.936258
 21
424.87672
 31
0.0
  0
LINE
  8
LC-006-005-----0
  6
CONTINUOUS
  5
394
 10
596.670573
 20
420.17672
 30
0.0
 11
601.370573
 21
424.87672
 31
0.0
  0
LINE
  8
LC-006-005-----0
  6
CONTINUOUS
  5
395
 10
596.104887
 20
420.17672
 30
0.0
 11
600.804887
 21
424.87672
 31
0.0
  0
LINE
  8
LC-006-005-----0
  6
CONTINUOUS
  5
396
 10
595.539202
 20
420.17672
 30
0.0
 11
600.239202
 21
424.87672
 31
0.0
  0
LINE
  8
LC-006-005-----0
  6
CONTINUOUS
  5
397
 10
594.973517
 20
420.17672
 30
0.0
 11
599.673517
 21
424.87672
 31
0.0
  0
LINE
  8
LC-006-005-----0
  6
CONTINUOUS
  5
398
 10
594.407831
 20
420.17672
 30
0.0
 11
599.107831
 21
424.87672
 31
0.0
  0
LINE
  8
LC-006-005-----0
  6
CONTINUOUS
  5
399
 10
593.842146
 20
420.17672
 30
0.0
 11
598.542146
 21
424.87672
 31
0.0
  0
LINE
  8
LC-006-005-----0
  6
CONTINUOUS
  5
39A
 10
593.27646
 20
420.17672
 30
0.0
 11
597.97646
 21
424.87672
 31
0.0
  0
LINE
  8
LC-006-005-----0
  6
CONTINUOUS
  5
39B
 10
592.710775
 20
420.17672
 30
0.0
 11
597.410775
 21
424.87672
 31
0.0
  0
LINE
  8
LC-006-005-----0
  6
CONTINUOUS
  5
39C
 10
592.302188
 20
420.333819
 30
0.0
 11
596.845089
 21
424.87672
 31
0.0
  0
LINE
  8
LC-006-005-----0
  6
CONTINUOUS
  5
39D
 10
592.302188
 20
420.899504
 30
0.0
 11
596.279404
 21
424.87672
 31
0.0
  0
LINE
  8
LC-006-005-----0
  6
CONTINUOUS
  5
39E
 10
592.302188
 20
421.46519
 30
0.0
 11
595.713719
 21
424.87672
 31
0.0
  0
LINE
  8
LC-006-005-----0
  6
CONTINUOUS
  5
39F
 10
592.302188
 20
422.030875
 30
0.0
 11
595.148033
 21
424.87672
 31
0.0
  0
LINE
  8
LC-006-005-----0
  6
CONTINUOUS
  5
3A0
 10
592.302188
 20
422.596561
 30
0.0
 11
594.582348
 21
424.87672
 31
0.0
  0
LINE
  8
LC-006-005-----0
  6
CONTINUOUS
  5
3A1
 10
592.302188
 20
423.162246
 30
0.0
 11
594.016662
 21
424.87672
 31
0.0
  0
LINE
  8
LC-006-005-----0
  6
CONTINUOUS
  5
3A2
 10
592.302188
 20
423.727932
 30
0.0
 11
593.450977
 21
424.87672
 31
0.0
  0
LINE
  8
LC-006-005-----0
  6
CONTINUOUS
  5
3A3
 10
592.302188
 20
424.293617
 30
0.0
 11
592.885291
 21
424.87672
 31
0.0
  0
LINE
  8
LC-006-005-----0
  6
CONTINUOUS
  5
3A4
 10
592.302188
 20
424.859302
 30
0.0
 11
592.319606
 21
424.87672
 31
0.0
  0
ENDBLK
  8
0
  5
3A5
  0
BLOCK
  8
0
  5
3A7
  2
*X24
 70
    65
 10
572.302188
 20
420.17672
 30
0.0
  3
*X24
  0
LINE
  8
LC-006-005-----0
  6
CONTINUOUS
  5
3A8
 10
581.962752
 20
420.17672
 30
0.0
 11
582.302188
 21
420.516157
 31
0.0
  0
LINE
  8
LC-006-005-----0
  6
CONTINUOUS
  5
3A9
 10
581.397066
 20
420.17672
 30
0.0
 11
582.302188
 21
421.081842
 31
0.0
  0
LINE
  8
LC-006-005-----0
  6
CONTINUOUS
  5
3AA
 10
580.831381
 20
420.17672
 30
0.0
 11
582.302188
 21
421.647528
 31
0.0
  0
LINE
  8
LC-006-005-----0
  6
CONTINUOUS
  5
3AB
 10
580.265695
 20
420.17672
 30
0.0
 11
582.302188
 21
422.213213
 31
0.0
  0
LINE
  8
LC-006-005-----0
  6
CONTINUOUS
  5
3AC
 10
579.70001
 20
420.17672
 30
0.0
 11
582.302188
 21
422.778898
 31
0.0
  0
LINE
  8
LC-006-005-----0
  6
CONTINUOUS
  5
3AD
 10
579.134325
 20
420.17672
 30
0.0
 11
582.302188
 21
423.344584
 31
0.0
  0
LINE
  8
LC-006-005-----0
  6
CONTINUOUS
  5
3AE
 10
578.568639
 20
420.17672
 30
0.0
 11
582.302188
 21
423.910269
 31
0.0
  0
LINE
  8
LC-006-005-----0
  6
CONTINUOUS
  5
3AF
 10
578.002954
 20
420.17672
 30
0.0
 11
582.302188
 21
424.475955
 31
0.0
  0
LINE
  8
LC-006-005-----0
  6
CONTINUOUS
  5
3B0
 10
577.437268
 20
420.17672
 30
0.0
 11
582.137268
 21
424.87672
 31
0.0
  0
LINE
  8
LC-006-005-----0
  6
CONTINUOUS
  5
3B1
 10
576.871583
 20
420.17672
 30
0.0
 11
581.571583
 21
424.87672
 31
0.0
  0
LINE
  8
LC-006-005-----0
  6
CONTINUOUS
  5
3B2
 10
576.305898
 20
420.17672
 30
0.0
 11
581.005898
 21
424.87672
 31
0.0
  0
LINE
  8
LC-006-005-----0
  6
CONTINUOUS
  5
3B3
 10
575.740212
 20
420.17672
 30
0.0
 11
580.440212
 21
424.87672
 31
0.0
  0
LINE
  8
LC-006-005-----0
  6
CONTINUOUS
  5
3B4
 10
575.174527
 20
420.17672
 30
0.0
 11
579.874527
 21
424.87672
 31
0.0
  0
LINE
  8
LC-006-005-----0
  6
CONTINUOUS
  5
3B5
 10
574.608841
 20
420.17672
 30
0.0
 11
579.308841
 21
424.87672
 31
0.0
  0
LINE
  8
LC-006-005-----0
  6
CONTINUOUS
  5
3B6
 10
574.043156
 20
420.17672
 30
0.0
 11
578.743156
 21
424.87672
 31
0.0
  0
LINE
  8
LC-006-005-----0
  6
CONTINUOUS
  5
3B7
 10
573.47747
 20
420.17672
 30
0.0
 11
578.17747
 21
424.87672
 31
0.0
  0
LINE
  8
LC-006-005-----0
  6
CONTINUOUS
  5
3B8
 10
572.911785
 20
420.17672
 30
0.0
 11
577.611785
 21
424.87672
 31
0.0
  0
LINE
  8
LC-006-005-----0
  6
CONTINUOUS
  5
3B9
 10
572.3461
 20
420.17672
 30
0.0
 11
577.0461
 21
424.87672
 31
0.0
  0
LINE
  8
LC-006-005-----0
  6
CONTINUOUS
  5
3BA
 10
572.302188
 20
420.698494
 30
0.0
 11
576.480414
 21
424.87672
 31
0.0
  0
LINE
  8
LC-006-005-----0
  6
CONTINUOUS
  5
3BB
 10
572.302188
 20
421.26418
 30
0.0
 11
575.914729
 21
424.87672
 31
0.0
  0
LINE
  8
LC-006-005-----0
  6
CONTINUOUS
  5
3BC
 10
572.302188
 20
421.829865
 30
0.0
 11
575.349043
 21
424.87672
 31
0.0
  0
LINE
  8
LC-006-005-----0
  6
CONTINUOUS
  5
3BD
 10
572.302188
 20
422.395551
 30
0.0
 11
574.783358
 21
424.87672
 31
0.0
  0
LINE
  8
LC-006-005-----0
  6
CONTINUOUS
  5
3BE
 10
572.302188
 20
422.961236
 30
0.0
 11
574.217672
 21
424.87672
 31
0.0
  0
LINE
  8
LC-006-005-----0
  6
CONTINUOUS
  5
3BF
 10
572.302188
 20
423.526921
 30
0.0
 11
573.651987
 21
424.87672
 31
0.0
  0
LINE
  8
LC-006-005-----0
  6
CONTINUOUS
  5
3C0
 10
572.302188
 20
424.092607
 30
0.0
 11
573.086302
 21
424.87672
 31
0.0
  0
LINE
  8
LC-006-005-----0
  6
CONTINUOUS
  5
3C1
 10
572.302188
 20
424.658292
 30
0.0
 11
572.520616
 21
424.87672
 31
0.0
  0
ENDBLK
  8
0
  5
3C2
  0
BLOCK
  8
0
  5
3C4
  2
*X25
 70
    65
 10
552.302188
 20
420.17672
 30
0.0
  3
*X25
  0
LINE
  8
LC-006-005-----0
  6
CONTINUOUS
  5
3C5
 10
562.163762
 20
420.17672
 30
0.0
 11
562.302188
 21
420.315147
 31
0.0
  0
LINE
  8
LC-006-005-----0
  6
CONTINUOUS
  5
3C6
 10
561.598076
 20
420.17672
 30
0.0
 11
562.302188
 21
420.880832
 31
0.0
  0
LINE
  8
LC-006-005-----0
  6
CONTINUOUS
  5
3C7
 10
561.032391
 20
420.17672
 30
0.0
 11
562.302188
 21
421.446517
 31
0.0
  0
LINE
  8
LC-006-005-----0
  6
CONTINUOUS
  5
3C8
 10
560.466706
 20
420.17672
 30
0.0
 11
562.302188
 21
422.012203
 31
0.0
  0
LINE
  8
LC-006-005-----0
  6
CONTINUOUS
  5
3C9
 10
559.90102
 20
420.17672
 30
0.0
 11
562.302188
 21
422.577888
 31
0.0
  0
LINE
  8
LC-006-005-----0
  6
CONTINUOUS
  5
3CA
 10
559.335335
 20
420.17672
 30
0.0
 11
562.302188
 21
423.143574
 31
0.0
  0
LINE
  8
LC-006-005-----0
  6
CONTINUOUS
  5
3CB
 10
558.769649
 20
420.17672
 30
0.0
 11
562.302188
 21
423.709259
 31
0.0
  0
LINE
  8
LC-006-005-----0
  6
CONTINUOUS
  5
3CC
 10
558.203964
 20
420.17672
 30
0.0
 11
562.302188
 21
424.274945
 31
0.0
  0
LINE
  8
LC-006-005-----0
  6
CONTINUOUS
  5
3CD
 10
557.638278
 20
420.17672
 30
0.0
 11
562.302188
 21
424.84063
 31
0.0
  0
LINE
  8
LC-006-005-----0
  6
CONTINUOUS
  5
3CE
 10
557.072593
 20
420.17672
 30
0.0
 11
561.772593
 21
424.87672
 31
0.0
  0
LINE
  8
LC-006-005-----0
  6
CONTINUOUS
  5
3CF
 10
556.506908
 20
420.17672
 30
0.0
 11
561.206908
 21
424.87672
 31
0.0
  0
LINE
  8
LC-006-005-----0
  6
CONTINUOUS
  5
3D0
 10
555.941222
 20
420.17672
 30
0.0
 11
560.641222
 21
424.87672
 31
0.0
  0
LINE
  8
LC-006-005-----0
  6
CONTINUOUS
  5
3D1
 10
555.375537
 20
420.17672
 30
0.0
 11
560.075537
 21
424.87672
 31
0.0
  0
LINE
  8
LC-006-005-----0
  6
CONTINUOUS
  5
3D2
 10
554.809851
 20
420.17672
 30
0.0
 11
559.509851
 21
424.87672
 31
0.0
  0
LINE
  8
LC-006-005-----0
  6
CONTINUOUS
  5
3D3
 10
554.244166
 20
420.17672
 30
0.0
 11
558.944166
 21
424.87672
 31
0.0
  0
LINE
  8
LC-006-005-----0
  6
CONTINUOUS
  5
3D4
 10
553.678481
 20
420.17672
 30
0.0
 11
558.378481
 21
424.87672
 31
0.0
  0
LINE
  8
LC-006-005-----0
  6
CONTINUOUS
  5
3D5
 10
553.112795
 20
420.17672
 30
0.0
 11
557.812795
 21
424.87672
 31
0.0
  0
LINE
  8
LC-006-005-----0
  6
CONTINUOUS
  5
3D6
 10
552.54711
 20
420.17672
 30
0.0
 11
557.24711
 21
424.87672
 31
0.0
  0
LINE
  8
LC-006-005-----0
  6
CONTINUOUS
  5
3D7
 10
552.302188
 20
420.497484
 30
0.0
 11
556.681424
 21
424.87672
 31
0.0
  0
LINE
  8
LC-006-005-----0
  6
CONTINUOUS
  5
3D8
 10
552.302188
 20
421.06317
 30
0.0
 11
556.115739
 21
424.87672
 31
0.0
  0
LINE
  8
LC-006-005-----0
  6
CONTINUOUS
  5
3D9
 10
552.302188
 20
421.628855
 30
0.0
 11
555.550053
 21
424.87672
 31
0.0
  0
LINE
  8
LC-006-005-----0
  6
CONTINUOUS
  5
3DA
 10
552.302188
 20
422.19454
 30
0.0
 11
554.984368
 21
424.87672
 31
0.0
  0
LINE
  8
LC-006-005-----0
  6
CONTINUOUS
  5
3DB
 10
552.302188
 20
422.760226
 30
0.0
 11
554.418683
 21
424.87672
 31
0.0
  0
LINE
  8
LC-006-005-----0
  6
CONTINUOUS
  5
3DC
 10
552.302188
 20
423.325911
 30
0.0
 11
553.852997
 21
424.87672
 31
0.0
  0
LINE
  8
LC-006-005-----0
  6
CONTINUOUS
  5
3DD
 10
552.302188
 20
423.891597
 30
0.0
 11
553.287312
 21
424.87672
 31
0.0
  0
LINE
  8
LC-006-005-----0
  6
CONTINUOUS
  5
3DE
 10
552.302188
 20
424.457282
 30
0.0
 11
552.721626
 21
424.87672
 31
0.0
  0
ENDBLK
  8
0
  5
3DF
  0
BLOCK
  8
0
  5
3E1
  2
*X26
 70
    65
 10
532.302188
 20
420.17672
 30
0.0
  3
*X26
  0
LINE
  8
LC-006-005-----0
  6
CONTINUOUS
  5
3E2
 10
541.799087
 20
420.17672
 30
0.0
 11
542.302188
 21
420.679822
 31
0.0
  0
LINE
  8
LC-006-005-----0
  6
CONTINUOUS
  5
3E3
 10
541.233401
 20
420.17672
 30
0.0
 11
542.302188
 21
421.245507
 31
0.0
  0
LINE
  8
LC-006-005-----0
  6
CONTINUOUS
  5
3E4
 10
540.667716
 20
420.17672
 30
0.0
 11
542.302188
 21
421.811193
 31
0.0
  0
LINE
  8
LC-006-005-----0
  6
CONTINUOUS
  5
3E5
 10
540.10203
 20
420.17672
 30
0.0
 11
542.302188
 21
422.376878
 31
0.0
  0
LINE
  8
LC-006-005-----0
  6
CONTINUOUS
  5
3E6
 10
539.536345
 20
420.17672
 30
0.0
 11
542.302188
 21
422.942564
 31
0.0
  0
LINE
  8
LC-006-005-----0
  6
CONTINUOUS
  5
3E7
 10
538.970659
 20
420.17672
 30
0.0
 11
542.302188
 21
423.508249
 31
0.0
  0
LINE
  8
LC-006-005-----0
  6
CONTINUOUS
  5
3E8
 10
538.404974
 20
420.17672
 30
0.0
 11
542.302188
 21
424.073934
 31
0.0
  0
LINE
  8
LC-006-005-----0
  6
CONTINUOUS
  5
3E9
 10
537.839289
 20
420.17672
 30
0.0
 11
542.302188
 21
424.63962
 31
0.0
  0
LINE
  8
LC-006-005-----0
  6
CONTINUOUS
  5
3EA
 10
537.273603
 20
420.17672
 30
0.0
 11
541.973603
 21
424.87672
 31
0.0
  0
LINE
  8
LC-006-005-----0
  6
CONTINUOUS
  5
3EB
 10
536.707918
 20
420.17672
 30
0.0
 11
541.407918
 21
424.87672
 31
0.0
  0
LINE
  8
LC-006-005-----0
  6
CONTINUOUS
  5
3EC
 10
536.142232
 20
420.17672
 30
0.0
 11
540.842232
 21
424.87672
 31
0.0
  0
LINE
  8
LC-006-005-----0
  6
CONTINUOUS
  5
3ED
 10
535.576547
 20
420.17672
 30
0.0
 11
540.276547
 21
424.87672
 31
0.0
  0
LINE
  8
LC-006-005-----0
  6
CONTINUOUS
  5
3EE
 10
535.010861
 20
420.17672
 30
0.0
 11
539.710861
 21
424.87672
 31
0.0
  0
LINE
  8
LC-006-005-----0
  6
CONTINUOUS
  5
3EF
 10
534.445176
 20
420.17672
 30
0.0
 11
539.145176
 21
424.87672
 31
0.0
  0
LINE
  8
LC-006-005-----0
  6
CONTINUOUS
  5
3F0
 10
533.879491
 20
420.17672
 30
0.0
 11
538.579491
 21
424.87672
 31
0.0
  0
LINE
  8
LC-006-005-----0
  6
CONTINUOUS
  5
3F1
 10
533.313805
 20
420.17672
 30
0.0
 11
538.013805
 21
424.87672
 31
0.0
  0
LINE
  8
LC-006-005-----0
  6
CONTINUOUS
  5
3F2
 10
532.74812
 20
420.17672
 30
0.0
 11
537.44812
 21
424.87672
 31
0.0
  0
LINE
  8
LC-006-005-----0
  6
CONTINUOUS
  5
3F3
 10
532.302188
 20
420.296474
 30
0.0
 11
536.882434
 21
424.87672
 31
0.0
  0
LINE
  8
LC-006-005-----0
  6
CONTINUOUS
  5
3F4
 10
532.302188
 20
420.862159
 30
0.0
 11
536.316749
 21
424.87672
 31
0.0
  0
LINE
  8
LC-006-005-----0
  6
CONTINUOUS
  5
3F5
 10
532.302188
 20
421.427845
 30
0.0
 11
535.751064
 21
424.87672
 31
0.0
  0
LINE
  8
LC-006-005-----0
  6
CONTINUOUS
  5
3F6
 10
532.302188
 20
421.99353
 30
0.0
 11
535.185378
 21
424.87672
 31
0.0
  0
LINE
  8
LC-006-005-----0
  6
CONTINUOUS
  5
3F7
 10
532.302188
 20
422.559216
 30
0.0
 11
534.619693
 21
424.87672
 31
0.0
  0
LINE
  8
LC-006-005-----0
  6
CONTINUOUS
  5
3F8
 10
532.302188
 20
423.124901
 30
0.0
 11
534.054007
 21
424.87672
 31
0.0
  0
LINE
  8
LC-006-005-----0
  6
CONTINUOUS
  5
3F9
 10
532.302188
 20
423.690587
 30
0.0
 11
533.488322
 21
424.87672
 31
0.0
  0
LINE
  8
LC-006-005-----0
  6
CONTINUOUS
  5
3FA
 10
532.302188
 20
424.256272
 30
0.0
 11
532.922636
 21
424.87672
 31
0.0
  0
LINE
  8
LC-006-005-----0
  6
CONTINUOUS
  5
3FB
 10
532.302188
 20
424.821957
 30
0.0
 11
532.356951
 21
424.87672
 31
0.0
  0
ENDBLK
  8
0
  5
3FC
  0
BLOCK
  8
0
  5
3FE
  2
*X27
 70
    65
 10
512.302188
 20
420.17672
 30
0.0
  3
*X27
  0
LINE
  8
LC-006-005-----0
  6
CONTINUOUS
  5
3FF
 10
522.000097
 20
420.17672
 30
0.0
 11
522.302188
 21
420.478812
 31
0.0
  0
LINE
  8
LC-006-005-----0
  6
CONTINUOUS
  5
400
 10
521.434411
 20
420.17672
 30
0.0
 11
522.302188
 21
421.044497
 31
0.0
  0
LINE
  8
LC-006-005-----0
  6
CONTINUOUS
  5
401
 10
520.868726
 20
420.17672
 30
0.0
 11
522.302188
 21
421.610183
 31
0.0
  0
LINE
  8
LC-006-005-----0
  6
CONTINUOUS
  5
402
 10
520.30304
 20
420.17672
 30
0.0
 11
522.302188
 21
422.175868
 31
0.0
  0
LINE
  8
LC-006-005-----0
  6
CONTINUOUS
  5
403
 10
519.737355
 20
420.17672
 30
0.0
 11
522.302188
 21
422.741553
 31
0.0
  0
LINE
  8
LC-006-005-----0
  6
CONTINUOUS
  5
404
 10
519.17167
 20
420.17672
 30
0.0
 11
522.302188
 21
423.307239
 31
0.0
  0
LINE
  8
LC-006-005-----0
  6
CONTINUOUS
  5
405
 10
518.605984
 20
420.17672
 30
0.0
 11
522.302188
 21
423.872924
 31
0.0
  0
LINE
  8
LC-006-005-----0
  6
CONTINUOUS
  5
406
 10
518.040299
 20
420.17672
 30
0.0
 11
522.302188
 21
424.43861
 31
0.0
  0
LINE
  8
LC-006-005-----0
  6
CONTINUOUS
  5
407
 10
517.474613
 20
420.17672
 30
0.0
 11
522.174613
 21
424.87672
 31
0.0
  0
LINE
  8
LC-006-005-----0
  6
CONTINUOUS
  5
408
 10
516.908928
 20
420.17672
 30
0.0
 11
521.608928
 21
424.87672
 31
0.0
  0
LINE
  8
LC-006-005-----0
  6
CONTINUOUS
  5
409
 10
516.343242
 20
420.17672
 30
0.0
 11
521.043242
 21
424.87672
 31
0.0
  0
LINE
  8
LC-006-005-----0
  6
CONTINUOUS
  5
40A
 10
515.777557
 20
420.17672
 30
0.0
 11
520.477557
 21
424.87672
 31
0.0
  0
LINE
  8
LC-006-005-----0
  6
CONTINUOUS
  5
40B
 10
515.211872
 20
420.17672
 30
0.0
 11
519.911872
 21
424.87672
 31
0.0
  0
LINE
  8
LC-006-005-----0
  6
CONTINUOUS
  5
40C
 10
514.646186
 20
420.17672
 30
0.0
 11
519.346186
 21
424.87672
 31
0.0
  0
LINE
  8
LC-006-005-----0
  6
CONTINUOUS
  5
40D
 10
514.080501
 20
420.17672
 30
0.0
 11
518.780501
 21
424.87672
 31
0.0
  0
LINE
  8
LC-006-005-----0
  6
CONTINUOUS
  5
40E
 10
513.514815
 20
420.17672
 30
0.0
 11
518.214815
 21
424.87672
 31
0.0
  0
LINE
  8
LC-006-005-----0
  6
CONTINUOUS
  5
40F
 10
512.94913
 20
420.17672
 30
0.0
 11
517.64913
 21
424.87672
 31
0.0
  0
LINE
  8
LC-006-005-----0
  6
CONTINUOUS
  5
410
 10
512.383444
 20
420.17672
 30
0.0
 11
517.083444
 21
424.87672
 31
0.0
  0
LINE
  8
LC-006-005-----0
  6
CONTINUOUS
  5
411
 10
512.302188
 20
420.661149
 30
0.0
 11
516.517759
 21
424.87672
 31
0.0
  0
LINE
  8
LC-006-005-----0
  6
CONTINUOUS
  5
412
 10
512.302188
 20
421.226835
 30
0.0
 11
515.952074
 21
424.87672
 31
0.0
  0
LINE
  8
LC-006-005-----0
  6
CONTINUOUS
  5
413
 10
512.302188
 20
421.79252
 30
0.0
 11
515.386388
 21
424.87672
 31
0.0
  0
LINE
  8
LC-006-005-----0
  6
CONTINUOUS
  5
414
 10
512.302188
 20
422.358206
 30
0.0
 11
514.820703
 21
424.87672
 31
0.0
  0
LINE
  8
LC-006-005-----0
  6
CONTINUOUS
  5
415
 10
512.302188
 20
422.923891
 30
0.0
 11
514.255017
 21
424.87672
 31
0.0
  0
LINE
  8
LC-006-005-----0
  6
CONTINUOUS
  5
416
 10
512.302188
 20
423.489576
 30
0.0
 11
513.689332
 21
424.87672
 31
0.0
  0
LINE
  8
LC-006-005-----0
  6
CONTINUOUS
  5
417
 10
512.302188
 20
424.055262
 30
0.0
 11
513.123647
 21
424.87672
 31
0.0
  0
LINE
  8
LC-006-005-----0
  6
CONTINUOUS
  5
418
 10
512.302188
 20
424.620947
 30
0.0
 11
512.557961
 21
424.87672
 31
0.0
  0
ENDBLK
  8
0
  5
419
  0
BLOCK
  8
0
  5
41B
  2
*X28
 70
    65
 10
492.302188
 20
419.401208
 30
0.0
  3
*X28
  0
LINE
  8
LC-006-005-----0
  6
CONTINUOUS
  5
41C
 10
502.104922
 20
420.080535
 30
0.0
 11
502.302188
 21
420.277802
 31
0.0
  0
LINE
  8
LC-006-005-----0
  6
CONTINUOUS
  5
41D
 10
501.497106
 20
420.038404
 30
0.0
 11
502.302188
 21
420.843487
 31
0.0
  0
LINE
  8
LC-006-005-----0
  6
CONTINUOUS
  5
41E
 10
500.88929
 20
419.996274
 30
0.0
 11
502.302188
 21
421.409172
 31
0.0
  0
LINE
  8
LC-006-005-----0
  6
CONTINUOUS
  5
41F
 10
500.281474
 20
419.954143
 30
0.0
 11
502.302188
 21
421.974858
 31
0.0
  0
LINE
  8
LC-006-005-----0
  6
CONTINUOUS
  5
420
 10
499.673658
 20
419.912013
 30
0.0
 11
502.302188
 21
422.540543
 31
0.0
  0
LINE
  8
LC-006-005-----0
  6
CONTINUOUS
  5
421
 10
499.065842
 20
419.869882
 30
0.0
 11
502.302188
 21
423.106229
 31
0.0
  0
LINE
  8
LC-006-005-----0
  6
CONTINUOUS
  5
422
 10
498.458026
 20
419.827752
 30
0.0
 11
502.302188
 21
423.671914
 31
0.0
  0
LINE
  8
LC-006-005-----0
  6
CONTINUOUS
  5
423
 10
497.85021
 20
419.785621
 30
0.0
 11
502.302188
 21
424.2376
 31
0.0
  0
LINE
  8
LC-006-005-----0
  6
CONTINUOUS
  5
424
 10
497.242394
 20
419.74349
 30
0.0
 11
502.302188
 21
424.803285
 31
0.0
  0
LINE
  8
LC-006-005-----0
  6
CONTINUOUS
  5
425
 10
496.634578
 20
419.70136
 30
0.0
 11
501.696737
 21
424.763519
 31
0.0
  0
LINE
  8
LC-006-005-----0
  6
CONTINUOUS
  5
426
 10
496.026762
 20
419.659229
 30
0.0
 11
501.088921
 21
424.721388
 31
0.0
  0
LINE
  8
LC-006-005-----0
  6
CONTINUOUS
  5
427
 10
495.418946
 20
419.617099
 30
0.0
 11
500.481105
 21
424.679258
 31
0.0
  0
LINE
  8
LC-006-005-----0
  6
CONTINUOUS
  5
428
 10
494.811129
 20
419.574968
 30
0.0
 11
499.873289
 21
424.637127
 31
0.0
  0
LINE
  8
LC-006-005-----0
  6
CONTINUOUS
  5
429
 10
494.203313
 20
419.532837
 30
0.0
 11
499.265473
 21
424.594997
 31
0.0
  0
LINE
  8
LC-006-005-----0
  6
CONTINUOUS
  5
42A
 10
493.595497
 20
419.490707
 30
0.0
 11
498.657657
 21
424.552866
 31
0.0
  0
LINE
  8
LC-006-005-----0
  6
CONTINUOUS
  5
42B
 10
492.987681
 20
419.448576
 30
0.0
 11
498.049841
 21
424.510735
 31
0.0
  0
LINE
  8
LC-006-005-----0
  6
CONTINUOUS
  5
42C
 10
492.379865
 20
419.406446
 30
0.0
 11
497.442025
 21
424.468605
 31
0.0
  0
LINE
  8
LC-006-005-----0
  6
CONTINUOUS
  5
42D
 10
492.302188
 20
419.894454
 30
0.0
 11
496.834209
 21
424.426474
 31
0.0
  0
LINE
  8
LC-006-005-----0
  6
CONTINUOUS
  5
42E
 10
492.302188
 20
420.460139
 30
0.0
 11
496.226393
 21
424.384344
 31
0.0
  0
LINE
  8
LC-006-005-----0
  6
CONTINUOUS
  5
42F
 10
492.302188
 20
421.025825
 30
0.0
 11
495.618577
 21
424.342213
 31
0.0
  0
LINE
  8
LC-006-005-----0
  6
CONTINUOUS
  5
430
 10
492.302188
 20
421.59151
 30
0.0
 11
495.010761
 21
424.300082
 31
0.0
  0
LINE
  8
LC-006-005-----0
  6
CONTINUOUS
  5
431
 10
492.302188
 20
422.157196
 30
0.0
 11
494.402945
 21
424.257952
 31
0.0
  0
LINE
  8
LC-006-005-----0
  6
CONTINUOUS
  5
432
 10
492.302188
 20
422.722881
 30
0.0
 11
493.795129
 21
424.215821
 31
0.0
  0
LINE
  8
LC-006-005-----0
  6
CONTINUOUS
  5
433
 10
492.302188
 20
423.288566
 30
0.0
 11
493.187313
 21
424.173691
 31
0.0
  0
LINE
  8
LC-006-005-----0
  6
CONTINUOUS
  5
434
 10
492.302188
 20
423.854252
 30
0.0
 11
492.579497
 21
424.13156
 31
0.0
  0
ENDBLK
  8
0
  5
435
  0
BLOCK
  8
0
  5
437
  2
*X29
 70
    65
 10
472.302188
 20
418.014914
 30
0.0
  3
*X29
  0
LINE
  8
LC-006-005-----0
  6
CONTINUOUS
  5
438
 10
482.046993
 20
418.690226
 30
0.0
 11
482.302188
 21
418.945421
 31
0.0
  0
LINE
  8
LC-006-005-----0
  6
CONTINUOUS
  5
439
 10
481.439177
 20
418.648095
 30
0.0
 11
482.302188
 21
419.511106
 31
0.0
  0
LINE
  8
LC-006-005-----0
  6
CONTINUOUS
  5
43A
 10
480.831361
 20
418.605964
 30
0.0
 11
482.302188
 21
420.076791
 31
0.0
  0
LINE
  8
LC-006-005-----0
  6
CONTINUOUS
  5
43B
 10
480.223545
 20
418.563834
 30
0.0
 11
482.302188
 21
420.642477
 31
0.0
  0
LINE
  8
LC-006-005-----0
  6
CONTINUOUS
  5
43C
 10
479.615729
 20
418.521703
 30
0.0
 11
482.302188
 21
421.208162
 31
0.0
  0
LINE
  8
LC-006-005-----0
  6
CONTINUOUS
  5
43D
 10
479.007913
 20
418.479573
 30
0.0
 11
482.302188
 21
421.773848
 31
0.0
  0
LINE
  8
LC-006-005-----0
  6
CONTINUOUS
  5
43E
 10
478.400097
 20
418.437442
 30
0.0
 11
482.302188
 21
422.339533
 31
0.0
  0
LINE
  8
LC-006-005-----0
  6
CONTINUOUS
  5
43F
 10
477.792281
 20
418.395312
 30
0.0
 11
482.302188
 21
422.905219
 31
0.0
  0
LINE
  8
LC-006-005-----0
  6
CONTINUOUS
  5
440
 10
477.184465
 20
418.353181
 30
0.0
 11
482.246624
 21
423.41534
 31
0.0
  0
LINE
  8
LC-006-005-----0
  6
CONTINUOUS
  5
441
 10
476.576649
 20
418.31105
 30
0.0
 11
481.638808
 21
423.37321
 31
0.0
  0
LINE
  8
LC-006-005-----0
  6
CONTINUOUS
  5
442
 10
475.968833
 20
418.26892
 30
0.0
 11
481.030992
 21
423.331079
 31
0.0
  0
LINE
  8
LC-006-005-----0
  6
CONTINUOUS
  5
443
 10
475.361017
 20
418.226789
 30
0.0
 11
480.423176
 21
423.288948
 31
0.0
  0
LINE
  8
LC-006-005-----0
  6
CONTINUOUS
  5
444
 10
474.753201
 20
418.184659
 30
0.0
 11
479.81536
 21
423.246818
 31
0.0
  0
LINE
  8
LC-006-005-----0
  6
CONTINUOUS
  5
445
 10
474.145385
 20
418.142528
 30
0.0
 11
479.207544
 21
423.204687
 31
0.0
  0
LINE
  8
LC-006-005-----0
  6
CONTINUOUS
  5
446
 10
473.537569
 20
418.100397
 30
0.0
 11
478.599728
 21
423.162557
 31
0.0
  0
LINE
  8
LC-006-005-----0
  6
CONTINUOUS
  5
447
 10
472.929753
 20
418.058267
 30
0.0
 11
477.991912
 21
423.120426
 31
0.0
  0
LINE
  8
LC-006-005-----0
  6
CONTINUOUS
  5
448
 10
472.321937
 20
418.016136
 30
0.0
 11
477.384096
 21
423.078295
 31
0.0
  0
LINE
  8
LC-006-005-----0
  6
CONTINUOUS
  5
449
 10
472.302188
 20
418.562073
 30
0.0
 11
476.77628
 21
423.036165
 31
0.0
  0
LINE
  8
LC-006-005-----0
  6
CONTINUOUS
  5
44A
 10
472.302188
 20
419.127758
 30
0.0
 11
476.168464
 21
422.994034
 31
0.0
  0
LINE
  8
LC-006-005-----0
  6
CONTINUOUS
  5
44B
 10
472.302188
 20
419.693444
 30
0.0
 11
475.560648
 21
422.951904
 31
0.0
  0
LINE
  8
LC-006-005-----0
  6
CONTINUOUS
  5
44C
 10
472.302188
 20
420.259129
 30
0.0
 11
474.952832
 21
422.909773
 31
0.0
  0
LINE
  8
LC-006-005-----0
  6
CONTINUOUS
  5
44D
 10
472.302188
 20
420.824815
 30
0.0
 11
474.345016
 21
422.867642
 31
0.0
  0
LINE
  8
LC-006-005-----0
  6
CONTINUOUS
  5
44E
 10
472.302188
 20
421.3905
 30
0.0
 11
473.7372
 21
422.825512
 31
0.0
  0
LINE
  8
LC-006-005-----0
  6
CONTINUOUS
  5
44F
 10
472.302188
 20
421.956185
 30
0.0
 11
473.129384
 21
422.783381
 31
0.0
  0
LINE
  8
LC-006-005-----0
  6
CONTINUOUS
  5
450
 10
472.302188
 20
422.521871
 30
0.0
 11
472.521568
 21
422.741251
 31
0.0
  0
ENDBLK
  8
0
  5
451
  0
BLOCK
  8
0
  5
453
  2
*X30
 70
    65
 10
429.391402
 20
414.557265
 30
0.0
  3
*X30
  0
LINE
  8
LC-006-005-----0
  6
CONTINUOUS
  5
454
 10
461.519247
 20
416.264413
 30
0.0
 11
462.302188
 21
417.047354
 31
0.0
  0
LINE
  8
LC-006-005-----0
  6
CONTINUOUS
  5
455
 10
460.605845
 20
415.916696
 30
0.0
 11
462.302188
 21
417.61304
 31
0.0
  0
LINE
  8
LC-006-005-----0
  6
CONTINUOUS
  5
456
 10
459.754679
 20
415.631216
 30
0.0
 11
462.302188
 21
418.178725
 31
0.0
  0
LINE
  8
LC-006-005-----0
  6
CONTINUOUS
  5
457
 10
458.952739
 20
415.394961
 30
0.0
 11
462.302188
 21
418.74441
 31
0.0
  0
LINE
  8
LC-006-005-----0
  6
CONTINUOUS
  5
458
 10
458.191148
 20
415.199056
 30
0.0
 11
462.302188
 21
419.310096
 31
0.0
  0
LINE
  8
LC-006-005-----0
  6
CONTINUOUS
  5
459
 10
457.463526
 20
415.037119
 30
0.0
 11
462.302188
 21
419.875781
 31
0.0
  0
LINE
  8
LC-006-005-----0
  6
CONTINUOUS
  5
45A
 10
456.793529
 20
414.932808
 30
0.0
 11
462.302188
 21
420.441467
 31
0.0
  0
LINE
  8
LC-006-005-----0
  6
CONTINUOUS
  5
45B
 10
456.183515
 20
414.888478
 30
0.0
 11
462.302188
 21
421.007152
 31
0.0
  0
LINE
  8
LC-006-005-----0
  6
CONTINUOUS
  5
45C
 10
455.5735
 20
414.844149
 30
0.0
 11
462.302188
 21
421.572838
 31
0.0
  0
LINE
  8
LC-006-005-----0
  6
CONTINUOUS
  5
45D
 10
454.963485
 20
414.79982
 30
0.0
 11
461.71611
 21
421.552444
 31
0.0
  0
LINE
  8
LC-006-005-----0
  6
CONTINUOUS
  5
45E
 10
454.35347
 20
414.75549
 30
0.0
 11
460.57568
 21
420.977701
 31
0.0
  0
LINE
  8
LC-006-005-----0
  6
CONTINUOUS
  5
45F
 10
453.743455
 20
414.711161
 30
0.0
 11
459.587947
 21
420.555652
 31
0.0
  0
LINE
  8
LC-006-005-----0
  6
CONTINUOUS
  5
460
 10
453.13344
 20
414.666832
 30
0.0
 11
458.697654
 21
420.231045
 31
0.0
  0
LINE
  8
LC-006-005-----0
  6
CONTINUOUS
  5
461
 10
452.523426
 20
414.622502
 30
0.0
 11
457.877037
 21
419.976114
 31
0.0
  0
LINE
  8
LC-006-005-----0
  6
CONTINUOUS
  5
462
 10
452.302188
 20
414.96695
 30
0.0
 11
457.10977
 21
419.774532
 31
0.0
  0
LINE
  8
LC-006-005-----0
  6
CONTINUOUS
  5
463
 10
452.302188
 20
415.532636
 30
0.0
 11
456.385276
 21
419.615723
 31
0.0
  0
LINE
  8
LC-006-005-----0
  6
CONTINUOUS
  5
464
 10
452.302188
 20
416.098321
 30
0.0
 11
455.773066
 21
419.569199
 31
0.0
  0
LINE
  8
LC-006-005-----0
  6
CONTINUOUS
  5
465
 10
452.302188
 20
416.664006
 30
0.0
 11
455.163052
 21
419.52487
 31
0.0
  0
LINE
  8
LC-006-005-----0
  6
CONTINUOUS
  5
466
 10
452.302188
 20
417.229692
 30
0.0
 11
454.553037
 21
419.48054
 31
0.0
  0
LINE
  8
LC-006-005-----0
  6
CONTINUOUS
  5
467
 10
452.302188
 20
417.795377
 30
0.0
 11
453.943022
 21
419.436211
 31
0.0
  0
LINE
  8
LC-006-005-----0
  6
CONTINUOUS
  5
468
 10
452.302188
 20
418.361063
 30
0.0
 11
453.333007
 21
419.391882
 31
0.0
  0
LINE
  8
LC-006-005-----0
  6
CONTINUOUS
  5
469
 10
452.302188
 20
418.926748
 30
0.0
 11
452.722992
 21
419.347552
 31
0.0
  0
ENDBLK
  8
0
  5
46A
  0
BLOCK
  8
0
  5
46C
  2
*X31
 70
    65
 10
424.754975
 20
388.966237
 30
0.0
  3
*X31
  0
LINE
  8
LC-006-005-----0
  6
CONTINUOUS
  5
46D
 10
428.605826
 20
389.007846
 30
0.0
 11
429.713366
 21
390.115386
 31
0.0
  0
LINE
  8
LC-006-005-----0
  6
CONTINUOUS
  5
46E
 10
425.735789
 20
388.966237
 30
0.0
 11
426.435789
 21
389.666237
 31
0.0
  0
LINE
  8
LC-006-005-----0
  6
CONTINUOUS
  5
46F
 10
428.055821
 20
391.286269
 30
0.0
 11
428.675605
 21
391.906053
 31
0.0
  0
LINE
  8
LC-006-005-----0
  6
CONTINUOUS
  5
470
 10
456.536017
 20
419.766464
 30
0.0
 11
457.720924
 21
420.951372
 31
0.0
  0
LINE
  8
LC-006-005-----0
  6
CONTINUOUS
  5
471
 10
427.254975
 20
393.31385
 30
0.0
 11
427.954975
 21
394.01385
 31
0.0
  0
LINE
  8
LC-006-005-----0
  6
CONTINUOUS
  5
472
 10
428.860064
 20
394.918938
 30
0.0
 11
431.702274
 21
397.761148
 31
0.0
  0
LINE
  8
LC-006-005-----0
  6
CONTINUOUS
  5
473
 10
453.382602
 20
419.441476
 30
0.0
 11
454.125693
 21
420.184567
 31
0.0
  0
LINE
  8
LC-006-005-----0
  6
CONTINUOUS
  5
474
 10
431.054975
 20
399.942277
 30
0.0
 11
431.754975
 21
400.642277
 31
0.0
  0
LINE
  8
LC-006-005-----0
  6
CONTINUOUS
  5
475
 10
450.341522
 20
419.228823
 30
0.0
 11
451.084613
 21
419.971914
 31
0.0
  0
LINE
  8
LC-006-005-----0
  6
CONTINUOUS
  5
476
 10
431.054975
 20
402.770704
 30
0.0
 11
431.754975
 21
403.470704
 31
0.0
  0
LINE
  8
LC-006-005-----0
  6
CONTINUOUS
  5
477
 10
447.300441
 20
419.01617
 30
0.0
 11
448.043533
 21
419.759261
 31
0.0
  0
LINE
  8
LC-006-005-----0
  6
CONTINUOUS
  5
478
 10
431.054975
 20
405.599131
 30
0.0
 11
431.754975
 21
406.299131
 31
0.0
  0
LINE
  8
LC-006-005-----0
  6
CONTINUOUS
  5
479
 10
444.259361
 20
418.803517
 30
0.0
 11
445.002452
 21
419.546608
 31
0.0
  0
LINE
  8
LC-006-005-----0
  6
CONTINUOUS
  5
47A
 10
431.054975
 20
408.427558
 30
0.0
 11
431.754975
 21
409.127558
 31
0.0
  0
LINE
  8
LC-006-005-----0
  6
CONTINUOUS
  5
47B
 10
441.218281
 20
418.590864
 30
0.0
 11
441.961372
 21
419.333955
 31
0.0
  0
LINE
  8
LC-006-005-----0
  6
CONTINUOUS
  5
47C
 10
431.054975
 20
411.255985
 30
0.0
 11
431.754975
 21
411.955985
 31
0.0
  0
LINE
  8
LC-006-005-----0
  6
CONTINUOUS
  5
47D
 10
438.177201
 20
418.378211
 30
0.0
 11
438.920292
 21
419.121302
 31
0.0
  0
LINE
  8
LC-006-005-----0
  6
CONTINUOUS
  5
47E
 10
431.518092
 20
414.54753
 30
0.0
 11
435.551146
 21
418.580583
 31
0.0
  0
ENDBLK
  8
0
  5
47F
  0
BLOCK
  8
0
  5
481
  2
BLK3
 70
    64
 10
0.0
 20
0.0
 30
0.0
  3
BLK3
  0
ENDBLK
  8
0
  5
482
  0
BLOCK
  8
0
  5
484
  2
*D33
 70
    65
 10
0.0
 20
0.0
 30
0.0
  3
*D33
  0
LINE
  8
LC-009-003-MTH-0
  6
CONTINUOUS
  5
485
 10
102.682974
 20
424.87672
 30
0.0
 11
102.682974
 21
526.4
 31
0.0
  0
LINE
  8
LC-009-003-MTH-0
  6
CONTINUOUS
  5
486
 10
602.302188
 20
424.87672
 30
0.0
 11
602.302188
 21
526.4
 31
0.0
  0
LINE
  8
LC-010-003-MTG-0
  6
CONTINUOUS
  5
487
 10
102.682974
 20
509.6
 30
0.0
 11
602.302188
 21
509.6
 31
0.0
  0
LINE
  8
LC-008-003-----0
  6
CONTINUOUS
  5
488
 10
130.44343
 20
513.254733
 30
0.0
 11
102.682974
 21
509.6
 31
0.0
  0
LINE
  8
LC-008-003-----0
  6
CONTINUOUS
  5
489
 10
102.682974
 20
509.6
 30
0.0
 11
130.44343
 21
505.945267
 31
0.0
  0
LINE
  8
LC-008-003-----0
  6
CONTINUOUS
  5
48A
 10
130.44343
 20
505.945267
 30
0.0
 11
130.44343
 21
513.254733
 31
0.0
  0
LINE
  8
LC-008-003-----0
  6
CONTINUOUS
  5
48B
 10
130.505711
 20
512.304503
 30
0.0
 11
109.962974
 21
509.6
 31
0.0
  0
LINE
  8
LC-008-003-----0
  6
CONTINUOUS
  5
48C
 10
109.962974
 20
509.6
 30
0.0
 11
130.505711
 21
506.895497
 31
0.0
  0
LINE
  8
LC-008-003-----0
  6
CONTINUOUS
  5
48D
 10
130.567992
 20
511.354272
 30
0.0
 11
117.242974
 21
509.6
 31
0.0
  0
LINE
  8
LC-008-003-----0
  6
CONTINUOUS
  5
48E
 10
117.242974
 20
509.6
 30
0.0
 11
130.567992
 21
507.845728
 31
0.0
  0
LINE
  8
LC-008-003-----0
  6
CONTINUOUS
  5
48F
 10
130.630274
 20
510.404041
 30
0.0
 11
124.522974
 21
509.6
 31
0.0
  0
LINE
  8
LC-008-003-----0
  6
CONTINUOUS
  5
490
 10
124.522974
 20
509.6
 30
0.0
 11
130.630274
 21
508.795959
 31
0.0
  0
LINE
  8
LC-008-003-----0
  6
CONTINUOUS
  5
491
 10
574.541732
 20
505.945267
 30
0.0
 11
602.302188
 21
509.6
 31
0.0
  0
LINE
  8
LC-008-003-----0
  6
CONTINUOUS
  5
492
 10
602.302188
 20
509.6
 30
0.0
 11
574.541732
 21
513.254733
 31
0.0
  0
LINE
  8
LC-008-003-----0
  6
CONTINUOUS
  5
493
 10
574.541732
 20
513.254733
 30
0.0
 11
574.541732
 21
505.945267
 31
0.0
  0
LINE
  8
LC-008-003-----0
  6
CONTINUOUS
  5
494
 10
574.479451
 20
506.895497
 30
0.0
 11
595.022188
 21
509.6
 31
0.0
  0
LINE
  8
LC-008-003-----0
  6
CONTINUOUS
  5
495
 10
595.022188
 20
509.6
 30
0.0
 11
574.479451
 21
512.304503
 31
0.0
  0
LINE
  8
LC-008-003-----0
  6
CONTINUOUS
  5
496
 10
574.417169
 20
507.845728
 30
0.0
 11
587.742188
 21
509.6
 31
0.0
  0
LINE
  8
LC-008-003-----0
  6
CONTINUOUS
  5
497
 10
587.742188
 20
509.6
 30
0.0
 11
574.417169
 21
511.354272
 31
0.0
  0
LINE
  8
LC-008-003-----0
  6
CONTINUOUS
  5
498
 10
574.354888
 20
508.795959
 30
0.0
 11
580.462188
 21
509.6
 31
0.0
  0
LINE
  8
LC-008-003-----0
  6
CONTINUOUS
  5
499
 10
580.462188
 20
509.6
 30
0.0
 11
574.354888
 21
510.404041
 31
0.0
  0
TEXT
  8
LC-008-003-----0
  6
CONTINUOUS
 62
     8
  5
49A
 10
318.743103
 20
517.427554
 30
0.0
 40
28.0
  1
Ø500
 51
15.0
  7
LC-TXTSTYLE-150-400-0-0-D0
 72
     1
 11
356.840741
 21
517.427554
 31
0.0
  0
ENDBLK
  8
0
  5
49B
  0
BLOCK
  8
0
  5
49D
  2
*X34
 70
    65
 10
431.879847
 20
398.587893
 30
0.0
  3
*X34
  0
LINE
  8
LC-006-005-----0
  6
CONTINUOUS
  5
49E
 10
438.185873
 20
398.587893
 30
0.0
 11
439.152949
 21
399.55497
 31
0.0
  0
LINE
  8
LC-006-005-----0
  6
CONTINUOUS
  5
49F
 10
436.896335
 20
400.126782
 30
0.0
 11
439.152949
 21
402.383397
 31
0.0
  0
LINE
  8
LC-006-005-----0
  6
CONTINUOUS
  5
4A0
 10
442.332512
 20
405.56296
 30
0.0
 11
444.012274
 21
407.242722
 31
0.0
  0
LINE
  8
LC-006-005-----0
  6
CONTINUOUS
  5
4A1
 10
436.021554
 20
402.080428
 30
0.0
 11
439.152949
 21
405.211824
 31
0.0
  0
LINE
  8
LC-006-005-----0
  6
CONTINUOUS
  5
4A2
 10
440.870892
 20
406.929767
 30
0.0
 11
444.012274
 21
410.071149
 31
0.0
  0
LINE
  8
LC-006-005-----0
  6
CONTINUOUS
  5
4A3
 10
431.990712
 20
400.878014
 30
0.0
 11
439.152949
 21
408.040251
 31
0.0
  0
LINE
  8
LC-006-005-----0
  6
CONTINUOUS
  5
4A4
 10
440.870892
 20
409.758194
 30
0.0
 11
444.012274
 21
412.899576
 31
0.0
  0
LINE
  8
LC-006-005-----0
  6
CONTINUOUS
  5
4A5
 10
436.8079
 20
408.523629
 30
0.0
 11
439.152949
 21
410.868678
 31
0.0
  0
LINE
  8
LC-006-005-----0
  6
CONTINUOUS
  5
4A6
 10
439.724583
 20
411.440311
 30
0.0
 11
442.478189
 21
414.193918
 31
0.0
  0
LINE
  8
LC-006-005-----0
  6
CONTINUOUS
  5
4A7
 10
433.885956
 20
408.430112
 30
0.0
 11
439.43718
 21
413.981336
 31
0.0
  0
ENDBLK
  8
0
  5
4A8
  0
BLOCK
  8
0
  5
4AA
  2
BLK4
 70
    64
 10
0.0
 20
0.0
 30
0.0
  3
BLK4
  0
ENDBLK
  8
0
  5
4AB
  0
BLOCK
  8
0
  5
4AD
  2
*X36
 70
    65
 10
260.949411
 20
398.587893
 30
0.0
  3
*X36
  0
LINE
  8
LC-006-005-----0
  6
CONTINUOUS
  5
4AE
 10
271.245078
 20
401.352726
 30
0.0
 11
272.133774
 21
402.241422
 31
0.0
  0
LINE
  8
LC-006-005-----0
  6
CONTINUOUS
  5
4AF
 10
265.808736
 20
398.744811
 30
0.0
 11
268.065324
 21
401.001399
 31
0.0
  0
LINE
  8
LC-006-005-----0
  6
CONTINUOUS
  5
4B0
 10
269.146486
 20
402.082561
 30
0.0
 11
270.768917
 21
403.704992
 31
0.0
  0
LINE
  8
LC-006-005-----0
  6
CONTINUOUS
  5
4B1
 10
265.808736
 20
401.573238
 30
0.0
 11
269.40406
 21
405.168562
 31
0.0
  0
LINE
  8
LC-006-005-----0
  6
CONTINUOUS
  5
4B2
 10
272.241376
 20
408.005878
 30
0.0
 11
272.789456
 21
408.553958
 31
0.0
  0
LINE
  8
LC-006-005-----0
  6
CONTINUOUS
  5
4B3
 10
265.808736
 20
404.401665
 30
0.0
 11
268.081203
 21
406.674132
 31
0.0
  0
LINE
  8
LC-006-005-----0
  6
CONTINUOUS
  5
4B4
 10
270.167669
 20
408.760598
 30
0.0
 11
271.424599
 21
410.017528
 31
0.0
  0
LINE
  8
LC-006-005-----0
  6
CONTINUOUS
  5
4B5
 10
264.042756
 20
405.464112
 30
0.0
 11
264.090793
 21
405.512149
 31
0.0
  0
LINE
  8
LC-006-005-----0
  6
CONTINUOUS
  5
4B6
 10
265.808736
 20
407.230092
 30
0.0
 11
270.059742
 21
411.481098
 31
0.0
  0
LINE
  8
LC-006-005-----0
  6
CONTINUOUS
  5
4B7
 10
261.497672
 20
405.747455
 30
0.0
 11
264.090793
 21
408.340576
 31
0.0
  0
LINE
  8
LC-006-005-----0
  6
CONTINUOUS
  5
4B8
 10
265.808736
 20
410.05852
 30
0.0
 11
268.694885
 21
412.944669
 31
0.0
  0
LINE
  8
LC-006-005-----0
  6
CONTINUOUS
  5
4B9
 10
260.949411
 20
408.027622
 30
0.0
 11
264.090793
 21
411.169004
 31
0.0
  0
LINE
  8
LC-006-005-----0
  6
CONTINUOUS
  5
4BA
 10
264.362101
 20
411.440311
 30
0.0
 11
266.81305
 21
413.89126
 31
0.0
  0
LINE
  8
LC-006-005-----0
  6
CONTINUOUS
  5
4BB
 10
260.949411
 20
410.856049
 30
0.0
 11
264.169425
 21
414.076063
 31
0.0
  0
LINE
  8
LC-006-005-----0
  6
CONTINUOUS
  5
4BC
 10
260.949411
 20
413.684476
 30
0.0
 11
261.525801
 21
414.260866
 31
0.0
  0
ENDBLK
  8
0
  5
4BD
  0
BLOCK
  8
0
  5
4BF
  2
BLK5
 70
    64
 10
0.0
 20
0.0
 30
0.0
  3
BLK5
  0
ENDBLK
  8
0
  5
4C0
  0
ENDSEC
  0
SECTION
  2
ENTITIES
  0
VIEWPORT
  8
LC-000
  5
683
 67
     1
 68
     1
 10
420.0
 20
297.0
 30
0.0
 40
840.0
 41
594.0
 69
     1
1001
ACAD
1000
MVIEW
1002
{
1070
    16
1010
0.0
1020
0.0
1030
0.0
1010
0.0
1020
0.0
1030
1.0
1040
0.0
1040
594.0
1040
420.0
1040
297.0
1040
50.0
1040
0.0
1040
0.0
1070
     0
1070
   100
1070
     1
1070
     1
1070
     0
1070
     0
1070
     0
1070
     0
1040
0.0
1040
0.0
1040
0.0
1040
1.0
1040
1.0
1040
0.0
1040
0.0
1070
     0
1002
{
1002
}
1002
}
  0
VIEWPORT
  8
0
  5
684
 67
     1
 68
     1
 10
0.0
 20
0.0
 30
0.0
 40
0.0
 41
0.0
 69
     1
1001
ACAD
1000
MVIEW
1002
{
1070
    16
1010
0.0
1020
0.0
1030
0.0
1010
0.0
1020
0.0
1030
1.0
1040
0.0
1040
594.0
1040
0.0
1040
0.0
1040
50.0
1040
0.0
1040
0.0
1070
     0
1070
   100
1070
     0
1070
     1
1070
     0
1070
     0
1070
     0
1070
     0
1040
0.0
1040
0.0
1040
0.0
1040
0.5
1040
0.5
1040
0.5
1040
0.5
1070
     0
1002
{
1002
}
1002
}
  0
INSERT
  8
0
  5
4C1
  2
*X0
 10
372.478454
 20
248.320578
 30
0.0
  0
INSERT
  8
0
  5
4C2
  2
*X1
 10
202.326708
 20
248.322159
 30
0.0
  0
INSERT
  8
0
  5
4C4
  2
BLK1
 10
0.0
 20
0.0
 30
0.0
  0
INSERT
  8
0
  5
4C5
  2
*X3
 10
310.980069
 20
328.810189
 30
0.0
  0
INSERT
  8
0
  5
4C6
  2
BLK2
 10
0.0
 20
0.0
 30
0.0
  0
DIMENSION
  8
0
  5
4C7
  2
*D5
 10
352.477132
 20
470.4
 30
0.0
 11
352.477132
 21
470.4
 31
0.0
  1
%%c300
 13
202.326708
 23
417.107407
 33
0.0
 14
502.627556
 24
417.107407
 34
0.0
  3
LC-DIM-L-0140-02-02
  0
DIMENSION
  8
0
  5
4C8
  2
*D6
 10
352.480975
 20
200.0
 30
0.0
 11
352.480975
 21
200.0
 31
0.0
  1
DN70
 13
314.981094
 23
251.808374
 33
0.0
 14
389.980856
 24
251.808374
 34
0.0
  3
LC-DIM-L-0140-02-02
  0
DIMENSION
  8
0
  5
4C9
  2
*D7
 10
469.35276
 20
235.2
 30
0.0
 11
469.35276
 21
235.2
 31
0.0
  1
DN50
 13
327.480995
 23
257.723634
 33
0.0
 14
377.480996
 24
257.723634
 34
0.0
  3
LC-DIM-L-0140-02-02
  0
DIMENSION
  8
0
  5
4CA
  2
*D8
 10
200.0
 20
362.214783
 30
0.0
 11
200.0
 21
362.214783
 31
0.0
  1
110
 13
202.326708
 23
417.107407
 33
0.0
 14
284.500072
 24
307.32216
 34
0.0
 50
90.0
  3
LC-DIM-L-0140-02-02
  0
DIMENSION
  8
0
  5
4CB
  2
*D9
 10
240.0
 20
353.56019
 30
0.0
 11
240.0
 21
353.56019
 31
0.0
  1
50
 13
310.980073
 23
328.810189
 33
0.0
 14
321.222355
 24
378.310192
 34
0.0
 50
90.0
  3
LC-DIM-L-0140-02-02
  0
DIMENSION
  8
0
  5
4CC
  2
*D10
 10
352.477132
 20
431.2
 30
0.0
 11
352.477132
 21
431.2
 31
0.0
  1
%%c190
 13
257.976094
 23
407.856919
 33
0.0
 14
446.978171
 24
407.856919
 34
0.0
  3
LC-DIM-L-0140-02-02
  0
DIMENSION
  8
0
  5
4CD
  2
*D11
 10
360.970229
 20
156.8
 30
0.0
 11
360.970229
 21
156.8
 31
0.0
  1
%%c160
 13
272.547938
 23
319.274294
 33
0.0
 14
432.414011
 24
210.276
 34
0.0
  3
LC-DIM-L-0140-02-02
  0
INSERT
  8
0
  5
4CE
  2
*X12
 10
243.130688
 20
388.966237
 30
0.0
  0
INSERT
  8
0
  5
4CF
  2
*X13
 10
102.682974
 20
420.17672
 30
0.0
  0
INSERT
  8
0
  5
4D0
  2
*X14
 10
122.682974
 20
420.17672
 30
0.0
  0
INSERT
  8
0
  5
4D1
  2
*X15
 10
142.682974
 20
420.17672
 30
0.0
  0
INSERT
  8
0
  5
4D2
  2
*X16
 10
162.682974
 20
420.17672
 30
0.0
  0
INSERT
  8
0
  5
4D3
  2
*X17
 10
182.682974
 20
420.17672
 30
0.0
  0
INSERT
  8
0
  5
4D4
  2
*X18
 10
202.682974
 20
419.401208
 30
0.0
  0
INSERT
  8
0
  5
4D5
  2
*X19
 10
222.682974
 20
418.014914
 30
0.0
  0
INSERT
  8
0
  5
4D6
  2
*X20
 10
228.870752
 20
414.557265
 30
0.0
  0
INSERT
  8
0
  5
4D7
  2
*X21
 10
420.992581
 20
395.566904
 30
0.0
  0
INSERT
  8
0
  5
4D8
  2
*X22
 10
273.992581
 20
395.566904
 30
0.0
  0
INSERT
  8
0
  5
4D9
  2
*X23
 10
592.302188
 20
420.17672
 30
0.0
  0
INSERT
  8
0
  5
4DA
  2
*X24
 10
572.302188
 20
420.17672
 30
0.0
  0
INSERT
  8
0
  5
4DB
  2
*X25
 10
552.302188
 20
420.17672
 30
0.0
  0
INSERT
  8
0
  5
4DC
  2
*X26
 10
532.302188
 20
420.17672
 30
0.0
  0
INSERT
  8
0
  5
4DD
  2
*X27
 10
512.302188
 20
420.17672
 30
0.0
  0
INSERT
  8
0
  5
4DE
  2
*X28
 10
492.302188
 20
419.401208
 30
0.0
  0
INSERT
  8
0
  5
4DF
  2
*X29
 10
472.302188
 20
418.014914
 30
0.0
  0
INSERT
  8
0
  5
4E0
  2
*X30
 10
429.391402
 20
414.557265
 30
0.0
  0
INSERT
  8
0
  5
4E1
  2
*X31
 10
424.754975
 20
388.966237
 30
0.0
  0
INSERT
  8
0
  5
4E2
  2
BLK3
 10
0.0
 20
0.0
 30
0.0
  0
DIMENSION
  8
0
  5
4E3
  2
*D33
 10
352.492581
 20
509.6
 30
0.0
 11
352.492581
 21
509.6
 31
0.0
  1
%%c500
 13
102.682974
 23
424.87672
 33
0.0
 14
602.302188
 24
424.87672
 34
0.0
  3
LC-DIM-L-0140-02-02
  0
INSERT
  8
0
  5
4E4
  2
*X34
 10
431.879847
 20
398.587893
 30
0.0
  0
INSERT
  8
0
  5
4E5
  2
BLK4
 10
0.0
 20
0.0
 30
0.0
  0
INSERT
  8
0
  5
4E6
  2
*X36
 10
260.949411
 20
398.587893
 30
0.0
  0
INSERT
  8
0
  5
4E7
  2
BLK5
 10
0.0
 20
0.0
 30
0.0
  0
LINE
  8
LC-001-103-D00-1
  6
CONTINUOUS
  5
4E9
 10
377.480996
 20
257.723634
 30
0.0
 11
376.546902
 21
254.237593
 31
0.0
  0
ARC
  8
LC-002-002-----0
  6
CONTINUOUS
  5
4EB
 10
420.461876
 20
319.274441
 30
0.0
 40
11.952134
 50
269.999963
 51
0.0
  0
LINE
  8
LC-002-002-----0
  6
CONTINUOUS
  5
4EC
 10
386.889537
 20
307.322346
 30
0.0
 11
386.889537
 21
307.375049
 31
0.0
  0
ARC
  8
LC-003-002-RND-0
  6
CONTINUOUS
  5
4EE
 10
204.326708
 20
417.958
 30
0.0
 40
2.0
 50
86.000003
 51
180.0
  0
LINE
  8
LC-002-002-----0
  6
CONTINUOUS
  5
4EF
 10
389.980855
 20
307.322336
 30
0.0
 11
389.980856
 21
251.808374
 31
0.0
  0
LINE
  8
LC-002-002-----0
  6
CONTINUOUS
  5
4F0
 10
318.064886
 20
310.310193
 30
0.0
 11
319.110698
 21
310.310193
 31
0.0
  0
LINE
  8
LC-002-002-----0
  6
CONTINUOUS
  5
4F1
 10
389.980856
 20
251.808374
 30
0.0
 11
389.046775
 21
248.322336
 31
0.0
  0
LINE
  8
LC-002-002-----0
  6
CONTINUOUS
  5
4F2
 10
314.981093
 20
307.32216
 30
0.0
 11
314.981094
 21
251.808374
 31
0.0
  0
LINE
  8
LC-002-002-----0
  6
CONTINUOUS
  5
4F3
 10
314.981094
 20
251.808374
 30
0.0
 11
315.915222
 21
248.322335
 31
0.0
  0
LINE
  8
LC-002-002-----0
  6
CONTINUOUS
  5
4F4
 10
386.889539
 20
310.310193
 30
0.0
 11
386.889539
 21
310.310193
 31
0.0
  0
LINE
  8
LC-002-002-----0
  6
CONTINUOUS
  5
4F5
 10
266.07524
 20
404.966239
 30
0.0
 11
266.07524
 21
411.440311
 31
0.0
  0
LINE
  8
LC-002-002-----0
  6
CONTINUOUS
  5
4F6
 10
264.083218
 20
411.440311
 30
0.0
 11
266.07524
 21
411.440311
 31
0.0
  0
LINE
  8
LC-002-002-----0
  6
CONTINUOUS
  5
4F7
 10
438.879024
 20
404.966239
 30
0.0
 11
438.879024
 21
411.440311
 31
0.0
  0
LINE
  8
LC-002-002-----0
  6
CONTINUOUS
  5
4F8
 10
440.871046
 20
411.440311
 30
0.0
 11
438.879024
 21
411.440311
 31
0.0
  0
LINE
  8
LC-002-002-----0
  6
CONTINUOUS
  5
4F9
 10
440.871046
 20
405.464244
 30
0.0
 11
440.871046
 21
411.440311
 31
0.0
  0
LINE
  8
LC-002-002-----0
  6
CONTINUOUS
  5
4FA
 10
264.083218
 20
405.464244
 30
0.0
 11
264.083218
 21
411.440311
 31
0.0
  0
LINE
  8
LC-002-002-----0
  6
CONTINUOUS
  5
4FB
 10
262.091196
 20
405.464244
 30
0.0
 11
264.083218
 21
405.464244
 31
0.0
  0
LINE
  8
LC-002-002-----0
  6
CONTINUOUS
  5
4FC
 10
275.286968
 20
319.274294
 30
0.0
 11
275.286968
 21
384.793458
 31
0.0
  0
ARC
  8
LC-002-002-----0
  6
CONTINUOUS
  5
4FD
 10
284.500072
 20
319.274294
 30
0.0
 40
11.952134
 50
180.0
 51
270.0
  0
LINE
  8
LC-002-002-----0
  6
CONTINUOUS
  5
4FE
 10
386.889503
 20
248.322336
 30
0.0
 11
386.889528
 21
307.322336
 31
0.0
  0
LINE
  8
LC-002-002-----0
  6
CONTINUOUS
  5
4FF
 10
389.046775
 20
248.322336
 30
0.0
 11
352.477259
 21
248.322351
 31
0.0
  0
LINE
  8
LC-002-002-----0
  6
CONTINUOUS
  5
500
 10
274.739162
 20
393.209753
 30
0.0
 11
274.938365
 21
393.209753
 31
0.0
  0
LINE
  8
LC-002-002-----0
  6
CONTINUOUS
  5
501
 10
266.073865
 20
394.504568
 30
0.0
 11
266.073865
 21
411.436758
 31
0.0
  0
LINE
  8
LC-002-002-----0
  6
CONTINUOUS
  5
502
 10
442.863068
 20
405.464244
 30
0.0
 11
440.871046
 21
405.464244
 31
0.0
  0
LINE
  8
LC-002-002-----0
  6
CONTINUOUS
  5
503
 10
274.739162
 20
389.723714
 30
0.0
 11
274.739162
 21
391.217731
 31
0.0
  0
LINE
  8
LC-002-002-----0
  6
CONTINUOUS
  5
504
 10
274.739162
 20
386.287475
 30
0.0
 11
274.739162
 21
386.785481
 31
0.0
  0
LINE
  8
LC-002-002-----0
  6
CONTINUOUS
  5
505
 10
274.739162
 20
384.793458
 30
0.0
 11
274.739162
 21
387.731691
 31
0.0
  0
LINE
  8
LC-002-002-----0
  6
CONTINUOUS
  5
506
 10
274.739162
 20
384.793458
 30
0.0
 11
310.98008
 21
384.793458
 31
0.0
  0
LINE
  8
LC-002-002-----0
  6
CONTINUOUS
  5
507
 10
274.739162
 20
387.731691
 30
0.0
 11
274.938365
 21
387.731691
 31
0.0
  0
LINE
  8
LC-002-002-----0
  6
CONTINUOUS
  5
508
 10
275.735174
 20
388.5285
 30
0.0
 11
275.735174
 21
388.926905
 31
0.0
  0
LINE
  8
LC-002-002-----0
  6
CONTINUOUS
  5
509
 10
275.735174
 20
392.01454
 30
0.0
 11
275.735174
 21
392.412944
 31
0.0
  0
LINE
  8
LC-002-002-----0
  6
CONTINUOUS
  5
50A
 10
274.739162
 20
391.217731
 30
0.0
 11
274.938365
 21
391.217731
 31
0.0
  0
ARC
  8
LC-002-002-----0
  6
CONTINUOUS
  5
50B
 10
274.938365
 20
392.412944
 30
0.0
 40
0.796809
 50
0.0
 51
90.0
  0
ARC
  8
LC-002-002-----0
  6
CONTINUOUS
  5
50C
 10
274.938365
 20
388.926905
 30
0.0
 40
0.796809
 50
0.0
 51
90.0
  0
LINE
  8
LC-002-002-----0
  6
CONTINUOUS
  5
50D
 10
242.537606
 20
415.354864
 30
0.0
 11
260.644823
 21
414.027854
 31
0.0
  0
LINE
  8
LC-002-002-----0
  6
CONTINUOUS
  5
50E
 10
262.038988
 20
405.460691
 30
0.0
 11
264.081842
 21
405.460691
 31
0.0
  0
ARC
  8
LC-002-002-----0
  6
CONTINUOUS
  5
50F
 10
274.938365
 20
388.5285
 30
0.0
 40
0.796809
 50
270.0
 51
0.0
  0
ARC
  8
LC-002-002-----0
  6
CONTINUOUS
  5
510
 10
274.938365
 20
392.01454
 30
0.0
 40
0.796809
 50
270.0
 51
0.0
  0
LINE
  8
LC-002-002-----0
  6
CONTINUOUS
  5
511
 10
429.667296
 20
319.274294
 30
0.0
 11
429.667296
 21
384.793458
 31
0.0
  0
ARC
  8
LC-002-002-----0
  6
CONTINUOUS
  5
512
 10
266.57187
 20
394.504568
 30
0.0
 40
0.498006
 50
180.0
 51
270.0
  0
LINE
  8
LC-002-002-----0
  6
CONTINUOUS
  5
513
 10
264.081842
 20
405.460691
 30
0.0
 11
264.081842
 21
411.436758
 31
0.0
  0
LINE
  8
LC-002-002-----0
  6
CONTINUOUS
  5
514
 10
204.466221
 20
419.953128
 30
0.0
 11
236.667532
 21
417.701395
 31
0.0
  0
ARC
  8
LC-002-002-----0
  6
CONTINUOUS
  5
515
 10
262.038988
 20
406.456702
 30
0.0
 40
0.996011
 50
183.0
 51
270.0
  0
LINE
  8
LC-002-002-----0
  6
CONTINUOUS
  5
516
 10
202.326708
 20
417.107407
 30
0.0
 11
235.517163
 21
414.786507
 31
0.0
  0
LINE
  8
LC-002-002-----0
  6
CONTINUOUS
  5
517
 10
260.644823
 20
414.027854
 30
0.0
 11
261.044342
 21
406.404575
 31
0.0
  0
LINE
  8
LC-002-002-----0
  6
CONTINUOUS
  5
518
 10
202.326708
 20
417.958
 30
0.0
 11
202.326708
 21
417.107407
 31
0.0
  0
LINE
  8
LC-002-002-----0
  6
CONTINUOUS
  5
519
 10
430.215102
 20
393.209753
 30
0.0
 11
430.015899
 21
393.209753
 31
0.0
  0
LINE
  8
LC-002-002-----0
  6
CONTINUOUS
  5
51A
 10
257.868416
 20
409.911523
 30
0.0
 11
258.083771
 21
405.802315
 31
0.0
  0
LINE
  8
LC-002-002-----0
  6
CONTINUOUS
  5
51B
 10
235.517163
 20
414.786507
 30
0.0
 11
241.387237
 21
412.439975
 31
0.0
  0
ARC
  8
LC-003-002-RND-0
  6
CONTINUOUS
  5
51C
 10
500.627556
 20
417.958
 30
0.0
 40
2.0
 50
0.0
 51
93.999996
  0
LINE
  8
LC-002-002-----0
  6
CONTINUOUS
  5
51D
 10
318.064886
 20
248.322159
 30
0.0
 11
318.064886
 21
307.375027
 31
0.0
  0
LINE
  8
LC-002-002-----0
  6
CONTINUOUS
  5
51E
 10
274.739162
 20
389.723714
 30
0.0
 11
274.938365
 21
389.723714
 31
0.0
  0
LINE
  8
LC-002-002-----0
  6
CONTINUOUS
  5
51F
 10
315.915269
 20
248.322159
 30
0.0
 11
352.477133
 21
248.322159
 31
0.0
  0
LINE
  8
LC-002-002-----0
  6
CONTINUOUS
  5
520
 10
272.547938
 20
319.274294
 30
0.0
 11
272.547938
 21
381.844898
 31
0.0
  0
LINE
  8
LC-002-002-----0
  6
CONTINUOUS
  5
521
 10
438.880399
 20
394.504568
 30
0.0
 11
438.880399
 21
411.436758
 31
0.0
  0
LINE
  8
LC-002-002-----0
  6
CONTINUOUS
  5
522
 10
430.215102
 20
389.723714
 30
0.0
 11
430.215102
 21
391.217731
 31
0.0
  0
LINE
  8
LC-002-002-----0
  6
CONTINUOUS
  5
523
 10
430.215102
 20
386.287475
 30
0.0
 11
430.215102
 21
386.785481
 31
0.0
  0
LINE
  8
LC-002-002-----0
  6
CONTINUOUS
  5
524
 10
430.215102
 20
384.793458
 30
0.0
 11
430.215102
 21
387.731691
 31
0.0
  0
ARC
  8
LC-002-002-----0
  6
CONTINUOUS
  5
525
 10
284.251069
 20
319.274294
 30
0.0
 40
8.964101
 50
180.0
 51
270.0
  0
ARC
  8
LC-004-001-RND-0
  6
CONTINUOUS
  5
527
 10
256.376446
 20
409.833333
 30
0.0
 40
1.494017
 50
3.0
 51
86.000003
  0
LINE
  8
LC-002-002-----0
  6
CONTINUOUS
  5
528
 10
430.215102
 20
384.793458
 30
0.0
 11
393.980276
 21
384.793458
 31
0.0
  0
LINE
  8
LC-002-002-----0
  6
CONTINUOUS
  5
529
 10
430.215102
 20
387.731691
 30
0.0
 11
430.015899
 21
387.731691
 31
0.0
  0
LINE
  8
LC-002-002-----0
  6
CONTINUOUS
  5
52A
 10
429.219091
 20
388.5285
 30
0.0
 11
429.219091
 21
388.926905
 31
0.0
  0
LINE
  8
LC-002-002-----0
  6
CONTINUOUS
  5
52B
 10
429.219091
 20
392.01454
 30
0.0
 11
429.219091
 21
392.412944
 31
0.0
  0
LINE
  8
LC-002-002-----0
  6
CONTINUOUS
  5
52C
 10
430.215102
 20
391.217731
 30
0.0
 11
430.015899
 21
391.217731
 31
0.0
  0
LINE
  8
LC-002-002-----0
  6
CONTINUOUS
  5
52D
 10
461.837461
 20
415.3119
 30
0.0
 11
444.309442
 21
414.027854
 31
0.0
  0
ARC
  8
LC-002-002-----0
  6
CONTINUOUS
  5
52E
 10
430.015899
 20
392.412944
 30
0.0
 40
0.796809
 50
90.0
 51
180.0
  0
ARC
  8
LC-002-002-----0
  6
CONTINUOUS
  5
52F
 10
430.015899
 20
388.926905
 30
0.0
 40
0.796809
 50
90.0
 51
180.0
  0
LINE
  8
LC-002-002-----0
  6
CONTINUOUS
  5
530
 10
442.915277
 20
405.460691
 30
0.0
 11
440.872422
 21
405.460691
 31
0.0
  0
LINE
  8
LC-002-002-----0
  6
CONTINUOUS
  5
531
 10
440.872422
 20
405.460691
 30
0.0
 11
440.872422
 21
411.436758
 31
0.0
  0
ARC
  8
LC-002-002-----0
  6
CONTINUOUS
  5
532
 10
430.015899
 20
388.5285
 30
0.0
 40
0.796809
 50
180.0
 51
270.0
  0
ARC
  8
LC-002-002-----0
  6
CONTINUOUS
  5
533
 10
430.015899
 20
392.01454
 30
0.0
 40
0.796809
 50
180.0
 51
270.0
  0
LINE
  8
LC-002-002-----0
  6
CONTINUOUS
  5
534
 10
500.488043
 20
419.953128
 30
0.0
 11
469.010323
 21
417.751993
 31
0.0
  0
ARC
  8
LC-002-002-----0
  6
CONTINUOUS
  5
535
 10
438.382394
 20
394.504568
 30
0.0
 40
0.498006
 50
270.0
 51
0.0
  0
LINE
  8
LC-002-002-----0
  6
CONTINUOUS
  5
536
 10
502.627556
 20
417.107407
 30
0.0
 11
470.160693
 21
414.837105
 31
0.0
  0
LINE
  8
LC-002-002-----0
  6
CONTINUOUS
  5
537
 10
444.309442
 20
414.027854
 30
0.0
 11
443.909922
 21
406.404575
 31
0.0
  0
ARC
  8
LC-002-002-----0
  6
CONTINUOUS
  5
538
 10
442.915277
 20
406.456702
 30
0.0
 40
0.996011
 50
270.0
 51
357.0
  0
LINE
  8
LC-002-002-----0
  6
CONTINUOUS
  5
539
 10
502.627556
 20
417.958
 30
0.0
 11
502.627556
 21
417.107407
 31
0.0
  0
LINE
  8
LC-002-002-----0
  6
CONTINUOUS
  5
53A
 10
447.085848
 20
409.911523
 30
0.0
 11
446.870494
 21
405.802315
 31
0.0
  0
LINE
  8
LC-002-002-----0
  6
CONTINUOUS
  5
53B
 10
470.160693
 20
414.837105
 30
0.0
 11
464.306974
 21
412.491209
 31
0.0
  0
LINE
  8
LC-002-002-----0
  6
CONTINUOUS
  5
53C
 10
430.215102
 20
389.723714
 30
0.0
 11
430.015899
 21
389.723714
 31
0.0
  0
LINE
  8
LC-002-002-----0
  6
CONTINUOUS
  5
53D
 10
441.61943
 20
395.002573
 30
0.0
 11
432.414011
 21
381.855871
 31
0.0
  0
LINE
  8
LC-002-002-----0
  6
CONTINUOUS
  5
53E
 10
443.886555
 20
402.970663
 30
0.0
 11
443.611452
 21
402.970663
 31
0.0
  0
LINE
  8
LC-002-002-----0
  6
CONTINUOUS
  5
53F
 10
263.334834
 20
395.002573
 30
0.0
 11
272.547938
 21
381.844898
 31
0.0
  0
LINE
  8
LC-005-001-----0
  6
CONTINUOUS
  5
541
 10
464.306974
 20
412.491209
 30
0.0
 11
448.4736
 21
411.32371
 31
0.0
  0
ARC
  8
LC-002-002-----0
  6
CONTINUOUS
  5
542
 10
420.703195
 20
319.274294
 30
0.0
 40
8.964101
 50
270.0
 51
0.0
  0
ARC
  8
LC-004-001-RND-0
  6
CONTINUOUS
  5
543
 10
448.577818
 20
409.833333
 30
0.0
 40
1.494017
 50
93.999997
 51
177.0
  0
LINE
  8
LC-002-002-----0
  6
CONTINUOUS
  5
544
 10
261.067709
 20
402.970663
 30
0.0
 11
261.342812
 21
402.970663
 31
0.0
  0
LINE
  8
LC-005-001-----0
  6
CONTINUOUS
  5
545
 10
241.387237
 20
412.439975
 30
0.0
 11
256.480665
 21
411.32371
 31
0.0
  0
LINE
  8
LC-002-002-----0
  6
CONTINUOUS
  5
546
 10
263.334834
 20
395.002573
 30
0.0
 11
263.334834
 21
400.97864
 31
0.0
  0
LINE
  8
LC-002-002-----0
  6
CONTINUOUS
  5
547
 10
266.57187
 20
394.006562
 30
0.0
 11
273.942353
 21
394.006562
 31
0.0
  0
LINE
  8
LC-002-002-----0
  6
CONTINUOUS
  5
548
 10
266.073865
 20
395.500579
 30
0.0
 11
266.073865
 21
396.794778
 31
0.0
  0
LINE
  8
LC-002-002-----0
  6
CONTINUOUS
  5
549
 10
441.61943
 20
395.002573
 30
0.0
 11
441.61943
 21
400.97864
 31
0.0
  0
ARC
  8
LC-002-002-----0
  6
CONTINUOUS
  5
54A
 10
261.067709
 20
405.958696
 30
0.0
 40
2.988034
 50
183.0
 51
270.0
  0
ARC
  8
LC-002-002-----0
  6
CONTINUOUS
  5
54B
 10
261.342812
 20
400.97864
 30
0.0
 40
1.992022
 50
0.0
 51
90.0
  0
LINE
  8
LC-002-002-----0
  6
CONTINUOUS
  5
54C
 10
264.081842
 20
411.436758
 30
0.0
 11
266.073865
 21
411.436758
 31
0.0
  0
LINE
  8
LC-002-002-----0
  6
CONTINUOUS
  5
54D
 10
274.739162
 20
386.038472
 30
0.0
 11
274.739162
 21
386.536478
 31
0.0
  0
LINE
  8
LC-002-002-----0
  6
CONTINUOUS
  5
54E
 10
266.073865
 20
395.500579
 30
0.0
 11
266.073865
 21
396.794778
 31
0.0
  0
ARC
  8
LC-002-002-----0
  6
CONTINUOUS
  5
54F
 10
443.886555
 20
405.958696
 30
0.0
 40
2.988034
 50
270.0
 51
357.0
  0
LINE
  8
LC-002-002-----0
  6
CONTINUOUS
  5
550
 10
438.382394
 20
394.006562
 30
0.0
 11
431.011911
 21
394.006562
 31
0.0
  0
ARC
  8
LC-002-002-----0
  6
CONTINUOUS
  5
551
 10
443.611452
 20
400.97864
 30
0.0
 40
1.992022
 50
90.0
 51
180.0
  0
LINE
  8
LC-002-002-----0
  6
CONTINUOUS
  5
552
 10
274.739162
 20
386.237675
 30
0.0
 11
274.739162
 21
386.73568
 31
0.0
  0
LINE
  8
LC-002-002-----0
  6
CONTINUOUS
  5
553
 10
438.880399
 20
395.500579
 30
0.0
 11
438.880399
 21
396.794778
 31
0.0
  0
LINE
  8
LC-002-002-----0
  6
CONTINUOUS
  5
554
 10
440.872422
 20
411.436758
 30
0.0
 11
438.880399
 21
411.436758
 31
0.0
  0
LINE
  8
LC-002-002-----0
  6
CONTINUOUS
  5
555
 10
430.215102
 20
386.038472
 30
0.0
 11
430.215102
 21
386.536478
 31
0.0
  0
LINE
  8
LC-002-002-----0
  6
CONTINUOUS
  5
556
 10
236.667532
 20
417.701395
 30
0.0
 11
242.537606
 21
415.354864
 31
0.0
  0
LINE
  8
LC-002-002-----0
  6
CONTINUOUS
  5
557
 10
438.880399
 20
395.500579
 30
0.0
 11
438.880399
 21
396.794778
 31
0.0
  0
LINE
  8
LC-002-002-----0
  6
CONTINUOUS
  5
558
 10
430.215102
 20
386.237675
 30
0.0
 11
430.215102
 21
386.73568
 31
0.0
  0
LINE
  8
LC-002-002-----0
  6
CONTINUOUS
  5
559
 10
469.010323
 20
417.751993
 30
0.0
 11
461.837461
 21
415.3119
 31
0.0
  0
LINE
  8
LC-002-002-----0
  6
CONTINUOUS
  5
55A
 10
420.461868
 20
307.322307
 30
0.0
 11
389.980855
 21
307.322336
 31
0.0
  0
LINE
  8
LC-002-002-----0
  6
CONTINUOUS
  5
55B
 10
314.981093
 20
307.32216
 30
0.0
 11
284.500072
 21
307.32216
 31
0.0
  0
ARC
  8
LC-002-002-----0
  6
CONTINUOUS
  5
55C
 10
273.942353
 20
393.209753
 30
0.0
 40
0.796809
 50
0.0
 51
90.0
  0
LINE
  8
LC-002-002-----0
  6
CONTINUOUS
  5
55D
 10
284.251069
 20
310.310193
 30
0.0
 11
318.064886
 21
310.310193
 31
0.0
  0
LINE
  8
LC-002-002-----0
  6
CONTINUOUS
  5
55E
 10
274.739162
 20
389.723714
 30
0.0
 11
274.938365
 21
389.723714
 31
0.0
  0
ARC
  8
LC-002-002-----0
  6
CONTINUOUS
  5
55F
 10
431.011911
 20
393.209753
 30
0.0
 40
0.796809
 50
90.0
 51
180.0
  0
LINE
  8
LC-002-002-----0
  6
CONTINUOUS
  5
560
 10
420.703195
 20
310.310193
 30
0.0
 11
385.843695
 21
310.310193
 31
0.0
  0
LINE
  8
LC-001-103-D00-1
  6
CONTINUOUS
  5
561
 10
376.546902
 20
254.237593
 30
0.0
 11
374.389621
 21
254.237593
 31
0.0
  0
LINE
  8
LC-001-103-D00-1
  6
CONTINUOUS
  5
562
 10
374.389621
 20
254.237593
 30
0.0
 11
374.389703
 21
306.310193
 31
0.0
  0
LINE
  8
LC-002-002-----0
  6
CONTINUOUS
  5
563
 10
374.389621
 20
254.237593
 30
0.0
 11
330.572372
 21
254.237593
 31
0.0
  0
LINE
  8
LC-002-002-----0
  6
CONTINUOUS
  5
564
 10
374.389703
 20
306.310193
 30
0.0
 11
330.564826
 21
306.310179
 31
0.0
  0
LINE
  8
LC-002-002-----0
  6
CONTINUOUS
  5
565
 10
372.478572
 20
309.017142
 30
0.0
 11
377.684287
 21
310.41201
 31
0.0
  0
LINE
  8
LC-001-103-D00-1
  6
CONTINUOUS
  5
566
 10
327.480995
 20
257.723634
 30
0.0
 11
328.41509
 21
254.237593
 31
0.0
  0
LINE
  8
LC-001-103-D00-1
  6
CONTINUOUS
  5
567
 10
328.41509
 20
254.237593
 30
0.0
 11
330.572372
 21
254.237593
 31
0.0
  0
LINE
  8
LC-001-103-D00-1
  6
CONTINUOUS
  5
568
 10
330.572372
 20
254.237593
 30
0.0
 11
330.572274
 21
306.310179
 31
0.0
  0
LINE
  8
LC-002-002-----0
  6
CONTINUOUS
  5
569
 10
432.414011
 20
319.274441
 30
0.0
 11
432.414011
 21
381.855871
 31
0.0
  0
LINE
  8
LC-002-002-----0
  6
CONTINUOUS
  5
56A
 10
327.277687
 20
310.411994
 30
0.0
 11
332.478572
 21
309.018421
 31
0.0
  0
LINE
  8
LC-002-002-----0
  6
CONTINUOUS
  5
56B
 10
332.478572
 20
309.018421
 30
0.0
 11
372.478572
 21
309.018421
 31
0.0
  0
LINE
  8
LC-002-002-----0
  6
CONTINUOUS
  5
56C
 10
369.191458
 20
378.310193
 30
0.0
 11
380.639323
 21
378.310193
 31
0.0
  0
ARC
  8
LC-001-103-D00-1
  6
CONTINUOUS
  5
56D
 10
385.843695
 20
313.298239
 30
0.0
 40
2.988044
 50
180.0
 51
270.000071
  0
ARC
  8
LC-001-103-D00-1
  6
CONTINUOUS
  5
56E
 10
319.110698
 20
313.298239
 30
0.0
 40
2.988046
 50
270.0
 51
0.0
  0
LINE
  8
LC-001-103-D00-1
  6
CONTINUOUS
 62
     4
  5
56F
 10
374.389672
 20
307.322357
 30
0.0
 11
374.389688
 21
307.322357
 31
0.0
  0
ARC
  8
LC-001-103-D00-1
  6
CONTINUOUS
  5
570
 10
376.910924
 20
313.298239
 30
0.0
 40
2.988045
 50
285.0
 51
359.394775
  0
LINE
  8
LC-002-002-----0
  6
CONTINUOUS
  5
571
 10
372.483344
 20
309.018421
 30
0.0
 11
372.483344
 21
306.310192
 31
0.0
  0
LINE
  8
LC-002-002-----0
  6
CONTINUOUS
  5
572
 10
332.478572
 20
309.018421
 30
0.0
 11
332.478572
 21
306.31018
 31
0.0
  0
LINE
  8
LC-002-002-----0
  6
CONTINUOUS
  5
573
 10
377.480996
 20
307.769347
 30
0.0
 11
380.836379
 21
308.66842
 31
0.0
  0
LINE
  8
LC-002-002-----0
  6
CONTINUOUS
  5
574
 10
324.125595
 20
308.668404
 30
0.0
 11
327.480982
 21
307.769331
 31
0.0
  0
LINE
  8
LC-002-002-----0
  6
CONTINUOUS
  5
575
 10
318.064886
 20
307.32216
 30
0.0
 11
318.064886
 21
307.32216
 31
0.0
  0
LINE
  8
LC-002-002-----0
  6
CONTINUOUS
  5
576
 10
386.889528
 20
307.322336
 30
0.0
 11
386.889537
 21
307.322346
 31
0.0
  0
LINE
  8
LC-002-002-----0
  6
CONTINUOUS
  5
577
 10
367.441456
 20
375.810193
 30
0.0
 11
380.610861
 21
375.810193
 31
0.0
  0
ARC
  8
LC-002-002-----0
  6
CONTINUOUS
  5
578
 10
381.937709
 20
377.045249
 30
0.0
 40
1.812703
 50
135.74746
 51
222.947976
  0
LINE
  8
LC-002-002-----0
  6
CONTINUOUS
  5
579
 10
380.639323
 20
378.310193
 30
0.0
 11
382.855634
 21
378.310193
 31
0.0
  0
ARC
  8
LC-002-002-----0
  6
CONTINUOUS
  5
57A
 10
323.148412
 20
377.047849
 30
0.0
 40
1.812638
 50
316.937765
 51
44.139908
  0
LINE
  8
LC-001-103-D00-1
  6
CONTINUOUS
  5
57B
 10
377.480996
 20
307.769347
 30
0.0
 11
377.480996
 21
257.723634
 31
0.0
  0
LINE
  8
LC-001-103-D00-1
  6
CONTINUOUS
  5
57C
 10
383.887746
 20
307.375049
 30
0.0
 11
386.889528
 21
307.375049
 31
0.0
  0
ARC
  8
LC-001-103-D00-1
  6
CONTINUOUS
  5
57D
 10
381.930938
 20
309.428337
 30
0.0
 40
0.489202
 50
33.69001
 51
146.309906
  0
LINE
  8
LC-001-103-D00-1
  6
CONTINUOUS
  5
57E
 10
380.836379
 20
308.66842
 30
0.0
 11
381.523898
 21
309.699699
 31
0.0
  0
LINE
  8
LC-001-103-D00-1
  6
CONTINUOUS
  5
57F
 10
383.887746
 20
307.375049
 30
0.0
 11
382.33798
 21
309.699699
 31
0.0
  0
ARC
  8
LC-001-103-D00-1
  6
CONTINUOUS
  5
580
 10
328.05105
 20
313.298224
 30
0.0
 40
2.988045
 50
180.605255
 51
255.0
  0
LINE
  8
LC-001-103-D00-1
  6
CONTINUOUS
  5
581
 10
321.074232
 20
307.375027
 30
0.0
 11
318.064886
 21
307.375027
 31
0.0
  0
ARC
  8
LC-001-103-D00-1
  6
CONTINUOUS
  5
582
 10
323.031038
 20
309.428315
 30
0.0
 40
0.489202
 50
33.69014
 51
146.310028
  0
LINE
  8
LC-001-103-D00-1
  6
CONTINUOUS
  5
583
 10
324.125595
 20
308.668404
 30
0.0
 11
323.438078
 21
309.699676
 31
0.0
  0
LINE
  8
LC-001-103-D00-1
  6
CONTINUOUS
  5
584
 10
321.074232
 20
307.375027
 30
0.0
 11
322.623996
 21
309.699676
 31
0.0
  0
LINE
  8
LC-001-103-D00-1
  6
CONTINUOUS
  5
585
 10
327.480982
 20
307.769331
 30
0.0
 11
327.480995
 21
257.723634
 31
0.0
  0
LINE
  8
LC-001-103-D00-1
  6
CONTINUOUS
  5
586
 10
380.610861
 20
375.810193
 30
0.0
 11
379.898806
 21
313.266708
 31
0.0
  0
LINE
  8
LC-001-103-D00-1
  6
CONTINUOUS
  5
587
 10
382.855634
 20
378.310193
 30
0.0
 11
382.855634
 21
313.298239
 31
0.0
  0
LINE
  8
LC-001-103-D00-1
  6
CONTINUOUS
  5
588
 10
322.0987
 20
378.310193
 30
0.0
 11
322.0987
 21
313.298239
 31
0.0
  0
LINE
  8
LC-001-103-D00-1
  6
CONTINUOUS
  5
589
 10
324.472748
 20
375.810193
 30
0.0
 11
325.060902
 21
313.272202
 31
0.0
  0
LINE
  8
LC-002-002-----0
  6
CONTINUOUS
  5
58A
 10
386.480974
 20
310.310193
 30
0.0
 11
386.889539
 21
310.310193
 31
0.0
  0
LINE
  8
LC-002-002-----0
  6
CONTINUOUS
  5
58B
 10
310.980069
 20
388.810192
 30
0.0
 11
310.980239
 21
328.810357
 31
0.0
  0
LINE
  8
LC-002-002-----0
  6
CONTINUOUS
  5
58C
 10
311.980069
 20
388.810192
 30
0.0
 11
311.980239
 21
328.810357
 31
0.0
  0
LINE
  8
LC-002-002-----0
  6
CONTINUOUS
  5
58D
 10
311.980239
 20
328.810357
 30
0.0
 11
310.980073
 21
328.810189
 31
0.0
  0
LINE
  8
LC-002-002-----0
  6
CONTINUOUS
  5
58E
 10
311.980239
 20
328.810357
 30
0.0
 11
322.0987
 21
328.810357
 31
0.0
  0
ARC
  8
LC-002-002-----0
  6
CONTINUOUS
  5
58F
 10
321.980069
 20
388.810192
 30
0.0
 40
10.0
 50
94.313709
 51
179.999848
  0
ARC
  8
LC-003-002-RND-0
  6
CONTINUOUS
  5
590
 10
322.980069
 20
388.810192
 30
0.0
 40
12.0
 50
90.0
 51
180.0
  0
LINE
  8
LC-002-002-----0
  6
CONTINUOUS
  5
591
 10
381.980287
 20
400.810363
 30
0.0
 11
366.230068
 21
400.810374
 31
0.0
  0
LINE
  8
LC-002-002-----0
  6
CONTINUOUS
  5
592
 10
382.980286
 20
398.810363
 30
0.0
 11
353.923445
 21
398.810363
 31
0.0
  0
LINE
  8
LC-002-002-----0
  6
CONTINUOUS
  5
593
 10
322.980069
 20
400.810192
 30
0.0
 11
338.730071
 21
400.810192
 31
0.0
  0
ARC
  8
LC-003-002-RND-0
  6
CONTINUOUS
  5
594
 10
357.230067
 20
401.810192
 30
0.0
 40
9.0
 50
0.000006
 51
90.000006
  0
ARC
  8
LC-002-002-----0
  6
CONTINUOUS
  5
595
 10
382.98028
 20
388.810363
 30
0.0
 40
10.0
 50
0.000096
 51
89.999963
  0
ARC
  8
LC-002-002-----0
  6
CONTINUOUS
  5
596
 10
381.98028
 20
388.810363
 30
0.0
 40
12.0
 50
0.000096
 51
89.999963
  0
LINE
  8
LC-002-002-----0
  6
CONTINUOUS
  5
597
 10
393.980278
 20
388.810355
 30
0.0
 11
393.980239
 21
328.810355
 31
0.0
  0
LINE
  8
LC-002-002-----0
  6
CONTINUOUS
  5
598
 10
392.980278
 20
388.810357
 30
0.0
 11
392.980404
 21
328.810521
 31
0.0
  0
LINE
  8
LC-002-002-----0
  6
CONTINUOUS
  5
599
 10
392.980404
 20
328.810521
 30
0.0
 11
393.980239
 21
328.810355
 31
0.0
  0
LINE
  8
LC-002-002-----0
  6
CONTINUOUS
  5
59A
 10
321.222355
 20
378.310192
 30
0.0
 11
321.227906
 21
398.819213
 31
0.0
  0
LINE
  8
LC-002-002-----0
  6
CONTINUOUS
  5
59B
 10
353.91573
 20
370.310192
 30
0.0
 11
325.660181
 21
370.310192
 31
0.0
  0
LINE
  8
LC-002-002-----0
  6
CONTINUOUS
  5
59C
 10
324.722358
 20
373.810192
 30
0.0
 11
325.660181
 21
370.310192
 31
0.0
  0
LINE
  8
LC-002-002-----0
  6
CONTINUOUS
  5
59D
 10
324.722358
 20
376.895979
 30
0.0
 11
324.722358
 21
373.810192
 31
0.0
  0
ARC
  8
LC-002-002-----0
  6
CONTINUOUS
  5
59E
 10
324.472355
 20
377.603085
 30
0.0
 40
0.75
 50
289.471622
 51
70.528779
  0
LINE
  8
LC-002-002-----0
  6
CONTINUOUS
  5
59F
 10
321.222355
 20
378.310192
 30
0.0
 11
324.722355
 21
378.310192
 31
0.0
  0
LINE
  8
LC-002-002-----0
  6
CONTINUOUS
  5
5A0
 10
357.230067
 20
406.810192
 30
0.0
 11
352.480068
 21
406.810192
 31
0.0
  0
LINE
  8
LC-002-002-----0
  6
CONTINUOUS
  5
5A1
 10
362.230068
 20
400.810193
 30
0.0
 11
362.230067
 21
401.810193
 31
0.0
  0
ARC
  8
LC-002-002-----0
  6
CONTINUOUS
  5
5A2
 10
357.230067
 20
401.810192
 30
0.0
 40
5.0
 50
0.000005
 51
90.000006
  0
ARC
  8
LC-003-002-RND-0
  6
CONTINUOUS
  5
5A3
 10
347.730071
 20
401.810192
 30
0.0
 40
9.0
 50
90.0
 51
180.000001
  0
LINE
  8
LC-002-002-----0
  6
CONTINUOUS
  5
5A4
 10
347.730071
 20
406.810192
 30
0.0
 11
352.480069
 21
406.810192
 31
0.0
  0
LINE
  8
LC-002-002-----0
  6
CONTINUOUS
  5
5A5
 10
342.730071
 20
400.810192
 30
0.0
 11
342.730071
 21
401.810192
 31
0.0
  0
LINE
  8
LC-002-002-----0
  6
CONTINUOUS
  5
5A6
 10
357.230066
 20
410.810192
 30
0.0
 11
352.480068
 21
410.810192
 31
0.0
  0
LINE
  8
LC-002-002-----0
  6
CONTINUOUS
  5
5A7
 10
366.230068
 20
400.810193
 30
0.0
 11
366.230067
 21
401.810193
 31
0.0
  0
ARC
  8
LC-002-002-----0
  6
CONTINUOUS
  5
5A8
 10
347.730071
 20
401.810192
 30
0.0
 40
5.0
 50
90.0
 51
180.000001
  0
LINE
  8
LC-002-002-----0
  6
CONTINUOUS
  5
5A9
 10
347.730071
 20
410.810192
 30
0.0
 11
352.480069
 21
410.810192
 31
0.0
  0
LINE
  8
LC-002-002-----0
  6
CONTINUOUS
  5
5AA
 10
338.730071
 20
400.810192
 30
0.0
 11
338.730071
 21
401.810192
 31
0.0
  0
LINE
  8
LC-002-002-----0
  6
CONTINUOUS
  5
5AB
 10
353.91573
 20
370.310192
 30
0.0
 11
353.923445
 21
398.810363
 31
0.0
  0
LINE
  8
LC-002-002-----0
  6
CONTINUOUS
  5
5AC
 10
342.730071
 20
400.810192
 30
0.0
 11
352.480069
 21
400.810192
 31
0.0
  0
LINE
  8
LC-002-002-----0
  6
CONTINUOUS
  5
5AD
 10
362.230068
 20
400.810377
 30
0.0
 11
352.480069
 21
400.810384
 31
0.0
  0
LINE
  8
LC-002-002-----0
  6
CONTINUOUS
  5
5AE
 10
353.91573
 20
370.310192
 30
0.0
 11
366.972545
 21
370.310192
 31
0.0
  0
LINE
  8
LC-002-002-----0
  6
CONTINUOUS
  5
5AF
 10
366.972545
 20
370.310192
 30
0.0
 11
367.441456
 21
373.810192
 31
0.0
  0
LINE
  8
LC-002-002-----0
  6
CONTINUOUS
  5
5B0
 10
367.441456
 20
373.810192
 30
0.0
 11
367.441456
 21
376.895979
 31
0.0
  0
LINE
  8
LC-002-002-----0
  6
CONTINUOUS
  5
5B1
 10
367.441456
 20
378.310192
 30
0.0
 11
369.191458
 21
378.310192
 31
0.0
  0
LINE
  8
LC-002-002-----0
  6
CONTINUOUS
  5
5B2
 10
369.191458
 20
378.310192
 30
0.0
 11
369.191458
 21
398.810363
 31
0.0
  0
ARC
  8
LC-002-002-----0
  6
CONTINUOUS
  5
5B3
 10
367.74015
 20
377.603086
 30
0.0
 40
0.767605
 50
112.900021
 51
247.099979
  0
LINE
  8
LC-002-002-----0
  6
CONTINUOUS
  5
5B4
 10
382.855634
 20
328.810357
 30
0.0
 11
392.980404
 21
328.810357
 31
0.0
  0
LINE
  8
LC-002-002-----0
  6
DASHDOT
 62
     2
  5
5B6
 10
352.480843
 20
248.322351
 30
0.0
 11
352.480843
 21
422.155595
 31
0.0
  0
LINE
  8
LC-002-002-----0
  6
CONTINUOUS
 62
     2
  5
5B7
 10
432.414011
 20
319.274441
 30
0.0
 11
432.414011
 21
279.774
 31
0.0
  0
ARC
  8
LC-002-002-----0
  6
CONTINUOUS
  5
5B8
 10
252.232256
 20
437.918769
 30
0.0
 40
23.361504
 50
241.241457
 51
244.207797
  0
LINE
  8
LC-002-002-----0
  6
CONTINUOUS
  5
5B9
 10
202.026141
 20
420.139737
 30
0.0
 11
212.68086
 21
419.401208
 31
0.0
  0
LINE
  8
LC-002-002-----0
  6
CONTINUOUS
  5
5BA
 10
260.64467
 20
414.027854
 30
0.0
 11
252.682974
 21
414.606425
 31
0.0
  0
LINE
  8
LC-002-002-----0
  6
CONTINUOUS
  5
5BB
 10
503.492581
 20
420.17672
 30
0.0
 11
463.992581
 21
417.438789
 31
0.0
  0
ARC
  8
LC-002-002-----0
  6
CONTINUOUS
  5
5BC
 10
452.752906
 20
437.918769
 30
0.0
 40
23.361504
 50
280.502157
 51
298.758543
  0
LINE
  8
LC-002-002-----0
  6
CONTINUOUS
  5
5BD
 10
444.340492
 20
414.027854
 30
0.0
 11
457.011067
 21
414.948616
 31
0.0
  0
LINE
  8
LC-006-005-----0
  6
CONTINUOUS
  5
5BE
 10
275.305678
 20
390.725829
 30
0.0
 11
275.483703
 21
390.903854
 31
0.0
  0
LINE
  8
LC-002-002-----0
  6
CONTINUOUS
  5
5BF
 10
102.682974
 20
424.87672
 30
0.0
 11
102.682974
 21
420.17672
 31
0.0
  0
LINE
  8
LC-002-002-----0
  6
CONTINUOUS
  5
5C0
 10
112.682974
 20
424.87672
 30
0.0
 11
112.682974
 21
420.17672
 31
0.0
  0
LINE
  8
LC-002-002-----0
  6
CONTINUOUS
  5
5C1
 10
122.682974
 20
424.87672
 30
0.0
 11
122.682974
 21
420.17672
 31
0.0
  0
LINE
  8
LC-002-002-----0
  6
CONTINUOUS
  5
5C2
 10
132.682974
 20
424.87672
 30
0.0
 11
132.682974
 21
420.17672
 31
0.0
  0
LINE
  8
LC-002-002-----0
  6
CONTINUOUS
  5
5C3
 10
142.682974
 20
424.87672
 30
0.0
 11
142.682974
 21
420.17672
 31
0.0
  0
LINE
  8
LC-002-002-----0
  6
CONTINUOUS
  5
5C4
 10
152.682974
 20
424.87672
 30
0.0
 11
152.682974
 21
420.17672
 31
0.0
  0
LINE
  8
LC-002-002-----0
  6
CONTINUOUS
  5
5C5
 10
162.682974
 20
424.87672
 30
0.0
 11
162.682974
 21
420.17672
 31
0.0
  0
LINE
  8
LC-002-002-----0
  6
CONTINUOUS
  5
5C6
 10
172.682974
 20
424.87672
 30
0.0
 11
172.682974
 21
420.17672
 31
0.0
  0
LINE
  8
LC-002-002-----0
  6
CONTINUOUS
  5
5C7
 10
182.682974
 20
424.87672
 30
0.0
 11
182.682974
 21
420.17672
 31
0.0
  0
LINE
  8
LC-002-002-----0
  6
CONTINUOUS
  5
5C8
 10
192.682974
 20
424.87672
 30
0.0
 11
192.682974
 21
420.17672
 31
0.0
  0
LINE
  8
LC-002-002-----0
  6
CONTINUOUS
  5
5C9
 10
202.028705
 20
420.17672
 30
0.0
 11
102.682974
 21
420.17672
 31
0.0
  0
LINE
  8
LC-002-002-----0
  6
CONTINUOUS
  5
5CA
 10
202.682974
 20
424.805486
 30
0.0
 11
202.682974
 21
420.130969
 31
0.0
  0
LINE
  8
LC-002-002-----0
  6
CONTINUOUS
  5
5CB
 10
212.682974
 20
424.112339
 30
0.0
 11
212.682974
 21
419.431702
 31
0.0
  0
LINE
  8
LC-002-002-----0
  6
CONTINUOUS
  5
5CC
 10
222.682974
 20
423.419192
 30
0.0
 11
222.682974
 21
418.732434
 31
0.0
  0
LINE
  8
LC-002-002-----0
  6
CONTINUOUS
  5
5CD
 10
232.682974
 20
422.726044
 30
0.0
 11
232.682974
 21
418.033167
 31
0.0
  0
LINE
  8
LC-002-002-----0
  6
CONTINUOUS
  5
5CE
 10
252.682974
 20
419.316973
 30
0.0
 11
252.682974
 21
414.606425
 31
0.0
  0
LINE
  8
LC-002-002-----0
  6
CONTINUOUS
  5
5CF
 10
244.691197
 20
422.155595
 30
0.0
 11
460.293964
 21
422.155595
 31
0.0
  0
ARC
  8
LC-002-002-----0
  6
CONTINUOUS
  5
5D0
 10
250.130688
 20
426.561493
 30
0.0
 40
7.0
 50
219.006904
 51
266.0
  0
ARC
  8
LC-002-002-----0
  6
CONTINUOUS
  5
5D1
 10
250.130688
 20
426.561493
 30
0.0
 40
6.3
 50
224.378071
 51
266.0
  0
LINE
  8
LC-002-002-----0
  6
CONTINUOUS
  5
5D2
 10
249.642393
 20
419.578544
 30
0.0
 11
267.369652
 21
418.338934
 31
0.0
  0
LINE
  8
LC-002-002-----0
  6
CONTINUOUS
  5
5D3
 10
249.689007
 20
420.266414
 30
0.0
 11
267.418482
 21
419.026648
 31
0.0
  0
ARC
  8
LC-003-002-RND-0
  6
CONTINUOUS
  5
5D4
 10
266.930186
 20
412.0437
 30
0.0
 40
7.0
 50
0.0
 51
86.0
  0
ARC
  8
LC-003-002-RND-0
  6
CONTINUOUS
  5
5D5
 10
266.930186
 20
412.05428
 30
0.0
 40
6.3
 50
0.0
 51
86.0
  0
LINE
  8
LC-002-002-----0
  6
CONTINUOUS
  5
5D6
 10
273.230186
 20
412.05428
 30
0.0
 11
273.230186
 21
398.366237
 31
0.0
  0
ARC
  8
LC-002-002-----0
  6
CONTINUOUS
  5
5D7
 10
276.730186
 20
398.366237
 30
0.0
 40
3.5
 50
180.0
 51
270.0
  0
ARC
  8
LC-002-002-----0
  6
CONTINUOUS
  5
5D8
 10
276.730186
 20
398.366237
 30
0.0
 40
2.8
 50
180.0
 51
270.0
  0
ARC
  8
LC-002-002-----0
  6
CONTINUOUS
  5
5D9
 10
276.730466
 20
394.566605
 30
0.0
 40
1.0
 50
359.99972
 51
89.99972
  0
ARC
  8
LC-002-002-----0
  6
CONTINUOUS
  5
5DA
 10
276.730466
 20
394.566605
 30
0.0
 40
0.3
 50
359.99972
 51
89.99972
  0
LINE
  8
LC-002-002-----0
  6
CONTINUOUS
  5
5DB
 10
277.030186
 20
394.566237
 30
0.0
 11
277.030186
 21
392.266237
 31
0.0
  0
LINE
  8
LC-002-002-----0
  6
CONTINUOUS
  5
5DC
 10
277.730186
 20
394.566237
 30
0.0
 11
277.730186
 21
392.266237
 31
0.0
  0
ARC
  8
LC-002-002-----0
  6
CONTINUOUS
  5
5DD
 10
276.730709
 20
392.266237
 30
0.0
 40
0.3
 50
270.0
 51
0.0
  0
ARC
  8
LC-002-002-----0
  6
CONTINUOUS
  5
5DE
 10
276.730186
 20
392.266237
 30
0.0
 40
1.0
 50
270.0
 51
0.0
  0
ARC
  8
LC-002-002-----0
  6
CONTINUOUS
  5
5DF
 10
276.730186
 20
390.466237
 30
0.0
 40
1.5
 50
90.0
 51
180.0
  0
ARC
  8
LC-002-002-----0
  6
CONTINUOUS
  5
5E0
 10
276.730186
 20
390.466237
 30
0.0
 40
0.8
 50
90.0
 51
180.0
  0
ARC
  8
LC-002-002-----0
  6
CONTINUOUS
  5
5E1
 10
276.730186
 20
390.466237
 30
0.0
 40
1.5
 50
180.0
 51
270.0
  0
ARC
  8
LC-002-002-----0
  6
CONTINUOUS
  5
5E2
 10
276.730186
 20
390.466237
 30
0.0
 40
0.8
 50
180.0
 51
270.0
  0
LINE
  8
LC-002-002-----0
  6
CONTINUOUS
  5
5E3
 10
276.730186
 20
389.666237
 30
0.0
 11
279.530186
 21
389.666237
 31
0.0
  0
LINE
  8
LC-002-002-----0
  6
CONTINUOUS
  5
5E4
 10
276.730186
 20
388.966237
 30
0.0
 11
279.530186
 21
388.966237
 31
0.0
  0
LINE
  8
LC-002-002-----0
  6
CONTINUOUS
  5
5E5
 10
279.530186
 20
388.966237
 30
0.0
 11
279.530186
 21
389.666237
 31
0.0
  0
LINE
  8
LC-002-002-----0
  6
CONTINUOUS
  5
5E6
 10
260.7391
 20
418.731539
 30
0.0
 11
252.682974
 21
419.316973
 31
0.0
  0
LINE
  8
LC-002-002-----0
  6
CONTINUOUS
  5
5E7
 10
242.682974
 20
421.887337
 30
0.0
 11
242.682974
 21
416.598097
 31
0.0
  0
ARC
  8
LC-002-002-----0
  6
CONTINUOUS
  5
5E8
 10
252.232256
 20
437.918769
 30
0.0
 40
23.361504
 50
244.207797
 51
259.497843
  0
LINE
  8
LC-002-002-----0
  6
CONTINUOUS
  5
5E9
 10
252.682974
 20
419.316973
 30
0.0
 11
248.616124
 21
419.612508
 31
0.0
  0
LINE
  8
LC-002-002-----0
  6
CONTINUOUS
  5
5EA
 10
252.682974
 20
414.606425
 30
0.0
 11
247.974095
 21
414.948616
 31
0.0
  0
LINE
  8
LC-002-002-----0
  6
CONTINUOUS
  5
5EB
 10
201.655275
 20
424.87672
 30
0.0
 11
102.682974
 21
424.87672
 31
0.0
  0
LINE
  8
LC-002-002-----0
  6
CONTINUOUS
  5
5EC
 10
201.655275
 20
424.87672
 30
0.0
 11
212.682974
 21
424.112339
 31
0.0
  0
ARC
  8
LC-002-002-----0
  6
CONTINUOUS
  5
5ED
 10
252.232256
 20
437.918769
 30
0.0
 40
18.66
 50
238.247327
 51
258.82592
  0
LINE
  8
LC-002-002-----0
  6
CONTINUOUS
  5
5EE
 10
212.682974
 20
424.112339
 30
0.0
 11
242.412364
 21
422.051655
 31
0.0
  0
LINE
  8
LC-002-002-----0
  6
CONTINUOUS
  5
5EF
 10
212.68086
 20
419.401208
 30
0.0
 11
240.992581
 21
417.438789
 31
0.0
  0
LINE
  8
LC-002-002-----0
  6
CONTINUOUS
  5
5F0
 10
430.992581
 20
398.566904
 30
0.0
 11
427.992581
 21
395.566904
 31
0.0
  0
LINE
  8
LC-002-002-----0
  6
CONTINUOUS
  5
5F1
 10
420.992581
 20
395.566904
 30
0.0
 11
420.992581
 21
398.066904
 31
0.0
  0
LINE
  8
LC-002-002-----0
  6
CONTINUOUS
  5
5F2
 10
428.492581
 20
414.566548
 30
0.0
 11
426.992581
 21
414.566548
 31
0.0
  0
LINE
  8
LC-002-002-----0
  6
CONTINUOUS
  5
5F3
 10
428.492581
 20
398.066904
 30
0.0
 11
428.492581
 21
415.566548
 31
0.0
  0
ARC
  8
LC-003-002-RND-0
  6
CONTINUOUS
  5
5F4
 10
426.992581
 20
412.566548
 30
0.0
 40
2.0
 50
90.0
 51
180.0
  0
LINE
  8
LC-002-002-----0
  6
CONTINUOUS
  5
5F5
 10
415.565321
 20
395.566904
 30
0.0
 11
415.565321
 21
398.066904
 31
0.0
  0
LINE
  8
LC-002-002-----0
  6
CONTINUOUS
  5
5F6
 10
408.065364
 20
398.066904
 30
0.0
 11
428.492581
 21
398.066904
 31
0.0
  0
LINE
  8
LC-002-002-----0
  6
CONTINUOUS
  5
5F7
 10
273.992581
 20
398.566904
 30
0.0
 11
276.992581
 21
395.566904
 31
0.0
  0
LINE
  8
LC-002-002-----0
  6
CONTINUOUS
  5
5F8
 10
283.992581
 20
395.566904
 30
0.0
 11
283.992581
 21
398.066904
 31
0.0
  0
LINE
  8
LC-002-002-----0
  6
CONTINUOUS
  5
5F9
 10
276.492581
 20
414.566548
 30
0.0
 11
277.992581
 21
414.566548
 31
0.0
  0
LINE
  8
LC-002-002-----0
  6
CONTINUOUS
  5
5FA
 10
276.492581
 20
414.566548
 30
0.0
 11
276.492581
 21
415.566548
 31
0.0
  0
ARC
  8
LC-003-002-RND-0
  6
CONTINUOUS
  5
5FB
 10
277.992581
 20
412.566548
 30
0.0
 40
2.0
 50
0.0
 51
90.0
  0
LINE
  8
LC-002-002-----0
  6
CONTINUOUS
  5
5FC
 10
289.419841
 20
395.566904
 30
0.0
 11
289.419841
 21
398.066904
 31
0.0
  0
LINE
  8
LC-002-002-----0
  6
CONTINUOUS
  5
5FD
 10
296.919841
 20
395.566904
 30
0.0
 11
296.919841
 21
398.066904
 31
0.0
  0
LINE
  8
LC-002-002-----0
  6
CONTINUOUS
  5
5FE
 10
311.74739
 20
395.566904
 30
0.0
 11
311.74739
 21
398.066904
 31
0.0
  0
LINE
  8
LC-002-002-----0
  6
CONTINUOUS
  5
5FF
 10
308.182876
 20
395.566904
 30
0.0
 11
308.182876
 21
398.066904
 31
0.0
  0
LINE
  8
LC-002-002-----0
  6
CONTINUOUS
  5
600
 10
315.343602
 20
398.066904
 30
0.0
 11
308.182876
 21
398.066904
 31
0.0
  0
LINE
  8
LC-002-002-----0
  6
CONTINUOUS
  5
601
 10
296.919841
 20
398.066904
 30
0.0
 11
276.730186
 21
398.066904
 31
0.0
  0
LINE
  8
LC-002-002-----0
  6
CONTINUOUS
  5
602
 10
279.992581
 20
412.566548
 30
0.0
 11
279.992581
 21
398.066904
 31
0.0
  0
LINE
  8
LC-002-002-----0
  6
CONTINUOUS
  5
603
 10
273.992581
 20
415.566548
 30
0.0
 11
273.992581
 21
398.566904
 31
0.0
  0
LINE
  8
LC-002-002-----0
  6
CONTINUOUS
  5
604
 10
282.242581
 20
395.566904
 30
0.0
 11
313.062918
 21
395.566904
 31
0.0
  0
LINE
  8
LC-002-002-----0
  6
CONTINUOUS
  5
605
 10
273.992581
 20
415.566548
 30
0.0
 11
352.492581
 21
415.566548
 31
0.0
  0
LINE
  8
LC-002-002-----0
  6
CONTINUOUS
  5
606
 10
282.242581
 20
395.566904
 30
0.0
 11
276.992581
 21
395.566904
 31
0.0
  0
LINE
  8
LC-002-002-----0
  6
CONTINUOUS
  5
607
 10
424.992581
 20
412.566548
 30
0.0
 11
424.992581
 21
398.066904
 31
0.0
  0
LINE
  8
LC-002-002-----0
  6
CONTINUOUS
  5
608
 10
430.992581
 20
415.566548
 30
0.0
 11
430.992581
 21
398.566904
 31
0.0
  0
LINE
  8
LC-002-002-----0
  6
CONTINUOUS
  5
609
 10
422.742581
 20
395.566904
 30
0.0
 11
391.897241
 21
395.566904
 31
0.0
  0
LINE
  8
LC-002-002-----0
  6
CONTINUOUS
  5
60A
 10
430.992581
 20
415.566548
 30
0.0
 11
352.492581
 21
415.566548
 31
0.0
  0
LINE
  8
LC-002-002-----0
  6
CONTINUOUS
  5
60B
 10
422.742581
 20
395.566904
 30
0.0
 11
427.992581
 21
395.566904
 31
0.0
  0
LINE
  8
LC-002-002-----0
  6
CONTINUOUS
  5
60C
 10
273.930186
 20
412.0437
 30
0.0
 11
273.930186
 21
398.366237
 31
0.0
  0
LINE
  8
LC-002-002-----0
  6
CONTINUOUS
  5
60D
 10
276.492581
 20
398.066904
 30
0.0
 11
276.492581
 21
415.566548
 31
0.0
  0
LINE
  8
LC-002-002-----0
  6
CONTINUOUS
  5
60E
 10
602.302188
 20
424.87672
 30
0.0
 11
602.302188
 21
420.17672
 31
0.0
  0
LINE
  8
LC-002-002-----0
  6
CONTINUOUS
  5
60F
 10
592.302188
 20
424.87672
 30
0.0
 11
592.302188
 21
420.17672
 31
0.0
  0
LINE
  8
LC-002-002-----0
  6
CONTINUOUS
  5
610
 10
582.302188
 20
424.87672
 30
0.0
 11
582.302188
 21
420.17672
 31
0.0
  0
LINE
  8
LC-002-002-----0
  6
CONTINUOUS
  5
611
 10
572.302188
 20
424.87672
 30
0.0
 11
572.302188
 21
420.17672
 31
0.0
  0
LINE
  8
LC-002-002-----0
  6
CONTINUOUS
  5
612
 10
562.302188
 20
424.87672
 30
0.0
 11
562.302188
 21
420.17672
 31
0.0
  0
LINE
  8
LC-002-002-----0
  6
CONTINUOUS
  5
613
 10
552.302188
 20
424.87672
 30
0.0
 11
552.302188
 21
420.17672
 31
0.0
  0
LINE
  8
LC-002-002-----0
  6
CONTINUOUS
  5
614
 10
542.302188
 20
424.87672
 30
0.0
 11
542.302188
 21
420.17672
 31
0.0
  0
LINE
  8
LC-002-002-----0
  6
CONTINUOUS
  5
615
 10
532.302188
 20
424.87672
 30
0.0
 11
532.302188
 21
420.17672
 31
0.0
  0
LINE
  8
LC-002-002-----0
  6
CONTINUOUS
  5
616
 10
522.302188
 20
424.87672
 30
0.0
 11
522.302188
 21
420.17672
 31
0.0
  0
LINE
  8
LC-002-002-----0
  6
CONTINUOUS
  5
617
 10
512.302188
 20
424.87672
 30
0.0
 11
512.302188
 21
420.17672
 31
0.0
  0
LINE
  8
LC-002-002-----0
  6
CONTINUOUS
  5
618
 10
502.956457
 20
420.17672
 30
0.0
 11
602.302188
 21
420.17672
 31
0.0
  0
LINE
  8
LC-002-002-----0
  6
CONTINUOUS
  5
619
 10
503.329886
 20
424.87672
 30
0.0
 11
602.302188
 21
424.87672
 31
0.0
  0
LINE
  8
LC-002-002-----0
  6
CONTINUOUS
  5
61A
 10
502.302188
 20
424.805486
 30
0.0
 11
502.302188
 21
420.130969
 31
0.0
  0
LINE
  8
LC-002-002-----0
  6
CONTINUOUS
  5
61B
 10
492.302188
 20
424.112339
 30
0.0
 11
492.302188
 21
419.431702
 31
0.0
  0
LINE
  8
LC-002-002-----0
  6
CONTINUOUS
  5
61C
 10
482.302188
 20
423.419192
 30
0.0
 11
482.302188
 21
418.732434
 31
0.0
  0
LINE
  8
LC-002-002-----0
  6
CONTINUOUS
  5
61D
 10
503.329886
 20
424.87672
 30
0.0
 11
462.572798
 21
422.051655
 31
0.0
  0
LINE
  8
LC-002-002-----0
  6
CONTINUOUS
  5
61E
 10
472.302188
 20
422.726044
 30
0.0
 11
472.302188
 21
418.033167
 31
0.0
  0
LINE
  8
LC-002-002-----0
  6
CONTINUOUS
  5
61F
 10
462.302188
 20
421.887337
 30
0.0
 11
462.302188
 21
416.598097
 31
0.0
  0
LINE
  8
LC-002-002-----0
  6
CONTINUOUS
  5
620
 10
452.302188
 20
419.316973
 30
0.0
 11
452.302188
 21
414.606425
 31
0.0
  0
ARC
  8
LC-002-002-----0
  6
CONTINUOUS
  5
621
 10
452.752906
 20
437.918769
 30
0.0
 40
18.66
 50
281.17408
 51
301.752673
  0
LINE
  8
LC-002-002-----0
  6
CONTINUOUS
  5
622
 10
444.236443
 20
418.73084
 30
0.0
 11
456.369038
 21
419.612508
 31
0.0
  0
ARC
  8
LC-002-002-----0
  6
CONTINUOUS
  5
623
 10
454.854473
 20
426.561493
 30
0.0
 40
6.3
 50
274.0
 51
315.621929
  0
ARC
  8
LC-002-002-----0
  6
CONTINUOUS
  5
624
 10
454.854473
 20
426.561493
 30
0.0
 40
7.0
 50
274.0
 51
320.993096
  0
LINE
  8
LC-002-002-----0
  6
CONTINUOUS
  5
625
 10
455.296155
 20
420.266414
 30
0.0
 11
437.56668
 21
419.026648
 31
0.0
  0
LINE
  8
LC-002-002-----0
  6
CONTINUOUS
  5
626
 10
455.342769
 20
419.578544
 30
0.0
 11
437.615509
 21
418.338934
 31
0.0
  0
ARC
  8
LC-003-002-RND-0
  6
CONTINUOUS
  5
627
 10
438.054975
 20
412.0437
 30
0.0
 40
7.0
 50
94.0
 51
180.0
  0
ARC
  8
LC-003-002-RND-0
  6
CONTINUOUS
  5
628
 10
438.054975
 20
412.05428
 30
0.0
 40
6.3
 50
94.0
 51
180.0
  0
LINE
  8
LC-002-002-----0
  6
CONTINUOUS
  5
629
 10
431.754975
 20
412.05428
 30
0.0
 11
431.754975
 21
398.366237
 31
0.0
  0
LINE
  8
LC-002-002-----0
  6
CONTINUOUS
  5
62A
 10
431.054975
 20
412.0437
 30
0.0
 11
431.054975
 21
398.366237
 31
0.0
  0
ARC
  8
LC-002-002-----0
  6
CONTINUOUS
  5
62B
 10
428.254975
 20
398.366237
 30
0.0
 40
2.8
 50
270.0
 51
0.0
  0
ARC
  8
LC-002-002-----0
  6
CONTINUOUS
  5
62C
 10
428.254975
 20
398.366237
 30
0.0
 40
3.5
 50
270.0
 51
0.0
  0
ARC
  8
LC-002-002-----0
  6
CONTINUOUS
  5
62D
 10
428.254695
 20
394.566605
 30
0.0
 40
1.0
 50
90.00028
 51
180.00028
  0
ARC
  8
LC-002-002-----0
  6
CONTINUOUS
  5
62E
 10
428.254695
 20
394.566605
 30
0.0
 40
0.3
 50
90.00028
 51
180.00028
  0
LINE
  8
LC-002-002-----0
  6
CONTINUOUS
  5
62F
 10
427.254975
 20
394.566237
 30
0.0
 11
427.254975
 21
392.266237
 31
0.0
  0
LINE
  8
LC-002-002-----0
  6
CONTINUOUS
  5
630
 10
427.954975
 20
394.566237
 30
0.0
 11
427.954975
 21
392.266237
 31
0.0
  0
ARC
  8
LC-002-002-----0
  6
CONTINUOUS
  5
631
 10
428.254975
 20
392.266237
 30
0.0
 40
1.0
 50
180.0
 51
270.0
  0
ARC
  8
LC-002-002-----0
  6
CONTINUOUS
  5
632
 10
428.254453
 20
392.266237
 30
0.0
 40
0.3
 50
180.0
 51
270.0
  0
ARC
  8
LC-002-002-----0
  6
CONTINUOUS
  5
633
 10
428.254975
 20
390.466237
 30
0.0
 40
1.5
 50
0.0
 51
90.0
  0
ARC
  8
LC-002-002-----0
  6
CONTINUOUS
  5
634
 10
428.254975
 20
390.466237
 30
0.0
 40
1.5
 50
270.0
 51
0.0
  0
ARC
  8
LC-002-002-----0
  6
CONTINUOUS
  5
635
 10
428.254975
 20
390.466237
 30
0.0
 40
0.8
 50
0.0
 51
90.0
  0
ARC
  8
LC-002-002-----0
  6
CONTINUOUS
  5
636
 10
428.254975
 20
390.466237
 30
0.0
 40
0.8
 50
270.0
 51
0.0
  0
LINE
  8
LC-002-002-----0
  6
CONTINUOUS
  5
637
 10
428.254975
 20
389.666237
 30
0.0
 11
425.454975
 21
389.666237
 31
0.0
  0
LINE
  8
LC-002-002-----0
  6
CONTINUOUS
  5
638
 10
428.254975
 20
388.966237
 30
0.0
 11
425.454975
 21
388.966237
 31
0.0
  0
LINE
  8
LC-002-002-----0
  6
CONTINUOUS
  5
639
 10
425.454975
 20
388.966237
 30
0.0
 11
425.454975
 21
389.666237
 31
0.0
  0
LINE
  8
LC-002-002-----0
  6
CONTINUOUS
  5
63A
 10
354.992581
 20
414.566548
 30
0.0
 11
352.492581
 21
414.566548
 31
0.0
  0
ARC
  8
LC-002-002-----0
  6
CONTINUOUS
  5
63B
 10
415.992083
 20
412.566548
 30
0.0
 40
2.0
 50
90.0
 51
180.0
  0
LINE
  8
LC-002-002-----0
  6
CONTINUOUS
  5
63C
 10
419.524892
 20
414.566548
 30
0.0
 11
415.992083
 21
414.566548
 31
0.0
  0
LINE
  8
LC-002-002-----0
  6
CONTINUOUS
  5
63D
 10
419.524892
 20
398.066904
 30
0.0
 11
419.524892
 21
414.566548
 31
0.0
  0
LINE
  8
LC-002-002-----0
  6
CONTINUOUS
  5
63E
 10
354.992581
 20
410.810192
 30
0.0
 11
354.992581
 21
414.566548
 31
0.0
  0
LINE
  8
LC-002-002-----0
  6
CONTINUOUS
  5
63F
 10
416.492083
 20
398.066904
 30
0.0
 11
416.492083
 21
412.566548
 31
0.0
  0
LINE
  8
LC-002-002-----0
  6
CONTINUOUS
  5
640
 10
413.992083
 20
398.066904
 30
0.0
 11
413.992083
 21
412.566548
 31
0.0
  0
ARC
  8
LC-002-002-----0
  6
CONTINUOUS
  5
641
 10
418.492083
 20
412.566548
 30
0.0
 40
2.0
 50
90.0
 51
180.0
  0
LINE
  8
LC-002-002-----0
  6
CONTINUOUS
  5
642
 10
390.886086
 20
398.067007
 30
0.0
 11
390.886086
 21
412.566548
 31
0.0
  0
LINE
  8
LC-002-002-----0
  6
CONTINUOUS
  5
643
 10
386.555959
 20
399.903683
 30
0.0
 11
386.555959
 21
412.566548
 31
0.0
  0
LINE
  8
LC-002-002-----0
  6
CONTINUOUS
  5
644
 10
392.63708
 20
414.566548
 30
0.0
 11
388.555959
 21
414.566548
 31
0.0
  0
ARC
  8
LC-002-002-----0
  6
CONTINUOUS
  5
645
 10
388.555959
 20
412.566548
 30
0.0
 40
2.0
 50
90.0
 51
180.0
  0
ARC
  8
LC-002-002-----0
  6
CONTINUOUS
  5
646
 10
392.886086
 20
412.566548
 30
0.0
 40
2.0
 50
97.096995
 51
180.0
  0
LINE
  8
LC-002-002-----0
  6
CONTINUOUS
  5
647
 10
392.63708
 20
398.067012
 30
0.0
 11
392.63708
 21
414.566548
 31
0.0
  0
LINE
  8
LC-002-002-----0
  6
CONTINUOUS
  5
648
 10
349.992581
 20
414.566548
 30
0.0
 11
352.492581
 21
414.566548
 31
0.0
  0
ARC
  8
LC-002-002-----0
  6
CONTINUOUS
  5
649
 10
288.993079
 20
412.566548
 30
0.0
 40
2.0
 50
0.0
 51
90.0
  0
LINE
  8
LC-002-002-----0
  6
CONTINUOUS
  5
64A
 10
285.460269
 20
414.566548
 30
0.0
 11
288.993079
 21
414.566548
 31
0.0
  0
LINE
  8
LC-002-002-----0
  6
CONTINUOUS
  5
64B
 10
285.460269
 20
398.066904
 30
0.0
 11
285.460269
 21
414.566548
 31
0.0
  0
LINE
  8
LC-002-002-----0
  6
CONTINUOUS
  5
64C
 10
349.992581
 20
410.810192
 30
0.0
 11
349.992581
 21
414.566548
 31
0.0
  0
LINE
  8
LC-002-002-----0
  6
CONTINUOUS
  5
64D
 10
288.493079
 20
398.066904
 30
0.0
 11
288.493079
 21
412.566548
 31
0.0
  0
LINE
  8
LC-002-002-----0
  6
CONTINUOUS
  5
64E
 10
290.993079
 20
398.066904
 30
0.0
 11
290.993079
 21
412.566548
 31
0.0
  0
ARC
  8
LC-002-002-----0
  6
CONTINUOUS
  5
64F
 10
286.493079
 20
412.566548
 30
0.0
 40
2.0
 50
0.0
 51
90.0
  0
LINE
  8
LC-002-002-----0
  6
CONTINUOUS
  5
650
 10
314.099075
 20
398.066904
 30
0.0
 11
314.099075
 21
412.566548
 31
0.0
  0
LINE
  8
LC-002-002-----0
  6
CONTINUOUS
  5
651
 10
318.429202
 20
399.91384
 30
0.0
 11
318.429202
 21
412.566548
 31
0.0
  0
LINE
  8
LC-002-002-----0
  6
CONTINUOUS
  5
652
 10
312.348082
 20
414.566548
 30
0.0
 11
316.429202
 21
414.566548
 31
0.0
  0
ARC
  8
LC-002-002-----0
  6
CONTINUOUS
  5
653
 10
316.429202
 20
412.566548
 30
0.0
 40
2.0
 50
0.0
 51
90.0
  0
ARC
  8
LC-002-002-----0
  6
CONTINUOUS
  5
654
 10
312.099075
 20
412.566548
 30
0.0
 40
2.0
 50
0.0
 51
82.903005
  0
LINE
  8
LC-002-002-----0
  6
CONTINUOUS
  5
655
 10
312.348082
 20
398.066904
 30
0.0
 11
312.348082
 21
414.566548
 31
0.0
  0
LINE
  8
LC-002-002-----0
  6
CONTINUOUS
  5
656
 10
408.041845
 20
395.566904
 30
0.0
 11
408.041845
 21
398.066904
 31
0.0
  0
LINE
  8
LC-002-002-----0
  6
CONTINUOUS
  5
657
 10
396.77881
 20
395.566904
 30
0.0
 11
396.77881
 21
398.066904
 31
0.0
  0
LINE
  8
LC-002-002-----0
  6
CONTINUOUS
  5
658
 10
389.618083
 20
398.066904
 30
0.0
 11
396.77881
 21
398.066904
 31
0.0
  0
LINE
  8
LC-002-002-----0
  6
CONTINUOUS
  5
659
 10
393.214295
 20
395.566904
 30
0.0
 11
393.214295
 21
398.066904
 31
0.0
  0
LINE
  8
LC-002-002-----0
  6
CONTINUOUS
  5
65A
 10
444.012022
 20
414.301141
 30
0.0
 11
438.07637
 21
413.88608
 31
0.0
  0
LINE
  8
LC-002-002-----0
  6
CONTINUOUS
  5
65B
 10
439.152949
 20
411.440311
 30
0.0
 11
439.152949
 21
398.587893
 31
0.0
  0
LINE
  8
LC-002-002-----0
  6
CONTINUOUS
  5
65C
 10
439.152949
 20
411.440311
 30
0.0
 11
440.870892
 21
411.440311
 31
0.0
  0
LINE
  8
LC-002-002-----0
  6
CONTINUOUS
  5
65D
 10
444.012274
 20
414.297536
 30
0.0
 11
444.012274
 21
406.674563
 31
0.0
  0
ARC
  8
LC-003-002-RND-0
  6
CONTINUOUS
  5
65E
 10
442.932424
 20
406.687396
 30
0.0
 40
1.07985
 50
273.999997
 51
0.0
  0
LINE
  8
LC-002-002-----0
  6
CONTINUOUS
  5
65F
 10
443.007751
 20
405.610177
 30
0.0
 11
440.870892
 21
405.460753
 31
0.0
  0
LINE
  8
LC-002-002-----0
  6
CONTINUOUS
  5
660
 10
440.870892
 20
405.460753
 30
0.0
 11
440.870892
 21
411.440311
 31
0.0
  0
ARC
  8
LC-002-002-----0
  6
CONTINUOUS
  5
661
 10
438.357041
 20
409.872294
 30
0.0
 40
4.023715
 50
93.998836
 51
111.246312
  0
LINE
  8
LC-002-002-----0
  6
CONTINUOUS
  5
662
 10
431.95906
 20
408.325371
 30
0.0
 11
436.898935
 21
413.622522
 31
0.0
  0
ARC
  8
LC-002-002-----0
  6
CONTINUOUS
  5
663
 10
432.176289
 20
408.124994
 30
0.0
 40
0.296443
 50
137.000136
 51
290.000136
  0
LINE
  8
LC-002-002-----0
  6
CONTINUOUS
  5
664
 10
432.277245
 20
407.844626
 30
0.0
 11
435.570435
 21
409.043174
 31
0.0
  0
ARC
  8
LC-002-002-----0
  6
CONTINUOUS
  5
665
 10
435.908381
 20
408.114617
 30
0.0
 40
0.988142
 50
359.998586
 51
109.998839
  0
LINE
  8
LC-002-002-----0
  6
CONTINUOUS
  5
666
 10
436.896523
 20
408.114617
 30
0.0
 11
436.896493
 21
406.798878
 31
0.0
  0
ARC
  8
LC-002-002-----0
  6
CONTINUOUS
  5
667
 10
436.402422
 20
406.798889
 30
0.0
 40
0.494071
 50
316.998839
 51
359.998703
  0
LINE
  8
LC-002-002-----0
  6
CONTINUOUS
  5
668
 10
431.958902
 20
401.30956
 30
0.0
 11
436.763756
 21
406.461926
 31
0.0
  0
ARC
  8
LC-002-002-----0
  6
CONTINUOUS
  5
669
 10
432.176289
 20
401.109183
 30
0.0
 40
0.296443
 50
137.000136
 51
290.000136
  0
LINE
  8
LC-002-002-----0
  6
CONTINUOUS
  5
66A
 10
432.277086
 20
400.828815
 30
0.0
 11
435.570277
 21
402.027363
 31
0.0
  0
ARC
  8
LC-002-002-----0
  6
CONTINUOUS
  5
66B
 10
435.908222
 20
401.098806
 30
0.0
 40
0.988142
 50
359.998586
 51
109.998839
  0
LINE
  8
LC-002-002-----0
  6
CONTINUOUS
  5
66C
 10
436.89635
 20
401.098784
 30
0.0
 11
436.896288
 21
398.585985
 31
0.0
  0
LINE
  8
LC-002-002-----0
  6
CONTINUOUS
  5
66D
 10
439.152421
 20
398.587893
 30
0.0
 11
436.896288
 21
398.587893
 31
0.0
  0
LINE
  8
LC-002-002-----0
  6
CONTINUOUS
  5
66E
 10
260.949663
 20
414.301141
 30
0.0
 11
266.885315
 21
413.88608
 31
0.0
  0
LINE
  8
LC-002-002-----0
  6
CONTINUOUS
  5
66F
 10
265.808736
 20
411.440311
 30
0.0
 11
265.808736
 21
398.587893
 31
0.0
  0
LINE
  8
LC-002-002-----0
  6
CONTINUOUS
  5
670
 10
265.808736
 20
411.440311
 30
0.0
 11
264.090793
 21
411.440311
 31
0.0
  0
LINE
  8
LC-002-002-----0
  6
CONTINUOUS
  5
671
 10
260.949411
 20
414.297536
 30
0.0
 11
260.949411
 21
406.674563
 31
0.0
  0
ARC
  8
LC-003-002-RND-0
  6
CONTINUOUS
  5
672
 10
262.029261
 20
406.687396
 30
0.0
 40
1.07985
 50
180.0
 51
266.000003
  0
LINE
  8
LC-002-002-----0
  6
CONTINUOUS
  5
673
 10
261.953935
 20
405.610177
 30
0.0
 11
264.090793
 21
405.460753
 31
0.0
  0
LINE
  8
LC-002-002-----0
  6
CONTINUOUS
  5
674
 10
264.090793
 20
405.460753
 30
0.0
 11
264.090793
 21
411.440311
 31
0.0
  0
ARC
  8
LC-002-002-----0
  6
CONTINUOUS
  5
675
 10
266.604644
 20
409.872294
 30
0.0
 40
4.023715
 50
68.753688
 51
86.001164
  0
LINE
  8
LC-002-002-----0
  6
CONTINUOUS
  5
676
 10
273.002625
 20
408.325371
 30
0.0
 11
268.062751
 21
413.622522
 31
0.0
  0
ARC
  8
LC-002-002-----0
  6
CONTINUOUS
  5
677
 10
272.785396
 20
408.124994
 30
0.0
 40
0.296443
 50
249.999864
 51
42.999864
  0
LINE
  8
LC-002-002-----0
  6
CONTINUOUS
  5
678
 10
272.684441
 20
407.844626
 30
0.0
 11
269.39125
 21
409.043174
 31
0.0
  0
ARC
  8
LC-002-002-----0
  6
CONTINUOUS
  5
679
 10
269.053304
 20
408.114617
 30
0.0
 40
0.988142
 50
70.001161
 51
180.001414
  0
LINE
  8
LC-002-002-----0
  6
CONTINUOUS
  5
67A
 10
268.065163
 20
408.114617
 30
0.0
 11
268.065192
 21
406.798878
 31
0.0
  0
ARC
  8
LC-002-002-----0
  6
CONTINUOUS
  5
67B
 10
268.559264
 20
406.798889
 30
0.0
 40
0.494071
 50
180.001297
 51
223.001161
  0
LINE
  8
LC-002-002-----0
  6
CONTINUOUS
  5
67C
 10
273.002784
 20
401.30956
 30
0.0
 11
268.19793
 21
406.461926
 31
0.0
  0
ARC
  8
LC-002-002-----0
  6
CONTINUOUS
  5
67D
 10
272.785396
 20
401.109183
 30
0.0
 40
0.296443
 50
249.999864
 51
42.999864
  0
LINE
  8
LC-002-002-----0
  6
CONTINUOUS
  5
67E
 10
272.6846
 20
400.828815
 30
0.0
 11
269.391409
 21
402.027363
 31
0.0
  0
ARC
  8
LC-002-002-----0
  6
CONTINUOUS
  5
67F
 10
269.053463
 20
401.098806
 30
0.0
 40
0.988142
 50
70.001161
 51
180.001414
  0
LINE
  8
LC-002-002-----0
  6
CONTINUOUS
  5
680
 10
268.065335
 20
401.098784
 30
0.0
 11
268.065397
 21
398.585985
 31
0.0
  0
LINE
  8
LC-002-002-----0
  6
CONTINUOUS
  5
681
 10
265.809265
 20
398.587893
 30
0.0
 11
268.065397
 21
398.587893
 31
0.0
  0
ENDSEC
  0
EOF
