  0
SECTION
  2
HEADER
  9
$ACADVER
  1
AC1009
  9
$INSBASE
 10
0.0
 20
0.0
 30
0.0
  9
$EXTMIN
 10
-222.52295
 20
-236.22
 30
0.0
  9
$EXTMAX
 10
617.47705
 20
357.78
 30
0.0
  9
$LIMMIN
 10
-222.52295
 20
-236.22
  9
$LIMMAX
 10
617.47705
 20
357.78
  9
$ORTHOMODE
 70
     0
  9
$REGENMODE
 70
     1
  9
$FILLMODE
 70
     1
  9
$QTEXTMODE
 70
     0
  9
$MIRRTEXT
 70
     1
  9
$DRAGMODE
 70
     2
  9
$LTSCALE
 40
2.0
  9
$OSMODE
 70
     0
  9
$ATTMODE
 70
     1
  9
$TEXTSIZE
 40
0.2
  9
$TRACEWID
 40
0.05
  9
$TEXTSTYLE
  7
STANDARD
  9
$CLAYER
  8
0
  9
$CELTYPE
  6
BYLAYER
  9
$CECOLOR
 62
     7
  9
$DIMSCALE
 40
2.0
  9
$DIMASZ
 40
3.5
  9
$DIMEXO
 40
0.0625
  9
$DIMDLI
 40
0.38
  9
$DIMRND
 40
0.0
  9
$DIMDLE
 40
0.0
  9
$DIMEXE
 40
0.18
  9
$DIMTP
 40
0.0
  9
$DIMTM
 40
0.0
  9
$DIMTXT
 40
3.5
  9
$DIMCEN
 40
0.09
  9
$DIMTSZ
 40
0.0
  9
$DIMTOL
 70
     0
  9
$DIMLIM
 70
     0
  9
$DIMTIH
 70
     1
  9
$DIMTOH
 70
     1
  9
$DIMSE1
 70
     0
  9
$DIMSE2
 70
     0
  9
$DIMTAD
 70
     1
  9
$DIMZIN
 70
     0
  9
$DIMBLK
  1

  9
$DIMASO
 70
     1
  9
$DIMSHO
 70
     1
  9
$DIMPOST
  1

  9
$DIMAPOST
  1

  9
$DIMALT
 70
     0
  9
$DIMALTD
 70
     2
  9
$DIMALTF
 40
25.4
  9
$DIMLFAC
 40
1.0
  9
$DIMTOFL
 70
     0
  9
$DIMTVP
 40
0.0
  9
$DIMTIX
 70
     0
  9
$DIMSOXD
 70
     0
  9
$DIMSAH
 70
     0
  9
$DIMBLK1
  1

  9
$DIMBLK2
  1

  9
$DIMSTYLE
  2
STANDARD
  9
$DIMCLRD
 70
     0
  9
$DIMCLRE
 70
     0
  9
$DIMCLRT
 70
     0
  9
$DIMTFAC
 40
1.0
  9
$DIMGAP
 40
0.09
  9
$LUNITS
 70
     2
  9
$LUPREC
 70
     2
  9
$AXISMODE
 70
     0
  9
$AXISUNIT
 10
0.0
 20
0.0
  9
$SKETCHINC
 40
0.1
  9
$FILLETRAD
 40
0.0
  9
$AUNITS
 70
     0
  9
$AUPREC
 70
     0
  9
$MENU
  1
acad
  9
$ELEVATION
 40
0.0
  9
$PELEVATION
 40
0.0
  9
$THICKNESS
 40
0.0
  9
$LIMCHECK
 70
     0
  9
$BLIPMODE
 70
     1
  9
$CHAMFERA
 40
0.0
  9
$CHAMFERB
 40
0.0
  9
$SKPOLY
 70
     0
  9
$TDCREATE
 40
0.000000000
  9
$TDUPDATE
 40
0.000000000
  9
$TDINDWG
 40
0.0000000000
  9
$TDUSRTIMER
 40
0.0000000000
  9
$USRTIMER
 70
     1
  9
$ANGBASE
 50
0.0
  9
$ANGDIR
 70
     0
  9
$PDMODE
 70
     0
  9
$PDSIZE
 40
0.0
  9
$PLINEWID
 40
0.0
  9
$COORDS
 70
     0
  9
$SPLFRAME
 70
     0
  9
$SPLINETYPE
 70
     6
  9
$SPLINESEGS
 70
     8
  9
$ATTDIA
 70
     0
  9
$ATTREQ
 70
     1
  9
$HANDLING
 70
     1
  9
$HANDSEED
  5
458
  9
$SURFTAB1
 70
     6
  9
$SURFTAB2
 70
     6
  9
$SURFTYPE
 70
     6
  9
$SURFU
 70
     6
  9
$SURFV
 70
     6
  9
$UCSNAME
  2

  9
$UCSORG
 10
0.0
 20
0.0
 30
0.0
  9
$UCSXDIR
 10
1.0
 20
0.0
 30
0.0
  9
$UCSYDIR
 10
0.0
 20
1.0
 30
0.0
  9
$PUCSNAME
  2

  9
$PUCSORG
 10
0.0
 20
0.0
 30
0.0
  9
$PUCSXDIR
 10
1.0
 20
0.0
 30
0.0
  9
$PUCSYDIR
 10
0.0
 20
1.0
 30
0.0
  9
$USERI1
 70
     0
  9
$USERI2
 70
     0
  9
$USERI3
 70
     0
  9
$USERI4
 70
     0
  9
$USERI5
 70
     0
  9
$USERR1
 40
0.0
  9
$USERR2
 40
0.0
  9
$USERR3
 40
0.0
  9
$USERR4
 40
0.0
  9
$USERR5
 40
0.0
  9
$WORLDVIEW
 70
     1
  9
$SHADEDGE
 70
     3
  9
$SHADEDIF
 70
    70
  9
$TILEMODE
 70
     1
  9
$MAXACTVP
 70
    16
  9
$PINSBASE
 10
0.0
 20
0.0
 30
0.0
  9
$PLIMCHECK
 70
     0
  9
$PEXTMIN
 10
1.000000E+20
 20
1.000000E+20
 30
1.000000E+20
  9
$PEXTMAX
 10
-1.000000E+20
 20
-1.000000E+20
 30
-1.000000E+20
  9
$PLIMMIN
 10
-222.52295
 20
-236.22
  9
$PLIMMAX
 10
617.47705
 20
357.78
  9
$UNITMODE
 70
     0
  9
$VISRETAIN
 70
     0
  9
$PLINEGEN
 70
     1
  9
$PSLTSCALE
 70
     0
  9
$TREEDEPTH
 70
  3020
  9
$DWGCODEPAGE
  3
dos850
  0
ENDSEC
  0
SECTION
  2
TABLES
  0
TABLE
  2
VPORT
 70
     1
  0
VPORT
  2
*ACTIVE
 70
     0
 10
0.0
 20
0.0
 11
1.0
 21
1.0
 12
420.0
 22
297.0
 13
0.0
 23
0.0
 14
1.0
 24
1.0
 15
0.0
 25
0.0
 16
0.0
 26
0.0
 36
1.0
 17
-222.52295
 27
-236.22
 37
0.0
 40
594.0
 41
1.604229
 42
50.0
 43
0.0
 44
0.0
 50
0.0
 51
0.0
 71
     0
 72
   100
 73
     1
 74
     1
 75
     0
 76
     0
 77
     0
 78
     0
  0
ENDTAB
  0
TABLE
  2
LTYPE
 70
     3
  0
LTYPE
  2
CONTINUOUS
 70
    64
  3
Solid line
 72
    65
 73
     0
 40
0.0
  0
LTYPE
  2
DASHED
 70
    64
  3
__ __ __ __ __
 72
    65
 73
     2
 40
6.25
 49
5.0
 49
-1.25
  0
LTYPE
  2
DASHDOT
 70
    64
  3
__ . __ . __ . __ . __
 72
    65
 73
     4
 40
7.5
 49
5.0
 49
-1.25
 49
0.0
 49
-1.25
  0
ENDTAB
  0
TABLE
  2
LAYER
 70
    13
  0
LAYER
  2
0
 70
     0
 62
     7
  6
CONTINUOUS
  0
LAYER
  2
LC-INFO-1-2-MM-A3-0
 70
     1
 62
    -1
  6
CONTINUOUS
  0
LAYER
  2
LC-003-005-----0
 70
     0
 62
     2
  6
CONTINUOUS
  0
LAYER
  2
LC-006-003-MTH-0
 70
     0
 62
     2
  6
CONTINUOUS
  0
LAYER
  2
LC-005-003-----0
 70
     0
 62
     2
  6
CONTINUOUS
  0
LAYER
  2
LC-007-003-MTG-0
 70
     0
 62
     2
  6
CONTINUOUS
  0
LAYER
  2
LC-004-000-----0
 70
     0
 62
     7
  6
CONTINUOUS
  0
LAYER
  2
LC-008-000-----0
 70
     0
 62
     7
  6
CONTINUOUS
  0
LAYER
  2
LC-001-002-----0
 70
     0
 62
     1
  6
CONTINUOUS
  0
LAYER
  2
LC-002-002-RND-0
 70
     0
 62
     1
  6
CONTINUOUS
  0
LAYER
  2
LC-009-001-RND-0
 70
     0
 62
     1
  6
CONTINUOUS
  0
LAYER
  2
LC-010-001-----0
 70
     0
 62
     1
  6
CONTINUOUS
  0
LAYER
  2
LC-000
 70
     0
 62
     7
  6
CONTINUOUS
  0
ENDTAB
  0
TABLE
  2
STYLE
 70
     3
  0
STYLE
  2
STANDARD
 70
     0
 40
0.0
 41
1.0
 50
0.0
 71
     0
 42
0.0
  3
txt
  4

  0
STYLE
  2
LC-TXTSTYLE-150-400-0-0-A1
 70
    64
 40
0.0
 41
1.0
 50
15.0
 71
     0
 42
3.5
  3
Arial
  4

  0
STYLE
  2
LC-STANDARD
 70
    64
 40
0.0
 41
1.0
 50
0.0
 71
     0
 42
3.5
  3
MONOTXT
  4

  0
ENDTAB
  0
TABLE
  2
VIEW
 70
     0
  0
ENDTAB
  0
TABLE
  2
UCS
 70
     0
  0
ENDTAB
  0
TABLE
  2
APPID
 70
     1
  0
APPID
  2
ACAD
 70
     0
  0
ENDTAB
  0
TABLE
  2
DIMSTYLE
 70
     3
  0
DIMSTYLE
  2
STANDARD
 70
     0
  3

  4

  5

  6

  7

 40
1.0
 41
0.18
 42
0.0625
 43
0.38
 44
0.18
 45
0.0
 46
0.0
 47
0.0
 48
0.0
 71
     0
 72
     0
 73
     1
 74
     1
 75
     0
 76
     0
 77
     0
 78
     0
140
0.18
141
0.09
142
0.0
143
25.4
144
1.0
145
0.0
146
1.0
147
0.09
170
     0
171
     2
172
     0
173
     0
174
     0
175
     0
176
     0
177
     0
178
     0
  0
DIMSTYLE
  2
LC-STANDARD
 70
     0
  3

  4

  5

  6

  7

 40
1.0
 41
3.5
 42
0.0
 43
7.5
 44
1.8
 45
0.0
 46
0.0
 47
0.0
 48
0.0
 71
     0
 72
     0
 73
     0
 74
     0
 75
     0
 76
     0
 77
     1
 78
     8
140
3.5
141
0.0
142
0.0
143
25.4
144
1.0
145
0.0
146
0.71
147
1.5
170
     0
171
     2
172
     1
173
     0
174
     0
175
     0
176
     0
177
     0
178
     3
  0
DIMSTYLE
  2
LC-DIM-L-0140-02-02
 70
     0
  3

  4

  5

  6

  7

 40
2.0
 41
3.5
 42
0.0
 43
7.5
 44
1.8
 45
0.0
 46
0.0
 47
0.0
 48
0.0
 71
     0
 72
     0
 73
     0
 74
     0
 75
     0
 76
     0
 77
     1
 78
     8
140
14.0
141
0.0
142
0.0
143
25.4
144
1.0
145
0.0
146
0.71
147
1.5
170
     0
171
     2
172
     0
173
     0
174
     0
175
     0
176
     2
177
     2
178
     8
  0
ENDTAB
  0
ENDSEC
  0
SECTION
  2
BLOCKS
  0
BLOCK
  8
0
  5
23
  2
*X0
 70
    65
 10
124.48112
 20
28.464096
 30
0.0
  3
*X0
  0
LINE
  8
LC-003-005-----0
  6
CONTINUOUS
  5
25
 10
161.400171
 20
28.464096
 30
0.0
 11
164.05778
 21
31.121705
 31
0.0
  0
LINE
  8
LC-003-005-----0
  6
CONTINUOUS
  5
26
 10
158.641313
 20
28.533665
 30
0.0
 11
161.0217
 21
30.914052
 31
0.0
  0
LINE
  8
LC-003-005-----0
  6
CONTINUOUS
  5
27
 10
162.05774
 20
31.950092
 30
0.0
 11
164.05778
 21
33.950132
 31
0.0
  0
LINE
  8
LC-003-005-----0
  6
CONTINUOUS
  5
28
 10
162.05778
 20
34.778559
 30
0.0
 11
164.05778
 21
36.778559
 31
0.0
  0
LINE
  8
LC-003-005-----0
  6
CONTINUOUS
  5
29
 10
162.05778
 20
37.606986
 30
0.0
 11
164.05778
 21
39.606986
 31
0.0
  0
LINE
  8
LC-003-005-----0
  6
CONTINUOUS
  5
2A
 10
160.083957
 20
38.461591
 30
0.0
 11
164.05778
 21
42.435413
 31
0.0
  0
LINE
  8
LC-003-005-----0
  6
CONTINUOUS
  5
2B
 10
162.05778
 20
43.26384
 30
0.0
 11
164.05778
 21
45.26384
 31
0.0
  0
LINE
  8
LC-003-005-----0
  6
CONTINUOUS
  5
2C
 10
162.05778
 20
46.092267
 30
0.0
 11
164.05778
 21
48.092267
 31
0.0
  0
LINE
  8
LC-003-005-----0
  6
CONTINUOUS
  5
2D
 10
160.598676
 20
47.461591
 30
0.0
 11
164.001915
 21
50.86483
 31
0.0
  0
LINE
  8
LC-003-005-----0
  6
CONTINUOUS
  5
2E
 10
160.05778
 20
49.749122
 30
0.0
 11
160.770249
 21
50.461591
 31
0.0
  0
LINE
  8
LC-003-005-----0
  6
CONTINUOUS
  5
2F
 10
161.85778
 20
51.549122
 30
0.0
 11
163.655819
 21
53.347161
 31
0.0
  0
LINE
  8
LC-003-005-----0
  6
CONTINUOUS
  5
30
 10
161.32563
 20
53.845399
 30
0.0
 11
163.060862
 21
55.580632
 31
0.0
  0
LINE
  8
LC-003-005-----0
  6
CONTINUOUS
  5
31
 10
159.813228
 20
55.161424
 30
0.0
 11
162.263769
 21
57.611965
 31
0.0
  0
LINE
  8
LC-003-005-----0
  6
CONTINUOUS
  5
32
 10
159.019803
 20
57.196427
 30
0.0
 11
161.292172
 21
59.468796
 31
0.0
  0
LINE
  8
LC-003-005-----0
  6
CONTINUOUS
  5
33
 10
157.895148
 20
58.900199
 30
0.0
 11
160.162824
 21
61.167875
 31
0.0
  0
LINE
  8
LC-003-005-----0
  6
CONTINUOUS
  5
34
 10
156.48028
 20
60.313758
 30
0.0
 11
158.885372
 21
62.71885
 31
0.0
  0
LINE
  8
LC-003-005-----0
  6
CONTINUOUS
  5
35
 10
154.782363
 20
61.444268
 30
0.0
 11
157.464166
 21
64.126071
 31
0.0
  0
LINE
  8
LC-003-005-----0
  6
CONTINUOUS
  5
36
 10
153.553089
 20
63.043421
 30
0.0
 11
156.393824
 21
65.884156
 31
0.0
  0
LINE
  8
LC-003-005-----0
  6
CONTINUOUS
  5
37
 10
153.40778
 20
65.726539
 30
0.0
 11
156.35856
 21
68.677319
 31
0.0
  0
LINE
  8
LC-003-005-----0
  6
CONTINUOUS
  5
38
 10
153.40778
 20
68.554966
 30
0.0
 11
156.324247
 21
71.471433
 31
0.0
  0
LINE
  8
LC-003-005-----0
  6
CONTINUOUS
  5
39
 10
153.40778
 20
71.383393
 30
0.0
 11
156.289933
 21
74.265547
 31
0.0
  0
LINE
  8
LC-003-005-----0
  6
CONTINUOUS
  5
3A
 10
153.40778
 20
74.21182
 30
0.0
 11
156.25562
 21
77.05966
 31
0.0
  0
LINE
  8
LC-003-005-----0
  6
CONTINUOUS
  5
3B
 10
153.40778
 20
77.040247
 30
0.0
 11
156.221306
 21
79.853774
 31
0.0
  0
LINE
  8
LC-003-005-----0
  6
CONTINUOUS
  5
3C
 10
153.40778
 20
79.868674
 30
0.0
 11
156.186993
 21
82.647888
 31
0.0
  0
LINE
  8
LC-003-005-----0
  6
CONTINUOUS
  5
3D
 10
153.40778
 20
82.697101
 30
0.0
 11
156.15268
 21
85.442001
 31
0.0
  0
LINE
  8
LC-003-005-----0
  6
CONTINUOUS
  5
3E
 10
153.40778
 20
85.525529
 30
0.0
 11
156.118366
 21
88.236115
 31
0.0
  0
LINE
  8
LC-003-005-----0
  6
CONTINUOUS
  5
3F
 10
153.40778
 20
88.353956
 30
0.0
 11
156.084053
 21
91.030229
 31
0.0
  0
LINE
  8
LC-003-005-----0
  6
CONTINUOUS
  5
40
 10
153.40778
 20
91.182383
 30
0.0
 11
156.049739
 21
93.824342
 31
0.0
  0
LINE
  8
LC-003-005-----0
  6
CONTINUOUS
  5
41
 10
153.40778
 20
94.01081
 30
0.0
 11
156.015426
 21
96.618456
 31
0.0
  0
LINE
  8
LC-003-005-----0
  6
CONTINUOUS
  5
42
 10
153.40778
 20
96.839237
 30
0.0
 11
155.981112
 21
99.41257
 31
0.0
  0
LINE
  8
LC-003-005-----0
  6
CONTINUOUS
  5
43
 10
153.40778
 20
99.667664
 30
0.0
 11
155.946799
 21
102.206684
 31
0.0
  0
LINE
  8
LC-003-005-----0
  6
CONTINUOUS
  5
44
 10
153.40778
 20
102.496091
 30
0.0
 11
155.912485
 21
105.000797
 31
0.0
  0
LINE
  8
LC-003-005-----0
  6
CONTINUOUS
  5
45
 10
153.40778
 20
105.324518
 30
0.0
 11
155.878172
 21
107.794911
 31
0.0
  0
LINE
  8
LC-003-005-----0
  6
CONTINUOUS
  5
46
 10
153.40778
 20
108.152946
 30
0.0
 11
155.843859
 21
110.589025
 31
0.0
  0
LINE
  8
LC-003-005-----0
  6
CONTINUOUS
  5
47
 10
153.40778
 20
110.981373
 30
0.0
 11
155.809545
 21
113.383138
 31
0.0
  0
LINE
  8
LC-003-005-----0
  6
CONTINUOUS
  5
48
 10
153.40778
 20
113.8098
 30
0.0
 11
155.775232
 21
116.177252
 31
0.0
  0
LINE
  8
LC-003-005-----0
  6
CONTINUOUS
  5
49
 10
153.40778
 20
116.638227
 30
0.0
 11
155.740918
 21
118.971366
 31
0.0
  0
LINE
  8
LC-003-005-----0
  6
CONTINUOUS
  5
4A
 10
153.40778
 20
119.466654
 30
0.0
 11
155.706605
 21
121.765479
 31
0.0
  0
LINE
  8
LC-003-005-----0
  6
CONTINUOUS
  5
4B
 10
153.40778
 20
122.295081
 30
0.0
 11
155.672291
 21
124.559593
 31
0.0
  0
LINE
  8
LC-003-005-----0
  6
CONTINUOUS
  5
4C
 10
153.40778
 20
125.123508
 30
0.0
 11
156.529278
 21
128.245006
 31
0.0
  0
LINE
  8
LC-003-005-----0
  6
CONTINUOUS
  5
4D
 10
153.40778
 20
127.951935
 30
0.0
 11
153.917435
 21
128.461591
 31
0.0
  0
ENDBLK
  8
0
  5
4E
  0
BLOCK
  8
0
  5
50
  2
*X1
 70
    65
 10
203.75778
 20
28.464096
 30
0.0
  3
*X1
  0
LINE
  8
LC-003-005-----0
  6
CONTINUOUS
  5
51
 10
206.655005
 20
28.464096
 30
0.0
 11
208.616568
 21
30.425659
 31
0.0
  0
LINE
  8
LC-003-005-----0
  6
CONTINUOUS
  5
52
 10
203.826578
 20
28.464096
 30
0.0
 11
206.391122
 21
31.02864
 31
0.0
  0
LINE
  8
LC-003-005-----0
  6
CONTINUOUS
  5
53
 10
203.75778
 20
31.223725
 30
0.0
 11
205.75778
 21
33.223725
 31
0.0
  0
LINE
  8
LC-003-005-----0
  6
CONTINUOUS
  5
54
 10
203.75778
 20
34.052152
 30
0.0
 11
205.75778
 21
36.052152
 31
0.0
  0
LINE
  8
LC-003-005-----0
  6
CONTINUOUS
  5
55
 10
203.75778
 20
36.880579
 30
0.0
 11
207.75778
 21
40.880579
 31
0.0
  0
LINE
  8
LC-003-005-----0
  6
CONTINUOUS
  5
56
 10
203.75778
 20
39.709006
 30
0.0
 11
205.783786
 21
41.735013
 31
0.0
  0
LINE
  8
LC-003-005-----0
  6
CONTINUOUS
  5
57
 10
203.75778
 20
42.537433
 30
0.0
 11
205.75778
 21
44.537433
 31
0.0
  0
LINE
  8
LC-003-005-----0
  6
CONTINUOUS
  5
58
 10
203.75778
 20
45.365861
 30
0.0
 11
207.75778
 21
49.365861
 31
0.0
  0
LINE
  8
LC-003-005-----0
  6
CONTINUOUS
  5
59
 10
203.75778
 20
48.194288
 30
0.0
 11
206.285126
 21
50.721634
 31
0.0
  0
LINE
  8
LC-003-005-----0
  6
CONTINUOUS
  5
5A
 10
203.832544
 20
51.097479
 30
0.0
 11
206.007231
 21
53.272166
 31
0.0
  0
LINE
  8
LC-003-005-----0
  6
CONTINUOUS
  5
5B
 10
206.647204
 20
53.91214
 30
0.0
 11
208.042817
 21
55.307752
 31
0.0
  0
LINE
  8
LC-003-005-----0
  6
CONTINUOUS
  5
5C
 10
204.441195
 20
54.534558
 30
0.0
 11
214.40778
 21
64.501142
 31
0.0
  0
LINE
  8
LC-003-005-----0
  6
CONTINUOUS
  5
5D
 10
206.489335
 20
59.411125
 30
0.0
 11
214.40778
 21
67.329569
 31
0.0
  0
LINE
  8
LC-003-005-----0
  6
CONTINUOUS
  5
5E
 10
211.438721
 20
67.188937
 30
0.0
 11
214.40778
 21
70.157996
 31
0.0
  0
LINE
  8
LC-003-005-----0
  6
CONTINUOUS
  5
5F
 10
211.473888
 20
70.052531
 30
0.0
 11
214.40778
 21
72.986423
 31
0.0
  0
LINE
  8
LC-003-005-----0
  6
CONTINUOUS
  5
60
 10
211.509054
 20
72.916125
 30
0.0
 11
214.40778
 21
75.81485
 31
0.0
  0
LINE
  8
LC-003-005-----0
  6
CONTINUOUS
  5
61
 10
211.544221
 20
75.779719
 30
0.0
 11
214.40778
 21
78.643278
 31
0.0
  0
LINE
  8
LC-003-005-----0
  6
CONTINUOUS
  5
62
 10
211.579388
 20
78.643313
 30
0.0
 11
214.40778
 21
81.471705
 31
0.0
  0
LINE
  8
LC-003-005-----0
  6
CONTINUOUS
  5
63
 10
211.614554
 20
81.506907
 30
0.0
 11
214.40778
 21
84.300132
 31
0.0
  0
LINE
  8
LC-003-005-----0
  6
CONTINUOUS
  5
64
 10
211.649721
 20
84.3705
 30
0.0
 11
214.40778
 21
87.128559
 31
0.0
  0
LINE
  8
LC-003-005-----0
  6
CONTINUOUS
  5
65
 10
211.684888
 20
87.234094
 30
0.0
 11
214.40778
 21
89.956986
 31
0.0
  0
LINE
  8
LC-003-005-----0
  6
CONTINUOUS
  5
66
 10
211.720054
 20
90.097688
 30
0.0
 11
214.40778
 21
92.785413
 31
0.0
  0
LINE
  8
LC-003-005-----0
  6
CONTINUOUS
  5
67
 10
211.755221
 20
92.961282
 30
0.0
 11
214.40778
 21
95.61384
 31
0.0
  0
LINE
  8
LC-003-005-----0
  6
CONTINUOUS
  5
68
 10
211.790388
 20
95.824876
 30
0.0
 11
214.40778
 21
98.442267
 31
0.0
  0
LINE
  8
LC-003-005-----0
  6
CONTINUOUS
  5
69
 10
211.825554
 20
98.688469
 30
0.0
 11
214.40778
 21
101.270695
 31
0.0
  0
LINE
  8
LC-003-005-----0
  6
CONTINUOUS
  5
6A
 10
211.860721
 20
101.552063
 30
0.0
 11
214.40778
 21
104.099122
 31
0.0
  0
LINE
  8
LC-003-005-----0
  6
CONTINUOUS
  5
6B
 10
211.895888
 20
104.415657
 30
0.0
 11
214.40778
 21
106.927549
 31
0.0
  0
LINE
  8
LC-003-005-----0
  6
CONTINUOUS
  5
6C
 10
211.931055
 20
107.279251
 30
0.0
 11
214.40778
 21
109.755976
 31
0.0
  0
LINE
  8
LC-003-005-----0
  6
CONTINUOUS
  5
6D
 10
211.966221
 20
110.142845
 30
0.0
 11
214.40778
 21
112.584403
 31
0.0
  0
LINE
  8
LC-003-005-----0
  6
CONTINUOUS
  5
6E
 10
212.001388
 20
113.006439
 30
0.0
 11
214.40778
 21
115.41283
 31
0.0
  0
LINE
  8
LC-003-005-----0
  6
CONTINUOUS
  5
6F
 10
212.036555
 20
115.870032
 30
0.0
 11
214.40778
 21
118.241257
 31
0.0
  0
LINE
  8
LC-003-005-----0
  6
CONTINUOUS
  5
70
 10
212.071721
 20
118.733626
 30
0.0
 11
214.40778
 21
121.069684
 31
0.0
  0
LINE
  8
LC-003-005-----0
  6
CONTINUOUS
  5
71
 10
212.106888
 20
121.59722
 30
0.0
 11
214.40778
 21
123.898112
 31
0.0
  0
LINE
  8
LC-003-005-----0
  6
CONTINUOUS
  5
72
 10
212.142055
 20
124.460814
 30
0.0
 11
214.40778
 21
126.726539
 31
0.0
  0
LINE
  8
LC-003-005-----0
  6
CONTINUOUS
  5
73
 10
211.403985
 20
126.551172
 30
0.0
 11
213.314405
 21
128.461591
 31
0.0
  0
ENDBLK
  8
0
  5
74
  0
BLOCK
  8
0
  5
76
  2
*X2
 70
    65
 10
104.65778
 20
31.729172
 30
0.0
  3
*X2
  0
LINE
  8
LC-003-005-----0
  6
CONTINUOUS
  5
77
 10
251.234207
 20
61.729589
 30
0.0
 11
252.354306
 21
62.849689
 31
0.0
  0
LINE
  8
LC-003-005-----0
  6
CONTINUOUS
  5
78
 10
257.037263
 20
67.532646
 30
0.0
 11
258.157362
 21
68.652745
 31
0.0
  0
LINE
  8
LC-003-005-----0
  6
CONTINUOUS
  5
79
 10
248.405362
 20
61.729172
 30
0.0
 11
249.405362
 21
62.729172
 31
0.0
  0
LINE
  8
LC-003-005-----0
  6
CONTINUOUS
  5
7A
 10
257.15778
 20
70.481589
 30
0.0
 11
258.15778
 21
71.481589
 31
0.0
  0
LINE
  8
LC-003-005-----0
  6
CONTINUOUS
  5
7B
 10
245.576935
 20
61.729172
 30
0.0
 11
246.576935
 21
62.729172
 31
0.0
  0
LINE
  8
LC-003-005-----0
  6
CONTINUOUS
  5
7C
 10
257.15778
 20
73.310016
 30
0.0
 11
258.15778
 21
74.310016
 31
0.0
  0
LINE
  8
LC-003-005-----0
  6
CONTINUOUS
  5
7D
 10
242.748508
 20
61.729172
 30
0.0
 11
243.748508
 21
62.729172
 31
0.0
  0
LINE
  8
LC-003-005-----0
  6
CONTINUOUS
  5
7E
 10
257.15778
 20
76.138444
 30
0.0
 11
258.15778
 21
77.138444
 31
0.0
  0
LINE
  8
LC-003-005-----0
  6
CONTINUOUS
  5
7F
 10
239.920081
 20
61.729172
 30
0.0
 11
240.920081
 21
62.729172
 31
0.0
  0
LINE
  8
LC-003-005-----0
  6
CONTINUOUS
  5
80
 10
257.15778
 20
78.966871
 30
0.0
 11
258.15778
 21
79.966871
 31
0.0
  0
LINE
  8
LC-003-005-----0
  6
CONTINUOUS
  5
81
 10
207.90778
 20
32.545298
 30
0.0
 11
208.90778
 21
33.545298
 31
0.0
  0
LINE
  8
LC-003-005-----0
  6
CONTINUOUS
  5
82
 10
237.091654
 20
61.729172
 30
0.0
 11
238.091654
 21
62.729172
 31
0.0
  0
LINE
  8
LC-003-005-----0
  6
CONTINUOUS
  5
83
 10
257.15778
 20
81.795298
 30
0.0
 11
258.15778
 21
82.795298
 31
0.0
  0
LINE
  8
LC-003-005-----0
  6
CONTINUOUS
  5
84
 10
207.90778
 20
35.373725
 30
0.0
 11
208.90778
 21
36.373725
 31
0.0
  0
LINE
  8
LC-003-005-----0
  6
CONTINUOUS
  5
85
 10
234.263227
 20
61.729172
 30
0.0
 11
235.263227
 21
62.729172
 31
0.0
  0
LINE
  8
LC-003-005-----0
  6
CONTINUOUS
  5
86
 10
257.15778
 20
84.623725
 30
0.0
 11
258.15778
 21
85.623725
 31
0.0
  0
LINE
  8
LC-003-005-----0
  6
CONTINUOUS
  5
87
 10
207.90778
 20
38.202152
 30
0.0
 11
208.90778
 21
39.202152
 31
0.0
  0
LINE
  8
LC-003-005-----0
  6
CONTINUOUS
  5
88
 10
231.4348
 20
61.729172
 30
0.0
 11
232.4348
 21
62.729172
 31
0.0
  0
LINE
  8
LC-003-005-----0
  6
CONTINUOUS
  5
89
 10
257.15778
 20
87.452152
 30
0.0
 11
258.15778
 21
88.452152
 31
0.0
  0
LINE
  8
LC-003-005-----0
  6
CONTINUOUS
  5
8A
 10
207.90778
 20
41.030579
 30
0.0
 11
208.90778
 21
42.030579
 31
0.0
  0
LINE
  8
LC-003-005-----0
  6
CONTINUOUS
  5
8B
 10
228.606373
 20
61.729172
 30
0.0
 11
229.606373
 21
62.729172
 31
0.0
  0
LINE
  8
LC-003-005-----0
  6
CONTINUOUS
  5
8C
 10
257.15778
 20
90.280579
 30
0.0
 11
258.15778
 21
91.280579
 31
0.0
  0
LINE
  8
LC-003-005-----0
  6
CONTINUOUS
  5
8D
 10
207.90778
 20
43.859006
 30
0.0
 11
208.90778
 21
44.859006
 31
0.0
  0
LINE
  8
LC-003-005-----0
  6
CONTINUOUS
  5
8E
 10
225.777945
 20
61.729172
 30
0.0
 11
226.777945
 21
62.729172
 31
0.0
  0
LINE
  8
LC-003-005-----0
  6
CONTINUOUS
  5
8F
 10
257.15778
 20
93.109006
 30
0.0
 11
258.15778
 21
94.109006
 31
0.0
  0
LINE
  8
LC-003-005-----0
  6
CONTINUOUS
  5
90
 10
207.90778
 20
46.687433
 30
0.0
 11
208.90778
 21
47.687433
 31
0.0
  0
LINE
  8
LC-003-005-----0
  6
CONTINUOUS
  5
91
 10
222.949518
 20
61.729172
 30
0.0
 11
223.949518
 21
62.729172
 31
0.0
  0
LINE
  8
LC-003-005-----0
  6
CONTINUOUS
  5
92
 10
257.15778
 20
95.937433
 30
0.0
 11
258.15778
 21
96.937433
 31
0.0
  0
LINE
  8
LC-003-005-----0
  6
CONTINUOUS
  5
93
 10
207.90778
 20
49.515861
 30
0.0
 11
208.90778
 21
50.515861
 31
0.0
  0
LINE
  8
LC-003-005-----0
  6
CONTINUOUS
  5
94
 10
220.121091
 20
61.729172
 30
0.0
 11
221.121091
 21
62.729172
 31
0.0
  0
LINE
  8
LC-003-005-----0
  6
CONTINUOUS
  5
95
 10
257.15778
 20
98.765861
 30
0.0
 11
258.15778
 21
99.765861
 31
0.0
  0
LINE
  8
LC-003-005-----0
  6
CONTINUOUS
  5
96
 10
207.90778
 20
52.344288
 30
0.0
 11
208.930403
 21
53.366911
 31
0.0
  0
LINE
  8
LC-003-005-----0
  6
CONTINUOUS
  5
97
 10
217.270041
 20
61.706549
 30
0.0
 11
218.292664
 21
62.729172
 31
0.0
  0
LINE
  8
LC-003-005-----0
  6
CONTINUOUS
  5
98
 10
257.15778
 20
101.594288
 30
0.0
 11
258.15778
 21
102.594288
 31
0.0
  0
LINE
  8
LC-003-005-----0
  6
CONTINUOUS
  5
99
 10
208.326014
 20
55.590949
 30
0.0
 11
210.348263
 21
57.613199
 31
0.0
  0
LINE
  8
LC-003-005-----0
  6
CONTINUOUS
  5
9A
 10
213.023753
 20
60.288688
 30
0.0
 11
215.046002
 21
62.310938
 31
0.0
  0
LINE
  8
LC-003-005-----0
  6
CONTINUOUS
  5
9B
 10
257.15778
 20
104.422715
 30
0.0
 11
258.15778
 21
105.422715
 31
0.0
  0
LINE
  8
LC-003-005-----0
  6
CONTINUOUS
  5
9C
 10
257.15778
 20
107.251142
 30
0.0
 11
258.15778
 21
108.251142
 31
0.0
  0
LINE
  8
LC-003-005-----0
  6
CONTINUOUS
  5
9D
 10
257.15778
 20
110.079569
 30
0.0
 11
258.15778
 21
111.079569
 31
0.0
  0
LINE
  8
LC-003-005-----0
  6
CONTINUOUS
  5
9E
 10
257.15778
 20
112.907996
 30
0.0
 11
258.15778
 21
113.907996
 31
0.0
  0
LINE
  8
LC-003-005-----0
  6
CONTINUOUS
  5
9F
 10
257.15778
 20
115.736423
 30
0.0
 11
258.15778
 21
116.736423
 31
0.0
  0
LINE
  8
LC-003-005-----0
  6
CONTINUOUS
  5
A0
 10
257.15778
 20
118.56485
 30
0.0
 11
258.15778
 21
119.56485
 31
0.0
  0
LINE
  8
LC-003-005-----0
  6
CONTINUOUS
  5
A1
 10
257.15778
 20
121.393278
 30
0.0
 11
258.15778
 21
122.393278
 31
0.0
  0
LINE
  8
LC-003-005-----0
  6
CONTINUOUS
  5
A2
 10
257.15778
 20
124.221705
 30
0.0
 11
258.243067
 21
125.306992
 31
0.0
  0
LINE
  8
LC-003-005-----0
  6
CONTINUOUS
  5
A3
 10
259.57996
 20
126.643885
 30
0.0
 11
260.471011
 21
127.534936
 31
0.0
  0
LINE
  8
LC-003-005-----0
  6
CONTINUOUS
  5
A4
 10
259.607845
 20
129.500197
 30
0.0
 11
260.686164
 21
130.578516
 31
0.0
  0
LINE
  8
LC-003-005-----0
  6
CONTINUOUS
  5
A5
 10
159.008393
 20
31.729172
 30
0.0
 11
159.90778
 21
32.628559
 31
0.0
  0
LINE
  8
LC-003-005-----0
  6
CONTINUOUS
  5
A6
 10
259.821848
 20
132.542627
 30
0.0
 11
260.900167
 21
133.620946
 31
0.0
  0
LINE
  8
LC-003-005-----0
  6
CONTINUOUS
  5
A7
 10
158.90778
 20
34.456986
 30
0.0
 11
159.90778
 21
35.456986
 31
0.0
  0
LINE
  8
LC-003-005-----0
  6
CONTINUOUS
  5
A8
 10
158.90778
 20
37.285413
 30
0.0
 11
159.90778
 21
38.285413
 31
0.0
  0
LINE
  8
LC-003-005-----0
  6
CONTINUOUS
  5
A9
 10
158.90778
 20
40.11384
 30
0.0
 11
159.90778
 21
41.11384
 31
0.0
  0
LINE
  8
LC-003-005-----0
  6
CONTINUOUS
  5
AA
 10
158.90778
 20
42.942267
 30
0.0
 11
159.90778
 21
43.942267
 31
0.0
  0
LINE
  8
LC-003-005-----0
  6
CONTINUOUS
  5
AB
 10
158.90778
 20
45.770695
 30
0.0
 11
159.90778
 21
46.770695
 31
0.0
  0
LINE
  8
LC-003-005-----0
  6
CONTINUOUS
  5
AC
 10
158.90778
 20
48.599122
 30
0.0
 11
159.90778
 21
49.599122
 31
0.0
  0
LINE
  8
LC-003-005-----0
  6
CONTINUOUS
  5
AD
 10
158.90778
 20
51.427549
 30
0.0
 11
159.90778
 21
52.427549
 31
0.0
  0
LINE
  8
LC-003-005-----0
  6
CONTINUOUS
  5
AE
 10
158.795866
 20
54.144063
 30
0.0
 11
159.64753
 21
54.995726
 31
0.0
  0
LINE
  8
LC-003-005-----0
  6
CONTINUOUS
  5
AF
 10
158.155241
 20
56.331864
 30
0.0
 11
158.908976
 21
57.0856
 31
0.0
  0
LINE
  8
LC-003-005-----0
  6
CONTINUOUS
  5
B0
 10
157.114778
 20
58.119829
 30
0.0
 11
157.828456
 21
58.833506
 31
0.0
  0
LINE
  8
LC-003-005-----0
  6
CONTINUOUS
  5
B1
 10
155.745547
 20
59.579024
 30
0.0
 11
156.454674
 21
60.288152
 31
0.0
  0
LINE
  8
LC-003-005-----0
  6
CONTINUOUS
  5
B2
 10
154.054864
 20
60.716768
 30
0.0
 11
154.792861
 21
61.454766
 31
0.0
  0
LINE
  8
LC-003-005-----0
  6
CONTINUOUS
  5
B3
 10
151.993763
 20
61.484095
 30
0.0
 11
152.808798
 21
62.29913
 31
0.0
  0
LINE
  8
LC-003-005-----0
  6
CONTINUOUS
  5
B4
 10
149.410413
 20
61.729172
 30
0.0
 11
150.398372
 21
62.717131
 31
0.0
  0
LINE
  8
LC-003-005-----0
  6
CONTINUOUS
  5
B5
 10
146.581986
 20
61.729172
 30
0.0
 11
147.581986
 21
62.729172
 31
0.0
  0
LINE
  8
LC-003-005-----0
  6
CONTINUOUS
  5
B6
 10
143.753559
 20
61.729172
 30
0.0
 11
144.753559
 21
62.729172
 31
0.0
  0
LINE
  8
LC-003-005-----0
  6
CONTINUOUS
  5
B7
 10
140.925132
 20
61.729172
 30
0.0
 11
141.925132
 21
62.729172
 31
0.0
  0
LINE
  8
LC-003-005-----0
  6
CONTINUOUS
  5
B8
 10
138.096705
 20
61.729172
 30
0.0
 11
139.096705
 21
62.729172
 31
0.0
  0
LINE
  8
LC-003-005-----0
  6
CONTINUOUS
  5
B9
 10
135.268277
 20
61.729172
 30
0.0
 11
136.268277
 21
62.729172
 31
0.0
  0
LINE
  8
LC-003-005-----0
  6
CONTINUOUS
  5
BA
 10
132.43985
 20
61.729172
 30
0.0
 11
133.43985
 21
62.729172
 31
0.0
  0
LINE
  8
LC-003-005-----0
  6
CONTINUOUS
  5
BB
 10
129.611423
 20
61.729172
 30
0.0
 11
130.611423
 21
62.729172
 31
0.0
  0
LINE
  8
LC-003-005-----0
  6
CONTINUOUS
  5
BC
 10
126.782996
 20
61.729172
 30
0.0
 11
127.782996
 21
62.729172
 31
0.0
  0
LINE
  8
LC-003-005-----0
  6
CONTINUOUS
  5
BD
 10
123.954569
 20
61.729172
 30
0.0
 11
124.954569
 21
62.729172
 31
0.0
  0
LINE
  8
LC-003-005-----0
  6
CONTINUOUS
  5
BE
 10
121.126142
 20
61.729172
 30
0.0
 11
122.126142
 21
62.729172
 31
0.0
  0
LINE
  8
LC-003-005-----0
  6
CONTINUOUS
  5
BF
 10
118.297715
 20
61.729172
 30
0.0
 11
119.297715
 21
62.729172
 31
0.0
  0
LINE
  8
LC-003-005-----0
  6
CONTINUOUS
  5
C0
 10
115.556466
 20
61.81635
 30
0.0
 11
116.472159
 21
62.732044
 31
0.0
  0
LINE
  8
LC-003-005-----0
  6
CONTINUOUS
  5
C1
 10
113.429648
 20
62.517959
 30
0.0
 11
114.177506
 21
63.265818
 31
0.0
  0
LINE
  8
LC-003-005-----0
  6
CONTINUOUS
  5
C2
 10
111.785963
 20
63.702702
 30
0.0
 11
112.49317
 21
64.409909
 31
0.0
  0
LINE
  8
LC-003-005-----0
  6
CONTINUOUS
  5
C3
 10
110.555105
 20
65.300271
 30
0.0
 11
111.294389
 21
66.039555
 31
0.0
  0
LINE
  8
LC-003-005-----0
  6
CONTINUOUS
  5
C4
 10
109.791895
 20
67.365488
 30
0.0
 11
110.676904
 21
68.250497
 31
0.0
  0
LINE
  8
LC-003-005-----0
  6
CONTINUOUS
  5
C5
 10
109.65778
 20
70.0598
 30
0.0
 11
110.65778
 21
71.0598
 31
0.0
  0
LINE
  8
LC-003-005-----0
  6
CONTINUOUS
  5
C6
 10
109.65778
 20
72.888227
 30
0.0
 11
110.65778
 21
73.888227
 31
0.0
  0
LINE
  8
LC-003-005-----0
  6
CONTINUOUS
  5
C7
 10
109.65778
 20
75.716654
 30
0.0
 11
110.65778
 21
76.716654
 31
0.0
  0
LINE
  8
LC-003-005-----0
  6
CONTINUOUS
  5
C8
 10
109.65778
 20
78.545081
 30
0.0
 11
110.65778
 21
79.545081
 31
0.0
  0
LINE
  8
LC-003-005-----0
  6
CONTINUOUS
  5
C9
 10
109.65778
 20
81.373508
 30
0.0
 11
110.65778
 21
82.373508
 31
0.0
  0
LINE
  8
LC-003-005-----0
  6
CONTINUOUS
  5
CA
 10
109.65778
 20
84.201935
 30
0.0
 11
110.65778
 21
85.201935
 31
0.0
  0
LINE
  8
LC-003-005-----0
  6
CONTINUOUS
  5
CB
 10
109.65778
 20
87.030363
 30
0.0
 11
110.65778
 21
88.030363
 31
0.0
  0
LINE
  8
LC-003-005-----0
  6
CONTINUOUS
  5
CC
 10
109.65778
 20
89.85879
 30
0.0
 11
110.65778
 21
90.85879
 31
0.0
  0
LINE
  8
LC-003-005-----0
  6
CONTINUOUS
  5
CD
 10
109.65778
 20
92.687217
 30
0.0
 11
110.65778
 21
93.687217
 31
0.0
  0
LINE
  8
LC-003-005-----0
  6
CONTINUOUS
  5
CE
 10
109.65778
 20
95.515644
 30
0.0
 11
110.65778
 21
96.515644
 31
0.0
  0
LINE
  8
LC-003-005-----0
  6
CONTINUOUS
  5
CF
 10
109.65778
 20
98.344071
 30
0.0
 11
110.65778
 21
99.344071
 31
0.0
  0
LINE
  8
LC-003-005-----0
  6
CONTINUOUS
  5
D0
 10
109.65778
 20
101.172498
 30
0.0
 11
110.65778
 21
102.172498
 31
0.0
  0
LINE
  8
LC-003-005-----0
  6
CONTINUOUS
  5
D1
 10
109.65778
 20
104.000925
 30
0.0
 11
110.65778
 21
105.000925
 31
0.0
  0
LINE
  8
LC-003-005-----0
  6
CONTINUOUS
  5
D2
 10
109.65778
 20
106.829352
 30
0.0
 11
110.65778
 21
107.829352
 31
0.0
  0
LINE
  8
LC-003-005-----0
  6
CONTINUOUS
  5
D3
 10
109.65778
 20
109.65778
 30
0.0
 11
110.65778
 21
110.65778
 31
0.0
  0
LINE
  8
LC-003-005-----0
  6
CONTINUOUS
  5
D4
 10
109.65778
 20
112.486207
 30
0.0
 11
110.65778
 21
113.486207
 31
0.0
  0
LINE
  8
LC-003-005-----0
  6
CONTINUOUS
  5
D5
 10
109.65778
 20
115.314634
 30
0.0
 11
110.65778
 21
116.314634
 31
0.0
  0
LINE
  8
LC-003-005-----0
  6
CONTINUOUS
  5
D6
 10
109.65778
 20
118.143061
 30
0.0
 11
110.65778
 21
119.143061
 31
0.0
  0
LINE
  8
LC-003-005-----0
  6
CONTINUOUS
  5
D7
 10
109.65778
 20
120.971488
 30
0.0
 11
110.65778
 21
121.971488
 31
0.0
  0
LINE
  8
LC-003-005-----0
  6
CONTINUOUS
  5
D8
 10
109.65778
 20
123.799915
 30
0.0
 11
110.656965
 21
124.7991
 31
0.0
  0
LINE
  8
LC-003-005-----0
  6
CONTINUOUS
  5
D9
 10
109.121509
 20
126.092072
 30
0.0
 11
109.828916
 21
126.799478
 31
0.0
  0
LINE
  8
LC-003-005-----0
  6
CONTINUOUS
  5
DA
 10
107.43084
 20
127.22983
 30
0.0
 11
108.305862
 21
128.104852
 31
0.0
  0
LINE
  8
LC-003-005-----0
  6
CONTINUOUS
  5
DB
 10
107.183395
 20
129.810812
 30
0.0
 11
108.119986
 21
130.747403
 31
0.0
  0
LINE
  8
LC-003-005-----0
  6
CONTINUOUS
  5
DC
 10
106.997519
 20
132.453363
 30
0.0
 11
107.934111
 21
133.389955
 31
0.0
  0
LINE
  8
LC-003-005-----0
  6
CONTINUOUS
  5
DD
 10
106.440148
 20
134.72442
 30
0.0
 11
107.197142
 21
135.481413
 31
0.0
  0
ENDBLK
  8
0
  5
DE
  0
BLOCK
  8
0
  5
E0
  2
BLK1
 70
    64
 10
0.0
 20
0.0
 30
0.0
  3
BLK1
  0
ENDBLK
  8
0
  5
E1
  0
BLOCK
  8
0
  5
E3
  2
*X4
 70
    65
 10
160.062792
 20
50.466603
 30
0.0
  3
*X4
  0
LINE
  8
LC-003-005-----0
  6
DASHED
  5
E5
 10
161.85778
 20
51.688468
 30
0.0
 11
160.134243
 21
53.412005
 31
0.0
  0
LINE
  8
LC-003-005-----0
  6
DASHED
  5
E6
 10
161.489993
 20
50.642041
 30
0.0
 11
160.062792
 21
52.069242
 31
0.0
  0
ENDBLK
  8
0
  5
E7
  0
BLOCK
  8
0
  5
E9
  2
*X5
 70
    65
 10
205.95778
 20
50.466603
 30
0.0
  3
*X5
  0
LINE
  8
LC-003-005-----0
  6
DASHED
  5
EA
 10
207.710689
 20
51.090393
 30
0.0
 11
205.95778
 21
52.843302
 31
0.0
  0
ENDBLK
  8
0
  5
EB
  0
BLOCK
  8
0
  5
ED
  2
BLK2
 70
    64
 10
0.0
 20
0.0
 30
0.0
  3
BLK2
  0
ENDBLK
  8
0
  5
EE
  0
BLOCK
  8
0
  5
F0
  2
*D7
 70
    65
 10
0.0
 20
0.0
 30
0.0
  3
*D7
  0
LINE
  8
LC-006-003-MTH-0
  6
CONTINUOUS
  5
F2
 10
142.762753
 20
78.461418
 30
0.0
 11
22.4
 21
78.461418
 31
0.0
  0
LINE
  8
LC-006-003-MTH-0
  6
CONTINUOUS
  5
F3
 10
154.012956
 20
128.461591
 30
0.0
 11
22.4
 21
128.461591
 31
0.0
  0
LINE
  8
LC-005-003-----0
  6
CONTINUOUS
  5
F5
 10
42.854733
 20
50.700961
 30
0.0
 11
39.2
 21
78.461418
 31
0.0
  0
LINE
  8
LC-005-003-----0
  6
CONTINUOUS
  5
F6
 10
39.2
 20
78.461418
 30
0.0
 11
35.545267
 21
50.700961
 31
0.0
  0
LINE
  8
LC-005-003-----0
  6
CONTINUOUS
  5
F7
 10
35.545267
 20
50.700961
 30
0.0
 11
42.854733
 21
50.700961
 31
0.0
  0
LINE
  8
LC-005-003-----0
  6
CONTINUOUS
  5
F8
 10
41.904503
 20
50.63868
 30
0.0
 11
39.2
 21
71.181418
 31
0.0
  0
LINE
  8
LC-005-003-----0
  6
CONTINUOUS
  5
F9
 10
39.2
 20
71.181418
 30
0.0
 11
36.495497
 21
50.63868
 31
0.0
  0
LINE
  8
LC-005-003-----0
  6
CONTINUOUS
  5
FA
 10
40.954272
 20
50.576399
 30
0.0
 11
39.2
 21
63.901418
 31
0.0
  0
LINE
  8
LC-005-003-----0
  6
CONTINUOUS
  5
FB
 10
39.2
 20
63.901418
 30
0.0
 11
37.445728
 21
50.576399
 31
0.0
  0
LINE
  8
LC-005-003-----0
  6
CONTINUOUS
  5
FC
 10
40.004041
 20
50.514117
 30
0.0
 11
39.2
 21
56.621418
 31
0.0
  0
LINE
  8
LC-005-003-----0
  6
CONTINUOUS
  5
FD
 10
39.2
 20
56.621418
 30
0.0
 11
38.395959
 21
50.514117
 31
0.0
  0
LINE
  8
LC-005-003-----0
  6
CONTINUOUS
  5
FE
 10
35.545267
 20
156.222047
 30
0.0
 11
39.2
 21
128.461591
 31
0.0
  0
LINE
  8
LC-005-003-----0
  6
CONTINUOUS
  5
FF
 10
39.2
 20
128.461591
 30
0.0
 11
42.854733
 21
156.222047
 31
0.0
  0
LINE
  8
LC-005-003-----0
  6
CONTINUOUS
  5
100
 10
42.854733
 20
156.222047
 30
0.0
 11
35.545267
 21
156.222047
 31
0.0
  0
LINE
  8
LC-005-003-----0
  6
CONTINUOUS
  5
101
 10
36.495497
 20
156.284328
 30
0.0
 11
39.2
 21
135.741591
 31
0.0
  0
LINE
  8
LC-005-003-----0
  6
CONTINUOUS
  5
102
 10
39.2
 20
135.741591
 30
0.0
 11
41.904503
 21
156.284328
 31
0.0
  0
LINE
  8
LC-005-003-----0
  6
CONTINUOUS
  5
103
 10
37.445728
 20
156.34661
 30
0.0
 11
39.2
 21
143.021591
 31
0.0
  0
LINE
  8
LC-005-003-----0
  6
CONTINUOUS
  5
104
 10
39.2
 20
143.021591
 30
0.0
 11
40.954272
 21
156.34661
 31
0.0
  0
LINE
  8
LC-005-003-----0
  6
CONTINUOUS
  5
105
 10
38.395959
 20
156.408891
 30
0.0
 11
39.2
 21
150.301591
 31
0.0
  0
LINE
  8
LC-005-003-----0
  6
CONTINUOUS
  5
106
 10
39.2
 20
150.301591
 30
0.0
 11
40.004041
 21
156.408891
 31
0.0
  0
LINE
  8
LC-007-003-MTG-0
  6
CONTINUOUS
  5
108
 10
39.2
 20
39.261418
 30
0.0
 11
39.2
 21
167.661591
 31
0.0
  0
TEXT
  8
LC-005-003-----0
  6
CONTINUOUS
 62
     8
  5
109
 10
31.372446
 20
92.163264
 30
0.0
 40
28.0
  1
50
 50
90.0
 41
0.8
 51
15.0
  7
LC-TXTSTYLE-150-400-0-0-A0
 72
     1
 11
31.372446
 21
107.809664
 31
0.0
  0
ENDBLK
  8
0
  5
10A
  0
BLOCK
  8
0
  5
10C
  2
*X8
 70
    65
 10
140.153688
 20
79.961418
 30
0.0
  3
*X8
  0
LINE
  8
LC-003-005-----0
  6
CONTINUOUS
  5
10D
 10
227.162066
 20
143.361887
 30
0.0
 11
219.054195
 21
151.469759
 31
0.0
  0
LINE
  8
LC-003-005-----0
  6
CONTINUOUS
  5
10E
 10
227.653628
 20
140.041898
 30
0.0
 11
225.370621
 21
142.324905
 31
0.0
  0
LINE
  8
LC-003-005-----0
  6
CONTINUOUS
  5
10F
 10
218.017213
 20
149.678313
 30
0.0
 11
215.734206
 21
151.96132
 31
0.0
  0
LINE
  8
LC-003-005-----0
  6
CONTINUOUS
  5
110
 10
227.653895
 20
137.213204
 30
0.0
 11
225.653896
 21
139.213203
 31
0.0
  0
LINE
  8
LC-003-005-----0
  6
CONTINUOUS
  5
111
 10
214.90551
 20
149.961589
 30
0.0
 11
212.905508
 21
151.961591
 31
0.0
  0
LINE
  8
LC-003-005-----0
  6
CONTINUOUS
  5
112
 10
227.653893
 20
134.384779
 30
0.0
 11
225.653894
 21
136.384778
 31
0.0
  0
LINE
  8
LC-003-005-----0
  6
CONTINUOUS
  5
113
 10
212.077083
 20
149.961589
 30
0.0
 11
210.077079
 21
151.961593
 31
0.0
  0
LINE
  8
LC-003-005-----0
  6
CONTINUOUS
  5
114
 10
227.653891
 20
131.556354
 30
0.0
 11
225.653892
 21
133.556353
 31
0.0
  0
LINE
  8
LC-003-005-----0
  6
CONTINUOUS
  5
115
 10
209.248656
 20
149.961589
 30
0.0
 11
207.24865
 21
151.961594
 31
0.0
  0
LINE
  8
LC-003-005-----0
  6
CONTINUOUS
  5
116
 10
227.653889
 20
128.727929
 30
0.0
 11
225.65389
 21
130.727927
 31
0.0
  0
LINE
  8
LC-003-005-----0
  6
CONTINUOUS
  5
117
 10
206.420229
 20
149.961589
 30
0.0
 11
204.420222
 21
151.961596
 31
0.0
  0
LINE
  8
LC-003-005-----0
  6
CONTINUOUS
  5
118
 10
227.653887
 20
125.899503
 30
0.0
 11
225.653889
 21
127.899502
 31
0.0
  0
LINE
  8
LC-003-005-----0
  6
CONTINUOUS
  5
119
 10
203.591802
 20
149.961589
 30
0.0
 11
201.591793
 21
151.961598
 31
0.0
  0
LINE
  8
LC-003-005-----0
  6
CONTINUOUS
  5
11A
 10
196.830062
 20
156.723329
 30
0.0
 11
192.415629
 21
161.137762
 31
0.0
  0
LINE
  8
LC-003-005-----0
  6
CONTINUOUS
  5
11B
 10
227.653885
 20
123.071078
 30
0.0
 11
225.653887
 21
125.071077
 31
0.0
  0
LINE
  8
LC-003-005-----0
  6
CONTINUOUS
  5
11C
 10
200.763375
 20
149.961589
 30
0.0
 11
198.763364
 21
151.9616
 31
0.0
  0
LINE
  8
LC-003-005-----0
  6
CONTINUOUS
  5
11D
 10
197.653236
 20
153.071728
 30
0.0
 11
188.764028
 21
161.960936
 31
0.0
  0
LINE
  8
LC-003-005-----0
  6
CONTINUOUS
  5
11E
 10
227.653884
 20
120.242653
 30
0.0
 11
225.653885
 21
122.242651
 31
0.0
  0
LINE
  8
LC-003-005-----0
  6
CONTINUOUS
  5
11F
 10
197.934947
 20
149.961589
 30
0.0
 11
193.418365
 21
154.478171
 31
0.0
  0
LINE
  8
LC-003-005-----0
  6
CONTINUOUS
  5
120
 10
190.170471
 20
157.726066
 30
0.0
 11
185.934927
 21
161.961609
 31
0.0
  0
LINE
  8
LC-003-005-----0
  6
CONTINUOUS
  5
121
 10
227.653882
 20
117.414227
 30
0.0
 11
225.653883
 21
119.414226
 31
0.0
  0
LINE
  8
LC-003-005-----0
  6
CONTINUOUS
  5
122
 10
195.10652
 20
149.961589
 30
0.0
 11
193.106506
 21
151.961604
 31
0.0
  0
LINE
  8
LC-003-005-----0
  6
CONTINUOUS
  5
123
 10
187.1065
 20
157.961609
 30
0.0
 11
183.1065
 21
161.961609
 31
0.0
  0
LINE
  8
LC-003-005-----0
  6
CONTINUOUS
  5
124
 10
227.65388
 20
114.585802
 30
0.0
 11
225.653881
 21
116.585801
 31
0.0
  0
LINE
  8
LC-003-005-----0
  6
CONTINUOUS
  5
125
 10
192.278093
 20
149.961589
 30
0.0
 11
190.278077
 21
151.961605
 31
0.0
  0
LINE
  8
LC-003-005-----0
  6
CONTINUOUS
  5
126
 10
184.278073
 20
157.961609
 30
0.0
 11
180.278073
 21
161.961609
 31
0.0
  0
LINE
  8
LC-003-005-----0
  6
CONTINUOUS
  5
127
 10
227.653878
 20
111.757377
 30
0.0
 11
225.653879
 21
113.757376
 31
0.0
  0
LINE
  8
LC-003-005-----0
  6
CONTINUOUS
  5
128
 10
189.449666
 20
149.961589
 30
0.0
 11
187.449648
 21
151.961607
 31
0.0
  0
LINE
  8
LC-003-005-----0
  6
CONTINUOUS
  5
129
 10
181.449646
 20
157.961609
 30
0.0
 11
177.587082
 21
161.824173
 31
0.0
  0
LINE
  8
LC-003-005-----0
  6
CONTINUOUS
  5
12A
 10
227.653874
 20
106.100526
 30
0.0
 11
225.653876
 21
108.100525
 31
0.0
  0
LINE
  8
LC-003-005-----0
  6
CONTINUOUS
  5
12B
 10
185.345851
 20
148.40855
 30
0.0
 11
181.792983
 21
151.961418
 31
0.0
  0
LINE
  8
LC-003-005-----0
  6
CONTINUOUS
  5
12C
 10
176.534091
 20
157.22031
 30
0.0
 11
173.662368
 21
160.092033
 31
0.0
  0
LINE
  8
LC-003-005-----0
  6
CONTINUOUS
  5
12D
 10
227.653873
 20
103.272101
 30
0.0
 11
225.653874
 21
105.2721
 31
0.0
  0
LINE
  8
LC-003-005-----0
  6
CONTINUOUS
  5
12E
 10
185.345086
 20
145.580888
 30
0.0
 11
178.964556
 21
151.961418
 31
0.0
  0
LINE
  8
LC-003-005-----0
  6
CONTINUOUS
  5
12F
 10
175.073992
 20
155.851981
 30
0.0
 11
172.223032
 21
158.702942
 31
0.0
  0
LINE
  8
LC-003-005-----0
  6
CONTINUOUS
  5
130
 10
227.653871
 20
100.443676
 30
0.0
 11
225.653872
 21
102.443675
 31
0.0
  0
LINE
  8
LC-003-005-----0
  6
CONTINUOUS
  5
131
 10
185.34432
 20
142.753226
 30
0.0
 11
176.136129
 21
151.961418
 31
0.0
  0
LINE
  8
LC-003-005-----0
  6
CONTINUOUS
  5
132
 10
174.235635
 20
153.861912
 30
0.0
 11
171.106385
 21
156.991162
 31
0.0
  0
LINE
  8
LC-003-005-----0
  6
CONTINUOUS
  5
133
 10
227.653869
 20
97.615251
 30
0.0
 11
225.65387
 21
99.615249
 31
0.0
  0
LINE
  8
LC-003-005-----0
  6
CONTINUOUS
  5
134
 10
185.343555
 20
139.925564
 30
0.0
 11
170.365854
 21
154.903265
 31
0.0
  0
LINE
  8
LC-003-005-----0
  6
CONTINUOUS
  5
135
 10
227.653867
 20
94.786825
 30
0.0
 11
225.653868
 21
96.786824
 31
0.0
  0
LINE
  8
LC-003-005-----0
  6
CONTINUOUS
  5
136
 10
185.34279
 20
137.097903
 30
0.0
 11
170.153912
 21
152.28678
 31
0.0
  0
LINE
  8
LC-003-005-----0
  6
CONTINUOUS
  5
137
 10
227.653865
 20
91.9584
 30
0.0
 11
225.653866
 21
93.958399
 31
0.0
  0
LINE
  8
LC-003-005-----0
  6
CONTINUOUS
  5
138
 10
185.342024
 20
134.270241
 30
0.0
 11
167.650848
 21
151.961418
 31
0.0
  0
LINE
  8
LC-003-005-----0
  6
CONTINUOUS
  5
139
 10
227.653863
 20
89.129975
 30
0.0
 11
225.653865
 21
91.129973
 31
0.0
  0
LINE
  8
LC-003-005-----0
  6
CONTINUOUS
  5
13A
 10
185.341259
 20
131.442579
 30
0.0
 11
164.82242
 21
151.961418
 31
0.0
  0
LINE
  8
LC-003-005-----0
  6
CONTINUOUS
  5
13B
 10
227.653861
 20
86.301549
 30
0.0
 11
225.653863
 21
88.301548
 31
0.0
  0
LINE
  8
LC-003-005-----0
  6
CONTINUOUS
  5
13C
 10
185.340493
 20
128.614917
 30
0.0
 11
161.993993
 21
151.961418
 31
0.0
  0
LINE
  8
LC-003-005-----0
  6
CONTINUOUS
  5
13D
 10
227.65386
 20
83.473124
 30
0.0
 11
225.653861
 21
85.473123
 31
0.0
  0
LINE
  8
LC-003-005-----0
  6
CONTINUOUS
  5
13E
 10
185.339728
 20
125.787256
 30
0.0
 11
159.165566
 21
151.961418
 31
0.0
  0
LINE
  8
LC-003-005-----0
  6
CONTINUOUS
  5
13F
 10
226.995416
 20
81.303141
 30
0.0
 11
225.653859
 21
82.644698
 31
0.0
  0
LINE
  8
LC-003-005-----0
  6
CONTINUOUS
  5
140
 10
185.338963
 20
122.959594
 30
0.0
 11
156.337139
 21
151.961418
 31
0.0
  0
LINE
  8
LC-003-005-----0
  6
CONTINUOUS
  5
141
 10
184.508712
 20
120.961418
 30
0.0
 11
153.508712
 21
151.961418
 31
0.0
  0
LINE
  8
LC-003-005-----0
  6
CONTINUOUS
  5
142
 10
181.680285
 20
120.961418
 30
0.0
 11
150.761335
 21
151.880367
 31
0.0
  0
LINE
  8
LC-003-005-----0
  6
CONTINUOUS
  5
143
 10
178.851858
 20
120.961418
 30
0.0
 11
152.153688
 21
147.659588
 31
0.0
  0
LINE
  8
LC-003-005-----0
  6
CONTINUOUS
  5
144
 10
150.071116
 20
149.742159
 30
0.0
 11
148.440726
 21
151.372549
 31
0.0
  0
LINE
  8
LC-003-005-----0
  6
CONTINUOUS
  5
145
 10
176.023431
 20
120.961418
 30
0.0
 11
152.153688
 21
144.83116
 31
0.0
  0
LINE
  8
LC-003-005-----0
  6
CONTINUOUS
  5
146
 10
147.94993
 20
149.034918
 30
0.0
 11
146.460127
 21
150.524721
 31
0.0
  0
LINE
  8
LC-003-005-----0
  6
CONTINUOUS
  5
147
 10
173.195003
 20
120.961418
 30
0.0
 11
152.153688
 21
142.002733
 31
0.0
  0
LINE
  8
LC-003-005-----0
  6
CONTINUOUS
  5
148
 10
146.177328
 20
147.979093
 30
0.0
 11
144.750673
 21
149.405748
 31
0.0
  0
LINE
  8
LC-003-005-----0
  6
CONTINUOUS
  5
149
 10
170.366576
 20
120.961418
 30
0.0
 11
152.153688
 21
139.174306
 31
0.0
  0
LINE
  8
LC-003-005-----0
  6
CONTINUOUS
  5
14A
 10
144.700025
 20
146.627969
 30
0.0
 11
143.283982
 21
148.044012
 31
0.0
  0
LINE
  8
LC-003-005-----0
  6
CONTINUOUS
  5
14B
 10
167.538149
 20
120.961418
 30
0.0
 11
152.153688
 21
136.345879
 31
0.0
  0
LINE
  8
LC-003-005-----0
  6
CONTINUOUS
  5
14C
 10
143.50984
 20
144.989727
 30
0.0
 11
142.055444
 21
146.444123
 31
0.0
  0
LINE
  8
LC-003-005-----0
  6
CONTINUOUS
  5
14D
 10
164.709722
 20
120.961418
 30
0.0
 11
152.153688
 21
133.517452
 31
0.0
  0
LINE
  8
LC-003-005-----0
  6
CONTINUOUS
  5
14E
 10
142.637356
 20
143.033784
 30
0.0
 11
141.081939
 21
144.589201
 31
0.0
  0
LINE
  8
LC-003-005-----0
  6
CONTINUOUS
  5
14F
 10
161.881295
 20
120.961418
 30
0.0
 11
156.179432
 21
126.66328
 31
0.0
  0
LINE
  8
LC-003-005-----0
  6
CONTINUOUS
  5
150
 10
152.881295
 20
129.961418
 30
0.0
 11
152.153688
 21
130.689025
 31
0.0
  0
LINE
  8
LC-003-005-----0
  6
CONTINUOUS
  5
151
 10
142.17842
 20
140.664293
 30
0.0
 11
140.410756
 21
142.431956
 31
0.0
  0
LINE
  8
LC-003-005-----0
  6
CONTINUOUS
  5
152
 10
142.153688
 20
137.860598
 30
0.0
 11
140.153688
 21
139.860598
 31
0.0
  0
LINE
  8
LC-003-005-----0
  6
CONTINUOUS
  5
153
 10
142.153688
 20
135.032171
 30
0.0
 11
140.153688
 21
137.032171
 31
0.0
  0
LINE
  8
LC-003-005-----0
  6
CONTINUOUS
  5
154
 10
142.153688
 20
132.203743
 30
0.0
 11
140.153688
 21
134.203743
 31
0.0
  0
LINE
  8
LC-003-005-----0
  6
CONTINUOUS
  5
155
 10
142.153688
 20
129.375316
 30
0.0
 11
140.153688
 21
131.375316
 31
0.0
  0
LINE
  8
LC-003-005-----0
  6
CONTINUOUS
  5
156
 10
142.153688
 20
126.546889
 30
0.0
 11
140.153688
 21
128.546889
 31
0.0
  0
LINE
  8
LC-003-005-----0
  6
CONTINUOUS
  5
157
 10
142.153688
 20
123.718462
 30
0.0
 11
140.153688
 21
125.718462
 31
0.0
  0
LINE
  8
LC-003-005-----0
  6
CONTINUOUS
  5
158
 10
142.153688
 20
120.890035
 30
0.0
 11
140.153688
 21
122.890035
 31
0.0
  0
LINE
  8
LC-003-005-----0
  6
CONTINUOUS
  5
159
 10
142.153688
 20
118.061608
 30
0.0
 11
140.153688
 21
120.061608
 31
0.0
  0
LINE
  8
LC-003-005-----0
  6
CONTINUOUS
  5
15A
 10
142.153688
 20
115.233181
 30
0.0
 11
140.153688
 21
117.233181
 31
0.0
  0
LINE
  8
LC-003-005-----0
  6
CONTINUOUS
  5
15B
 10
142.153688
 20
112.404754
 30
0.0
 11
140.153688
 21
114.404754
 31
0.0
  0
LINE
  8
LC-003-005-----0
  6
CONTINUOUS
  5
15C
 10
142.153688
 20
109.576326
 30
0.0
 11
140.153688
 21
111.576326
 31
0.0
  0
LINE
  8
LC-003-005-----0
  6
CONTINUOUS
  5
15D
 10
142.153688
 20
106.747899
 30
0.0
 11
140.153688
 21
108.747899
 31
0.0
  0
LINE
  8
LC-003-005-----0
  6
CONTINUOUS
  5
15E
 10
142.153688
 20
103.919472
 30
0.0
 11
140.153688
 21
105.919472
 31
0.0
  0
LINE
  8
LC-003-005-----0
  6
CONTINUOUS
  5
15F
 10
142.153688
 20
101.091045
 30
0.0
 11
140.153688
 21
103.091045
 31
0.0
  0
LINE
  8
LC-003-005-----0
  6
CONTINUOUS
  5
160
 10
142.153688
 20
98.262618
 30
0.0
 11
140.153688
 21
100.262618
 31
0.0
  0
LINE
  8
LC-003-005-----0
  6
CONTINUOUS
  5
161
 10
142.153688
 20
95.434191
 30
0.0
 11
140.153688
 21
97.434191
 31
0.0
  0
LINE
  8
LC-003-005-----0
  6
CONTINUOUS
  5
162
 10
142.153688
 20
92.605764
 30
0.0
 11
140.153688
 21
94.605764
 31
0.0
  0
LINE
  8
LC-003-005-----0
  6
CONTINUOUS
  5
163
 10
142.153688
 20
89.777337
 30
0.0
 11
140.153688
 21
91.777337
 31
0.0
  0
LINE
  8
LC-003-005-----0
  6
CONTINUOUS
  5
164
 10
142.153688
 20
86.948909
 30
0.0
 11
140.153688
 21
88.948909
 31
0.0
  0
LINE
  8
LC-003-005-----0
  6
CONTINUOUS
  5
165
 10
142.153688
 20
84.120482
 30
0.0
 11
140.153688
 21
86.120482
 31
0.0
  0
LINE
  8
LC-003-005-----0
  6
CONTINUOUS
  5
166
 10
142.153688
 20
81.292055
 30
0.0
 11
140.153688
 21
83.292055
 31
0.0
  0
ENDBLK
  8
0
  5
167
  0
BLOCK
  8
0
  5
169
  2
BLK3
 70
    64
 10
0.0
 20
0.0
 30
0.0
  3
BLK3
  0
ENDBLK
  8
0
  5
16A
  0
BLOCK
  8
0
  5
16C
  2
BLK4
 70
    64
 10
0.0
 20
0.0
 30
0.0
  3
BLK4
  0
ENDBLK
  8
0
  5
16D
  0
BLOCK
  8
0
  5
16F
  2
BLK5
 70
    64
 10
0.0
 20
0.0
 30
0.0
  3
BLK5
  0
ENDBLK
  8
0
  5
170
  0
BLOCK
  8
0
  5
172
  2
*X12
 70
    65
 10
253.40008
 20
145.168882
 30
0.0
  3
*X12
  0
LINE
  8
LC-003-005-----0
  6
CONTINUOUS
  5
173
 10
261.134394
 20
145.168882
 30
0.0
 11
262.90008
 21
146.934568
 31
0.0
  0
LINE
  8
LC-003-005-----0
  6
CONTINUOUS
  5
174
 10
274.134394
 20
158.168882
 30
0.0
 11
274.736034
 21
158.770522
 31
0.0
  0
LINE
  8
LC-003-005-----0
  6
CONTINUOUS
  5
175
 10
258.305967
 20
145.168882
 30
0.0
 11
262.90008
 21
149.762995
 31
0.0
  0
LINE
  8
LC-003-005-----0
  6
CONTINUOUS
  5
176
 10
272.899866
 20
159.762781
 30
0.0
 11
275.20747
 21
162.070385
 31
0.0
  0
LINE
  8
LC-003-005-----0
  6
CONTINUOUS
  5
177
 10
255.47754
 20
145.168882
 30
0.0
 11
262.90008
 21
152.591422
 31
0.0
  0
LINE
  8
LC-003-005-----0
  6
CONTINUOUS
  5
178
 10
272.769611
 20
162.460953
 30
0.0
 11
275.464135
 21
165.155477
 31
0.0
  0
LINE
  8
LC-003-005-----0
  6
CONTINUOUS
  5
179
 10
253.40008
 20
145.91985
 30
0.0
 11
255.649113
 21
148.168882
 31
0.0
  0
LINE
  8
LC-003-005-----0
  6
CONTINUOUS
  5
17A
 10
256.15008
 20
148.66985
 30
0.0
 11
262.90008
 21
155.41985
 31
0.0
  0
LINE
  8
LC-003-005-----0
  6
CONTINUOUS
  5
17B
 10
269.728531
 20
162.2483
 30
0.0
 11
272.423055
 21
164.942824
 31
0.0
  0
LINE
  8
LC-003-005-----0
  6
CONTINUOUS
  5
17C
 10
256.15008
 20
151.498277
 30
0.0
 11
262.90008
 21
158.248277
 31
0.0
  0
LINE
  8
LC-003-005-----0
  6
CONTINUOUS
  5
17D
 10
266.687451
 20
162.035647
 30
0.0
 11
269.381975
 21
164.730171
 31
0.0
  0
LINE
  8
LC-003-005-----0
  6
CONTINUOUS
  5
17E
 10
256.15008
 20
154.326704
 30
0.0
 11
262.90008
 21
161.076704
 31
0.0
  0
LINE
  8
LC-003-005-----0
  6
CONTINUOUS
  5
17F
 10
263.646371
 20
161.822994
 30
0.0
 11
266.340895
 21
164.517518
 31
0.0
  0
LINE
  8
LC-003-005-----0
  6
CONTINUOUS
  5
180
 10
256.15008
 20
157.155131
 30
0.0
 11
263.299815
 21
164.304865
 31
0.0
  0
LINE
  8
LC-003-005-----0
  6
CONTINUOUS
  5
181
 10
256.15008
 20
159.983558
 30
0.0
 11
260.258734
 21
164.092212
 31
0.0
  0
LINE
  8
LC-003-005-----0
  6
CONTINUOUS
  5
182
 10
256.15008
 20
162.811985
 30
0.0
 11
257.217654
 21
163.879559
 31
0.0
  0
ENDBLK
  8
0
  5
183
  0
BLOCK
  8
0
  5
185
  2
*X13
 70
    65
 10
92.15008
 20
145.168882
 30
0.0
  3
*X13
  0
LINE
  8
LC-003-005-----0
  6
CONTINUOUS
  5
186
 10
114.056184
 20
145.168882
 30
0.0
 11
114.40008
 21
145.512779
 31
0.0
  0
LINE
  8
LC-003-005-----0
  6
CONTINUOUS
  5
187
 10
111.227757
 20
145.168882
 30
0.0
 11
114.227757
 21
148.168882
 31
0.0
  0
LINE
  8
LC-003-005-----0
  6
CONTINUOUS
  5
188
 10
108.399329
 20
145.168882
 30
0.0
 11
111.65008
 21
148.419633
 31
0.0
  0
LINE
  8
LC-003-005-----0
  6
CONTINUOUS
  5
189
 10
105.612997
 20
145.210976
 30
0.0
 11
111.65008
 21
151.24806
 31
0.0
  0
LINE
  8
LC-003-005-----0
  6
CONTINUOUS
  5
18A
 10
104.90008
 20
147.326487
 30
0.0
 11
111.65008
 21
154.076487
 31
0.0
  0
LINE
  8
LC-003-005-----0
  6
CONTINUOUS
  5
18B
 10
104.90008
 20
150.154914
 30
0.0
 11
111.65008
 21
156.904914
 31
0.0
  0
LINE
  8
LC-003-005-----0
  6
CONTINUOUS
  5
18C
 10
104.90008
 20
152.983341
 30
0.0
 11
111.65008
 21
159.733341
 31
0.0
  0
LINE
  8
LC-003-005-----0
  6
CONTINUOUS
  5
18D
 10
104.90008
 20
155.811768
 30
0.0
 11
111.65008
 21
162.561768
 31
0.0
  0
LINE
  8
LC-003-005-----0
  6
CONTINUOUS
  5
18E
 10
104.90008
 20
158.640196
 30
0.0
 11
110.168401
 21
163.908516
 31
0.0
  0
LINE
  8
LC-003-005-----0
  6
CONTINUOUS
  5
18F
 10
104.90008
 20
161.468623
 30
0.0
 11
107.52483
 21
164.093373
 31
0.0
  0
LINE
  8
LC-003-005-----0
  6
CONTINUOUS
  5
190
 10
102.538945
 20
161.935915
 30
0.0
 11
104.88126
 21
164.278229
 31
0.0
  0
LINE
  8
LC-003-005-----0
  6
CONTINUOUS
  5
191
 10
99.895375
 20
162.120771
 30
0.0
 11
102.237689
 21
164.463086
 31
0.0
  0
LINE
  8
LC-003-005-----0
  6
CONTINUOUS
  5
192
 10
93.145702
 20
158.199526
 30
0.0
 11
94.900295
 21
159.954119
 31
0.0
  0
LINE
  8
LC-003-005-----0
  6
CONTINUOUS
  5
193
 10
97.251804
 20
162.305628
 30
0.0
 11
99.594118
 21
164.647942
 31
0.0
  0
LINE
  8
LC-003-005-----0
  6
CONTINUOUS
  5
194
 10
92.792131
 20
160.674382
 30
0.0
 11
96.950548
 21
164.832799
 31
0.0
  0
LINE
  8
LC-003-005-----0
  6
CONTINUOUS
  5
195
 10
92.43856
 20
163.149238
 30
0.0
 11
94.306977
 21
165.017655
 31
0.0
  0
ENDBLK
  8
0
  5
196
  0
BLOCK
  8
0
  5
198
  2
*X14
 70
    65
 10
33.148337
 20
-15.200796
 30
0.0
  3
*X14
  0
LINE
  8
LC-003-005-----0
  6
CONTINUOUS
  5
199
 10
131.877414
 20
-15.200796
 30
0.0
 11
131.90008
 21
-15.17813
 31
0.0
  0
LINE
  8
LC-003-005-----0
  6
CONTINUOUS
  5
19A
 10
129.988173
 20
-14.261611
 30
0.0
 11
131.90008
 21
-12.349703
 31
0.0
  0
LINE
  8
LC-003-005-----0
  6
CONTINUOUS
  5
19B
 10
129.390456
 20
-12.0309
 30
0.0
 11
131.90008
 21
-9.521276
 31
0.0
  0
LINE
  8
LC-003-005-----0
  6
CONTINUOUS
  5
19C
 10
128.90008
 20
-9.692849
 30
0.0
 11
131.90008
 21
-6.692849
 31
0.0
  0
LINE
  8
LC-003-005-----0
  6
CONTINUOUS
  5
19D
 10
128.90008
 20
-6.864422
 30
0.0
 11
131.90008
 21
-3.864422
 31
0.0
  0
LINE
  8
LC-003-005-----0
  6
CONTINUOUS
  5
19E
 10
128.90008
 20
-4.035995
 30
0.0
 11
131.90008
 21
-1.035995
 31
0.0
  0
LINE
  8
LC-003-005-----0
  6
CONTINUOUS
  5
19F
 10
128.90008
 20
-1.207567
 30
0.0
 11
131.90008
 21
1.792433
 31
0.0
  0
LINE
  8
LC-003-005-----0
  6
CONTINUOUS
  5
1A0
 10
128.90008
 20
1.62086
 30
0.0
 11
131.90008
 21
4.62086
 31
0.0
  0
LINE
  8
LC-003-005-----0
  6
CONTINUOUS
  5
1A1
 10
128.90008
 20
4.449287
 30
0.0
 11
131.90008
 21
7.449287
 31
0.0
  0
LINE
  8
LC-003-005-----0
  6
CONTINUOUS
  5
1A2
 10
128.90008
 20
7.277714
 30
0.0
 11
131.90008
 21
10.277714
 31
0.0
  0
LINE
  8
LC-003-005-----0
  6
CONTINUOUS
  5
1A3
 10
128.90008
 20
10.106141
 30
0.0
 11
131.90008
 21
13.106141
 31
0.0
  0
LINE
  8
LC-003-005-----0
  6
CONTINUOUS
  5
1A4
 10
128.90008
 20
12.934568
 30
0.0
 11
131.90008
 21
15.934568
 31
0.0
  0
LINE
  8
LC-003-005-----0
  6
CONTINUOUS
  5
1A5
 10
128.90008
 20
15.762995
 30
0.0
 11
131.90008
 21
18.762995
 31
0.0
  0
LINE
  8
LC-003-005-----0
  6
CONTINUOUS
  5
1A6
 10
128.90008
 20
18.591422
 30
0.0
 11
131.90008
 21
21.591422
 31
0.0
  0
LINE
  8
LC-003-005-----0
  6
CONTINUOUS
  5
1A7
 10
128.90008
 20
21.41985
 30
0.0
 11
131.90008
 21
24.41985
 31
0.0
  0
LINE
  8
LC-003-005-----0
  6
CONTINUOUS
  5
1A8
 10
128.90008
 20
24.248277
 30
0.0
 11
131.90008
 21
27.248277
 31
0.0
  0
LINE
  8
LC-003-005-----0
  6
CONTINUOUS
  5
1A9
 10
128.90008
 20
27.076704
 30
0.0
 11
131.90008
 21
30.076704
 31
0.0
  0
LINE
  8
LC-003-005-----0
  6
CONTINUOUS
  5
1AA
 10
128.90008
 20
29.905131
 30
0.0
 11
131.90008
 21
32.905131
 31
0.0
  0
LINE
  8
LC-003-005-----0
  6
CONTINUOUS
  5
1AB
 10
128.90008
 20
32.733558
 30
0.0
 11
131.90008
 21
35.733558
 31
0.0
  0
LINE
  8
LC-003-005-----0
  6
CONTINUOUS
  5
1AC
 10
128.90008
 20
35.561985
 30
0.0
 11
131.90008
 21
38.561985
 31
0.0
  0
LINE
  8
LC-003-005-----0
  6
CONTINUOUS
  5
1AD
 10
128.90008
 20
38.390412
 30
0.0
 11
131.90008
 21
41.390412
 31
0.0
  0
LINE
  8
LC-003-005-----0
  6
CONTINUOUS
  5
1AE
 10
128.90008
 20
41.218839
 30
0.0
 11
131.90008
 21
44.218839
 31
0.0
  0
LINE
  8
LC-003-005-----0
  6
CONTINUOUS
  5
1AF
 10
128.90008
 20
44.047267
 30
0.0
 11
131.90008
 21
47.047267
 31
0.0
  0
LINE
  8
LC-003-005-----0
  6
CONTINUOUS
  5
1B0
 10
128.90008
 20
46.875694
 30
0.0
 11
131.90008
 21
49.875694
 31
0.0
  0
LINE
  8
LC-003-005-----0
  6
CONTINUOUS
  5
1B1
 10
128.90008
 20
49.704121
 30
0.0
 11
131.90008
 21
52.704121
 31
0.0
  0
LINE
  8
LC-003-005-----0
  6
CONTINUOUS
  5
1B2
 10
128.90008
 20
52.532548
 30
0.0
 11
131.90008
 21
55.532548
 31
0.0
  0
LINE
  8
LC-003-005-----0
  6
CONTINUOUS
  5
1B3
 10
128.90008
 20
55.360975
 30
0.0
 11
131.90008
 21
58.360975
 31
0.0
  0
LINE
  8
LC-003-005-----0
  6
CONTINUOUS
  5
1B4
 10
128.90008
 20
58.189402
 30
0.0
 11
131.90008
 21
61.189402
 31
0.0
  0
LINE
  8
LC-003-005-----0
  6
CONTINUOUS
  5
1B5
 10
126.181229
 20
58.298978
 30
0.0
 11
129.181229
 21
61.298978
 31
0.0
  0
LINE
  8
LC-003-005-----0
  6
CONTINUOUS
  5
1B6
 10
123.352802
 20
58.298978
 30
0.0
 11
126.352802
 21
61.298978
 31
0.0
  0
LINE
  8
LC-003-005-----0
  6
CONTINUOUS
  5
1B7
 10
120.524375
 20
58.298978
 30
0.0
 11
123.524375
 21
61.298978
 31
0.0
  0
LINE
  8
LC-003-005-----0
  6
CONTINUOUS
  5
1B8
 10
117.695948
 20
58.298978
 30
0.0
 11
120.695948
 21
61.298978
 31
0.0
  0
LINE
  8
LC-003-005-----0
  6
CONTINUOUS
  5
1B9
 10
114.879077
 20
58.310534
 30
0.0
 11
117.86752
 21
61.298978
 31
0.0
  0
LINE
  8
LC-003-005-----0
  6
CONTINUOUS
  5
1BA
 10
112.422602
 20
58.682487
 30
0.0
 11
115.046086
 21
61.30597
 31
0.0
  0
LINE
  8
LC-003-005-----0
  6
CONTINUOUS
  5
1BB
 10
110.350864
 20
59.439175
 30
0.0
 11
112.643454
 21
61.731766
 31
0.0
  0
LINE
  8
LC-003-005-----0
  6
CONTINUOUS
  5
1BC
 10
108.570729
 20
60.487468
 30
0.0
 11
110.704613
 21
62.621352
 31
0.0
  0
LINE
  8
LC-003-005-----0
  6
CONTINUOUS
  5
1BD
 10
107.043581
 20
61.788747
 30
0.0
 11
109.113798
 21
63.858964
 31
0.0
  0
LINE
  8
LC-003-005-----0
  6
CONTINUOUS
  5
1BE
 10
105.758931
 20
63.332524
 30
0.0
 11
107.841305
 21
65.414898
 31
0.0
  0
LINE
  8
LC-003-005-----0
  6
CONTINUOUS
  5
1BF
 10
104.728864
 20
65.130884
 30
0.0
 11
106.91067
 21
67.31269
 31
0.0
  0
LINE
  8
LC-003-005-----0
  6
CONTINUOUS
  5
1C0
 10
103.994497
 20
67.224944
 30
0.0
 11
106.423903
 21
69.65435
 31
0.0
  0
LINE
  8
LC-003-005-----0
  6
CONTINUOUS
  5
1C1
 10
103.654864
 20
69.713738
 30
0.0
 11
106.400787
 21
72.459662
 31
0.0
  0
LINE
  8
LC-003-005-----0
  6
CONTINUOUS
  5
1C2
 10
103.65008
 20
72.537382
 30
0.0
 11
106.400787
 21
75.288089
 31
0.0
  0
LINE
  8
LC-003-005-----0
  6
CONTINUOUS
  5
1C3
 10
103.65008
 20
75.365809
 30
0.0
 11
106.400787
 21
78.116516
 31
0.0
  0
LINE
  8
LC-003-005-----0
  6
CONTINUOUS
  5
1C4
 10
103.65008
 20
78.194236
 30
0.0
 11
106.400787
 21
80.944943
 31
0.0
  0
LINE
  8
LC-003-005-----0
  6
CONTINUOUS
  5
1C5
 10
103.65008
 20
81.022663
 30
0.0
 11
106.400787
 21
83.77337
 31
0.0
  0
LINE
  8
LC-003-005-----0
  6
CONTINUOUS
  5
1C6
 10
103.65008
 20
83.85109
 30
0.0
 11
106.400787
 21
86.601797
 31
0.0
  0
LINE
  8
LC-003-005-----0
  6
CONTINUOUS
  5
1C7
 10
103.65008
 20
86.679517
 30
0.0
 11
106.400787
 21
89.430224
 31
0.0
  0
LINE
  8
LC-003-005-----0
  6
CONTINUOUS
  5
1C8
 10
103.65008
 20
89.507945
 30
0.0
 11
106.400787
 21
92.258652
 31
0.0
  0
LINE
  8
LC-003-005-----0
  6
CONTINUOUS
  5
1C9
 10
103.65008
 20
92.336372
 30
0.0
 11
106.400787
 21
95.087079
 31
0.0
  0
LINE
  8
LC-003-005-----0
  6
CONTINUOUS
  5
1CA
 10
103.65008
 20
95.164799
 30
0.0
 11
106.400787
 21
97.915506
 31
0.0
  0
LINE
  8
LC-003-005-----0
  6
CONTINUOUS
  5
1CB
 10
103.65008
 20
97.993226
 30
0.0
 11
106.400787
 21
100.743933
 31
0.0
  0
LINE
  8
LC-003-005-----0
  6
CONTINUOUS
  5
1CC
 10
103.65008
 20
100.821653
 30
0.0
 11
106.400787
 21
103.57236
 31
0.0
  0
LINE
  8
LC-003-005-----0
  6
CONTINUOUS
  5
1CD
 10
103.65008
 20
103.65008
 30
0.0
 11
106.400787
 21
106.400787
 31
0.0
  0
LINE
  8
LC-003-005-----0
  6
CONTINUOUS
  5
1CE
 10
103.65008
 20
106.478507
 30
0.0
 11
106.400787
 21
109.229214
 31
0.0
  0
LINE
  8
LC-003-005-----0
  6
CONTINUOUS
  5
1CF
 10
103.65008
 20
109.306934
 30
0.0
 11
106.400787
 21
112.057641
 31
0.0
  0
LINE
  8
LC-003-005-----0
  6
CONTINUOUS
  5
1D0
 10
103.65008
 20
112.135362
 30
0.0
 11
106.400787
 21
114.886069
 31
0.0
  0
LINE
  8
LC-003-005-----0
  6
CONTINUOUS
  5
1D1
 10
103.65008
 20
114.963789
 30
0.0
 11
106.400787
 21
117.714496
 31
0.0
  0
LINE
  8
LC-003-005-----0
  6
CONTINUOUS
  5
1D2
 10
103.65008
 20
117.792216
 30
0.0
 11
106.400787
 21
120.542923
 31
0.0
  0
LINE
  8
LC-003-005-----0
  6
CONTINUOUS
  5
1D3
 10
103.65008
 20
120.620643
 30
0.0
 11
106.400787
 21
123.37135
 31
0.0
  0
LINE
  8
LC-003-005-----0
  6
CONTINUOUS
  5
1D4
 10
103.65008
 20
123.44907
 30
0.0
 11
106.400787
 21
126.199777
 31
0.0
  0
LINE
  8
LC-003-005-----0
  6
CONTINUOUS
  5
1D5
 10
103.65008
 20
126.277497
 30
0.0
 11
106.400787
 21
129.028204
 31
0.0
  0
LINE
  8
LC-003-005-----0
  6
CONTINUOUS
  5
1D6
 10
103.65008
 20
129.105924
 30
0.0
 11
106.400787
 21
131.856631
 31
0.0
  0
LINE
  8
LC-003-005-----0
  6
CONTINUOUS
  5
1D7
 10
103.65008
 20
131.934351
 30
0.0
 11
106.400787
 21
134.685058
 31
0.0
  0
LINE
  8
LC-003-005-----0
  6
CONTINUOUS
  5
1D8
 10
102.816869
 20
133.929567
 30
0.0
 11
105.850787
 21
136.963486
 31
0.0
  0
LINE
  8
LC-003-005-----0
  6
CONTINUOUS
  5
1D9
 10
101.652019
 20
135.593145
 30
0.0
 11
106.540473
 21
140.481598
 31
0.0
  0
LINE
  8
LC-003-005-----0
  6
CONTINUOUS
  5
1DA
 10
100.48717
 20
137.256723
 30
0.0
 11
106.815242
 21
143.584794
 31
0.0
  0
LINE
  8
LC-003-005-----0
  6
CONTINUOUS
  5
1DB
 10
99.32232
 20
138.9203
 30
0.0
 11
105.308389
 21
144.906369
 31
0.0
  0
LINE
  8
LC-003-005-----0
  6
CONTINUOUS
  5
1DC
 10
98.157471
 20
140.583878
 30
0.0
 11
102.522571
 21
144.948978
 31
0.0
  0
LINE
  8
LC-003-005-----0
  6
CONTINUOUS
  5
1DD
 10
96.992621
 20
142.247455
 30
0.0
 11
99.694144
 21
144.948978
 31
0.0
  0
LINE
  8
LC-003-005-----0
  6
CONTINUOUS
  5
1DE
 10
95.827772
 20
143.911033
 30
0.0
 11
97.184703
 21
145.267964
 31
0.0
  0
LINE
  8
LC-003-005-----0
  6
CONTINUOUS
  5
1DF
 10
94.662922
 20
145.57461
 30
0.0
 11
97.152169
 21
148.063857
 31
0.0
  0
LINE
  8
LC-003-005-----0
  6
CONTINUOUS
  5
1E0
 10
94.400787
 20
148.140903
 30
0.0
 11
97.152169
 21
150.892284
 31
0.0
  0
LINE
  8
LC-003-005-----0
  6
CONTINUOUS
  5
1E1
 10
94.400787
 20
150.96933
 30
0.0
 11
97.152169
 21
153.720712
 31
0.0
  0
LINE
  8
LC-003-005-----0
  6
CONTINUOUS
  5
1E2
 10
93.888589
 20
153.285558
 30
0.0
 11
97.152169
 21
156.549139
 31
0.0
  0
LINE
  8
LC-003-005-----0
  6
CONTINUOUS
  5
1E3
 10
91.747388
 20
153.972785
 30
0.0
 11
94.223581
 21
156.448978
 31
0.0
  0
LINE
  8
LC-003-005-----0
  6
CONTINUOUS
  5
1E4
 10
95.150787
 20
157.376184
 30
0.0
 11
97.152169
 21
159.377566
 31
0.0
  0
LINE
  8
LC-003-005-----0
  6
CONTINUOUS
  5
1E5
 10
89.891652
 20
154.945476
 30
0.0
 11
92.134358
 21
157.188182
 31
0.0
  0
LINE
  8
LC-003-005-----0
  6
CONTINUOUS
  5
1E6
 10
95.150787
 20
160.204611
 30
0.0
 11
97.152169
 21
162.205993
 31
0.0
  0
LINE
  8
LC-003-005-----0
  6
CONTINUOUS
  5
1E7
 10
89.11779
 20
157.000041
 30
0.0
 11
91.972308
 21
159.854559
 31
0.0
  0
LINE
  8
LC-003-005-----0
  6
CONTINUOUS
  5
1E8
 10
88.97694
 20
159.687618
 30
0.0
 11
91.831458
 21
162.542136
 31
0.0
  0
LINE
  8
LC-003-005-----0
  6
CONTINUOUS
  5
1E9
 10
88.63535
 20
162.174456
 30
0.0
 11
91.690608
 21
165.229714
 31
0.0
  0
LINE
  8
LC-003-005-----0
  6
CONTINUOUS
  5
1EA
 10
86.536649
 20
162.904181
 30
0.0
 11
89.347426
 21
165.714958
 31
0.0
  0
LINE
  8
LC-003-005-----0
  6
CONTINUOUS
  5
1EB
 10
83.893078
 20
163.089038
 30
0.0
 11
86.703855
 21
165.899815
 31
0.0
  0
LINE
  8
LC-003-005-----0
  6
CONTINUOUS
  5
1EC
 10
81.249507
 20
163.273894
 30
0.0
 11
84.060284
 21
166.084671
 31
0.0
  0
LINE
  8
LC-003-005-----0
  6
CONTINUOUS
  5
1ED
 10
78.605937
 20
163.45875
 30
0.0
 11
81.416714
 21
166.269527
 31
0.0
  0
LINE
  8
LC-003-005-----0
  6
CONTINUOUS
  5
1EE
 10
75.962366
 20
163.643607
 30
0.0
 11
78.773143
 21
166.454384
 31
0.0
  0
LINE
  8
LC-003-005-----0
  6
CONTINUOUS
  5
1EF
 10
73.826374
 20
164.336042
 30
0.0
 11
76.13679
 21
166.646458
 31
0.0
  0
LINE
  8
LC-003-005-----0
  6
CONTINUOUS
  5
1F0
 10
72.130671
 20
165.468766
 30
0.0
 11
74.452929
 21
167.791024
 31
0.0
  0
LINE
  8
LC-003-005-----0
  6
CONTINUOUS
  5
1F1
 10
69.350767
 20
165.517289
 30
0.0
 11
72.299749
 21
168.466272
 31
0.0
  0
LINE
  8
LC-003-005-----0
  6
CONTINUOUS
  5
1F2
 10
66.570863
 20
165.565813
 30
0.0
 11
69.519846
 21
168.514795
 31
0.0
  0
LINE
  8
LC-003-005-----0
  6
CONTINUOUS
  5
1F3
 10
63.79096
 20
165.614336
 30
0.0
 11
66.739942
 21
168.563318
 31
0.0
  0
LINE
  8
LC-003-005-----0
  6
CONTINUOUS
  5
1F4
 10
61.011056
 20
165.662859
 30
0.0
 11
63.960038
 21
168.611842
 31
0.0
  0
LINE
  8
LC-003-005-----0
  6
CONTINUOUS
  5
1F5
 10
58.231152
 20
165.711383
 30
0.0
 11
61.180134
 21
168.660365
 31
0.0
  0
LINE
  8
LC-003-005-----0
  6
CONTINUOUS
  5
1F6
 10
55.451248
 20
165.759906
 30
0.0
 11
58.400231
 21
168.708889
 31
0.0
  0
LINE
  8
LC-003-005-----0
  6
CONTINUOUS
  5
1F7
 10
52.671345
 20
165.80843
 30
0.0
 11
55.620327
 21
168.757412
 31
0.0
  0
LINE
  8
LC-003-005-----0
  6
CONTINUOUS
  5
1F8
 10
49.891441
 20
165.856953
 30
0.0
 11
52.840423
 21
168.805935
 31
0.0
  0
LINE
  8
LC-003-005-----0
  6
CONTINUOUS
  5
1F9
 10
47.111537
 20
165.905476
 30
0.0
 11
50.06052
 21
168.854459
 31
0.0
  0
LINE
  8
LC-003-005-----0
  6
CONTINUOUS
  5
1FA
 10
44.331634
 20
165.954
 30
0.0
 11
47.280616
 21
168.902982
 31
0.0
  0
LINE
  8
LC-003-005-----0
  6
CONTINUOUS
  5
1FB
 10
41.55173
 20
166.002523
 30
0.0
 11
44.500712
 21
168.951506
 31
0.0
  0
LINE
  8
LC-003-005-----0
  6
CONTINUOUS
  5
1FC
 10
38.771826
 20
166.051047
 30
0.0
 11
41.720808
 21
169.000029
 31
0.0
  0
LINE
  8
LC-003-005-----0
  6
CONTINUOUS
  5
1FD
 10
35.991922
 20
166.09957
 30
0.0
 11
38.940905
 21
169.048552
 31
0.0
  0
LINE
  8
LC-003-005-----0
  6
CONTINUOUS
  5
1FE
 10
33.212019
 20
166.148093
 30
0.0
 11
36.161001
 21
169.097076
 31
0.0
  0
LINE
  8
LC-003-005-----0
  6
CONTINUOUS
  5
1FF
 10
33.148337
 20
168.912839
 30
0.0
 11
33.381097
 21
169.145599
 31
0.0
  0
ENDBLK
  8
0
  5
200
  0
BLOCK
  8
0
  5
202
  2
*X15
 70
    65
 10
235.90008
 20
-15.200796
 30
0.0
  3
*X15
  0
LINE
  8
LC-003-005-----0
  6
CONTINUOUS
  5
203
 10
236.529218
 20
-15.200796
 30
0.0
 11
237.937748
 21
-13.792266
 31
0.0
  0
LINE
  8
LC-003-005-----0
  6
CONTINUOUS
  5
204
 10
235.90008
 20
-13.001507
 30
0.0
 11
238.90008
 21
-10.001507
 31
0.0
  0
LINE
  8
LC-003-005-----0
  6
CONTINUOUS
  5
205
 10
235.90008
 20
-10.17308
 30
0.0
 11
238.90008
 21
-7.17308
 31
0.0
  0
LINE
  8
LC-003-005-----0
  6
CONTINUOUS
  5
206
 10
235.90008
 20
-7.344652
 30
0.0
 11
238.90008
 21
-4.344652
 31
0.0
  0
LINE
  8
LC-003-005-----0
  6
CONTINUOUS
  5
207
 10
235.90008
 20
-4.516225
 30
0.0
 11
238.90008
 21
-1.516225
 31
0.0
  0
LINE
  8
LC-003-005-----0
  6
CONTINUOUS
  5
208
 10
235.90008
 20
-1.687798
 30
0.0
 11
238.90008
 21
1.312202
 31
0.0
  0
LINE
  8
LC-003-005-----0
  6
CONTINUOUS
  5
209
 10
235.90008
 20
1.140629
 30
0.0
 11
238.90008
 21
4.140629
 31
0.0
  0
LINE
  8
LC-003-005-----0
  6
CONTINUOUS
  5
20A
 10
235.90008
 20
3.969056
 30
0.0
 11
238.90008
 21
6.969056
 31
0.0
  0
LINE
  8
LC-003-005-----0
  6
CONTINUOUS
  5
20B
 10
235.90008
 20
6.797483
 30
0.0
 11
238.90008
 21
9.797483
 31
0.0
  0
LINE
  8
LC-003-005-----0
  6
CONTINUOUS
  5
20C
 10
235.90008
 20
9.62591
 30
0.0
 11
238.90008
 21
12.62591
 31
0.0
  0
LINE
  8
LC-003-005-----0
  6
CONTINUOUS
  5
20D
 10
235.90008
 20
12.454337
 30
0.0
 11
238.90008
 21
15.454337
 31
0.0
  0
LINE
  8
LC-003-005-----0
  6
CONTINUOUS
  5
20E
 10
235.90008
 20
15.282765
 30
0.0
 11
238.90008
 21
18.282765
 31
0.0
  0
LINE
  8
LC-003-005-----0
  6
CONTINUOUS
  5
20F
 10
235.90008
 20
18.111192
 30
0.0
 11
238.90008
 21
21.111192
 31
0.0
  0
LINE
  8
LC-003-005-----0
  6
CONTINUOUS
  5
210
 10
235.90008
 20
20.939619
 30
0.0
 11
238.90008
 21
23.939619
 31
0.0
  0
LINE
  8
LC-003-005-----0
  6
CONTINUOUS
  5
211
 10
235.90008
 20
23.768046
 30
0.0
 11
238.90008
 21
26.768046
 31
0.0
  0
LINE
  8
LC-003-005-----0
  6
CONTINUOUS
  5
212
 10
235.90008
 20
26.596473
 30
0.0
 11
238.90008
 21
29.596473
 31
0.0
  0
LINE
  8
LC-003-005-----0
  6
CONTINUOUS
  5
213
 10
235.90008
 20
29.4249
 30
0.0
 11
238.90008
 21
32.4249
 31
0.0
  0
LINE
  8
LC-003-005-----0
  6
CONTINUOUS
  5
214
 10
235.90008
 20
32.253327
 30
0.0
 11
238.90008
 21
35.253327
 31
0.0
  0
LINE
  8
LC-003-005-----0
  6
CONTINUOUS
  5
215
 10
235.90008
 20
35.081754
 30
0.0
 11
238.90008
 21
38.081754
 31
0.0
  0
LINE
  8
LC-003-005-----0
  6
CONTINUOUS
  5
216
 10
235.90008
 20
37.910182
 30
0.0
 11
238.90008
 21
40.910182
 31
0.0
  0
LINE
  8
LC-003-005-----0
  6
CONTINUOUS
  5
217
 10
257.410874
 20
59.420975
 30
0.0
 11
263.028083
 21
65.038185
 31
0.0
  0
LINE
  8
LC-003-005-----0
  6
CONTINUOUS
  5
218
 10
235.90008
 20
40.738609
 30
0.0
 11
238.90008
 21
43.738609
 31
0.0
  0
LINE
  8
LC-003-005-----0
  6
CONTINUOUS
  5
219
 10
253.513303
 20
58.351832
 30
0.0
 11
264.097227
 21
68.935755
 31
0.0
  0
LINE
  8
LC-003-005-----0
  6
CONTINUOUS
  5
21A
 10
235.90008
 20
43.567036
 30
0.0
 11
238.90008
 21
46.567036
 31
0.0
  0
LINE
  8
LC-003-005-----0
  6
CONTINUOUS
  5
21B
 10
250.632022
 20
58.298978
 30
0.0
 11
253.731094
 21
61.39805
 31
0.0
  0
LINE
  8
LC-003-005-----0
  6
CONTINUOUS
  5
21C
 10
261.300301
 20
68.967257
 30
0.0
 11
264.15008
 21
71.817036
 31
0.0
  0
LINE
  8
LC-003-005-----0
  6
CONTINUOUS
  5
21D
 10
235.90008
 20
46.395463
 30
0.0
 11
238.90008
 21
49.395463
 31
0.0
  0
LINE
  8
LC-003-005-----0
  6
CONTINUOUS
  5
21E
 10
247.803595
 20
58.298978
 30
0.0
 11
250.803595
 21
61.298978
 31
0.0
  0
LINE
  8
LC-003-005-----0
  6
CONTINUOUS
  5
21F
 10
261.399373
 20
71.894756
 30
0.0
 11
264.15008
 21
74.645463
 31
0.0
  0
LINE
  8
LC-003-005-----0
  6
CONTINUOUS
  5
220
 10
235.90008
 20
49.22389
 30
0.0
 11
238.90008
 21
52.22389
 31
0.0
  0
LINE
  8
LC-003-005-----0
  6
CONTINUOUS
  5
221
 10
244.975168
 20
58.298978
 30
0.0
 11
247.975168
 21
61.298978
 31
0.0
  0
LINE
  8
LC-003-005-----0
  6
CONTINUOUS
  5
222
 10
261.399373
 20
74.723183
 30
0.0
 11
264.15008
 21
77.47389
 31
0.0
  0
LINE
  8
LC-003-005-----0
  6
CONTINUOUS
  5
223
 10
235.90008
 20
52.052317
 30
0.0
 11
238.90008
 21
55.052317
 31
0.0
  0
LINE
  8
LC-003-005-----0
  6
CONTINUOUS
  5
224
 10
242.146741
 20
58.298978
 30
0.0
 11
245.146741
 21
61.298978
 31
0.0
  0
LINE
  8
LC-003-005-----0
  6
CONTINUOUS
  5
225
 10
261.399373
 20
77.55161
 30
0.0
 11
264.15008
 21
80.302317
 31
0.0
  0
LINE
  8
LC-003-005-----0
  6
CONTINUOUS
  5
226
 10
235.90008
 20
54.880744
 30
0.0
 11
238.90008
 21
57.880744
 31
0.0
  0
LINE
  8
LC-003-005-----0
  6
CONTINUOUS
  5
227
 10
239.318314
 20
58.298978
 30
0.0
 11
242.318314
 21
61.298978
 31
0.0
  0
LINE
  8
LC-003-005-----0
  6
CONTINUOUS
  5
228
 10
261.399373
 20
80.380037
 30
0.0
 11
264.15008
 21
83.130744
 31
0.0
  0
LINE
  8
LC-003-005-----0
  6
CONTINUOUS
  5
229
 10
235.90008
 20
57.709171
 30
0.0
 11
239.489887
 21
61.298978
 31
0.0
  0
LINE
  8
LC-003-005-----0
  6
CONTINUOUS
  5
22A
 10
261.399373
 20
83.208464
 30
0.0
 11
264.15008
 21
85.959171
 31
0.0
  0
LINE
  8
LC-003-005-----0
  6
CONTINUOUS
  5
22B
 10
235.90008
 20
60.537599
 30
0.0
 11
236.66146
 21
61.298978
 31
0.0
  0
LINE
  8
LC-003-005-----0
  6
CONTINUOUS
  5
22C
 10
261.399373
 20
86.036892
 30
0.0
 11
264.15008
 21
88.787599
 31
0.0
  0
LINE
  8
LC-003-005-----0
  6
CONTINUOUS
  5
22D
 10
261.399373
 20
88.865319
 30
0.0
 11
264.15008
 21
91.616026
 31
0.0
  0
LINE
  8
LC-003-005-----0
  6
CONTINUOUS
  5
22E
 10
261.399373
 20
91.693746
 30
0.0
 11
264.15008
 21
94.444453
 31
0.0
  0
LINE
  8
LC-003-005-----0
  6
CONTINUOUS
  5
22F
 10
261.399373
 20
94.522173
 30
0.0
 11
264.15008
 21
97.27288
 31
0.0
  0
LINE
  8
LC-003-005-----0
  6
CONTINUOUS
  5
230
 10
332.99753
 20
166.120329
 30
0.0
 11
334.651823
 21
167.774623
 31
0.0
  0
LINE
  8
LC-003-005-----0
  6
CONTINUOUS
  5
231
 10
261.399373
 20
97.3506
 30
0.0
 11
264.15008
 21
100.101307
 31
0.0
  0
LINE
  8
LC-003-005-----0
  6
CONTINUOUS
  5
232
 10
330.118855
 20
166.070082
 30
0.0
 11
333.172616
 21
169.123842
 31
0.0
  0
LINE
  8
LC-003-005-----0
  6
CONTINUOUS
  5
233
 10
261.399373
 20
100.179027
 30
0.0
 11
264.15008
 21
102.929734
 31
0.0
  0
LINE
  8
LC-003-005-----0
  6
CONTINUOUS
  5
234
 10
327.24018
 20
166.019834
 30
0.0
 11
330.293941
 21
169.073595
 31
0.0
  0
LINE
  8
LC-003-005-----0
  6
CONTINUOUS
  5
235
 10
261.399373
 20
103.007454
 30
0.0
 11
264.15008
 21
105.758161
 31
0.0
  0
LINE
  8
LC-003-005-----0
  6
CONTINUOUS
  5
236
 10
324.361506
 20
165.969587
 30
0.0
 11
327.415266
 21
169.023347
 31
0.0
  0
LINE
  8
LC-003-005-----0
  6
CONTINUOUS
  5
237
 10
261.399373
 20
105.835881
 30
0.0
 11
264.15008
 21
108.586588
 31
0.0
  0
LINE
  8
LC-003-005-----0
  6
CONTINUOUS
  5
238
 10
321.482831
 20
165.919339
 30
0.0
 11
324.536592
 21
168.9731
 31
0.0
  0
LINE
  8
LC-003-005-----0
  6
CONTINUOUS
  5
239
 10
261.399373
 20
108.664309
 30
0.0
 11
264.15008
 21
111.415016
 31
0.0
  0
LINE
  8
LC-003-005-----0
  6
CONTINUOUS
  5
23A
 10
318.604157
 20
165.869092
 30
0.0
 11
321.657917
 21
168.922853
 31
0.0
  0
LINE
  8
LC-003-005-----0
  6
CONTINUOUS
  5
23B
 10
261.399373
 20
111.492736
 30
0.0
 11
264.15008
 21
114.243443
 31
0.0
  0
LINE
  8
LC-003-005-----0
  6
CONTINUOUS
  5
23C
 10
315.725482
 20
165.818845
 30
0.0
 11
318.779243
 21
168.872605
 31
0.0
  0
LINE
  8
LC-003-005-----0
  6
CONTINUOUS
  5
23D
 10
261.399373
 20
114.321163
 30
0.0
 11
264.15008
 21
117.07187
 31
0.0
  0
LINE
  8
LC-003-005-----0
  6
CONTINUOUS
  5
23E
 10
312.846808
 20
165.768597
 30
0.0
 11
315.900568
 21
168.822358
 31
0.0
  0
LINE
  8
LC-003-005-----0
  6
CONTINUOUS
  5
23F
 10
261.399373
 20
117.14959
 30
0.0
 11
264.15008
 21
119.900297
 31
0.0
  0
LINE
  8
LC-003-005-----0
  6
CONTINUOUS
  5
240
 10
309.968133
 20
165.71835
 30
0.0
 11
313.021894
 21
168.77211
 31
0.0
  0
LINE
  8
LC-003-005-----0
  6
CONTINUOUS
  5
241
 10
261.399373
 20
119.978017
 30
0.0
 11
264.15008
 21
122.728724
 31
0.0
  0
LINE
  8
LC-003-005-----0
  6
CONTINUOUS
  5
242
 10
307.089458
 20
165.668102
 30
0.0
 11
310.143219
 21
168.721863
 31
0.0
  0
LINE
  8
LC-003-005-----0
  6
CONTINUOUS
  5
243
 10
261.399373
 20
122.806444
 30
0.0
 11
264.15008
 21
125.557151
 31
0.0
  0
LINE
  8
LC-003-005-----0
  6
CONTINUOUS
  5
244
 10
304.210784
 20
165.617855
 30
0.0
 11
307.264544
 21
168.671615
 31
0.0
  0
LINE
  8
LC-003-005-----0
  6
CONTINUOUS
  5
245
 10
261.399373
 20
125.634871
 30
0.0
 11
264.15008
 21
128.385578
 31
0.0
  0
LINE
  8
LC-003-005-----0
  6
CONTINUOUS
  5
246
 10
301.332109
 20
165.567607
 30
0.0
 11
304.38587
 21
168.621368
 31
0.0
  0
LINE
  8
LC-003-005-----0
  6
CONTINUOUS
  5
247
 10
261.399373
 20
128.463298
 30
0.0
 11
264.15008
 21
131.214005
 31
0.0
  0
LINE
  8
LC-003-005-----0
  6
CONTINUOUS
  5
248
 10
298.453435
 20
165.51736
 30
0.0
 11
301.507195
 21
168.57112
 31
0.0
  0
LINE
  8
LC-003-005-----0
  6
CONTINUOUS
  5
249
 10
261.399373
 20
131.291726
 30
0.0
 11
267.192986
 21
137.085338
 31
0.0
  0
LINE
  8
LC-003-005-----0
  6
CONTINUOUS
  5
24A
 10
295.57476
 20
165.467112
 30
0.0
 11
298.628521
 21
168.520873
 31
0.0
  0
LINE
  8
LC-003-005-----0
  6
CONTINUOUS
  5
24B
 10
261.399373
 20
134.120153
 30
0.0
 11
273.399373
 21
146.120153
 31
0.0
  0
LINE
  8
LC-003-005-----0
  6
CONTINUOUS
  5
24C
 10
290.854036
 20
163.574816
 30
0.0
 11
295.749846
 21
168.470625
 31
0.0
  0
LINE
  8
LC-003-005-----0
  6
CONTINUOUS
  5
24D
 10
261.949373
 20
137.49858
 30
0.0
 11
269.399771
 21
144.948978
 31
0.0
  0
LINE
  8
LC-003-005-----0
  6
CONTINUOUS
  5
24E
 10
270.647991
 20
146.197198
 30
0.0
 11
273.399373
 21
148.94858
 31
0.0
  0
LINE
  8
LC-003-005-----0
  6
CONTINUOUS
  5
24F
 10
287.812956
 20
163.362163
 30
0.0
 11
291.046385
 21
166.595592
 31
0.0
  0
LINE
  8
LC-003-005-----0
  6
CONTINUOUS
  5
250
 10
260.957513
 20
139.335147
 30
0.0
 11
266.571344
 21
144.948978
 31
0.0
  0
LINE
  8
LC-003-005-----0
  6
CONTINUOUS
  5
251
 10
270.647991
 20
149.025625
 30
0.0
 11
273.399373
 21
151.777007
 31
0.0
  0
LINE
  8
LC-003-005-----0
  6
CONTINUOUS
  5
252
 10
275.571344
 20
153.948978
 30
0.0
 11
278.685687
 21
157.06332
 31
0.0
  0
LINE
  8
LC-003-005-----0
  6
CONTINUOUS
  5
253
 10
284.771876
 20
163.14951
 30
0.0
 11
288.005305
 21
166.382939
 31
0.0
  0
LINE
  8
LC-003-005-----0
  6
CONTINUOUS
  5
254
 10
261.180469
 20
142.38653
 30
0.0
 11
263.742917
 21
144.948978
 31
0.0
  0
LINE
  8
LC-003-005-----0
  6
CONTINUOUS
  5
255
 10
270.647991
 20
151.854052
 30
0.0
 11
278.842116
 21
160.048177
 31
0.0
  0
LINE
  8
LC-003-005-----0
  6
CONTINUOUS
  5
256
 10
281.730796
 20
162.936857
 30
0.0
 11
284.964225
 21
166.170286
 31
0.0
  0
LINE
  8
LC-003-005-----0
  6
CONTINUOUS
  5
257
 10
270.647991
 20
154.682479
 30
0.0
 11
272.649373
 21
156.683861
 31
0.0
  0
LINE
  8
LC-003-005-----0
  6
CONTINUOUS
  5
258
 10
275.828283
 20
159.862771
 30
0.0
 11
281.923145
 21
165.957633
 31
0.0
  0
LINE
  8
LC-003-005-----0
  6
CONTINUOUS
  5
259
 10
270.647991
 20
157.510906
 30
0.0
 11
272.649373
 21
159.512288
 31
0.0
  0
LINE
  8
LC-003-005-----0
  6
CONTINUOUS
  5
25A
 10
275.984712
 20
162.847627
 30
0.0
 11
278.882065
 21
165.74498
 31
0.0
  0
LINE
  8
LC-003-005-----0
  6
CONTINUOUS
  5
25B
 10
270.647991
 20
160.339334
 30
0.0
 11
272.649373
 21
162.340715
 31
0.0
  0
ENDBLK
  8
0
  5
25C
  0
BLOCK
  8
0
  5
25E
  2
*D16
 70
    65
 10
0.0
 20
0.0
 30
0.0
  3
*D16
  0
LINE
  8
LC-006-003-MTH-0
  6
CONTINUOUS
  5
25F
 10
33.148337
 20
169.149662
 30
0.0
 11
33.148337
 21
252.0
 31
0.0
  0
LINE
  8
LC-006-003-MTH-0
  6
CONTINUOUS
  5
260
 10
334.659538
 20
169.149662
 30
0.0
 11
334.659538
 21
252.0
 31
0.0
  0
LINE
  8
LC-007-003-MTG-0
  6
CONTINUOUS
  5
261
 10
33.148337
 20
235.2
 30
0.0
 11
334.659538
 21
235.2
 31
0.0
  0
LINE
  8
LC-005-003-----0
  6
CONTINUOUS
  5
262
 10
60.908793
 20
238.854733
 30
0.0
 11
33.148337
 21
235.2
 31
0.0
  0
LINE
  8
LC-005-003-----0
  6
CONTINUOUS
  5
263
 10
33.148337
 20
235.2
 30
0.0
 11
60.908793
 21
231.545267
 31
0.0
  0
LINE
  8
LC-005-003-----0
  6
CONTINUOUS
  5
264
 10
60.908793
 20
231.545267
 30
0.0
 11
60.908793
 21
238.854733
 31
0.0
  0
LINE
  8
LC-005-003-----0
  6
CONTINUOUS
  5
265
 10
60.971075
 20
237.904503
 30
0.0
 11
40.428337
 21
235.2
 31
0.0
  0
LINE
  8
LC-005-003-----0
  6
CONTINUOUS
  5
266
 10
40.428337
 20
235.2
 30
0.0
 11
60.971075
 21
232.495497
 31
0.0
  0
LINE
  8
LC-005-003-----0
  6
CONTINUOUS
  5
267
 10
61.033356
 20
236.954272
 30
0.0
 11
47.708337
 21
235.2
 31
0.0
  0
LINE
  8
LC-005-003-----0
  6
CONTINUOUS
  5
268
 10
47.708337
 20
235.2
 30
0.0
 11
61.033356
 21
233.445728
 31
0.0
  0
LINE
  8
LC-005-003-----0
  6
CONTINUOUS
  5
269
 10
61.095638
 20
236.004041
 30
0.0
 11
54.988337
 21
235.2
 31
0.0
  0
LINE
  8
LC-005-003-----0
  6
CONTINUOUS
  5
26A
 10
54.988337
 20
235.2
 30
0.0
 11
61.095638
 21
234.395959
 31
0.0
  0
LINE
  8
LC-005-003-----0
  6
CONTINUOUS
  5
26B
 10
306.899081
 20
231.545267
 30
0.0
 11
334.659538
 21
235.2
 31
0.0
  0
LINE
  8
LC-005-003-----0
  6
CONTINUOUS
  5
26C
 10
334.659538
 20
235.2
 30
0.0
 11
306.899081
 21
238.854733
 31
0.0
  0
LINE
  8
LC-005-003-----0
  6
CONTINUOUS
  5
26D
 10
306.899081
 20
238.854733
 30
0.0
 11
306.899081
 21
231.545267
 31
0.0
  0
LINE
  8
LC-005-003-----0
  6
CONTINUOUS
  5
26E
 10
306.8368
 20
232.495497
 30
0.0
 11
327.379538
 21
235.2
 31
0.0
  0
LINE
  8
LC-005-003-----0
  6
CONTINUOUS
  5
26F
 10
327.379538
 20
235.2
 30
0.0
 11
306.8368
 21
237.904503
 31
0.0
  0
LINE
  8
LC-005-003-----0
  6
CONTINUOUS
  5
270
 10
306.774519
 20
233.445728
 30
0.0
 11
320.099538
 21
235.2
 31
0.0
  0
LINE
  8
LC-005-003-----0
  6
CONTINUOUS
  5
271
 10
320.099538
 20
235.2
 30
0.0
 11
306.774519
 21
236.954272
 31
0.0
  0
LINE
  8
LC-005-003-----0
  6
CONTINUOUS
  5
272
 10
306.712237
 20
234.395959
 30
0.0
 11
312.819538
 21
235.2
 31
0.0
  0
LINE
  8
LC-005-003-----0
  6
CONTINUOUS
  5
273
 10
312.819538
 20
235.2
 30
0.0
 11
306.712237
 21
236.004041
 31
0.0
  0
TEXT
  8
LC-005-003-----0
  6
CONTINUOUS
 62
     8
  5
274
 10
149.980647
 20
243.027554
 30
0.0
 40
28.0
  1
Ø300
 41
0.9
 51
15.0
  7
LC-TXTSTYLE-150-400-0-0-A0
 72
     1
 11
188.252097
 21
243.027554
 31
0.0
  0
ENDBLK
  8
0
  5
275
  0
BLOCK
  8
0
  5
277
  2
*D17
 70
    65
 10
0.0
 20
0.0
 30
0.0
  3
*D17
  0
LINE
  8
LC-006-003-MTH-0
  6
CONTINUOUS
  5
278
 10
88.886177
 20
161.419474
 30
0.0
 11
88.886177
 21
212.8
 31
0.0
  0
LINE
  8
LC-006-003-MTH-0
  6
CONTINUOUS
  5
279
 10
278.921529
 20
161.416265
 30
0.0
 11
278.921529
 21
212.8
 31
0.0
  0
LINE
  8
LC-007-003-MTG-0
  6
CONTINUOUS
  5
27A
 10
88.886177
 20
196.0
 30
0.0
 11
278.921529
 21
196.0
 31
0.0
  0
LINE
  8
LC-005-003-----0
  6
CONTINUOUS
  5
27B
 10
116.646634
 20
199.654733
 30
0.0
 11
88.886177
 21
196.0
 31
0.0
  0
LINE
  8
LC-005-003-----0
  6
CONTINUOUS
  5
27C
 10
88.886177
 20
196.0
 30
0.0
 11
116.646634
 21
192.345267
 31
0.0
  0
LINE
  8
LC-005-003-----0
  6
CONTINUOUS
  5
27D
 10
116.646634
 20
192.345267
 30
0.0
 11
116.646634
 21
199.654733
 31
0.0
  0
LINE
  8
LC-005-003-----0
  6
CONTINUOUS
  5
27E
 10
116.708915
 20
198.704503
 30
0.0
 11
96.166177
 21
196.0
 31
0.0
  0
LINE
  8
LC-005-003-----0
  6
CONTINUOUS
  5
27F
 10
96.166177
 20
196.0
 30
0.0
 11
116.708915
 21
193.295497
 31
0.0
  0
LINE
  8
LC-005-003-----0
  6
CONTINUOUS
  5
280
 10
116.771196
 20
197.754272
 30
0.0
 11
103.446177
 21
196.0
 31
0.0
  0
LINE
  8
LC-005-003-----0
  6
CONTINUOUS
  5
281
 10
103.446177
 20
196.0
 30
0.0
 11
116.771196
 21
194.245728
 31
0.0
  0
LINE
  8
LC-005-003-----0
  6
CONTINUOUS
  5
282
 10
116.833478
 20
196.804041
 30
0.0
 11
110.726177
 21
196.0
 31
0.0
  0
LINE
  8
LC-005-003-----0
  6
CONTINUOUS
  5
283
 10
110.726177
 20
196.0
 30
0.0
 11
116.833478
 21
195.195959
 31
0.0
  0
LINE
  8
LC-005-003-----0
  6
CONTINUOUS
  5
284
 10
251.161073
 20
192.345267
 30
0.0
 11
278.921529
 21
196.0
 31
0.0
  0
LINE
  8
LC-005-003-----0
  6
CONTINUOUS
  5
285
 10
278.921529
 20
196.0
 30
0.0
 11
251.161073
 21
199.654733
 31
0.0
  0
LINE
  8
LC-005-003-----0
  6
CONTINUOUS
  5
286
 10
251.161073
 20
199.654733
 30
0.0
 11
251.161073
 21
192.345267
 31
0.0
  0
LINE
  8
LC-005-003-----0
  6
CONTINUOUS
  5
287
 10
251.098792
 20
193.295497
 30
0.0
 11
271.641529
 21
196.0
 31
0.0
  0
LINE
  8
LC-005-003-----0
  6
CONTINUOUS
  5
288
 10
271.641529
 20
196.0
 30
0.0
 11
251.098792
 21
198.704503
 31
0.0
  0
LINE
  8
LC-005-003-----0
  6
CONTINUOUS
  5
289
 10
251.03651
 20
194.245728
 30
0.0
 11
264.361529
 21
196.0
 31
0.0
  0
LINE
  8
LC-005-003-----0
  6
CONTINUOUS
  5
28A
 10
264.361529
 20
196.0
 30
0.0
 11
251.03651
 21
197.754272
 31
0.0
  0
LINE
  8
LC-005-003-----0
  6
CONTINUOUS
  5
28B
 10
250.974229
 20
195.195959
 30
0.0
 11
257.081529
 21
196.0
 31
0.0
  0
LINE
  8
LC-005-003-----0
  6
CONTINUOUS
  5
28C
 10
257.081529
 20
196.0
 30
0.0
 11
250.974229
 21
196.804041
 31
0.0
  0
TEXT
  8
LC-005-003-----0
  6
CONTINUOUS
 62
     8
  5
28D
 10
149.980563
 20
203.827554
 30
0.0
 40
28.0
  1
Ø190
 41
0.9
 51
15.0
  7
LC-TXTSTYLE-150-400-0-0-A0
 72
     1
 11
188.252013
 21
203.827554
 31
0.0
  0
ENDBLK
  8
0
  5
28E
  0
BLOCK
  8
0
  5
290
  2
*D18
 70
    65
 10
0.0
 20
0.0
 30
0.0
  3
*D18
  0
LINE
  8
LC-006-003-MTH-0
  6
CONTINUOUS
  5
291
 10
103.65008
 20
70.048978
 30
0.0
 11
103.65008
 21
-95.2
 31
0.0
  0
LINE
  8
LC-006-003-MTH-0
  6
CONTINUOUS
  5
292
 10
264.15008
 20
70.049125
 30
0.0
 11
264.15008
 21
-95.2
 31
0.0
  0
LINE
  8
LC-007-003-MTG-0
  6
CONTINUOUS
  5
293
 10
103.65008
 20
-78.4
 30
0.0
 11
264.15008
 21
-78.4
 31
0.0
  0
LINE
  8
LC-005-003-----0
  6
CONTINUOUS
  5
294
 10
131.410536
 20
-74.745267
 30
0.0
 11
103.65008
 21
-78.4
 31
0.0
  0
LINE
  8
LC-005-003-----0
  6
CONTINUOUS
  5
295
 10
103.65008
 20
-78.4
 30
0.0
 11
131.410536
 21
-82.054733
 31
0.0
  0
LINE
  8
LC-005-003-----0
  6
CONTINUOUS
  5
296
 10
131.410536
 20
-82.054733
 30
0.0
 11
131.410536
 21
-74.745267
 31
0.0
  0
LINE
  8
LC-005-003-----0
  6
CONTINUOUS
  5
297
 10
131.472818
 20
-75.695497
 30
0.0
 11
110.93008
 21
-78.4
 31
0.0
  0
LINE
  8
LC-005-003-----0
  6
CONTINUOUS
  5
298
 10
110.93008
 20
-78.4
 30
0.0
 11
131.472818
 21
-81.104503
 31
0.0
  0
LINE
  8
LC-005-003-----0
  6
CONTINUOUS
  5
299
 10
131.535099
 20
-76.645728
 30
0.0
 11
118.21008
 21
-78.4
 31
0.0
  0
LINE
  8
LC-005-003-----0
  6
CONTINUOUS
  5
29A
 10
118.21008
 20
-78.4
 30
0.0
 11
131.535099
 21
-80.154272
 31
0.0
  0
LINE
  8
LC-005-003-----0
  6
CONTINUOUS
  5
29B
 10
131.597381
 20
-77.595959
 30
0.0
 11
125.49008
 21
-78.4
 31
0.0
  0
LINE
  8
LC-005-003-----0
  6
CONTINUOUS
  5
29C
 10
125.49008
 20
-78.4
 30
0.0
 11
131.597381
 21
-79.204041
 31
0.0
  0
LINE
  8
LC-005-003-----0
  6
CONTINUOUS
  5
29D
 10
236.389624
 20
-82.054733
 30
0.0
 11
264.15008
 21
-78.4
 31
0.0
  0
LINE
  8
LC-005-003-----0
  6
CONTINUOUS
  5
29E
 10
264.15008
 20
-78.4
 30
0.0
 11
236.389624
 21
-74.745267
 31
0.0
  0
LINE
  8
LC-005-003-----0
  6
CONTINUOUS
  5
29F
 10
236.389624
 20
-74.745267
 30
0.0
 11
236.389624
 21
-82.054733
 31
0.0
  0
LINE
  8
LC-005-003-----0
  6
CONTINUOUS
  5
2A0
 10
236.327343
 20
-81.104503
 30
0.0
 11
256.87008
 21
-78.4
 31
0.0
  0
LINE
  8
LC-005-003-----0
  6
CONTINUOUS
  5
2A1
 10
256.87008
 20
-78.4
 30
0.0
 11
236.327343
 21
-75.695497
 31
0.0
  0
LINE
  8
LC-005-003-----0
  6
CONTINUOUS
  5
2A2
 10
236.265061
 20
-80.154272
 30
0.0
 11
249.59008
 21
-78.4
 31
0.0
  0
LINE
  8
LC-005-003-----0
  6
CONTINUOUS
  5
2A3
 10
249.59008
 20
-78.4
 30
0.0
 11
236.265061
 21
-76.645728
 31
0.0
  0
LINE
  8
LC-005-003-----0
  6
CONTINUOUS
  5
2A4
 10
236.20278
 20
-79.204041
 30
0.0
 11
242.31008
 21
-78.4
 31
0.0
  0
LINE
  8
LC-005-003-----0
  6
CONTINUOUS
  5
2A5
 10
242.31008
 20
-78.4
 30
0.0
 11
236.20278
 21
-77.595959
 31
0.0
  0
TEXT
  8
LC-005-003-----0
  6
CONTINUOUS
 62
     8
  5
2A6
 10
149.97679
 20
-70.572446
 30
0.0
 40
28.0
  1
Ø160
 41
0.9
 51
15.0
  7
LC-TXTSTYLE-150-400-0-0-A0
 72
     1
 11
188.24824
 21
-70.572446
 31
0.0
  0
ENDBLK
  8
0
  5
2A7
  0
BLOCK
  8
0
  5
2A9
  2
*D19
 70
    65
 10
0.0
 20
0.0
 30
0.0
  3
*D19
  0
LINE
  8
LC-006-003-MTH-0
  6
CONTINUOUS
  5
2AA
 10
128.90008
 20
-10.200794
 30
0.0
 11
128.90005
 21
-56.000084
 31
0.0
  0
LINE
  8
LC-006-003-MTH-0
  6
CONTINUOUS
  5
2AB
 10
238.90008
 20
-10.200866
 30
0.0
 11
238.90005
 21
-56.000156
 31
0.0
  0
LINE
  8
LC-005-003-----0
  6
CONTINUOUS
  5
2AC
 10
101.139603
 20
-42.854799
 30
0.0
 11
128.900061
 21
-39.200084
 31
0.0
  0
LINE
  8
LC-005-003-----0
  6
CONTINUOUS
  5
2AD
 10
128.900061
 20
-39.200084
 30
0.0
 11
101.139608
 21
-35.545333
 31
0.0
  0
LINE
  8
LC-005-003-----0
  6
CONTINUOUS
  5
2AE
 10
101.139608
 20
-35.545333
 30
0.0
 11
101.139603
 21
-42.854799
 31
0.0
  0
LINE
  8
LC-005-003-----0
  6
CONTINUOUS
  5
2AF
 10
101.077322
 20
-41.904569
 30
0.0
 11
121.620061
 21
-39.200079
 31
0.0
  0
LINE
  8
LC-005-003-----0
  6
CONTINUOUS
  5
2B0
 10
121.620061
 20
-39.200079
 30
0.0
 11
101.077326
 21
-36.495563
 31
0.0
  0
LINE
  8
LC-005-003-----0
  6
CONTINUOUS
  5
2B1
 10
101.015041
 20
-40.954338
 30
0.0
 11
114.340061
 21
-39.200075
 31
0.0
  0
LINE
  8
LC-005-003-----0
  6
CONTINUOUS
  5
2B2
 10
114.340061
 20
-39.200075
 30
0.0
 11
101.015044
 21
-37.445794
 31
0.0
  0
LINE
  8
LC-005-003-----0
  6
CONTINUOUS
  5
2B3
 10
100.95276
 20
-40.004107
 30
0.0
 11
107.060061
 21
-39.20007
 31
0.0
  0
LINE
  8
LC-005-003-----0
  6
CONTINUOUS
  5
2B4
 10
107.060061
 20
-39.20007
 30
0.0
 11
100.952761
 21
-38.396025
 31
0.0
  0
LINE
  8
LC-005-003-----0
  6
CONTINUOUS
  5
2B5
 10
266.66052
 20
-35.545441
 30
0.0
 11
238.900061
 21
-39.200156
 31
0.0
  0
LINE
  8
LC-005-003-----0
  6
CONTINUOUS
  5
2B6
 10
238.900061
 20
-39.200156
 30
0.0
 11
266.660515
 21
-42.854908
 31
0.0
  0
LINE
  8
LC-005-003-----0
  6
CONTINUOUS
  5
2B7
 10
266.660515
 20
-42.854908
 30
0.0
 11
266.66052
 21
-35.545441
 31
0.0
  0
LINE
  8
LC-005-003-----0
  6
CONTINUOUS
  5
2B8
 10
266.722801
 20
-36.495672
 30
0.0
 11
246.180061
 21
-39.200161
 31
0.0
  0
LINE
  8
LC-005-003-----0
  6
CONTINUOUS
  5
2B9
 10
246.180061
 20
-39.200161
 30
0.0
 11
266.722797
 21
-41.904677
 31
0.0
  0
LINE
  8
LC-005-003-----0
  6
CONTINUOUS
  5
2BA
 10
266.785081
 20
-37.445902
 30
0.0
 11
253.460061
 21
-39.200166
 31
0.0
  0
LINE
  8
LC-005-003-----0
  6
CONTINUOUS
  5
2BB
 10
253.460061
 20
-39.200166
 30
0.0
 11
266.785079
 21
-40.954446
 31
0.0
  0
LINE
  8
LC-005-003-----0
  6
CONTINUOUS
  5
2BC
 10
266.847362
 20
-38.396133
 30
0.0
 11
260.740061
 21
-39.20017
 31
0.0
  0
LINE
  8
LC-005-003-----0
  6
CONTINUOUS
  5
2BD
 10
260.740061
 20
-39.20017
 30
0.0
 11
266.847361
 21
-40.004216
 31
0.0
  0
LINE
  8
LC-007-003-MTG-0
  6
CONTINUOUS
  5
2BE
 10
89.700061
 20
-39.200059
 30
0.0
 11
385.472361
 21
-39.200252
 31
0.0
  0
TEXT
  8
LC-005-003-----0
  6
CONTINUOUS
 62
     8
  5
2BF
 10
281.328216
 20
-31.372621
 30
0.0
 40
28.0
  1
DN100
 50
360.0
 41
0.9
 51
15.0
  7
LC-TXTSTYLE-150-400-0-0-A0
  0
ENDBLK
  8
0
  5
2C0
  0
BLOCK
  8
0
  5
2C2
  2
*D20
 70
    65
 10
0.0
 20
0.0
 30
0.0
  3
*D20
  0
LINE
  8
LC-006-003-MTH-0
  6
CONTINUOUS
  5
2C3
 10
115.40008
 20
58.298978
 30
0.0
 11
-16.8
 21
58.298978
 31
0.0
  0
LINE
  8
LC-006-003-MTH-0
  6
CONTINUOUS
  5
2C4
 10
33.148337
 20
166.149205
 30
0.0
 11
-16.8
 21
166.149205
 31
0.0
  0
LINE
  8
LC-007-003-MTG-0
  6
CONTINUOUS
  5
2C5
 10
0.0
 20
58.298978
 30
0.0
 11
0.0
 21
166.149205
 31
0.0
  0
LINE
  8
LC-005-003-----0
  6
CONTINUOUS
  5
2C6
 10
-3.654733
 20
86.059434
 30
0.0
 11
0.0
 21
58.298978
 31
0.0
  0
LINE
  8
LC-005-003-----0
  6
CONTINUOUS
  5
2C7
 10
0.0
 20
58.298978
 30
0.0
 11
3.654733
 21
86.059434
 31
0.0
  0
LINE
  8
LC-005-003-----0
  6
CONTINUOUS
  5
2C8
 10
3.654733
 20
86.059434
 30
0.0
 11
-3.654733
 21
86.059434
 31
0.0
  0
LINE
  8
LC-005-003-----0
  6
CONTINUOUS
  5
2C9
 10
-2.704503
 20
86.121715
 30
0.0
 11
0.0
 21
65.578978
 31
0.0
  0
LINE
  8
LC-005-003-----0
  6
CONTINUOUS
  5
2CA
 10
0.0
 20
65.578978
 30
0.0
 11
2.704503
 21
86.121715
 31
0.0
  0
LINE
  8
LC-005-003-----0
  6
CONTINUOUS
  5
2CB
 10
-1.754272
 20
86.183997
 30
0.0
 11
0.0
 21
72.858978
 31
0.0
  0
LINE
  8
LC-005-003-----0
  6
CONTINUOUS
  5
2CC
 10
0.0
 20
72.858978
 30
0.0
 11
1.754272
 21
86.183997
 31
0.0
  0
LINE
  8
LC-005-003-----0
  6
CONTINUOUS
  5
2CD
 10
-0.804041
 20
86.246278
 30
0.0
 11
0.0
 21
80.138978
 31
0.0
  0
LINE
  8
LC-005-003-----0
  6
CONTINUOUS
  5
2CE
 10
0.0
 20
80.138978
 30
0.0
 11
0.804041
 21
86.246278
 31
0.0
  0
LINE
  8
LC-005-003-----0
  6
CONTINUOUS
  5
2CF
 10
3.654733
 20
138.388749
 30
0.0
 11
0.0
 21
166.149205
 31
0.0
  0
LINE
  8
LC-005-003-----0
  6
CONTINUOUS
  5
2D0
 10
0.0
 20
166.149205
 30
0.0
 11
-3.654733
 21
138.388749
 31
0.0
  0
LINE
  8
LC-005-003-----0
  6
CONTINUOUS
  5
2D1
 10
-3.654733
 20
138.388749
 30
0.0
 11
3.654733
 21
138.388749
 31
0.0
  0
LINE
  8
LC-005-003-----0
  6
CONTINUOUS
  5
2D2
 10
2.704503
 20
138.326468
 30
0.0
 11
0.0
 21
158.869205
 31
0.0
  0
LINE
  8
LC-005-003-----0
  6
CONTINUOUS
  5
2D3
 10
0.0
 20
158.869205
 30
0.0
 11
-2.704503
 21
138.326468
 31
0.0
  0
LINE
  8
LC-005-003-----0
  6
CONTINUOUS
  5
2D4
 10
1.754272
 20
138.264186
 30
0.0
 11
0.0
 21
151.589205
 31
0.0
  0
LINE
  8
LC-005-003-----0
  6
CONTINUOUS
  5
2D5
 10
0.0
 20
151.589205
 30
0.0
 11
-1.754272
 21
138.264186
 31
0.0
  0
LINE
  8
LC-005-003-----0
  6
CONTINUOUS
  5
2D6
 10
0.804041
 20
138.201905
 30
0.0
 11
0.0
 21
144.309205
 31
0.0
  0
LINE
  8
LC-005-003-----0
  6
CONTINUOUS
  5
2D7
 10
0.0
 20
144.309205
 30
0.0
 11
-0.804041
 21
138.201905
 31
0.0
  0
TEXT
  8
LC-005-003-----0
  6
CONTINUOUS
 62
     8
  5
2D8
 10
-7.827554
 20
90.168951
 30
0.0
 40
28.0
  1
110
 50
90.0
 41
0.9
 51
15.0
  7
LC-TXTSTYLE-150-400-0-0-A0
 72
     1
 11
-7.827554
 21
116.572251
 31
0.0
  0
ENDBLK
  8
0
  5
2D9
  0
ENDSEC
  0
SECTION
  2
ENTITIES
  0
VIEWPORT
  8
LC-000
  5
44F
 67
     1
 68
     1
 10
420.0
 20
297.0
 30
0.0
 40
840.0
 41
594.0
 69
     1
1001
ACAD
1000
MVIEW
1002
{
1070
    16
1010
0.0
1020
0.0
1030
0.0
1010
0.0
1020
0.0
1030
1.0
1040
0.0
1040
594.0
1040
420.0
1040
297.0
1040
50.0
1040
0.0
1040
0.0
1070
     0
1070
   100
1070
     1
1070
     1
1070
     0
1070
     0
1070
     0
1070
     0
1040
0.0
1040
0.0
1040
0.0
1040
1.0
1040
1.0
1040
0.0
1040
0.0
1070
     0
1002
{
1002
}
1002
}
  0
VIEWPORT
  8
0
  5
450
 67
     1
 68
     1
 10
0.0
 20
0.0
 30
0.0
 40
0.0
 41
0.0
 69
     1
1001
ACAD
1000
MVIEW
1002
{
1070
    16
1010
0.0
1020
0.0
1030
0.0
1010
0.0
1020
0.0
1030
1.0
1040
0.0
1040
594.0
1040
0.0
1040
0.0
1040
50.0
1040
0.0
1040
0.0
1070
     0
1070
   100
1070
     0
1070
     1
1070
     0
1070
     0
1070
     0
1070
     0
1040
0.0
1040
0.0
1040
0.0
1040
0.5
1040
0.5
1040
0.5
1040
0.5
1070
     0
1002
{
1002
}
1002
}
  0
INSERT
  8
LC-003-005-----0
  6
CONTINUOUS
  5
2DA
  2
*X0
 10
124.48112
 20
28.464096
 30
0.0
  0
INSERT
  8
LC-003-005-----0
  6
CONTINUOUS
  5
2DB
  2
*X1
 10
203.75778
 20
28.464096
 30
0.0
  0
INSERT
  8
LC-003-005-----0
  6
CONTINUOUS
  5
2DC
  2
*X2
 10
104.65778
 20
31.729172
 30
0.0
  0
INSERT
  8
LC-004-000-----0
  5
2DE
  2
BLK1
 10
0.0
 20
0.0
 30
0.0
  0
INSERT
  8
LC-003-005-----0
  6
CONTINUOUS
  5
2DF
  2
*X4
 10
160.062792
 20
50.466603
 30
0.0
  0
INSERT
  8
LC-003-005-----0
  6
CONTINUOUS
  5
2E0
  2
*X5
 10
205.95778
 20
50.466603
 30
0.0
  0
INSERT
  8
LC-004-000-----0
  5
2E1
  2
BLK2
 10
0.0
 20
0.0
 30
0.0
  0
DIMENSION
  8
LC-005-003-----0
  6
CONTINUOUS
  5
2E2
  2
*D7
 10
39.2
 20
103.461504
 30
0.0
 11
39.2
 21
103.461504
 31
0.0
  1
50
 13
142.762753
 23
78.461418
 33
0.0
 14
154.012956
 24
128.461591
 34
0.0
 50
90.0
  3
LC-DIM-L-0140-02-02
  0
INSERT
  8
LC-003-005-----0
  6
CONTINUOUS
  5
2E3
  2
*X8
 10
140.153688
 20
79.961418
 30
0.0
  0
INSERT
  8
LC-004-000-----0
  5
2E4
  2
BLK3
 10
0.0
 20
0.0
 30
0.0
  0
INSERT
  8
LC-008-000-----0
  5
2E6
  2
BLK4
 10
0.0
 20
0.0
 30
0.0
  0
INSERT
  8
LC-008-000-----0
  5
2E7
  2
BLK5
 10
0.0
 20
0.0
 30
0.0
  0
INSERT
  8
LC-003-005-----0
  6
CONTINUOUS
  5
2E8
  2
*X12
 10
253.40008
 20
145.168882
 30
0.0
  0
INSERT
  8
LC-003-005-----0
  6
CONTINUOUS
  5
2E9
  2
*X13
 10
92.15008
 20
145.168882
 30
0.0
  0
INSERT
  8
LC-003-005-----0
  6
CONTINUOUS
  5
2EA
  2
*X14
 10
33.148337
 20
-15.200796
 30
0.0
  0
INSERT
  8
LC-003-005-----0
  6
CONTINUOUS
  5
2EB
  2
*X15
 10
235.90008
 20
-15.200796
 30
0.0
  0
DIMENSION
  8
LC-005-003-----0
  6
CONTINUOUS
  5
2EC
  2
*D16
 10
183.903937
 20
235.2
 30
0.0
 11
183.903937
 21
235.2
 31
0.0
  1
%%c300
 13
33.148337
 23
169.149662
 33
0.0
 14
334.659538
 24
169.149662
 34
0.0
  3
LC-DIM-L-0140-02-02
  0
DIMENSION
  8
LC-005-003-----0
  6
CONTINUOUS
  5
2ED
  2
*D17
 10
183.903853
 20
196.0
 30
0.0
 11
183.903853
 21
196.0
 31
0.0
  1
%%c190
 13
88.886177
 23
161.419474
 33
0.0
 14
278.921529
 24
161.416265
 34
0.0
  3
LC-DIM-L-0140-02-02
  0
DIMENSION
  8
LC-005-003-----0
  6
CONTINUOUS
  5
2EE
  2
*D18
 10
183.90008
 20
-78.4
 30
0.0
 11
183.90008
 21
-78.4
 31
0.0
  1
%%c160
 13
103.65008
 23
70.048978
 33
0.0
 14
264.15008
 24
70.049125
 34
0.0
  3
LC-DIM-L-0140-02-02
  0
DIMENSION
  8
LC-005-003-----0
  6
CONTINUOUS
  5
2EF
  2
*D19
 10
183.900061
 20
-39.20012
 30
0.0
 11
183.900061
 21
-39.20012
 31
0.0
 70
     1
  1
DN100
 13
128.90008
 23
-10.200794
 33
0.0
 14
238.90008
 24
-10.200866
 34
0.0
  3
LC-DIM-L-0140-02-02
  0
DIMENSION
  8
LC-005-003-----0
  6
CONTINUOUS
  5
2F0
  2
*D20
 10
0.0
 20
112.224091
 30
0.0
 11
0.0
 21
112.224091
 31
0.0
  1
110
 13
33.148337
 23
166.149205
 33
0.0
 14
115.40008
 24
58.298978
 34
0.0
 50
90.0
  3
LC-DIM-L-0140-02-02
  0
LINE
  8
LC-001-002-----0
  6
CONTINUOUS
  5
2F2
 10
174.157745
 20
151.961602
 30
0.0
 11
174.157745
 21
152.961602
 31
0.0
  0
LINE
  8
LC-001-002-----0
  6
CONTINUOUS
  5
2F3
 10
170.157745
 20
151.961602
 30
0.0
 11
170.157745
 21
152.961602
 31
0.0
  0
ARC
  8
LC-002-002-RND-0
  6
CONTINUOUS
  5
2F5
 10
179.157745
 20
152.961602
 30
0.0
 40
9.0
 50
90.0
 51
180.000001
  0
ARC
  8
LC-001-002-----0
  6
CONTINUOUS
  5
2F6
 10
179.157745
 20
152.961602
 30
0.0
 40
5.0
 50
90.0
 51
180.000001
  0
LINE
  8
LC-001-002-----0
  6
CONTINUOUS
  5
2F7
 10
188.657742
 20
157.961603
 30
0.0
 11
179.000641
 21
157.961602
 31
0.0
  0
LINE
  8
LC-001-002-----0
  6
CONTINUOUS
  5
2F8
 10
188.657741
 20
161.961603
 30
0.0
 11
178.927418
 21
161.961602
 31
0.0
  0
ARC
  8
LC-002-002-RND-0
  6
CONTINUOUS
  5
2F9
 10
188.657742
 20
152.961603
 30
0.0
 40
9.0
 50
0.000006
 51
90.000006
  0
ARC
  8
LC-001-002-----0
  6
CONTINUOUS
  5
2FA
 10
188.657742
 20
152.961603
 30
0.0
 40
5.0
 50
0.000005
 51
90.000006
  0
LINE
  8
LC-001-002-----0
  6
CONTINUOUS
  5
2FB
 10
193.657742
 20
151.961603
 30
0.0
 11
193.657742
 21
152.961603
 31
0.0
  0
LINE
  8
LC-001-002-----0
  6
CONTINUOUS
  5
2FC
 10
197.657742
 20
151.961604
 30
0.0
 11
197.657742
 21
152.961604
 31
0.0
  0
LINE
  8
LC-001-002-----0
  6
CONTINUOUS
  5
2FD
 10
142.157577
 20
78.461418
 30
0.0
 11
153.40778
 21
78.461418
 31
0.0
  0
LINE
  8
LC-001-002-----0
  6
CONTINUOUS
  5
2FE
 10
152.157577
 20
151.961418
 30
0.0
 11
170.157745
 21
151.961418
 31
0.0
  0
ARC
  8
LC-001-002-----0
  6
CONTINUOUS
  5
2FF
 10
152.157577
 20
139.961418
 30
0.0
 40
12.0
 50
90.0
 51
179.999848
  0
LINE
  8
LC-001-002-----0
  6
CONTINUOUS
  5
300
 10
140.157577
 20
139.961418
 30
0.0
 11
140.157577
 21
80.461418
 31
0.0
  0
ARC
  8
LC-001-002-----0
  6
CONTINUOUS
  5
301
 10
152.157577
 20
139.961418
 30
0.0
 40
10.0
 50
90.0
 51
179.999848
  0
LINE
  8
LC-001-002-----0
  6
CONTINUOUS
  5
302
 10
142.157577
 20
139.961418
 30
0.0
 11
142.157577
 21
78.461418
 31
0.0
  0
LINE
  8
LC-001-002-----0
  6
CONTINUOUS
  5
303
 10
152.157577
 20
129.961418
 30
0.0
 11
155.157577
 21
129.961418
 31
0.0
  0
LINE
  8
LC-001-002-----0
  6
CONTINUOUS
  5
304
 10
152.157577
 20
129.961418
 30
0.0
 11
152.157577
 21
149.961418
 31
0.0
  0
LINE
  8
LC-001-002-----0
  6
CONTINUOUS
  5
305
 10
155.157577
 20
129.961418
 30
0.0
 11
155.657577
 21
129.961418
 31
0.0
  0
LINE
  8
LC-001-002-----0
  6
CONTINUOUS
  5
306
 10
198.395237
 20
120.961418
 30
0.0
 11
159.157581
 21
120.961418
 31
0.0
  0
LINE
  8
LC-001-002-----0
  6
CONTINUOUS
  5
307
 10
155.657577
 20
128.668524
 30
0.0
 11
155.657577
 21
129.961418
 31
0.0
  0
LINE
  8
LC-001-002-----0
  6
CONTINUOUS
  5
308
 10
155.657581
 20
127.254312
 30
0.0
 11
155.657581
 21
124.461418
 31
0.0
  0
LINE
  8
LC-001-002-----0
  6
CONTINUOUS
  5
309
 10
155.657581
 20
124.461418
 30
0.0
 11
159.157581
 21
120.961418
 31
0.0
  0
ARC
  8
LC-001-002-----0
  6
CONTINUOUS
  5
30A
 10
155.407577
 20
127.961418
 30
0.0
 40
0.75
 50
289.471622
 51
70.528779
  0
LINE
  8
LC-001-002-----0
  6
CONTINUOUS
  5
30B
 10
215.6578
 20
151.961589
 30
0.0
 11
197.657742
 21
151.961601
 31
0.0
  0
ARC
  8
LC-001-002-----0
  6
CONTINUOUS
  5
30C
 10
215.657792
 20
139.961589
 30
0.0
 40
12.0
 50
0.000096
 51
89.999963
  0
ARC
  8
LC-001-002-----0
  6
CONTINUOUS
  5
30D
 10
215.657792
 20
139.961589
 30
0.0
 40
10.0
 50
0.000096
 51
89.999963
  0
LINE
  8
LC-001-002-----0
  6
CONTINUOUS
  5
30E
 10
227.657792
 20
139.961581
 30
0.0
 11
227.657753
 21
80.461589
 31
0.0
  0
LINE
  8
LC-001-002-----0
  6
CONTINUOUS
  5
30F
 10
225.657792
 20
139.961582
 30
0.0
 11
225.657752
 21
78.461582
 31
0.0
  0
LINE
  8
LC-001-002-----0
  6
CONTINUOUS
  5
310
 10
225.657747
 20
78.461582
 30
0.0
 11
214.40778
 21
78.46159
 31
0.0
  0
LINE
  8
LC-001-002-----0
  6
CONTINUOUS
  5
311
 10
215.657799
 20
149.961589
 30
0.0
 11
185.346271
 21
149.961589
 31
0.0
  0
LINE
  8
LC-001-002-----0
  6
CONTINUOUS
  5
312
 10
142.157577
 20
78.461418
 30
0.0
 11
140.157577
 21
80.461418
 31
0.0
  0
LINE
  8
LC-001-002-----0
  6
CONTINUOUS
  5
313
 10
225.657747
 20
78.461582
 30
0.0
 11
227.657748
 21
80.461584
 31
0.0
  0
ARC
  8
LC-002-002-RND-0
  6
CONTINUOUS
  5
314
 10
159.00778
 20
29.464096
 30
0.0
 40
1.0
 50
180.0
 51
270.0
  0
LINE
  8
LC-001-002-----0
  6
CONTINUOUS
  5
315
 10
161.316599
 20
30.99307
 30
0.0
 11
158.00778
 21
30.106475
 31
0.0
  0
ARC
  8
LC-002-002-RND-0
  6
CONTINUOUS
  5
316
 10
161.05778
 20
31.958996
 30
0.0
 40
1.0
 50
285.0
 51
0.0
  0
LINE
  8
LC-001-002-----0
  6
CONTINUOUS
  5
317
 10
211.200673
 20
126.754484
 30
0.0
 11
212.15846
 21
125.796697
 31
0.0
  0
LINE
  8
LC-001-002-----0
  6
CONTINUOUS
  5
318
 10
206.498961
 20
30.99307
 30
0.0
 11
209.80778
 21
30.106475
 31
0.0
  0
ARC
  8
LC-002-002-RND-0
  6
CONTINUOUS
  5
319
 10
208.80778
 20
29.464096
 30
0.0
 40
1.0
 50
270.0
 51
0.0
  0
ARC
  8
LC-002-002-RND-0
  6
CONTINUOUS
  5
31A
 10
206.75778
 20
31.958996
 30
0.0
 40
1.0
 50
180.0
 51
255.0
  0
LINE
  8
LC-001-002-----0
  6
CONTINUOUS
  5
31B
 10
209.80778
 20
30.106475
 30
0.0
 11
209.80778
 21
29.464096
 31
0.0
  0
ARC
  8
LC-001-002-----0
  6
CONTINUOUS
  5
31C
 10
211.90778
 20
127.461591
 30
0.0
 40
1.0
 50
90.0
 51
225.0
  0
ARC
  8
LC-001-002-----0
  6
CONTINUOUS
  5
31D
 10
155.90778
 20
127.461591
 30
0.0
 40
1.0
 50
315.0
 51
90.0
  0
LINE
  8
LC-001-002-----0
  6
CONTINUOUS
  5
31E
 10
162.05778
 20
46.461591
 30
0.0
 11
162.05778
 21
41.961591
 31
0.0
  0
LINE
  8
LC-001-002-----0
  6
CONTINUOUS
  5
31F
 10
156.614886
 20
126.754484
 30
0.0
 11
155.657099
 21
125.796697
 31
0.0
  0
LINE
  8
LC-001-002-----0
  6
CONTINUOUS
  5
320
 10
155.90778
 20
128.461591
 30
0.0
 11
153.40778
 21
128.461591
 31
0.0
  0
LINE
  8
LC-001-002-----0
  6
CONTINUOUS
  5
321
 10
164.05778
 20
28.464096
 30
0.0
 11
159.00778
 21
28.464096
 31
0.0
  0
LINE
  8
LC-001-002-----0
  6
CONTINUOUS
  5
322
 10
156.392061
 20
65.949582
 30
0.0
 11
155.657099
 21
125.796697
 31
0.0
  0
ARC
  8
LC-002-002-RND-0
  6
CONTINUOUS
  5
323
 10
156.40778
 20
63.965779
 30
0.0
 40
3.0
 50
180.0
 51
241.252115
  0
LINE
  8
LC-001-002-----0
  6
CONTINUOUS
  5
324
 10
205.75778
 20
46.461591
 30
0.0
 11
205.75778
 21
41.961591
 31
0.0
  0
LINE
  8
LC-001-002-----0
  6
CONTINUOUS
  5
325
 10
160.05778
 20
50.461591
 30
0.0
 11
160.85778
 21
50.461591
 31
0.0
  0
LINE
  8
LC-001-002-----0
  6
CONTINUOUS
  5
326
 10
153.40778
 20
63.965779
 30
0.0
 11
153.40778
 21
128.461591
 31
0.0
  0
LINE
  8
LC-001-002-----0
  6
CONTINUOUS
  5
327
 10
203.117738
 20
28.464096
 30
0.0
 11
203.75778
 21
28.464096
 31
0.0
  0
LINE
  8
LC-001-002-----0
  6
CONTINUOUS
  5
328
 10
211.90778
 20
128.461591
 30
0.0
 11
214.40778
 21
128.461591
 31
0.0
  0
LINE
  8
LC-001-002-----0
  6
CONTINUOUS
  5
329
 10
211.423498
 20
65.949582
 30
0.0
 11
212.15846
 21
125.796697
 31
0.0
  0
ARC
  8
LC-002-002-RND-0
  6
CONTINUOUS
  5
32A
 10
211.40778
 20
63.965779
 30
0.0
 40
3.0
 50
298.747885
 51
0.0
  0
LINE
  8
LC-001-002-----0
  6
CONTINUOUS
  5
32B
 10
205.95778
 20
51.461591
 30
0.0
 11
205.95778
 21
52.945904
 31
0.0
  0
ARC
  8
LC-002-002-RND-0
  6
CONTINUOUS
  5
32C
 10
160.85778
 20
51.461591
 30
0.0
 40
1.0
 50
270.0
 51
0.0
  0
LINE
  8
LC-001-002-----0
  6
CONTINUOUS
  5
32D
 10
207.75778
 20
53.961591
 30
0.0
 11
206.95778
 21
53.961591
 31
0.0
  0
LINE
  8
LC-001-002-----0
  6
CONTINUOUS
  5
32E
 10
207.75778
 20
50.461591
 30
0.0
 11
206.95778
 21
50.461591
 31
0.0
  0
LINE
  8
LC-001-002-----0
  6
CONTINUOUS
  5
32F
 10
214.40778
 20
63.965779
 30
0.0
 11
214.40778
 21
128.461591
 31
0.0
  0
LINE
  8
LC-001-002-----0
  6
CONTINUOUS
  5
330
 10
162.05778
 20
38.461591
 30
0.0
 11
160.05778
 21
38.461591
 31
0.0
  0
ARC
  8
LC-002-002-RND-0
  6
CONTINUOUS
  5
331
 10
158.39195
 20
65.970708
 30
0.0
 40
2.0
 50
180.605215
 51
229.596374
  0
LINE
  8
LC-001-002-----0
  6
CONTINUOUS
  5
332
 10
160.05778
 20
38.461591
 30
0.0
 11
160.05778
 21
40.961591
 31
0.0
  0
LINE
  8
LC-001-002-----0
  6
CONTINUOUS
  5
333
 10
207.75778
 20
47.461591
 30
0.0
 11
207.75778
 21
50.461591
 31
0.0
  0
ARC
  8
LC-001-002-----0
  6
CONTINUOUS
  5
334
 10
223.54611
 20
49.378954
 30
0.0
 40
19.78833
 50
130.403626
 51
180.0
  0
ARC
  8
LC-001-002-----0
  6
CONTINUOUS
  5
335
 10
217.660213
 20
52.568101
 30
0.0
 40
10.0
 50
118.747885
 51
171.989821
  0
LINE
  8
LC-001-002-----0
  6
CONTINUOUS
  5
336
 10
203.117738
 20
38.461591
 30
0.0
 11
164.697821
 21
38.461591
 31
0.0
  0
ARC
  8
LC-002-002-RND-0
  6
CONTINUOUS
  5
337
 10
206.95778
 20
51.461591
 30
0.0
 40
1.0
 50
180.0
 51
270.0
  0
ARC
  8
LC-002-002-RND-0
  6
CONTINUOUS
  5
338
 10
161.05778
 20
46.461591
 30
0.0
 40
1.0
 50
0.0
 51
90.0
  0
LINE
  8
LC-001-002-----0
  6
CONTINUOUS
  5
339
 10
214.40778
 20
128.461591
 30
0.0
 11
211.90778
 21
128.461591
 31
0.0
  0
LINE
  8
LC-001-002-----0
  6
CONTINUOUS
  5
33A
 10
164.697821
 20
28.464096
 30
0.0
 11
164.145722
 21
28.464096
 31
0.0
  0
LINE
  8
LC-001-002-----0
  6
CONTINUOUS
  5
33B
 10
206.75778
 20
47.461591
 30
0.0
 11
207.75778
 21
47.461591
 31
0.0
  0
LINE
  8
LC-001-002-----0
  6
CONTINUOUS
  5
33C
 10
203.75778
 20
49.378954
 30
0.0
 11
203.75778
 21
28.464096
 31
0.0
  0
LINE
  8
LC-001-002-----0
  6
CONTINUOUS
  5
33D
 10
205.75778
 20
38.461591
 30
0.0
 11
207.75778
 21
38.461591
 31
0.0
  0
LINE
  8
LC-001-002-----0
  6
CONTINUOUS
  5
33E
 10
198.624116
 20
128.461591
 30
0.0
 11
211.90778
 21
128.461591
 31
0.0
  0
LINE
  8
LC-001-002-----0
  6
CONTINUOUS
  5
33F
 10
158.00778
 20
30.106475
 30
0.0
 11
158.00778
 21
29.464096
 31
0.0
  0
ARC
  8
LC-002-002-RND-0
  6
CONTINUOUS
  5
340
 10
206.75778
 20
41.961591
 30
0.0
 40
1.0
 50
180.0
 51
270.0
  0
LINE
  8
LC-001-002-----0
  6
CONTINUOUS
  5
341
 10
206.75778
 20
40.961591
 30
0.0
 11
207.75778
 21
40.961591
 31
0.0
  0
ARC
  8
LC-002-002-RND-0
  6
CONTINUOUS
  5
342
 10
206.95778
 20
52.961591
 30
0.0
 40
1.0
 50
90.0
 51
180.0
  0
LINE
  8
LC-001-002-----0
  6
CONTINUOUS
  5
343
 10
164.05778
 20
49.378954
 30
0.0
 11
164.05778
 21
28.464096
 31
0.0
  0
LINE
  8
LC-001-002-----0
  6
CONTINUOUS
  5
344
 10
161.05778
 20
47.461591
 30
0.0
 11
160.05778
 21
47.461591
 31
0.0
  0
LINE
  8
LC-001-002-----0
  6
CONTINUOUS
  5
345
 10
161.05778
 20
40.961591
 30
0.0
 11
160.05778
 21
40.961591
 31
0.0
  0
LINE
  8
LC-001-002-----0
  6
CONTINUOUS
  5
346
 10
162.05778
 20
38.461591
 30
0.0
 11
162.05778
 21
31.958996
 31
0.0
  0
LINE
  8
LC-001-002-----0
  6
CONTINUOUS
  5
347
 10
160.05778
 20
47.461591
 30
0.0
 11
160.05778
 21
50.461591
 31
0.0
  0
ARC
  8
LC-002-002-RND-0
  6
CONTINUOUS
  5
348
 10
161.05778
 20
41.961591
 30
0.0
 40
1.0
 50
270.0
 51
0.0
  0
LINE
  8
LC-001-002-----0
  6
CONTINUOUS
  5
349
 10
161.85778
 20
51.461591
 30
0.0
 11
161.85778
 21
52.945904
 31
0.0
  0
LINE
  8
LC-001-002-----0
  6
CONTINUOUS
  5
34A
 10
160.05778
 20
53.961591
 30
0.0
 11
160.85778
 21
53.961591
 31
0.0
  0
ARC
  8
LC-002-002-RND-0
  6
CONTINUOUS
  5
34B
 10
160.85778
 20
52.961591
 30
0.0
 40
1.0
 50
0.0
 51
90.0
  0
ARC
  8
LC-001-002-----0
  6
CONTINUOUS
  5
34C
 10
150.155346
 20
52.568101
 30
0.0
 40
10.0
 50
8.010179
 51
61.252115
  0
LINE
  8
LC-001-002-----0
  6
CONTINUOUS
  5
34D
 10
207.75778
 20
38.461591
 30
0.0
 11
207.75778
 21
40.961591
 31
0.0
  0
LINE
  8
LC-001-002-----0
  6
CONTINUOUS
  5
34E
 10
205.75778
 20
38.461591
 30
0.0
 11
205.75778
 21
31.958996
 31
0.0
  0
ARC
  8
LC-002-002-RND-0
  6
CONTINUOUS
  5
34F
 10
209.423609
 20
65.970708
 30
0.0
 40
2.0
 50
310.403626
 51
359.394785
  0
ARC
  8
LC-002-002-RND-0
  6
CONTINUOUS
  5
350
 10
206.75778
 20
46.461591
 30
0.0
 40
1.0
 50
90.0
 51
180.0
  0
LINE
  8
LC-001-002-----0
  6
CONTINUOUS
  5
351
 10
153.40778
 20
128.461591
 30
0.0
 11
155.90778
 21
128.461591
 31
0.0
  0
LINE
  8
LC-001-002-----0
  6
CONTINUOUS
  5
352
 10
203.75778
 20
28.464096
 30
0.0
 11
208.80778
 21
28.464096
 31
0.0
  0
ARC
  8
LC-001-002-----0
  6
CONTINUOUS
  5
353
 10
144.26945
 20
49.378954
 30
0.0
 40
19.78833
 50
0.0
 51
49.596374
  0
LINE
  8
LC-001-002-----0
  6
CONTINUOUS
  5
354
 10
156.392061
 20
65.949582
 30
0.0
 11
211.423498
 21
65.949582
 31
0.0
  0
LINE
  8
LC-001-002-----0
  6
CONTINUOUS
  5
355
 10
164.697821
 20
38.461591
 30
0.0
 11
164.697821
 21
28.464096
 31
0.0
  0
LINE
  8
LC-001-002-----0
  6
CONTINUOUS
  5
356
 10
203.117738
 20
38.461591
 30
0.0
 11
203.117738
 21
28.464096
 31
0.0
  0
LINE
  8
LC-001-002-----0
  6
CONTINUOUS
  5
357
 10
212.15846
 20
125.796697
 30
0.0
 11
198.864148
 21
125.796697
 31
0.0
  0
ARC
  8
LC-002-002-RND-0
  6
CONTINUOUS
  5
358
 10
149.90778
 20
52.729172
 30
0.0
 40
9.0
 50
0.0
 51
90.0
  0
LINE
  8
LC-001-002-----0
  6
CONTINUOUS
  5
359
 10
159.90778
 20
31.729172
 30
0.0
 11
162.031012
 21
31.729172
 31
0.0
  0
ARC
  8
LC-002-002-RND-0
  6
CONTINUOUS
  5
35A
 10
217.90778
 20
52.729172
 30
0.0
 40
9.0
 50
90.0
 51
180.0
  0
ARC
  8
LC-002-002-RND-0
  6
CONTINUOUS
  5
35B
 10
217.90778
 20
52.729172
 30
0.0
 40
10.0
 50
90.0
 51
180.0
  0
LINE
  8
LC-001-002-----0
  6
CONTINUOUS
  5
35C
 10
208.90778
 20
31.729172
 30
0.0
 11
208.90778
 21
52.729172
 31
0.0
  0
ARC
  8
LC-002-002-RND-0
  6
CONTINUOUS
  5
35D
 10
149.90778
 20
52.729172
 30
0.0
 40
10.0
 50
0.0
 51
90.0
  0
LINE
  8
LC-001-002-----0
  6
CONTINUOUS
  5
35E
 10
207.90778
 20
31.729172
 30
0.0
 11
207.90778
 21
52.729172
 31
0.0
  0
LINE
  8
LC-001-002-----0
  6
CONTINUOUS
  5
35F
 10
158.90778
 20
31.729172
 30
0.0
 11
158.90778
 21
52.729172
 31
0.0
  0
LINE
  8
LC-001-002-----0
  6
CONTINUOUS
  5
360
 10
159.90778
 20
31.729172
 30
0.0
 11
159.90778
 21
52.729172
 31
0.0
  0
LINE
  8
LC-001-002-----0
  6
CONTINUOUS
  5
361
 10
116.65778
 20
61.729172
 30
0.0
 11
149.90778
 21
61.729172
 31
0.0
  0
LINE
  8
LC-001-002-----0
  6
CONTINUOUS
  5
362
 10
251.15778
 20
61.729172
 30
0.0
 11
217.90778
 21
61.729172
 31
0.0
  0
ARC
  8
LC-002-002-RND-0
  6
CONTINUOUS
  5
363
 10
251.15778
 20
68.729172
 30
0.0
 40
7.0
 50
270.0
 51
0.0
  0
ARC
  8
LC-002-002-RND-0
  6
CONTINUOUS
  5
364
 10
116.65778
 20
68.729172
 30
0.0
 40
7.0
 50
180.0
 51
270.0
  0
LINE
  8
LC-001-002-----0
  6
CONTINUOUS
  5
365
 10
116.65778
 20
62.729172
 30
0.0
 11
149.90778
 21
62.729172
 31
0.0
  0
ARC
  8
LC-002-002-RND-0
  6
CONTINUOUS
  5
366
 10
116.65778
 20
68.729172
 30
0.0
 40
6.0
 50
180.0
 51
270.0
  0
ARC
  8
LC-002-002-RND-0
  6
CONTINUOUS
  5
367
 10
107.65778
 20
124.729172
 30
0.0
 40
2.0
 50
0.0
 51
76.899095
  0
ARC
  8
LC-001-002-----0
  6
CONTINUOUS
  5
368
 10
108.33778
 20
127.651089
 30
0.0
 40
1.0
 50
184.023529
 51
256.899095
  0
LINE
  8
LC-001-002-----0
  6
CONTINUOUS
  5
369
 10
251.15778
 20
62.729172
 30
0.0
 11
217.90778
 21
62.729172
 31
0.0
  0
ARC
  8
LC-002-002-RND-0
  6
CONTINUOUS
  5
36A
 10
251.15778
 20
68.729172
 30
0.0
 40
6.0
 50
270.0
 51
0.0
  0
ARC
  8
LC-002-002-RND-0
  6
CONTINUOUS
  5
36B
 10
260.15778
 20
124.729172
 30
0.0
 40
2.0
 50
103.100905
 51
180.0
  0
ARC
  8
LC-001-002-----0
  6
CONTINUOUS
  5
36C
 10
259.47778
 20
127.651089
 30
0.0
 40
1.0
 50
283.100905
 51
355.976471
  0
LINE
  8
LC-001-002-----0
  6
CONTINUOUS
  5
36D
 10
257.15778
 20
124.729172
 30
0.0
 11
257.15778
 21
68.729172
 31
0.0
  0
LINE
  8
LC-001-002-----0
  6
CONTINUOUS
  5
36E
 10
261.40778
 20
135.729172
 30
0.0
 11
261.40778
 21
134.727845
 31
0.0
  0
LINE
  8
LC-001-002-----0
  6
CONTINUOUS
  5
36F
 10
110.65778
 20
124.729172
 30
0.0
 11
110.65778
 21
68.729172
 31
0.0
  0
LINE
  8
LC-001-002-----0
  6
CONTINUOUS
  5
370
 10
106.40778
 20
135.729172
 30
0.0
 11
106.40778
 21
134.727845
 31
0.0
  0
LINE
  8
LC-001-002-----0
  6
CONTINUOUS
  5
371
 10
108.33778
 20
127.651089
 30
0.0
 11
107.867677
 21
134.334421
 31
0.0
  0
LINE
  8
LC-001-002-----0
  6
CONTINUOUS
  5
372
 10
109.65778
 20
124.729172
 30
0.0
 11
109.65778
 21
68.729172
 31
0.0
  0
LINE
  8
LC-001-002-----0
  6
CONTINUOUS
  5
373
 10
107.340244
 20
127.580923
 30
0.0
 11
106.870142
 21
134.264255
 31
0.0
  0
ARC
  8
LC-002-002-RND-0
  6
CONTINUOUS
  5
374
 10
106.371374
 20
134.229172
 30
0.0
 40
0.5
 50
4.023529
 51
85.824584
  0
ARC
  8
LC-002-002-RND-0
  6
CONTINUOUS
  5
375
 10
107.65778
 20
124.729172
 30
0.0
 40
3.0
 50
0.0
 51
76.899095
  0
LINE
  8
LC-001-002-----0
  6
CONTINUOUS
  5
376
 10
159.90778
 20
31.729172
 30
0.0
 11
158.90778
 21
31.729172
 31
0.0
  0
LINE
  8
LC-001-002-----0
  6
CONTINUOUS
  5
377
 10
259.47778
 20
127.651089
 30
0.0
 11
259.947882
 21
134.334421
 31
0.0
  0
LINE
  8
LC-001-002-----0
  6
CONTINUOUS
  5
378
 10
258.15778
 20
124.729172
 30
0.0
 11
258.15778
 21
68.729172
 31
0.0
  0
LINE
  8
LC-001-002-----0
  6
CONTINUOUS
  5
379
 10
260.475315
 20
127.580923
 30
0.0
 11
260.945417
 21
134.264255
 31
0.0
  0
ARC
  8
LC-002-002-RND-0
  6
CONTINUOUS
  5
37A
 10
261.444185
 20
134.229172
 30
0.0
 40
0.5
 50
94.175416
 51
175.976471
  0
ARC
  8
LC-002-002-RND-0
  6
CONTINUOUS
  5
37B
 10
260.15778
 20
124.729172
 30
0.0
 40
3.0
 50
103.100905
 51
180.0
  0
ARC
  8
LC-001-002-----0
  6
CONTINUOUS
  5
37C
 10
106.371374
 20
134.229172
 30
0.0
 40
1.5
 50
4.023529
 51
88.609699
  0
LINE
  8
LC-001-002-----0
  6
CONTINUOUS
  5
37D
 10
207.90778
 20
31.729172
 30
0.0
 11
208.90778
 21
31.729172
 31
0.0
  0
LINE
  8
LC-001-002-----0
  6
CONTINUOUS
  5
37E
 10
108.33778
 20
127.651089
 30
0.0
 11
140.157577
 21
127.651089
 31
0.0
  0
LINE
  8
LC-001-002-----0
  6
CONTINUOUS
  5
37F
 10
106.40778
 20
135.729172
 30
0.0
 11
140.157577
 21
135.729172
 31
0.0
  0
ARC
  8
LC-001-002-----0
  6
CONTINUOUS
  5
380
 10
261.444185
 20
134.229172
 30
0.0
 40
1.5
 50
91.390301
 51
175.976471
  0
LINE
  8
LC-001-002-----0
  6
CONTINUOUS
  5
381
 10
227.65779
 20
135.729172
 30
0.0
 11
261.40778
 21
135.729172
 31
0.0
  0
LINE
  8
LC-001-002-----0
  6
CONTINUOUS
  5
382
 10
227.657784
 20
127.651089
 30
0.0
 11
259.47778
 21
127.651089
 31
0.0
  0
ARC
  8
LC-001-002-----0
  6
CONTINUOUS
  5
383
 10
160.95778
 20
51.361591
 30
0.0
 40
0.894987
 50
180.0
 51
0.0
  0
ARC
  8
LC-001-002-----0
  6
CONTINUOUS
  5
384
 10
160.95778
 20
53.061591
 30
0.0
 40
0.894987
 50
0.0
 51
180.0
  0
LINE
  8
LC-001-002-----0
  6
CONTINUOUS
  5
385
 10
160.062792
 20
51.361591
 30
0.0
 11
160.062792
 21
53.061591
 31
0.0
  0
LINE
  8
LC-001-002-----0
  6
CONTINUOUS
  5
386
 10
161.85778
 20
51.461591
 30
0.0
 11
161.85778
 21
52.961591
 31
0.0
  0
ARC
  8
LC-001-002-----0
  6
CONTINUOUS
  5
387
 10
206.85778
 20
53.061591
 30
0.0
 40
0.894987
 50
360.0
 51
180.0
  0
LINE
  8
LC-001-002-----0
  6
CONTINUOUS
  5
388
 10
207.752767
 20
51.361591
 30
0.0
 11
207.752767
 21
53.061591
 31
0.0
  0
ARC
  8
LC-001-002-----0
  6
CONTINUOUS
  5
389
 10
206.85778
 20
51.361591
 30
0.0
 40
0.894987
 50
180.0
 51
360.0
  0
LINE
  8
LC-001-002-----0
  6
CONTINUOUS
  5
38A
 10
205.95778
 20
51.461591
 30
0.0
 11
205.95778
 21
52.945904
 31
0.0
  0
LINE
  8
LC-001-002-----0
  6
CONTINUOUS
  5
38B
 10
205.784547
 20
31.729172
 30
0.0
 11
207.90778
 21
31.729172
 31
0.0
  0
LINE
  8
LC-001-002-----0
  6
CONTINUOUS
  5
38C
 10
174.157745
 20
151.961418
 30
0.0
 11
183.907577
 21
151.961418
 31
0.0
  0
LINE
  8
LC-001-002-----0
  6
CONTINUOUS
  5
38D
 10
193.657742
 20
151.961603
 30
0.0
 11
183.9078
 21
151.96161
 31
0.0
  0
LINE
  8
LC-001-002-----0
  6
CONTINUOUS
  5
38E
 10
185.338422
 20
120.961418
 30
0.0
 11
185.346271
 21
149.961589
 31
0.0
  0
LINE
  8
LC-001-002-----0
  6
CONTINUOUS
  5
38F
 10
198.395237
 20
120.961418
 30
0.0
 11
198.864148
 21
124.461418
 31
0.0
  0
LINE
  8
LC-001-002-----0
  6
CONTINUOUS
  5
390
 10
198.864148
 20
124.461418
 30
0.0
 11
198.864148
 21
127.547205
 31
0.0
  0
LINE
  8
LC-001-002-----0
  6
CONTINUOUS
  5
391
 10
198.864148
 20
128.961418
 30
0.0
 11
200.614149
 21
128.961418
 31
0.0
  0
ARC
  8
LC-001-002-----0
  6
CONTINUOUS
  5
392
 10
199.162841
 20
128.254311
 30
0.0
 40
0.767605
 50
112.900021
 51
247.099979
  0
LINE
  8
LC-001-002-----0
  6
CONTINUOUS
  5
393
 10
200.614149
 20
128.961418
 30
0.0
 11
200.614149
 21
149.961589
 31
0.0
  0
LINE
  8
LC-001-002-----0
  6
CONTINUOUS
  5
394
 10
33.148337
 20
169.149662
 30
0.0
 11
73.803937
 21
168.440016
 31
0.0
  0
LINE
  8
LC-001-002-----0
  6
CONTINUOUS
  5
395
 10
33.148337
 20
166.149205
 30
0.0
 11
72.703651
 21
165.458764
 31
0.0
  0
LINE
  8
LC-001-002-----0
  6
CONTINUOUS
  5
396
 10
334.659538
 20
169.149662
 30
0.0
 11
294.003937
 21
168.440016
 31
0.0
  0
LINE
  8
LC-001-002-----0
  6
CONTINUOUS
  5
397
 10
33.148337
 20
169.149662
 30
0.0
 11
334.659538
 21
169.149662
 31
0.0
  0
LINE
  8
LC-001-002-----0
  6
CONTINUOUS
  5
398
 10
276.134172
 20
165.552289
 30
0.0
 11
195.574633
 21
165.552289
 31
0.0
  0
LINE
  8
LC-001-002-----0
  6
CONTINUOUS
  5
399
 10
91.673703
 20
165.552289
 30
0.0
 11
183.90008
 21
165.552289
 31
0.0
  0
LINE
  8
LC-001-002-----0
  6
CONTINUOUS
  5
39A
 10
130.239826
 20
-15.200795
 30
0.0
 11
131.90008
 21
-15.200796
 31
0.0
  0
LINE
  8
LC-001-002-----0
  6
CONTINUOUS
  5
39B
 10
238.90008
 20
58.299134
 30
0.0
 11
238.90008
 21
-10.200866
 31
0.0
  0
LINE
  8
LC-001-002-----0
  6
CONTINUOUS
  5
39C
 10
235.90008
 20
61.298978
 30
0.0
 11
235.90008
 21
-15.200866
 31
0.0
  0
LINE
  8
LC-001-002-----0
  6
CONTINUOUS
  5
39D
 10
128.90008
 20
58.299134
 30
0.0
 11
128.90008
 21
-10.200794
 31
0.0
  0
LINE
  8
LC-001-002-----0
  6
CONTINUOUS
  5
39E
 10
131.90008
 20
61.298978
 30
0.0
 11
131.90008
 21
-15.200866
 31
0.0
  0
LINE
  8
LC-001-002-----0
  6
CONTINUOUS
  5
39F
 10
128.90008
 20
58.298978
 30
0.0
 11
115.40008
 21
58.298978
 31
0.0
  0
ARC
  8
LC-002-002-RND-0
  6
CONTINUOUS
  5
3A0
 10
76.450713
 20
168.621668
 30
0.0
 40
2.0
 50
225.0
 51
266.000003
  0
LINE
  8
LC-001-002-----0
  6
CONTINUOUS
  5
3A1
 10
334.659538
 20
166.149205
 30
0.0
 11
295.104224
 21
165.458764
 31
0.0
  0
ARC
  8
LC-002-002-RND-0
  6
CONTINUOUS
  5
3A2
 10
291.357162
 20
168.621668
 30
0.0
 40
2.0
 50
273.999997
 51
315.0
  0
LINE
  8
LC-001-002-----0
  6
CONTINUOUS
  5
3A3
 10
270.655706
 20
155.952545
 30
0.0
 11
270.655706
 21
162.452545
 31
0.0
  0
LINE
  8
LC-001-002-----0
  6
CONTINUOUS
  5
3A4
 10
272.655706
 20
162.452545
 30
0.0
 11
270.657088
 21
162.452545
 31
0.0
  0
LINE
  8
LC-001-002-----0
  6
CONTINUOUS
  5
3A5
 10
272.655706
 20
156.452545
 30
0.0
 11
272.655706
 21
162.452545
 31
0.0
  0
LINE
  8
LC-001-002-----0
  6
CONTINUOUS
  5
3A6
 10
274.655706
 20
156.452545
 30
0.0
 11
272.655706
 21
156.452545
 31
0.0
  0
LINE
  8
LC-001-002-----0
  6
CONTINUOUS
  5
3A7
 10
261.957088
 20
144.148978
 30
0.0
 11
261.757088
 21
144.148978
 31
0.0
  0
LINE
  8
LC-001-002-----0
  6
CONTINUOUS
  5
3A8
 10
270.657088
 20
145.448978
 30
0.0
 11
270.657088
 21
162.448978
 31
0.0
  0
LINE
  8
LC-001-002-----0
  6
CONTINUOUS
  5
3A9
 10
270.655706
 20
156.23361
 30
0.0
 11
270.655706
 21
156.23361
 31
0.0
  0
LINE
  8
LC-001-002-----0
  6
CONTINUOUS
  5
3AA
 10
261.957088
 20
140.648978
 30
0.0
 11
261.957088
 21
142.148978
 31
0.0
  0
LINE
  8
LC-001-002-----0
  6
CONTINUOUS
  5
3AB
 10
261.957088
 20
137.198978
 30
0.0
 11
261.957088
 21
137.698978
 31
0.0
  0
LINE
  8
LC-001-002-----0
  6
CONTINUOUS
  5
3AC
 10
261.957088
 20
135.698978
 30
0.0
 11
261.957088
 21
138.648978
 31
0.0
  0
LINE
  8
LC-001-002-----0
  6
CONTINUOUS
  5
3AD
 10
261.957088
 20
135.698978
 30
0.0
 11
261.399373
 21
135.698978
 31
0.0
  0
LINE
  8
LC-001-002-----0
  6
CONTINUOUS
  5
3AE
 10
261.957088
 20
138.648978
 30
0.0
 11
261.757088
 21
138.648978
 31
0.0
  0
ARC
  8
LC-002-002-RND-0
  6
CONTINUOUS
  5
3AF
 10
261.757088
 20
143.348978
 30
0.0
 40
0.8
 50
90.0
 51
180.0
  0
ARC
  8
LC-002-002-RND-0
  6
CONTINUOUS
  5
3B0
 10
261.757088
 20
139.848978
 30
0.0
 40
0.8
 50
90.0
 51
180.0
  0
LINE
  8
LC-001-002-----0
  6
CONTINUOUS
  5
3B1
 10
260.957088
 20
139.448978
 30
0.0
 11
260.957088
 21
139.848978
 31
0.0
  0
LINE
  8
LC-001-002-----0
  6
CONTINUOUS
  5
3B2
 10
260.957088
 20
142.948978
 30
0.0
 11
260.957088
 21
143.348978
 31
0.0
  0
ARC
  8
LC-002-002-RND-0
  6
CONTINUOUS
  5
3B3
 10
261.757088
 20
139.448978
 30
0.0
 40
0.8
 50
180.0
 51
270.0
  0
ARC
  8
LC-002-002-RND-0
  6
CONTINUOUS
  5
3B4
 10
261.757088
 20
142.948978
 30
0.0
 40
0.8
 50
180.0
 51
270.0
  0
LINE
  8
LC-001-002-----0
  6
CONTINUOUS
  5
3B5
 10
261.957088
 20
142.148978
 30
0.0
 11
261.757088
 21
142.148978
 31
0.0
  0
ARC
  8
LC-002-002-RND-0
  6
CONTINUOUS
  5
3B6
 10
270.157088
 20
145.448978
 30
0.0
 40
0.5
 50
270.0
 51
0.0
  0
LINE
  8
LC-001-002-----0
  6
CONTINUOUS
  5
3B7
 10
291.496675
 20
166.626539
 30
0.0
 11
276.134172
 21
165.552289
 31
0.0
  0
ARC
  8
LC-002-002-RND-0
  6
CONTINUOUS
  5
3B8
 10
274.708123
 20
157.448978
 30
0.0
 40
1.0
 50
270.0
 51
357.0
  0
LINE
  8
LC-001-002-----0
  6
CONTINUOUS
  5
3B9
 10
276.134172
 20
165.552289
 30
0.0
 11
275.706753
 21
157.396642
 31
0.0
  0
LINE
  8
LC-001-002-----0
  6
CONTINUOUS
  5
3BA
 10
334.659538
 20
169.149662
 30
0.0
 11
334.659538
 21
166.149205
 31
0.0
  0
LINE
  8
LC-001-002-----0
  6
CONTINUOUS
  5
3BB
 10
278.921529
 20
161.416265
 30
0.0
 11
278.67918
 21
156.79197
 31
0.0
  0
LINE
  8
LC-001-002-----0
  6
CONTINUOUS
  5
3BC
 10
295.104224
 20
165.458764
 30
0.0
 11
293.397599
 21
163.752139
 31
0.0
  0
LINE
  8
LC-001-002-----0
  6
CONTINUOUS
  5
3BD
 10
261.957088
 20
140.648978
 30
0.0
 11
261.757088
 21
140.648978
 31
0.0
  0
ARC
  8
LC-009-001-RND-0
  6
CONTINUOUS
  5
3BF
 10
280.393341
 20
161.339131
 30
0.0
 40
1.5
 50
93.999997
 51
177.0
  0
LINE
  8
LC-001-002-----0
  6
CONTINUOUS
  5
3C0
 10
273.407088
 20
145.948978
 30
0.0
 11
264.15008
 21
132.728601
 31
0.0
  0
LINE
  8
LC-001-002-----0
  6
CONTINUOUS
  5
3C1
 10
275.683292
 20
153.948978
 30
0.0
 11
275.407088
 21
153.948978
 31
0.0
  0
LINE
  8
LC-001-002-----0
  6
CONTINUOUS
  5
3C2
 10
97.152169
 20
145.486126
 30
0.0
 11
97.152169
 21
162.452545
 31
0.0
  0
LINE
  8
LC-010-001-----0
  6
CONTINUOUS
  5
3C4
 10
293.397599
 20
163.752139
 30
0.0
 11
280.288707
 21
162.835477
 31
0.0
  0
ARC
  8
LC-002-002-RND-0
  6
CONTINUOUS
  5
3C5
 10
275.683292
 20
156.948978
 30
0.0
 40
3.0
 50
270.0
 51
357.0
  0
LINE
  8
LC-001-002-----0
  6
CONTINUOUS
  5
3C6
 10
95.150787
 20
162.452545
 30
0.0
 11
97.152169
 21
162.452545
 31
0.0
  0
ARC
  8
LC-002-002-RND-0
  6
CONTINUOUS
  5
3C7
 10
275.407088
 20
151.948978
 30
0.0
 40
2.0
 50
90.0
 51
180.0
  0
LINE
  8
LC-001-002-----0
  6
CONTINUOUS
  5
3C8
 10
273.407088
 20
145.948978
 30
0.0
 11
273.407088
 21
151.948978
 31
0.0
  0
LINE
  8
LC-001-002-----0
  6
CONTINUOUS
  5
3C9
 10
261.957088
 20
137.198978
 30
0.0
 11
261.957088
 21
137.198978
 31
0.0
  0
LINE
  8
LC-001-002-----0
  6
CONTINUOUS
  5
3CA
 10
270.157088
 20
144.948978
 30
0.0
 11
262.757088
 21
144.948978
 31
0.0
  0
LINE
  8
LC-001-002-----0
  6
CONTINUOUS
  5
3CB
 10
270.657088
 20
146.448978
 30
0.0
 11
270.657088
 21
147.74836
 31
0.0
  0
LINE
  8
LC-001-002-----0
  6
CONTINUOUS
  5
3CC
 10
272.657088
 20
162.448978
 30
0.0
 11
270.657088
 21
162.448978
 31
0.0
  0
LINE
  8
LC-001-002-----0
  6
CONTINUOUS
  5
3CD
 10
261.957088
 20
136.948978
 30
0.0
 11
261.957088
 21
137.448978
 31
0.0
  0
LINE
  8
LC-001-002-----0
  6
CONTINUOUS
  5
3CE
 10
261.957088
 20
137.148978
 30
0.0
 11
261.957088
 21
137.648978
 31
0.0
  0
LINE
  8
LC-001-002-----0
  6
CONTINUOUS
  5
3CF
 10
294.003937
 20
168.440016
 30
0.0
 11
292.771376
 21
167.207454
 31
0.0
  0
LINE
  8
LC-001-002-----0
  6
CONTINUOUS
  5
3D0
 10
261.957088
 20
137.198978
 30
0.0
 11
261.957088
 21
137.198978
 31
0.0
  0
ARC
  8
LC-002-002-RND-0
  6
CONTINUOUS
  5
3D1
 10
262.757088
 20
144.148978
 30
0.0
 40
0.8
 50
90.0
 51
180.0
  0
LINE
  8
LC-001-002-----0
  6
CONTINUOUS
  5
3D2
 10
261.957088
 20
144.148978
 30
0.0
 11
261.957088
 21
144.148978
 31
0.0
  0
LINE
  8
LC-001-002-----0
  6
CONTINUOUS
  5
3D3
 10
106.400787
 20
70.298978
 30
0.0
 11
106.400787
 21
135.698978
 31
0.0
  0
LINE
  8
LC-001-002-----0
  6
CONTINUOUS
  5
3D4
 10
105.850787
 20
144.148978
 30
0.0
 11
106.050787
 21
144.148978
 31
0.0
  0
LINE
  8
LC-001-002-----0
  6
CONTINUOUS
  5
3D5
 10
97.152169
 20
156.23361
 30
0.0
 11
97.152169
 21
156.23361
 31
0.0
  0
LINE
  8
LC-001-002-----0
  6
CONTINUOUS
  5
3D6
 10
105.850787
 20
140.648978
 30
0.0
 11
105.850787
 21
142.148978
 31
0.0
  0
LINE
  8
LC-001-002-----0
  6
CONTINUOUS
  5
3D7
 10
105.850787
 20
137.198978
 30
0.0
 11
105.850787
 21
137.698978
 31
0.0
  0
LINE
  8
LC-001-002-----0
  6
CONTINUOUS
  5
3D8
 10
105.850787
 20
135.698978
 30
0.0
 11
105.850787
 21
138.648978
 31
0.0
  0
LINE
  8
LC-001-002-----0
  6
CONTINUOUS
  5
3D9
 10
105.850787
 20
135.698978
 30
0.0
 11
106.400787
 21
135.698978
 31
0.0
  0
LINE
  8
LC-001-002-----0
  6
CONTINUOUS
  5
3DA
 10
105.850787
 20
138.648978
 30
0.0
 11
106.050787
 21
138.648978
 31
0.0
  0
ARC
  8
LC-002-002-RND-0
  6
CONTINUOUS
  5
3DB
 10
106.050787
 20
143.348978
 30
0.0
 40
0.8
 50
0.0
 51
90.0
  0
ARC
  8
LC-002-002-RND-0
  6
CONTINUOUS
  5
3DC
 10
106.050787
 20
139.848978
 30
0.0
 40
0.8
 50
0.0
 51
90.0
  0
LINE
  8
LC-001-002-----0
  6
CONTINUOUS
  5
3DD
 10
106.850787
 20
139.448978
 30
0.0
 11
106.850787
 21
139.848978
 31
0.0
  0
LINE
  8
LC-001-002-----0
  6
CONTINUOUS
  5
3DE
 10
106.850787
 20
142.948978
 30
0.0
 11
106.850787
 21
143.348978
 31
0.0
  0
ARC
  8
LC-002-002-RND-0
  6
CONTINUOUS
  5
3DF
 10
106.050787
 20
139.448978
 30
0.0
 40
0.8
 50
270.0
 51
0.0
  0
ARC
  8
LC-002-002-RND-0
  6
CONTINUOUS
  5
3E0
 10
106.050787
 20
142.948978
 30
0.0
 40
0.8
 50
270.0
 51
0.0
  0
LINE
  8
LC-001-002-----0
  6
CONTINUOUS
  5
3E1
 10
105.850787
 20
142.148978
 30
0.0
 11
106.050787
 21
142.148978
 31
0.0
  0
ARC
  8
LC-002-002-RND-0
  6
CONTINUOUS
  5
3E2
 10
97.650787
 20
145.448978
 30
0.0
 40
0.5
 50
180.0
 51
270.0
  0
LINE
  8
LC-001-002-----0
  6
CONTINUOUS
  5
3E3
 10
76.3112
 20
166.626539
 30
0.0
 11
91.673703
 21
165.552289
 31
0.0
  0
LINE
  8
LC-001-002-----0
  6
CONTINUOUS
  5
3E4
 10
93.099752
 20
156.448978
 30
0.0
 11
95.150787
 21
156.448978
 31
0.0
  0
ARC
  8
LC-002-002-RND-0
  6
CONTINUOUS
  5
3E5
 10
93.099752
 20
157.448978
 30
0.0
 40
1.0
 50
183.0
 51
270.0
  0
LINE
  8
LC-001-002-----0
  6
CONTINUOUS
  5
3E6
 10
261.399373
 20
70.298978
 30
0.0
 11
261.399373
 21
135.698978
 31
0.0
  0
LINE
  8
LC-001-002-----0
  6
CONTINUOUS
  5
3E7
 10
95.150787
 20
156.448978
 30
0.0
 11
95.150787
 21
162.452545
 31
0.0
  0
LINE
  8
LC-001-002-----0
  6
CONTINUOUS
  5
3E8
 10
91.673703
 20
165.552289
 30
0.0
 11
92.101122
 21
157.396642
 31
0.0
  0
LINE
  8
LC-001-002-----0
  6
CONTINUOUS
  5
3E9
 10
33.148337
 20
169.149662
 30
0.0
 11
33.148337
 21
166.149205
 31
0.0
  0
LINE
  8
LC-001-002-----0
  6
CONTINUOUS
  5
3EA
 10
88.886177
 20
161.419474
 30
0.0
 11
89.128695
 21
156.79197
 31
0.0
  0
LINE
  8
LC-001-002-----0
  6
CONTINUOUS
  5
3EB
 10
72.703651
 20
165.458764
 30
0.0
 11
74.410276
 21
163.752139
 31
0.0
  0
LINE
  8
LC-001-002-----0
  6
CONTINUOUS
  5
3EC
 10
105.850787
 20
140.648978
 30
0.0
 11
106.050787
 21
140.648978
 31
0.0
  0
ARC
  8
LC-002-002-RND-0
  6
CONTINUOUS
  5
3ED
 10
115.400787
 20
70.298978
 30
0.0
 40
9.0
 50
180.0
 51
270.0
  0
ARC
  8
LC-002-002-RND-0
  6
CONTINUOUS
  5
3EE
 10
252.399373
 20
70.298978
 30
0.0
 40
9.0
 50
270.0
 51
0.0
  0
LINE
  8
LC-001-002-----0
  6
CONTINUOUS
  5
3EF
 10
94.400787
 20
145.948978
 30
0.0
 11
103.65008
 21
132.739618
 31
0.0
  0
LINE
  8
LC-001-002-----0
  6
CONTINUOUS
  5
3F0
 10
92.124583
 20
153.948978
 30
0.0
 11
92.400787
 21
153.948978
 31
0.0
  0
LINE
  8
LC-010-001-----0
  6
CONTINUOUS
  5
3F1
 10
74.410276
 20
163.752139
 30
0.0
 11
87.492868
 21
162.837316
 31
0.0
  0
ARC
  8
LC-002-002-RND-0
  6
CONTINUOUS
  5
3F2
 10
92.124583
 20
156.948978
 30
0.0
 40
3.0
 50
183.0
 51
270.0
  0
ARC
  8
LC-002-002-RND-0
  6
CONTINUOUS
  5
3F3
 10
92.400787
 20
151.948978
 30
0.0
 40
2.0
 50
0.0
 51
90.0
  0
LINE
  8
LC-001-002-----0
  6
CONTINUOUS
  5
3F4
 10
94.400787
 20
145.948978
 30
0.0
 11
94.400787
 21
151.948978
 31
0.0
  0
LINE
  8
LC-001-002-----0
  6
CONTINUOUS
  5
3F5
 10
105.850787
 20
137.198978
 30
0.0
 11
105.850787
 21
137.198978
 31
0.0
  0
LINE
  8
LC-001-002-----0
  6
CONTINUOUS
  5
3F6
 10
97.650787
 20
144.948978
 30
0.0
 11
105.050787
 21
144.948978
 31
0.0
  0
LINE
  8
LC-001-002-----0
  6
CONTINUOUS
  5
3F7
 10
105.850787
 20
136.948978
 30
0.0
 11
105.850787
 21
137.448978
 31
0.0
  0
LINE
  8
LC-001-002-----0
  6
CONTINUOUS
  5
3F8
 10
105.850787
 20
137.148978
 30
0.0
 11
105.850787
 21
137.648978
 31
0.0
  0
LINE
  8
LC-001-002-----0
  6
CONTINUOUS
  5
3F9
 10
73.803937
 20
168.440016
 30
0.0
 11
75.036499
 21
167.207454
 31
0.0
  0
LINE
  8
LC-001-002-----0
  6
CONTINUOUS
  5
3FA
 10
105.850787
 20
137.198978
 30
0.0
 11
105.850787
 21
137.198978
 31
0.0
  0
ARC
  8
LC-002-002-RND-0
  6
CONTINUOUS
  5
3FB
 10
105.050787
 20
144.148978
 30
0.0
 40
0.8
 50
0.0
 51
90.0
  0
LINE
  8
LC-001-002-----0
  6
CONTINUOUS
  5
3FC
 10
105.850787
 20
144.148978
 30
0.0
 11
105.850787
 21
144.148978
 31
0.0
  0
LINE
  8
LC-001-002-----0
  6
CONTINUOUS
  5
3FD
 10
252.400073
 20
58.299125
 30
0.0
 11
238.90008
 21
58.299134
 31
0.0
  0
LINE
  8
LC-001-002-----0
  6
CONTINUOUS
  5
3FE
 10
115.400787
 20
61.298978
 30
0.0
 11
131.90008
 21
61.298978
 31
0.0
  0
LINE
  8
LC-001-002-----0
  6
CONTINUOUS
  5
3FF
 10
252.399373
 20
61.298978
 30
0.0
 11
235.90008
 21
61.298978
 31
0.0
  0
LINE
  8
LC-001-002-----0
  6
CONTINUOUS
  5
400
 10
238.90008
 20
-10.200866
 30
0.0
 11
237.560335
 21
-15.200865
 31
0.0
  0
LINE
  8
LC-001-002-----0
  6
CONTINUOUS
  5
401
 10
128.90008
 20
-10.200794
 30
0.0
 11
130.239826
 21
-15.200795
 31
0.0
  0
LINE
  8
LC-001-002-----0
  6
CONTINUOUS
  5
402
 10
264.15008
 20
132.728601
 30
0.0
 11
264.15008
 21
70.049125
 31
0.0
  0
LINE
  8
LC-001-002-----0
  6
CONTINUOUS
  5
403
 10
103.65008
 20
132.739618
 30
0.0
 11
103.65008
 21
70.048978
 31
0.0
  0
ARC
  8
LC-002-002-RND-0
  6
CONTINUOUS
  5
404
 10
252.40008
 20
70.049125
 30
0.0
 40
11.75
 50
269.999963
 51
0.0
  0
ARC
  8
LC-002-002-RND-0
  6
CONTINUOUS
  5
405
 10
115.40008
 20
70.048978
 30
0.0
 40
11.75
 50
180.0
 51
270.0
  0
LINE
  8
LC-001-002-----0
  6
CONTINUOUS
  5
406
 10
262.757088
 20
144.948978
 30
0.0
 11
226.572276
 21
144.948978
 31
0.0
  0
LINE
  8
LC-001-002-----0
  6
CONTINUOUS
  5
407
 10
261.399373
 20
135.698978
 30
0.0
 11
225.403949
 21
135.698978
 31
0.0
  0
LINE
  8
LC-001-002-----0
  6
CONTINUOUS
  5
408
 10
235.90008
 20
-15.200864
 30
0.0
 11
237.560335
 21
-15.200865
 31
0.0
  0
LINE
  8
LC-001-002-----0
  6
CONTINUOUS
  5
409
 10
131.90008
 20
-15.200796
 30
0.0
 11
235.90008
 21
-15.200864
 31
0.0
  0
LINE
  8
LC-001-002-----0
  6
CONTINUOUS
  5
40A
 10
106.400787
 20
135.698978
 30
0.0
 11
140.157577
 21
135.698978
 31
0.0
  0
LINE
  8
LC-001-002-----0
  6
CONTINUOUS
  5
40B
 10
105.050787
 20
144.948978
 30
0.0
 11
141.243172
 21
144.948978
 31
0.0
  0
ARC
  8
LC-009-001-RND-0
  6
CONTINUOUS
  5
40C
 10
87.388233
 20
161.34097
 30
0.0
 40
1.5
 50
3.0
 51
86.000003
  0
LINE
  8
LC-001-002-----0
  6
DASHDOT
 62
     2
  5
40E
 10
183.90008
 20
-15.20083
 30
0.0
 11
183.90008
 21
158.798915
 31
0.0
  0
LINE
  8
LC-001-002-----0
  6
CONTINUOUS
  5
40F
 10
275.65008
 20
165.16848
 30
0.0
 11
256.90008
 21
163.857352
 31
0.0
  0
LINE
  8
LC-001-002-----0
  6
CONTINUOUS
  5
410
 10
94.900295
 20
162.470061
 30
0.0
 11
104.90008
 21
161.770808
 31
0.0
  0
LINE
  8
LC-001-002-----0
  6
CONTINUOUS
  5
411
 10
253.14674
 20
145.168882
 30
0.0
 11
253.14674
 21
148.168882
 31
0.0
  0
LINE
  8
LC-001-002-----0
  6
CONTINUOUS
  5
412
 10
247.48736
 20
145.168882
 30
0.0
 11
247.48736
 21
148.168882
 31
0.0
  0
LINE
  8
LC-001-002-----0
  6
CONTINUOUS
  5
413
 10
240.667935
 20
145.168882
 30
0.0
 11
240.667935
 21
148.168882
 31
0.0
  0
LINE
  8
LC-001-002-----0
  6
CONTINUOUS
  5
414
 10
246.718011
 20
163.857352
 30
0.0
 11
245.968011
 21
163.107352
 31
0.0
  0
LINE
  8
LC-001-002-----0
  6
CONTINUOUS
  5
415
 10
245.968011
 20
163.107352
 30
0.0
 11
245.968011
 21
148.168882
 31
0.0
  0
LINE
  8
LC-001-002-----0
  6
CONTINUOUS
  5
416
 10
92.15008
 20
165.16848
 30
0.0
 11
183.90008
 21
165.16848
 31
0.0
  0
LINE
  8
LC-001-002-----0
  6
CONTINUOUS
  5
417
 10
245.968011
 20
163.107352
 30
0.0
 11
251.512319
 21
163.107352
 31
0.0
  0
LINE
  8
LC-001-002-----0
  6
CONTINUOUS
  5
418
 10
251.512319
 20
163.107352
 30
0.0
 11
251.512319
 21
148.168882
 31
0.0
  0
LINE
  8
LC-001-002-----0
  6
CONTINUOUS
  5
419
 10
256.90008
 20
163.857352
 30
0.0
 11
256.15008
 21
163.107352
 31
0.0
  0
LINE
  8
LC-001-002-----0
  6
CONTINUOUS
  5
41A
 10
251.166441
 20
163.857352
 30
0.0
 11
251.512319
 21
163.107352
 31
0.0
  0
LINE
  8
LC-001-002-----0
  6
CONTINUOUS
  5
41B
 10
228.209785
 20
145.168882
 30
0.0
 11
228.209785
 21
148.168882
 31
0.0
  0
LINE
  8
LC-001-002-----0
  6
CONTINUOUS
  5
41C
 10
253.40008
 20
145.168882
 30
0.0
 11
253.40008
 21
148.168882
 31
0.0
  0
LINE
  8
LC-001-002-----0
  6
CONTINUOUS
  5
41D
 10
256.15008
 20
148.168882
 30
0.0
 11
256.15008
 21
163.107352
 31
0.0
  0
LINE
  8
LC-001-002-----0
  6
CONTINUOUS
  5
41E
 10
218.90008
 20
163.857352
 30
0.0
 11
218.15008
 21
163.107352
 31
0.0
  0
LINE
  8
LC-001-002-----0
  6
CONTINUOUS
  5
41F
 10
218.15008
 20
163.107352
 30
0.0
 11
218.15008
 21
151.699924
 31
0.0
  0
LINE
  8
LC-001-002-----0
  6
CONTINUOUS
  5
420
 10
114.65342
 20
145.168882
 30
0.0
 11
114.65342
 21
148.168882
 31
0.0
  0
LINE
  8
LC-001-002-----0
  6
CONTINUOUS
  5
421
 10
120.312801
 20
145.168882
 30
0.0
 11
120.312801
 21
148.168882
 31
0.0
  0
LINE
  8
LC-001-002-----0
  6
CONTINUOUS
  5
422
 10
224.468045
 20
163.857352
 30
0.0
 11
225.100429
 21
163.107352
 31
0.0
  0
LINE
  8
LC-001-002-----0
  6
CONTINUOUS
  5
423
 10
225.100429
 20
163.107352
 30
0.0
 11
225.100429
 21
148.168882
 31
0.0
  0
LINE
  8
LC-001-002-----0
  6
CONTINUOUS
  5
424
 10
225.100429
 20
163.107352
 30
0.0
 11
218.15008
 21
163.107352
 31
0.0
  0
LINE
  8
LC-001-002-----0
  6
CONTINUOUS
  5
425
 10
127.132226
 20
145.168882
 30
0.0
 11
127.132226
 21
148.168882
 31
0.0
  0
LINE
  8
LC-001-002-----0
  6
CONTINUOUS
  5
426
 10
121.08215
 20
163.857352
 30
0.0
 11
121.83215
 21
163.107352
 31
0.0
  0
LINE
  8
LC-001-002-----0
  6
CONTINUOUS
  5
427
 10
121.83215
 20
163.107352
 30
0.0
 11
121.83215
 21
148.168882
 31
0.0
  0
LINE
  8
LC-001-002-----0
  6
CONTINUOUS
  5
428
 10
121.83215
 20
163.107352
 30
0.0
 11
116.287842
 21
163.107352
 31
0.0
  0
LINE
  8
LC-001-002-----0
  6
CONTINUOUS
  5
429
 10
116.287842
 20
163.107352
 30
0.0
 11
116.287842
 21
148.168882
 31
0.0
  0
LINE
  8
LC-001-002-----0
  6
CONTINUOUS
  5
42A
 10
110.90008
 20
163.857352
 30
0.0
 11
111.65008
 21
163.107352
 31
0.0
  0
LINE
  8
LC-001-002-----0
  6
CONTINUOUS
  5
42B
 10
116.63372
 20
163.857352
 30
0.0
 11
116.287842
 21
163.107352
 31
0.0
  0
LINE
  8
LC-001-002-----0
  6
CONTINUOUS
  5
42C
 10
139.590375
 20
145.168882
 30
0.0
 11
139.590375
 21
148.168882
 31
0.0
  0
LINE
  8
LC-001-002-----0
  6
CONTINUOUS
  5
42D
 10
114.40008
 20
145.168882
 30
0.0
 11
114.40008
 21
148.168882
 31
0.0
  0
LINE
  8
LC-001-002-----0
  6
CONTINUOUS
  5
42E
 10
111.65008
 20
148.168882
 30
0.0
 11
111.65008
 21
163.107352
 31
0.0
  0
LINE
  8
LC-001-002-----0
  6
CONTINUOUS
  5
42F
 10
148.90008
 20
163.857352
 30
0.0
 11
149.65008
 21
163.107352
 31
0.0
  0
LINE
  8
LC-001-002-----0
  6
CONTINUOUS
  5
430
 10
149.65008
 20
163.107352
 30
0.0
 11
149.65008
 21
151.696513
 31
0.0
  0
LINE
  8
LC-001-002-----0
  6
CONTINUOUS
  5
431
 10
143.332115
 20
163.857352
 30
0.0
 11
142.699732
 21
163.107352
 31
0.0
  0
LINE
  8
LC-001-002-----0
  6
CONTINUOUS
  5
432
 10
142.699732
 20
163.107352
 30
0.0
 11
142.699732
 21
148.168882
 31
0.0
  0
LINE
  8
LC-001-002-----0
  6
CONTINUOUS
  5
433
 10
142.699732
 20
163.107352
 30
0.0
 11
149.65008
 21
163.107352
 31
0.0
  0
ARC
  8
LC-002-002-RND-0
  6
CONTINUOUS
  5
434
 10
261.90008
 20
146.168882
 30
0.0
 40
1.0
 50
270.0
 51
0.0
  0
LINE
  8
LC-001-002-----0
  6
CONTINUOUS
  5
435
 10
92.15008
 20
165.16848
 30
0.0
 11
93.15008
 21
158.168882
 31
0.0
  0
LINE
  8
LC-001-002-----0
  6
CONTINUOUS
  5
436
 10
94.322945
 20
158.168882
 30
0.0
 11
93.15008
 21
158.168882
 31
0.0
  0
LINE
  8
LC-001-002-----0
  6
CONTINUOUS
  5
437
 10
94.900295
 20
159.168882
 30
0.0
 11
94.322945
 21
158.168882
 31
0.0
  0
LINE
  8
LC-001-002-----0
  6
CONTINUOUS
  5
438
 10
94.900295
 20
159.168882
 30
0.0
 11
94.900295
 21
162.470061
 31
0.0
  0
ARC
  8
LC-002-002-RND-0
  6
CONTINUOUS
  5
439
 10
105.90008
 20
146.168882
 30
0.0
 40
1.0
 50
180.0
 51
270.0
  0
LINE
  8
LC-001-002-----0
  6
CONTINUOUS
  5
43A
 10
105.90008
 20
145.168882
 30
0.0
 11
141.346365
 21
145.168882
 31
0.0
  0
LINE
  8
LC-001-002-----0
  6
CONTINUOUS
  5
43B
 10
272.899866
 20
159.168882
 30
0.0
 11
273.477216
 21
158.168882
 31
0.0
  0
LINE
  8
LC-001-002-----0
  6
CONTINUOUS
  5
43C
 10
104.90008
 20
146.168882
 30
0.0
 11
104.90008
 21
161.770808
 31
0.0
  0
LINE
  8
LC-001-002-----0
  6
CONTINUOUS
  5
43D
 10
272.899866
 20
159.168882
 30
0.0
 11
272.899866
 21
162.470061
 31
0.0
  0
LINE
  8
LC-001-002-----0
  6
CONTINUOUS
  5
43E
 10
261.90008
 20
145.168882
 30
0.0
 11
253.40008
 21
145.168882
 31
0.0
  0
LINE
  8
LC-001-002-----0
  6
CONTINUOUS
  5
43F
 10
262.90008
 20
146.168882
 30
0.0
 11
262.90008
 21
161.770808
 31
0.0
  0
LINE
  8
LC-001-002-----0
  6
CONTINUOUS
  5
440
 10
273.477216
 20
158.168882
 30
0.0
 11
274.65008
 21
158.168882
 31
0.0
  0
LINE
  8
LC-001-002-----0
  6
CONTINUOUS
  5
441
 10
253.40008
 20
145.168882
 30
0.0
 11
226.469087
 21
145.168882
 31
0.0
  0
LINE
  8
LC-001-002-----0
  6
CONTINUOUS
  5
442
 10
253.40008
 20
148.168882
 30
0.0
 11
256.15008
 21
148.168882
 31
0.0
  0
LINE
  8
LC-001-002-----0
  6
CONTINUOUS
  5
443
 10
240.667935
 20
148.168882
 30
0.0
 11
253.40008
 21
148.168882
 31
0.0
  0
LINE
  8
LC-001-002-----0
  6
CONTINUOUS
  5
444
 10
224.412239
 20
148.168882
 30
0.0
 11
228.209785
 21
148.168882
 31
0.0
  0
LINE
  8
LC-001-002-----0
  6
CONTINUOUS
  5
445
 10
143.403291
 20
148.168882
 30
0.0
 11
139.590375
 21
148.168882
 31
0.0
  0
LINE
  8
LC-001-002-----0
  6
CONTINUOUS
  5
446
 10
272.899866
 20
162.470061
 30
0.0
 11
262.90008
 21
161.770808
 31
0.0
  0
LINE
  8
LC-001-002-----0
  6
CONTINUOUS
  5
447
 10
127.132226
 20
148.168882
 30
0.0
 11
111.65008
 21
148.168882
 31
0.0
  0
LINE
  8
LC-001-002-----0
  6
CONTINUOUS
  5
448
 10
256.90008
 20
163.857352
 30
0.0
 11
183.90008
 21
163.857352
 31
0.0
  0
LINE
  8
LC-001-002-----0
  6
CONTINUOUS
  5
449
 10
275.65008
 20
165.16848
 30
0.0
 11
274.65008
 21
158.168882
 31
0.0
  0
LINE
  8
LC-001-002-----0
  6
CONTINUOUS
  5
44A
 10
92.15008
 20
165.16848
 30
0.0
 11
110.90008
 21
163.857352
 31
0.0
  0
LINE
  8
LC-001-002-----0
  6
CONTINUOUS
  5
44B
 10
183.90008
 20
163.857352
 30
0.0
 11
110.90008
 21
163.857352
 31
0.0
  0
LINE
  8
LC-001-002-----0
  6
CONTINUOUS
  5
44C
 10
183.90008
 20
165.16848
 30
0.0
 11
275.65008
 21
165.16848
 31
0.0
  0
LINE
  8
LC-001-002-----0
  6
DASHDOT
 62
     2
  5
44D
 10
183.90008
 20
158.798915
 30
0.0
 11
183.90008
 21
169.149662
 31
0.0
  0
ENDSEC
  0
EOF
