  0
SECTION
  2
HEADER
  9
$ACADVER
  1
AC1009
  9
$DWGCODEPAGE
  3
dos850
  9
$INSBASE
 10
0.0
 20
0.0
 30
0.0
  9
$EXTMIN
 10
-210.0
 20
0.0
 30
0.0
  9
$EXTMAX
 10
630.0
 20
594.0
 30
0.0
  9
$LIMMIN
 10
-210.0
 20
0.0
  9
$LIMMAX
 10
630.0
 20
594.0
  9
$ORTHOMODE
 70
     0
  9
$REGENMODE
 70
     1
  9
$FILLMODE
 70
     1
  9
$QTEXTMODE
 70
     0
  9
$MIRRTEXT
 70
     1
  9
$DRAGMODE
 70
     2
  9
$LTSCALE
 40
2.0
  9
$OSMODE
 70
     0
  9
$ATTMODE
 70
     1
  9
$TEXTSIZE
 40
0.2
  9
$TRACEWID
 40
0.05
  9
$TEXTSTYLE
  7
STANDARD
  9
$CLAYER
  8
0
  9
$CELTYPE
  6
BYBLOCK
  9
$CECOLOR
 62
     7
  9
$DIMSCALE
 40
2.0
  9
$DIMASZ
 40
3.5
  9
$DIMEXO
 40
0.0625
  9
$DIMDLI
 40
0.38
  9
$DIMRND
 40
0.0
  9
$DIMDLE
 40
0.0
  9
$DIMEXE
 40
0.18
  9
$DIMTP
 40
0.0
  9
$DIMTM
 40
0.0
  9
$DIMTXT
 40
3.5
  9
$DIMCEN
 40
0.09
  9
$DIMTSZ
 40
0.0
  9
$DIMTOL
 70
     0
  9
$DIMLIM
 70
     0
  9
$DIMTIH
 70
     1
  9
$DIMTOH
 70
     1
  9
$DIMSE1
 70
     0
  9
$DIMSE2
 70
     0
  9
$DIMTAD
 70
     1
  9
$DIMZIN
 70
     0
  9
$DIMBLK
  1

  9
$DIMASO
 70
     1
  9
$DIMSHO
 70
     1
  9
$DIMPOST
  1

  9
$DIMAPOST
  1

  9
$DIMALT
 70
     0
  9
$DIMALTD
 70
     2
  9
$DIMALTF
 40
25.4
  9
$DIMLFAC
 40
1.0
  9
$DIMTOFL
 70
     0
  9
$DIMTVP
 40
0.0
  9
$DIMTIX
 70
     0
  9
$DIMSOXD
 70
     0
  9
$DIMSAH
 70
     0
  9
$DIMBLK1
  1

  9
$DIMBLK2
  1

  9
$DIMSTYLE
  2
STANDARD
  9
$DIMCLRD
 70
     0
  9
$DIMCLRE
 70
     0
  9
$DIMCLRT
 70
     0
  9
$DIMTFAC
 40
1.0
  9
$DIMGAP
 40
0.09
  9
$LUNITS
 70
     2
  9
$LUPREC
 70
     6
  9
$AXISMODE
 70
     0
  9
$AXISUNIT
 10
0.0
 20
0.0
  9
$SKETCHINC
 40
0.1
  9
$FILLETRAD
 40
0.0
  9
$AUNITS
 70
     0
  9
$AUPREC
 70
     0
  9
$MENU
  1
acad
  9
$ELEVATION
 40
0.0
  9
$PELEVATION
 40
0.0
  9
$THICKNESS
 40
0.0
  9
$LIMCHECK
 70
     0
  9
$BLIPMODE
 70
     1
  9
$CHAMFERA
 40
0.0
  9
$CHAMFERB
 40
0.0
  9
$SKPOLY
 70
     0
  9
$TDCREATE
 40
0.000000000
  9
$TDUPDATE
 40
0.000000000
  9
$TDINDWG
 40
0.0000000000
  9
$TDUSRTIMER
 40
0.0000000000
  9
$USRTIMER
 70
     1
  9
$ANGBASE
 50
0.0
  9
$ANGDIR
 70
     0
  9
$PDMODE
 70
     0
  9
$PDSIZE
 40
0.0
  9
$PLINEWID
 40
0.0
  9
$COORDS
 70
     0
  9
$SPLFRAME
 70
     0
  9
$SPLINETYPE
 70
     6
  9
$SPLINESEGS
 70
     8
  9
$ATTDIA
 70
     0
  9
$ATTREQ
 70
     1
  9
$HANDLING
 70
     1
  9
$HANDSEED
  5
3DC
  9
$SURFTAB1
 70
     6
  9
$SURFTAB2
 70
     6
  9
$SURFTYPE
 70
     6
  9
$SURFU
 70
     6
  9
$SURFV
 70
     6
  9
$UCSNAME
  2

  9
$UCSORG
 10
0.0
 20
0.0
 30
0.0
  9
$UCSXDIR
 10
1.0
 20
0.0
 30
0.0
  9
$UCSYDIR
 10
0.0
 20
1.0
 30
0.0
  9
$PUCSNAME
  2

  9
$PUCSORG
 10
0.0
 20
0.0
 30
0.0
  9
$PUCSXDIR
 10
1.0
 20
0.0
 30
0.0
  9
$PUCSYDIR
 10
0.0
 20
1.0
 30
0.0
  9
$USERI1
 70
     0
  9
$USERI2
 70
     0
  9
$USERI3
 70
     0
  9
$USERI4
 70
     0
  9
$USERI5
 70
     0
  9
$USERR1
 40
0.0
  9
$USERR2
 40
0.0
  9
$USERR3
 40
0.0
  9
$USERR4
 40
0.0
  9
$USERR5
 40
0.0
  9
$WORLDVIEW
 70
     1
  9
$SHADEDGE
 70
     3
  9
$SHADEDIF
 70
    70
  9
$TILEMODE
 70
     1
  9
$MAXACTVP
 70
    16
  9
$PINSBASE
 10
0.0
 20
0.0
 30
0.0
  9
$PLIMCHECK
 70
     0
  9
$PEXTMIN
 10
-210.0
 20
0.0
 30
0.0
  9
$PEXTMAX
 10
630.0
 20
594.0
 30
0.0
  9
$PLIMMIN
 10
-210.0
 20
0.0
  9
$PLIMMAX
 10
630.0
 20
594.0
  9
$UNITMODE
 70
     0
  9
$VISRETAIN
 70
     0
  9
$PLINEGEN
 70
     1
  9
$PSLTSCALE
 70
     0
  9
$TREEDEPTH
 70
  3020
  0
ENDSEC
  0
SECTION
  2
TABLES
  0
TABLE
  2
VPORT
 70
     1
  0
VPORT
  2
*ACTIVE
 70
     0
 10
0.0
 20
0.0
 11
1.0
 21
1.0
 12
420.0
 22
297.0
 13
0.0
 23
0.0
 14
1.0
 24
1.0
 15
0.0
 25
0.0
 16
0.0
 26
0.0
 36
1.0
 17
-210.0
 27
0.0
 37
0.0
 40
594.0
 41
1.604229
 42
50.0
 43
0.0
 44
0.0
 50
0.0
 51
0.0
 71
     0
 72
   100
 73
     1
 74
     1
 75
     0
 76
     0
 77
     0
 78
     0
  0
ENDTAB
  0
TABLE
  2
LTYPE
 70
     3
  0
LTYPE
  2
CONTINUOUS
 70
    64
  3
Solid line
 72
    65
 73
     0
 40
0.0
  0
LTYPE
  2
DASHED
 70
    64
  3
__ __ __ __ __
 72
    65
 73
     2
 40
6.25
 49
5.0
 49
-1.25
  0
LTYPE
  2
DASHDOT
 70
    64
  3
__ . __ . __ . __ . __
 72
    65
 73
     4
 40
7.5
 49
5.0
 49
-1.25
 49
0.0
 49
-1.25
  0
ENDTAB
  0
TABLE
  2
LAYER
 70
    13
  0
LAYER
  2
0
 70
     0
 62
     7
  6
CONTINUOUS
  0
LAYER
  2
LC-INFO-1-2-MM-A3-0
 70
     1
 62
   255
  6
BYBLOCK
  0
LAYER
  2
LC-3D-HIDDEN
 70
     0
 62
     9
  6
DASHED
  0
LAYER
  2
LC-CUT-HIDDEN
 70
     0
 62
     9
  6
DASHED
  0
LAYER
  2
LC-VIEWPORT
 70
     0
 62
     7
  6
BYBLOCK
  0
LAYER
  2
LC-001-002-----0
 70
     0
 62
     1
  6
BYBLOCK
  0
LAYER
  2
LC-002-002-RND-0
 70
     0
 62
     1
  6
BYBLOCK
  0
LAYER
  2
LC-003-001-RND-0
 70
     0
 62
     1
  6
BYBLOCK
  0
LAYER
  2
LC-004-001-----0
 70
     0
 62
     1
  6
BYBLOCK
  0
LAYER
  2
LC-005-005-----0
 70
     0
 62
     2
  6
BYBLOCK
  0
LAYER
  2
LC-006-003-MTH-0
 70
     0
 62
     2
  6
BYBLOCK
  0
LAYER
  2
LC-007-003-----0
 70
     0
 62
     2
  6
BYBLOCK
  0
LAYER
  2
LC-008-003-MTG-0
 70
     0
 62
     2
  6
BYBLOCK
  0
ENDTAB
  0
TABLE
  2
STYLE
 70
     4
  0
STYLE
  2
STANDARD
 70
     0
 40
0.0
 41
1.0
 50
0.0
 71
     0
 42
0.0
  3
txt
  4

  0
STYLE
  2
LCTX0-500-0-0-DIN-SCHRIFT
 70
    64
 40
3.5
 41
1.0
 50
0.0
 71
     0
 42
0.0
  3
MONOTXT
  4

  0
STYLE
  2
LCTX15-400-0-0-ARIAL
 70
    64
 40
3.5
 41
1.0
 50
0.0
 71
     0
 42
0.0
  3
Arial
  4

  0
STYLE
  2
LCTX15-400-0-0-DIN-SCHRIFT__P_
 70
    64
 40
0.0
 41
1.0
 50
1.5
 71
     0
 42
3.5
  3
STANDARD
  4

  0
ENDTAB
  0
TABLE
  2
VIEW
 70
     0
  0
ENDTAB
  0
TABLE
  2
UCS
 70
     0
  0
ENDTAB
  0
TABLE
  2
APPID
 70
     1
  0
APPID
  2
ACAD
 70
     0
  0
ENDTAB
  0
TABLE
  2
DIMSTYLE
 70
     2
  0
DIMSTYLE
  2
STANDARD
 70
     0
  3

  4

  5

  6

  7

 40
1.0
 41
0.18
 42
0.0625
 43
0.38
 44
0.18
 45
0.0
 46
0.0
 47
0.0
 48
0.0
 71
     0
 72
     0
 73
     1
 74
     1
 75
     0
 76
     0
 77
     0
 78
     0
140
0.18
141
0.09
142
0.0
143
25.4
144
1.0
145
0.0
146
1.0
147
0.09
170
     0
171
     2
172
     0
173
     0
174
     0
175
     0
176
     0
177
     0
178
     0
  0
DIMSTYLE
  2
LC-DIM-L-0140-02-02
 70
     0
  3

  4

  5

  6

  7

 40
2.0
 41
3.5
 42
0.0
 43
7.5
 44
1.8
 45
0.0
 46
0.0
 47
0.0
 48
0.0
 71
     0
 72
     0
 73
     0
 74
     0
 75
     0
 76
     0
 77
     1
 78
     8
140
14.0
141
0.0
142
0.0
143
25.4
144
1.0
145
0.0
146
0.71
147
1.5
170
     0
171
     2
172
     0
173
     0
174
     0
175
     0
176
     2
177
     2
178
     2
  0
ENDTAB
  0
ENDSEC
  0
SECTION
  2
BLOCKS
  0
BLOCK
  8
0
  5
C0
  2
*X0
 70
    65
 10
0.0
 20
0.0
 30
0.0
  3
*X0
  0
LINE
  8
LC-005-005-----0
 62
     2
  5
C2
 10
200.411597
 20
347.489808
 30
0.0
 11
201.49456
 21
348.57277
 31
0.0
  0
LINE
  8
LC-005-005-----0
 62
     2
  5
C3
 10
199.041635
 20
348.948272
 30
0.0
 11
201.49456
 21
351.401197
 31
0.0
  0
LINE
  8
LC-005-005-----0
 62
     2
  5
C4
 10
198.49456
 20
351.229625
 30
0.0
 11
201.49456
 21
354.229625
 31
0.0
  0
LINE
  8
LC-005-005-----0
 62
     2
  5
C5
 10
198.49456
 20
354.058052
 30
0.0
 11
201.49456
 21
357.058052
 31
0.0
  0
LINE
  8
LC-005-005-----0
 62
     2
  5
C6
 10
198.49456
 20
356.886479
 30
0.0
 11
201.49456
 21
359.886479
 31
0.0
  0
LINE
  8
LC-005-005-----0
 62
     2
  5
C7
 10
198.49456
 20
359.714906
 30
0.0
 11
201.49456
 21
362.714906
 31
0.0
  0
LINE
  8
LC-005-005-----0
 62
     2
  5
C8
 10
198.49456
 20
362.543333
 30
0.0
 11
201.49456
 21
365.543333
 31
0.0
  0
LINE
  8
LC-005-005-----0
 62
     2
  5
C9
 10
198.49456
 20
365.37176
 30
0.0
 11
201.49456
 21
368.37176
 31
0.0
  0
LINE
  8
LC-005-005-----0
 62
     2
  5
CA
 10
198.49456
 20
368.200187
 30
0.0
 11
201.49456
 21
371.200187
 31
0.0
  0
LINE
  8
LC-005-005-----0
 62
     2
  5
CB
 10
198.49456
 20
371.028614
 30
0.0
 11
201.49456
 21
374.028614
 31
0.0
  0
LINE
  8
LC-005-005-----0
 62
     2
  5
CC
 10
198.49456
 20
373.857042
 30
0.0
 11
201.49456
 21
376.857042
 31
0.0
  0
LINE
  8
LC-005-005-----0
 62
     2
  5
CD
 10
198.49456
 20
376.685469
 30
0.0
 11
201.49456
 21
379.685469
 31
0.0
  0
LINE
  8
LC-005-005-----0
 62
     2
  5
CE
 10
198.399308
 20
379.418644
 30
0.0
 11
200.84164
 21
381.860976
 31
0.0
  0
LINE
  8
LC-005-005-----0
 62
     2
  5
CF
 10
196.364114
 20
380.211877
 30
0.0
 11
199.086019
 21
382.933782
 31
0.0
  0
LINE
  8
LC-005-005-----0
 62
     2
  5
D0
 10
195.328462
 20
382.004652
 30
0.0
 11
196.883226
 21
383.559416
 31
0.0
  0
LINE
  8
LC-005-005-----0
 62
     2
  5
D1
 10
190.488078
 20
379.992695
 30
0.0
 11
195.972875
 21
385.477493
 31
0.0
  0
LINE
  8
LC-005-005-----0
 62
     2
  5
D2
 10
187.65965
 20
379.992694
 30
0.0
 11
190.758566
 21
383.091611
 31
0.0
  0
LINE
  8
LC-005-005-----0
 62
     2
  5
D3
 10
192.895645
 20
385.228689
 30
0.0
 11
195.948406
 21
388.28145
 31
0.0
  0
LINE
  8
LC-005-005-----0
 62
     2
  5
D4
 10
184.831222
 20
379.992693
 30
0.0
 11
187.831224
 21
382.992696
 31
0.0
  0
LINE
  8
LC-005-005-----0
 62
     2
  5
D5
 10
192.99456
 20
388.156031
 30
0.0
 11
195.923936
 21
391.085407
 31
0.0
  0
LINE
  8
LC-005-005-----0
 62
     2
  5
D6
 10
182.002793
 20
379.992692
 30
0.0
 11
185.002797
 21
382.992696
 31
0.0
  0
LINE
  8
LC-005-005-----0
 62
     2
  5
D7
 10
192.99456
 20
390.984459
 30
0.0
 11
195.899466
 21
393.889365
 31
0.0
  0
LINE
  8
LC-005-005-----0
 62
     2
  5
D8
 10
179.174365
 20
379.992691
 30
0.0
 11
182.17437
 21
382.992696
 31
0.0
  0
LINE
  8
LC-005-005-----0
 62
     2
  5
D9
 10
192.99456
 20
393.812886
 30
0.0
 11
195.874996
 21
396.693322
 31
0.0
  0
LINE
  8
LC-005-005-----0
 62
     2
  5
DA
 10
176.346008
 20
379.992761
 30
0.0
 11
179.345943
 21
382.992696
 31
0.0
  0
LINE
  8
LC-005-005-----0
 62
     2
  5
DB
 10
192.99456
 20
396.641313
 30
0.0
 11
195.850527
 21
399.497279
 31
0.0
  0
LINE
  8
LC-005-005-----0
 62
     2
  5
DC
 10
174.55605
 20
381.03123
 30
0.0
 11
176.517516
 21
382.992696
 31
0.0
  0
LINE
  8
LC-005-005-----0
 62
     2
  5
DD
 10
192.99456
 20
399.46974
 30
0.0
 11
195.826057
 21
402.301237
 31
0.0
  0
LINE
  8
LC-005-005-----0
 62
     2
  5
DE
 10
170.689086
 20
379.992693
 30
0.0
 11
173.49456
 21
382.798167
 31
0.0
  0
LINE
  8
LC-005-005-----0
 62
     2
  5
DF
 10
173.689089
 20
382.992696
 30
0.0
 11
173.958333
 21
383.26194
 31
0.0
  0
LINE
  8
LC-005-005-----0
 62
     2
  5
E0
 10
192.99456
 20
402.298167
 30
0.0
 11
195.801587
 21
405.105194
 31
0.0
  0
LINE
  8
LC-005-005-----0
 62
     2
  5
E1
 10
167.860659
 20
379.992693
 30
0.0
 11
170.860661
 21
382.992696
 31
0.0
  0
LINE
  8
LC-005-005-----0
 62
     2
  5
E2
 10
192.99456
 20
405.126594
 30
0.0
 11
195.777117
 21
407.909152
 31
0.0
  0
LINE
  8
LC-005-005-----0
 62
     2
  5
E3
 10
165.032232
 20
379.992694
 30
0.0
 11
168.032234
 21
382.992696
 31
0.0
  0
LINE
  8
LC-005-005-----0
 62
     2
  5
E4
 10
192.99456
 20
407.955021
 30
0.0
 11
195.752647
 21
410.713109
 31
0.0
  0
LINE
  8
LC-005-005-----0
 62
     2
  5
E5
 10
162.203806
 20
379.992694
 30
0.0
 11
165.203807
 21
382.992696
 31
0.0
  0
LINE
  8
LC-005-005-----0
 62
     2
  5
E6
 10
192.99456
 20
410.783448
 30
0.0
 11
195.728178
 21
413.517066
 31
0.0
  0
LINE
  8
LC-005-005-----0
 62
     2
  5
E7
 10
159.375379
 20
379.992695
 30
0.0
 11
162.37538
 21
382.992696
 31
0.0
  0
LINE
  8
LC-005-005-----0
 62
     2
  5
E8
 10
192.99456
 20
413.611876
 30
0.0
 11
195.703708
 21
416.321024
 31
0.0
  0
LINE
  8
LC-005-005-----0
 62
     2
  5
E9
 10
156.546953
 20
379.992696
 30
0.0
 11
159.546953
 21
382.992696
 31
0.0
  0
LINE
  8
LC-005-005-----0
 62
     2
  5
EA
 10
192.99456
 20
416.440303
 30
0.0
 11
195.679238
 21
419.124981
 31
0.0
  0
LINE
  8
LC-005-005-----0
 62
     2
  5
EB
 10
153.781329
 20
380.055499
 30
0.0
 11
156.718526
 21
382.992696
 31
0.0
  0
LINE
  8
LC-005-005-----0
 62
     2
  5
EC
 10
192.99456
 20
419.26873
 30
0.0
 11
195.654768
 21
421.928938
 31
0.0
  0
LINE
  8
LC-005-005-----0
 62
     2
  5
ED
 10
151.440495
 20
380.543092
 30
0.0
 11
153.950899
 21
383.053496
 31
0.0
  0
LINE
  8
LC-005-005-----0
 62
     2
  5
EE
 10
192.99456
 20
422.097157
 30
0.0
 11
195.630299
 21
424.732896
 31
0.0
  0
LINE
  8
LC-005-005-----0
 62
     2
  5
EF
 10
149.45138
 20
381.382404
 30
0.0
 11
151.690414
 21
383.621438
 31
0.0
  0
LINE
  8
LC-005-005-----0
 62
     2
  5
F0
 10
192.99456
 20
424.925584
 30
0.0
 11
195.605829
 21
427.536853
 31
0.0
  0
LINE
  8
LC-005-005-----0
 62
     2
  5
F1
 10
147.740112
 20
382.499564
 30
0.0
 11
149.849444
 21
384.608895
 31
0.0
  0
LINE
  8
LC-005-005-----0
 62
     2
  5
F2
 10
192.99456
 20
427.754011
 30
0.0
 11
195.581359
 21
430.34081
 31
0.0
  0
LINE
  8
LC-005-005-----0
 62
     2
  5
F3
 10
146.2768
 20
383.864678
 30
0.0
 11
148.342932
 21
385.930811
 31
0.0
  0
LINE
  8
LC-005-005-----0
 62
     2
  5
F4
 10
192.99456
 20
430.582438
 30
0.0
 11
195.556889
 21
433.144768
 31
0.0
  0
LINE
  8
LC-005-005-----0
 62
     2
  5
F5
 10
145.056934
 20
385.473239
 30
0.0
 11
147.155753
 21
387.572059
 31
0.0
  0
LINE
  8
LC-005-005-----0
 62
     2
  5
F6
 10
192.99456
 20
433.410865
 30
0.0
 11
195.53242
 21
435.948725
 31
0.0
  0
LINE
  8
LC-005-005-----0
 62
     2
  5
F7
 10
144.099052
 20
387.343785
 30
0.0
 11
146.326996
 21
389.571729
 31
0.0
  0
LINE
  8
LC-005-005-----0
 62
     2
  5
F8
 10
192.99456
 20
436.239293
 30
0.0
 11
195.50795
 21
438.752683
 31
0.0
  0
LINE
  8
LC-005-005-----0
 62
     2
  5
F9
 10
143.455113
 20
389.528273
 30
0.0
 11
145.995267
 21
392.068427
 31
0.0
  0
LINE
  8
LC-005-005-----0
 62
     2
  5
FA
 10
192.99456
 20
439.06772
 30
0.0
 11
195.48348
 21
441.55664
 31
0.0
  0
LINE
  8
LC-005-005-----0
 62
     2
  5
FB
 10
143.24456
 20
392.146147
 30
0.0
 11
145.995267
 21
394.896854
 31
0.0
  0
LINE
  8
LC-005-005-----0
 62
     2
  5
FC
 10
192.99456
 20
441.896147
 30
0.0
 11
195.45901
 21
444.360597
 31
0.0
  0
LINE
  8
LC-005-005-----0
 62
     2
  5
FD
 10
143.24456
 20
394.974574
 30
0.0
 11
145.995267
 21
397.725281
 31
0.0
  0
LINE
  8
LC-005-005-----0
 62
     2
  5
FE
 10
192.99456
 20
444.724574
 30
0.0
 11
195.43454
 21
447.164555
 31
0.0
  0
LINE
  8
LC-005-005-----0
 62
     2
  5
FF
 10
143.24456
 20
397.803001
 30
0.0
 11
145.995267
 21
400.553708
 31
0.0
  0
LINE
  8
LC-005-005-----0
 62
     2
  5
100
 10
192.99456
 20
447.553001
 30
0.0
 11
195.410071
 21
449.968512
 31
0.0
  0
LINE
  8
LC-005-005-----0
 62
     2
  5
101
 10
143.24456
 20
400.631428
 30
0.0
 11
145.995267
 21
403.382135
 31
0.0
  0
LINE
  8
LC-005-005-----0
 62
     2
  5
102
 10
192.99456
 20
450.381428
 30
0.0
 11
195.385601
 21
452.772469
 31
0.0
  0
LINE
  8
LC-005-005-----0
 62
     2
  5
103
 10
143.24456
 20
403.459855
 30
0.0
 11
145.995267
 21
406.210562
 31
0.0
  0
LINE
  8
LC-005-005-----0
 62
     2
  5
104
 10
192.99456
 20
453.209855
 30
0.0
 11
195.361131
 21
455.576427
 31
0.0
  0
LINE
  8
LC-005-005-----0
 62
     2
  5
105
 10
143.24456
 20
406.288282
 30
0.0
 11
145.995267
 21
409.038989
 31
0.0
  0
LINE
  8
LC-005-005-----0
 62
     2
  5
106
 10
192.99456
 20
456.038282
 30
0.0
 11
194.948973
 21
457.992696
 31
0.0
  0
LINE
  8
LC-005-005-----0
 62
     2
  5
107
 10
143.24456
 20
409.11671
 30
0.0
 11
145.995267
 21
411.867416
 31
0.0
  0
LINE
  8
LC-005-005-----0
 62
     2
  5
108
 10
143.24456
 20
411.945137
 30
0.0
 11
145.995267
 21
414.695844
 31
0.0
  0
LINE
  8
LC-005-005-----0
 62
     2
  5
109
 10
143.24456
 20
414.773564
 30
0.0
 11
145.995267
 21
417.524271
 31
0.0
  0
LINE
  8
LC-005-005-----0
 62
     2
  5
10A
 10
143.24456
 20
417.601991
 30
0.0
 11
145.995267
 21
420.352698
 31
0.0
  0
LINE
  8
LC-005-005-----0
 62
     2
  5
10B
 10
143.24456
 20
420.430418
 30
0.0
 11
145.995267
 21
423.181125
 31
0.0
  0
LINE
  8
LC-005-005-----0
 62
     2
  5
10C
 10
143.24456
 20
423.258845
 30
0.0
 11
145.995267
 21
426.009552
 31
0.0
  0
LINE
  8
LC-005-005-----0
 62
     2
  5
10D
 10
143.24456
 20
426.087272
 30
0.0
 11
145.995267
 21
428.837979
 31
0.0
  0
LINE
  8
LC-005-005-----0
 62
     2
  5
10E
 10
143.24456
 20
428.915699
 30
0.0
 11
145.995267
 21
431.666406
 31
0.0
  0
LINE
  8
LC-005-005-----0
 62
     2
  5
10F
 10
143.24456
 20
431.744127
 30
0.0
 11
145.995267
 21
434.494833
 31
0.0
  0
LINE
  8
LC-005-005-----0
 62
     2
  5
110
 10
143.24456
 20
434.572554
 30
0.0
 11
145.995267
 21
437.323261
 31
0.0
  0
LINE
  8
LC-005-005-----0
 62
     2
  5
111
 10
143.24456
 20
437.400981
 30
0.0
 11
145.995267
 21
440.151688
 31
0.0
  0
LINE
  8
LC-005-005-----0
 62
     2
  5
112
 10
143.24456
 20
440.229408
 30
0.0
 11
145.995267
 21
442.980115
 31
0.0
  0
LINE
  8
LC-005-005-----0
 62
     2
  5
113
 10
143.24456
 20
443.057835
 30
0.0
 11
145.995267
 21
445.808542
 31
0.0
  0
LINE
  8
LC-005-005-----0
 62
     2
  5
114
 10
143.24456
 20
445.886262
 30
0.0
 11
145.995267
 21
448.636969
 31
0.0
  0
LINE
  8
LC-005-005-----0
 62
     2
  5
115
 10
143.24456
 20
448.714689
 30
0.0
 11
145.995267
 21
451.465396
 31
0.0
  0
LINE
  8
LC-005-005-----0
 62
     2
  5
116
 10
143.24456
 20
451.543116
 30
0.0
 11
145.995267
 21
454.293823
 31
0.0
  0
LINE
  8
LC-005-005-----0
 62
     2
  5
117
 10
143.24456
 20
454.371544
 30
0.0
 11
145.995267
 21
457.12225
 31
0.0
  0
LINE
  8
LC-005-005-----0
 62
     2
  5
118
 10
142.105159
 20
456.06057
 30
0.0
 11
145.445267
 21
459.400678
 31
0.0
  0
LINE
  8
LC-005-005-----0
 62
     2
  5
119
 10
140.940309
 20
457.724147
 30
0.0
 11
145.558858
 21
462.342696
 31
0.0
  0
LINE
  8
LC-005-005-----0
 62
     2
  5
11A
 10
139.77546
 20
459.387725
 30
0.0
 11
146.093242
 21
465.705507
 31
0.0
  0
LINE
  8
LC-005-005-----0
 62
     2
  5
11B
 10
138.61061
 20
461.051302
 30
0.0
 11
144.202004
 21
466.642696
 31
0.0
  0
LINE
  8
LC-005-005-----0
 62
     2
  5
11C
 10
137.445761
 20
462.71488
 30
0.0
 11
141.373576
 21
466.642696
 31
0.0
  0
LINE
  8
LC-005-005-----0
 62
     2
  5
11D
 10
136.280911
 20
464.378457
 30
0.0
 11
138.545149
 21
466.642696
 31
0.0
  0
LINE
  8
LC-005-005-----0
 62
     2
  5
11E
 10
135.116061
 20
466.042035
 30
0.0
 11
136.746649
 21
467.672622
 31
0.0
  0
LINE
  8
LC-005-005-----0
 62
     2
  5
11F
 10
133.995267
 20
467.749667
 30
0.0
 11
136.746649
 21
470.501049
 31
0.0
  0
LINE
  8
LC-005-005-----0
 62
     2
  5
120
 10
133.995267
 20
470.578095
 30
0.0
 11
136.746649
 21
473.329476
 31
0.0
  0
LINE
  8
LC-005-005-----0
 62
     2
  5
121
 10
133.995267
 20
473.406522
 30
0.0
 11
136.746649
 21
476.157904
 31
0.0
  0
LINE
  8
LC-005-005-----0
 62
     2
  5
122
 10
133.082003
 20
475.321685
 30
0.0
 11
136.746649
 21
478.986331
 31
0.0
  0
LINE
  8
LC-005-005-----0
 62
     2
  5
123
 10
130.739141
 20
475.80725
 30
0.0
 11
133.074587
 21
478.142696
 31
0.0
  0
LINE
  8
LC-005-005-----0
 62
     2
  5
124
 10
134.745267
 20
479.813376
 30
0.0
 11
136.746649
 21
481.814758
 31
0.0
  0
LINE
  8
LC-005-005-----0
 62
     2
  5
125
 10
129.167819
 20
477.064356
 30
0.0
 11
131.670614
 21
479.567151
 31
0.0
  0
LINE
  8
LC-005-005-----0
 62
     2
  5
126
 10
134.745267
 20
482.641803
 30
0.0
 11
136.249727
 21
484.146263
 31
0.0
  0
LINE
  8
LC-005-005-----0
 62
     2
  5
127
 10
128.675246
 20
479.40021
 30
0.0
 11
131.529764
 21
482.254728
 31
0.0
  0
LINE
  8
LC-005-005-----0
 62
     2
  5
128
 10
128.534396
 20
482.087787
 30
0.0
 11
131.388914
 21
484.942305
 31
0.0
  0
LINE
  8
LC-005-005-----0
 62
     2
  5
129
 10
127.865551
 20
484.247369
 30
0.0
 11
130.890593
 21
487.272411
 31
0.0
  0
LINE
  8
LC-005-005-----0
 62
     2
  5
12A
 10
125.436245
 20
484.64649
 30
0.0
 11
128.247022
 21
487.457267
 31
0.0
  0
LINE
  8
LC-005-005-----0
 62
     2
  5
12B
 10
122.792674
 20
484.831346
 30
0.0
 11
125.603452
 21
487.642124
 31
0.0
  0
LINE
  8
LC-005-005-----0
 62
     2
  5
12C
 10
120.149104
 20
485.016203
 30
0.0
 11
122.959881
 21
487.82698
 31
0.0
  0
LINE
  8
LC-005-005-----0
 62
     2
  5
12D
 10
117.505533
 20
485.201059
 30
0.0
 11
120.31631
 21
488.011836
 31
0.0
  0
LINE
  8
LC-005-005-----0
 62
     2
  5
12E
 10
114.861962
 20
485.385915
 30
0.0
 11
117.672739
 21
488.196693
 31
0.0
  0
LINE
  8
LC-005-005-----0
 62
     2
  5
12F
 10
113.049116
 20
486.401496
 30
0.0
 11
115.166412
 21
488.518793
 31
0.0
  0
LINE
  8
LC-005-005-----0
 62
     2
  5
130
 10
110.994431
 20
487.175238
 30
0.0
 11
113.675672
 21
489.856479
 31
0.0
  0
LINE
  8
LC-005-005-----0
 62
     2
  5
131
 10
108.214527
 20
487.223762
 30
0.0
 11
111.163509
 21
490.172744
 31
0.0
  0
LINE
  8
LC-005-005-----0
 62
     2
  5
132
 10
105.434623
 20
487.272285
 30
0.0
 11
108.383606
 21
490.221268
 31
0.0
  0
LINE
  8
LC-005-005-----0
 62
     2
  5
133
 10
102.65472
 20
487.320809
 30
0.0
 11
105.603702
 21
490.269791
 31
0.0
  0
LINE
  8
LC-005-005-----0
 62
     2
  5
134
 10
99.874816
 20
487.369332
 30
0.0
 11
102.823798
 21
490.318314
 31
0.0
  0
LINE
  8
LC-005-005-----0
 62
     2
  5
135
 10
97.094912
 20
487.417855
 30
0.0
 11
100.043895
 21
490.366838
 31
0.0
  0
LINE
  8
LC-005-005-----0
 62
     2
  5
136
 10
94.315009
 20
487.466379
 30
0.0
 11
97.263991
 21
490.415361
 31
0.0
  0
LINE
  8
LC-005-005-----0
 62
     2
  5
137
 10
91.535105
 20
487.514902
 30
0.0
 11
94.484087
 21
490.463885
 31
0.0
  0
LINE
  8
LC-005-005-----0
 62
     2
  5
138
 10
88.755201
 20
487.563426
 30
0.0
 11
91.704183
 21
490.512408
 31
0.0
  0
LINE
  8
LC-005-005-----0
 62
     2
  5
139
 10
85.975297
 20
487.611949
 30
0.0
 11
88.92428
 21
490.560931
 31
0.0
  0
LINE
  8
LC-005-005-----0
 62
     2
  5
13A
 10
83.195394
 20
487.660472
 30
0.0
 11
86.144376
 21
490.609455
 31
0.0
  0
LINE
  8
LC-005-005-----0
 62
     2
  5
13B
 10
80.41549
 20
487.708996
 30
0.0
 11
83.364472
 21
490.657978
 31
0.0
  0
LINE
  8
LC-005-005-----0
 62
     2
  5
13C
 10
77.635586
 20
487.757519
 30
0.0
 11
80.584569
 21
490.706502
 31
0.0
  0
LINE
  8
LC-005-005-----0
 62
     2
  5
13D
 10
74.855682
 20
487.806043
 30
0.0
 11
77.804665
 21
490.755025
 31
0.0
  0
LINE
  8
LC-005-005-----0
 62
     2
  5
13E
 10
72.742817
 20
488.521604
 30
0.0
 11
75.024761
 21
490.803548
 31
0.0
  0
ENDBLK
  8
0
  5
13F
  0
BLOCK
  8
0
  5
147
  2
*X1
 70
    65
 10
0.0
 20
0.0
 30
0.0
  3
*X1
  0
LINE
  8
LC-005-005-----0
 62
     2
  5
148
 10
261.507411
 20
269.992692
 30
0.0
 11
262.49456
 21
270.979841
 31
0.0
  0
LINE
  8
LC-005-005-----0
 62
     2
  5
149
 10
258.678984
 20
269.992692
 30
0.0
 11
262.49456
 21
273.808268
 31
0.0
  0
LINE
  8
LC-005-005-----0
 62
     2
  5
14A
 10
258.49456
 20
272.636695
 30
0.0
 11
262.49456
 21
276.636695
 31
0.0
  0
LINE
  8
LC-005-005-----0
 62
     2
  5
14B
 10
258.49456
 20
275.465123
 30
0.0
 11
262.49456
 21
279.465123
 31
0.0
  0
LINE
  8
LC-005-005-----0
 62
     2
  5
14C
 10
258.49456
 20
278.29355
 30
0.0
 11
262.49456
 21
282.29355
 31
0.0
  0
LINE
  8
LC-005-005-----0
 62
     2
  5
14D
 10
258.49456
 20
281.121977
 30
0.0
 11
262.49456
 21
285.121977
 31
0.0
  0
LINE
  8
LC-005-005-----0
 62
     2
  5
14E
 10
258.49456
 20
283.950404
 30
0.0
 11
262.49456
 21
287.950404
 31
0.0
  0
LINE
  8
LC-005-005-----0
 62
     2
  5
14F
 10
258.49456
 20
286.778831
 30
0.0
 11
262.49456
 21
290.778831
 31
0.0
  0
LINE
  8
LC-005-005-----0
 62
     2
  5
150
 10
258.49456
 20
289.607258
 30
0.0
 11
262.49456
 21
293.607258
 31
0.0
  0
LINE
  8
LC-005-005-----0
 62
     2
  5
151
 10
258.49456
 20
292.435685
 30
0.0
 11
262.49456
 21
296.435685
 31
0.0
  0
LINE
  8
LC-005-005-----0
 62
     2
  5
152
 10
258.49456
 20
295.264112
 30
0.0
 11
262.49456
 21
299.264112
 31
0.0
  0
LINE
  8
LC-005-005-----0
 62
     2
  5
153
 10
258.49456
 20
298.09254
 30
0.0
 11
262.49456
 21
302.09254
 31
0.0
  0
LINE
  8
LC-005-005-----0
 62
     2
  5
154
 10
258.49456
 20
300.920967
 30
0.0
 11
262.49456
 21
304.920967
 31
0.0
  0
LINE
  8
LC-005-005-----0
 62
     2
  5
155
 10
258.49456
 20
303.749394
 30
0.0
 11
262.49456
 21
307.749394
 31
0.0
  0
LINE
  8
LC-005-005-----0
 62
     2
  5
156
 10
258.49456
 20
306.577821
 30
0.0
 11
262.49456
 21
310.577821
 31
0.0
  0
LINE
  8
LC-005-005-----0
 62
     2
  5
157
 10
258.49456
 20
309.406248
 30
0.0
 11
262.49456
 21
313.406248
 31
0.0
  0
LINE
  8
LC-005-005-----0
 62
     2
  5
158
 10
258.49456
 20
312.234675
 30
0.0
 11
262.49456
 21
316.234675
 31
0.0
  0
LINE
  8
LC-005-005-----0
 62
     2
  5
159
 10
258.49456
 20
315.063102
 30
0.0
 11
262.49456
 21
319.063102
 31
0.0
  0
LINE
  8
LC-005-005-----0
 62
     2
  5
15A
 10
258.49456
 20
317.891529
 30
0.0
 11
262.49456
 21
321.891529
 31
0.0
  0
LINE
  8
LC-005-005-----0
 62
     2
  5
15B
 10
258.49456
 20
320.719957
 30
0.0
 11
262.49456
 21
324.719957
 31
0.0
  0
LINE
  8
LC-005-005-----0
 62
     2
  5
15C
 10
258.49456
 20
323.548384
 30
0.0
 11
262.49456
 21
327.548384
 31
0.0
  0
LINE
  8
LC-005-005-----0
 62
     2
  5
15D
 10
258.49456
 20
326.376811
 30
0.0
 11
262.49456
 21
330.376811
 31
0.0
  0
LINE
  8
LC-005-005-----0
 62
     2
  5
15E
 10
258.49456
 20
329.205238
 30
0.0
 11
262.49456
 21
333.205238
 31
0.0
  0
LINE
  8
LC-005-005-----0
 62
     2
  5
15F
 10
258.49456
 20
332.033665
 30
0.0
 11
262.49456
 21
336.033665
 31
0.0
  0
LINE
  8
LC-005-005-----0
 62
     2
  5
160
 10
258.49456
 20
334.862092
 30
0.0
 11
262.49456
 21
338.862092
 31
0.0
  0
LINE
  8
LC-005-005-----0
 62
     2
  5
161
 10
258.49456
 20
337.690519
 30
0.0
 11
262.49456
 21
341.690519
 31
0.0
  0
LINE
  8
LC-005-005-----0
 62
     2
  5
162
 10
187.968306
 20
269.992692
 30
0.0
 11
188.49456
 21
270.518946
 31
0.0
  0
LINE
  8
LC-005-005-----0
 62
     2
  5
163
 10
258.49456
 20
340.518946
 30
0.0
 11
262.49456
 21
344.518946
 31
0.0
  0
LINE
  8
LC-005-005-----0
 62
     2
  5
164
 10
185.139878
 20
269.992692
 30
0.0
 11
188.49456
 21
273.347374
 31
0.0
  0
LINE
  8
LC-005-005-----0
 62
     2
  5
165
 10
258.49456
 20
343.347374
 30
0.0
 11
262.49456
 21
347.347374
 31
0.0
  0
LINE
  8
LC-005-005-----0
 62
     2
  5
166
 10
184.49456
 20
272.175801
 30
0.0
 11
188.49456
 21
276.175801
 31
0.0
  0
LINE
  8
LC-005-005-----0
 62
     2
  5
167
 10
258.49456
 20
346.175801
 30
0.0
 11
262.49456
 21
350.175801
 31
0.0
  0
LINE
  8
LC-005-005-----0
 62
     2
  5
168
 10
184.49456
 20
275.004228
 30
0.0
 11
188.49456
 21
279.004228
 31
0.0
  0
LINE
  8
LC-005-005-----0
 62
     2
  5
169
 10
258.49456
 20
349.004228
 30
0.0
 11
262.49456
 21
353.004228
 31
0.0
  0
LINE
  8
LC-005-005-----0
 62
     2
  5
16A
 10
184.49456
 20
277.832655
 30
0.0
 11
188.49456
 21
281.832655
 31
0.0
  0
LINE
  8
LC-005-005-----0
 62
     2
  5
16B
 10
258.49456
 20
351.832655
 30
0.0
 11
262.49456
 21
355.832655
 31
0.0
  0
LINE
  8
LC-005-005-----0
 62
     2
  5
16C
 10
184.49456
 20
280.661082
 30
0.0
 11
188.49456
 21
284.661082
 31
0.0
  0
LINE
  8
LC-005-005-----0
 62
     2
  5
16D
 10
258.49456
 20
354.661082
 30
0.0
 11
262.49456
 21
358.661082
 31
0.0
  0
LINE
  8
LC-005-005-----0
 62
     2
  5
16E
 10
184.49456
 20
283.489509
 30
0.0
 11
188.49456
 21
287.489509
 31
0.0
  0
LINE
  8
LC-005-005-----0
 62
     2
  5
16F
 10
258.49456
 20
357.489509
 30
0.0
 11
262.49456
 21
361.489509
 31
0.0
  0
LINE
  8
LC-005-005-----0
 62
     2
  5
170
 10
184.49456
 20
286.317936
 30
0.0
 11
188.49456
 21
290.317936
 31
0.0
  0
LINE
  8
LC-005-005-----0
 62
     2
  5
171
 10
258.49456
 20
360.317936
 30
0.0
 11
262.49456
 21
364.317936
 31
0.0
  0
LINE
  8
LC-005-005-----0
 62
     2
  5
172
 10
184.49456
 20
289.146363
 30
0.0
 11
188.49456
 21
293.146363
 31
0.0
  0
LINE
  8
LC-005-005-----0
 62
     2
  5
173
 10
258.49456
 20
363.146363
 30
0.0
 11
262.49456
 21
367.146363
 31
0.0
  0
LINE
  8
LC-005-005-----0
 62
     2
  5
174
 10
184.49456
 20
291.974791
 30
0.0
 11
188.49456
 21
295.974791
 31
0.0
  0
LINE
  8
LC-005-005-----0
 62
     2
  5
175
 10
258.49456
 20
365.974791
 30
0.0
 11
262.49456
 21
369.974791
 31
0.0
  0
LINE
  8
LC-005-005-----0
 62
     2
  5
176
 10
184.49456
 20
294.803218
 30
0.0
 11
188.49456
 21
298.803218
 31
0.0
  0
LINE
  8
LC-005-005-----0
 62
     2
  5
177
 10
258.49456
 20
368.803218
 30
0.0
 11
262.49456
 21
372.803218
 31
0.0
  0
LINE
  8
LC-005-005-----0
 62
     2
  5
178
 10
184.49456
 20
297.631645
 30
0.0
 11
188.49456
 21
301.631645
 31
0.0
  0
LINE
  8
LC-005-005-----0
 62
     2
  5
179
 10
258.49456
 20
371.631645
 30
0.0
 11
262.49456
 21
375.631645
 31
0.0
  0
LINE
  8
LC-005-005-----0
 62
     2
  5
17A
 10
184.49456
 20
300.460072
 30
0.0
 11
188.49456
 21
304.460072
 31
0.0
  0
LINE
  8
LC-005-005-----0
 62
     2
  5
17B
 10
258.49456
 20
374.460072
 30
0.0
 11
262.49456
 21
378.460072
 31
0.0
  0
LINE
  8
LC-005-005-----0
 62
     2
  5
17C
 10
184.49456
 20
303.288499
 30
0.0
 11
188.49456
 21
307.288499
 31
0.0
  0
LINE
  8
LC-005-005-----0
 62
     2
  5
17D
 10
258.49456
 20
377.288499
 30
0.0
 11
261.232872
 21
380.026811
 31
0.0
  0
LINE
  8
LC-005-005-----0
 62
     2
  5
17E
 10
184.49456
 20
306.116926
 30
0.0
 11
188.49456
 21
310.116926
 31
0.0
  0
LINE
  8
LC-005-005-----0
 62
     2
  5
17F
 10
184.49456
 20
308.945353
 30
0.0
 11
188.49456
 21
312.945353
 31
0.0
  0
LINE
  8
LC-005-005-----0
 62
     2
  5
180
 10
184.49456
 20
311.77378
 30
0.0
 11
188.49456
 21
315.77378
 31
0.0
  0
LINE
  8
LC-005-005-----0
 62
     2
  5
181
 10
184.49456
 20
314.602208
 30
0.0
 11
188.49456
 21
318.602208
 31
0.0
  0
LINE
  8
LC-005-005-----0
 62
     2
  5
182
 10
184.49456
 20
317.430635
 30
0.0
 11
188.49456
 21
321.430635
 31
0.0
  0
LINE
  8
LC-005-005-----0
 62
     2
  5
183
 10
184.49456
 20
320.259062
 30
0.0
 11
188.49456
 21
324.259062
 31
0.0
  0
LINE
  8
LC-005-005-----0
 62
     2
  5
184
 10
184.49456
 20
323.087489
 30
0.0
 11
188.49456
 21
327.087489
 31
0.0
  0
LINE
  8
LC-005-005-----0
 62
     2
  5
185
 10
184.49456
 20
325.915916
 30
0.0
 11
188.49456
 21
329.915916
 31
0.0
  0
LINE
  8
LC-005-005-----0
 62
     2
  5
186
 10
184.49456
 20
328.744343
 30
0.0
 11
188.49456
 21
332.744343
 31
0.0
  0
LINE
  8
LC-005-005-----0
 62
     2
  5
187
 10
184.49456
 20
331.57277
 30
0.0
 11
188.49456
 21
335.57277
 31
0.0
  0
LINE
  8
LC-005-005-----0
 62
     2
  5
188
 10
184.49456
 20
334.401197
 30
0.0
 11
188.49456
 21
338.401197
 31
0.0
  0
LINE
  8
LC-005-005-----0
 62
     2
  5
189
 10
184.49456
 20
337.229625
 30
0.0
 11
188.49456
 21
341.229625
 31
0.0
  0
LINE
  8
LC-005-005-----0
 62
     2
  5
18A
 10
184.49456
 20
340.058052
 30
0.0
 11
188.49456
 21
344.058052
 31
0.0
  0
LINE
  8
LC-005-005-----0
 62
     2
  5
18B
 10
184.49456
 20
342.886479
 30
0.0
 11
188.49456
 21
346.886479
 31
0.0
  0
LINE
  8
LC-005-005-----0
 62
     2
  5
18C
 10
184.49456
 20
345.714906
 30
0.0
 11
188.49456
 21
349.714906
 31
0.0
  0
LINE
  8
LC-005-005-----0
 62
     2
  5
18D
 10
184.49456
 20
348.543333
 30
0.0
 11
188.49456
 21
352.543333
 31
0.0
  0
LINE
  8
LC-005-005-----0
 62
     2
  5
18E
 10
184.49456
 20
351.37176
 30
0.0
 11
188.49456
 21
355.37176
 31
0.0
  0
LINE
  8
LC-005-005-----0
 62
     2
  5
18F
 10
184.49456
 20
354.200187
 30
0.0
 11
188.49456
 21
358.200187
 31
0.0
  0
LINE
  8
LC-005-005-----0
 62
     2
  5
190
 10
184.49456
 20
357.028614
 30
0.0
 11
188.49456
 21
361.028614
 31
0.0
  0
LINE
  8
LC-005-005-----0
 62
     2
  5
191
 10
184.49456
 20
359.857042
 30
0.0
 11
188.49456
 21
363.857042
 31
0.0
  0
LINE
  8
LC-005-005-----0
 62
     2
  5
192
 10
184.49456
 20
362.685469
 30
0.0
 11
188.49456
 21
366.685469
 31
0.0
  0
LINE
  8
LC-005-005-----0
 62
     2
  5
193
 10
184.49456
 20
365.513896
 30
0.0
 11
188.49456
 21
369.513896
 31
0.0
  0
LINE
  8
LC-005-005-----0
 62
     2
  5
194
 10
184.49456
 20
368.342323
 30
0.0
 11
188.49456
 21
372.342323
 31
0.0
  0
LINE
  8
LC-005-005-----0
 62
     2
  5
195
 10
184.49456
 20
371.17075
 30
0.0
 11
188.49456
 21
375.17075
 31
0.0
  0
LINE
  8
LC-005-005-----0
 62
     2
  5
196
 10
184.49456
 20
373.999177
 30
0.0
 11
188.49456
 21
377.999177
 31
0.0
  0
LINE
  8
LC-005-005-----0
 62
     2
  5
197
 10
184.49456
 20
376.827604
 30
0.0
 11
187.693766
 21
380.026811
 31
0.0
  0
LINE
  8
LC-005-005-----0
 62
     2
  5
198
 10
184.49456
 20
379.656031
 30
0.0
 11
184.865339
 21
380.026811
 31
0.0
  0
ENDBLK
  8
0
  5
199
  0
BLOCK
  8
0
  5
1BC
  2
*X2
 70
    65
 10
0.0
 20
0.0
 30
0.0
  3
*X2
  0
LINE
  8
LC-005-005-----0
 62
     2
  5
1BD
 10
264.243196
 20
408.492979
 30
0.0
 11
264.963587
 21
409.21337
 31
0.0
  0
LINE
  8
LC-005-005-----0
 62
     2
  5
1BE
 10
263.963746
 20
411.041956
 30
0.0
 11
264.963588
 21
412.041799
 31
0.0
  0
LINE
  8
LC-005-005-----0
 62
     2
  5
1BF
 10
263.96374
 20
413.870377
 30
0.0
 11
264.96359
 21
414.870228
 31
0.0
  0
LINE
  8
LC-005-005-----0
 62
     2
  5
1C0
 10
263.963734
 20
416.698799
 30
0.0
 11
264.963592
 21
417.698657
 31
0.0
  0
LINE
  8
LC-005-005-----0
 62
     2
  5
1C1
 10
263.963728
 20
419.52722
 30
0.0
 11
264.963594
 21
420.527086
 31
0.0
  0
LINE
  8
LC-005-005-----0
 62
     2
  5
1C2
 10
263.963722
 20
422.355641
 30
0.0
 11
264.963596
 21
423.355515
 31
0.0
  0
LINE
  8
LC-005-005-----0
 62
     2
  5
1C3
 10
263.963716
 20
425.184062
 30
0.0
 11
264.963598
 21
426.183944
 31
0.0
  0
LINE
  8
LC-005-005-----0
 62
     2
  5
1C4
 10
263.96371
 20
428.012484
 30
0.0
 11
264.963599
 21
429.012373
 31
0.0
  0
LINE
  8
LC-005-005-----0
 62
     2
  5
1C5
 10
263.963705
 20
430.840905
 30
0.0
 11
264.963601
 21
431.840802
 31
0.0
  0
LINE
  8
LC-005-005-----0
 62
     2
  5
1C6
 10
263.963699
 20
433.669326
 30
0.0
 11
264.963603
 21
434.669231
 31
0.0
  0
LINE
  8
LC-005-005-----0
 62
     2
  5
1C7
 10
263.963693
 20
436.497747
 30
0.0
 11
264.963605
 21
437.49766
 31
0.0
  0
LINE
  8
LC-005-005-----0
 62
     2
  5
1C8
 10
263.963687
 20
439.326169
 30
0.0
 11
264.963607
 21
440.326089
 31
0.0
  0
LINE
  8
LC-005-005-----0
 62
     2
  5
1C9
 10
263.963681
 20
442.15459
 30
0.0
 11
264.963609
 21
443.154518
 31
0.0
  0
LINE
  8
LC-005-005-----0
 62
     2
  5
1CA
 10
263.963675
 20
444.983011
 30
0.0
 11
264.963611
 21
445.982947
 31
0.0
  0
LINE
  8
LC-005-005-----0
 62
     2
  5
1CB
 10
263.963669
 20
447.811432
 30
0.0
 11
264.963612
 21
448.811375
 31
0.0
  0
LINE
  8
LC-005-005-----0
 62
     2
  5
1CC
 10
263.963664
 20
450.639854
 30
0.0
 11
264.963614
 21
451.639804
 31
0.0
  0
LINE
  8
LC-005-005-----0
 62
     2
  5
1CD
 10
263.963658
 20
453.468275
 30
0.0
 11
264.963616
 21
454.468233
 31
0.0
  0
LINE
  8
LC-005-005-----0
 62
     2
  5
1CE
 10
263.963652
 20
456.296696
 30
0.0
 11
264.963618
 21
457.296662
 31
0.0
  0
LINE
  8
LC-005-005-----0
 62
     2
  5
1CF
 10
263.963646
 20
459.125118
 30
0.0
 11
264.96362
 21
460.125091
 31
0.0
  0
LINE
  8
LC-005-005-----0
 62
     2
  5
1D0
 10
263.96364
 20
461.953539
 30
0.0
 11
264.963622
 21
462.95352
 31
0.0
  0
LINE
  8
LC-005-005-----0
 62
     2
  5
1D1
 10
263.963634
 20
464.78196
 30
0.0
 11
264.963623
 21
465.781949
 31
0.0
  0
LINE
  8
LC-005-005-----0
 62
     2
  5
1D2
 10
263.963628
 20
467.610381
 30
0.0
 11
264.963057
 21
468.60981
 31
0.0
  0
LINE
  8
LC-005-005-----0
 62
     2
  5
1D3
 10
263.802974
 20
470.278154
 30
0.0
 11
264.667425
 21
471.142605
 31
0.0
  0
LINE
  8
LC-005-005-----0
 62
     2
  5
1D4
 10
263.147074
 20
472.450681
 30
0.0
 11
263.970135
 21
473.273742
 31
0.0
  0
LINE
  8
LC-005-005-----0
 62
     2
  5
1D5
 10
262.130971
 20
474.263005
 30
0.0
 11
262.975758
 21
475.107792
 31
0.0
  0
LINE
  8
LC-005-005-----0
 62
     2
  5
1D6
 10
260.815796
 20
475.776257
 30
0.0
 11
261.72853
 21
476.688992
 31
0.0
  0
LINE
  8
LC-005-005-----0
 62
     2
  5
1D7
 10
259.214476
 20
477.003365
 30
0.0
 11
260.243529
 21
478.032418
 31
0.0
  0
LINE
  8
LC-005-005-----0
 62
     2
  5
1D8
 10
257.301895
 20
477.919211
 30
0.0
 11
258.514518
 21
479.131834
 31
0.0
  0
LINE
  8
LC-005-005-----0
 62
     2
  5
1D9
 10
254.993909
 20
478.439651
 30
0.0
 11
256.510857
 21
479.956599
 31
0.0
  0
LINE
  8
LC-005-005-----0
 62
     2
  5
1DA
 10
182.218566
 20
408.492736
 30
0.0
 11
182.963584
 21
409.237754
 31
0.0
  0
LINE
  8
LC-005-005-----0
 62
     2
  5
1DB
 10
223.718526
 20
449.992696
 30
0.0
 11
224.899397
 21
451.173567
 31
0.0
  0
LINE
  8
LC-005-005-----0
 62
     2
  5
1DC
 10
252.218697
 20
478.492867
 30
0.0
 11
254.15901
 21
480.433179
 31
0.0
  0
LINE
  8
LC-005-005-----0
 62
     2
  5
1DD
 10
181.963579
 20
411.066176
 30
0.0
 11
182.963576
 21
412.066173
 31
0.0
  0
LINE
  8
LC-005-005-----0
 62
     2
  5
1DE
 10
220.890099
 20
449.992696
 30
0.0
 11
224.900163
 21
454.00276
 31
0.0
  0
LINE
  8
LC-005-005-----0
 62
     2
  5
1DF
 10
249.39027
 20
478.492867
 30
0.0
 11
251.390271
 21
480.492868
 31
0.0
  0
LINE
  8
LC-005-005-----0
 62
     2
  5
1E0
 10
181.963571
 20
413.894595
 30
0.0
 11
182.963568
 21
414.894592
 31
0.0
  0
LINE
  8
LC-005-005-----0
 62
     2
  5
1E1
 10
218.061672
 20
449.992696
 30
0.0
 11
224.900928
 21
456.831953
 31
0.0
  0
LINE
  8
LC-005-005-----0
 62
     2
  5
1E2
 10
246.561843
 20
478.492867
 30
0.0
 11
248.561846
 21
480.49287
 31
0.0
  0
LINE
  8
LC-005-005-----0
 62
     2
  5
1E3
 10
181.963563
 20
416.723014
 30
0.0
 11
182.96356
 21
417.723011
 31
0.0
  0
LINE
  8
LC-005-005-----0
 62
     2
  5
1E4
 10
215.233244
 20
449.992696
 30
0.0
 11
224.901694
 21
459.661146
 31
0.0
  0
LINE
  8
LC-005-005-----0
 62
     2
  5
1E5
 10
243.733416
 20
478.492867
 30
0.0
 11
245.733421
 21
480.492872
 31
0.0
  0
LINE
  8
LC-005-005-----0
 62
     2
  5
1E6
 10
181.963555
 20
419.551433
 30
0.0
 11
182.963552
 21
420.55143
 31
0.0
  0
LINE
  8
LC-005-005-----0
 62
     2
  5
1E7
 10
212.404817
 20
449.992696
 30
0.0
 11
224.90246
 21
462.490339
 31
0.0
  0
LINE
  8
LC-005-005-----0
 62
     2
  5
1E8
 10
240.904989
 20
478.492867
 30
0.0
 11
242.904996
 21
480.492874
 31
0.0
  0
LINE
  8
LC-005-005-----0
 62
     2
  5
1E9
 10
181.963547
 20
422.379852
 30
0.0
 11
182.963544
 21
423.379849
 31
0.0
  0
LINE
  8
LC-005-005-----0
 62
     2
  5
1EA
 10
209.57639
 20
449.992696
 30
0.0
 11
224.903226
 21
465.319531
 31
0.0
  0
LINE
  8
LC-005-005-----0
 62
     2
  5
1EB
 10
238.076562
 20
478.492867
 30
0.0
 11
240.076571
 21
480.492876
 31
0.0
  0
LINE
  8
LC-005-005-----0
 62
     2
  5
1EC
 10
181.963539
 20
425.208271
 30
0.0
 11
182.963536
 21
426.208269
 31
0.0
  0
LINE
  8
LC-005-005-----0
 62
     2
  5
1ED
 10
206.747963
 20
449.992696
 30
0.0
 11
224.903992
 21
468.148724
 31
0.0
  0
LINE
  8
LC-005-005-----0
 62
     2
  5
1EE
 10
235.248134
 20
478.492867
 30
0.0
 11
237.248145
 21
480.492878
 31
0.0
  0
LINE
  8
LC-005-005-----0
 62
     2
  5
1EF
 10
181.963531
 20
428.036691
 30
0.0
 11
182.963528
 21
429.036688
 31
0.0
  0
LINE
  8
LC-005-005-----0
 62
     2
  5
1F0
 10
203.919536
 20
449.992696
 30
0.0
 11
224.904757
 21
470.977917
 31
0.0
  0
LINE
  8
LC-005-005-----0
 62
     2
  5
1F1
 10
232.419707
 20
478.492867
 30
0.0
 11
237.062231
 21
483.135391
 31
0.0
  0
LINE
  8
LC-005-005-----0
 62
     2
  5
1F2
 10
181.963523
 20
430.86511
 30
0.0
 11
182.96352
 21
431.865107
 31
0.0
  0
LINE
  8
LC-005-005-----0
 62
     2
  5
1F3
 10
201.091109
 20
449.992696
 30
0.0
 11
224.905523
 21
473.80711
 31
0.0
  0
LINE
  8
LC-005-005-----0
 62
     2
  5
1F4
 10
229.59128
 20
478.492867
 30
0.0
 11
231.591295
 21
480.492882
 31
0.0
  0
LINE
  8
LC-005-005-----0
 62
     2
  5
1F5
 10
233.178761
 20
482.080348
 30
0.0
 11
236.377958
 21
485.279545
 31
0.0
  0
LINE
  8
LC-005-005-----0
 62
     2
  5
1F6
 10
181.963515
 20
433.693529
 30
0.0
 11
182.963512
 21
434.693526
 31
0.0
  0
LINE
  8
LC-005-005-----0
 62
     2
  5
1F7
 10
198.262682
 20
449.992696
 30
0.0
 11
224.906289
 21
476.636303
 31
0.0
  0
LINE
  8
LC-005-005-----0
 62
     2
  5
1F8
 10
226.762853
 20
478.492867
 30
0.0
 11
228.76287
 21
480.492884
 31
0.0
  0
LINE
  8
LC-005-005-----0
 62
     2
  5
1F9
 10
232.437678
 20
484.167692
 30
0.0
 11
235.304688
 21
487.034703
 31
0.0
  0
LINE
  8
LC-005-005-----0
 62
     2
  5
1FA
 10
181.963507
 20
436.521948
 30
0.0
 11
182.963504
 21
437.521945
 31
0.0
  0
LINE
  8
LC-005-005-----0
 62
     2
  5
1FB
 10
196.387978
 20
450.946419
 30
0.0
 11
225.934445
 21
480.492886
 31
0.0
  0
LINE
  8
LC-005-005-----0
 62
     2
  5
1FC
 10
231.051037
 20
485.609479
 30
0.0
 11
233.905575
 21
488.464016
 31
0.0
  0
LINE
  8
LC-005-005-----0
 62
     2
  5
1FD
 10
181.963499
 20
439.350367
 30
0.0
 11
182.963496
 21
440.350364
 31
0.0
  0
LINE
  8
LC-005-005-----0
 62
     2
  5
1FE
 10
195.790261
 20
453.177129
 30
0.0
 11
223.105827
 21
480.492696
 31
0.0
  0
LINE
  8
LC-005-005-----0
 62
     2
  5
1FF
 10
229.037456
 20
486.424324
 30
0.0
 11
232.18307
 21
489.569938
 31
0.0
  0
LINE
  8
LC-005-005-----0
 62
     2
  5
200
 10
181.963491
 20
442.178786
 30
0.0
 11
182.963488
 21
443.178783
 31
0.0
  0
LINE
  8
LC-005-005-----0
 62
     2
  5
201
 10
195.705705
 20
455.921001
 30
0.0
 11
220.2774
 21
480.492696
 31
0.0
  0
LINE
  8
LC-005-005-----0
 62
     2
  5
202
 10
226.277401
 20
486.492696
 30
0.0
 11
230.081411
 21
490.296706
 31
0.0
  0
LINE
  8
LC-005-005-----0
 62
     2
  5
203
 10
181.963483
 20
445.007205
 30
0.0
 11
182.96348
 21
446.007202
 31
0.0
  0
LINE
  8
LC-005-005-----0
 62
     2
  5
204
 10
194.948973
 20
457.992696
 30
0.0
 11
217.448973
 21
480.492696
 31
0.0
  0
LINE
  8
LC-005-005-----0
 62
     2
  5
205
 10
223.448973
 20
486.492696
 30
0.0
 11
227.448974
 21
490.492696
 31
0.0
  0
LINE
  8
LC-005-005-----0
 62
     2
  5
206
 10
181.963475
 20
447.835624
 30
0.0
 11
182.963472
 21
448.835621
 31
0.0
  0
LINE
  8
LC-005-005-----0
 62
     2
  5
207
 10
192.205725
 20
458.077874
 30
0.0
 11
214.620546
 21
480.492696
 31
0.0
  0
LINE
  8
LC-005-005-----0
 62
     2
  5
208
 10
220.620546
 20
486.492696
 30
0.0
 11
224.620546
 21
490.492696
 31
0.0
  0
LINE
  8
LC-005-005-----0
 62
     2
  5
209
 10
181.963467
 20
450.664043
 30
0.0
 11
182.963464
 21
451.664041
 31
0.0
  0
LINE
  8
LC-005-005-----0
 62
     2
  5
20A
 10
192.206491
 20
460.907067
 30
0.0
 11
213.820268
 21
482.520845
 31
0.0
  0
LINE
  8
LC-005-005-----0
 62
     2
  5
20B
 10
217.685268
 20
486.385845
 30
0.0
 11
221.792119
 21
490.492696
 31
0.0
  0
LINE
  8
LC-005-005-----0
 62
     2
  5
20C
 10
181.963459
 20
453.492463
 30
0.0
 11
182.963456
 21
454.49246
 31
0.0
  0
LINE
  8
LC-005-005-----0
 62
     2
  5
20D
 10
192.207256
 20
463.73626
 30
0.0
 11
208.963692
 21
480.492696
 31
0.0
  0
LINE
  8
LC-005-005-----0
 62
     2
  5
20E
 10
209.713418
 20
481.242422
 30
0.0
 11
218.963692
 21
490.492696
 31
0.0
  0
LINE
  8
LC-005-005-----0
 62
     2
  5
20F
 10
181.963451
 20
456.320882
 30
0.0
 11
182.963448
 21
457.320879
 31
0.0
  0
LINE
  8
LC-005-005-----0
 62
     2
  5
210
 10
192.208022
 20
466.565453
 30
0.0
 11
206.135265
 21
480.492696
 31
0.0
  0
LINE
  8
LC-005-005-----0
 62
     2
  5
211
 10
210.281125
 20
484.638556
 30
0.0
 11
215.567558
 21
489.924989
 31
0.0
  0
LINE
  8
LC-005-005-----0
 62
     2
  5
212
 10
181.963443
 20
459.149301
 30
0.0
 11
182.96344
 21
460.149298
 31
0.0
  0
LINE
  8
LC-005-005-----0
 62
     2
  5
213
 10
192.208788
 20
469.394646
 30
0.0
 11
203.306838
 21
480.492696
 31
0.0
  0
LINE
  8
LC-005-005-----0
 62
     2
  5
214
 10
181.963434
 20
461.97772
 30
0.0
 11
182.963432
 21
462.977717
 31
0.0
  0
LINE
  8
LC-005-005-----0
 62
     2
  5
215
 10
192.209554
 20
472.223839
 30
0.0
 11
200.47841
 21
480.492696
 31
0.0
  0
LINE
  8
LC-005-005-----0
 62
     2
  5
216
 10
181.963426
 20
464.806139
 30
0.0
 11
182.963424
 21
465.806136
 31
0.0
  0
LINE
  8
LC-005-005-----0
 62
     2
  5
217
 10
192.21032
 20
475.053032
 30
0.0
 11
197.649983
 21
480.492696
 31
0.0
  0
LINE
  8
LC-005-005-----0
 62
     2
  5
218
 10
181.963418
 20
467.634558
 30
0.0
 11
182.964437
 21
468.635576
 31
0.0
  0
LINE
  8
LC-005-005-----0
 62
     2
  5
219
 10
192.211085
 20
477.882225
 30
0.0
 11
194.821556
 21
480.492696
 31
0.0
  0
LINE
  8
LC-005-005-----0
 62
     2
  5
21A
 10
182.160828
 20
470.660395
 30
0.0
 11
183.659955
 21
472.159522
 31
0.0
  0
LINE
  8
LC-005-005-----0
 62
     2
  5
21B
 10
189.29659
 20
477.796157
 30
0.0
 11
191.795717
 21
480.295284
 31
0.0
  0
LINE
  8
LC-005-005-----0
 62
     2
  5
21C
 10
184.359567
 20
475.687561
 30
0.0
 11
186.768551
 21
478.096545
 31
0.0
  0
ENDBLK
  8
0
  5
21D
  0
BLOCK
  8
0
  5
26E
  2
*X3
 70
    65
 10
0.0
 20
0.0
 30
0.0
  3
*X3
  0
LINE
  8
LC-005-005-----0
 62
     2
  5
26F
 10
299.987577
 20
466.864778
 30
0.0
 11
302.463416
 21
469.340616
 31
0.0
  0
LINE
  8
LC-005-005-----0
 62
     2
  5
270
 10
313.021162
 20
479.898362
 30
0.0
 11
314.417736
 21
481.294937
 31
0.0
  0
LINE
  8
LC-005-005-----0
 62
     2
  5
271
 10
297.15915
 20
466.864778
 30
0.0
 11
302.463416
 21
472.169044
 31
0.0
  0
LINE
  8
LC-005-005-----0
 62
     2
  5
272
 10
312.463201
 20
482.168829
 30
0.0
 11
314.889172
 21
484.5948
 31
0.0
  0
LINE
  8
LC-005-005-----0
 62
     2
  5
273
 10
294.330723
 20
466.864778
 30
0.0
 11
302.463416
 21
474.997471
 31
0.0
  0
LINE
  8
LC-005-005-----0
 62
     2
  5
274
 10
311.569402
 20
484.103457
 30
0.0
 11
314.263926
 21
486.797981
 31
0.0
  0
LINE
  8
LC-005-005-----0
 62
     2
  5
275
 10
292.963416
 20
468.325898
 30
0.0
 11
294.502296
 21
469.864778
 31
0.0
  0
LINE
  8
LC-005-005-----0
 62
     2
  5
276
 10
295.713416
 20
471.075898
 30
0.0
 11
302.463416
 21
477.825898
 31
0.0
  0
LINE
  8
LC-005-005-----0
 62
     2
  5
277
 10
308.528322
 20
483.890803
 30
0.0
 11
311.222846
 21
486.585328
 31
0.0
  0
LINE
  8
LC-005-005-----0
 62
     2
  5
278
 10
295.713416
 20
473.904325
 30
0.0
 11
302.463416
 21
480.654325
 31
0.0
  0
LINE
  8
LC-005-005-----0
 62
     2
  5
279
 10
305.487242
 20
483.67815
 30
0.0
 11
308.181766
 21
486.372675
 31
0.0
  0
LINE
  8
LC-005-005-----0
 62
     2
  5
27A
 10
295.713416
 20
476.732752
 30
0.0
 11
305.140686
 21
486.160022
 31
0.0
  0
LINE
  8
LC-005-005-----0
 62
     2
  5
27B
 10
295.713416
 20
479.561179
 30
0.0
 11
302.099605
 21
485.947369
 31
0.0
  0
LINE
  8
LC-005-005-----0
 62
     2
  5
27C
 10
295.713416
 20
482.389606
 30
0.0
 11
299.058525
 21
485.734716
 31
0.0
  0
ENDBLK
  8
0
  5
27D
  0
BLOCK
  8
0
  5
280
  2
*X4
 70
    65
 10
0.0
 20
0.0
 30
0.0
  3
*X4
  0
LINE
  8
LC-005-005-----0
 62
     2
  5
281
 10
152.909367
 20
466.864778
 30
0.0
 11
153.963416
 21
467.918827
 31
0.0
  0
LINE
  8
LC-005-005-----0
 62
     2
  5
282
 10
150.08094
 20
466.864778
 30
0.0
 11
153.08094
 21
469.864778
 31
0.0
  0
LINE
  8
LC-005-005-----0
 62
     2
  5
283
 10
147.252513
 20
466.864778
 30
0.0
 11
151.213416
 21
470.825681
 31
0.0
  0
LINE
  8
LC-005-005-----0
 62
     2
  5
284
 10
144.736917
 20
467.17761
 30
0.0
 11
151.213416
 21
473.654108
 31
0.0
  0
LINE
  8
LC-005-005-----0
 62
     2
  5
285
 10
144.463416
 20
469.732535
 30
0.0
 11
151.213416
 21
476.482535
 31
0.0
  0
LINE
  8
LC-005-005-----0
 62
     2
  5
286
 10
144.463416
 20
472.560963
 30
0.0
 11
151.213416
 21
479.310963
 31
0.0
  0
LINE
  8
LC-005-005-----0
 62
     2
  5
287
 10
144.463416
 20
475.38939
 30
0.0
 11
151.213416
 21
482.13939
 31
0.0
  0
LINE
  8
LC-005-005-----0
 62
     2
  5
288
 10
144.463416
 20
478.217817
 30
0.0
 11
151.131132
 21
484.885532
 31
0.0
  0
LINE
  8
LC-005-005-----0
 62
     2
  5
289
 10
144.463416
 20
481.046244
 30
0.0
 11
149.067997
 21
485.650825
 31
0.0
  0
LINE
  8
LC-005-005-----0
 62
     2
  5
28A
 10
144.082112
 20
483.493367
 30
0.0
 11
146.424427
 21
485.835682
 31
0.0
  0
LINE
  8
LC-005-005-----0
 62
     2
  5
28B
 10
141.438542
 20
483.678224
 30
0.0
 11
143.780856
 21
486.020538
 31
0.0
  0
LINE
  8
LC-005-005-----0
 62
     2
  5
28C
 10
138.794971
 20
483.86308
 30
0.0
 11
141.137285
 21
486.205394
 31
0.0
  0
LINE
  8
LC-005-005-----0
 62
     2
  5
28D
 10
132.620265
 20
480.516801
 30
0.0
 11
134.463631
 21
482.360167
 31
0.0
  0
LINE
  8
LC-005-005-----0
 62
     2
  5
28E
 10
136.1514
 20
484.047937
 30
0.0
 11
138.493715
 21
486.390251
 31
0.0
  0
LINE
  8
LC-005-005-----0
 62
     2
  5
28F
 10
132.266693
 20
482.991657
 30
0.0
 11
135.850144
 21
486.575107
 31
0.0
  0
LINE
  8
LC-005-005-----0
 62
     2
  5
290
 10
131.913122
 20
485.466513
 30
0.0
 11
133.206573
 21
486.759964
 31
0.0
  0
ENDBLK
  8
0
  5
291
  0
BLOCK
  8
0
  5
29A
  2
*X5
 70
    65
 10
0.0
 20
0.0
 30
0.0
  3
*X5
  0
LINE
  8
LC-005-005-----0
 62
     2
  5
29B
 10
257.49456
 20
271.636695
 30
0.0
 11
258.49456
 21
272.636695
 31
0.0
  0
LINE
  8
LC-005-005-----0
 62
     2
  5
29C
 10
257.49456
 20
274.465123
 30
0.0
 11
258.49456
 21
275.465123
 31
0.0
  0
LINE
  8
LC-005-005-----0
 62
     2
  5
29D
 10
257.49456
 20
277.29355
 30
0.0
 11
258.49456
 21
278.29355
 31
0.0
  0
LINE
  8
LC-005-005-----0
 62
     2
  5
29E
 10
257.49456
 20
280.121977
 30
0.0
 11
258.49456
 21
281.121977
 31
0.0
  0
LINE
  8
LC-005-005-----0
 62
     2
  5
29F
 10
257.49456
 20
282.950404
 30
0.0
 11
258.49456
 21
283.950404
 31
0.0
  0
LINE
  8
LC-005-005-----0
 62
     2
  5
2A0
 10
257.49456
 20
285.778831
 30
0.0
 11
258.49456
 21
286.778831
 31
0.0
  0
LINE
  8
LC-005-005-----0
 62
     2
  5
2A1
 10
257.49456
 20
288.607258
 30
0.0
 11
258.49456
 21
289.607258
 31
0.0
  0
LINE
  8
LC-005-005-----0
 62
     2
  5
2A2
 10
188.49456
 20
270.518946
 30
0.0
 11
189.49456
 21
271.518946
 31
0.0
  0
LINE
  8
LC-005-005-----0
 62
     2
  5
2A3
 10
188.49456
 20
273.347374
 30
0.0
 11
189.49456
 21
274.347374
 31
0.0
  0
LINE
  8
LC-005-005-----0
 62
     2
  5
2A4
 10
188.49456
 20
276.175801
 30
0.0
 11
189.49456
 21
277.175801
 31
0.0
  0
LINE
  8
LC-005-005-----0
 62
     2
  5
2A5
 10
188.49456
 20
279.004228
 30
0.0
 11
189.49456
 21
280.004228
 31
0.0
  0
LINE
  8
LC-005-005-----0
 62
     2
  5
2A6
 10
188.49456
 20
281.832655
 30
0.0
 11
189.49456
 21
282.832655
 31
0.0
  0
LINE
  8
LC-005-005-----0
 62
     2
  5
2A7
 10
188.49456
 20
284.661082
 30
0.0
 11
189.49456
 21
285.661082
 31
0.0
  0
LINE
  8
LC-005-005-----0
 62
     2
  5
2A8
 10
188.49456
 20
287.489509
 30
0.0
 11
189.49456
 21
288.489509
 31
0.0
  0
ENDBLK
  8
0
  5
2A9
  0
BLOCK
  8
0
  5
2AE
  2
*D6
 70
    65
 10
0.0
 20
0.0
 30
0.0
  3
*D6
  0
LINE
  8
LC-006-003-MTH-0
 62
     2
  5
2B0
 10
184.49456
 20
269.992692
 30
0.0
 11
184.49456
 21
241.956259
 31
0.0
  0
LINE
  8
LC-006-003-MTH-0
 62
     2
  5
2B1
 10
262.49456
 20
269.992692
 30
0.0
 11
262.49456
 21
241.956259
 31
0.0
  0
LINE
  8
LC-007-003-----0
 62
     2
  5
2B3
 10
156.734104
 20
255.101526
 30
0.0
 11
184.49456
 21
258.756259
 31
0.0
  0
LINE
  8
LC-007-003-----0
 62
     2
  5
2B4
 10
184.49456
 20
258.756259
 30
0.0
 11
156.734104
 21
262.410992
 31
0.0
  0
LINE
  8
LC-007-003-----0
 62
     2
  5
2B5
 10
156.734104
 20
262.410992
 30
0.0
 11
156.734104
 21
255.101526
 31
0.0
  0
LINE
  8
LC-007-003-----0
 62
     2
  5
2B6
 10
156.671822
 20
256.051756
 30
0.0
 11
177.21456
 21
258.756259
 31
0.0
  0
LINE
  8
LC-007-003-----0
 62
     2
  5
2B7
 10
177.21456
 20
258.756259
 30
0.0
 11
156.671822
 21
261.460762
 31
0.0
  0
LINE
  8
LC-007-003-----0
 62
     2
  5
2B8
 10
156.609541
 20
257.001987
 30
0.0
 11
169.93456
 21
258.756259
 31
0.0
  0
LINE
  8
LC-007-003-----0
 62
     2
  5
2B9
 10
169.93456
 20
258.756259
 30
0.0
 11
156.609541
 21
260.510531
 31
0.0
  0
LINE
  8
LC-007-003-----0
 62
     2
  5
2BA
 10
156.547259
 20
257.952218
 30
0.0
 11
162.65456
 21
258.756259
 31
0.0
  0
LINE
  8
LC-007-003-----0
 62
     2
  5
2BB
 10
162.65456
 20
258.756259
 30
0.0
 11
156.547259
 21
259.5603
 31
0.0
  0
LINE
  8
LC-007-003-----0
 62
     2
  5
2BC
 10
290.255016
 20
262.410992
 30
0.0
 11
262.49456
 21
258.756259
 31
0.0
  0
LINE
  8
LC-007-003-----0
 62
     2
  5
2BD
 10
262.49456
 20
258.756259
 30
0.0
 11
290.255016
 21
255.101526
 31
0.0
  0
LINE
  8
LC-007-003-----0
 62
     2
  5
2BE
 10
290.255016
 20
255.101526
 30
0.0
 11
290.255016
 21
262.410992
 31
0.0
  0
LINE
  8
LC-007-003-----0
 62
     2
  5
2BF
 10
290.317297
 20
261.460762
 30
0.0
 11
269.77456
 21
258.756259
 31
0.0
  0
LINE
  8
LC-007-003-----0
 62
     2
  5
2C0
 10
269.77456
 20
258.756259
 30
0.0
 11
290.317297
 21
256.051756
 31
0.0
  0
LINE
  8
LC-007-003-----0
 62
     2
  5
2C1
 10
290.379579
 20
260.510531
 30
0.0
 11
277.05456
 21
258.756259
 31
0.0
  0
LINE
  8
LC-007-003-----0
 62
     2
  5
2C2
 10
277.05456
 20
258.756259
 30
0.0
 11
290.379579
 21
257.001987
 31
0.0
  0
LINE
  8
LC-007-003-----0
 62
     2
  5
2C3
 10
290.44186
 20
259.5603
 30
0.0
 11
284.33456
 21
258.756259
 31
0.0
  0
LINE
  8
LC-007-003-----0
 62
     2
  5
2C4
 10
284.33456
 20
258.756259
 30
0.0
 11
290.44186
 21
257.952218
 31
0.0
  0
LINE
  8
LC-008-003-MTG-0
 62
     2
  5
2C6
 10
145.29456
 20
258.756259
 30
0.0
 11
446.89456
 21
258.756259
 31
0.0
  0
TEXT
  8
LC-007-003-----0
 62
     8
  5
2C7
 10
304.593333
 20
261.174628
 30
0.0
 40
28.0
  1
DN70(SML)
 41
0.8
 51
15.0
  7
LCTX15-400-0-0-ARIAL
  0
ENDBLK
  8
0
  5
2C8
  0
BLOCK
  8
0
  5
2CB
  2
*D7
 70
    65
 10
0.0
 20
0.0
 30
0.0
  3
*D7
  0
LINE
  8
LC-006-003-MTH-0
 62
     2
  5
2CC
 10
143.24456
 20
391.742696
 30
0.0
 11
143.24456
 21
180.357543
 31
0.0
  0
LINE
  8
LC-006-003-MTH-0
 62
     2
  5
2CD
 10
303.74456
 20
391.742696
 30
0.0
 11
303.74456
 21
180.357543
 31
0.0
  0
LINE
  8
LC-008-003-MTG-0
 62
     2
  5
2CE
 10
143.24456
 20
197.157543
 30
0.0
 11
303.74456
 21
197.157543
 31
0.0
  0
LINE
  8
LC-007-003-----0
 62
     2
  5
2CF
 10
171.005016
 20
200.812276
 30
0.0
 11
143.24456
 21
197.157543
 31
0.0
  0
LINE
  8
LC-007-003-----0
 62
     2
  5
2D0
 10
143.24456
 20
197.157543
 30
0.0
 11
171.005016
 21
193.502809
 31
0.0
  0
LINE
  8
LC-007-003-----0
 62
     2
  5
2D1
 10
171.005016
 20
193.502809
 30
0.0
 11
171.005016
 21
200.812276
 31
0.0
  0
LINE
  8
LC-007-003-----0
 62
     2
  5
2D2
 10
171.067297
 20
199.862045
 30
0.0
 11
150.52456
 21
197.157543
 31
0.0
  0
LINE
  8
LC-007-003-----0
 62
     2
  5
2D3
 10
150.52456
 20
197.157543
 30
0.0
 11
171.067297
 21
194.45304
 31
0.0
  0
LINE
  8
LC-007-003-----0
 62
     2
  5
2D4
 10
171.129579
 20
198.911815
 30
0.0
 11
157.80456
 21
197.157543
 31
0.0
  0
LINE
  8
LC-007-003-----0
 62
     2
  5
2D5
 10
157.80456
 20
197.157543
 30
0.0
 11
171.129579
 21
195.403271
 31
0.0
  0
LINE
  8
LC-007-003-----0
 62
     2
  5
2D6
 10
171.19186
 20
197.961584
 30
0.0
 11
165.08456
 21
197.157543
 31
0.0
  0
LINE
  8
LC-007-003-----0
 62
     2
  5
2D7
 10
165.08456
 20
197.157543
 30
0.0
 11
171.19186
 21
196.353501
 31
0.0
  0
LINE
  8
LC-007-003-----0
 62
     2
  5
2D8
 10
275.984104
 20
193.502809
 30
0.0
 11
303.74456
 21
197.157543
 31
0.0
  0
LINE
  8
LC-007-003-----0
 62
     2
  5
2D9
 10
303.74456
 20
197.157543
 30
0.0
 11
275.984104
 21
200.812276
 31
0.0
  0
LINE
  8
LC-007-003-----0
 62
     2
  5
2DA
 10
275.984104
 20
200.812276
 30
0.0
 11
275.984104
 21
193.502809
 31
0.0
  0
LINE
  8
LC-007-003-----0
 62
     2
  5
2DB
 10
275.921822
 20
194.45304
 30
0.0
 11
296.46456
 21
197.157543
 31
0.0
  0
LINE
  8
LC-007-003-----0
 62
     2
  5
2DC
 10
296.46456
 20
197.157543
 30
0.0
 11
275.921822
 21
199.862045
 31
0.0
  0
LINE
  8
LC-007-003-----0
 62
     2
  5
2DD
 10
275.859541
 20
195.403271
 30
0.0
 11
289.18456
 21
197.157543
 31
0.0
  0
LINE
  8
LC-007-003-----0
 62
     2
  5
2DE
 10
289.18456
 20
197.157543
 30
0.0
 11
275.859541
 21
198.911815
 31
0.0
  0
LINE
  8
LC-007-003-----0
 62
     2
  5
2DF
 10
275.797259
 20
196.353501
 30
0.0
 11
281.90456
 21
197.157543
 31
0.0
  0
LINE
  8
LC-007-003-----0
 62
     2
  5
2E0
 10
281.90456
 20
197.157543
 30
0.0
 11
275.797259
 21
197.961584
 31
0.0
  0
TEXT
  8
LC-007-003-----0
 62
     8
  5
2E1
 10
166.193333
 20
199.575912
 30
0.0
 40
28.0
  1
%%c160
 41
0.8
 51
15.0
  7
LCTX15-400-0-0-ARIAL
 72
     1
 11
226.393333
 21
199.575912
 31
0.0
  0
ENDBLK
  8
0
  5
2E2
  0
BLOCK
  8
0
  5
2E5
  2
*X8
 70
    65
 10
0.0
 20
0.0
 30
0.0
  3
*X8
  0
LINE
  8
LC-005-005-----0
 62
     2
  5
2E6
 10
295.759342
 20
380.612156
 30
0.0
 11
303.125099
 21
387.977913
 31
0.0
  0
LINE
  8
LC-005-005-----0
 62
     2
  5
2E7
 10
292.315848
 20
379.997089
 30
0.0
 11
296.549791
 21
384.231032
 31
0.0
  0
LINE
  8
LC-005-005-----0
 62
     2
  5
2E8
 10
299.755517
 20
387.436758
 30
0.0
 11
303.740166
 21
391.421407
 31
0.0
  0
LINE
  8
LC-005-005-----0
 62
     2
  5
2E9
 10
289.483027
 20
379.992695
 30
0.0
 11
292.497109
 21
383.006777
 31
0.0
  0
LINE
  8
LC-005-005-----0
 62
     2
  5
2EA
 10
300.979772
 20
391.48944
 30
0.0
 11
303.74456
 21
394.254228
 31
0.0
  0
LINE
  8
LC-005-005-----0
 62
     2
  5
2EB
 10
286.6546
 20
379.992695
 30
0.0
 11
289.654601
 21
382.992696
 31
0.0
  0
LINE
  8
LC-005-005-----0
 62
     2
  5
2EC
 10
300.993853
 20
394.331948
 30
0.0
 11
303.74456
 21
397.082655
 31
0.0
  0
LINE
  8
LC-005-005-----0
 62
     2
  5
2ED
 10
283.826172
 20
379.992694
 30
0.0
 11
286.826174
 21
382.992696
 31
0.0
  0
LINE
  8
LC-005-005-----0
 62
     2
  5
2EE
 10
300.993853
 20
397.160375
 30
0.0
 11
303.74456
 21
399.911082
 31
0.0
  0
LINE
  8
LC-005-005-----0
 62
     2
  5
2EF
 10
280.997744
 20
379.992694
 30
0.0
 11
283.997746
 21
382.992696
 31
0.0
  0
LINE
  8
LC-005-005-----0
 62
     2
  5
2F0
 10
300.993853
 20
399.988802
 30
0.0
 11
303.74456
 21
402.739509
 31
0.0
  0
LINE
  8
LC-005-005-----0
 62
     2
  5
2F1
 10
245.666431
 20
347.489808
 30
0.0
 11
248.248573
 21
350.07195
 31
0.0
  0
LINE
  8
LC-005-005-----0
 62
     2
  5
2F2
 10
278.169317
 20
379.992693
 30
0.0
 11
281.169319
 21
382.992696
 31
0.0
  0
LINE
  8
LC-005-005-----0
 62
     2
  5
2F3
 10
300.993853
 20
402.817229
 30
0.0
 11
303.74456
 21
405.567936
 31
0.0
  0
LINE
  8
LC-005-005-----0
 62
     2
  5
2F4
 10
245.49456
 20
350.146363
 30
0.0
 11
248.49456
 21
353.146363
 31
0.0
  0
LINE
  8
LC-005-005-----0
 62
     2
  5
2F5
 10
275.340889
 20
379.992693
 30
0.0
 11
278.340892
 21
382.992696
 31
0.0
  0
LINE
  8
LC-005-005-----0
 62
     2
  5
2F6
 10
300.993853
 20
405.645657
 30
0.0
 11
303.74456
 21
408.396363
 31
0.0
  0
LINE
  8
LC-005-005-----0
 62
     2
  5
2F7
 10
245.49456
 20
352.974791
 30
0.0
 11
248.49456
 21
355.974791
 31
0.0
  0
LINE
  8
LC-005-005-----0
 62
     2
  5
2F8
 10
273.49456
 20
380.974791
 30
0.0
 11
275.512465
 21
382.992696
 31
0.0
  0
LINE
  8
LC-005-005-----0
 62
     2
  5
2F9
 10
300.993853
 20
408.474084
 30
0.0
 11
303.74456
 21
411.224791
 31
0.0
  0
LINE
  8
LC-005-005-----0
 62
     2
  5
2FA
 10
245.49456
 20
355.803218
 30
0.0
 11
248.49456
 21
358.803218
 31
0.0
  0
LINE
  8
LC-005-005-----0
 62
     2
  5
2FB
 10
269.684033
 20
379.992691
 30
0.0
 11
272.684038
 21
382.992696
 31
0.0
  0
LINE
  8
LC-005-005-----0
 62
     2
  5
2FC
 10
273.059156
 20
383.367813
 30
0.0
 11
273.49456
 21
383.803218
 31
0.0
  0
LINE
  8
LC-005-005-----0
 62
     2
  5
2FD
 10
300.993853
 20
411.302511
 30
0.0
 11
303.74456
 21
414.053218
 31
0.0
  0
LINE
  8
LC-005-005-----0
 62
     2
  5
2FE
 10
245.49456
 20
358.631645
 30
0.0
 11
248.49456
 21
361.631645
 31
0.0
  0
LINE
  8
LC-005-005-----0
 62
     2
  5
2FF
 10
266.855607
 20
379.992692
 30
0.0
 11
269.855611
 21
382.992696
 31
0.0
  0
LINE
  8
LC-005-005-----0
 62
     2
  5
300
 10
300.993853
 20
414.130938
 30
0.0
 11
303.74456
 21
416.881645
 31
0.0
  0
LINE
  8
LC-005-005-----0
 62
     2
  5
301
 10
245.49456
 20
361.460072
 30
0.0
 11
248.49456
 21
364.460072
 31
0.0
  0
LINE
  8
LC-005-005-----0
 62
     2
  5
302
 10
264.02718
 20
379.992693
 30
0.0
 11
267.027184
 21
382.992696
 31
0.0
  0
LINE
  8
LC-005-005-----0
 62
     2
  5
303
 10
300.993853
 20
416.959365
 30
0.0
 11
303.74456
 21
419.710072
 31
0.0
  0
LINE
  8
LC-005-005-----0
 62
     2
  5
304
 10
371.835327
 20
487.800839
 30
0.0
 11
374.246303
 21
490.211815
 31
0.0
  0
LINE
  8
LC-005-005-----0
 62
     2
  5
305
 10
245.49456
 20
364.288499
 30
0.0
 11
248.49456
 21
367.288499
 31
0.0
  0
LINE
  8
LC-005-005-----0
 62
     2
  5
306
 10
261.198754
 20
379.992693
 30
0.0
 11
264.198757
 21
382.992696
 31
0.0
  0
LINE
  8
LC-005-005-----0
 62
     2
  5
307
 10
300.993853
 20
419.787792
 30
0.0
 11
303.74456
 21
422.538499
 31
0.0
  0
LINE
  8
LC-005-005-----0
 62
     2
  5
308
 10
368.956652
 20
487.750592
 30
0.0
 11
372.010413
 21
490.804352
 31
0.0
  0
LINE
  8
LC-005-005-----0
 62
     2
  5
309
 10
245.49456
 20
367.116926
 30
0.0
 11
248.49456
 21
370.116926
 31
0.0
  0
LINE
  8
LC-005-005-----0
 62
     2
  5
30A
 10
258.370328
 20
379.992694
 30
0.0
 11
261.370329
 21
382.992696
 31
0.0
  0
LINE
  8
LC-005-005-----0
 62
     2
  5
30B
 10
300.993853
 20
422.616219
 30
0.0
 11
303.74456
 21
425.366926
 31
0.0
  0
LINE
  8
LC-005-005-----0
 62
     2
  5
30C
 10
366.077978
 20
487.700344
 30
0.0
 11
369.131738
 21
490.754105
 31
0.0
  0
LINE
  8
LC-005-005-----0
 62
     2
  5
30D
 10
245.49456
 20
369.945353
 30
0.0
 11
248.49456
 21
372.945353
 31
0.0
  0
LINE
  8
LC-005-005-----0
 62
     2
  5
30E
 10
255.541902
 20
379.992695
 30
0.0
 11
258.541902
 21
382.992696
 31
0.0
  0
LINE
  8
LC-005-005-----0
 62
     2
  5
30F
 10
300.993853
 20
425.444646
 30
0.0
 11
303.74456
 21
428.195353
 31
0.0
  0
LINE
  8
LC-005-005-----0
 62
     2
  5
310
 10
363.199303
 20
487.650097
 30
0.0
 11
366.253064
 21
490.703857
 31
0.0
  0
LINE
  8
LC-005-005-----0
 62
     2
  5
311
 10
245.49456
 20
372.77378
 30
0.0
 11
248.49456
 21
375.77378
 31
0.0
  0
LINE
  8
LC-005-005-----0
 62
     2
  5
312
 10
253.860042
 20
381.139263
 30
0.0
 11
255.914602
 21
383.193823
 31
0.0
  0
LINE
  8
LC-005-005-----0
 62
     2
  5
313
 10
300.993853
 20
428.273074
 30
0.0
 11
303.74456
 21
431.02378
 31
0.0
  0
LINE
  8
LC-005-005-----0
 62
     2
  5
314
 10
360.320629
 20
487.599849
 30
0.0
 11
363.374389
 21
490.65361
 31
0.0
  0
LINE
  8
LC-005-005-----0
 62
     2
  5
315
 10
245.49456
 20
375.602208
 30
0.0
 11
248.49456
 21
378.602208
 31
0.0
  0
LINE
  8
LC-005-005-----0
 62
     2
  5
316
 10
249.885048
 20
379.992696
 30
0.0
 11
251.336401
 21
381.444049
 31
0.0
  0
LINE
  8
LC-005-005-----0
 62
     2
  5
317
 10
252.357868
 20
382.465516
 30
0.0
 11
254.392306
 21
384.499954
 31
0.0
  0
LINE
  8
LC-005-005-----0
 62
     2
  5
318
 10
300.993853
 20
431.101501
 30
0.0
 11
303.74456
 21
433.852208
 31
0.0
  0
LINE
  8
LC-005-005-----0
 62
     2
  5
319
 10
357.441954
 20
487.549602
 30
0.0
 11
360.495715
 21
490.603362
 31
0.0
  0
LINE
  8
LC-005-005-----0
 62
     2
  5
31A
 10
245.49456
 20
378.430635
 30
0.0
 11
253.99456
 21
386.930635
 31
0.0
  0
LINE
  8
LC-005-005-----0
 62
     2
  5
31B
 10
300.993853
 20
433.929928
 30
0.0
 11
303.74456
 21
436.680635
 31
0.0
  0
LINE
  8
LC-005-005-----0
 62
     2
  5
31C
 10
354.56328
 20
487.499354
 30
0.0
 11
357.61704
 21
490.553115
 31
0.0
  0
LINE
  8
LC-005-005-----0
 62
     2
  5
31D
 10
251.027718
 20
386.79222
 30
0.0
 11
253.99456
 21
389.759062
 31
0.0
  0
LINE
  8
LC-005-005-----0
 62
     2
  5
31E
 10
300.993853
 20
436.758355
 30
0.0
 11
303.74456
 21
439.509062
 31
0.0
  0
LINE
  8
LC-005-005-----0
 62
     2
  5
31F
 10
351.684605
 20
487.449107
 30
0.0
 11
354.738366
 21
490.502868
 31
0.0
  0
LINE
  8
LC-005-005-----0
 62
     2
  5
320
 10
251.052618
 20
389.645547
 30
0.0
 11
253.99456
 21
392.587489
 31
0.0
  0
LINE
  8
LC-005-005-----0
 62
     2
  5
321
 10
300.993853
 20
439.586782
 30
0.0
 11
303.74456
 21
442.337489
 31
0.0
  0
LINE
  8
LC-005-005-----0
 62
     2
  5
322
 10
348.80593
 20
487.39886
 30
0.0
 11
351.859691
 21
490.45262
 31
0.0
  0
LINE
  8
LC-005-005-----0
 62
     2
  5
323
 10
251.077519
 20
392.498875
 30
0.0
 11
253.99456
 21
395.415916
 31
0.0
  0
LINE
  8
LC-005-005-----0
 62
     2
  5
324
 10
300.993853
 20
442.415209
 30
0.0
 11
303.74456
 21
445.165916
 31
0.0
  0
LINE
  8
LC-005-005-----0
 62
     2
  5
325
 10
345.927256
 20
487.348612
 30
0.0
 11
348.981016
 21
490.402373
 31
0.0
  0
LINE
  8
LC-005-005-----0
 62
     2
  5
326
 10
251.10242
 20
395.352203
 30
0.0
 11
253.99456
 21
398.244343
 31
0.0
  0
LINE
  8
LC-005-005-----0
 62
     2
  5
327
 10
300.993853
 20
445.243636
 30
0.0
 11
303.74456
 21
447.994343
 31
0.0
  0
LINE
  8
LC-005-005-----0
 62
     2
  5
328
 10
343.048581
 20
487.298365
 30
0.0
 11
346.102342
 21
490.352125
 31
0.0
  0
LINE
  8
LC-005-005-----0
 62
     2
  5
329
 10
251.12732
 20
398.205531
 30
0.0
 11
253.99456
 21
401.07277
 31
0.0
  0
LINE
  8
LC-005-005-----0
 62
     2
  5
32A
 10
300.993853
 20
448.072063
 30
0.0
 11
303.74456
 21
450.82277
 31
0.0
  0
LINE
  8
LC-005-005-----0
 62
     2
  5
32B
 10
340.169907
 20
487.248117
 30
0.0
 11
343.223667
 21
490.301878
 31
0.0
  0
LINE
  8
LC-005-005-----0
 62
     2
  5
32C
 10
251.152221
 20
401.058858
 30
0.0
 11
253.99456
 21
403.901197
 31
0.0
  0
LINE
  8
LC-005-005-----0
 62
     2
  5
32D
 10
300.993853
 20
450.900491
 30
0.0
 11
303.74456
 21
453.651197
 31
0.0
  0
LINE
  8
LC-005-005-----0
 62
     2
  5
32E
 10
337.291232
 20
487.19787
 30
0.0
 11
340.344993
 21
490.25163
 31
0.0
  0
LINE
  8
LC-005-005-----0
 62
     2
  5
32F
 10
251.177121
 20
403.912186
 30
0.0
 11
253.99456
 21
406.729625
 31
0.0
  0
LINE
  8
LC-005-005-----0
 62
     2
  5
330
 10
300.993853
 20
453.728918
 30
0.0
 11
308.523954
 21
461.259019
 31
0.0
  0
LINE
  8
LC-005-005-----0
 62
     2
  5
331
 10
332.690224
 20
485.425289
 30
0.0
 11
337.466318
 21
490.201383
 31
0.0
  0
LINE
  8
LC-005-005-----0
 62
     2
  5
332
 10
251.202022
 20
406.765514
 30
0.0
 11
253.99456
 21
409.558052
 31
0.0
  0
LINE
  8
LC-005-005-----0
 62
     2
  5
333
 10
300.993853
 20
456.557345
 30
0.0
 11
312.993853
 21
468.557345
 31
0.0
  0
LINE
  8
LC-005-005-----0
 62
     2
  5
334
 10
329.649144
 20
485.212636
 30
0.0
 11
334.587644
 21
490.151135
 31
0.0
  0
LINE
  8
LC-005-005-----0
 62
     2
  5
335
 10
251.226923
 20
409.618842
 30
0.0
 11
253.99456
 21
412.386479
 31
0.0
  0
LINE
  8
LC-005-005-----0
 62
     2
  5
336
 10
301.543853
 20
459.935772
 30
0.0
 11
308.250777
 21
466.642696
 31
0.0
  0
LINE
  8
LC-005-005-----0
 62
     2
  5
337
 10
310.242471
 20
468.63439
 30
0.0
 11
312.993853
 21
471.385772
 31
0.0
  0
LINE
  8
LC-005-005-----0
 62
     2
  5
338
 10
326.608064
 20
484.999983
 30
0.0
 11
329.841493
 21
488.233412
 31
0.0
  0
LINE
  8
LC-005-005-----0
 62
     2
  5
339
 10
251.251823
 20
412.472169
 30
0.0
 11
253.99456
 21
415.214906
 31
0.0
  0
LINE
  8
LC-005-005-----0
 62
     2
  5
33A
 10
300.589929
 20
461.810275
 30
0.0
 11
301.076274
 21
462.29662
 31
0.0
  0
LINE
  8
LC-005-005-----0
 62
     2
  5
33B
 10
301.543853
 20
462.764199
 30
0.0
 11
305.42235
 21
466.642696
 31
0.0
  0
LINE
  8
LC-005-005-----0
 62
     2
  5
33C
 10
310.242471
 20
471.462817
 30
0.0
 11
313.119168
 21
474.339514
 31
0.0
  0
LINE
  8
LC-005-005-----0
 62
     2
  5
33D
 10
314.297035
 20
475.517381
 30
0.0
 11
318.321285
 21
479.541631
 31
0.0
  0
LINE
  8
LC-005-005-----0
 62
     2
  5
33E
 10
323.566984
 20
484.78733
 30
0.0
 11
326.800413
 21
488.020759
 31
0.0
  0
LINE
  8
LC-005-005-----0
 62
     2
  5
33F
 10
251.276724
 20
415.325497
 30
0.0
 11
253.99456
 21
418.043333
 31
0.0
  0
LINE
  8
LC-005-005-----0
 62
     2
  5
340
 10
300.54533
 20
464.594103
 30
0.0
 11
302.593923
 21
466.642696
 31
0.0
  0
LINE
  8
LC-005-005-----0
 62
     2
  5
341
 10
310.242471
 20
474.291244
 30
0.0
 11
314.093923
 21
478.142696
 31
0.0
  0
LINE
  8
LC-005-005-----0
 62
     2
  5
342
 10
315.307451
 20
479.356224
 30
0.0
 11
318.477715
 21
482.526488
 31
0.0
  0
LINE
  8
LC-005-005-----0
 62
     2
  5
343
 10
320.525904
 20
484.574677
 30
0.0
 11
323.759333
 21
487.808106
 31
0.0
  0
LINE
  8
LC-005-005-----0
 62
     2
  5
344
 10
251.301625
 20
418.178825
 30
0.0
 11
253.99456
 21
420.87176
 31
0.0
  0
LINE
  8
LC-005-005-----0
 62
     2
  5
345
 10
310.242471
 20
477.119671
 30
0.0
 11
312.243853
 21
479.121053
 31
0.0
  0
LINE
  8
LC-005-005-----0
 62
     2
  5
346
 10
315.463881
 20
482.341081
 30
0.0
 11
320.718253
 21
487.595453
 31
0.0
  0
LINE
  8
LC-005-005-----0
 62
     2
  5
347
 10
251.326525
 20
421.032153
 30
0.0
 11
253.99456
 21
423.700187
 31
0.0
  0
LINE
  8
LC-005-005-----0
 62
     2
  5
348
 10
310.242471
 20
479.948099
 30
0.0
 11
312.243853
 21
481.94948
 31
0.0
  0
LINE
  8
LC-005-005-----0
 62
     2
  5
349
 10
315.620311
 20
485.325938
 30
0.0
 11
317.677173
 21
487.382801
 31
0.0
  0
LINE
  8
LC-005-005-----0
 62
     2
  5
34A
 10
251.351426
 20
423.88548
 30
0.0
 11
253.99456
 21
426.528614
 31
0.0
  0
LINE
  8
LC-005-005-----0
 62
     2
  5
34B
 10
310.242471
 20
482.776526
 30
0.0
 11
311.612209
 21
484.146263
 31
0.0
  0
LINE
  8
LC-005-005-----0
 62
     2
  5
34C
 10
251.376326
 20
426.738808
 30
0.0
 11
253.99456
 21
429.357042
 31
0.0
  0
LINE
  8
LC-005-005-----0
 62
     2
  5
34D
 10
251.401227
 20
429.592136
 30
0.0
 11
253.99456
 21
432.185469
 31
0.0
  0
LINE
  8
LC-005-005-----0
 62
     2
  5
34E
 10
251.426128
 20
432.445464
 30
0.0
 11
253.99456
 21
435.013896
 31
0.0
  0
LINE
  8
LC-005-005-----0
 62
     2
  5
34F
 10
251.451028
 20
435.298791
 30
0.0
 11
253.99456
 21
437.842323
 31
0.0
  0
LINE
  8
LC-005-005-----0
 62
     2
  5
350
 10
251.475929
 20
438.152119
 30
0.0
 11
253.99456
 21
440.67075
 31
0.0
  0
LINE
  8
LC-005-005-----0
 62
     2
  5
351
 10
251.500829
 20
441.005447
 30
0.0
 11
253.99456
 21
443.499177
 31
0.0
  0
LINE
  8
LC-005-005-----0
 62
     2
  5
352
 10
251.52573
 20
443.858775
 30
0.0
 11
253.99456
 21
446.327604
 31
0.0
  0
LINE
  8
LC-005-005-----0
 62
     2
  5
353
 10
251.550631
 20
446.712102
 30
0.0
 11
253.99456
 21
449.156031
 31
0.0
  0
LINE
  8
LC-005-005-----0
 62
     2
  5
354
 10
251.575531
 20
449.56543
 30
0.0
 11
253.99456
 21
451.984459
 31
0.0
  0
LINE
  8
LC-005-005-----0
 62
     2
  5
355
 10
251.600432
 20
452.418758
 30
0.0
 11
253.99456
 21
454.812886
 31
0.0
  0
LINE
  8
LC-005-005-----0
 62
     2
  5
356
 10
251.625332
 20
455.272085
 30
0.0
 11
253.99456
 21
457.641313
 31
0.0
  0
LINE
  8
LC-005-005-----0
 62
     2
  5
357
 10
250.995064
 20
457.470244
 30
0.0
 11
251.517516
 21
457.992696
 31
0.0
  0
ENDBLK
  8
0
  5
358
  0
BLOCK
  8
0
  5
35E
  2
*D9
 70
    65
 10
0.0
 20
0.0
 30
0.0
  3
*D9
  0
LINE
  8
LC-006-003-MTH-0
 62
     2
  5
35F
 10
72.742817
 20
490.84338
 30
0.0
 11
72.742817
 21
577.389969
 31
0.0
  0
LINE
  8
LC-006-003-MTH-0
 62
     2
  5
360
 10
374.254017
 20
490.84338
 30
0.0
 11
374.254017
 21
577.389969
 31
0.0
  0
LINE
  8
LC-008-003-MTG-0
 62
     2
  5
361
 10
72.742817
 20
560.589969
 30
0.0
 11
179.921884
 21
560.589969
 31
0.0
  0
LINE
  8
LC-008-003-MTG-0
 62
     2
  5
362
 10
281.568817
 20
560.589969
 30
0.0
 11
374.254017
 21
560.589969
 31
0.0
  0
LINE
  8
LC-007-003-----0
 62
     2
  5
363
 10
100.503273
 20
564.244703
 30
0.0
 11
72.742817
 21
560.589969
 31
0.0
  0
LINE
  8
LC-007-003-----0
 62
     2
  5
364
 10
72.742817
 20
560.589969
 30
0.0
 11
100.503273
 21
556.935236
 31
0.0
  0
LINE
  8
LC-007-003-----0
 62
     2
  5
365
 10
100.503273
 20
556.935236
 30
0.0
 11
100.503273
 21
564.244703
 31
0.0
  0
LINE
  8
LC-007-003-----0
 62
     2
  5
366
 10
100.565554
 20
563.294472
 30
0.0
 11
80.022817
 21
560.589969
 31
0.0
  0
LINE
  8
LC-007-003-----0
 62
     2
  5
367
 10
80.022817
 20
560.589969
 30
0.0
 11
100.565554
 21
557.885467
 31
0.0
  0
LINE
  8
LC-007-003-----0
 62
     2
  5
368
 10
100.627836
 20
562.344241
 30
0.0
 11
87.302817
 21
560.589969
 31
0.0
  0
LINE
  8
LC-007-003-----0
 62
     2
  5
369
 10
87.302817
 20
560.589969
 30
0.0
 11
100.627836
 21
558.835697
 31
0.0
  0
LINE
  8
LC-007-003-----0
 62
     2
  5
36A
 10
100.690117
 20
561.394011
 30
0.0
 11
94.582817
 21
560.589969
 31
0.0
  0
LINE
  8
LC-007-003-----0
 62
     2
  5
36B
 10
94.582817
 20
560.589969
 30
0.0
 11
100.690117
 21
559.785928
 31
0.0
  0
LINE
  8
LC-007-003-----0
 62
     2
  5
36C
 10
346.493561
 20
556.935236
 30
0.0
 11
374.254017
 21
560.589969
 31
0.0
  0
LINE
  8
LC-007-003-----0
 62
     2
  5
36D
 10
374.254017
 20
560.589969
 30
0.0
 11
346.493561
 21
564.244703
 31
0.0
  0
LINE
  8
LC-007-003-----0
 62
     2
  5
36E
 10
346.493561
 20
564.244703
 30
0.0
 11
346.493561
 21
556.935236
 31
0.0
  0
LINE
  8
LC-007-003-----0
 62
     2
  5
36F
 10
346.43128
 20
557.885467
 30
0.0
 11
366.974017
 21
560.589969
 31
0.0
  0
LINE
  8
LC-007-003-----0
 62
     2
  5
370
 10
366.974017
 20
560.589969
 30
0.0
 11
346.43128
 21
563.294472
 31
0.0
  0
LINE
  8
LC-007-003-----0
 62
     2
  5
371
 10
346.368998
 20
558.835697
 30
0.0
 11
359.694017
 21
560.589969
 31
0.0
  0
LINE
  8
LC-007-003-----0
 62
     2
  5
372
 10
359.694017
 20
560.589969
 30
0.0
 11
346.368998
 21
562.344241
 31
0.0
  0
LINE
  8
LC-007-003-----0
 62
     2
  5
373
 10
346.306717
 20
559.785928
 30
0.0
 11
352.414017
 21
560.589969
 31
0.0
  0
LINE
  8
LC-007-003-----0
 62
     2
  5
374
 10
352.414017
 20
560.589969
 30
0.0
 11
346.306717
 21
561.394011
 31
0.0
  0
TEXT
  8
LC-007-003-----0
 62
     8
  5
375
 10
157.19719
 20
563.008339
 30
0.0
 40
28.0
  1
%%c300
 41
0.9
 51
15.0
  7
LCTX15-400-0-0-ARIAL
 72
     1
 11
226.39719
 21
563.008339
 31
0.0
  0
ENDBLK
  8
0
  5
376
  0
BLOCK
  8
0
  5
379
  2
*D10
 70
    65
 10
0.0
 20
0.0
 30
0.0
  3
*D10
  0
LINE
  8
LC-006-003-MTH-0
 62
     2
  5
37A
 10
128.480657
 20
483.113192
 30
0.0
 11
128.481451
 21
530.114866
 31
0.0
  0
LINE
  8
LC-006-003-MTH-0
 62
     2
  5
37B
 10
318.516009
 20
483.109983
 30
0.0
 11
318.516802
 21
530.111657
 31
0.0
  0
LINE
  8
LC-008-003-MTG-0
 62
     2
  5
37C
 10
128.481167
 20
513.314866
 30
0.0
 11
179.92231
 21
513.313998
 31
0.0
  0
LINE
  8
LC-008-003-MTG-0
 62
     2
  5
37D
 10
281.569243
 20
513.312281
 30
0.0
 11
318.516519
 21
513.311657
 31
0.0
  0
LINE
  8
LC-007-003-----0
 62
     2
  5
37E
 10
156.241685
 20
516.969131
 30
0.0
 11
128.481167
 21
513.314866
 31
0.0
  0
LINE
  8
LC-007-003-----0
 62
     2
  5
37F
 10
128.481167
 20
513.314866
 30
0.0
 11
156.241561
 21
509.659664
 31
0.0
  0
LINE
  8
LC-007-003-----0
 62
     2
  5
380
 10
156.241561
 20
509.659664
 30
0.0
 11
156.241685
 21
516.969131
 31
0.0
  0
LINE
  8
LC-007-003-----0
 62
     2
  5
381
 10
156.30395
 20
516.018899
 30
0.0
 11
135.761167
 21
513.314743
 31
0.0
  0
LINE
  8
LC-007-003-----0
 62
     2
  5
382
 10
135.761167
 20
513.314743
 30
0.0
 11
156.303859
 21
510.609894
 31
0.0
  0
LINE
  8
LC-007-003-----0
 62
     2
  5
383
 10
156.366216
 20
515.068667
 30
0.0
 11
143.041167
 21
513.31462
 31
0.0
  0
LINE
  8
LC-007-003-----0
 62
     2
  5
384
 10
143.041167
 20
513.31462
 30
0.0
 11
156.366156
 21
511.560123
 31
0.0
  0
LINE
  8
LC-007-003-----0
 62
     2
  5
385
 10
156.428481
 20
514.118436
 30
0.0
 11
150.321167
 21
513.314497
 31
0.0
  0
LINE
  8
LC-007-003-----0
 62
     2
  5
386
 10
150.321167
 20
513.314497
 30
0.0
 11
156.428454
 21
512.510353
 31
0.0
  0
LINE
  8
LC-007-003-----0
 62
     2
  5
387
 10
290.756001
 20
509.657393
 30
0.0
 11
318.516519
 21
513.311657
 31
0.0
  0
LINE
  8
LC-007-003-----0
 62
     2
  5
388
 10
318.516519
 20
513.311657
 30
0.0
 11
290.756124
 21
516.96686
 31
0.0
  0
LINE
  8
LC-007-003-----0
 62
     2
  5
389
 10
290.756124
 20
516.96686
 30
0.0
 11
290.756001
 21
509.657393
 31
0.0
  0
LINE
  8
LC-007-003-----0
 62
     2
  5
38A
 10
290.693736
 20
510.607625
 30
0.0
 11
311.236519
 21
513.31178
 31
0.0
  0
LINE
  8
LC-007-003-----0
 62
     2
  5
38B
 10
311.236519
 20
513.31178
 30
0.0
 11
290.693827
 21
516.01663
 31
0.0
  0
LINE
  8
LC-007-003-----0
 62
     2
  5
38C
 10
290.63147
 20
511.557856
 30
0.0
 11
303.956519
 21
513.311903
 31
0.0
  0
LINE
  8
LC-007-003-----0
 62
     2
  5
38D
 10
303.956519
 20
513.311903
 30
0.0
 11
290.631529
 21
515.0664
 31
0.0
  0
LINE
  8
LC-007-003-----0
 62
     2
  5
38E
 10
290.569205
 20
512.508088
 30
0.0
 11
296.676519
 21
513.312026
 31
0.0
  0
LINE
  8
LC-007-003-----0
 62
     2
  5
38F
 10
296.676519
 20
513.312026
 30
0.0
 11
290.569232
 21
514.116171
 31
0.0
  0
TEXT
  8
LC-007-003-----0
 62
     8
  5
390
 10
157.197673
 20
515.732809
 30
0.0
 40
28.0
  1
%%c190
 50
359.999033
 41
0.9
 51
15.0
  7
LCTX15-400-0-0-ARIAL
 72
     1
 11
226.397673
 21
515.73164
 31
0.0
  0
ENDBLK
  8
0
  5
391
  0
BLOCK
  8
0
  5
394
  2
*D11
 70
    65
 10
0.0
 20
0.0
 30
0.0
  3
*D11
  0
LINE
  8
LC-006-003-MTH-0
 62
     2
  5
395
 10
154.99456
 20
379.992696
 30
0.0
 11
45.301713
 21
379.992696
 31
0.0
  0
LINE
  8
LC-006-003-MTH-0
 62
     2
  5
396
 10
72.742817
 20
487.842923
 30
0.0
 11
45.301713
 21
487.842923
 31
0.0
  0
LINE
  8
LC-008-003-MTG-0
 62
     2
  5
397
 10
62.101713
 20
379.992696
 30
0.0
 11
62.101713
 21
402.341276
 31
0.0
  0
LINE
  8
LC-008-003-MTG-0
 62
     2
  5
398
 10
62.101713
 20
479.988209
 30
0.0
 11
62.101713
 21
487.842923
 31
0.0
  0
LINE
  8
LC-007-003-----0
 62
     2
  5
399
 10
59.159466
 20
402.341276
 30
0.0
 11
62.101713
 21
379.992696
 31
0.0
  0
LINE
  8
LC-007-003-----0
 62
     2
  5
39A
 10
62.101713
 20
379.992696
 30
0.0
 11
65.043959
 21
402.341276
 31
0.0
  0
LINE
  8
LC-007-003-----0
 62
     2
  5
39B
 10
60.117897
 20
402.341276
 30
0.0
 11
62.101713
 21
387.272696
 31
0.0
  0
LINE
  8
LC-007-003-----0
 62
     2
  5
39C
 10
62.101713
 20
387.272696
 30
0.0
 11
64.085529
 21
402.341276
 31
0.0
  0
LINE
  8
LC-007-003-----0
 62
     2
  5
39D
 10
61.076327
 20
402.341276
 30
0.0
 11
62.101713
 21
394.552696
 31
0.0
  0
LINE
  8
LC-007-003-----0
 62
     2
  5
39E
 10
62.101713
 20
394.552696
 30
0.0
 11
63.127099
 21
402.341276
 31
0.0
  0
LINE
  8
LC-007-003-----0
 62
     2
  5
39F
 10
62.034757
 20
402.341276
 30
0.0
 11
62.101713
 21
401.832696
 31
0.0
  0
LINE
  8
LC-007-003-----0
 62
     2
  5
3A0
 10
62.101713
 20
401.832696
 30
0.0
 11
62.168669
 21
402.341276
 31
0.0
  0
LINE
  8
LC-007-003-----0
 62
     2
  5
3A1
 10
63.135805
 20
479.988209
 30
0.0
 11
62.101713
 21
487.842923
 31
0.0
  0
LINE
  8
LC-007-003-----0
 62
     2
  5
3A2
 10
62.101713
 20
487.842923
 30
0.0
 11
61.06762
 21
479.988209
 31
0.0
  0
LINE
  8
LC-007-003-----0
 62
     2
  5
3A3
 10
62.177375
 20
479.988209
 30
0.0
 11
62.101713
 21
480.562923
 31
0.0
  0
LINE
  8
LC-007-003-----0
 62
     2
  5
3A4
 10
62.101713
 20
480.562923
 30
0.0
 11
62.02605
 21
479.988209
 31
0.0
  0
TEXT
  8
LC-007-003-----0
 62
     8
  5
3A5
 10
54.274159
 20
403.065969
 30
0.0
 40
28.0
  1
110
 50
90.0
 41
0.9
 51
15.0
  7
LCTX15-400-0-0-ARIAL
 72
     1
 11
54.274159
 21
438.265969
 31
0.0
  0
ENDBLK
  8
0
  5
3A6
  0
BLOCK
  8
0
  5
3A9
  2
*D12
 70
    65
 10
0.0
 20
0.0
 30
0.0
  3
*D12
  0
LINE
  8
LC-006-003-MTH-0
 62
     2
  5
3AA
 10
184.49456
 20
269.992692
 30
0.0
 11
45.301713
 21
269.992692
 31
0.0
  0
LINE
  8
LC-006-003-MTH-0
 62
     2
  5
3AB
 10
154.99456
 20
379.992696
 30
0.0
 11
45.301713
 21
379.992696
 31
0.0
  0
LINE
  8
LC-008-003-MTG-0
 62
     2
  5
3AC
 10
62.101713
 20
269.992692
 30
0.0
 11
62.101713
 21
293.416161
 31
0.0
  0
LINE
  8
LC-008-003-MTG-0
 62
     2
  5
3AD
 10
62.101713
 20
371.063094
 30
0.0
 11
62.101713
 21
379.992696
 31
0.0
  0
LINE
  8
LC-007-003-----0
 62
     2
  5
3AE
 10
59.017955
 20
293.416161
 30
0.0
 11
62.101713
 21
269.992692
 31
0.0
  0
LINE
  8
LC-007-003-----0
 62
     2
  5
3AF
 10
62.101713
 20
269.992692
 30
0.0
 11
65.185471
 21
293.416161
 31
0.0
  0
LINE
  8
LC-007-003-----0
 62
     2
  5
3B0
 10
59.976385
 20
293.416161
 30
0.0
 11
62.101713
 21
277.272692
 31
0.0
  0
LINE
  8
LC-007-003-----0
 62
     2
  5
3B1
 10
62.101713
 20
277.272692
 30
0.0
 11
64.227041
 21
293.416161
 31
0.0
  0
LINE
  8
LC-007-003-----0
 62
     2
  5
3B2
 10
60.934815
 20
293.416161
 30
0.0
 11
62.101713
 21
284.552692
 31
0.0
  0
LINE
  8
LC-007-003-----0
 62
     2
  5
3B3
 10
62.101713
 20
284.552692
 30
0.0
 11
63.268611
 21
293.416161
 31
0.0
  0
LINE
  8
LC-007-003-----0
 62
     2
  5
3B4
 10
61.893245
 20
293.416161
 30
0.0
 11
62.101713
 21
291.832692
 31
0.0
  0
LINE
  8
LC-007-003-----0
 62
     2
  5
3B5
 10
62.101713
 20
291.832692
 30
0.0
 11
62.31018
 21
293.416161
 31
0.0
  0
LINE
  8
LC-007-003-----0
 62
     2
  5
3B6
 10
63.277317
 20
371.063094
 30
0.0
 11
62.101713
 21
379.992696
 31
0.0
  0
LINE
  8
LC-007-003-----0
 62
     2
  5
3B7
 10
62.101713
 20
379.992696
 30
0.0
 11
60.926108
 21
371.063094
 31
0.0
  0
LINE
  8
LC-007-003-----0
 62
     2
  5
3B8
 10
62.318887
 20
371.063094
 30
0.0
 11
62.101713
 21
372.712696
 31
0.0
  0
LINE
  8
LC-007-003-----0
 62
     2
  5
3B9
 10
62.101713
 20
372.712696
 30
0.0
 11
61.884539
 21
371.063094
 31
0.0
  0
TEXT
  8
LC-007-003-----0
 62
     8
  5
3BA
 10
54.274159
 20
294.140854
 30
0.0
 40
28.0
  1
110
 50
90.0
 41
0.9
 51
15.0
  7
LCTX15-400-0-0-ARIAL
 72
     1
 11
54.274159
 21
329.340854
 31
0.0
  0
ENDBLK
  8
0
  5
3BB
  0
BLOCK
  8
0
  5
3BE
  2
*D13
 70
    65
 10
0.0
 20
0.0
 30
0.0
  3
*D13
  0
LINE
  8
LC-006-003-MTH-0
 62
     2
  5
3BF
 10
181.96342
 20
408.492693
 30
0.0
 11
103.542619
 21
408.492693
 31
0.0
  0
LINE
  8
LC-006-003-MTH-0
 62
     2
  5
3C0
 10
192.205702
 20
457.992696
 30
0.0
 11
125.942619
 21
457.992696
 31
0.0
  0
LINE
  8
LC-007-003-----0
 62
     2
  5
3C1
 10
123.997352
 20
380.732237
 30
0.0
 11
120.342619
 21
408.492693
 31
0.0
  0
LINE
  8
LC-007-003-----0
 62
     2
  5
3C2
 10
120.342619
 20
408.492693
 30
0.0
 11
116.687885
 21
380.732237
 31
0.0
  0
LINE
  8
LC-007-003-----0
 62
     2
  5
3C3
 10
116.687885
 20
380.732237
 30
0.0
 11
123.997352
 21
380.732237
 31
0.0
  0
LINE
  8
LC-007-003-----0
 62
     2
  5
3C4
 10
123.047122
 20
380.669956
 30
0.0
 11
120.342619
 21
401.212693
 31
0.0
  0
LINE
  8
LC-007-003-----0
 62
     2
  5
3C5
 10
120.342619
 20
401.212693
 30
0.0
 11
117.638116
 21
380.669956
 31
0.0
  0
LINE
  8
LC-007-003-----0
 62
     2
  5
3C6
 10
122.096891
 20
380.607674
 30
0.0
 11
120.342619
 21
393.932693
 31
0.0
  0
LINE
  8
LC-007-003-----0
 62
     2
  5
3C7
 10
120.342619
 20
393.932693
 30
0.0
 11
118.588347
 21
380.607674
 31
0.0
  0
LINE
  8
LC-007-003-----0
 62
     2
  5
3C8
 10
121.14666
 20
380.545393
 30
0.0
 11
120.342619
 21
386.652693
 31
0.0
  0
LINE
  8
LC-007-003-----0
 62
     2
  5
3C9
 10
120.342619
 20
386.652693
 30
0.0
 11
119.538578
 21
380.545393
 31
0.0
  0
LINE
  8
LC-007-003-----0
 62
     2
  5
3CA
 10
116.687885
 20
485.753152
 30
0.0
 11
119.37887
 21
465.313094
 31
0.0
  0
LINE
  8
LC-007-003-----0
 62
     2
  5
3CB
 10
121.306368
 20
465.313094
 30
0.0
 11
123.997352
 21
485.753152
 31
0.0
  0
LINE
  8
LC-007-003-----0
 62
     2
  5
3CC
 10
123.997352
 20
485.753152
 30
0.0
 11
116.687885
 21
485.753152
 31
0.0
  0
LINE
  8
LC-007-003-----0
 62
     2
  5
3CD
 10
117.638116
 20
485.815433
 30
0.0
 11
120.3373
 21
465.313094
 31
0.0
  0
LINE
  8
LC-007-003-----0
 62
     2
  5
3CE
 10
120.347937
 20
465.313094
 30
0.0
 11
123.047122
 21
485.815433
 31
0.0
  0
LINE
  8
LC-007-003-----0
 62
     2
  5
3CF
 10
118.588347
 20
485.877715
 30
0.0
 11
120.342619
 21
472.552696
 31
0.0
  0
LINE
  8
LC-007-003-----0
 62
     2
  5
3D0
 10
120.342619
 20
472.552696
 30
0.0
 11
122.096891
 21
485.877715
 31
0.0
  0
LINE
  8
LC-007-003-----0
 62
     2
  5
3D1
 10
119.538578
 20
485.939996
 30
0.0
 11
120.342619
 21
479.832696
 31
0.0
  0
LINE
  8
LC-007-003-----0
 62
     2
  5
3D2
 10
120.342619
 20
479.832696
 30
0.0
 11
121.14666
 21
485.939996
 31
0.0
  0
LINE
  8
LC-008-003-MTG-0
 62
     2
  5
3D3
 10
120.342619
 20
369.292693
 30
0.0
 11
120.342619
 21
415.666161
 31
0.0
  0
LINE
  8
LC-008-003-MTG-0
 62
     2
  5
3D4
 10
120.342619
 20
465.313094
 30
0.0
 11
120.342619
 21
497.192696
 31
0.0
  0
TEXT
  8
LC-007-003-----0
 62
     8
  5
3D5
 10
112.515065
 20
416.390854
 30
0.0
 40
28.0
  1
50
 50
90.0
 41
0.6
 51
15.0
  7
LCTX15-400-0-0-ARIAL
 72
     1
 11
112.515065
 21
437.590854
 31
0.0
  0
ENDBLK
  8
0
  5
3D6
  0
ENDSEC
  0
SECTION
  2
ENTITIES
  0
VIEWPORT
  8
LC-VIEWPORT
  5
3D8
 67
     1
 68
     1
 10
420.0
 20
297.0
 30
0.0
 40
840.0
 41
594.0
 69
     1
1001
ACAD
1000
MVIEW
1002
{
1070
    16
1010
0.0
1020
0.0
1030
0.0
1010
0.0
1020
0.0
1030
1.0
1040
0.0
1040
594.0
1040
420.0
1040
297.0
1040
50.0
1040
0.0
1040
0.0
1070
     0
1070
   100
1070
     1
1070
     1
1070
     0
1070
     0
1070
     0
1070
     0
1040
0.0
1040
0.0
1040
0.0
1040
1.0
1040
1.0
1040
0.0
1040
0.0
1070
     0
1002
{
1002
}
1002
}
  0
LINE
  8
LC-001-002-----0
 62
     1
  5
26
 10
220.464
 20
485.553248
 30
0.0
 11
226.462832
 21
485.553248
 31
0.0
  0
LINE
  8
LC-001-002-----0
 62
     1
  5
27
 10
72.742817
 20
490.84338
 30
0.0
 11
113.398417
 21
490.133734
 31
0.0
  0
LINE
  8
LC-001-002-----0
 62
     1
  5
28
 10
240.174805
 20
457.992696
 30
0.0
 11
240.174805
 21
478.492867
 31
0.0
  0
LINE
  8
LC-001-002-----0
 62
     1
  5
29
 10
72.742817
 20
487.842923
 30
0.0
 11
112.29813
 21
487.152482
 31
0.0
  0
LINE
  8
LC-001-002-----0
 62
     1
  5
2A
 10
374.254017
 20
490.84338
 30
0.0
 11
333.598417
 21
490.133734
 31
0.0
  0
LINE
  8
LC-001-002-----0
 62
     1
  5
2B
 10
248.49456
 20
378.992871
 30
0.0
 11
248.49456
 21
347.489984
 31
0.0
  0
LINE
  8
LC-001-002-----0
 62
     1
  5
2C
 10
192.99456
 20
457.992696
 30
0.0
 11
195.49456
 21
457.992696
 31
0.0
  0
LINE
  8
LC-001-002-----0
  6
DASHDOT
 62
     2
  5
2E
 10
223.49456
 20
269.992692
 30
0.0
 11
223.498417
 21
490.84338
 31
0.0
  0
LINE
  8
LC-001-002-----0
 62
     1
  5
2F
 10
251.49456
 20
456.992696
 30
0.0
 11
238.013969
 21
456.992696
 31
0.0
  0
LINE
  8
LC-001-002-----0
 62
     1
  5
30
 10
72.742817
 20
490.84338
 30
0.0
 11
374.254017
 21
490.84338
 31
0.0
  0
LINE
  8
LC-001-002-----0
 62
     1
  5
31
 10
258.49456
 20
379.992864
 30
0.0
 11
250.498561
 21
379.99287
 31
0.0
  0
LINE
  8
LC-001-002-----0
 62
     1
  5
32
 10
184.49456
 20
379.99269
 30
0.0
 11
154.99456
 21
379.992696
 31
0.0
  0
ARC
  8
LC-002-002-RND-0
 62
     1
  5
34
 10
116.045192
 20
490.315385
 30
0.0
 40
2.0
 50
225.0
 51
266.000003
  0
LINE
  8
LC-001-002-----0
 62
     1
  5
35
 10
374.254017
 20
487.842923
 30
0.0
 11
334.698704
 21
487.152482
 31
0.0
  0
ARC
  8
LC-002-002-RND-0
 62
     1
  5
36
 10
330.951642
 20
490.315385
 30
0.0
 40
2.0
 50
273.999997
 51
315.0
  0
LINE
  8
LC-001-002-----0
 62
     1
  5
37
 10
310.250185
 20
477.646263
 30
0.0
 11
310.250185
 21
484.146263
 31
0.0
  0
LINE
  8
LC-001-002-----0
 62
     1
  5
38
 10
312.250185
 20
484.146263
 30
0.0
 11
310.251567
 21
484.146263
 31
0.0
  0
LINE
  8
LC-001-002-----0
 62
     1
  5
39
 10
312.250185
 20
478.146263
 30
0.0
 11
312.250185
 21
484.146263
 31
0.0
  0
LINE
  8
LC-001-002-----0
 62
     1
  5
3A
 10
314.250185
 20
478.146263
 30
0.0
 11
312.250185
 21
478.146263
 31
0.0
  0
LINE
  8
LC-001-002-----0
 62
     1
  5
3B
 10
301.551567
 20
465.842696
 30
0.0
 11
301.351567
 21
465.842696
 31
0.0
  0
LINE
  8
LC-001-002-----0
 62
     1
  5
3C
 10
310.251567
 20
467.142696
 30
0.0
 11
310.251567
 21
484.142696
 31
0.0
  0
LINE
  8
LC-001-002-----0
 62
     1
  5
3D
 10
310.250185
 20
477.927328
 30
0.0
 11
310.250185
 21
477.927328
 31
0.0
  0
LINE
  8
LC-001-002-----0
 62
     1
  5
3E
 10
301.551567
 20
462.342696
 30
0.0
 11
301.551567
 21
463.842696
 31
0.0
  0
LINE
  8
LC-001-002-----0
 62
     1
  5
3F
 10
301.551567
 20
458.892696
 30
0.0
 11
301.551567
 21
459.392696
 31
0.0
  0
LINE
  8
LC-001-002-----0
 62
     1
  5
40
 10
301.551567
 20
457.392696
 30
0.0
 11
301.551567
 21
460.342696
 31
0.0
  0
LINE
  8
LC-001-002-----0
 62
     1
  5
41
 10
301.551567
 20
457.392696
 30
0.0
 11
300.993853
 21
457.392696
 31
0.0
  0
LINE
  8
LC-001-002-----0
 62
     1
  5
42
 10
301.551567
 20
460.342696
 30
0.0
 11
301.351567
 21
460.342696
 31
0.0
  0
ARC
  8
LC-002-002-RND-0
 62
     1
  5
43
 10
301.351567
 20
465.042696
 30
0.0
 40
0.8
 50
90.0
 51
180.0
  0
ARC
  8
LC-002-002-RND-0
 62
     1
  5
44
 10
301.351567
 20
461.542696
 30
0.0
 40
0.8
 50
90.0
 51
180.0
  0
LINE
  8
LC-001-002-----0
 62
     1
  5
45
 10
300.551567
 20
461.142696
 30
0.0
 11
300.551567
 21
461.542696
 31
0.0
  0
LINE
  8
LC-001-002-----0
 62
     1
  5
46
 10
300.551567
 20
464.642696
 30
0.0
 11
300.551567
 21
465.042696
 31
0.0
  0
ARC
  8
LC-002-002-RND-0
 62
     1
  5
47
 10
301.351567
 20
461.142696
 30
0.0
 40
0.8
 50
180.0
 51
270.0
  0
ARC
  8
LC-002-002-RND-0
 62
     1
  5
48
 10
301.351567
 20
464.642696
 30
0.0
 40
0.8
 50
180.0
 51
270.0
  0
LINE
  8
LC-001-002-----0
 62
     1
  5
49
 10
301.551567
 20
463.842696
 30
0.0
 11
301.351567
 21
463.842696
 31
0.0
  0
ARC
  8
LC-002-002-RND-0
 62
     1
  5
4A
 10
309.751567
 20
467.142696
 30
0.0
 40
0.5
 50
270.0
 51
0.0
  0
LINE
  8
LC-001-002-----0
 62
     1
  5
4B
 10
331.091154
 20
488.320257
 30
0.0
 11
315.728652
 21
487.246007
 31
0.0
  0
ARC
  8
LC-002-002-RND-0
 62
     1
  5
4C
 10
314.302603
 20
479.142696
 30
0.0
 40
1.0
 50
270.0
 51
357.0
  0
LINE
  8
LC-001-002-----0
 62
     1
  5
4D
 10
315.728652
 20
487.246007
 30
0.0
 11
315.301232
 21
479.09036
 31
0.0
  0
LINE
  8
LC-001-002-----0
 62
     1
  5
4E
 10
374.254017
 20
490.84338
 30
0.0
 11
374.254017
 21
487.842923
 31
0.0
  0
LINE
  8
LC-001-002-----0
 62
     1
  5
4F
 10
318.516009
 20
483.109983
 30
0.0
 11
318.27366
 21
478.485688
 31
0.0
  0
LINE
  8
LC-001-002-----0
 62
     1
  5
50
 10
334.698704
 20
487.152482
 30
0.0
 11
332.992079
 21
485.445857
 31
0.0
  0
LINE
  8
LC-001-002-----0
 62
     1
  5
51
 10
301.551567
 20
462.342696
 30
0.0
 11
301.351567
 21
462.342696
 31
0.0
  0
ARC
  8
LC-003-001-RND-0
 62
     1
  5
53
 10
319.987821
 20
483.032849
 30
0.0
 40
1.5
 50
93.999997
 51
177.0
  0
LINE
  8
LC-001-002-----0
 62
     1
  5
54
 10
313.001567
 20
467.642696
 30
0.0
 11
303.74456
 21
454.422319
 31
0.0
  0
LINE
  8
LC-001-002-----0
 62
     1
  5
55
 10
315.277771
 20
475.642696
 30
0.0
 11
315.001567
 21
475.642696
 31
0.0
  0
LINE
  8
LC-001-002-----0
 62
     1
  5
56
 10
136.746649
 20
467.179844
 30
0.0
 11
136.746649
 21
484.146263
 31
0.0
  0
LINE
  8
LC-004-001-----0
 62
     1
  5
58
 10
332.992079
 20
485.445857
 30
0.0
 11
319.883186
 21
484.529195
 31
0.0
  0
ARC
  8
LC-002-002-RND-0
 62
     1
  5
59
 10
315.277771
 20
478.642696
 30
0.0
 40
3.0
 50
270.0
 51
357.0
  0
LINE
  8
LC-001-002-----0
 62
     1
  5
5A
 10
134.745267
 20
484.146263
 30
0.0
 11
136.746649
 21
484.146263
 31
0.0
  0
ARC
  8
LC-002-002-RND-0
 62
     1
  5
5B
 10
315.001567
 20
473.642696
 30
0.0
 40
2.0
 50
90.0
 51
180.0
  0
LINE
  8
LC-001-002-----0
 62
     1
  5
5C
 10
313.001567
 20
467.642696
 30
0.0
 11
313.001567
 21
473.642696
 31
0.0
  0
LINE
  8
LC-001-002-----0
 62
     1
  5
5D
 10
301.551567
 20
458.892696
 30
0.0
 11
301.551567
 21
458.892696
 31
0.0
  0
LINE
  8
LC-001-002-----0
 62
     1
  5
5E
 10
309.751567
 20
466.642696
 30
0.0
 11
302.351567
 21
466.642696
 31
0.0
  0
LINE
  8
LC-001-002-----0
 62
     1
  5
5F
 10
310.251567
 20
468.142696
 30
0.0
 11
310.251567
 21
469.442078
 31
0.0
  0
LINE
  8
LC-001-002-----0
 62
     1
  5
60
 10
312.251567
 20
484.142696
 30
0.0
 11
310.251567
 21
484.142696
 31
0.0
  0
LINE
  8
LC-001-002-----0
 62
     1
  5
61
 10
301.551567
 20
458.642696
 30
0.0
 11
301.551567
 21
459.142696
 31
0.0
  0
LINE
  8
LC-001-002-----0
 62
     1
  5
62
 10
301.551567
 20
458.842696
 30
0.0
 11
301.551567
 21
459.342696
 31
0.0
  0
LINE
  8
LC-001-002-----0
 62
     1
  5
63
 10
333.598417
 20
490.133734
 30
0.0
 11
332.365855
 21
488.901172
 31
0.0
  0
LINE
  8
LC-001-002-----0
 62
     1
  5
64
 10
301.551567
 20
458.892696
 30
0.0
 11
301.551567
 21
458.892696
 31
0.0
  0
ARC
  8
LC-002-002-RND-0
 62
     1
  5
65
 10
302.351567
 20
465.842696
 30
0.0
 40
0.8
 50
90.0
 51
180.0
  0
LINE
  8
LC-001-002-----0
 62
     1
  5
66
 10
301.551567
 20
465.842696
 30
0.0
 11
301.551567
 21
465.842696
 31
0.0
  0
LINE
  8
LC-001-002-----0
 62
     1
  5
67
 10
145.995267
 20
391.992696
 30
0.0
 11
145.995267
 21
457.392696
 31
0.0
  0
LINE
  8
LC-001-002-----0
 62
     1
  5
68
 10
245.494709
 20
364.992873
 30
0.0
 11
245.494719
 21
379.992698
 31
0.0
  0
LINE
  8
LC-001-002-----0
 62
     1
  5
69
 10
201.49456
 20
364.992696
 30
0.0
 11
201.49456
 21
379.992696
 31
0.0
  0
LINE
  8
LC-001-002-----0
 62
     1
  5
6A
 10
245.494684
 20
347.489986
 30
0.0
 11
245.494709
 21
364.992873
 31
0.0
  0
LINE
  8
LC-001-002-----0
 62
     1
  5
6B
 10
248.49456
 20
347.489984
 30
0.0
 11
223.49456
 21
347.49
 31
0.0
  0
LINE
  8
LC-001-002-----0
 62
     1
  5
6C
 10
145.445267
 20
465.842696
 30
0.0
 11
145.645267
 21
465.842696
 31
0.0
  0
LINE
  8
LC-001-002-----0
 62
     1
  5
6D
 10
136.746649
 20
477.927328
 30
0.0
 11
136.746649
 21
477.927328
 31
0.0
  0
LINE
  8
LC-001-002-----0
 62
     1
  5
6E
 10
145.445267
 20
462.342696
 30
0.0
 11
145.445267
 21
463.842696
 31
0.0
  0
LINE
  8
LC-001-002-----0
 62
     1
  5
6F
 10
145.445267
 20
458.892696
 30
0.0
 11
145.445267
 21
459.392696
 31
0.0
  0
LINE
  8
LC-001-002-----0
 62
     1
  5
70
 10
145.445267
 20
457.392696
 30
0.0
 11
145.445267
 21
460.342696
 31
0.0
  0
LINE
  8
LC-001-002-----0
 62
     1
  5
71
 10
145.445267
 20
457.392696
 30
0.0
 11
145.995267
 21
457.392696
 31
0.0
  0
LINE
  8
LC-001-002-----0
 62
     1
  5
72
 10
145.445267
 20
460.342696
 30
0.0
 11
145.645267
 21
460.342696
 31
0.0
  0
ARC
  8
LC-002-002-RND-0
 62
     1
  5
73
 10
145.645267
 20
465.042696
 30
0.0
 40
0.8
 50
0.0
 51
90.0
  0
ARC
  8
LC-002-002-RND-0
 62
     1
  5
74
 10
145.645267
 20
461.542696
 30
0.0
 40
0.8
 50
0.0
 51
90.0
  0
LINE
  8
LC-001-002-----0
 62
     1
  5
75
 10
146.445267
 20
461.142696
 30
0.0
 11
146.445267
 21
461.542696
 31
0.0
  0
LINE
  8
LC-001-002-----0
 62
     1
  5
76
 10
146.445267
 20
464.642696
 30
0.0
 11
146.445267
 21
465.042696
 31
0.0
  0
ARC
  8
LC-002-002-RND-0
 62
     1
  5
77
 10
145.645267
 20
461.142696
 30
0.0
 40
0.8
 50
270.0
 51
0.0
  0
ARC
  8
LC-002-002-RND-0
 62
     1
  5
78
 10
145.645267
 20
464.642696
 30
0.0
 40
0.8
 50
270.0
 51
0.0
  0
LINE
  8
LC-001-002-----0
 62
     1
  5
79
 10
145.445267
 20
463.842696
 30
0.0
 11
145.645267
 21
463.842696
 31
0.0
  0
ARC
  8
LC-002-002-RND-0
 62
     1
  5
7A
 10
137.245267
 20
467.142696
 30
0.0
 40
0.5
 50
180.0
 51
270.0
  0
LINE
  8
LC-001-002-----0
 62
     1
  5
7B
 10
115.90568
 20
488.320257
 30
0.0
 11
131.268182
 21
487.246007
 31
0.0
  0
LINE
  8
LC-001-002-----0
 62
     1
  5
7C
 10
132.694231
 20
478.142696
 30
0.0
 11
134.745267
 21
478.142696
 31
0.0
  0
ARC
  8
LC-002-002-RND-0
 62
     1
  5
7D
 10
132.694231
 20
479.142696
 30
0.0
 40
1.0
 50
183.0
 51
270.0
  0
LINE
  8
LC-001-002-----0
 62
     1
  5
7E
 10
300.993853
 20
391.992696
 30
0.0
 11
300.993853
 21
457.392696
 31
0.0
  0
LINE
  8
LC-001-002-----0
 62
     1
  5
7F
 10
134.745267
 20
478.142696
 30
0.0
 11
134.745267
 21
484.146263
 31
0.0
  0
LINE
  8
LC-001-002-----0
 62
     1
  5
80
 10
131.268182
 20
487.246007
 30
0.0
 11
131.695602
 21
479.09036
 31
0.0
  0
LINE
  8
LC-001-002-----0
 62
     1
  5
81
 10
72.742817
 20
490.84338
 30
0.0
 11
72.742817
 21
487.842923
 31
0.0
  0
ARC
  8
LC-001-002-----0
 62
     1
  5
82
 10
195.49456
 20
457.492696
 30
0.0
 40
0.5
 50
270.000117
 51
89.999981
  0
LINE
  8
LC-001-002-----0
 62
     1
  5
83
 10
128.480657
 20
483.113192
 30
0.0
 11
128.723174
 21
478.485688
 31
0.0
  0
LINE
  8
LC-001-002-----0
 62
     1
  5
84
 10
112.29813
 20
487.152482
 30
0.0
 11
114.004755
 21
485.445857
 31
0.0
  0
LINE
  8
LC-001-002-----0
 62
     1
  5
85
 10
192.99456
 20
385.992696
 30
0.0
 11
192.99456
 21
457.992696
 31
0.0
  0
LINE
  8
LC-001-002-----0
 62
     1
  5
86
 10
201.49456
 20
347.489808
 30
0.0
 11
201.49456
 21
364.992696
 31
0.0
  0
LINE
  8
LC-001-002-----0
 62
     1
  5
87
 10
145.445267
 20
462.342696
 30
0.0
 11
145.645267
 21
462.342696
 31
0.0
  0
LINE
  8
LC-001-002-----0
 62
     1
  5
88
 10
198.49456
 20
347.489808
 30
0.0
 11
223.49456
 21
347.489808
 31
0.0
  0
ARC
  8
LC-002-002-RND-0
 62
     1
  5
89
 10
154.995267
 20
391.992696
 30
0.0
 40
9.0
 50
180.0
 51
270.0
  0
ARC
  8
LC-002-002-RND-0
 62
     1
  5
8A
 10
291.993853
 20
391.992696
 30
0.0
 40
9.0
 50
270.0
 51
0.0
  0
LINE
  8
LC-001-002-----0
 62
     1
  5
8B
 10
133.995267
 20
467.642696
 30
0.0
 11
143.24456
 21
454.433336
 31
0.0
  0
LINE
  8
LC-001-002-----0
 62
     1
  5
8C
 10
131.719063
 20
475.642696
 30
0.0
 11
131.995267
 21
475.642696
 31
0.0
  0
LINE
  8
LC-004-001-----0
 62
     1
  5
8D
 10
114.004755
 20
485.445857
 30
0.0
 11
127.087347
 21
484.531034
 31
0.0
  0
ARC
  8
LC-002-002-RND-0
 62
     1
  5
8E
 10
131.719063
 20
478.642696
 30
0.0
 40
3.0
 50
183.0
 51
270.0
  0
ARC
  8
LC-002-002-RND-0
 62
     1
  5
8F
 10
131.995267
 20
473.642696
 30
0.0
 40
2.0
 50
0.0
 51
90.0
  0
LINE
  8
LC-001-002-----0
 62
     1
  5
90
 10
133.995267
 20
467.642696
 30
0.0
 11
133.995267
 21
473.642696
 31
0.0
  0
LINE
  8
LC-001-002-----0
 62
     1
  5
91
 10
145.445267
 20
458.892696
 30
0.0
 11
145.445267
 21
458.892696
 31
0.0
  0
LINE
  8
LC-001-002-----0
 62
     1
  5
92
 10
137.245267
 20
466.642696
 30
0.0
 11
144.645267
 21
466.642696
 31
0.0
  0
LINE
  8
LC-001-002-----0
 62
     1
  5
93
 10
145.445267
 20
458.642696
 30
0.0
 11
145.445267
 21
459.142696
 31
0.0
  0
LINE
  8
LC-001-002-----0
 62
     1
  5
94
 10
145.445267
 20
458.842696
 30
0.0
 11
145.445267
 21
459.342696
 31
0.0
  0
LINE
  8
LC-001-002-----0
 62
     1
  5
95
 10
113.398417
 20
490.133734
 30
0.0
 11
114.630979
 21
488.901172
 31
0.0
  0
LINE
  8
LC-001-002-----0
 62
     1
  5
96
 10
145.445267
 20
458.892696
 30
0.0
 11
145.445267
 21
458.892696
 31
0.0
  0
ARC
  8
LC-002-002-RND-0
 62
     1
  5
97
 10
144.645267
 20
465.842696
 30
0.0
 40
0.8
 50
0.0
 51
90.0
  0
LINE
  8
LC-001-002-----0
 62
     1
  5
98
 10
145.445267
 20
465.842696
 30
0.0
 11
145.445267
 21
465.842696
 31
0.0
  0
LINE
  8
LC-001-002-----0
 62
     1
  5
99
 10
291.994552
 20
379.992843
 30
0.0
 11
262.49456
 21
379.992863
 31
0.0
  0
ARC
  8
LC-002-002-RND-0
 62
     1
  5
9A
 10
256.99456
 20
385.992696
 30
0.0
 40
3.0
 50
180.0
 51
270.0
  0
LINE
  8
LC-001-002-----0
 62
     1
  5
9B
 10
195.974248
 20
385.320215
 30
0.0
 11
195.348772
 21
456.992696
 31
0.0
  0
ARC
  8
LC-002-002-RND-0
 62
     1
  5
9C
 10
189.99456
 20
385.992696
 30
0.0
 40
3.0
 50
270.0
 51
0.0
  0
LINE
  8
LC-001-002-----0
 62
     1
  5
9D
 10
154.995267
 20
382.992696
 30
0.0
 11
189.99456
 21
382.992696
 31
0.0
  0
LINE
  8
LC-001-002-----0
 62
     1
  5
9E
 10
253.99456
 20
385.992696
 30
0.0
 11
253.99456
 21
457.992696
 31
0.0
  0
LINE
  8
LC-001-002-----0
 62
     1
  5
9F
 10
251.494559
 20
456.992696
 30
0.0
 11
251.77625
 21
456.992696
 31
0.0
  0
ARC
  8
LC-001-002-----0
 62
     1
  5
A0
 10
251.49456
 20
457.492696
 30
0.0
 40
0.5
 50
90.000019
 51
269.999883
  0
LINE
  8
LC-001-002-----0
 62
     1
  5
A1
 10
291.993853
 20
382.992696
 30
0.0
 11
256.99456
 21
382.992696
 31
0.0
  0
LINE
  8
LC-001-002-----0
 62
     1
  5
A2
 10
198.494401
 20
382.992696
 30
0.0
 11
248.494719
 21
382.992696
 31
0.0
  0
LINE
  8
LC-001-002-----0
 62
     1
  5
A3
 10
251.020689
 20
385.466289
 30
0.0
 11
251.77625
 21
456.992696
 31
0.0
  0
LINE
  8
LC-001-002-----0
 62
     1
  5
A4
 10
253.99456
 20
457.992696
 30
0.0
 11
251.49456
 21
457.992696
 31
0.0
  0
LINE
  8
LC-001-002-----0
 62
     1
  5
A5
 10
198.49456
 20
378.992696
 30
0.0
 11
198.49456
 21
347.489808
 31
0.0
  0
ARC
  8
LC-002-002-RND-0
 62
     1
  5
A6
 10
249.49456
 20
378.992871
 30
0.0
 40
1.0
 50
89.999963
 51
180.0
  0
ARC
  8
LC-002-002-RND-0
 62
     1
  5
A7
 10
197.49456
 20
378.992696
 30
0.0
 40
1.0
 50
0.0
 51
90.0
  0
LINE
  8
LC-001-002-----0
 62
     1
  5
A8
 10
303.74456
 20
454.422319
 30
0.0
 11
303.74456
 21
391.742843
 31
0.0
  0
LINE
  8
LC-001-002-----0
 62
     1
  5
A9
 10
143.24456
 20
454.433336
 30
0.0
 11
143.24456
 21
391.742696
 31
0.0
  0
ARC
  8
LC-002-002-RND-0
 62
     1
  5
AA
 10
291.99456
 20
391.742843
 30
0.0
 40
11.75
 50
269.999963
 51
0.0
  0
ARC
  8
LC-002-002-RND-0
 62
     1
  5
AB
 10
154.99456
 20
391.742696
 30
0.0
 40
11.75
 50
180.0
 51
270.0
  0
LINE
  8
LC-001-002-----0
 62
     1
  5
AC
 10
253.376263
 20
381.977193
 30
0.0
 11
254.521915
 21
379.992868
 31
0.0
  0
LINE
  8
LC-001-002-----0
 62
     1
  5
AD
 10
251.644212
 20
381.977193
 30
0.0
 11
250.498561
 21
379.99287
 31
0.0
  0
ARC
  8
LC-002-002-RND-0
 62
     1
  5
AE
 10
252.510238
 20
381.477192
 30
0.0
 40
1.0
 50
30.000037
 51
149.999963
  0
LINE
  8
LC-001-002-----0
 62
     1
  5
AF
 10
193.612857
 20
381.977193
 30
0.0
 11
192.467105
 21
379.992696
 31
0.0
  0
LINE
  8
LC-001-002-----0
 62
     1
  5
B0
 10
195.344907
 20
381.977193
 30
0.0
 11
196.490659
 21
379.992696
 31
0.0
  0
ARC
  8
LC-002-002-RND-0
 62
     1
  5
B1
 10
194.478882
 20
381.477192
 30
0.0
 40
1.0
 50
30.000037
 51
149.999963
  0
LINE
  8
LC-001-002-----0
 62
     1
  5
B2
 10
197.49456
 20
379.992696
 30
0.0
 11
196.490659
 21
379.992696
 31
0.0
  0
LINE
  8
LC-001-002-----0
 62
     1
  5
B3
 10
302.351567
 20
466.642696
 30
0.0
 11
264.963624
 21
466.642696
 31
0.0
  0
LINE
  8
LC-001-002-----0
 62
     1
  5
B4
 10
300.993853
 20
457.392696
 30
0.0
 11
264.963618
 21
457.392696
 31
0.0
  0
LINE
  8
LC-001-002-----0
 62
     1
  5
B5
 10
248.494719
 20
382.992696
 30
0.0
 11
248.520829
 21
382.992696
 31
0.0
  0
ARC
  8
LC-002-002-RND-0
 62
     1
  5
B6
 10
248.494719
 20
379.992696
 30
0.0
 40
3.0
 50
90.0
 51
179.999963
  0
ARC
  8
LC-002-002-RND-0
 62
     1
  5
B7
 10
248.520829
 20
385.492696
 30
0.0
 40
2.5
 50
270.0
 51
359.394785
  0
ARC
  8
LC-002-002-RND-0
 62
     1
  5
B8
 10
198.468291
 20
385.492696
 30
0.0
 40
2.5
 50
180.605215
 51
270.0
  0
ARC
  8
LC-002-002-RND-0
 62
     1
  5
B9
 10
198.494401
 20
379.992696
 30
0.0
 40
3.0
 50
0.000037
 51
90.0
  0
LINE
  8
LC-001-002-----0
 62
     1
  5
BA
 10
250.498561
 20
379.99287
 30
0.0
 11
249.49456
 21
379.992871
 31
0.0
  0
LINE
  8
LC-001-002-----0
 62
     1
  5
BB
 10
196.490659
 20
379.992696
 30
0.0
 11
188.49456
 21
379.992694
 31
0.0
  0
LINE
  8
LC-001-002-----0
 62
     1
  5
BC
 10
145.995267
 20
457.392696
 30
0.0
 11
181.963447
 21
457.392696
 31
0.0
  0
LINE
  8
LC-001-002-----0
 62
     1
  5
BD
 10
144.645267
 20
466.642696
 30
0.0
 11
181.963421
 21
466.642696
 31
0.0
  0
ARC
  8
LC-003-001-RND-0
 62
     1
  5
BE
 10
126.982713
 20
483.034688
 30
0.0
 40
1.5
 50
3.0
 51
86.000003
  0
INSERT
  8
LC-005-005-----0
 62
     2
  5
140
  2
*X0
 10
0.0
 20
0.0
 30
0.0
  0
LINE
  8
LC-001-002-----0
 62
     1
  5
141
 10
184.49456
 20
380.026811
 30
0.0
 11
184.49456
 21
269.992692
 31
0.0
  0
LINE
  8
LC-001-002-----0
 62
     1
  5
142
 10
262.49456
 20
379.992863
 30
0.0
 11
262.49456
 21
269.992692
 31
0.0
  0
LINE
  8
LC-001-002-----0
 62
     1
  5
143
 10
188.49456
 20
379.992694
 30
0.0
 11
188.49456
 21
269.992692
 31
0.0
  0
LINE
  8
LC-001-002-----0
 62
     1
  5
144
 10
258.49456
 20
379.992864
 30
0.0
 11
258.49456
 21
269.992692
 31
0.0
  0
LINE
  8
LC-001-002-----0
 62
     1
  5
145
 10
184.49456
 20
269.992692
 30
0.0
 11
262.49456
 21
269.992692
 31
0.0
  0
INSERT
  8
LC-005-005-----0
 62
     2
  5
19A
  2
*X1
 10
0.0
 20
0.0
 30
0.0
  0
LINE
  8
LC-001-002-----0
 62
     1
  5
19B
 10
181.963416
 20
468.492696
 30
0.0
 11
181.963586
 21
408.492861
 31
0.0
  0
LINE
  8
LC-001-002-----0
 62
     1
  5
19C
 10
182.963416
 20
468.492696
 30
0.0
 11
182.963586
 21
408.492861
 31
0.0
  0
LINE
  8
LC-001-002-----0
 62
     1
  5
19D
 10
192.99456
 20
408.494539
 30
0.0
 11
181.96342
 21
408.492693
 31
0.0
  0
ARC
  8
LC-001-002-----0
 62
     1
  5
19E
 10
192.963416
 20
468.492696
 30
0.0
 40
10.0
 50
94.313709
 51
179.999848
  0
ARC
  8
LC-002-002-RND-0
 62
     1
  5
19F
 10
193.963416
 20
468.492696
 30
0.0
 40
12.0
 50
90.0
 51
180.0
  0
LINE
  8
LC-001-002-----0
 62
     1
  5
1A0
 10
252.963634
 20
480.492867
 30
0.0
 11
237.213414
 21
480.492878
 31
0.0
  0
LINE
  8
LC-001-002-----0
 62
     1
  5
1A1
 10
253.963633
 20
478.492867
 30
0.0
 11
224.906792
 21
478.492867
 31
0.0
  0
LINE
  8
LC-001-002-----0
 62
     1
  5
1A2
 10
193.963416
 20
480.492696
 30
0.0
 11
209.713418
 21
480.492696
 31
0.0
  0
ARC
  8
LC-002-002-RND-0
 62
     1
  5
1A3
 10
228.213414
 20
481.492696
 30
0.0
 40
9.0
 50
0.000006
 51
90.000006
  0
ARC
  8
LC-001-002-----0
 62
     1
  5
1A4
 10
253.963627
 20
468.492867
 30
0.0
 40
10.0
 50
0.000096
 51
89.999963
  0
ARC
  8
LC-001-002-----0
 62
     1
  5
1A5
 10
252.963627
 20
468.492867
 30
0.0
 40
12.0
 50
0.000096
 51
89.999963
  0
LINE
  8
LC-001-002-----0
 62
     1
  5
1A6
 10
264.963625
 20
468.492859
 30
0.0
 11
264.963586
 21
408.492859
 31
0.0
  0
LINE
  8
LC-001-002-----0
 62
     1
  5
1A7
 10
263.963625
 20
468.492861
 30
0.0
 11
263.963751
 21
408.493025
 31
0.0
  0
LINE
  8
LC-001-002-----0
 62
     1
  5
1A8
 10
253.99456
 20
408.494681
 30
0.0
 11
264.963586
 21
408.492859
 31
0.0
  0
LINE
  8
LC-001-002-----0
 62
     1
  5
1A9
 10
192.205702
 20
457.992696
 30
0.0
 11
192.211253
 21
478.501717
 31
0.0
  0
LINE
  8
LC-001-002-----0
 62
     1
  5
1AA
 10
224.899077
 20
449.992696
 30
0.0
 11
196.643528
 21
449.992696
 31
0.0
  0
LINE
  8
LC-001-002-----0
 62
     1
  5
1AB
 10
195.705705
 20
453.492696
 30
0.0
 11
196.643528
 21
449.992696
 31
0.0
  0
LINE
  8
LC-001-002-----0
 62
     1
  5
1AC
 10
195.705705
 20
456.578483
 30
0.0
 11
195.705705
 21
453.492696
 31
0.0
  0
ARC
  8
LC-001-002-----0
 62
     1
  5
1AD
 10
195.455702
 20
457.285589
 30
0.0
 40
0.75
 50
289.471622
 51
70.528779
  0
LINE
  8
LC-001-002-----0
 62
     1
  5
1AE
 10
193.081136
 20
457.992696
 30
0.0
 11
195.705702
 21
457.992696
 31
0.0
  0
LINE
  8
LC-001-002-----0
 62
     1
  5
1AF
 10
228.213414
 20
486.492696
 30
0.0
 11
223.463415
 21
486.492696
 31
0.0
  0
LINE
  8
LC-001-002-----0
 62
     1
  5
1B0
 10
233.213414
 20
480.492697
 30
0.0
 11
233.213414
 21
481.492697
 31
0.0
  0
ARC
  8
LC-001-002-----0
 62
     1
  5
1B1
 10
228.213414
 20
481.492696
 30
0.0
 40
5.0
 50
0.000005
 51
90.000006
  0
ARC
  8
LC-002-002-RND-0
 62
     1
  5
1B2
 10
218.713418
 20
481.492696
 30
0.0
 40
9.0
 50
90.0
 51
180.000001
  0
LINE
  8
LC-001-002-----0
 62
     1
  5
1B3
 10
218.713418
 20
486.492696
 30
0.0
 11
223.463416
 21
486.492696
 31
0.0
  0
LINE
  8
LC-001-002-----0
 62
     1
  5
1B4
 10
213.713418
 20
480.492696
 30
0.0
 11
213.713418
 21
481.492696
 31
0.0
  0
LINE
  8
LC-001-002-----0
 62
     1
  5
1B5
 10
228.213413
 20
490.492696
 30
0.0
 11
223.463415
 21
490.492696
 31
0.0
  0
LINE
  8
LC-001-002-----0
 62
     1
  5
1B6
 10
237.213414
 20
480.492697
 30
0.0
 11
237.213414
 21
481.492697
 31
0.0
  0
ARC
  8
LC-001-002-----0
 62
     1
  5
1B7
 10
218.713418
 20
481.492696
 30
0.0
 40
5.0
 50
90.0
 51
180.000001
  0
LINE
  8
LC-001-002-----0
 62
     1
  5
1B8
 10
218.713418
 20
490.492696
 30
0.0
 11
223.463416
 21
490.492696
 31
0.0
  0
LINE
  8
LC-001-002-----0
 62
     1
  5
1B9
 10
209.713418
 20
480.492696
 30
0.0
 11
209.713418
 21
481.492696
 31
0.0
  0
LINE
  8
LC-001-002-----0
 62
     1
  5
1BA
 10
224.899077
 20
449.992696
 30
0.0
 11
224.906792
 21
478.492867
 31
0.0
  0
INSERT
  8
LC-005-005-----0
 62
     2
  5
21E
  2
*X2
 10
0.0
 20
0.0
 30
0.0
  0
LINE
  8
LC-001-002-----0
 62
     1
  5
21F
 10
213.713418
 20
480.492696
 30
0.0
 11
223.463416
 21
480.492696
 31
0.0
  0
LINE
  8
LC-001-002-----0
 62
     1
  5
220
 10
233.213414
 20
480.492881
 30
0.0
 11
223.463416
 21
480.492888
 31
0.0
  0
LINE
  8
LC-001-002-----0
 62
     1
  5
221
 10
224.899077
 20
449.992696
 30
0.0
 11
237.955892
 21
449.992696
 31
0.0
  0
LINE
  8
LC-001-002-----0
 62
     1
  5
222
 10
237.955892
 20
449.992696
 30
0.0
 11
238.424803
 21
453.492696
 31
0.0
  0
LINE
  8
LC-001-002-----0
 62
     1
  5
223
 10
238.424803
 20
453.492696
 30
0.0
 11
238.424803
 21
456.578483
 31
0.0
  0
LINE
  8
LC-001-002-----0
 62
     1
  5
224
 10
238.424803
 20
457.992696
 30
0.0
 11
240.174805
 21
457.992696
 31
0.0
  0
ARC
  8
LC-001-002-----0
 62
     1
  5
225
 10
238.723497
 20
457.28559
 30
0.0
 40
0.767605
 50
112.900021
 51
247.099979
  0
LINE
  8
LC-001-002-----0
 62
     1
  5
226
 10
192.205702
 20
457.992696
 30
0.0
 11
195.705702
 21
457.992696
 31
0.0
  0
LINE
  8
LC-001-002-----0
 62
     1
  5
227
 10
253.838071
 20
408.492861
 30
0.0
 11
253.845667
 21
408.492861
 31
0.0
  0
LINE
  8
LC-001-002-----0
 62
     1
  5
228
 10
238.424803
 20
457.992696
 30
0.0
 11
253.838071
 21
457.992696
 31
0.0
  0
LINE
  8
LC-001-002-----0
 62
     1
  5
229
 10
263.963217
 20
408.492861
 30
0.0
 11
263.963751
 21
408.492861
 31
0.0
  0
LINE
  8
LC-001-002-----0
 62
     1
  5
22A
 10
315.213416
 20
486.864376
 30
0.0
 11
296.463416
 21
485.553248
 31
0.0
  0
LINE
  8
LC-001-002-----0
 62
     1
  5
22B
 10
134.463631
 20
484.165957
 30
0.0
 11
144.463416
 21
483.466704
 31
0.0
  0
LINE
  8
LC-001-002-----0
 62
     1
  5
22C
 10
315.213416
 20
486.864376
 30
0.0
 11
235.434568
 21
486.864376
 31
0.0
  0
LINE
  8
LC-001-002-----0
 62
     1
  5
22D
 10
292.710076
 20
466.864778
 30
0.0
 11
292.710076
 21
469.864778
 31
0.0
  0
LINE
  8
LC-001-002-----0
 62
     1
  5
22E
 10
287.050695
 20
466.864778
 30
0.0
 11
287.050695
 21
469.864778
 31
0.0
  0
LINE
  8
LC-001-002-----0
 62
     1
  5
22F
 10
280.231271
 20
466.864778
 30
0.0
 11
280.231271
 21
469.864778
 31
0.0
  0
LINE
  8
LC-001-002-----0
 62
     1
  5
230
 10
286.281347
 20
485.553248
 30
0.0
 11
285.531347
 21
484.803248
 31
0.0
  0
LINE
  8
LC-001-002-----0
 62
     1
  5
231
 10
285.531347
 20
484.803248
 30
0.0
 11
285.531347
 21
469.864778
 31
0.0
  0
LINE
  8
LC-001-002-----0
 62
     1
  5
232
 10
131.713416
 20
486.864376
 30
0.0
 11
211.492264
 21
486.864376
 31
0.0
  0
LINE
  8
LC-001-002-----0
 62
     1
  5
233
 10
285.531347
 20
484.803248
 30
0.0
 11
291.075654
 21
484.803248
 31
0.0
  0
LINE
  8
LC-001-002-----0
 62
     1
  5
234
 10
291.075654
 20
484.803248
 30
0.0
 11
291.075654
 21
469.864778
 31
0.0
  0
LINE
  8
LC-001-002-----0
 62
     1
  5
235
 10
296.463416
 20
485.553248
 30
0.0
 11
295.713416
 21
484.803248
 31
0.0
  0
LINE
  8
LC-001-002-----0
 62
     1
  5
236
 10
290.729777
 20
485.553248
 30
0.0
 11
291.075654
 21
484.803248
 31
0.0
  0
LINE
  8
LC-001-002-----0
 62
     1
  5
237
 10
267.773121
 20
466.864778
 30
0.0
 11
267.773121
 21
469.864778
 31
0.0
  0
LINE
  8
LC-001-002-----0
 62
     1
  5
238
 10
292.963416
 20
466.864778
 30
0.0
 11
292.963416
 21
469.864778
 31
0.0
  0
LINE
  8
LC-001-002-----0
 62
     1
  5
239
 10
295.713416
 20
469.864778
 30
0.0
 11
295.713416
 21
484.803248
 31
0.0
  0
LINE
  8
LC-001-002-----0
 62
     1
  5
23A
 10
258.463416
 20
485.553248
 30
0.0
 11
257.713416
 21
484.803248
 31
0.0
  0
LINE
  8
LC-001-002-----0
 62
     1
  5
23B
 10
257.713416
 20
484.803248
 30
0.0
 11
257.713416
 21
479.512826
 31
0.0
  0
LINE
  8
LC-001-002-----0
 62
     1
  5
23C
 10
154.216756
 20
466.864778
 30
0.0
 11
154.216756
 21
469.864778
 31
0.0
  0
LINE
  8
LC-001-002-----0
 62
     1
  5
23D
 10
159.876137
 20
466.864778
 30
0.0
 11
159.876137
 21
469.864778
 31
0.0
  0
LINE
  8
LC-001-002-----0
 62
     1
  5
23E
 10
264.031381
 20
485.553248
 30
0.0
 11
264.663765
 21
484.803248
 31
0.0
  0
LINE
  8
LC-001-002-----0
 62
     1
  5
23F
 10
264.663765
 20
484.803248
 30
0.0
 11
264.663765
 21
471.15872
 31
0.0
  0
LINE
  8
LC-001-002-----0
 62
     1
  5
240
 10
264.663765
 20
484.803248
 30
0.0
 11
257.713416
 21
484.803248
 31
0.0
  0
LINE
  8
LC-001-002-----0
 62
     1
  5
241
 10
166.695561
 20
466.864778
 30
0.0
 11
166.695561
 21
469.864778
 31
0.0
  0
LINE
  8
LC-001-002-----0
 62
     1
  5
242
 10
160.645485
 20
485.553248
 30
0.0
 11
161.395485
 21
484.803248
 31
0.0
  0
LINE
  8
LC-001-002-----0
 62
     1
  5
243
 10
161.395485
 20
484.803248
 30
0.0
 11
161.395485
 21
469.864778
 31
0.0
  0
LINE
  8
LC-001-002-----0
 62
     1
  5
244
 10
161.395485
 20
484.803248
 30
0.0
 11
155.851178
 21
484.803248
 31
0.0
  0
LINE
  8
LC-001-002-----0
 62
     1
  5
245
 10
155.851178
 20
484.803248
 30
0.0
 11
155.851178
 21
469.864778
 31
0.0
  0
LINE
  8
LC-001-002-----0
 62
     1
  5
246
 10
150.463416
 20
485.553248
 30
0.0
 11
151.213416
 21
484.803248
 31
0.0
  0
LINE
  8
LC-001-002-----0
 62
     1
  5
247
 10
156.197055
 20
485.553248
 30
0.0
 11
155.851178
 21
484.803248
 31
0.0
  0
LINE
  8
LC-001-002-----0
 62
     1
  5
248
 10
179.153711
 20
466.864778
 30
0.0
 11
179.153711
 21
469.864778
 31
0.0
  0
LINE
  8
LC-001-002-----0
 62
     1
  5
249
 10
153.963416
 20
466.864778
 30
0.0
 11
153.963416
 21
469.864778
 31
0.0
  0
LINE
  8
LC-001-002-----0
 62
     1
  5
24A
 10
151.213416
 20
469.864778
 30
0.0
 11
151.213416
 21
484.803248
 31
0.0
  0
LINE
  8
LC-001-002-----0
 62
     1
  5
24B
 10
188.463416
 20
485.553248
 30
0.0
 11
189.213416
 21
484.803248
 31
0.0
  0
LINE
  8
LC-001-002-----0
 62
     1
  5
24C
 10
189.213416
 20
484.803248
 30
0.0
 11
189.213416
 21
479.512564
 31
0.0
  0
LINE
  8
LC-001-002-----0
 62
     1
  5
24D
 10
182.895451
 20
485.553248
 30
0.0
 11
182.263067
 21
484.803248
 31
0.0
  0
LINE
  8
LC-001-002-----0
 62
     1
  5
24E
 10
182.263067
 20
484.803248
 30
0.0
 11
182.263067
 21
471.157624
 31
0.0
  0
LINE
  8
LC-001-002-----0
 62
     1
  5
24F
 10
182.263067
 20
484.803248
 30
0.0
 11
189.213416
 21
484.803248
 31
0.0
  0
LINE
  8
LC-001-002-----0
 62
     1
  5
250
 10
220.464
 20
485.553248
 30
0.0
 11
219.714557
 21
484.803248
 31
0.0
  0
LINE
  8
LC-001-002-----0
 62
     1
  5
251
 10
219.714557
 20
484.803248
 30
0.0
 11
219.714557
 21
480.492696
 31
0.0
  0
LINE
  8
LC-001-002-----0
 62
     1
  5
252
 10
219.714557
 20
484.803248
 30
0.0
 11
223.463416
 21
484.803248
 31
0.0
  0
ARC
  8
LC-002-002-RND-0
 62
     1
  5
253
 10
301.463416
 20
467.864778
 30
0.0
 40
1.0
 50
270.0
 51
0.0
  0
LINE
  8
LC-001-002-----0
 62
     1
  5
254
 10
131.713416
 20
486.864376
 30
0.0
 11
132.713416
 21
479.864778
 31
0.0
  0
LINE
  8
LC-001-002-----0
 62
     1
  5
255
 10
133.88628
 20
479.864778
 30
0.0
 11
132.713416
 21
479.864778
 31
0.0
  0
LINE
  8
LC-001-002-----0
 62
     1
  5
256
 10
134.463631
 20
480.864778
 30
0.0
 11
133.88628
 21
479.864778
 31
0.0
  0
LINE
  8
LC-001-002-----0
 62
     1
  5
257
 10
226.462832
 20
485.553248
 30
0.0
 11
227.212275
 21
484.803248
 31
0.0
  0
LINE
  8
LC-001-002-----0
 62
     1
  5
258
 10
227.212275
 20
484.803248
 30
0.0
 11
227.212275
 21
480.492885
 31
0.0
  0
LINE
  8
LC-001-002-----0
 62
     1
  5
259
 10
134.463631
 20
480.864778
 30
0.0
 11
134.463631
 21
484.165957
 31
0.0
  0
LINE
  8
LC-001-002-----0
 62
     1
  5
25A
 10
227.212275
 20
484.803248
 30
0.0
 11
223.463416
 21
484.803248
 31
0.0
  0
ARC
  8
LC-002-002-RND-0
 62
     1
  5
25B
 10
145.463416
 20
467.864778
 30
0.0
 40
1.0
 50
180.0
 51
270.0
  0
LINE
  8
LC-001-002-----0
 62
     1
  5
25C
 10
145.463416
 20
466.864778
 30
0.0
 11
181.963421
 21
466.864778
 31
0.0
  0
LINE
  8
LC-001-002-----0
 62
     1
  5
25D
 10
312.463201
 20
480.864778
 30
0.0
 11
313.040552
 21
479.864778
 31
0.0
  0
LINE
  8
LC-001-002-----0
 62
     1
  5
25E
 10
144.463416
 20
467.864778
 30
0.0
 11
144.463416
 21
483.466704
 31
0.0
  0
LINE
  8
LC-001-002-----0
 62
     1
  5
25F
 10
312.463201
 20
480.864778
 30
0.0
 11
312.463201
 21
484.165957
 31
0.0
  0
LINE
  8
LC-001-002-----0
 62
     1
  5
260
 10
301.463416
 20
466.864778
 30
0.0
 11
292.963416
 21
466.864778
 31
0.0
  0
LINE
  8
LC-001-002-----0
 62
     1
  5
261
 10
302.463416
 20
467.864778
 30
0.0
 11
302.463416
 21
483.466704
 31
0.0
  0
LINE
  8
LC-001-002-----0
 62
     1
  5
262
 10
312.637552
 20
479.864778
 30
0.0
 11
314.213416
 21
479.864778
 31
0.0
  0
LINE
  8
LC-001-002-----0
 62
     1
  5
263
 10
292.963416
 20
466.864778
 30
0.0
 11
264.963624
 21
466.864778
 31
0.0
  0
LINE
  8
LC-001-002-----0
 62
     1
  5
264
 10
292.963416
 20
469.864778
 30
0.0
 11
295.713416
 21
469.864778
 31
0.0
  0
LINE
  8
LC-001-002-----0
 62
     1
  5
265
 10
280.231271
 20
469.864778
 30
0.0
 11
292.963416
 21
469.864778
 31
0.0
  0
LINE
  8
LC-001-002-----0
 62
     1
  5
266
 10
264.884946
 20
469.864778
 30
0.0
 11
267.773121
 21
469.864778
 31
0.0
  0
LINE
  8
LC-001-002-----0
 62
     1
  5
267
 10
182.042116
 20
469.864778
 30
0.0
 11
179.153711
 21
469.864778
 31
0.0
  0
LINE
  8
LC-001-002-----0
 62
     1
  5
268
 10
312.463201
 20
484.165957
 30
0.0
 11
302.463416
 21
483.466704
 31
0.0
  0
LINE
  8
LC-001-002-----0
 62
     1
  5
269
 10
166.695561
 20
469.864778
 30
0.0
 11
151.213416
 21
469.864778
 31
0.0
  0
LINE
  8
LC-001-002-----0
 62
     1
  5
26A
 10
290.729777
 20
485.553248
 30
0.0
 11
286.281347
 21
485.553248
 31
0.0
  0
LINE
  8
LC-001-002-----0
 62
     1
  5
26B
 10
315.213416
 20
486.864376
 30
0.0
 11
314.213416
 21
479.864778
 31
0.0
  0
LINE
  8
LC-001-002-----0
 62
     1
  5
26C
 10
131.713416
 20
486.864376
 30
0.0
 11
150.463416
 21
485.553248
 31
0.0
  0
INSERT
  8
LC-005-005-----0
 62
     2
  5
27E
  2
*X3
 10
0.0
 20
0.0
 30
0.0
  0
INSERT
  8
LC-005-005-----0
 62
     2
  5
292
  2
*X4
 10
0.0
 20
0.0
 30
0.0
  0
LINE
  8
LC-001-002-----0
 62
     1
  5
293
 10
188.49456
 20
289.992692
 30
0.0
 11
188.49456
 21
269.992692
 31
0.0
  0
LINE
  8
LC-001-002-----0
 62
     1
  5
294
 10
189.49456
 20
289.992692
 30
0.0
 11
189.49456
 21
269.992692
 31
0.0
  0
LINE
  8
LC-001-002-----0
 62
     1
  5
295
 10
257.49456
 20
289.992692
 30
0.0
 11
257.49456
 21
269.992692
 31
0.0
  0
LINE
  8
LC-001-002-----0
 62
     1
  5
296
 10
258.49456
 20
289.992692
 30
0.0
 11
258.49456
 21
269.992692
 31
0.0
  0
LINE
  8
LC-001-002-----0
 62
     1
  5
297
 10
188.49456
 20
269.992692
 30
0.0
 11
258.49456
 21
269.992692
 31
0.0
  0
LINE
  8
LC-001-002-----0
 62
     1
  5
298
 10
188.49456
 20
289.992692
 30
0.0
 11
258.49456
 21
289.992692
 31
0.0
  0
INSERT
  8
LC-005-005-----0
 62
     2
  5
2AA
  2
*X5
 10
0.0
 20
0.0
 30
0.0
  0
DIMENSION
  8
LC-007-003-----0
 62
     2
  5
2C9
  2
*D6
 10
223.49456
 20
258.756259
 30
0.0
 11
223.49456
 21
258.756259
 31
0.0
  1
DN70(SML)
 13
184.49456
 23
269.992692
 33
0.0
 14
262.49456
 24
269.992692
 34
0.0
  3
LC-DIM-L-0140-02-02
  0
DIMENSION
  8
LC-007-003-----0
 62
     2
  5
2E3
  2
*D7
 10
223.49456
 20
197.157543
 30
0.0
 11
223.49456
 21
197.157543
 31
0.0
  1
%%c160
 13
303.74456
 23
391.742696
 33
0.0
 14
143.24456
 24
391.742696
 34
0.0
  3
LC-DIM-L-0140-02-02
  0
INSERT
  8
LC-005-005-----0
 62
     2
  5
359
  2
*X8
 10
0.0
 20
0.0
 30
0.0
  0
LINE
  8
LC-001-002-----0
 62
     1
  5
35A
 10
160.645485
 20
485.553248
 30
0.0
 11
156.197055
 21
485.553248
 31
0.0
  0
LINE
  8
LC-001-002-----0
 62
     1
  5
35B
 10
188.463416
 20
485.553248
 30
0.0
 11
182.895451
 21
485.553248
 31
0.0
  0
LINE
  8
LC-001-002-----0
 62
     1
  5
35C
 10
264.031381
 20
485.553248
 30
0.0
 11
258.463416
 21
485.553248
 31
0.0
  0
DIMENSION
  8
LC-007-003-----0
 62
     2
  5
377
  2
*D9
 10
223.498417
 20
560.589969
 30
0.0
 11
223.498417
 21
560.589969
 31
0.0
  1
%%c300
 13
72.742817
 23
490.84338
 33
0.0
 14
374.254017
 24
490.84338
 34
0.0
  3
LC-DIM-L-0140-02-02
  0
DIMENSION
  8
LC-007-003-----0
 62
     2
  5
392
  2
*D10
 10
223.498843
 20
513.313262
 30
0.0
 11
223.498843
 21
513.313262
 31
0.0
 70
     1
  1
%%c190
 13
128.480657
 23
483.113192
 33
0.0
 14
318.516009
 24
483.109983
 34
0.0
  3
LC-DIM-L-0140-02-02
  0
DIMENSION
  8
LC-007-003-----0
 62
     2
  5
3A7
  2
*D11
 10
62.101713
 20
433.917809
 30
0.0
 11
62.101713
 21
433.917809
 31
0.0
  1
110
 13
72.742817
 23
487.842923
 33
0.0
 14
154.99456
 24
379.992696
 34
0.0
 50
90.0
  3
LC-DIM-L-0140-02-02
  0
DIMENSION
  8
LC-007-003-----0
 62
     2
  5
3BC
  2
*D12
 10
62.101713
 20
324.992694
 30
0.0
 11
62.101713
 21
324.992694
 31
0.0
 13
154.99456
 23
379.992696
 33
0.0
 14
184.49456
 24
269.992692
 34
0.0
 50
90.0
  3
LC-DIM-L-0140-02-02
  0
DIMENSION
  8
LC-007-003-----0
 62
     2
  5
3D7
  2
*D13
 10
120.342619
 20
433.242695
 30
0.0
 11
120.342619
 21
433.242695
 31
0.0
  1
50
 13
181.96342
 23
408.492693
 33
0.0
 14
192.205702
 24
457.992696
 34
0.0
 50
90.0
  3
LC-DIM-L-0140-02-02
  0
ENDSEC
  0
EOF
