  0
SECTION
  2
HEADER
  9
$ACADVER
  1
AC1009
  9
$INSBASE
 10
291.893321
 20
-17.76
 30
0.0
  9
$EXTMIN
 10
291.893321
 20
-17.76
 30
0.0
  9
$EXTMAX
 10
1131.893321
 20
576.24
 30
0.0
  9
$LIMMIN
 10
291.893321
 20
-17.76
  9
$LIMMAX
 10
1131.893321
 20
576.24
  9
$ORTHOMODE
 70
     0
  9
$REGENMODE
 70
     1
  9
$FILLMODE
 70
     1
  9
$QTEXTMODE
 70
     0
  9
$MIRRTEXT
 70
     1
  9
$DRAGMODE
 70
     2
  9
$LTSCALE
 40
2.0
  9
$OSMODE
 70
     0
  9
$ATTMODE
 70
     1
  9
$TEXTSIZE
 40
0.2
  9
$TRACEWID
 40
0.05
  9
$TEXTSTYLE
  7
STANDARD
  9
$CLAYER
  8
0
  9
$CELTYPE
  6
BYLAYER
  9
$CECOLOR
 62
     7
  9
$DIMSCALE
 40
2.0
  9
$DIMASZ
 40
3.5
  9
$DIMEXO
 40
0.0625
  9
$DIMDLI
 40
0.38
  9
$DIMRND
 40
0.0
  9
$DIMDLE
 40
0.0
  9
$DIMEXE
 40
0.18
  9
$DIMTP
 40
0.0
  9
$DIMTM
 40
0.0
  9
$DIMTXT
 40
3.5
  9
$DIMCEN
 40
0.09
  9
$DIMTSZ
 40
0.0
  9
$DIMTOL
 70
     0
  9
$DIMLIM
 70
     0
  9
$DIMTIH
 70
     1
  9
$DIMTOH
 70
     1
  9
$DIMSE1
 70
     0
  9
$DIMSE2
 70
     0
  9
$DIMTAD
 70
     1
  9
$DIMZIN
 70
     0
  9
$DIMBLK
  1

  9
$DIMASO
 70
     1
  9
$DIMSHO
 70
     1
  9
$DIMPOST
  1

  9
$DIMAPOST
  1

  9
$DIMALT
 70
     0
  9
$DIMALTD
 70
     2
  9
$DIMALTF
 40
25.4
  9
$DIMLFAC
 40
1.0
  9
$DIMTOFL
 70
     0
  9
$DIMTVP
 40
0.0
  9
$DIMTIX
 70
     0
  9
$DIMSOXD
 70
     0
  9
$DIMSAH
 70
     0
  9
$DIMBLK1
  1

  9
$DIMBLK2
  1

  9
$DIMSTYLE
  2
STANDARD
  9
$DIMCLRD
 70
     0
  9
$DIMCLRE
 70
     0
  9
$DIMCLRT
 70
     0
  9
$DIMTFAC
 40
1.0
  9
$DIMGAP
 40
0.09
  9
$LUNITS
 70
     2
  9
$LUPREC
 70
     2
  9
$AXISMODE
 70
     0
  9
$AXISUNIT
 10
0.0
 20
0.0
  9
$SKETCHINC
 40
0.1
  9
$FILLETRAD
 40
0.0
  9
$AUNITS
 70
     0
  9
$AUPREC
 70
     0
  9
$MENU
  1
acad
  9
$ELEVATION
 40
0.0
  9
$PELEVATION
 40
0.0
  9
$THICKNESS
 40
0.0
  9
$LIMCHECK
 70
     0
  9
$BLIPMODE
 70
     1
  9
$CHAMFERA
 40
0.0
  9
$CHAMFERB
 40
0.0
  9
$SKPOLY
 70
     0
  9
$TDCREATE
 40
0.000000000
  9
$TDUPDATE
 40
0.000000000
  9
$TDINDWG
 40
0.0000000000
  9
$TDUSRTIMER
 40
0.0000000000
  9
$USRTIMER
 70
     1
  9
$ANGBASE
 50
0.0
  9
$ANGDIR
 70
     0
  9
$PDMODE
 70
     0
  9
$PDSIZE
 40
0.0
  9
$PLINEWID
 40
0.0
  9
$COORDS
 70
     0
  9
$SPLFRAME
 70
     0
  9
$SPLINETYPE
 70
     6
  9
$SPLINESEGS
 70
     8
  9
$ATTDIA
 70
     0
  9
$ATTREQ
 70
     1
  9
$HANDLING
 70
     1
  9
$HANDSEED
  5
5AB
  9
$SURFTAB1
 70
     6
  9
$SURFTAB2
 70
     6
  9
$SURFTYPE
 70
     6
  9
$SURFU
 70
     6
  9
$SURFV
 70
     6
  9
$UCSNAME
  2

  9
$UCSORG
 10
0.0
 20
0.0
 30
0.0
  9
$UCSXDIR
 10
1.0
 20
0.0
 30
0.0
  9
$UCSYDIR
 10
0.0
 20
1.0
 30
0.0
  9
$PUCSNAME
  2

  9
$PUCSORG
 10
0.0
 20
0.0
 30
0.0
  9
$PUCSXDIR
 10
1.0
 20
0.0
 30
0.0
  9
$PUCSYDIR
 10
0.0
 20
1.0
 30
0.0
  9
$USERI1
 70
     0
  9
$USERI2
 70
     0
  9
$USERI3
 70
     0
  9
$USERI4
 70
     0
  9
$USERI5
 70
     0
  9
$USERR1
 40
0.0
  9
$USERR2
 40
0.0
  9
$USERR3
 40
0.0
  9
$USERR4
 40
0.0
  9
$USERR5
 40
0.0
  9
$WORLDVIEW
 70
     1
  9
$SHADEDGE
 70
     3
  9
$SHADEDIF
 70
    70
  9
$TILEMODE
 70
     1
  9
$MAXACTVP
 70
    16
  9
$PINSBASE
 10
0.0
 20
0.0
 30
0.0
  9
$PLIMCHECK
 70
     0
  9
$PEXTMIN
 10
1.000000E+20
 20
1.000000E+20
 30
1.000000E+20
  9
$PEXTMAX
 10
-1.000000E+20
 20
-1.000000E+20
 30
-1.000000E+20
  9
$PLIMMIN
 10
291.893321
 20
-17.76
  9
$PLIMMAX
 10
1131.893321
 20
576.24
  9
$UNITMODE
 70
     0
  9
$VISRETAIN
 70
     0
  9
$PLINEGEN
 70
     1
  9
$PSLTSCALE
 70
     0
  9
$TREEDEPTH
 70
  3020
  9
$DWGCODEPAGE
  3
dos850
  0
ENDSEC
  0
SECTION
  2
TABLES
  0
TABLE
  2
VPORT
 70
     1
  0
VPORT
  2
*ACTIVE
 70
     0
 10
0.0
 20
0.0
 11
1.0
 21
1.0
 12
420.0
 22
297.0
 13
0.0
 23
0.0
 14
1.0
 24
1.0
 15
0.0
 25
0.0
 16
0.0
 26
0.0
 36
1.0
 17
291.893321
 27
-17.76
 37
0.0
 40
594.0
 41
1.604229
 42
50.0
 43
0.0
 44
0.0
 50
0.0
 51
0.0
 71
     0
 72
   100
 73
     1
 74
     1
 75
     0
 76
     0
 77
     0
 78
     0
  0
ENDTAB
  0
TABLE
  2
LTYPE
 70
     2
  0
LTYPE
  2
CONTINUOUS
 70
    64
  3
Solid line
 72
    65
 73
     0
 40
0.0
  0
LTYPE
  2
DASHDOT
 70
    64
  3
__ . __ . __ . __ . __
 72
    65
 73
     4
 40
7.5
 49
5.0
 49
-1.25
 49
0.0
 49
-1.25
  0
ENDTAB
  0
TABLE
  2
LAYER
 70
    15
  0
LAYER
  2
0
 70
     0
 62
     7
  6
CONTINUOUS
  0
LAYER
  2
LC-INFO-1-2-MM-A3-0
 70
     1
 62
    -1
  6
CONTINUOUS
  0
LAYER
  2
LC-006-005-----0
 70
     0
 62
     2
  6
CONTINUOUS
  0
LAYER
  2
LC-011-003-MTH-0
 70
     0
 62
     2
  6
CONTINUOUS
  0
LAYER
  2
LC-012-003-MTG-0
 70
     0
 62
     2
  6
CONTINUOUS
  0
LAYER
  2
LC-010-003-----0
 70
     0
 62
     2
  6
CONTINUOUS
  0
LAYER
  2
LC-008-000-----0
 70
     0
 62
     7
  6
CONTINUOUS
  0
LAYER
  2
LC-009-000-----0
 70
     0
 62
     7
  6
CONTINUOUS
  0
LAYER
  2
LC-001-002-RND-0
 70
     0
 62
     1
  6
CONTINUOUS
  0
LAYER
  2
LC-002-002-----0
 70
     0
 62
     1
  6
CONTINUOUS
  0
LAYER
  2
LC-003-103-D00-1
 70
     0
 62
     1
  6
CONTINUOUS
  0
LAYER
  2
LC-004-001-RND-0
 70
     0
 62
     1
  6
CONTINUOUS
  0
LAYER
  2
LC-005-001-----0
 70
     0
 62
     1
  6
CONTINUOUS
  0
LAYER
  2
LC-007-206-----0
 70
     0
 62
     1
  6
CONTINUOUS
  0
LAYER
  2
LC-000
 70
     0
 62
     7
  6
CONTINUOUS
  0
ENDTAB
  0
TABLE
  2
STYLE
 70
     4
  0
STYLE
  2
STANDARD
 70
     0
 40
0.0
 41
1.0
 50
0.0
 71
     0
 42
0.0
  3
txt
  4

  0
STYLE
  2
LC-STANDARD
 70
    64
 40
0.0
 41
1.0
 50
0.0
 71
     0
 42
3.5
  3
MONOTXT
  4

  0
STYLE
  2
LC-TXTSTYLE-150-400-0-0-A2
 70
    64
 40
0.0
 41
1.0
 50
15.0
 71
     0
 42
3.5
  3
MONOTXT
  4

  0
STYLE
  2
LC-TXTSTYLE-150-400-0-0-D3
 70
    64
 40
0.0
 41
1.0
 50
15.0
 71
     0
 42
3.5
  3
LC-STANDARD
  4

  0
ENDTAB
  0
TABLE
  2
VIEW
 70
     0
  0
ENDTAB
  0
TABLE
  2
UCS
 70
     0
  0
ENDTAB
  0
TABLE
  2
APPID
 70
     1
  0
APPID
  2
ACAD
 70
     0
  0
ENDTAB
  0
TABLE
  2
DIMSTYLE
 70
     3
  0
DIMSTYLE
  2
STANDARD
 70
     0
  3

  4

  5

  6

  7

 40
1.0
 41
0.18
 42
0.0625
 43
0.38
 44
0.18
 45
0.0
 46
0.0
 47
0.0
 48
0.0
 71
     0
 72
     0
 73
     1
 74
     1
 75
     0
 76
     0
 77
     0
 78
     0
140
0.18
141
0.09
142
0.0
143
25.4
144
1.0
145
0.0
146
1.0
147
0.09
170
     0
171
     2
172
     0
173
     0
174
     0
175
     0
176
     0
177
     0
178
     0
  0
DIMSTYLE
  2
LC-STANDARD
 70
     0
  3

  4

  5

  6

  7

 40
1.0
 41
3.5
 42
0.0
 43
7.5
 44
1.8
 45
0.0
 46
0.0
 47
0.0
 48
0.0
 71
     0
 72
     0
 73
     0
 74
     0
 75
     0
 76
     0
 77
     1
 78
     8
140
3.5
141
0.0
142
0.0
143
25.4
144
1.0
145
0.0
146
0.71
147
1.5
170
     0
171
     2
172
     1
173
     0
174
     0
175
     0
176
     0
177
     0
178
     3
  0
DIMSTYLE
  2
LC-DIM-L-0140-02-02
 70
     0
  3

  4

  5

  6

  7

 40
2.0
 41
3.5
 42
0.0
 43
7.5
 44
1.8
 45
0.0
 46
0.0
 47
0.0
 48
0.0
 71
     0
 72
     0
 73
     0
 74
     0
 75
     0
 76
     0
 77
     1
 78
     8
140
14.0
141
0.0
142
0.0
143
25.4
144
1.0
145
0.0
146
0.71
147
1.5
170
     0
171
     2
172
     0
173
     0
174
     0
175
     0
176
     2
177
     2
178
     8
  0
ENDTAB
  0
ENDSEC
  0
SECTION
  2
BLOCKS
  0
BLOCK
  8
0
  5
23
  2
*X0
 70
    65
 10
605.684598
 20
171.310829
 30
0.0
  3
*X0
  0
LINE
  8
LC-006-005-----0
  6
CONTINUOUS
  5
25
 10
663.715551
 20
177.226086
 30
0.0
 11
665.208986
 21
178.71952
 31
0.0
  0
LINE
  8
LC-006-005-----0
  6
CONTINUOUS
  5
26
 10
662.594272
 20
178.933234
 30
0.0
 11
665.208981
 21
181.547943
 31
0.0
  0
LINE
  8
LC-006-005-----0
  6
CONTINUOUS
  5
27
 10
652.14344
 20
171.310829
 30
0.0
 11
652.709105
 21
171.876494
 31
0.0
  0
LINE
  8
LC-006-005-----0
  6
CONTINUOUS
  5
28
 10
662.117613
 20
181.285002
 30
0.0
 11
665.208977
 21
184.376366
 31
0.0
  0
LINE
  8
LC-006-005-----0
  6
CONTINUOUS
  5
29
 10
650.290463
 20
172.286279
 30
0.0
 11
652.709104
 21
174.70492
 31
0.0
  0
LINE
  8
LC-006-005-----0
  6
CONTINUOUS
  5
2A
 10
662.117613
 20
184.113429
 30
0.0
 11
665.208972
 21
187.204788
 31
0.0
  0
LINE
  8
LC-006-005-----0
  6
CONTINUOUS
  5
2B
 10
649.692746
 20
174.516989
 30
0.0
 11
652.709102
 21
177.533345
 31
0.0
  0
LINE
  8
LC-006-005-----0
  6
CONTINUOUS
  5
2C
 10
662.117613
 20
186.941856
 30
0.0
 11
665.208968
 21
190.033211
 31
0.0
  0
LINE
  8
LC-006-005-----0
  6
CONTINUOUS
  5
2D
 10
649.617753
 20
177.270423
 30
0.0
 11
652.709101
 21
180.361771
 31
0.0
  0
LINE
  8
LC-006-005-----0
  6
CONTINUOUS
  5
2E
 10
662.117613
 20
189.770283
 30
0.0
 11
665.208963
 21
192.861634
 31
0.0
  0
LINE
  8
LC-006-005-----0
  6
CONTINUOUS
  5
2F
 10
649.617753
 20
180.09885
 30
0.0
 11
652.709099
 21
183.190196
 31
0.0
  0
LINE
  8
LC-006-005-----0
  6
CONTINUOUS
  5
30
 10
662.117613
 20
192.59871
 30
0.0
 11
665.208959
 21
195.690056
 31
0.0
  0
LINE
  8
LC-006-005-----0
  6
CONTINUOUS
  5
31
 10
649.617753
 20
182.927278
 30
0.0
 11
652.709097
 21
186.018622
 31
0.0
  0
LINE
  8
LC-006-005-----0
  6
CONTINUOUS
  5
32
 10
662.117613
 20
195.427138
 30
0.0
 11
665.208955
 21
198.518479
 31
0.0
  0
LINE
  8
LC-006-005-----0
  6
CONTINUOUS
  5
33
 10
649.617753
 20
185.755705
 30
0.0
 11
652.709096
 21
188.847047
 31
0.0
  0
LINE
  8
LC-006-005-----0
  6
CONTINUOUS
  5
34
 10
662.117613
 20
198.255565
 30
0.0
 11
665.20895
 21
201.346902
 31
0.0
  0
LINE
  8
LC-006-005-----0
  6
CONTINUOUS
  5
35
 10
649.617753
 20
188.584132
 30
0.0
 11
652.709094
 21
191.675473
 31
0.0
  0
LINE
  8
LC-006-005-----0
  6
CONTINUOUS
  5
36
 10
662.117613
 20
201.083992
 30
0.0
 11
665.208946
 21
204.175324
 31
0.0
  0
LINE
  8
LC-006-005-----0
  6
CONTINUOUS
  5
37
 10
649.617753
 20
191.412559
 30
0.0
 11
652.709093
 21
194.503898
 31
0.0
  0
LINE
  8
LC-006-005-----0
  6
CONTINUOUS
  5
38
 10
662.117613
 20
203.912419
 30
0.0
 11
665.208941
 21
207.003747
 31
0.0
  0
LINE
  8
LC-006-005-----0
  6
CONTINUOUS
  5
39
 10
649.617753
 20
194.240986
 30
0.0
 11
652.709091
 21
197.332324
 31
0.0
  0
LINE
  8
LC-006-005-----0
  6
CONTINUOUS
  5
3A
 10
662.117613
 20
206.740846
 30
0.0
 11
665.208937
 21
209.83217
 31
0.0
  0
LINE
  8
LC-006-005-----0
  6
CONTINUOUS
  5
3B
 10
649.617753
 20
197.069413
 30
0.0
 11
652.709089
 21
200.160749
 31
0.0
  0
LINE
  8
LC-006-005-----0
  6
CONTINUOUS
  5
3C
 10
662.117613
 20
209.569273
 30
0.0
 11
665.208932
 21
212.660592
 31
0.0
  0
LINE
  8
LC-006-005-----0
  6
CONTINUOUS
  5
3D
 10
649.617753
 20
199.89784
 30
0.0
 11
652.709088
 21
202.989175
 31
0.0
  0
LINE
  8
LC-006-005-----0
  6
CONTINUOUS
  5
3E
 10
662.117613
 20
212.3977
 30
0.0
 11
665.208928
 21
215.489015
 31
0.0
  0
LINE
  8
LC-006-005-----0
  6
CONTINUOUS
  5
3F
 10
649.617753
 20
202.726268
 30
0.0
 11
652.709086
 21
205.8176
 31
0.0
  0
LINE
  8
LC-006-005-----0
  6
CONTINUOUS
  5
40
 10
662.117613
 20
215.226127
 30
0.0
 11
665.208923
 21
218.317438
 31
0.0
  0
LINE
  8
LC-006-005-----0
  6
CONTINUOUS
  5
41
 10
649.617753
 20
205.554695
 30
0.0
 11
652.709084
 21
208.646026
 31
0.0
  0
LINE
  8
LC-006-005-----0
  6
CONTINUOUS
  5
42
 10
662.117613
 20
218.054555
 30
0.0
 11
665.208919
 21
221.14586
 31
0.0
  0
LINE
  8
LC-006-005-----0
  6
CONTINUOUS
  5
43
 10
649.617753
 20
208.383122
 30
0.0
 11
652.709083
 21
211.474451
 31
0.0
  0
LINE
  8
LC-006-005-----0
  6
CONTINUOUS
  5
44
 10
662.117613
 20
220.882982
 30
0.0
 11
665.208914
 21
223.974283
 31
0.0
  0
LINE
  8
LC-006-005-----0
  6
CONTINUOUS
  5
45
 10
649.617753
 20
211.211549
 30
0.0
 11
652.709081
 21
214.302877
 31
0.0
  0
LINE
  8
LC-006-005-----0
  6
CONTINUOUS
  5
46
 10
662.117613
 20
223.711409
 30
0.0
 11
665.20891
 21
226.802706
 31
0.0
  0
LINE
  8
LC-006-005-----0
  6
CONTINUOUS
  5
47
 10
649.617753
 20
214.039976
 30
0.0
 11
652.70908
 21
217.131302
 31
0.0
  0
LINE
  8
LC-006-005-----0
  6
CONTINUOUS
  5
48
 10
662.117613
 20
226.539836
 30
0.0
 11
667.115265
 21
231.537488
 31
0.0
  0
LINE
  8
LC-006-005-----0
  6
CONTINUOUS
  5
49
 10
649.617753
 20
216.868403
 30
0.0
 11
652.709078
 21
219.959728
 31
0.0
  0
LINE
  8
LC-006-005-----0
  6
CONTINUOUS
  5
4A
 10
662.117613
 20
229.368263
 30
0.0
 11
665.254779
 21
232.505429
 31
0.0
  0
LINE
  8
LC-006-005-----0
  6
CONTINUOUS
  5
4B
 10
649.617754
 20
219.696831
 30
0.0
 11
652.709076
 21
222.788153
 31
0.0
  0
LINE
  8
LC-006-005-----0
  6
CONTINUOUS
  5
4C
 10
660.982828
 20
231.061905
 30
0.0
 11
663.024069
 21
233.103146
 31
0.0
  0
LINE
  8
LC-006-005-----0
  6
CONTINUOUS
  5
4D
 10
649.617754
 20
222.525258
 30
0.0
 11
652.709075
 21
225.616579
 31
0.0
  0
LINE
  8
LC-006-005-----0
  6
CONTINUOUS
  5
4E
 10
658.757101
 20
231.664605
 30
0.0
 11
660.949074
 21
233.856579
 31
0.0
  0
LINE
  8
LC-006-005-----0
  6
CONTINUOUS
  5
4F
 10
649.617754
 20
225.353685
 30
0.0
 11
652.709073
 21
228.445005
 31
0.0
  0
LINE
  8
LC-006-005-----0
  6
CONTINUOUS
  5
50
 10
654.62761
 20
230.363542
 30
0.0
 11
659.796432
 21
235.532364
 31
0.0
  0
LINE
  8
LC-006-005-----0
  6
CONTINUOUS
  5
51
 10
649.617754
 20
228.182112
 30
0.0
 11
655.011307
 21
233.575665
 31
0.0
  0
LINE
  8
LC-006-005-----0
  6
CONTINUOUS
  5
52
 10
656.465981
 20
235.030339
 30
0.0
 11
659.677192
 21
238.24155
 31
0.0
  0
LINE
  8
LC-006-005-----0
  6
CONTINUOUS
  5
53
 10
648.918042
 20
230.310828
 30
0.0
 11
651.905902
 21
233.298688
 31
0.0
  0
LINE
  8
LC-006-005-----0
  6
CONTINUOUS
  5
54
 10
656.742958
 20
238.135744
 30
0.0
 11
659.645353
 21
241.038138
 31
0.0
  0
LINE
  8
LC-006-005-----0
  6
CONTINUOUS
  5
55
 10
646.089613
 20
230.310825
 30
0.0
 11
649.077475
 21
233.298688
 31
0.0
  0
LINE
  8
LC-006-005-----0
  6
CONTINUOUS
  5
56
 10
656.742959
 20
240.964172
 30
0.0
 11
659.613513
 21
243.834726
 31
0.0
  0
LINE
  8
LC-006-005-----0
  6
CONTINUOUS
  5
57
 10
643.261183
 20
230.310822
 30
0.0
 11
646.249048
 21
233.298688
 31
0.0
  0
LINE
  8
LC-006-005-----0
  6
CONTINUOUS
  5
58
 10
656.74296
 20
243.7926
 30
0.0
 11
659.581674
 21
246.631314
 31
0.0
  0
LINE
  8
LC-006-005-----0
  6
CONTINUOUS
  5
59
 10
640.432753
 20
230.31082
 30
0.0
 11
643.420621
 21
233.298688
 31
0.0
  0
LINE
  8
LC-006-005-----0
  6
CONTINUOUS
  5
5A
 10
656.74296
 20
246.621027
 30
0.0
 11
659.549835
 21
249.427902
 31
0.0
  0
LINE
  8
LC-006-005-----0
  6
CONTINUOUS
  5
5B
 10
637.604323
 20
230.310817
 30
0.0
 11
640.592193
 21
233.298687
 31
0.0
  0
LINE
  8
LC-006-005-----0
  6
CONTINUOUS
  5
5C
 10
656.742961
 20
249.449455
 30
0.0
 11
659.517996
 21
252.22449
 31
0.0
  0
LINE
  8
LC-006-005-----0
  6
CONTINUOUS
  5
5D
 10
634.775893
 20
230.310814
 30
0.0
 11
637.763766
 21
233.298687
 31
0.0
  0
LINE
  8
LC-006-005-----0
  6
CONTINUOUS
  5
5E
 10
656.742962
 20
252.277883
 30
0.0
 11
659.486157
 21
255.021078
 31
0.0
  0
LINE
  8
LC-006-005-----0
  6
CONTINUOUS
  5
5F
 10
631.947463
 20
230.310812
 30
0.0
 11
634.935339
 21
233.298687
 31
0.0
  0
LINE
  8
LC-006-005-----0
  6
CONTINUOUS
  5
60
 10
656.742963
 20
255.106311
 30
0.0
 11
659.454318
 21
257.817666
 31
0.0
  0
LINE
  8
LC-006-005-----0
  6
CONTINUOUS
  5
61
 10
629.119033
 20
230.310809
 30
0.0
 11
632.106911
 21
233.298687
 31
0.0
  0
LINE
  8
LC-006-005-----0
  6
CONTINUOUS
  5
62
 10
656.742963
 20
257.934739
 30
0.0
 11
659.422478
 21
260.614254
 31
0.0
  0
LINE
  8
LC-006-005-----0
  6
CONTINUOUS
  5
63
 10
626.290604
 20
230.310806
 30
0.0
 11
629.278484
 21
233.298687
 31
0.0
  0
LINE
  8
LC-006-005-----0
  6
CONTINUOUS
  5
64
 10
656.742964
 20
260.763167
 30
0.0
 11
659.390639
 21
263.410842
 31
0.0
  0
LINE
  8
LC-006-005-----0
  6
CONTINUOUS
  5
65
 10
623.462174
 20
230.310803
 30
0.0
 11
626.450057
 21
233.298687
 31
0.0
  0
LINE
  8
LC-006-005-----0
  6
CONTINUOUS
  5
66
 10
656.742965
 20
263.591594
 30
0.0
 11
659.3588
 21
266.20743
 31
0.0
  0
LINE
  8
LC-006-005-----0
  6
CONTINUOUS
  5
67
 10
620.633744
 20
230.310801
 30
0.0
 11
623.62163
 21
233.298686
 31
0.0
  0
LINE
  8
LC-006-005-----0
  6
CONTINUOUS
  5
68
 10
656.742966
 20
266.420022
 30
0.0
 11
659.326961
 21
269.004018
 31
0.0
  0
LINE
  8
LC-006-005-----0
  6
CONTINUOUS
  5
69
 10
617.872378
 20
230.377862
 30
0.0
 11
620.793202
 21
233.298686
 31
0.0
  0
LINE
  8
LC-006-005-----0
  6
CONTINUOUS
  5
6A
 10
656.742966
 20
269.24845
 30
0.0
 11
659.295122
 21
271.800606
 31
0.0
  0
LINE
  8
LC-006-005-----0
  6
CONTINUOUS
  5
6B
 10
615.53309
 20
230.867001
 30
0.0
 11
618.008736
 21
233.342647
 31
0.0
  0
LINE
  8
LC-006-005-----0
  6
CONTINUOUS
  5
6C
 10
656.742967
 20
272.076878
 30
0.0
 11
659.263283
 21
274.597194
 31
0.0
  0
LINE
  8
LC-006-005-----0
  6
CONTINUOUS
  5
6D
 10
613.539879
 20
231.702217
 30
0.0
 11
615.718273
 21
233.880611
 31
0.0
  0
LINE
  8
LC-006-005-----0
  6
CONTINUOUS
  5
6E
 10
656.742968
 20
274.905306
 30
0.0
 11
659.231443
 21
277.393782
 31
0.0
  0
LINE
  8
LC-006-005-----0
  6
CONTINUOUS
  5
6F
 10
611.820732
 20
232.811497
 30
0.0
 11
613.857524
 21
234.84829
 31
0.0
  0
LINE
  8
LC-006-005-----0
  6
CONTINUOUS
  5
70
 10
656.742968
 20
277.733734
 30
0.0
 11
659.199604
 21
280.190369
 31
0.0
  0
LINE
  8
LC-006-005-----0
  6
CONTINUOUS
  5
71
 10
609.491598
 20
233.31079
 30
0.0
 11
611.9916
 21
235.810792
 31
0.0
  0
LINE
  8
LC-006-005-----0
  6
CONTINUOUS
  5
72
 10
656.742969
 20
280.562162
 30
0.0
 11
659.167765
 21
282.986957
 31
0.0
  0
LINE
  8
LC-006-005-----0
  6
CONTINUOUS
  5
73
 10
606.663168
 20
233.310787
 30
0.0
 11
609.16317
 21
235.81079
 31
0.0
  0
LINE
  8
LC-006-005-----0
  6
CONTINUOUS
  5
74
 10
656.74297
 20
283.390589
 30
0.0
 11
659.135926
 21
285.783545
 31
0.0
  0
LINE
  8
LC-006-005-----0
  6
CONTINUOUS
  5
75
 10
605.684598
 20
235.160645
 30
0.0
 11
606.33474
 21
235.810787
 31
0.0
  0
LINE
  8
LC-006-005-----0
  6
CONTINUOUS
  5
76
 10
656.742971
 20
286.219017
 30
0.0
 11
659.104087
 21
288.580133
 31
0.0
  0
LINE
  8
LC-006-005-----0
  6
CONTINUOUS
  5
77
 10
656.742971
 20
289.047445
 30
0.0
 11
659.072247
 21
291.376721
 31
0.0
  0
LINE
  8
LC-006-005-----0
  6
CONTINUOUS
  5
78
 10
656.742972
 20
291.875873
 30
0.0
 11
659.040408
 21
294.173309
 31
0.0
  0
LINE
  8
LC-006-005-----0
  6
CONTINUOUS
  5
79
 10
656.742973
 20
294.704301
 30
0.0
 11
659.008569
 21
296.969897
 31
0.0
  0
LINE
  8
LC-006-005-----0
  6
CONTINUOUS
  5
7A
 10
656.742974
 20
297.532729
 30
0.0
 11
659.460612
 21
300.250367
 31
0.0
  0
LINE
  8
LC-006-005-----0
  6
CONTINUOUS
  5
7B
 10
656.742974
 20
300.361157
 30
0.0
 11
657.680504
 21
301.298686
 31
0.0
  0
ENDBLK
  8
0
  5
7C
  0
BLOCK
  8
0
  5
7E
  2
*X1
 70
    65
 10
536.971053
 20
253.810786
 30
0.0
  3
*X1
  0
LINE
  8
LC-006-005-----0
  6
CONTINUOUS
  5
7F
 10
607.364179
 20
253.810788
 30
0.0
 11
609.931313
 21
256.377923
 31
0.0
  0
LINE
  8
LC-006-005-----0
  6
CONTINUOUS
  5
80
 10
605.684598
 20
254.959635
 30
0.0
 11
609.931313
 21
259.20635
 31
0.0
  0
LINE
  8
LC-006-005-----0
  6
CONTINUOUS
  5
81
 10
605.684598
 20
257.788062
 30
0.0
 11
609.931313
 21
262.034777
 31
0.0
  0
LINE
  8
LC-006-005-----0
  6
CONTINUOUS
  5
82
 10
605.684598
 20
260.616489
 30
0.0
 11
609.931313
 21
264.863204
 31
0.0
  0
LINE
  8
LC-006-005-----0
  6
CONTINUOUS
  5
83
 10
605.684598
 20
263.444916
 30
0.0
 11
609.931313
 21
267.691631
 31
0.0
  0
LINE
  8
LC-006-005-----0
  6
CONTINUOUS
  5
84
 10
605.684598
 20
266.273343
 30
0.0
 11
609.931313
 21
270.520058
 31
0.0
  0
LINE
  8
LC-006-005-----0
  6
CONTINUOUS
  5
85
 10
605.684598
 20
269.10177
 30
0.0
 11
609.931313
 21
273.348486
 31
0.0
  0
LINE
  8
LC-006-005-----0
  6
CONTINUOUS
  5
86
 10
605.684598
 20
271.930198
 30
0.0
 11
609.931313
 21
276.176913
 31
0.0
  0
LINE
  8
LC-006-005-----0
  6
CONTINUOUS
  5
87
 10
605.684598
 20
274.758625
 30
0.0
 11
606.236761
 21
275.310787
 31
0.0
  0
LINE
  8
LC-006-005-----0
  6
CONTINUOUS
  5
88
 10
607.184598
 20
276.258625
 30
0.0
 11
609.931313
 21
279.00534
 31
0.0
  0
LINE
  8
LC-006-005-----0
  6
CONTINUOUS
  5
89
 10
607.184598
 20
279.087052
 30
0.0
 11
609.931313
 21
281.833767
 31
0.0
  0
LINE
  8
LC-006-005-----0
  6
CONTINUOUS
  5
8A
 10
607.184598
 20
281.915479
 30
0.0
 11
609.931313
 21
284.662194
 31
0.0
  0
LINE
  8
LC-006-005-----0
  6
CONTINUOUS
  5
8B
 10
607.184598
 20
284.743906
 30
0.0
 11
609.931313
 21
287.490621
 31
0.0
  0
LINE
  8
LC-006-005-----0
  6
CONTINUOUS
  5
8C
 10
607.184598
 20
287.572333
 30
0.0
 11
609.931313
 21
290.319048
 31
0.0
  0
LINE
  8
LC-006-005-----0
  6
CONTINUOUS
  5
8D
 10
607.184598
 20
290.40076
 30
0.0
 11
609.931313
 21
293.147475
 31
0.0
  0
LINE
  8
LC-006-005-----0
  6
CONTINUOUS
  5
8E
 10
607.184598
 20
293.229187
 30
0.0
 11
609.931313
 21
295.975903
 31
0.0
  0
LINE
  8
LC-006-005-----0
  6
CONTINUOUS
  5
8F
 10
607.184598
 20
296.057614
 30
0.0
 11
609.931313
 21
298.80433
 31
0.0
  0
LINE
  8
LC-006-005-----0
  6
CONTINUOUS
  5
90
 10
607.184598
 20
298.886042
 30
0.0
 11
609.931313
 21
301.632757
 31
0.0
  0
LINE
  8
LC-006-005-----0
  6
CONTINUOUS
  5
91
 10
607.184598
 20
301.714469
 30
0.0
 11
609.931313
 21
304.461184
 31
0.0
  0
LINE
  8
LC-006-005-----0
  6
CONTINUOUS
  5
92
 10
607.184598
 20
304.542896
 30
0.0
 11
609.931313
 21
307.289611
 31
0.0
  0
LINE
  8
LC-006-005-----0
  6
CONTINUOUS
  5
93
 10
606.143904
 20
306.330629
 30
0.0
 11
609.383507
 21
309.570232
 31
0.0
  0
LINE
  8
LC-006-005-----0
  6
CONTINUOUS
  5
94
 10
604.979055
 20
307.994207
 30
0.0
 11
609.689822
 21
312.704974
 31
0.0
  0
LINE
  8
LC-006-005-----0
  6
CONTINUOUS
  5
95
 10
603.814205
 20
309.657784
 30
0.0
 11
610.133576
 21
315.977155
 31
0.0
  0
LINE
  8
LC-006-005-----0
  6
CONTINUOUS
  5
96
 10
602.649356
 20
311.321362
 30
0.0
 11
608.323048
 21
316.995055
 31
0.0
  0
LINE
  8
LC-006-005-----0
  6
CONTINUOUS
  5
97
 10
601.484506
 20
312.984939
 30
0.0
 11
605.494621
 21
316.995055
 31
0.0
  0
LINE
  8
LC-006-005-----0
  6
CONTINUOUS
  5
98
 10
600.319657
 20
314.648517
 30
0.0
 11
602.666194
 21
316.995055
 31
0.0
  0
LINE
  8
LC-006-005-----0
  6
CONTINUOUS
  5
99
 10
599.154807
 20
316.312095
 30
0.0
 11
600.71821
 21
317.875497
 31
0.0
  0
LINE
  8
LC-006-005-----0
  6
CONTINUOUS
  5
9A
 10
597.989958
 20
317.975672
 30
0.0
 11
600.71821
 21
320.703924
 31
0.0
  0
LINE
  8
LC-006-005-----0
  6
CONTINUOUS
  5
9B
 10
597.979179
 20
320.793321
 30
0.0
 11
600.71821
 21
323.532352
 31
0.0
  0
LINE
  8
LC-006-005-----0
  6
CONTINUOUS
  5
9C
 10
597.979179
 20
323.621748
 30
0.0
 11
600.71821
 21
326.360779
 31
0.0
  0
LINE
  8
LC-006-005-----0
  6
CONTINUOUS
  5
9D
 10
597.128659
 20
325.599655
 30
0.0
 11
600.71821
 21
329.189206
 31
0.0
  0
LINE
  8
LC-006-005-----0
  6
CONTINUOUS
  5
9E
 10
594.801765
 20
326.101188
 30
0.0
 11
597.14976
 21
328.449183
 31
0.0
  0
LINE
  8
LC-006-005-----0
  6
CONTINUOUS
  5
9F
 10
598.727563
 20
330.026986
 30
0.0
 11
600.71821
 21
332.017633
 31
0.0
  0
LINE
  8
LC-006-005-----0
  6
CONTINUOUS
  5
A0
 10
593.200524
 20
327.328374
 30
0.0
 11
595.667598
 21
329.795448
 31
0.0
  0
LINE
  8
LC-006-005-----0
  6
CONTINUOUS
  5
A1
 10
598.727563
 20
332.855413
 30
0.0
 11
600.2974
 21
334.425251
 31
0.0
  0
LINE
  8
LC-006-005-----0
  6
CONTINUOUS
  5
A2
 10
592.683617
 20
329.639894
 30
0.0
 11
595.526748
 21
332.483026
 31
0.0
  0
LINE
  8
LC-006-005-----0
  6
CONTINUOUS
  5
A3
 10
592.542766
 20
332.327471
 30
0.0
 11
595.385898
 21
335.170603
 31
0.0
  0
LINE
  8
LC-006-005-----0
  6
CONTINUOUS
  5
A4
 10
591.590021
 20
334.203152
 30
0.0
 11
594.463687
 21
337.076818
 31
0.0
  0
LINE
  8
LC-006-005-----0
  6
CONTINUOUS
  5
A5
 10
589.025466
 20
334.467025
 30
0.0
 11
591.828318
 21
337.269877
 31
0.0
  0
LINE
  8
LC-006-005-----0
  6
CONTINUOUS
  5
A6
 10
586.391274
 20
334.66126
 30
0.0
 11
589.19295
 21
337.462936
 31
0.0
  0
LINE
  8
LC-006-005-----0
  6
CONTINUOUS
  5
A7
 10
583.757081
 20
334.855494
 30
0.0
 11
586.557581
 21
337.655994
 31
0.0
  0
LINE
  8
LC-006-005-----0
  6
CONTINUOUS
  5
A8
 10
581.122889
 20
335.049729
 30
0.0
 11
583.922213
 21
337.849053
 31
0.0
  0
LINE
  8
LC-006-005-----0
  6
CONTINUOUS
  5
A9
 10
578.488697
 20
335.243964
 30
0.0
 11
581.286844
 21
338.042112
 31
0.0
  0
LINE
  8
LC-006-005-----0
  6
CONTINUOUS
  5
AA
 10
575.854504
 20
335.438198
 30
0.0
 11
578.651476
 21
338.23517
 31
0.0
  0
LINE
  8
LC-006-005-----0
  6
CONTINUOUS
  5
AB
 10
573.703879
 20
336.116
 30
0.0
 11
576.363671
 21
338.775792
 31
0.0
  0
LINE
  8
LC-006-005-----0
  6
CONTINUOUS
  5
AC
 10
571.68466
 20
336.925208
 30
0.0
 11
574.253194
 21
339.493743
 31
0.0
  0
LINE
  8
LC-006-005-----0
  6
CONTINUOUS
  5
AD
 10
569.665441
 20
337.734417
 30
0.0
 11
572.142718
 21
340.211693
 31
0.0
  0
LINE
  8
LC-006-005-----0
  6
CONTINUOUS
  5
AE
 10
567.092222
 20
337.989625
 30
0.0
 11
569.891787
 21
340.78919
 31
0.0
  0
LINE
  8
LC-006-005-----0
  6
CONTINUOUS
  5
AF
 10
564.448651
 20
338.174481
 30
0.0
 11
567.248216
 21
340.974046
 31
0.0
  0
LINE
  8
LC-006-005-----0
  6
CONTINUOUS
  5
B0
 10
561.80508
 20
338.359337
 30
0.0
 11
564.604646
 21
341.158903
 31
0.0
  0
LINE
  8
LC-006-005-----0
  6
CONTINUOUS
  5
B1
 10
559.161509
 20
338.544193
 30
0.0
 11
561.961075
 21
341.343759
 31
0.0
  0
LINE
  8
LC-006-005-----0
  6
CONTINUOUS
  5
B2
 10
556.517938
 20
338.72905
 30
0.0
 11
559.317504
 21
341.528615
 31
0.0
  0
LINE
  8
LC-006-005-----0
  6
CONTINUOUS
  5
B3
 10
553.874367
 20
338.913906
 30
0.0
 11
556.673933
 21
341.713472
 31
0.0
  0
LINE
  8
LC-006-005-----0
  6
CONTINUOUS
  5
B4
 10
551.230797
 20
339.098762
 30
0.0
 11
554.030362
 21
341.898328
 31
0.0
  0
LINE
  8
LC-006-005-----0
  6
CONTINUOUS
  5
B5
 10
548.587226
 20
339.283618
 30
0.0
 11
551.386791
 21
342.083184
 31
0.0
  0
LINE
  8
LC-006-005-----0
  6
CONTINUOUS
  5
B6
 10
545.943655
 20
339.468475
 30
0.0
 11
548.743221
 21
342.268041
 31
0.0
  0
LINE
  8
LC-006-005-----0
  6
CONTINUOUS
  5
B7
 10
543.300084
 20
339.653331
 30
0.0
 11
546.09965
 21
342.452897
 31
0.0
  0
LINE
  8
LC-006-005-----0
  6
CONTINUOUS
  5
B8
 10
540.656513
 20
339.838187
 30
0.0
 11
543.456079
 21
342.637753
 31
0.0
  0
LINE
  8
LC-006-005-----0
  6
CONTINUOUS
  5
B9
 10
538.012942
 20
340.023044
 30
0.0
 11
540.812508
 21
342.82261
 31
0.0
  0
ENDBLK
  8
0
  5
BA
  0
BLOCK
  8
0
  5
BC
  2
*X2
 70
    65
 10
707.120037
 20
171.310652
 30
0.0
  3
*X2
  0
LINE
  8
LC-006-005-----0
  6
CONTINUOUS
  5
BD
 10
722.853941
 20
171.310652
 30
0.0
 11
723.986942
 21
172.443652
 31
0.0
  0
LINE
  8
LC-006-005-----0
  6
CONTINUOUS
  5
BE
 10
721.533723
 20
172.818861
 30
0.0
 11
724.617515
 21
175.902653
 31
0.0
  0
LINE
  8
LC-006-005-----0
  6
CONTINUOUS
  5
BF
 10
721.533723
 20
175.647288
 30
0.0
 11
724.617515
 21
178.73108
 31
0.0
  0
LINE
  8
LC-006-005-----0
  6
CONTINUOUS
  5
C0
 10
721.533723
 20
178.475715
 30
0.0
 11
724.617515
 21
181.559507
 31
0.0
  0
LINE
  8
LC-006-005-----0
  6
CONTINUOUS
  5
C1
 10
721.533723
 20
181.304142
 30
0.0
 11
724.617515
 21
184.387935
 31
0.0
  0
LINE
  8
LC-006-005-----0
  6
CONTINUOUS
  5
C2
 10
721.533723
 20
184.132569
 30
0.0
 11
724.617515
 21
187.216362
 31
0.0
  0
LINE
  8
LC-006-005-----0
  6
CONTINUOUS
  5
C3
 10
721.533723
 20
186.960996
 30
0.0
 11
724.617515
 21
190.044789
 31
0.0
  0
LINE
  8
LC-006-005-----0
  6
CONTINUOUS
  5
C4
 10
709.026237
 20
177.281938
 30
0.0
 11
711.993598
 21
180.249299
 31
0.0
  0
LINE
  8
LC-006-005-----0
  6
CONTINUOUS
  5
C5
 10
721.533723
 20
189.789424
 30
0.0
 11
724.617516
 21
192.873216
 31
0.0
  0
LINE
  8
LC-006-005-----0
  6
CONTINUOUS
  5
C6
 10
709.026243
 20
180.11037
 30
0.0
 11
712.117615
 21
183.201743
 31
0.0
  0
LINE
  8
LC-006-005-----0
  6
CONTINUOUS
  5
C7
 10
721.533723
 20
192.617851
 30
0.0
 11
724.617516
 21
195.701643
 31
0.0
  0
LINE
  8
LC-006-005-----0
  6
CONTINUOUS
  5
C8
 10
760.464129
 20
231.548257
 30
0.0
 11
765.882211
 21
236.966339
 31
0.0
  0
LINE
  8
LC-006-005-----0
  6
CONTINUOUS
  5
C9
 10
709.026248
 20
182.938803
 30
0.0
 11
712.117616
 21
186.03017
 31
0.0
  0
LINE
  8
LC-006-005-----0
  6
CONTINUOUS
  5
CA
 10
721.533723
 20
195.446278
 30
0.0
 11
724.617516
 21
198.53007
 31
0.0
  0
LINE
  8
LC-006-005-----0
  6
CONTINUOUS
  5
CB
 10
756.46917
 20
230.381725
 30
0.0
 11
767.048744
 21
240.961298
 31
0.0
  0
LINE
  8
LC-006-005-----0
  6
CONTINUOUS
  5
CC
 10
709.026253
 20
185.767235
 30
0.0
 11
712.117616
 21
188.858598
 31
0.0
  0
LINE
  8
LC-006-005-----0
  6
CONTINUOUS
  5
CD
 10
721.533723
 20
198.274705
 30
0.0
 11
724.617516
 21
201.358498
 31
0.0
  0
LINE
  8
LC-006-005-----0
  6
CONTINUOUS
  5
CE
 10
753.569671
 20
230.310653
 30
0.0
 11
756.653319
 21
233.394301
 31
0.0
  0
LINE
  8
LC-006-005-----0
  6
CONTINUOUS
  5
CF
 10
764.216026
 20
240.957008
 30
0.0
 11
767.119816
 21
243.860797
 31
0.0
  0
LINE
  8
LC-006-005-----0
  6
CONTINUOUS
  5
D0
 10
709.026259
 20
188.595668
 30
0.0
 11
712.117617
 21
191.687026
 31
0.0
  0
LINE
  8
LC-006-005-----0
  6
CONTINUOUS
  5
D1
 10
721.533723
 20
201.103132
 30
0.0
 11
724.617516
 21
204.186925
 31
0.0
  0
LINE
  8
LC-006-005-----0
  6
CONTINUOUS
  5
D2
 10
750.741243
 20
230.310653
 30
0.0
 11
753.729277
 21
233.298686
 31
0.0
  0
LINE
  8
LC-006-005-----0
  6
CONTINUOUS
  5
D3
 10
764.31164
 20
243.88105
 30
0.0
 11
767.119816
 21
246.689225
 31
0.0
  0
LINE
  8
LC-006-005-----0
  6
CONTINUOUS
  5
D4
 10
709.026264
 20
191.4241
 30
0.0
 11
712.117618
 21
194.515454
 31
0.0
  0
LINE
  8
LC-006-005-----0
  6
CONTINUOUS
  5
D5
 10
721.533723
 20
203.931559
 30
0.0
 11
724.617516
 21
207.015352
 31
0.0
  0
LINE
  8
LC-006-005-----0
  6
CONTINUOUS
  5
D6
 10
747.912816
 20
230.310653
 30
0.0
 11
750.90085
 21
233.298686
 31
0.0
  0
LINE
  8
LC-006-005-----0
  6
CONTINUOUS
  5
D7
 10
764.31164
 20
246.709477
 30
0.0
 11
767.119816
 21
249.517652
 31
0.0
  0
LINE
  8
LC-006-005-----0
  6
CONTINUOUS
  5
D8
 10
709.026269
 20
194.252532
 30
0.0
 11
712.117619
 21
197.343882
 31
0.0
  0
LINE
  8
LC-006-005-----0
  6
CONTINUOUS
  5
D9
 10
721.533723
 20
206.759986
 30
0.0
 11
724.617516
 21
209.843779
 31
0.0
  0
LINE
  8
LC-006-005-----0
  6
CONTINUOUS
  5
DA
 10
745.084389
 20
230.310653
 30
0.0
 11
748.072423
 21
233.298686
 31
0.0
  0
LINE
  8
LC-006-005-----0
  6
CONTINUOUS
  5
DB
 10
764.31164
 20
249.537904
 30
0.0
 11
767.119816
 21
252.346079
 31
0.0
  0
LINE
  8
LC-006-005-----0
  6
CONTINUOUS
  5
DC
 10
709.026274
 20
197.080965
 30
0.0
 11
712.117619
 21
200.17231
 31
0.0
  0
LINE
  8
LC-006-005-----0
  6
CONTINUOUS
  5
DD
 10
721.533723
 20
209.588414
 30
0.0
 11
724.617516
 21
212.672206
 31
0.0
  0
LINE
  8
LC-006-005-----0
  6
CONTINUOUS
  5
DE
 10
742.255962
 20
230.310653
 30
0.0
 11
745.243996
 21
233.298686
 31
0.0
  0
LINE
  8
LC-006-005-----0
  6
CONTINUOUS
  5
DF
 10
764.31164
 20
252.366331
 30
0.0
 11
767.119816
 21
255.174506
 31
0.0
  0
LINE
  8
LC-006-005-----0
  6
CONTINUOUS
  5
E0
 10
709.02628
 20
199.909397
 30
0.0
 11
712.11762
 21
203.000738
 31
0.0
  0
LINE
  8
LC-006-005-----0
  6
CONTINUOUS
  5
E1
 10
721.533723
 20
212.416841
 30
0.0
 11
724.617516
 21
215.500633
 31
0.0
  0
LINE
  8
LC-006-005-----0
  6
CONTINUOUS
  5
E2
 10
739.427535
 20
230.310653
 30
0.0
 11
742.415569
 21
233.298686
 31
0.0
  0
LINE
  8
LC-006-005-----0
  6
CONTINUOUS
  5
E3
 10
764.31164
 20
255.194758
 30
0.0
 11
767.119816
 21
258.002933
 31
0.0
  0
LINE
  8
LC-006-005-----0
  6
CONTINUOUS
  5
E4
 10
709.026285
 20
202.73783
 30
0.0
 11
712.117621
 21
205.829165
 31
0.0
  0
LINE
  8
LC-006-005-----0
  6
CONTINUOUS
  5
E5
 10
721.533723
 20
215.245268
 30
0.0
 11
724.617516
 21
218.32906
 31
0.0
  0
LINE
  8
LC-006-005-----0
  6
CONTINUOUS
  5
E6
 10
736.599108
 20
230.310653
 30
0.0
 11
739.587141
 21
233.298686
 31
0.0
  0
LINE
  8
LC-006-005-----0
  6
CONTINUOUS
  5
E7
 10
764.31164
 20
258.023185
 30
0.0
 11
767.119816
 21
260.83136
 31
0.0
  0
LINE
  8
LC-006-005-----0
  6
CONTINUOUS
  5
E8
 10
709.02629
 20
205.566262
 30
0.0
 11
712.117621
 21
208.657593
 31
0.0
  0
LINE
  8
LC-006-005-----0
  6
CONTINUOUS
  5
E9
 10
721.533723
 20
218.073695
 30
0.0
 11
724.617516
 21
221.157488
 31
0.0
  0
LINE
  8
LC-006-005-----0
  6
CONTINUOUS
  5
EA
 10
733.770681
 20
230.310653
 30
0.0
 11
736.758714
 21
233.298686
 31
0.0
  0
LINE
  8
LC-006-005-----0
  6
CONTINUOUS
  5
EB
 10
764.31164
 20
260.851612
 30
0.0
 11
767.119816
 21
263.659787
 31
0.0
  0
LINE
  8
LC-006-005-----0
  6
CONTINUOUS
  5
EC
 10
709.026296
 20
208.394694
 30
0.0
 11
712.117622
 21
211.486021
 31
0.0
  0
LINE
  8
LC-006-005-----0
  6
CONTINUOUS
  5
ED
 10
721.533723
 20
220.902122
 30
0.0
 11
724.617516
 21
223.985915
 31
0.0
  0
LINE
  8
LC-006-005-----0
  6
CONTINUOUS
  5
EE
 10
730.942254
 20
230.310653
 30
0.0
 11
733.930287
 21
233.298686
 31
0.0
  0
LINE
  8
LC-006-005-----0
  6
CONTINUOUS
  5
EF
 10
764.31164
 20
263.680039
 30
0.0
 11
767.119816
 21
266.488214
 31
0.0
  0
LINE
  8
LC-006-005-----0
  6
CONTINUOUS
  5
F0
 10
709.026301
 20
211.223127
 30
0.0
 11
712.117623
 21
214.314449
 31
0.0
  0
LINE
  8
LC-006-005-----0
  6
CONTINUOUS
  5
F1
 10
721.533723
 20
223.730549
 30
0.0
 11
724.617516
 21
226.814342
 31
0.0
  0
LINE
  8
LC-006-005-----0
  6
CONTINUOUS
  5
F2
 10
728.113826
 20
230.310653
 30
0.0
 11
731.10186
 21
233.298686
 31
0.0
  0
LINE
  8
LC-006-005-----0
  6
CONTINUOUS
  5
F3
 10
764.31164
 20
266.508467
 30
0.0
 11
767.119816
 21
269.316642
 31
0.0
  0
LINE
  8
LC-006-005-----0
  6
CONTINUOUS
  5
F4
 10
709.026306
 20
214.051559
 30
0.0
 11
712.117624
 21
217.142877
 31
0.0
  0
LINE
  8
LC-006-005-----0
  6
CONTINUOUS
  5
F5
 10
721.533723
 20
226.558976
 30
0.0
 11
724.617516
 21
229.642769
 31
0.0
  0
LINE
  8
LC-006-005-----0
  6
CONTINUOUS
  5
F6
 10
725.285399
 20
230.310653
 30
0.0
 11
728.273433
 21
233.298686
 31
0.0
  0
LINE
  8
LC-006-005-----0
  6
CONTINUOUS
  5
F7
 10
764.31164
 20
269.336894
 30
0.0
 11
767.119816
 21
272.145069
 31
0.0
  0
LINE
  8
LC-006-005-----0
  6
CONTINUOUS
  5
F8
 10
834.905147
 20
339.9304
 30
0.0
 11
836.973011
 21
341.998264
 31
0.0
  0
LINE
  8
LC-006-005-----0
  6
CONTINUOUS
  5
F9
 10
709.026311
 20
216.879992
 30
0.0
 11
712.117624
 21
219.971305
 31
0.0
  0
LINE
  8
LC-006-005-----0
  6
CONTINUOUS
  5
FA
 10
721.533723
 20
229.387404
 30
0.0
 11
725.445006
 21
233.298686
 31
0.0
  0
LINE
  8
LC-006-005-----0
  6
CONTINUOUS
  5
FB
 10
764.31164
 20
272.165321
 30
0.0
 11
767.119816
 21
274.973496
 31
0.0
  0
LINE
  8
LC-006-005-----0
  6
CONTINUOUS
  5
FC
 10
831.864067
 20
339.717747
 30
0.0
 11
835.084599
 21
342.938279
 31
0.0
  0
LINE
  8
LC-006-005-----0
  6
CONTINUOUS
  5
FD
 10
709.026317
 20
219.708424
 30
0.0
 11
712.117625
 21
222.799733
 31
0.0
  0
LINE
  8
LC-006-005-----0
  6
CONTINUOUS
  5
FE
 10
719.681413
 20
230.36352
 30
0.0
 11
722.616579
 21
233.298686
 31
0.0
  0
LINE
  8
LC-006-005-----0
  6
CONTINUOUS
  5
FF
 10
764.31164
 20
274.993748
 30
0.0
 11
767.119816
 21
277.801923
 31
0.0
  0
LINE
  8
LC-006-005-----0
  6
CONTINUOUS
  5
100
 10
828.822987
 20
339.505095
 30
0.0
 11
832.043519
 21
342.725626
 31
0.0
  0
LINE
  8
LC-006-005-----0
  6
CONTINUOUS
  5
101
 10
709.026322
 20
222.536856
 30
0.0
 11
712.117626
 21
225.62816
 31
0.0
  0
LINE
  8
LC-006-005-----0
  6
CONTINUOUS
  5
102
 10
717.85582
 20
231.366355
 30
0.0
 11
719.855781
 21
233.366316
 31
0.0
  0
LINE
  8
LC-006-005-----0
  6
CONTINUOUS
  5
103
 10
764.31164
 20
277.822175
 30
0.0
 11
767.119816
 21
280.63035
 31
0.0
  0
LINE
  8
LC-006-005-----0
  6
CONTINUOUS
  5
104
 10
825.781907
 20
339.292442
 30
0.0
 11
829.002439
 21
342.512973
 31
0.0
  0
LINE
  8
LC-006-005-----0
  6
CONTINUOUS
  5
105
 10
709.026327
 20
225.365289
 30
0.0
 11
712.117627
 21
228.456588
 31
0.0
  0
LINE
  8
LC-006-005-----0
  6
CONTINUOUS
  5
106
 10
715.261172
 20
231.600134
 30
0.0
 11
715.783175
 21
232.122137
 31
0.0
  0
LINE
  8
LC-006-005-----0
  6
CONTINUOUS
  5
107
 10
716.567048
 20
232.906009
 30
0.0
 11
718.122305
 21
234.461266
 31
0.0
  0
LINE
  8
LC-006-005-----0
  6
CONTINUOUS
  5
108
 10
764.31164
 20
280.650602
 30
0.0
 11
767.119816
 21
283.458777
 31
0.0
  0
LINE
  8
LC-006-005-----0
  6
CONTINUOUS
  5
109
 10
822.740827
 20
339.079789
 30
0.0
 11
825.961359
 21
342.300321
 31
0.0
  0
LINE
  8
LC-006-005-----0
  6
CONTINUOUS
  5
10A
 10
709.026333
 20
228.193721
 30
0.0
 11
717.499865
 21
236.667254
 31
0.0
  0
LINE
  8
LC-006-005-----0
  6
CONTINUOUS
  5
10B
 10
764.31164
 20
283.479029
 30
0.0
 11
767.119816
 21
286.287204
 31
0.0
  0
LINE
  8
LC-006-005-----0
  6
CONTINUOUS
  5
10C
 10
819.699747
 20
338.867136
 30
0.0
 11
822.920279
 21
342.087668
 31
0.0
  0
LINE
  8
LC-006-005-----0
  6
CONTINUOUS
  5
10D
 10
707.302857
 20
229.298673
 30
0.0
 11
711.069299
 21
233.065115
 31
0.0
  0
LINE
  8
LC-006-005-----0
  6
CONTINUOUS
  5
10E
 10
714.540297
 20
236.536113
 30
0.0
 11
717.499867
 21
239.495683
 31
0.0
  0
LINE
  8
LC-006-005-----0
  6
CONTINUOUS
  5
10F
 10
764.31164
 20
286.307456
 30
0.0
 11
767.119816
 21
289.115631
 31
0.0
  0
LINE
  8
LC-006-005-----0
  6
CONTINUOUS
  5
110
 10
816.658667
 20
338.654483
 30
0.0
 11
819.879199
 21
341.875015
 31
0.0
  0
LINE
  8
LC-006-005-----0
  6
CONTINUOUS
  5
111
 10
707.120037
 20
231.94428
 30
0.0
 11
707.205596
 21
232.029839
 31
0.0
  0
LINE
  8
LC-006-005-----0
  6
CONTINUOUS
  5
112
 10
714.56715
 20
239.391393
 30
0.0
 11
717.499869
 21
242.324112
 31
0.0
  0
LINE
  8
LC-006-005-----0
  6
CONTINUOUS
  5
113
 10
764.31164
 20
289.135884
 30
0.0
 11
767.119816
 21
291.944059
 31
0.0
  0
LINE
  8
LC-006-005-----0
  6
CONTINUOUS
  5
114
 10
813.617588
 20
338.441831
 30
0.0
 11
816.838119
 21
341.662362
 31
0.0
  0
LINE
  8
LC-006-005-----0
  6
CONTINUOUS
  5
115
 10
714.594003
 20
242.246673
 30
0.0
 11
717.499871
 21
245.152541
 31
0.0
  0
LINE
  8
LC-006-005-----0
  6
CONTINUOUS
  5
116
 10
764.31164
 20
291.964311
 30
0.0
 11
767.119816
 21
294.772486
 31
0.0
  0
LINE
  8
LC-006-005-----0
  6
CONTINUOUS
  5
117
 10
810.576508
 20
338.229178
 30
0.0
 11
813.797039
 21
341.449709
 31
0.0
  0
LINE
  8
LC-006-005-----0
  6
CONTINUOUS
  5
118
 10
714.620856
 20
245.101954
 30
0.0
 11
717.499873
 21
247.98097
 31
0.0
  0
LINE
  8
LC-006-005-----0
  6
CONTINUOUS
  5
119
 10
764.31164
 20
294.792738
 30
0.0
 11
767.119816
 21
297.600913
 31
0.0
  0
LINE
  8
LC-006-005-----0
  6
CONTINUOUS
  5
11A
 10
807.535428
 20
338.016525
 30
0.0
 11
810.755959
 21
341.237056
 31
0.0
  0
LINE
  8
LC-006-005-----0
  6
CONTINUOUS
  5
11B
 10
714.64771
 20
247.957234
 30
0.0
 11
717.499875
 21
250.809399
 31
0.0
  0
LINE
  8
LC-006-005-----0
  6
CONTINUOUS
  5
11C
 10
764.31164
 20
297.621165
 30
0.0
 11
767.119816
 21
300.42934
 31
0.0
  0
LINE
  8
LC-006-005-----0
  6
CONTINUOUS
  5
11D
 10
804.494348
 20
337.803872
 30
0.0
 11
807.714879
 21
341.024403
 31
0.0
  0
LINE
  8
LC-006-005-----0
  6
CONTINUOUS
  5
11E
 10
714.674563
 20
250.812514
 30
0.0
 11
717.499877
 21
253.637828
 31
0.0
  0
LINE
  8
LC-006-005-----0
  6
CONTINUOUS
  5
11F
 10
764.31164
 20
300.449592
 30
0.0
 11
767.119816
 21
303.257767
 31
0.0
  0
LINE
  8
LC-006-005-----0
  6
CONTINUOUS
  5
120
 10
800.009181
 20
336.147133
 30
0.0
 11
804.673799
 21
340.811751
 31
0.0
  0
LINE
  8
LC-006-005-----0
  6
CONTINUOUS
  5
121
 10
714.701416
 20
253.667795
 30
0.0
 11
717.499879
 21
256.466257
 31
0.0
  0
LINE
  8
LC-006-005-----0
  6
CONTINUOUS
  5
122
 10
764.31164
 20
303.278019
 30
0.0
 11
770.045915
 21
309.012293
 31
0.0
  0
LINE
  8
LC-006-005-----0
  6
CONTINUOUS
  5
123
 10
796.322387
 20
335.288766
 30
0.0
 11
800.91932
 21
339.885698
 31
0.0
  0
LINE
  8
LC-006-005-----0
  6
CONTINUOUS
  5
124
 10
714.728269
 20
256.523075
 30
0.0
 11
717.499881
 21
259.294686
 31
0.0
  0
LINE
  8
LC-006-005-----0
  6
CONTINUOUS
  5
125
 10
764.31164
 20
306.106446
 30
0.0
 11
776.331356
 21
318.126162
 31
0.0
  0
LINE
  8
LC-006-005-----0
  6
CONTINUOUS
  5
126
 10
793.268074
 20
335.06288
 30
0.0
 11
796.508025
 21
338.302831
 31
0.0
  0
LINE
  8
LC-006-005-----0
  6
CONTINUOUS
  5
127
 10
714.755122
 20
259.378355
 30
0.0
 11
717.499882
 21
262.123115
 31
0.0
  0
LINE
  8
LC-006-005-----0
  6
CONTINUOUS
  5
128
 10
764.859447
 20
309.48268
 30
0.0
 11
772.371822
 21
316.995055
 31
0.0
  0
LINE
  8
LC-006-005-----0
  6
CONTINUOUS
  5
129
 10
773.524744
 20
318.147977
 30
0.0
 11
776.299005
 21
320.922238
 31
0.0
  0
LINE
  8
LC-006-005-----0
  6
CONTINUOUS
  5
12A
 10
790.213762
 20
334.836995
 30
0.0
 11
793.455921
 21
338.079154
 31
0.0
  0
LINE
  8
LC-006-005-----0
  6
CONTINUOUS
  5
12B
 10
714.781976
 20
262.233636
 30
0.0
 11
717.499884
 21
264.951544
 31
0.0
  0
LINE
  8
LC-006-005-----0
  6
CONTINUOUS
  5
12C
 10
763.884278
 20
311.335938
 30
0.0
 11
769.543395
 21
316.995055
 31
0.0
  0
LINE
  8
LC-006-005-----0
  6
CONTINUOUS
  5
12D
 10
773.524744
 20
320.976404
 30
0.0
 11
776.266654
 21
323.718314
 31
0.0
  0
LINE
  8
LC-006-005-----0
  6
CONTINUOUS
  5
12E
 10
778.507495
 20
325.959155
 30
0.0
 11
781.524555
 21
328.976215
 31
0.0
  0
LINE
  8
LC-006-005-----0
  6
CONTINUOUS
  5
12F
 10
787.159449
 20
334.611109
 30
0.0
 11
790.403816
 21
337.855476
 31
0.0
  0
LINE
  8
LC-006-005-----0
  6
CONTINUOUS
  5
130
 10
714.808829
 20
265.088916
 30
0.0
 11
717.499886
 21
267.779973
 31
0.0
  0
LINE
  8
LC-006-005-----0
  6
CONTINUOUS
  5
131
 10
764.129039
 20
314.409126
 30
0.0
 11
766.714967
 21
316.995055
 31
0.0
  0
LINE
  8
LC-006-005-----0
  6
CONTINUOUS
  5
132
 10
773.524744
 20
323.804831
 30
0.0
 11
781.680985
 21
331.961072
 31
0.0
  0
LINE
  8
LC-006-005-----0
  6
CONTINUOUS
  5
133
 10
784.105137
 20
334.385224
 30
0.0
 11
787.351712
 21
337.631799
 31
0.0
  0
LINE
  8
LC-006-005-----0
  6
CONTINUOUS
  5
134
 10
714.835682
 20
267.944196
 30
0.0
 11
717.499888
 21
270.608402
 31
0.0
  0
LINE
  8
LC-006-005-----0
  6
CONTINUOUS
  5
135
 10
773.524744
 20
326.633258
 30
0.0
 11
775.515391
 21
328.623905
 31
0.0
  0
LINE
  8
LC-006-005-----0
  6
CONTINUOUS
  5
136
 10
778.679796
 20
331.78831
 30
0.0
 11
784.299607
 21
337.408122
 31
0.0
  0
LINE
  8
LC-006-005-----0
  6
CONTINUOUS
  5
137
 10
714.862535
 20
270.799476
 30
0.0
 11
717.49989
 21
273.436832
 31
0.0
  0
LINE
  8
LC-006-005-----0
  6
CONTINUOUS
  5
138
 10
773.524744
 20
329.461685
 30
0.0
 11
775.515391
 21
331.452332
 31
0.0
  0
LINE
  8
LC-006-005-----0
  6
CONTINUOUS
  5
139
 10
778.836226
 20
334.773167
 30
0.0
 11
781.247503
 21
337.184444
 31
0.0
  0
LINE
  8
LC-006-005-----0
  6
CONTINUOUS
  5
13A
 10
714.889388
 20
273.654757
 30
0.0
 11
717.499892
 21
276.265261
 31
0.0
  0
LINE
  8
LC-006-005-----0
  6
CONTINUOUS
  5
13B
 10
773.524744
 20
332.290113
 30
0.0
 11
775.515391
 21
334.280759
 31
0.0
  0
LINE
  8
LC-006-005-----0
  6
CONTINUOUS
  5
13C
 10
714.916241
 20
276.510037
 30
0.0
 11
717.499894
 21
279.09369
 31
0.0
  0
LINE
  8
LC-006-005-----0
  6
CONTINUOUS
  5
13D
 10
714.943095
 20
279.365317
 30
0.0
 11
717.499896
 21
281.922119
 31
0.0
  0
LINE
  8
LC-006-005-----0
  6
CONTINUOUS
  5
13E
 10
714.969948
 20
282.220598
 30
0.0
 11
717.499898
 21
284.750548
 31
0.0
  0
LINE
  8
LC-006-005-----0
  6
CONTINUOUS
  5
13F
 10
714.996801
 20
285.075878
 30
0.0
 11
717.4999
 21
287.578977
 31
0.0
  0
LINE
  8
LC-006-005-----0
  6
CONTINUOUS
  5
140
 10
715.023654
 20
287.931158
 30
0.0
 11
717.499902
 21
290.407406
 31
0.0
  0
LINE
  8
LC-006-005-----0
  6
CONTINUOUS
  5
141
 10
715.050507
 20
290.786439
 30
0.0
 11
717.499904
 21
293.235835
 31
0.0
  0
LINE
  8
LC-006-005-----0
  6
CONTINUOUS
  5
142
 10
715.077361
 20
293.641719
 30
0.0
 11
717.499905
 21
296.064264
 31
0.0
  0
LINE
  8
LC-006-005-----0
  6
CONTINUOUS
  5
143
 10
715.104214
 20
296.496999
 30
0.0
 11
717.499907
 21
298.892693
 31
0.0
  0
LINE
  8
LC-006-005-----0
  6
CONTINUOUS
  5
144
 10
714.890889
 20
299.112102
 30
0.0
 11
717.077473
 21
301.298686
 31
0.0
  0
ENDBLK
  8
0
  5
145
  0
BLOCK
  8
0
  5
147
  2
*X3
 70
    65
 10
475.619955
 20
272.897885
 30
0.0
  3
*X3
  0
LINE
  8
LC-006-005-----0
  6
CONTINUOUS
  5
148
 10
503.619955
 20
327.93762
 30
0.0
 11
502.955322
 21
328.602253
 31
0.0
  0
LINE
  8
LC-006-005-----0
  6
CONTINUOUS
  5
149
 10
503.619955
 20
325.109192
 30
0.0
 11
502.119955
 21
326.609192
 31
0.0
  0
LINE
  8
LC-006-005-----0
  6
CONTINUOUS
  5
14A
 10
501.82367
 20
326.905478
 30
0.0
 11
499.091619
 21
329.637529
 31
0.0
  0
LINE
  8
LC-006-005-----0
  6
CONTINUOUS
  5
14B
 10
503.619955
 20
322.280765
 30
0.0
 11
502.119955
 21
323.780765
 31
0.0
  0
LINE
  8
LC-006-005-----0
  6
CONTINUOUS
  5
14C
 10
498.002835
 20
327.897885
 30
0.0
 11
496.002835
 21
329.897885
 31
0.0
  0
LINE
  8
LC-006-005-----0
  6
CONTINUOUS
  5
14D
 10
503.619955
 20
319.452338
 30
0.0
 11
502.119955
 21
320.952338
 31
0.0
  0
LINE
  8
LC-006-005-----0
  6
CONTINUOUS
  5
14E
 10
495.174408
 20
327.897885
 30
0.0
 11
493.174408
 21
329.897885
 31
0.0
  0
LINE
  8
LC-006-005-----0
  6
CONTINUOUS
  5
14F
 10
503.619955
 20
316.623911
 30
0.0
 11
502.119955
 21
318.123911
 31
0.0
  0
LINE
  8
LC-006-005-----0
  6
CONTINUOUS
  5
150
 10
492.345981
 20
327.897885
 30
0.0
 11
490.345981
 21
329.897885
 31
0.0
  0
LINE
  8
LC-006-005-----0
  6
CONTINUOUS
  5
151
 10
503.619955
 20
313.795484
 30
0.0
 11
502.119955
 21
315.295484
 31
0.0
  0
LINE
  8
LC-006-005-----0
  6
CONTINUOUS
  5
152
 10
489.517554
 20
327.897885
 30
0.0
 11
487.517554
 21
329.897885
 31
0.0
  0
LINE
  8
LC-006-005-----0
  6
CONTINUOUS
  5
153
 10
503.619955
 20
310.967057
 30
0.0
 11
502.119955
 21
312.467057
 31
0.0
  0
LINE
  8
LC-006-005-----0
  6
CONTINUOUS
  5
154
 10
486.689127
 20
327.897885
 30
0.0
 11
484.689127
 21
329.897885
 31
0.0
  0
LINE
  8
LC-006-005-----0
  6
CONTINUOUS
  5
155
 10
503.619955
 20
308.13863
 30
0.0
 11
502.119955
 21
309.63863
 31
0.0
  0
LINE
  8
LC-006-005-----0
  6
CONTINUOUS
  5
156
 10
483.8607
 20
327.897885
 30
0.0
 11
481.8607
 21
329.897885
 31
0.0
  0
LINE
  8
LC-006-005-----0
  6
CONTINUOUS
  5
157
 10
477.119955
 20
334.63863
 30
0.0
 11
475.619955
 21
336.13863
 31
0.0
  0
LINE
  8
LC-006-005-----0
  6
CONTINUOUS
  5
158
 10
503.619955
 20
305.310203
 30
0.0
 11
502.119955
 21
306.810203
 31
0.0
  0
LINE
  8
LC-006-005-----0
  6
CONTINUOUS
  5
159
 10
481.032272
 20
327.897885
 30
0.0
 11
479.032272
 21
329.897885
 31
0.0
  0
LINE
  8
LC-006-005-----0
  6
CONTINUOUS
  5
15A
 10
477.119955
 20
331.810203
 30
0.0
 11
475.619955
 21
333.310203
 31
0.0
  0
LINE
  8
LC-006-005-----0
  6
CONTINUOUS
  5
15B
 10
503.619955
 20
302.481775
 30
0.0
 11
502.119955
 21
303.981775
 31
0.0
  0
LINE
  8
LC-006-005-----0
  6
CONTINUOUS
  5
15C
 10
478.203845
 20
327.897885
 30
0.0
 11
475.619955
 21
330.481775
 31
0.0
  0
LINE
  8
LC-006-005-----0
  6
CONTINUOUS
  5
15D
 10
503.619955
 20
299.653348
 30
0.0
 11
502.119955
 21
301.153348
 31
0.0
  0
LINE
  8
LC-006-005-----0
  6
CONTINUOUS
  5
15E
 10
503.619955
 20
296.824921
 30
0.0
 11
502.119955
 21
298.324921
 31
0.0
  0
LINE
  8
LC-006-005-----0
  6
CONTINUOUS
  5
15F
 10
503.619955
 20
293.996494
 30
0.0
 11
502.119955
 21
295.496494
 31
0.0
  0
LINE
  8
LC-006-005-----0
  6
CONTINUOUS
  5
160
 10
503.619955
 20
291.168067
 30
0.0
 11
502.119955
 21
292.668067
 31
0.0
  0
LINE
  8
LC-006-005-----0
  6
CONTINUOUS
  5
161
 10
503.619955
 20
288.33964
 30
0.0
 11
502.119955
 21
289.83964
 31
0.0
  0
LINE
  8
LC-006-005-----0
  6
CONTINUOUS
  5
162
 10
503.619955
 20
285.511213
 30
0.0
 11
502.119955
 21
287.011213
 31
0.0
  0
LINE
  8
LC-006-005-----0
  6
CONTINUOUS
  5
163
 10
503.619955
 20
282.682786
 30
0.0
 11
502.119955
 21
284.182786
 31
0.0
  0
LINE
  8
LC-006-005-----0
  6
CONTINUOUS
  5
164
 10
502.42334
 20
281.050974
 30
0.0
 11
500.84599
 21
282.628324
 31
0.0
  0
LINE
  8
LC-006-005-----0
  6
CONTINUOUS
  5
165
 10
500.19263
 20
280.453257
 30
0.0
 11
498.615279
 21
282.030607
 31
0.0
  0
LINE
  8
LC-006-005-----0
  6
CONTINUOUS
  5
166
 10
497.919574
 20
279.897885
 30
0.0
 11
495.919574
 21
281.897885
 31
0.0
  0
LINE
  8
LC-006-005-----0
  6
CONTINUOUS
  5
167
 10
495.091147
 20
279.897885
 30
0.0
 11
493.091147
 21
281.897885
 31
0.0
  0
LINE
  8
LC-006-005-----0
  6
CONTINUOUS
  5
168
 10
492.26272
 20
279.897885
 30
0.0
 11
490.26272
 21
281.897885
 31
0.0
  0
LINE
  8
LC-006-005-----0
  6
CONTINUOUS
  5
169
 10
489.434293
 20
279.897885
 30
0.0
 11
487.434293
 21
281.897885
 31
0.0
  0
LINE
  8
LC-006-005-----0
  6
CONTINUOUS
  5
16A
 10
486.605866
 20
279.897885
 30
0.0
 11
484.605866
 21
281.897885
 31
0.0
  0
LINE
  8
LC-006-005-----0
  6
CONTINUOUS
  5
16B
 10
483.777438
 20
279.897885
 30
0.0
 11
481.777438
 21
281.897885
 31
0.0
  0
LINE
  8
LC-006-005-----0
  6
CONTINUOUS
  5
16C
 10
480.949011
 20
279.897885
 30
0.0
 11
478.949011
 21
281.897885
 31
0.0
  0
LINE
  8
LC-006-005-----0
  6
CONTINUOUS
  5
16D
 10
478.120584
 20
279.897885
 30
0.0
 11
476.120584
 21
281.897885
 31
0.0
  0
LINE
  8
LC-006-005-----0
  6
CONTINUOUS
  5
16E
 10
477.119955
 20
278.070087
 30
0.0
 11
475.619955
 21
279.570087
 31
0.0
  0
LINE
  8
LC-006-005-----0
  6
CONTINUOUS
  5
16F
 10
477.119955
 20
275.24166
 30
0.0
 11
475.619955
 21
276.74166
 31
0.0
  0
LINE
  8
LC-006-005-----0
  6
CONTINUOUS
  5
170
 10
476.635303
 20
272.897885
 30
0.0
 11
475.619955
 21
273.913233
 31
0.0
  0
ENDBLK
  8
0
  5
171
  0
BLOCK
  8
0
  5
173
  2
*X4
 70
    65
 10
542.333943
 20
263.953064
 30
0.0
  3
*X4
  0
LINE
  8
LC-006-005-----0
  6
CONTINUOUS
  5
174
 10
544.192843
 20
264.178557
 30
0.0
 11
548.10845
 21
268.094165
 31
0.0
  0
LINE
  8
LC-006-005-----0
  6
CONTINUOUS
  5
175
 10
542.701001
 20
265.515143
 30
0.0
 11
546.771864
 21
269.586006
 31
0.0
  0
LINE
  8
LC-006-005-----0
  6
CONTINUOUS
  5
176
 10
542.649192
 20
268.291761
 30
0.0
 11
543.995247
 21
269.637816
 31
0.0
  0
ENDBLK
  8
0
  5
177
  0
BLOCK
  8
0
  5
179
  2
*X5
 70
    65
 10
591.905967
 20
263.953064
 30
0.0
  3
*X5
  0
LINE
  8
LC-006-005-----0
  6
CONTINUOUS
  5
17A
 10
594.879158
 20
263.953184
 30
0.0
 11
597.905847
 21
266.979873
 31
0.0
  0
LINE
  8
LC-006-005-----0
  6
CONTINUOUS
  5
17B
 10
592.858202
 20
264.760655
 30
0.0
 11
597.098376
 21
269.000829
 31
0.0
  0
LINE
  8
LC-006-005-----0
  6
CONTINUOUS
  5
17C
 10
591.921112
 20
266.651993
 30
0.0
 11
595.207038
 21
269.937919
 31
0.0
  0
ENDBLK
  8
0
  5
17D
  0
BLOCK
  8
0
  5
17F
  2
*X6
 70
    65
 10
477.119955
 20
227.647885
 30
0.0
  3
*X6
  0
LINE
  8
LC-006-005-----0
  6
CONTINUOUS
  5
180
 10
591.187402
 20
257.433001
 30
0.0
 11
592.39592
 21
258.641519
 31
0.0
  0
LINE
  8
LC-006-005-----0
  6
CONTINUOUS
  5
181
 10
590.119955
 20
259.193982
 30
0.0
 11
594.33494
 21
263.408966
 31
0.0
  0
LINE
  8
LC-006-005-----0
  6
CONTINUOUS
  5
182
 10
590.119955
 20
262.022409
 30
0.0
 11
592.419955
 21
264.322409
 31
0.0
  0
LINE
  8
LC-006-005-----0
  6
CONTINUOUS
  5
183
 10
590.119955
 20
264.850836
 30
0.0
 11
592.419955
 21
267.150836
 31
0.0
  0
LINE
  8
LC-006-005-----0
  6
CONTINUOUS
  5
184
 10
595.678153
 20
270.409034
 30
0.0
 11
597.069955
 21
271.800836
 31
0.0
  0
LINE
  8
LC-006-005-----0
  6
CONTINUOUS
  5
185
 10
590.119955
 20
267.679263
 30
0.0
 11
595.349726
 21
272.909034
 31
0.0
  0
LINE
  8
LC-006-005-----0
  6
CONTINUOUS
  5
186
 10
590.119955
 20
270.50769
 30
0.0
 11
592.911178
 21
273.298913
 31
0.0
  0
LINE
  8
LC-006-005-----0
  6
CONTINUOUS
  5
187
 10
596.81015
 20
277.197885
 30
0.0
 11
599.219955
 21
279.60769
 31
0.0
  0
LINE
  8
LC-006-005-----0
  6
CONTINUOUS
  5
188
 10
590.119955
 20
273.336117
 30
0.0
 11
592.419955
 21
275.636117
 31
0.0
  0
LINE
  8
LC-006-005-----0
  6
CONTINUOUS
  5
189
 10
593.981723
 20
277.197885
 30
0.0
 11
596.481723
 21
279.697885
 31
0.0
  0
LINE
  8
LC-006-005-----0
  6
CONTINUOUS
  5
18A
 10
590.119955
 20
276.164544
 30
0.0
 11
593.653296
 21
279.697885
 31
0.0
  0
LINE
  8
LC-006-005-----0
  6
CONTINUOUS
  5
18B
 10
590.119955
 20
278.992971
 30
0.0
 11
592.550473
 21
281.423489
 31
0.0
  0
LINE
  8
LC-006-005-----0
  6
CONTINUOUS
  5
18C
 10
590.092841
 20
281.794285
 30
0.0
 11
592.415709
 21
284.117152
 31
0.0
  0
LINE
  8
LC-006-005-----0
  6
CONTINUOUS
  5
18D
 10
589.933383
 20
284.463254
 30
0.0
 11
592.157141
 21
286.687011
 31
0.0
  0
LINE
  8
LC-006-005-----0
  6
CONTINUOUS
  5
18E
 10
589.647423
 20
287.005721
 30
0.0
 11
591.788909
 21
289.147207
 31
0.0
  0
LINE
  8
LC-006-005-----0
  6
CONTINUOUS
  5
18F
 10
589.249625
 20
289.436349
 30
0.0
 11
591.322007
 21
291.508732
 31
0.0
  0
LINE
  8
LC-006-005-----0
  6
CONTINUOUS
  5
190
 10
588.75131
 20
291.766462
 30
0.0
 11
590.765154
 21
293.780306
 31
0.0
  0
LINE
  8
LC-006-005-----0
  6
CONTINUOUS
  5
191
 10
588.161404
 20
294.004983
 30
0.0
 11
590.125375
 21
295.968954
 31
0.0
  0
LINE
  8
LC-006-005-----0
  6
CONTINUOUS
  5
192
 10
548.822019
 20
257.494025
 30
0.0
 11
550.119955
 21
258.791961
 31
0.0
  0
LINE
  8
LC-006-005-----0
  6
CONTINUOUS
  5
193
 10
587.487056
 20
296.159062
 30
0.0
 11
589.408396
 21
298.080402
 31
0.0
  0
LINE
  8
LC-006-005-----0
  6
CONTINUOUS
  5
194
 10
547.819955
 20
259.320388
 30
0.0
 11
550.119955
 21
261.620388
 31
0.0
  0
LINE
  8
LC-006-005-----0
  6
CONTINUOUS
  5
195
 10
586.734059
 20
298.234492
 30
0.0
 11
588.618933
 21
300.119366
 31
0.0
  0
LINE
  8
LC-006-005-----0
  6
CONTINUOUS
  5
196
 10
546.580106
 20
260.908966
 30
0.0
 11
550.119955
 21
264.448816
 31
0.0
  0
LINE
  8
LC-006-005-----0
  6
CONTINUOUS
  5
197
 10
585.90715
 20
300.23601
 30
0.0
 11
587.760885
 21
302.089746
 31
0.0
  0
LINE
  8
LC-006-005-----0
  6
CONTINUOUS
  5
198
 10
545.119955
 20
262.277243
 30
0.0
 11
546.251679
 21
263.408966
 31
0.0
  0
LINE
  8
LC-006-005-----0
  6
CONTINUOUS
  5
199
 10
547.819955
 20
264.977243
 30
0.0
 11
550.119955
 21
267.277243
 31
0.0
  0
LINE
  8
LC-006-005-----0
  6
CONTINUOUS
  5
19A
 10
585.010223
 20
302.16751
 30
0.0
 11
586.837496
 21
303.994784
 31
0.0
  0
LINE
  8
LC-006-005-----0
  6
CONTINUOUS
  5
19B
 10
547.819955
 20
267.80567
 30
0.0
 11
550.119955
 21
270.10567
 31
0.0
  0
LINE
  8
LC-006-005-----0
  6
CONTINUOUS
  5
19C
 10
584.046481
 20
304.032196
 30
0.0
 11
585.851457
 21
305.837171
 31
0.0
  0
LINE
  8
LC-006-005-----0
  6
CONTINUOUS
  5
19D
 10
547.207424
 20
270.021565
 30
0.0
 11
550.119955
 21
272.934097
 31
0.0
  0
LINE
  8
LC-006-005-----0
  6
CONTINUOUS
  5
19E
 10
583.018559
 20
305.832701
 30
0.0
 11
584.804996
 21
307.619138
 31
0.0
  0
LINE
  8
LC-006-005-----0
  6
CONTINUOUS
  5
19F
 10
544.766465
 20
270.409034
 30
0.0
 11
550.119955
 21
275.762524
 31
0.0
  0
LINE
  8
LC-006-005-----0
  6
CONTINUOUS
  5
1A0
 10
581.928605
 20
307.571174
 30
0.0
 11
583.699945
 21
309.342514
 31
0.0
  0
LINE
  8
LC-006-005-----0
  6
CONTINUOUS
  5
1A1
 10
543.169955
 20
271.640951
 30
0.0
 11
544.438038
 21
272.909034
 31
0.0
  0
LINE
  8
LC-006-005-----0
  6
CONTINUOUS
  5
1A2
 10
547.815979
 20
276.286975
 30
0.0
 11
549.974835
 21
278.445831
 31
0.0
  0
LINE
  8
LC-006-005-----0
  6
CONTINUOUS
  5
1A3
 10
580.778349
 20
309.249345
 30
0.0
 11
582.537787
 21
311.008783
 31
0.0
  0
LINE
  8
LC-006-005-----0
  6
CONTINUOUS
  5
1A4
 10
545.898462
 20
277.197885
 30
0.0
 11
548.381312
 21
279.680735
 31
0.0
  0
LINE
  8
LC-006-005-----0
  6
CONTINUOUS
  5
1A5
 10
579.569153
 20
310.868576
 30
0.0
 11
581.319691
 21
312.619114
 31
0.0
  0
LINE
  8
LC-006-005-----0
  6
CONTINUOUS
  5
1A6
 10
543.070035
 20
277.197885
 30
0.0
 11
545.520035
 21
279.647885
 31
0.0
  0
LINE
  8
LC-006-005-----0
  6
CONTINUOUS
  5
1A7
 10
578.302044
 20
312.429894
 30
0.0
 11
580.046548
 21
314.174398
 31
0.0
  0
LINE
  8
LC-006-005-----0
  6
CONTINUOUS
  5
1A8
 10
540.241608
 20
277.197885
 30
0.0
 11
542.691608
 21
279.647885
 31
0.0
  0
LINE
  8
LC-006-005-----0
  6
CONTINUOUS
  5
1A9
 10
576.977747
 20
313.934024
 30
0.0
 11
578.718985
 21
315.675263
 31
0.0
  0
LINE
  8
LC-006-005-----0
  6
CONTINUOUS
  5
1AA
 10
537.413181
 20
277.197885
 30
0.0
 11
539.863181
 21
279.647885
 31
0.0
  0
LINE
  8
LC-006-005-----0
  6
CONTINUOUS
  5
1AB
 10
575.596698
 20
315.381402
 30
0.0
 11
577.337385
 21
317.12209
 31
0.0
  0
LINE
  8
LC-006-005-----0
  6
CONTINUOUS
  5
1AC
 10
534.584754
 20
277.197885
 30
0.0
 11
537.034754
 21
279.647885
 31
0.0
  0
LINE
  8
LC-006-005-----0
  6
CONTINUOUS
  5
1AD
 10
574.159057
 20
316.772188
 30
0.0
 11
575.901889
 21
318.515021
 31
0.0
  0
LINE
  8
LC-006-005-----0
  6
CONTINUOUS
  5
1AE
 10
531.756326
 20
277.197885
 30
0.0
 11
534.206326
 21
279.647885
 31
0.0
  0
LINE
  8
LC-006-005-----0
  6
CONTINUOUS
  5
1AF
 10
572.66471
 20
318.106269
 30
0.0
 11
574.412404
 21
319.853963
 31
0.0
  0
LINE
  8
LC-006-005-----0
  6
CONTINUOUS
  5
1B0
 10
528.927899
 20
277.197885
 30
0.0
 11
531.377899
 21
279.647885
 31
0.0
  0
LINE
  8
LC-006-005-----0
  6
CONTINUOUS
  5
1B1
 10
571.113271
 20
319.383257
 30
0.0
 11
572.8686
 21
321.138586
 31
0.0
  0
LINE
  8
LC-006-005-----0
  6
CONTINUOUS
  5
1B2
 10
526.099472
 20
277.197885
 30
0.0
 11
528.549472
 21
279.647885
 31
0.0
  0
LINE
  8
LC-006-005-----0
  6
CONTINUOUS
  5
1B3
 10
569.504065
 20
320.602478
 30
0.0
 11
571.269902
 21
322.368315
 31
0.0
  0
LINE
  8
LC-006-005-----0
  6
CONTINUOUS
  5
1B4
 10
523.271045
 20
277.197885
 30
0.0
 11
525.721045
 21
279.647885
 31
0.0
  0
LINE
  8
LC-006-005-----0
  6
CONTINUOUS
  5
1B5
 10
567.836118
 20
321.762958
 30
0.0
 11
569.615477
 21
323.542317
 31
0.0
  0
LINE
  8
LC-006-005-----0
  6
CONTINUOUS
  5
1B6
 10
520.442618
 20
277.197885
 30
0.0
 11
522.892618
 21
279.647885
 31
0.0
  0
LINE
  8
LC-006-005-----0
  6
CONTINUOUS
  5
1B7
 10
566.108129
 20
322.863396
 30
0.0
 11
567.904215
 21
324.659482
 31
0.0
  0
LINE
  8
LC-006-005-----0
  6
CONTINUOUS
  5
1B8
 10
517.614191
 20
277.197885
 30
0.0
 11
520.064191
 21
279.647885
 31
0.0
  0
LINE
  8
LC-006-005-----0
  6
CONTINUOUS
  5
1B9
 10
564.318433
 20
323.902127
 30
0.0
 11
566.134701
 21
325.718395
 31
0.0
  0
LINE
  8
LC-006-005-----0
  6
CONTINUOUS
  5
1BA
 10
514.785764
 20
277.197885
 30
0.0
 11
517.235764
 21
279.647885
 31
0.0
  0
LINE
  8
LC-006-005-----0
  6
CONTINUOUS
  5
1BB
 10
562.464958
 20
324.87708
 30
0.0
 11
564.305182
 21
326.717303
 31
0.0
  0
LINE
  8
LC-006-005-----0
  6
CONTINUOUS
  5
1BC
 10
511.957337
 20
277.197885
 30
0.0
 11
514.407337
 21
279.647885
 31
0.0
  0
LINE
  8
LC-006-005-----0
  6
CONTINUOUS
  5
1BD
 10
560.545161
 20
325.785709
 30
0.0
 11
562.413517
 21
327.654066
 31
0.0
  0
LINE
  8
LC-006-005-----0
  6
CONTINUOUS
  5
1BE
 10
509.128909
 20
277.197885
 30
0.0
 11
511.578909
 21
279.647885
 31
0.0
  0
LINE
  8
LC-006-005-----0
  6
CONTINUOUS
  5
1BF
 10
558.555941
 20
326.624916
 30
0.0
 11
560.457119
 21
328.526095
 31
0.0
  0
LINE
  8
LC-006-005-----0
  6
CONTINUOUS
  5
1C0
 10
506.300482
 20
277.197885
 30
0.0
 11
508.750482
 21
279.647885
 31
0.0
  0
LINE
  8
LC-006-005-----0
  6
CONTINUOUS
  5
1C1
 10
556.493534
 20
327.390937
 30
0.0
 11
558.432869
 21
329.330271
 31
0.0
  0
LINE
  8
LC-006-005-----0
  6
CONTINUOUS
  5
1C2
 10
503.472055
 20
277.197885
 30
0.0
 11
505.922055
 21
279.647885
 31
0.0
  0
LINE
  8
LC-006-005-----0
  6
CONTINUOUS
  5
1C3
 10
554.353362
 20
328.079192
 30
0.0
 11
556.337015
 21
330.062845
 31
0.0
  0
LINE
  8
LC-006-005-----0
  6
CONTINUOUS
  5
1C4
 10
500.643628
 20
277.197885
 30
0.0
 11
503.093628
 21
279.647885
 31
0.0
  0
LINE
  8
LC-006-005-----0
  6
CONTINUOUS
  5
1C5
 10
552.12983
 20
328.684087
 30
0.0
 11
554.165029
 21
330.719286
 31
0.0
  0
LINE
  8
LC-006-005-----0
  6
CONTINUOUS
  5
1C6
 10
493.015201
 20
272.397885
 30
0.0
 11
495.619955
 21
275.002639
 31
0.0
  0
LINE
  8
LC-006-005-----0
  6
CONTINUOUS
  5
1C7
 10
497.815201
 20
277.197885
 30
0.0
 11
500.265201
 21
279.647885
 31
0.0
  0
LINE
  8
LC-006-005-----0
  6
CONTINUOUS
  5
1C8
 10
549.81605
 20
329.198734
 30
0.0
 11
551.911417
 21
331.294101
 31
0.0
  0
LINE
  8
LC-006-005-----0
  6
CONTINUOUS
  5
1C9
 10
490.186774
 20
272.397885
 30
0.0
 11
492.686774
 21
274.897885
 31
0.0
  0
LINE
  8
LC-006-005-----0
  6
CONTINUOUS
  5
1CA
 10
493.619955
 20
275.831067
 30
0.0
 11
497.436774
 21
279.647885
 31
0.0
  0
LINE
  8
LC-006-005-----0
  6
CONTINUOUS
  5
1CB
 10
547.403438
 20
329.61455
 30
0.0
 11
549.569455
 21
331.780567
 31
0.0
  0
LINE
  8
LC-006-005-----0
  6
CONTINUOUS
  5
1CC
 10
487.358347
 20
272.397885
 30
0.0
 11
489.858347
 21
274.897885
 31
0.0
  0
LINE
  8
LC-006-005-----0
  6
CONTINUOUS
  5
1CD
 10
493.619955
 20
278.659494
 30
0.0
 11
494.608347
 21
279.647885
 31
0.0
  0
LINE
  8
LC-006-005-----0
  6
CONTINUOUS
  5
1CE
 10
544.881142
 20
329.92068
 30
0.0
 11
547.130822
 21
332.17036
 31
0.0
  0
LINE
  8
LC-006-005-----0
  6
CONTINUOUS
  5
1CF
 10
484.533651
 20
272.401616
 30
0.0
 11
487.02992
 21
274.897885
 31
0.0
  0
LINE
  8
LC-006-005-----0
  6
CONTINUOUS
  5
1D0
 10
542.235159
 20
330.103124
 30
0.0
 11
544.585061
 21
332.453027
 31
0.0
  0
LINE
  8
LC-006-005-----0
  6
CONTINUOUS
  5
1D1
 10
483.619955
 20
274.316348
 30
0.0
 11
485.135724
 21
275.832117
 31
0.0
  0
LINE
  8
LC-006-005-----0
  6
CONTINUOUS
  5
1D2
 10
539.451492
 20
330.147885
 30
0.0
 11
541.918788
 21
332.615181
 31
0.0
  0
LINE
  8
LC-006-005-----0
  6
CONTINUOUS
  5
1D3
 10
482.37151
 20
275.89633
 30
0.0
 11
483.72151
 21
277.24633
 31
0.0
  0
LINE
  8
LC-006-005-----0
  6
CONTINUOUS
  5
1D4
 10
536.623065
 20
330.147885
 30
0.0
 11
539.123065
 21
332.647885
 31
0.0
  0
LINE
  8
LC-006-005-----0
  6
CONTINUOUS
  5
1D5
 10
480.794638
 20
277.147885
 30
0.0
 11
482.307297
 21
278.660544
 31
0.0
  0
LINE
  8
LC-006-005-----0
  6
CONTINUOUS
  5
1D6
 10
533.794638
 20
330.147885
 30
0.0
 11
536.294638
 21
332.647885
 31
0.0
  0
LINE
  8
LC-006-005-----0
  6
CONTINUOUS
  5
1D7
 10
477.966211
 20
277.147885
 30
0.0
 11
480.466211
 21
279.647885
 31
0.0
  0
LINE
  8
LC-006-005-----0
  6
CONTINUOUS
  5
1D8
 10
530.966211
 20
330.147885
 30
0.0
 11
533.466211
 21
332.647885
 31
0.0
  0
LINE
  8
LC-006-005-----0
  6
CONTINUOUS
  5
1D9
 10
477.119955
 20
279.130056
 30
0.0
 11
477.637784
 21
279.647885
 31
0.0
  0
LINE
  8
LC-006-005-----0
  6
CONTINUOUS
  5
1DA
 10
528.137784
 20
330.147885
 30
0.0
 11
530.637784
 21
332.647885
 31
0.0
  0
LINE
  8
LC-006-005-----0
  6
CONTINUOUS
  5
1DB
 10
525.309357
 20
330.147885
 30
0.0
 11
527.809357
 21
332.647885
 31
0.0
  0
LINE
  8
LC-006-005-----0
  6
CONTINUOUS
  5
1DC
 10
522.48093
 20
330.147885
 30
0.0
 11
524.98093
 21
332.647885
 31
0.0
  0
LINE
  8
LC-006-005-----0
  6
CONTINUOUS
  5
1DD
 10
519.652503
 20
330.147885
 30
0.0
 11
522.152503
 21
332.647885
 31
0.0
  0
LINE
  8
LC-006-005-----0
  6
CONTINUOUS
  5
1DE
 10
516.824075
 20
330.147885
 30
0.0
 11
519.324075
 21
332.647885
 31
0.0
  0
LINE
  8
LC-006-005-----0
  6
CONTINUOUS
  5
1DF
 10
513.995648
 20
330.147885
 30
0.0
 11
516.495648
 21
332.647885
 31
0.0
  0
LINE
  8
LC-006-005-----0
  6
CONTINUOUS
  5
1E0
 10
511.167221
 20
330.147885
 30
0.0
 11
513.667221
 21
332.647885
 31
0.0
  0
LINE
  8
LC-006-005-----0
  6
CONTINUOUS
  5
1E1
 10
508.338794
 20
330.147885
 30
0.0
 11
510.838794
 21
332.647885
 31
0.0
  0
LINE
  8
LC-006-005-----0
  6
CONTINUOUS
  5
1E2
 10
505.510367
 20
330.147885
 30
0.0
 11
508.010367
 21
332.647885
 31
0.0
  0
LINE
  8
LC-006-005-----0
  6
CONTINUOUS
  5
1E3
 10
502.68194
 20
330.147885
 30
0.0
 11
505.18194
 21
332.647885
 31
0.0
  0
LINE
  8
LC-006-005-----0
  6
CONTINUOUS
  5
1E4
 10
499.853513
 20
330.147885
 30
0.0
 11
502.353513
 21
332.647885
 31
0.0
  0
LINE
  8
LC-006-005-----0
  6
CONTINUOUS
  5
1E5
 10
497.025086
 20
330.147885
 30
0.0
 11
499.525086
 21
332.647885
 31
0.0
  0
LINE
  8
LC-006-005-----0
  6
CONTINUOUS
  5
1E6
 10
494.196658
 20
330.147885
 30
0.0
 11
496.696658
 21
332.647885
 31
0.0
  0
LINE
  8
LC-006-005-----0
  6
CONTINUOUS
  5
1E7
 10
493.619955
 20
332.399609
 30
0.0
 11
495.619955
 21
334.399609
 31
0.0
  0
LINE
  8
LC-006-005-----0
  6
CONTINUOUS
  5
1E8
 10
493.26753
 20
334.875611
 30
0.0
 11
495.406868
 21
337.014949
 31
0.0
  0
LINE
  8
LC-006-005-----0
  6
CONTINUOUS
  5
1E9
 10
490.461377
 20
334.897885
 30
0.0
 11
492.961377
 21
337.397885
 31
0.0
  0
LINE
  8
LC-006-005-----0
  6
CONTINUOUS
  5
1EA
 10
487.63295
 20
334.897885
 30
0.0
 11
490.13295
 21
337.397885
 31
0.0
  0
LINE
  8
LC-006-005-----0
  6
CONTINUOUS
  5
1EB
 10
480.054523
 20
330.147885
 30
0.0
 11
487.304523
 21
337.397885
 31
0.0
  0
LINE
  8
LC-006-005-----0
  6
CONTINUOUS
  5
1EC
 10
477.226096
 20
330.147885
 30
0.0
 11
479.726096
 21
332.647885
 31
0.0
  0
LINE
  8
LC-006-005-----0
  6
CONTINUOUS
  5
1ED
 10
483.632217
 20
336.554007
 30
0.0
 11
484.463834
 21
337.385623
 31
0.0
  0
ENDBLK
  8
0
  5
1EE
  0
BLOCK
  8
0
  5
1F0
  2
*X7
 70
    65
 10
540.6654
 20
231.810879
 30
0.0
  3
*X7
  0
LINE
  8
LC-006-005-----0
  6
CONTINUOUS
  5
1F1
 10
605.195904
 20
231.843524
 30
0.0
 11
607.449309
 21
234.096928
 31
0.0
  0
LINE
  8
LC-006-005-----0
  6
CONTINUOUS
  5
1F2
 10
604.096859
 20
233.572905
 30
0.0
 11
606.354017
 21
235.830064
 31
0.0
  0
LINE
  8
LC-006-005-----0
  6
CONTINUOUS
  5
1F3
 10
601.506368
 20
233.810842
 30
0.0
 11
604.506313
 21
236.810786
 31
0.0
  0
LINE
  8
LC-006-005-----0
  6
CONTINUOUS
  5
1F4
 10
598.677941
 20
233.810842
 30
0.0
 11
601.677885
 21
236.810786
 31
0.0
  0
LINE
  8
LC-006-005-----0
  6
CONTINUOUS
  5
1F5
 10
595.849514
 20
233.810842
 30
0.0
 11
598.849458
 21
236.810786
 31
0.0
  0
LINE
  8
LC-006-005-----0
  6
CONTINUOUS
  5
1F6
 10
593.021087
 20
233.810842
 30
0.0
 11
596.021031
 21
236.810786
 31
0.0
  0
LINE
  8
LC-006-005-----0
  6
CONTINUOUS
  5
1F7
 10
590.19266
 20
233.810842
 30
0.0
 11
593.192604
 21
236.810786
 31
0.0
  0
LINE
  8
LC-006-005-----0
  6
CONTINUOUS
  5
1F8
 10
587.364233
 20
233.810842
 30
0.0
 11
590.364177
 21
236.810786
 31
0.0
  0
LINE
  8
LC-006-005-----0
  6
CONTINUOUS
  5
1F9
 10
584.535806
 20
233.810842
 30
0.0
 11
587.53575
 21
236.810786
 31
0.0
  0
LINE
  8
LC-006-005-----0
  6
CONTINUOUS
  5
1FA
 10
581.707379
 20
233.810842
 30
0.0
 11
584.707323
 21
236.810786
 31
0.0
  0
LINE
  8
LC-006-005-----0
  6
CONTINUOUS
  5
1FB
 10
578.878951
 20
233.810842
 30
0.0
 11
581.878896
 21
236.810786
 31
0.0
  0
LINE
  8
LC-006-005-----0
  6
CONTINUOUS
  5
1FC
 10
576.050524
 20
233.810842
 30
0.0
 11
579.050468
 21
236.810786
 31
0.0
  0
LINE
  8
LC-006-005-----0
  6
CONTINUOUS
  5
1FD
 10
573.222097
 20
233.810842
 30
0.0
 11
576.222041
 21
236.810786
 31
0.0
  0
LINE
  8
LC-006-005-----0
  6
CONTINUOUS
  5
1FE
 10
570.39367
 20
233.810842
 30
0.0
 11
573.393614
 21
236.810786
 31
0.0
  0
LINE
  8
LC-006-005-----0
  6
CONTINUOUS
  5
1FF
 10
594.763996
 20
258.181168
 30
0.0
 11
594.779499
 21
258.196671
 31
0.0
  0
LINE
  8
LC-006-005-----0
  6
CONTINUOUS
  5
200
 10
567.565243
 20
233.810842
 30
0.0
 11
570.565187
 21
236.810786
 31
0.0
  0
LINE
  8
LC-006-005-----0
  6
CONTINUOUS
  5
201
 10
591.935569
 20
258.181168
 30
0.0
 11
591.949292
 21
258.194892
 31
0.0
  0
LINE
  8
LC-006-005-----0
  6
CONTINUOUS
  5
202
 10
564.736816
 20
233.810842
 30
0.0
 11
567.73676
 21
236.810786
 31
0.0
  0
LINE
  8
LC-006-005-----0
  6
CONTINUOUS
  5
203
 10
589.107142
 20
258.181168
 30
0.0
 11
589.119086
 21
258.193112
 31
0.0
  0
LINE
  8
LC-006-005-----0
  6
CONTINUOUS
  5
204
 10
561.908389
 20
233.810842
 30
0.0
 11
564.908333
 21
236.810786
 31
0.0
  0
LINE
  8
LC-006-005-----0
  6
CONTINUOUS
  5
205
 10
586.278715
 20
258.181168
 30
0.0
 11
586.28888
 21
258.191333
 31
0.0
  0
LINE
  8
LC-006-005-----0
  6
CONTINUOUS
  5
206
 10
559.079962
 20
233.810842
 30
0.0
 11
562.079906
 21
236.810786
 31
0.0
  0
LINE
  8
LC-006-005-----0
  6
CONTINUOUS
  5
207
 10
583.450287
 20
258.181168
 30
0.0
 11
583.458673
 21
258.189554
 31
0.0
  0
LINE
  8
LC-006-005-----0
  6
CONTINUOUS
  5
208
 10
556.251534
 20
233.810842
 30
0.0
 11
559.251479
 21
236.810786
 31
0.0
  0
LINE
  8
LC-006-005-----0
  6
CONTINUOUS
  5
209
 10
580.62186
 20
258.181168
 30
0.0
 11
580.628467
 21
258.187775
 31
0.0
  0
LINE
  8
LC-006-005-----0
  6
CONTINUOUS
  5
20A
 10
553.454783
 20
233.842518
 30
0.0
 11
556.423051
 21
236.810786
 31
0.0
  0
LINE
  8
LC-006-005-----0
  6
CONTINUOUS
  5
20B
 10
577.793433
 20
258.181168
 30
0.0
 11
577.79826
 21
258.185995
 31
0.0
  0
LINE
  8
LC-006-005-----0
  6
CONTINUOUS
  5
20C
 10
551.222496
 20
234.438658
 30
0.0
 11
553.778058
 21
236.99422
 31
0.0
  0
LINE
  8
LC-006-005-----0
  6
CONTINUOUS
  5
20D
 10
574.965006
 20
258.181168
 30
0.0
 11
574.968054
 21
258.184216
 31
0.0
  0
LINE
  8
LC-006-005-----0
  6
CONTINUOUS
  5
20E
 10
549.503916
 20
235.548506
 30
0.0
 11
551.922339
 21
237.966928
 31
0.0
  0
LINE
  8
LC-006-005-----0
  6
CONTINUOUS
  5
20F
 10
572.136579
 20
258.181168
 30
0.0
 11
572.137848
 21
258.182437
 31
0.0
  0
LINE
  8
LC-006-005-----0
  6
CONTINUOUS
  5
210
 10
548.200891
 20
237.073907
 30
0.0
 11
550.6659
 21
239.538916
 31
0.0
  0
LINE
  8
LC-006-005-----0
  6
CONTINUOUS
  5
211
 10
547.345768
 20
239.047212
 30
0.0
 11
550.119955
 21
241.821399
 31
0.0
  0
LINE
  8
LC-006-005-----0
  6
CONTINUOUS
  5
212
 10
547.119955
 20
241.649826
 30
0.0
 11
550.119955
 21
244.649826
 31
0.0
  0
LINE
  8
LC-006-005-----0
  6
CONTINUOUS
  5
213
 10
547.119955
 20
244.478253
 30
0.0
 11
550.119955
 21
247.478253
 31
0.0
  0
LINE
  8
LC-006-005-----0
  6
CONTINUOUS
  5
214
 10
547.119955
 20
247.30668
 30
0.0
 11
550.119955
 21
250.30668
 31
0.0
  0
LINE
  8
LC-006-005-----0
  6
CONTINUOUS
  5
215
 10
547.119955
 20
250.135107
 30
0.0
 11
550.119955
 21
253.135107
 31
0.0
  0
LINE
  8
LC-006-005-----0
  6
CONTINUOUS
  5
216
 10
547.117257
 20
252.960836
 30
0.0
 11
550.119955
 21
255.963534
 31
0.0
  0
LINE
  8
LC-006-005-----0
  6
CONTINUOUS
  5
217
 10
544.875005
 20
253.547011
 30
0.0
 11
547.736957
 21
256.408963
 31
0.0
  0
LINE
  8
LC-006-005-----0
  6
CONTINUOUS
  5
218
 10
543.21002
 20
254.710453
 30
0.0
 11
546.680735
 21
258.181168
 31
0.0
  0
LINE
  8
LC-006-005-----0
  6
CONTINUOUS
  5
219
 10
541.121918
 20
255.450778
 30
0.0
 11
543.852308
 21
258.181168
 31
0.0
  0
LINE
  8
LC-006-005-----0
  6
CONTINUOUS
  5
21A
 10
540.684536
 20
257.841824
 30
0.0
 11
543.020459
 21
260.177747
 31
0.0
  0
LINE
  8
LC-006-005-----0
  6
CONTINUOUS
  5
21B
 10
540.734784
 20
260.720499
 30
0.0
 11
543.020459
 21
263.006174
 31
0.0
  0
LINE
  8
LC-006-005-----0
  6
CONTINUOUS
  5
21C
 10
540.785031
 20
263.599173
 30
0.0
 11
543.020459
 21
265.834601
 31
0.0
  0
LINE
  8
LC-006-005-----0
  6
CONTINUOUS
  5
21D
 10
540.835279
 20
266.477848
 30
0.0
 11
543.020459
 21
268.663028
 31
0.0
  0
LINE
  8
LC-006-005-----0
  6
CONTINUOUS
  5
21E
 10
540.885526
 20
269.356522
 30
0.0
 11
543.020459
 21
271.491455
 31
0.0
  0
LINE
  8
LC-006-005-----0
  6
CONTINUOUS
  5
21F
 10
540.935774
 20
272.235197
 30
0.0
 11
543.715009
 21
275.014432
 31
0.0
  0
LINE
  8
LC-006-005-----0
  6
CONTINUOUS
  5
220
 10
540.986021
 20
275.113871
 30
0.0
 11
542.300795
 21
276.428646
 31
0.0
  0
ENDBLK
  8
0
  5
221
  0
BLOCK
  8
0
  5
223
  2
*X8
 70
    65
 10
590.119955
 20
251.800508
 30
0.0
  3
*X8
  0
LINE
  8
LC-006-005-----0
  6
CONTINUOUS
  5
224
 10
607.353861
 20
253.80047
 30
0.0
 11
607.449309
 21
253.895918
 31
0.0
  0
LINE
  8
LC-006-005-----0
  6
CONTINUOUS
  5
225
 10
603.525452
 20
252.800489
 30
0.0
 11
607.449309
 21
256.724345
 31
0.0
  0
LINE
  8
LC-006-005-----0
  6
CONTINUOUS
  5
226
 10
600.697025
 20
252.800489
 30
0.0
 11
605.696932
 21
257.800396
 31
0.0
  0
LINE
  8
LC-006-005-----0
  6
CONTINUOUS
  5
227
 10
597.868598
 20
252.800489
 30
0.0
 11
601.778525
 21
256.710416
 31
0.0
  0
LINE
  8
LC-006-005-----0
  6
CONTINUOUS
  5
228
 10
595.040171
 20
252.800489
 30
0.0
 11
599.5644
 21
257.324718
 31
0.0
  0
LINE
  8
LC-006-005-----0
  6
CONTINUOUS
  5
229
 10
592.211744
 20
252.800489
 30
0.0
 11
599.515877
 21
260.104622
 31
0.0
  0
LINE
  8
LC-006-005-----0
  6
CONTINUOUS
  5
22A
 10
590.119955
 20
253.537127
 30
0.0
 11
594.763996
 21
258.181168
 31
0.0
  0
LINE
  8
LC-006-005-----0
  6
CONTINUOUS
  5
22B
 10
597.219451
 20
260.636623
 30
0.0
 11
599.467353
 21
262.884525
 31
0.0
  0
LINE
  8
LC-006-005-----0
  6
CONTINUOUS
  5
22C
 10
590.119955
 20
256.365554
 30
0.0
 11
590.163364
 21
256.408963
 31
0.0
  0
LINE
  8
LC-006-005-----0
  6
CONTINUOUS
  5
22D
 10
597.219451
 20
263.46505
 30
0.0
 11
599.41883
 21
265.664429
 31
0.0
  0
LINE
  8
LC-006-005-----0
  6
CONTINUOUS
  5
22E
 10
597.219451
 20
266.293477
 30
0.0
 11
599.370306
 21
268.444333
 31
0.0
  0
LINE
  8
LC-006-005-----0
  6
CONTINUOUS
  5
22F
 10
597.219451
 20
269.121905
 30
0.0
 11
599.321783
 21
271.224236
 31
0.0
  0
LINE
  8
LC-006-005-----0
  6
CONTINUOUS
  5
230
 10
597.219451
 20
271.950332
 30
0.0
 11
599.27326
 21
274.00414
 31
0.0
  0
LINE
  8
LC-006-005-----0
  6
CONTINUOUS
  5
231
 10
595.723998
 20
273.283306
 30
0.0
 11
599.036366
 21
276.595674
 31
0.0
  0
ENDBLK
  8
0
  5
232
  0
BLOCK
  8
0
  5
234
  2
*X9
 70
    65
 10
484.529046
 20
274.78425
 30
0.0
  3
*X9
  0
LINE
  8
LC-006-005-----0
  6
CONTINUOUS
  5
235
 10
491.313555
 20
280.84705
 30
0.0
 11
491.296384
 21
280.864221
 31
0.0
  0
LINE
  8
LC-006-005-----0
  6
CONTINUOUS
  5
236
 10
493.619955
 20
275.712223
 30
0.0
 11
491.355451
 21
277.976727
 31
0.0
  0
LINE
  8
LC-006-005-----0
  6
CONTINUOUS
  5
237
 10
490.073533
 20
279.258645
 30
0.0
 11
489.424043
 21
279.908135
 31
0.0
  0
LINE
  8
LC-006-005-----0
  6
CONTINUOUS
  5
238
 10
491.719501
 20
274.78425
 30
0.0
 11
487.551702
 21
278.952049
 31
0.0
  0
LINE
  8
LC-006-005-----0
  6
CONTINUOUS
  5
239
 10
488.640508
 20
275.034816
 30
0.0
 11
485.679361
 21
277.995962
 31
0.0
  0
ENDBLK
  8
0
  5
23A
  0
BLOCK
  8
0
  5
23C
  2
*X10
 70
    65
 10
484.529046
 20
328.905586
 30
0.0
  3
*X10
  0
LINE
  8
LC-006-005-----0
  6
CONTINUOUS
  5
23D
 10
493.619955
 20
332.280765
 30
0.0
 11
490.8892
 21
335.011521
 31
0.0
  0
LINE
  8
LC-006-005-----0
  6
CONTINUOUS
  5
23E
 10
491.253728
 20
331.818565
 30
0.0
 11
488.431823
 21
334.64047
 31
0.0
  0
LINE
  8
LC-006-005-----0
  6
CONTINUOUS
  5
23F
 10
491.328943
 20
328.914923
 30
0.0
 11
486.638672
 21
333.605194
 31
0.0
  0
LINE
  8
LC-006-005-----0
  6
CONTINUOUS
  5
240
 10
485.54913
 20
331.866309
 30
0.0
 11
484.845521
 21
332.569918
 31
0.0
  0
ENDBLK
  8
0
  5
241
  0
BLOCK
  8
0
  5
243
  2
BLK1
 70
    64
 10
0.0
 20
0.0
 30
0.0
  3
BLK1
  0
ENDBLK
  8
0
  5
244
  0
BLOCK
  8
0
  5
246
  2
BLK2
 70
    64
 10
0.0
 20
0.0
 30
0.0
  3
BLK2
  0
ENDBLK
  8
0
  5
247
  0
BLOCK
  8
0
  5
249
  2
BLK3
 70
    64
 10
0.0
 20
0.0
 30
0.0
  3
BLK3
  0
ENDBLK
  8
0
  5
24A
  0
BLOCK
  8
0
  5
24C
  2
BLK4
 70
    64
 10
0.0
 20
0.0
 30
0.0
  3
BLK4
  0
ENDBLK
  8
0
  5
24D
  0
BLOCK
  8
0
  5
24F
  2
BLK5
 70
    64
 10
0.0
 20
0.0
 30
0.0
  3
BLK5
  0
ENDBLK
  8
0
  5
250
  0
BLOCK
  8
0
  5
252
  2
BLK6
 70
    64
 10
0.0
 20
0.0
 30
0.0
  3
BLK6
  0
ENDBLK
  8
0
  5
253
  0
BLOCK
  8
0
  5
255
  2
BLK7
 70
    64
 10
0.0
 20
0.0
 30
0.0
  3
BLK7
  0
ENDBLK
  8
0
  5
256
  0
BLOCK
  8
0
  5
258
  2
BLK8
 70
    64
 10
0.0
 20
0.0
 30
0.0
  3
BLK8
  0
ENDBLK
  8
0
  5
259
  0
BLOCK
  8
0
  5
25B
  2
*X19
 70
    65
 10
595.367613
 20
317.309557
 30
0.0
  3
*X19
  0
LINE
  8
LC-006-005-----0
  6
CONTINUOUS
  5
25C
 10
617.122833
 20
317.309557
 30
0.0
 11
617.617613
 21
317.804338
 31
0.0
  0
LINE
  8
LC-006-005-----0
  6
CONTINUOUS
  5
25D
 10
614.294406
 20
317.309557
 30
0.0
 11
617.294406
 21
320.309557
 31
0.0
  0
LINE
  8
LC-006-005-----0
  6
CONTINUOUS
  5
25E
 10
611.465978
 20
317.309557
 30
0.0
 11
614.867613
 21
320.711192
 31
0.0
  0
LINE
  8
LC-006-005-----0
  6
CONTINUOUS
  5
25F
 10
608.719999
 20
317.392005
 30
0.0
 11
614.867613
 21
323.539619
 31
0.0
  0
LINE
  8
LC-006-005-----0
  6
CONTINUOUS
  5
260
 10
608.117613
 20
319.618046
 30
0.0
 11
614.867613
 21
326.368046
 31
0.0
  0
LINE
  8
LC-006-005-----0
  6
CONTINUOUS
  5
261
 10
608.117613
 20
322.446473
 30
0.0
 11
614.867613
 21
329.196473
 31
0.0
  0
LINE
  8
LC-006-005-----0
  6
CONTINUOUS
  5
262
 10
608.117613
 20
325.2749
 30
0.0
 11
614.867613
 21
332.0249
 31
0.0
  0
LINE
  8
LC-006-005-----0
  6
CONTINUOUS
  5
263
 10
608.117613
 20
328.103327
 30
0.0
 11
614.867613
 21
334.853327
 31
0.0
  0
LINE
  8
LC-006-005-----0
  6
CONTINUOUS
  5
264
 10
608.117613
 20
330.931755
 30
0.0
 11
613.244911
 21
336.059053
 31
0.0
  0
LINE
  8
LC-006-005-----0
  6
CONTINUOUS
  5
265
 10
608.117613
 20
333.760182
 30
0.0
 11
610.60134
 21
336.243909
 31
0.0
  0
LINE
  8
LC-006-005-----0
  6
CONTINUOUS
  5
266
 10
605.615456
 20
334.086452
 30
0.0
 11
607.95777
 21
336.428766
 31
0.0
  0
LINE
  8
LC-006-005-----0
  6
CONTINUOUS
  5
267
 10
602.971885
 20
334.271308
 30
0.0
 11
605.314199
 21
336.613622
 31
0.0
  0
LINE
  8
LC-006-005-----0
  6
CONTINUOUS
  5
268
 10
596.344373
 20
330.472224
 30
0.0
 11
598.117827
 21
332.245678
 31
0.0
  0
LINE
  8
LC-006-005-----0
  6
CONTINUOUS
  5
269
 10
600.328314
 20
334.456165
 30
0.0
 11
602.670628
 21
336.798479
 31
0.0
  0
LINE
  8
LC-006-005-----0
  6
CONTINUOUS
  5
26A
 10
595.990802
 20
332.94708
 30
0.0
 11
600.027058
 21
336.983335
 31
0.0
  0
LINE
  8
LC-006-005-----0
  6
CONTINUOUS
  5
26B
 10
595.637231
 20
335.421936
 30
0.0
 11
597.383487
 21
337.168192
 31
0.0
  0
ENDBLK
  8
0
  5
26C
  0
BLOCK
  8
0
  5
26E
  2
*D20
 70
    65
 10
0.0
 20
0.0
 30
0.0
  3
*D20
  0
LINE
  8
LC-011-003-MTH-0
  6
CONTINUOUS
  5
270
 10
536.971053
 20
340.095899
 30
0.0
 11
536.971053
 21
408.8
 31
0.0
  0
LINE
  8
LC-011-003-MTH-0
  6
CONTINUOUS
  5
271
 10
837.271901
 20
340.095899
 30
0.0
 11
837.271901
 21
408.8
 31
0.0
  0
LINE
  8
LC-012-003-MTG-0
  6
CONTINUOUS
  5
273
 10
536.971053
 20
392.0
 30
0.0
 11
837.271901
 21
392.0
 31
0.0
  0
LINE
  8
LC-010-003-----0
  6
CONTINUOUS
  5
275
 10
564.731509
 20
395.654733
 30
0.0
 11
536.971053
 21
392.0
 31
0.0
  0
LINE
  8
LC-010-003-----0
  6
CONTINUOUS
  5
276
 10
536.971053
 20
392.0
 30
0.0
 11
564.731509
 21
388.345267
 31
0.0
  0
LINE
  8
LC-010-003-----0
  6
CONTINUOUS
  5
277
 10
564.731509
 20
388.345267
 30
0.0
 11
564.731509
 21
395.654733
 31
0.0
  0
LINE
  8
LC-010-003-----0
  6
CONTINUOUS
  5
278
 10
564.79379
 20
394.704503
 30
0.0
 11
544.251053
 21
392.0
 31
0.0
  0
LINE
  8
LC-010-003-----0
  6
CONTINUOUS
  5
279
 10
544.251053
 20
392.0
 30
0.0
 11
564.79379
 21
389.295497
 31
0.0
  0
LINE
  8
LC-010-003-----0
  6
CONTINUOUS
  5
27A
 10
564.856072
 20
393.754272
 30
0.0
 11
551.531053
 21
392.0
 31
0.0
  0
LINE
  8
LC-010-003-----0
  6
CONTINUOUS
  5
27B
 10
551.531053
 20
392.0
 30
0.0
 11
564.856072
 21
390.245728
 31
0.0
  0
LINE
  8
LC-010-003-----0
  6
CONTINUOUS
  5
27C
 10
564.918353
 20
392.804041
 30
0.0
 11
558.811053
 21
392.0
 31
0.0
  0
LINE
  8
LC-010-003-----0
  6
CONTINUOUS
  5
27D
 10
558.811053
 20
392.0
 30
0.0
 11
564.918353
 21
391.195959
 31
0.0
  0
LINE
  8
LC-010-003-----0
  6
CONTINUOUS
  5
27E
 10
809.511445
 20
388.345267
 30
0.0
 11
837.271901
 21
392.0
 31
0.0
  0
LINE
  8
LC-010-003-----0
  6
CONTINUOUS
  5
27F
 10
837.271901
 20
392.0
 30
0.0
 11
809.511445
 21
395.654733
 31
0.0
  0
LINE
  8
LC-010-003-----0
  6
CONTINUOUS
  5
280
 10
809.511445
 20
395.654733
 30
0.0
 11
809.511445
 21
388.345267
 31
0.0
  0
LINE
  8
LC-010-003-----0
  6
CONTINUOUS
  5
281
 10
809.449163
 20
389.295497
 30
0.0
 11
829.991901
 21
392.0
 31
0.0
  0
LINE
  8
LC-010-003-----0
  6
CONTINUOUS
  5
282
 10
829.991901
 20
392.0
 30
0.0
 11
809.449163
 21
394.704503
 31
0.0
  0
LINE
  8
LC-010-003-----0
  6
CONTINUOUS
  5
283
 10
809.386882
 20
390.245728
 30
0.0
 11
822.711901
 21
392.0
 31
0.0
  0
LINE
  8
LC-010-003-----0
  6
CONTINUOUS
  5
284
 10
822.711901
 20
392.0
 30
0.0
 11
809.386882
 21
393.754272
 31
0.0
  0
LINE
  8
LC-010-003-----0
  6
CONTINUOUS
  5
285
 10
809.324601
 20
391.195959
 30
0.0
 11
815.431901
 21
392.0
 31
0.0
  0
LINE
  8
LC-010-003-----0
  6
CONTINUOUS
  5
286
 10
815.431901
 20
392.0
 30
0.0
 11
809.324601
 21
392.804041
 31
0.0
  0
TEXT
  8
LC-010-003-----0
  6
CONTINUOUS
 62
     8
  5
288
 10
653.371999
 20
399.827554
 30
0.0
 40
28.0
  1
Ø300
 41
0.9
 51
15.0
  7
LC-TXTSTYLE-150-400-0-0-D0
 72
     1
 11
691.469637
 21
399.827554
 31
0.0
  0
ENDBLK
  8
0
  5
289
  0
BLOCK
  8
0
  5
28B
  2
*D21
 70
    65
 10
0.0
 20
0.0
 30
0.0
  3
*D21
  0
LINE
  8
LC-011-003-MTH-0
  6
CONTINUOUS
  5
28C
 10
592.620438
 20
330.845412
 30
0.0
 11
592.620438
 21
369.6
 31
0.0
  0
LINE
  8
LC-011-003-MTH-0
  6
CONTINUOUS
  5
28D
 10
781.622515
 20
330.845412
 30
0.0
 11
781.622515
 21
369.6
 31
0.0
  0
LINE
  8
LC-012-003-MTG-0
  6
CONTINUOUS
  5
28E
 10
592.620438
 20
352.8
 30
0.0
 11
781.622515
 21
352.8
 31
0.0
  0
LINE
  8
LC-010-003-----0
  6
CONTINUOUS
  5
28F
 10
620.380894
 20
356.454733
 30
0.0
 11
592.620438
 21
352.8
 31
0.0
  0
LINE
  8
LC-010-003-----0
  6
CONTINUOUS
  5
290
 10
592.620438
 20
352.8
 30
0.0
 11
620.380894
 21
349.145267
 31
0.0
  0
LINE
  8
LC-010-003-----0
  6
CONTINUOUS
  5
291
 10
620.380894
 20
349.145267
 30
0.0
 11
620.380894
 21
356.454733
 31
0.0
  0
LINE
  8
LC-010-003-----0
  6
CONTINUOUS
  5
292
 10
620.443176
 20
355.504503
 30
0.0
 11
599.900438
 21
352.8
 31
0.0
  0
LINE
  8
LC-010-003-----0
  6
CONTINUOUS
  5
293
 10
599.900438
 20
352.8
 30
0.0
 11
620.443176
 21
350.095497
 31
0.0
  0
LINE
  8
LC-010-003-----0
  6
CONTINUOUS
  5
294
 10
620.505457
 20
354.554272
 30
0.0
 11
607.180438
 21
352.8
 31
0.0
  0
LINE
  8
LC-010-003-----0
  6
CONTINUOUS
  5
295
 10
607.180438
 20
352.8
 30
0.0
 11
620.505457
 21
351.045728
 31
0.0
  0
LINE
  8
LC-010-003-----0
  6
CONTINUOUS
  5
296
 10
620.567738
 20
353.604041
 30
0.0
 11
614.460438
 21
352.8
 31
0.0
  0
LINE
  8
LC-010-003-----0
  6
CONTINUOUS
  5
297
 10
614.460438
 20
352.8
 30
0.0
 11
620.567738
 21
351.995959
 31
0.0
  0
LINE
  8
LC-010-003-----0
  6
CONTINUOUS
  5
298
 10
753.862059
 20
349.145267
 30
0.0
 11
781.622515
 21
352.8
 31
0.0
  0
LINE
  8
LC-010-003-----0
  6
CONTINUOUS
  5
299
 10
781.622515
 20
352.8
 30
0.0
 11
753.862059
 21
356.454733
 31
0.0
  0
LINE
  8
LC-010-003-----0
  6
CONTINUOUS
  5
29A
 10
753.862059
 20
356.454733
 30
0.0
 11
753.862059
 21
349.145267
 31
0.0
  0
LINE
  8
LC-010-003-----0
  6
CONTINUOUS
  5
29B
 10
753.799778
 20
350.095497
 30
0.0
 11
774.342515
 21
352.8
 31
0.0
  0
LINE
  8
LC-010-003-----0
  6
CONTINUOUS
  5
29C
 10
774.342515
 20
352.8
 30
0.0
 11
753.799778
 21
355.504503
 31
0.0
  0
LINE
  8
LC-010-003-----0
  6
CONTINUOUS
  5
29D
 10
753.737496
 20
351.045728
 30
0.0
 11
767.062515
 21
352.8
 31
0.0
  0
LINE
  8
LC-010-003-----0
  6
CONTINUOUS
  5
29E
 10
767.062515
 20
352.8
 30
0.0
 11
753.737496
 21
354.554272
 31
0.0
  0
LINE
  8
LC-010-003-----0
  6
CONTINUOUS
  5
29F
 10
753.675215
 20
351.995959
 30
0.0
 11
759.782515
 21
352.8
 31
0.0
  0
LINE
  8
LC-010-003-----0
  6
CONTINUOUS
  5
2A0
 10
759.782515
 20
352.8
 30
0.0
 11
753.675215
 21
353.604041
 31
0.0
  0
TEXT
  8
LC-010-003-----0
  6
CONTINUOUS
 62
     8
  5
2A1
 10
653.371999
 20
360.627554
 30
0.0
 40
28.0
  1
Ø190
 51
15.0
  7
LC-TXTSTYLE-150-400-0-0-D0
 72
     1
 11
691.469637
 21
360.627554
 31
0.0
  0
ENDBLK
  8
0
  5
2A2
  0
BLOCK
  8
0
  5
2A4
  2
*D22
 70
    65
 10
0.0
 20
0.0
 30
0.0
  3
*D22
  0
LINE
  8
LC-011-003-MTH-0
  6
CONTINUOUS
  5
2A5
 10
662.117613
 20
180.712126
 30
0.0
 11
662.117613
 21
140.0
 31
0.0
  0
LINE
  8
LC-011-003-MTH-0
  6
CONTINUOUS
  5
2A6
 10
712.117614
 20
180.712126
 30
0.0
 11
712.117614
 21
140.0
 31
0.0
  0
LINE
  8
LC-010-003-----0
  6
CONTINUOUS
  5
2A7
 10
634.357157
 20
153.145267
 30
0.0
 11
662.117613
 21
156.8
 31
0.0
  0
LINE
  8
LC-010-003-----0
  6
CONTINUOUS
  5
2A8
 10
662.117613
 20
156.8
 30
0.0
 11
634.357157
 21
160.454733
 31
0.0
  0
LINE
  8
LC-010-003-----0
  6
CONTINUOUS
  5
2A9
 10
634.357157
 20
160.454733
 30
0.0
 11
634.357157
 21
153.145267
 31
0.0
  0
LINE
  8
LC-010-003-----0
  6
CONTINUOUS
  5
2AA
 10
634.294876
 20
154.095497
 30
0.0
 11
654.837613
 21
156.8
 31
0.0
  0
LINE
  8
LC-010-003-----0
  6
CONTINUOUS
  5
2AB
 10
654.837613
 20
156.8
 30
0.0
 11
634.294876
 21
159.504503
 31
0.0
  0
LINE
  8
LC-010-003-----0
  6
CONTINUOUS
  5
2AC
 10
634.232594
 20
155.045728
 30
0.0
 11
647.557613
 21
156.8
 31
0.0
  0
LINE
  8
LC-010-003-----0
  6
CONTINUOUS
  5
2AD
 10
647.557613
 20
156.8
 30
0.0
 11
634.232594
 21
158.554272
 31
0.0
  0
LINE
  8
LC-010-003-----0
  6
CONTINUOUS
  5
2AE
 10
634.170313
 20
155.995959
 30
0.0
 11
640.277613
 21
156.8
 31
0.0
  0
LINE
  8
LC-010-003-----0
  6
CONTINUOUS
  5
2AF
 10
640.277613
 20
156.8
 30
0.0
 11
634.170313
 21
157.604041
 31
0.0
  0
LINE
  8
LC-010-003-----0
  6
CONTINUOUS
  5
2B0
 10
739.87807
 20
160.454733
 30
0.0
 11
712.117614
 21
156.8
 31
0.0
  0
LINE
  8
LC-010-003-----0
  6
CONTINUOUS
  5
2B1
 10
712.117614
 20
156.8
 30
0.0
 11
739.87807
 21
153.145267
 31
0.0
  0
LINE
  8
LC-010-003-----0
  6
CONTINUOUS
  5
2B2
 10
739.87807
 20
153.145267
 30
0.0
 11
739.87807
 21
160.454733
 31
0.0
  0
LINE
  8
LC-010-003-----0
  6
CONTINUOUS
  5
2B3
 10
739.940352
 20
159.504503
 30
0.0
 11
719.397614
 21
156.8
 31
0.0
  0
LINE
  8
LC-010-003-----0
  6
CONTINUOUS
  5
2B4
 10
719.397614
 20
156.8
 30
0.0
 11
739.940352
 21
154.095497
 31
0.0
  0
LINE
  8
LC-010-003-----0
  6
CONTINUOUS
  5
2B5
 10
740.002633
 20
158.554272
 30
0.0
 11
726.677614
 21
156.8
 31
0.0
  0
LINE
  8
LC-010-003-----0
  6
CONTINUOUS
  5
2B6
 10
726.677614
 20
156.8
 30
0.0
 11
740.002633
 21
155.045728
 31
0.0
  0
LINE
  8
LC-010-003-----0
  6
CONTINUOUS
  5
2B7
 10
740.064915
 20
157.604041
 30
0.0
 11
733.957614
 21
156.8
 31
0.0
  0
LINE
  8
LC-010-003-----0
  6
CONTINUOUS
  5
2B8
 10
733.957614
 20
156.8
 30
0.0
 11
740.064915
 21
155.995959
 31
0.0
  0
LINE
  8
LC-012-003-MTG-0
  6
CONTINUOUS
  5
2B9
 10
622.917613
 20
156.8
 30
0.0
 11
854.309982
 21
156.8
 31
0.0
  0
TEXT
  8
LC-010-003-----0
  6
CONTINUOUS
 62
     8
  5
2BA
 10
767.768042
 20
164.627554
 30
0.0
 40
28.0
  1
DN50
 51
15.0
  7
LC-TXTSTYLE-150-400-0-0-D0
  0
ENDBLK
  8
0
  5
2BB
  0
BLOCK
  8
0
  5
2BD
  2
*D23
 70
    65
 10
0.0
 20
0.0
 30
0.0
  3
*D23
  0
LINE
  8
LC-011-003-MTH-0
  6
CONTINUOUS
  5
2BE
 10
649.617753
 20
174.796866
 30
0.0
 11
649.617753
 21
103.2
 31
0.0
  0
LINE
  8
LC-011-003-MTH-0
  6
CONTINUOUS
  5
2BF
 10
724.150451
 20
173.053847
 30
0.0
 11
724.150451
 21
103.2
 31
0.0
  0
LINE
  8
LC-010-003-----0
  6
CONTINUOUS
  5
2C0
 10
621.857297
 20
116.345267
 30
0.0
 11
649.617753
 21
120.0
 31
0.0
  0
LINE
  8
LC-010-003-----0
  6
CONTINUOUS
  5
2C1
 10
649.617753
 20
120.0
 30
0.0
 11
621.857297
 21
123.654733
 31
0.0
  0
LINE
  8
LC-010-003-----0
  6
CONTINUOUS
  5
2C2
 10
621.857297
 20
123.654733
 30
0.0
 11
621.857297
 21
116.345267
 31
0.0
  0
LINE
  8
LC-010-003-----0
  6
CONTINUOUS
  5
2C3
 10
621.795016
 20
117.295497
 30
0.0
 11
642.337753
 21
120.0
 31
0.0
  0
LINE
  8
LC-010-003-----0
  6
CONTINUOUS
  5
2C4
 10
642.337753
 20
120.0
 30
0.0
 11
621.795016
 21
122.704503
 31
0.0
  0
LINE
  8
LC-010-003-----0
  6
CONTINUOUS
  5
2C5
 10
621.732734
 20
118.245728
 30
0.0
 11
635.057753
 21
120.0
 31
0.0
  0
LINE
  8
LC-010-003-----0
  6
CONTINUOUS
  5
2C6
 10
635.057753
 20
120.0
 30
0.0
 11
621.732734
 21
121.754272
 31
0.0
  0
LINE
  8
LC-010-003-----0
  6
CONTINUOUS
  5
2C7
 10
621.670453
 20
119.195959
 30
0.0
 11
627.777753
 21
120.0
 31
0.0
  0
LINE
  8
LC-010-003-----0
  6
CONTINUOUS
  5
2C8
 10
627.777753
 20
120.0
 30
0.0
 11
621.670453
 21
120.804041
 31
0.0
  0
LINE
  8
LC-010-003-----0
  6
CONTINUOUS
  5
2C9
 10
751.910907
 20
123.654733
 30
0.0
 11
724.150451
 21
120.0
 31
0.0
  0
LINE
  8
LC-010-003-----0
  6
CONTINUOUS
  5
2CA
 10
724.150451
 20
120.0
 30
0.0
 11
751.910907
 21
116.345267
 31
0.0
  0
LINE
  8
LC-010-003-----0
  6
CONTINUOUS
  5
2CB
 10
751.910907
 20
116.345267
 30
0.0
 11
751.910907
 21
123.654733
 31
0.0
  0
LINE
  8
LC-010-003-----0
  6
CONTINUOUS
  5
2CC
 10
751.973189
 20
122.704503
 30
0.0
 11
731.430451
 21
120.0
 31
0.0
  0
LINE
  8
LC-010-003-----0
  6
CONTINUOUS
  5
2CD
 10
731.430451
 20
120.0
 30
0.0
 11
751.973189
 21
117.295497
 31
0.0
  0
LINE
  8
LC-010-003-----0
  6
CONTINUOUS
  5
2CE
 10
752.03547
 20
121.754272
 30
0.0
 11
738.710451
 21
120.0
 31
0.0
  0
LINE
  8
LC-010-003-----0
  6
CONTINUOUS
  5
2CF
 10
738.710451
 20
120.0
 30
0.0
 11
752.03547
 21
118.245728
 31
0.0
  0
LINE
  8
LC-010-003-----0
  6
CONTINUOUS
  5
2D0
 10
752.097752
 20
120.804041
 30
0.0
 11
745.990451
 21
120.0
 31
0.0
  0
LINE
  8
LC-010-003-----0
  6
CONTINUOUS
  5
2D1
 10
745.990451
 20
120.0
 30
0.0
 11
752.097752
 21
119.195959
 31
0.0
  0
LINE
  8
LC-012-003-MTG-0
  6
CONTINUOUS
  5
2D2
 10
610.417753
 20
120.0
 30
0.0
 11
853.120551
 21
120.0
 31
0.0
  0
TEXT
  8
LC-010-003-----0
  6
CONTINUOUS
 62
     8
  5
2D3
 10
766.578611
 20
127.827554
 30
0.0
 40
28.0
  1
DN70
 51
15.0
  7
LC-TXTSTYLE-150-400-0-0-D0
  0
ENDBLK
  8
0
  5
2D4
  0
BLOCK
  8
0
  5
2D6
  2
*D24
 70
    65
 10
0.0
 20
0.0
 30
0.0
  3
*D24
  0
LINE
  8
LC-011-003-MTH-0
  6
CONTINUOUS
  5
2D7
 10
475.619955
 20
304.897885
 30
0.0
 11
414.4
 21
304.897885
 31
0.0
  0
LINE
  8
LC-011-003-MTH-0
  6
CONTINUOUS
  5
2D8
 10
536.971053
 20
340.095899
 30
0.0
 11
414.4
 21
340.095899
 31
0.0
  0
LINE
  8
LC-010-003-----0
  6
CONTINUOUS
  5
2D9
 10
434.854733
 20
277.137429
 30
0.0
 11
431.2
 21
304.897885
 31
0.0
  0
LINE
  8
LC-010-003-----0
  6
CONTINUOUS
  5
2DA
 10
431.2
 20
304.897885
 30
0.0
 11
427.545267
 21
277.137429
 31
0.0
  0
LINE
  8
LC-010-003-----0
  6
CONTINUOUS
  5
2DB
 10
427.545267
 20
277.137429
 30
0.0
 11
434.854733
 21
277.137429
 31
0.0
  0
LINE
  8
LC-010-003-----0
  6
CONTINUOUS
  5
2DC
 10
433.904503
 20
277.075148
 30
0.0
 11
431.2
 21
297.617885
 31
0.0
  0
LINE
  8
LC-010-003-----0
  6
CONTINUOUS
  5
2DD
 10
431.2
 20
297.617885
 30
0.0
 11
428.495497
 21
277.075148
 31
0.0
  0
LINE
  8
LC-010-003-----0
  6
CONTINUOUS
  5
2DE
 10
432.954272
 20
277.012866
 30
0.0
 11
431.2
 21
290.337885
 31
0.0
  0
LINE
  8
LC-010-003-----0
  6
CONTINUOUS
  5
2DF
 10
431.2
 20
290.337885
 30
0.0
 11
429.445728
 21
277.012866
 31
0.0
  0
LINE
  8
LC-010-003-----0
  6
CONTINUOUS
  5
2E0
 10
432.004041
 20
276.950585
 30
0.0
 11
431.2
 21
283.057885
 31
0.0
  0
LINE
  8
LC-010-003-----0
  6
CONTINUOUS
  5
2E1
 10
431.2
 20
283.057885
 30
0.0
 11
430.395959
 21
276.950585
 31
0.0
  0
LINE
  8
LC-010-003-----0
  6
CONTINUOUS
  5
2E2
 10
427.545267
 20
367.856356
 30
0.0
 11
431.2
 21
340.095899
 31
0.0
  0
LINE
  8
LC-010-003-----0
  6
CONTINUOUS
  5
2E3
 10
431.2
 20
340.095899
 30
0.0
 11
434.854733
 21
367.856356
 31
0.0
  0
LINE
  8
LC-010-003-----0
  6
CONTINUOUS
  5
2E4
 10
434.854733
 20
367.856356
 30
0.0
 11
427.545267
 21
367.856356
 31
0.0
  0
LINE
  8
LC-010-003-----0
  6
CONTINUOUS
  5
2E5
 10
428.495497
 20
367.918637
 30
0.0
 11
431.2
 21
347.375899
 31
0.0
  0
LINE
  8
LC-010-003-----0
  6
CONTINUOUS
  5
2E6
 10
431.2
 20
347.375899
 30
0.0
 11
433.904503
 21
367.918637
 31
0.0
  0
LINE
  8
LC-010-003-----0
  6
CONTINUOUS
  5
2E7
 10
429.445728
 20
367.980918
 30
0.0
 11
431.2
 21
354.655899
 31
0.0
  0
LINE
  8
LC-010-003-----0
  6
CONTINUOUS
  5
2E8
 10
431.2
 20
354.655899
 30
0.0
 11
432.954272
 21
367.980918
 31
0.0
  0
LINE
  8
LC-010-003-----0
  6
CONTINUOUS
  5
2E9
 10
430.395959
 20
368.0432
 30
0.0
 11
431.2
 21
361.935899
 31
0.0
  0
LINE
  8
LC-010-003-----0
  6
CONTINUOUS
  5
2EA
 10
431.2
 20
361.935899
 30
0.0
 11
432.004041
 21
368.0432
 31
0.0
  0
LINE
  8
LC-012-003-MTG-0
  6
CONTINUOUS
  5
2EB
 10
431.2
 20
265.697885
 30
0.0
 11
431.2
 21
423.460299
 31
0.0
  0
TEXT
  8
LC-010-003-----0
  6
CONTINUOUS
 62
     8
  5
2EC
 10
423.372446
 20
382.524059
 30
0.0
 40
28.0
  1
35
 50
90.0
 51
15.0
  7
LC-TXTSTYLE-150-400-0-0-D0
  0
ENDBLK
  8
0
  5
2ED
  0
BLOCK
  8
0
  5
2EF
  2
*D25
 70
    65
 10
0.0
 20
0.0
 30
0.0
  3
*D25
  0
LINE
  8
LC-011-003-MTH-0
  6
CONTINUOUS
  5
2F0
 10
477.119955
 20
278.522885
 30
0.0
 11
453.6
 21
278.522885
 31
0.0
  0
LINE
  8
LC-011-003-MTH-0
  6
CONTINUOUS
  5
2F1
 10
477.119955
 20
330.147885
 30
0.0
 11
453.6
 21
330.147885
 31
0.0
  0
LINE
  8
LC-010-003-----0
  6
CONTINUOUS
  5
2F2
 10
474.054733
 20
250.762429
 30
0.0
 11
470.4
 21
278.522885
 31
0.0
  0
LINE
  8
LC-010-003-----0
  6
CONTINUOUS
  5
2F3
 10
470.4
 20
278.522885
 30
0.0
 11
466.745267
 21
250.762429
 31
0.0
  0
LINE
  8
LC-010-003-----0
  6
CONTINUOUS
  5
2F4
 10
466.745267
 20
250.762429
 30
0.0
 11
474.054733
 21
250.762429
 31
0.0
  0
LINE
  8
LC-010-003-----0
  6
CONTINUOUS
  5
2F5
 10
473.104503
 20
250.700148
 30
0.0
 11
470.4
 21
271.242885
 31
0.0
  0
LINE
  8
LC-010-003-----0
  6
CONTINUOUS
  5
2F6
 10
470.4
 20
271.242885
 30
0.0
 11
467.695497
 21
250.700148
 31
0.0
  0
LINE
  8
LC-010-003-----0
  6
CONTINUOUS
  5
2F7
 10
472.154272
 20
250.637866
 30
0.0
 11
470.4
 21
263.962885
 31
0.0
  0
LINE
  8
LC-010-003-----0
  6
CONTINUOUS
  5
2F8
 10
470.4
 20
263.962885
 30
0.0
 11
468.645728
 21
250.637866
 31
0.0
  0
LINE
  8
LC-010-003-----0
  6
CONTINUOUS
  5
2F9
 10
471.204041
 20
250.575585
 30
0.0
 11
470.4
 21
256.682885
 31
0.0
  0
LINE
  8
LC-010-003-----0
  6
CONTINUOUS
  5
2FA
 10
470.4
 20
256.682885
 30
0.0
 11
469.595959
 21
250.575585
 31
0.0
  0
LINE
  8
LC-010-003-----0
  6
CONTINUOUS
  5
2FB
 10
466.745267
 20
357.908341
 30
0.0
 11
470.4
 21
330.147885
 31
0.0
  0
LINE
  8
LC-010-003-----0
  6
CONTINUOUS
  5
2FC
 10
470.4
 20
330.147885
 30
0.0
 11
474.054733
 21
357.908341
 31
0.0
  0
LINE
  8
LC-010-003-----0
  6
CONTINUOUS
  5
2FD
 10
474.054733
 20
357.908341
 30
0.0
 11
466.745267
 21
357.908341
 31
0.0
  0
LINE
  8
LC-010-003-----0
  6
CONTINUOUS
  5
2FE
 10
467.695497
 20
357.970623
 30
0.0
 11
470.4
 21
337.427885
 31
0.0
  0
LINE
  8
LC-010-003-----0
  6
CONTINUOUS
  5
2FF
 10
470.4
 20
337.427885
 30
0.0
 11
473.104503
 21
357.970623
 31
0.0
  0
LINE
  8
LC-010-003-----0
  6
CONTINUOUS
  5
300
 10
468.645728
 20
358.032904
 30
0.0
 11
470.4
 21
344.707885
 31
0.0
  0
LINE
  8
LC-010-003-----0
  6
CONTINUOUS
  5
301
 10
470.4
 20
344.707885
 30
0.0
 11
472.154272
 21
358.032904
 31
0.0
  0
LINE
  8
LC-010-003-----0
  6
CONTINUOUS
  5
302
 10
469.595959
 20
358.095186
 30
0.0
 11
470.4
 21
351.987885
 31
0.0
  0
LINE
  8
LC-010-003-----0
  6
CONTINUOUS
  5
303
 10
470.4
 20
351.987885
 30
0.0
 11
471.204041
 21
358.095186
 31
0.0
  0
LINE
  8
LC-012-003-MTG-0
  6
CONTINUOUS
  5
304
 10
470.4
 20
239.322885
 30
0.0
 11
470.4
 21
459.117985
 31
0.0
  0
TEXT
  8
LC-010-003-----0
  6
CONTINUOUS
 62
     8
  5
305
 10
462.572446
 20
372.576045
 30
0.0
 40
28.0
  1
DN50
 50
90.0
 51
15.0
  7
LC-TXTSTYLE-150-400-0-0-D0
  0
ENDBLK
  8
0
  5
306
  0
BLOCK
  8
0
  5
308
  2
*D26
 70
    65
 10
0.0
 20
0.0
 30
0.0
  3
*D26
  0
LINE
  8
LC-011-003-MTH-0
  6
CONTINUOUS
  5
309
 10
728.867782
 20
252.798678
 30
0.0
 11
840.0
 21
252.798678
 31
0.0
  0
LINE
  8
LC-011-003-MTH-0
  6
CONTINUOUS
  5
30A
 10
717.499909
 20
301.298686
 30
0.0
 11
840.0
 21
301.298686
 31
0.0
  0
LINE
  8
LC-010-003-----0
  6
CONTINUOUS
  5
30B
 10
826.854733
 20
225.038222
 30
0.0
 11
823.2
 21
252.798678
 31
0.0
  0
LINE
  8
LC-010-003-----0
  6
CONTINUOUS
  5
30C
 10
823.2
 20
252.798678
 30
0.0
 11
819.545267
 21
225.038222
 31
0.0
  0
LINE
  8
LC-010-003-----0
  6
CONTINUOUS
  5
30D
 10
819.545267
 20
225.038222
 30
0.0
 11
826.854733
 21
225.038222
 31
0.0
  0
LINE
  8
LC-010-003-----0
  6
CONTINUOUS
  5
30E
 10
825.904503
 20
224.97594
 30
0.0
 11
823.2
 21
245.518678
 31
0.0
  0
LINE
  8
LC-010-003-----0
  6
CONTINUOUS
  5
30F
 10
823.2
 20
245.518678
 30
0.0
 11
820.495497
 21
224.97594
 31
0.0
  0
LINE
  8
LC-010-003-----0
  6
CONTINUOUS
  5
310
 10
824.954272
 20
224.913659
 30
0.0
 11
823.2
 21
238.238678
 31
0.0
  0
LINE
  8
LC-010-003-----0
  6
CONTINUOUS
  5
311
 10
823.2
 20
238.238678
 30
0.0
 11
821.445728
 21
224.913659
 31
0.0
  0
LINE
  8
LC-010-003-----0
  6
CONTINUOUS
  5
312
 10
824.004041
 20
224.851377
 30
0.0
 11
823.2
 21
230.958678
 31
0.0
  0
LINE
  8
LC-010-003-----0
  6
CONTINUOUS
  5
313
 10
823.2
 20
230.958678
 30
0.0
 11
822.395959
 21
224.851377
 31
0.0
  0
LINE
  8
LC-010-003-----0
  6
CONTINUOUS
  5
314
 10
819.545267
 20
329.059142
 30
0.0
 11
823.2
 21
301.298686
 31
0.0
  0
LINE
  8
LC-010-003-----0
  6
CONTINUOUS
  5
315
 10
823.2
 20
301.298686
 30
0.0
 11
826.854733
 21
329.059142
 31
0.0
  0
LINE
  8
LC-010-003-----0
  6
CONTINUOUS
  5
316
 10
826.854733
 20
329.059142
 30
0.0
 11
819.545267
 21
329.059142
 31
0.0
  0
LINE
  8
LC-010-003-----0
  6
CONTINUOUS
  5
317
 10
820.495497
 20
329.121424
 30
0.0
 11
823.2
 21
308.578686
 31
0.0
  0
LINE
  8
LC-010-003-----0
  6
CONTINUOUS
  5
318
 10
823.2
 20
308.578686
 30
0.0
 11
825.904503
 21
329.121424
 31
0.0
  0
LINE
  8
LC-010-003-----0
  6
CONTINUOUS
  5
319
 10
821.445728
 20
329.183705
 30
0.0
 11
823.2
 21
315.858686
 31
0.0
  0
LINE
  8
LC-010-003-----0
  6
CONTINUOUS
  5
31A
 10
823.2
 20
315.858686
 30
0.0
 11
824.954272
 21
329.183705
 31
0.0
  0
LINE
  8
LC-010-003-----0
  6
CONTINUOUS
  5
31B
 10
822.395959
 20
329.245986
 30
0.0
 11
823.2
 21
323.138686
 31
0.0
  0
LINE
  8
LC-010-003-----0
  6
CONTINUOUS
  5
31C
 10
823.2
 20
323.138686
 30
0.0
 11
824.004041
 21
329.245986
 31
0.0
  0
LINE
  8
LC-012-003-MTG-0
  6
CONTINUOUS
  5
31D
 10
823.2
 20
213.598678
 30
0.0
 11
823.2
 21
340.498686
 31
0.0
  0
TEXT
  8
LC-010-003-----0
  6
CONTINUOUS
 62
     8
  5
31E
 10
815.372446
 20
266.018889
 30
0.0
 40
28.0
  1
50
 50
90.0
 51
15.0
  7
LC-TXTSTYLE-150-400-0-0-D0
 72
     1
 11
815.372446
 21
281.396842
 31
0.0
  0
ENDBLK
  8
0
  5
31F
  0
BLOCK
  8
0
  5
321
  2
*D27
 70
    65
 10
0.0
 20
0.0
 30
0.0
  3
*D27
  0
LINE
  8
LC-011-003-MTH-0
  6
CONTINUOUS
  5
322
 10
755.167681
 20
230.310653
 30
0.0
 11
879.2
 21
230.310653
 31
0.0
  0
LINE
  8
LC-011-003-MTH-0
  6
CONTINUOUS
  5
323
 10
837.271901
 20
340.095899
 30
0.0
 11
879.2
 21
340.095899
 31
0.0
  0
LINE
  8
LC-012-003-MTG-0
  6
CONTINUOUS
  5
324
 10
862.4
 20
230.310653
 30
0.0
 11
862.4
 21
340.095899
 31
0.0
  0
LINE
  8
LC-010-003-----0
  6
CONTINUOUS
  5
325
 10
858.745267
 20
258.071109
 30
0.0
 11
862.4
 21
230.310653
 31
0.0
  0
LINE
  8
LC-010-003-----0
  6
CONTINUOUS
  5
326
 10
862.4
 20
230.310653
 30
0.0
 11
866.054733
 21
258.071109
 31
0.0
  0
LINE
  8
LC-010-003-----0
  6
CONTINUOUS
  5
327
 10
866.054733
 20
258.071109
 30
0.0
 11
858.745267
 21
258.071109
 31
0.0
  0
LINE
  8
LC-010-003-----0
  6
CONTINUOUS
  5
328
 10
859.695497
 20
258.13339
 30
0.0
 11
862.4
 21
237.590653
 31
0.0
  0
LINE
  8
LC-010-003-----0
  6
CONTINUOUS
  5
329
 10
862.4
 20
237.590653
 30
0.0
 11
865.104503
 21
258.13339
 31
0.0
  0
LINE
  8
LC-010-003-----0
  6
CONTINUOUS
  5
32A
 10
860.645728
 20
258.195671
 30
0.0
 11
862.4
 21
244.870653
 31
0.0
  0
LINE
  8
LC-010-003-----0
  6
CONTINUOUS
  5
32B
 10
862.4
 20
244.870653
 30
0.0
 11
864.154272
 21
258.195671
 31
0.0
  0
LINE
  8
LC-010-003-----0
  6
CONTINUOUS
  5
32C
 10
861.595959
 20
258.257953
 30
0.0
 11
862.4
 21
252.150653
 31
0.0
  0
LINE
  8
LC-010-003-----0
  6
CONTINUOUS
  5
32D
 10
862.4
 20
252.150653
 30
0.0
 11
863.204041
 21
258.257953
 31
0.0
  0
LINE
  8
LC-010-003-----0
  6
CONTINUOUS
  5
32E
 10
866.054733
 20
312.335443
 30
0.0
 11
862.4
 21
340.095899
 31
0.0
  0
LINE
  8
LC-010-003-----0
  6
CONTINUOUS
  5
32F
 10
862.4
 20
340.095899
 30
0.0
 11
858.745267
 21
312.335443
 31
0.0
  0
LINE
  8
LC-010-003-----0
  6
CONTINUOUS
  5
330
 10
858.745267
 20
312.335443
 30
0.0
 11
866.054733
 21
312.335443
 31
0.0
  0
LINE
  8
LC-010-003-----0
  6
CONTINUOUS
  5
331
 10
865.104503
 20
312.273162
 30
0.0
 11
862.4
 21
332.815899
 31
0.0
  0
LINE
  8
LC-010-003-----0
  6
CONTINUOUS
  5
332
 10
862.4
 20
332.815899
 30
0.0
 11
859.695497
 21
312.273162
 31
0.0
  0
LINE
  8
LC-010-003-----0
  6
CONTINUOUS
  5
333
 10
864.154272
 20
312.210881
 30
0.0
 11
862.4
 21
325.535899
 31
0.0
  0
LINE
  8
LC-010-003-----0
  6
CONTINUOUS
  5
334
 10
862.4
 20
325.535899
 30
0.0
 11
860.645728
 21
312.210881
 31
0.0
  0
LINE
  8
LC-010-003-----0
  6
CONTINUOUS
  5
335
 10
863.204041
 20
312.148599
 30
0.0
 11
862.4
 21
318.255899
 31
0.0
  0
LINE
  8
LC-010-003-----0
  6
CONTINUOUS
  5
336
 10
862.4
 20
318.255899
 30
0.0
 11
861.595959
 21
312.148599
 31
0.0
  0
TEXT
  8
LC-010-003-----0
  6
CONTINUOUS
 62
     8
  5
337
 10
854.572446
 20
259.787656
 30
0.0
 40
28.0
  1
110
 50
90.0
 51
15.0
  7
LC-TXTSTYLE-150-400-0-0-D0
 72
     1
 11
854.572446
 21
289.551436
 31
0.0
  0
ENDBLK
  8
0
  5
338
  0
BLOCK
  8
0
  5
33A
  2
*D28
 70
    65
 10
0.0
 20
0.0
 30
0.0
  3
*D28
  0
LINE
  8
LC-011-003-MTH-0
  6
CONTINUOUS
  5
33B
 10
607.184598
 20
275.310788
 30
0.0
 11
607.184598
 21
63.2
 31
0.0
  0
LINE
  8
LC-011-003-MTH-0
  6
CONTINUOUS
  5
33C
 10
767.119816
 20
152.124
 30
0.0
 11
767.119816
 21
63.2
 31
0.0
  0
LINE
  8
LC-012-003-MTG-0
  6
CONTINUOUS
  5
33D
 10
607.184598
 20
80.0
 30
0.0
 11
767.119816
 21
80.0
 31
0.0
  0
LINE
  8
LC-010-003-----0
  6
CONTINUOUS
  5
33E
 10
634.945054
 20
83.654733
 30
0.0
 11
607.184598
 21
80.0
 31
0.0
  0
LINE
  8
LC-010-003-----0
  6
CONTINUOUS
  5
33F
 10
607.184598
 20
80.0
 30
0.0
 11
634.945054
 21
76.345267
 31
0.0
  0
LINE
  8
LC-010-003-----0
  6
CONTINUOUS
  5
340
 10
634.945054
 20
76.345267
 30
0.0
 11
634.945054
 21
83.654733
 31
0.0
  0
LINE
  8
LC-010-003-----0
  6
CONTINUOUS
  5
341
 10
635.007336
 20
82.704503
 30
0.0
 11
614.464598
 21
80.0
 31
0.0
  0
LINE
  8
LC-010-003-----0
  6
CONTINUOUS
  5
342
 10
614.464598
 20
80.0
 30
0.0
 11
635.007336
 21
77.295497
 31
0.0
  0
LINE
  8
LC-010-003-----0
  6
CONTINUOUS
  5
343
 10
635.069617
 20
81.754272
 30
0.0
 11
621.744598
 21
80.0
 31
0.0
  0
LINE
  8
LC-010-003-----0
  6
CONTINUOUS
  5
344
 10
621.744598
 20
80.0
 30
0.0
 11
635.069617
 21
78.245728
 31
0.0
  0
LINE
  8
LC-010-003-----0
  6
CONTINUOUS
  5
345
 10
635.131899
 20
80.804041
 30
0.0
 11
629.024598
 21
80.0
 31
0.0
  0
LINE
  8
LC-010-003-----0
  6
CONTINUOUS
  5
346
 10
629.024598
 20
80.0
 30
0.0
 11
635.131899
 21
79.195959
 31
0.0
  0
LINE
  8
LC-010-003-----0
  6
CONTINUOUS
  5
347
 10
739.359359
 20
76.345267
 30
0.0
 11
767.119816
 21
80.0
 31
0.0
  0
LINE
  8
LC-010-003-----0
  6
CONTINUOUS
  5
348
 10
767.119816
 20
80.0
 30
0.0
 11
739.359359
 21
83.654733
 31
0.0
  0
LINE
  8
LC-010-003-----0
  6
CONTINUOUS
  5
349
 10
739.359359
 20
83.654733
 30
0.0
 11
739.359359
 21
76.345267
 31
0.0
  0
LINE
  8
LC-010-003-----0
  6
CONTINUOUS
  5
34A
 10
739.297078
 20
77.295497
 30
0.0
 11
759.839816
 21
80.0
 31
0.0
  0
LINE
  8
LC-010-003-----0
  6
CONTINUOUS
  5
34B
 10
759.839816
 20
80.0
 30
0.0
 11
739.297078
 21
82.704503
 31
0.0
  0
LINE
  8
LC-010-003-----0
  6
CONTINUOUS
  5
34C
 10
739.234797
 20
78.245728
 30
0.0
 11
752.559816
 21
80.0
 31
0.0
  0
LINE
  8
LC-010-003-----0
  6
CONTINUOUS
  5
34D
 10
752.559816
 20
80.0
 30
0.0
 11
739.234797
 21
81.754272
 31
0.0
  0
LINE
  8
LC-010-003-----0
  6
CONTINUOUS
  5
34E
 10
739.172515
 20
79.195959
 30
0.0
 11
745.279816
 21
80.0
 31
0.0
  0
LINE
  8
LC-010-003-----0
  6
CONTINUOUS
  5
34F
 10
745.279816
 20
80.0
 30
0.0
 11
739.172515
 21
80.804041
 31
0.0
  0
TEXT
  8
LC-010-003-----0
  6
CONTINUOUS
 62
     8
  5
350
 10
653.402729
 20
87.827554
 30
0.0
 40
28.0
  1
Ø160
 51
15.0
  7
LC-TXTSTYLE-150-400-0-0-D0
 72
     1
 11
691.500367
 21
87.827554
 31
0.0
  0
ENDBLK
  8
0
  5
351
  0
BLOCK
  8
0
  5
353
  2
*X29
 70
    65
 10
643.367613
 20
252.798513
 30
0.0
  3
*X29
  0
LINE
  8
LC-006-005-----0
  6
CONTINUOUS
  5
354
 10
730.399438
 20
316.118599
 30
0.0
 11
722.187736
 21
324.3303
 31
0.0
  0
LINE
  8
LC-006-005-----0
  6
CONTINUOUS
  5
355
 10
730.867799
 20
312.82181
 30
0.0
 11
728.602443
 21
315.087166
 31
0.0
  0
LINE
  8
LC-006-005-----0
  6
CONTINUOUS
  5
356
 10
721.156304
 20
322.533305
 30
0.0
 11
718.890947
 21
324.798662
 31
0.0
  0
LINE
  8
LC-006-005-----0
  6
CONTINUOUS
  5
357
 10
730.86782
 20
309.993362
 30
0.0
 11
728.867821
 21
311.993361
 31
0.0
  0
LINE
  8
LC-006-005-----0
  6
CONTINUOUS
  5
358
 10
718.062498
 20
322.798684
 30
0.0
 11
716.062496
 21
324.798686
 31
0.0
  0
LINE
  8
LC-006-005-----0
  6
CONTINUOUS
  5
359
 10
730.867818
 20
307.164937
 30
0.0
 11
728.867819
 21
309.164936
 31
0.0
  0
LINE
  8
LC-006-005-----0
  6
CONTINUOUS
  5
35A
 10
715.234071
 20
322.798684
 30
0.0
 11
713.234067
 21
324.798688
 31
0.0
  0
LINE
  8
LC-006-005-----0
  6
CONTINUOUS
  5
35B
 10
730.867816
 20
304.336512
 30
0.0
 11
728.867817
 21
306.33651
 31
0.0
  0
LINE
  8
LC-006-005-----0
  6
CONTINUOUS
  5
35C
 10
712.405643
 20
322.798684
 30
0.0
 11
710.405638
 21
324.79869
 31
0.0
  0
LINE
  8
LC-006-005-----0
  6
CONTINUOUS
  5
35D
 10
730.867814
 20
301.508086
 30
0.0
 11
728.867815
 21
303.508085
 31
0.0
  0
LINE
  8
LC-006-005-----0
  6
CONTINUOUS
  5
35E
 10
709.577216
 20
322.798684
 30
0.0
 11
707.577209
 21
324.798692
 31
0.0
  0
LINE
  8
LC-006-005-----0
  6
CONTINUOUS
  5
35F
 10
730.867812
 20
298.679661
 30
0.0
 11
728.867814
 21
300.67966
 31
0.0
  0
LINE
  8
LC-006-005-----0
  6
CONTINUOUS
  5
360
 10
706.748789
 20
322.798684
 30
0.0
 11
704.74878
 21
324.798693
 31
0.0
  0
LINE
  8
LC-006-005-----0
  6
CONTINUOUS
  5
361
 10
700.09103
 20
329.456443
 30
0.0
 11
695.525573
 21
334.021901
 31
0.0
  0
LINE
  8
LC-006-005-----0
  6
CONTINUOUS
  5
362
 10
730.86781
 20
295.851236
 30
0.0
 11
728.867812
 21
297.851234
 31
0.0
  0
LINE
  8
LC-006-005-----0
  6
CONTINUOUS
  5
363
 10
703.920362
 20
322.798684
 30
0.0
 11
701.920351
 21
324.798695
 31
0.0
  0
LINE
  8
LC-006-005-----0
  6
CONTINUOUS
  5
364
 10
700.86768
 20
325.851366
 30
0.0
 11
691.920495
 21
334.798551
 31
0.0
  0
LINE
  8
LC-006-005-----0
  6
CONTINUOUS
  5
365
 10
730.867809
 20
293.022811
 30
0.0
 11
728.86781
 21
295.022809
 31
0.0
  0
LINE
  8
LC-006-005-----0
  6
CONTINUOUS
  5
366
 10
701.091935
 20
322.798684
 30
0.0
 11
696.657732
 21
327.232887
 31
0.0
  0
LINE
  8
LC-006-005-----0
  6
CONTINUOUS
  5
367
 10
693.302016
 20
330.588603
 30
0.0
 11
689.091915
 21
334.798705
 31
0.0
  0
LINE
  8
LC-006-005-----0
  6
CONTINUOUS
  5
368
 10
730.867807
 20
290.194385
 30
0.0
 11
728.867808
 21
292.194384
 31
0.0
  0
LINE
  8
LC-006-005-----0
  6
CONTINUOUS
  5
369
 10
698.263508
 20
322.798684
 30
0.0
 11
696.263493
 21
324.798699
 31
0.0
  0
LINE
  8
LC-006-005-----0
  6
CONTINUOUS
  5
36A
 10
690.263487
 20
330.798705
 30
0.0
 11
686.263488
 21
334.798704
 31
0.0
  0
LINE
  8
LC-006-005-----0
  6
CONTINUOUS
  5
36B
 10
730.867805
 20
287.36596
 30
0.0
 11
728.867806
 21
289.365959
 31
0.0
  0
LINE
  8
LC-006-005-----0
  6
CONTINUOUS
  5
36C
 10
695.435081
 20
322.798684
 30
0.0
 11
693.435064
 21
324.798701
 31
0.0
  0
LINE
  8
LC-006-005-----0
  6
CONTINUOUS
  5
36D
 10
687.43506
 20
330.798704
 30
0.0
 11
683.43506
 21
334.798704
 31
0.0
  0
LINE
  8
LC-006-005-----0
  6
CONTINUOUS
  5
36E
 10
730.867803
 20
284.537535
 30
0.0
 11
728.867804
 21
286.537533
 31
0.0
  0
LINE
  8
LC-006-005-----0
  6
CONTINUOUS
  5
36F
 10
692.606654
 20
322.798684
 30
0.0
 11
690.606635
 21
324.798703
 31
0.0
  0
LINE
  8
LC-006-005-----0
  6
CONTINUOUS
  5
370
 10
684.606633
 20
330.798704
 30
0.0
 11
680.752738
 21
334.652599
 31
0.0
  0
LINE
  8
LC-006-005-----0
  6
CONTINUOUS
  5
371
 10
730.867799
 20
278.880684
 30
0.0
 11
728.867801
 21
280.880683
 31
0.0
  0
LINE
  8
LC-006-005-----0
  6
CONTINUOUS
  5
372
 10
688.559761
 20
321.188723
 30
0.0
 11
684.949971
 21
324.798513
 31
0.0
  0
LINE
  8
LC-006-005-----0
  6
CONTINUOUS
  5
373
 10
679.712888
 20
330.035595
 30
0.0
 11
676.844193
 21
332.90429
 31
0.0
  0
LINE
  8
LC-006-005-----0
  6
CONTINUOUS
  5
374
 10
730.867798
 20
276.052259
 30
0.0
 11
728.867799
 21
278.052258
 31
0.0
  0
LINE
  8
LC-006-005-----0
  6
CONTINUOUS
  5
375
 10
688.558995
 20
318.361061
 30
0.0
 11
682.121544
 21
324.798513
 31
0.0
  0
LINE
  8
LC-006-005-----0
  6
CONTINUOUS
  5
376
 10
678.264427
 20
328.65563
 30
0.0
 11
675.411225
 21
331.508831
 31
0.0
  0
LINE
  8
LC-006-005-----0
  6
CONTINUOUS
  5
377
 10
730.867796
 20
273.223834
 30
0.0
 11
728.867797
 21
275.223832
 31
0.0
  0
LINE
  8
LC-006-005-----0
  6
CONTINUOUS
  5
378
 10
688.55823
 20
315.533399
 30
0.0
 11
679.293116
 21
324.798513
 31
0.0
  0
LINE
  8
LC-006-005-----0
  6
CONTINUOUS
  5
379
 10
677.440957
 20
326.650672
 30
0.0
 11
674.301387
 21
329.790242
 31
0.0
  0
LINE
  8
LC-006-005-----0
  6
CONTINUOUS
  5
37A
 10
730.867794
 20
270.395408
 30
0.0
 11
728.867795
 21
272.395407
 31
0.0
  0
LINE
  8
LC-006-005-----0
  6
CONTINUOUS
  5
37B
 10
688.557465
 20
312.705738
 30
0.0
 11
673.569582
 21
327.69362
 31
0.0
  0
LINE
  8
LC-006-005-----0
  6
CONTINUOUS
  5
37C
 10
730.867792
 20
267.566983
 30
0.0
 11
728.867793
 21
269.566982
 31
0.0
  0
LINE
  8
LC-006-005-----0
  6
CONTINUOUS
  5
37D
 10
688.556699
 20
309.878076
 30
0.0
 11
673.367837
 21
325.066938
 31
0.0
  0
LINE
  8
LC-006-005-----0
  6
CONTINUOUS
  5
37E
 10
730.86779
 20
264.738558
 30
0.0
 11
728.867791
 21
266.738556
 31
0.0
  0
LINE
  8
LC-006-005-----0
  6
CONTINUOUS
  5
37F
 10
688.555934
 20
307.050414
 30
0.0
 11
670.807835
 21
324.798513
 31
0.0
  0
LINE
  8
LC-006-005-----0
  6
CONTINUOUS
  5
380
 10
730.867788
 20
261.910132
 30
0.0
 11
728.86779
 21
263.910131
 31
0.0
  0
LINE
  8
LC-006-005-----0
  6
CONTINUOUS
  5
381
 10
688.555168
 20
304.222752
 30
0.0
 11
667.979408
 21
324.798513
 31
0.0
  0
LINE
  8
LC-006-005-----0
  6
CONTINUOUS
  5
382
 10
730.867786
 20
259.081707
 30
0.0
 11
728.867788
 21
261.081706
 31
0.0
  0
LINE
  8
LC-006-005-----0
  6
CONTINUOUS
  5
383
 10
688.554403
 20
301.395091
 30
0.0
 11
665.150981
 21
324.798513
 31
0.0
  0
LINE
  8
LC-006-005-----0
  6
CONTINUOUS
  5
384
 10
730.867785
 20
256.253282
 30
0.0
 11
728.867786
 21
258.253281
 31
0.0
  0
LINE
  8
LC-006-005-----0
  6
CONTINUOUS
  5
385
 10
688.553638
 20
298.567429
 30
0.0
 11
662.322554
 21
324.798513
 31
0.0
  0
LINE
  8
LC-006-005-----0
  6
CONTINUOUS
  5
386
 10
730.180872
 20
254.111767
 30
0.0
 11
728.867784
 21
255.424855
 31
0.0
  0
LINE
  8
LC-006-005-----0
  6
CONTINUOUS
  5
387
 10
688.552872
 20
295.739767
 30
0.0
 11
659.494127
 21
324.798513
 31
0.0
  0
LINE
  8
LC-006-005-----0
  6
CONTINUOUS
  5
388
 10
687.665699
 20
293.798513
 30
0.0
 11
656.665699
 21
324.798513
 31
0.0
  0
LINE
  8
LC-006-005-----0
  6
CONTINUOUS
  5
389
 10
684.837272
 20
293.798513
 30
0.0
 11
653.924377
 21
324.711408
 31
0.0
  0
LINE
  8
LC-006-005-----0
  6
CONTINUOUS
  5
38A
 10
682.008845
 20
293.798513
 30
0.0
 11
655.367613
 21
320.439745
 31
0.0
  0
LINE
  8
LC-006-005-----0
  6
CONTINUOUS
  5
38B
 10
653.238196
 20
322.569162
 30
0.0
 11
651.611759
 21
324.195599
 31
0.0
  0
LINE
  8
LC-006-005-----0
  6
CONTINUOUS
  5
38C
 10
679.180418
 20
293.798513
 30
0.0
 11
655.367613
 21
317.611318
 31
0.0
  0
LINE
  8
LC-006-005-----0
  6
CONTINUOUS
  5
38D
 10
651.125013
 20
321.853917
 30
0.0
 11
649.63711
 21
323.341821
 31
0.0
  0
LINE
  8
LC-006-005-----0
  6
CONTINUOUS
  5
38E
 10
676.351991
 20
293.798513
 30
0.0
 11
655.367613
 21
314.782891
 31
0.0
  0
LINE
  8
LC-006-005-----0
  6
CONTINUOUS
  5
38F
 10
649.35869
 20
320.791813
 30
0.0
 11
647.932729
 21
322.217775
 31
0.0
  0
LINE
  8
LC-006-005-----0
  6
CONTINUOUS
  5
390
 10
673.523564
 20
293.798513
 30
0.0
 11
655.367613
 21
311.954464
 31
0.0
  0
LINE
  8
LC-006-005-----0
  6
CONTINUOUS
  5
391
 10
647.887126
 20
319.434951
 30
0.0
 11
646.470808
 21
320.851268
 31
0.0
  0
LINE
  8
LC-006-005-----0
  6
CONTINUOUS
  5
392
 10
670.695137
 20
293.798513
 30
0.0
 11
655.367613
 21
309.126037
 31
0.0
  0
LINE
  8
LC-006-005-----0
  6
CONTINUOUS
  5
393
 10
646.702888
 20
317.790761
 30
0.0
 11
645.247159
 21
319.246491
 31
0.0
  0
LINE
  8
LC-006-005-----0
  6
CONTINUOUS
  5
394
 10
667.86671
 20
293.798513
 30
0.0
 11
658.867613
 21
302.79761
 31
0.0
  0
LINE
  8
LC-006-005-----0
  6
CONTINUOUS
  5
395
 10
658.86671
 20
302.798513
 30
0.0
 11
655.367613
 21
306.29761
 31
0.0
  0
LINE
  8
LC-006-005-----0
  6
CONTINUOUS
  5
396
 10
645.837467
 20
315.827756
 30
0.0
 11
644.279141
 21
317.386082
 31
0.0
  0
LINE
  8
LC-006-005-----0
  6
CONTINUOUS
  5
397
 10
665.038282
 20
293.798513
 30
0.0
 11
659.379503
 21
299.457293
 31
0.0
  0
LINE
  8
LC-006-005-----0
  6
CONTINUOUS
  5
398
 10
656.038282
 20
302.798513
 30
0.0
 11
655.367613
 21
303.469183
 31
0.0
  0
LINE
  8
LC-006-005-----0
  6
CONTINUOUS
  5
399
 10
645.388731
 20
313.448064
 30
0.0
 11
643.614866
 21
315.221929
 31
0.0
  0
LINE
  8
LC-006-005-----0
  6
CONTINUOUS
  5
39A
 10
645.367613
 20
310.640755
 30
0.0
 11
643.367613
 21
312.640755
 31
0.0
  0
LINE
  8
LC-006-005-----0
  6
CONTINUOUS
  5
39B
 10
645.367613
 20
307.812328
 30
0.0
 11
643.367613
 21
309.812328
 31
0.0
  0
LINE
  8
LC-006-005-----0
  6
CONTINUOUS
  5
39C
 10
645.367613
 20
304.983901
 30
0.0
 11
643.367613
 21
306.983901
 31
0.0
  0
LINE
  8
LC-006-005-----0
  6
CONTINUOUS
  5
39D
 10
645.367613
 20
302.155474
 30
0.0
 11
643.367613
 21
304.155474
 31
0.0
  0
LINE
  8
LC-006-005-----0
  6
CONTINUOUS
  5
39E
 10
645.367613
 20
299.327047
 30
0.0
 11
643.367613
 21
301.327047
 31
0.0
  0
LINE
  8
LC-006-005-----0
  6
CONTINUOUS
  5
39F
 10
645.367613
 20
296.49862
 30
0.0
 11
643.367613
 21
298.49862
 31
0.0
  0
LINE
  8
LC-006-005-----0
  6
CONTINUOUS
  5
3A0
 10
645.367613
 20
293.670193
 30
0.0
 11
643.367613
 21
295.670193
 31
0.0
  0
LINE
  8
LC-006-005-----0
  6
CONTINUOUS
  5
3A1
 10
645.367613
 20
290.841766
 30
0.0
 11
643.367613
 21
292.841766
 31
0.0
  0
LINE
  8
LC-006-005-----0
  6
CONTINUOUS
  5
3A2
 10
645.367613
 20
288.013338
 30
0.0
 11
643.367613
 21
290.013338
 31
0.0
  0
LINE
  8
LC-006-005-----0
  6
CONTINUOUS
  5
3A3
 10
645.367613
 20
285.184911
 30
0.0
 11
643.367613
 21
287.184911
 31
0.0
  0
LINE
  8
LC-006-005-----0
  6
CONTINUOUS
  5
3A4
 10
645.367613
 20
282.356484
 30
0.0
 11
643.367613
 21
284.356484
 31
0.0
  0
LINE
  8
LC-006-005-----0
  6
CONTINUOUS
  5
3A5
 10
645.367613
 20
279.528057
 30
0.0
 11
643.367613
 21
281.528057
 31
0.0
  0
LINE
  8
LC-006-005-----0
  6
CONTINUOUS
  5
3A6
 10
645.367613
 20
276.69963
 30
0.0
 11
643.367613
 21
278.69963
 31
0.0
  0
LINE
  8
LC-006-005-----0
  6
CONTINUOUS
  5
3A7
 10
645.367613
 20
273.871203
 30
0.0
 11
643.367613
 21
275.871203
 31
0.0
  0
LINE
  8
LC-006-005-----0
  6
CONTINUOUS
  5
3A8
 10
645.367613
 20
271.042776
 30
0.0
 11
643.367613
 21
273.042776
 31
0.0
  0
LINE
  8
LC-006-005-----0
  6
CONTINUOUS
  5
3A9
 10
645.367613
 20
268.214349
 30
0.0
 11
643.367613
 21
270.214349
 31
0.0
  0
LINE
  8
LC-006-005-----0
  6
CONTINUOUS
  5
3AA
 10
645.367613
 20
265.385921
 30
0.0
 11
643.367613
 21
267.385921
 31
0.0
  0
LINE
  8
LC-006-005-----0
  6
CONTINUOUS
  5
3AB
 10
645.367613
 20
262.557494
 30
0.0
 11
643.367613
 21
264.557494
 31
0.0
  0
LINE
  8
LC-006-005-----0
  6
CONTINUOUS
  5
3AC
 10
645.367613
 20
259.729067
 30
0.0
 11
643.367613
 21
261.729067
 31
0.0
  0
LINE
  8
LC-006-005-----0
  6
CONTINUOUS
  5
3AD
 10
645.367613
 20
256.90064
 30
0.0
 11
643.367613
 21
258.90064
 31
0.0
  0
LINE
  8
LC-006-005-----0
  6
CONTINUOUS
  5
3AE
 10
645.367613
 20
254.072213
 30
0.0
 11
643.367613
 21
256.072213
 31
0.0
  0
ENDBLK
  8
0
  5
3AF
  0
BLOCK
  8
0
  5
3B1
  2
BLK9
 70
    64
 10
0.0
 20
0.0
 30
0.0
  3
BLK9
  0
ENDBLK
  8
0
  5
3B2
  0
ENDSEC
  0
SECTION
  2
ENTITIES
  0
VIEWPORT
  8
LC-000
  5
59F
 67
     1
 68
     1
 10
420.0
 20
297.0
 30
0.0
 40
840.0
 41
594.0
 69
     1
1001
ACAD
1000
MVIEW
1002
{
1070
    16
1010
0.0
1020
0.0
1030
0.0
1010
0.0
1020
0.0
1030
1.0
1040
0.0
1040
594.0
1040
420.0
1040
297.0
1040
50.0
1040
0.0
1040
0.0
1070
     0
1070
   100
1070
     1
1070
     1
1070
     0
1070
     0
1070
     0
1070
     0
1040
0.0
1040
0.0
1040
0.0
1040
1.0
1040
1.0
1040
0.0
1040
0.0
1070
     0
1002
{
1002
}
1002
}
  0
VIEWPORT
  8
0
  5
5A0
 67
     1
 68
     1
 10
0.0
 20
0.0
 30
0.0
 40
0.0
 41
0.0
 69
     1
1001
ACAD
1000
MVIEW
1002
{
1070
    16
1010
0.0
1020
0.0
1030
0.0
1010
0.0
1020
0.0
1030
1.0
1040
0.0
1040
594.0
1040
0.0
1040
0.0
1040
50.0
1040
0.0
1040
0.0
1070
     0
1070
   100
1070
     0
1070
     1
1070
     0
1070
     0
1070
     0
1070
     0
1040
0.0
1040
0.0
1040
0.0
1040
0.5
1040
0.5
1040
0.5
1040
0.5
1070
     0
1002
{
1002
}
1002
}
  0
INSERT
  8
0
  5
3B3
  2
*X0
 10
605.684598
 20
171.310829
 30
0.0
  0
INSERT
  8
0
  5
3B4
  2
*X1
 10
536.971053
 20
253.810786
 30
0.0
  0
INSERT
  8
0
  5
3B5
  2
*X2
 10
707.120037
 20
171.310652
 30
0.0
  0
INSERT
  8
0
  5
3B6
  2
*X3
 10
475.619955
 20
272.897885
 30
0.0
  0
INSERT
  8
0
  5
3B7
  2
*X4
 10
542.333943
 20
263.953064
 30
0.0
  0
INSERT
  8
0
  5
3B8
  2
*X5
 10
591.905967
 20
263.953064
 30
0.0
  0
INSERT
  8
0
  5
3B9
  2
*X6
 10
477.119955
 20
227.647885
 30
0.0
  0
INSERT
  8
0
  5
3BA
  2
*X7
 10
540.6654
 20
231.810879
 30
0.0
  0
INSERT
  8
0
  5
3BB
  2
*X8
 10
590.119955
 20
251.800508
 30
0.0
  0
INSERT
  8
0
  5
3BC
  2
*X9
 10
484.529046
 20
274.78425
 30
0.0
  0
INSERT
  8
0
  5
3BD
  2
*X10
 10
484.529046
 20
328.905586
 30
0.0
  0
INSERT
  8
0
  5
3BF
  2
BLK1
 10
0.0
 20
0.0
 30
0.0
  0
INSERT
  8
0
  5
3C0
  2
BLK2
 10
0.0
 20
0.0
 30
0.0
  0
INSERT
  8
0
  5
3C1
  2
BLK3
 10
0.0
 20
0.0
 30
0.0
  0
INSERT
  8
0
  5
3C3
  2
BLK4
 10
0.0
 20
0.0
 30
0.0
  0
INSERT
  8
0
  5
3C4
  2
BLK5
 10
0.0
 20
0.0
 30
0.0
  0
INSERT
  8
0
  5
3C5
  2
BLK6
 10
0.0
 20
0.0
 30
0.0
  0
INSERT
  8
0
  5
3C6
  2
BLK7
 10
0.0
 20
0.0
 30
0.0
  0
INSERT
  8
0
  5
3C7
  2
BLK8
 10
0.0
 20
0.0
 30
0.0
  0
INSERT
  8
0
  5
3C8
  2
*X19
 10
595.367613
 20
317.309557
 30
0.0
  0
DIMENSION
  8
0
  5
3C9
  2
*D20
 10
687.121477
 20
392.0
 30
0.0
 11
687.121477
 21
392.0
 31
0.0
  1
%%c300
 13
536.971053
 23
340.095899
 33
0.0
 14
837.271901
 24
340.095899
 34
0.0
  3
LC-DIM-L-0140-02-02
  0
DIMENSION
  8
0
  5
3CA
  2
*D21
 10
687.121477
 20
352.8
 30
0.0
 11
687.121477
 21
352.8
 31
0.0
  1
%%c190
 13
592.620438
 23
330.845412
 33
0.0
 14
781.622515
 24
330.845412
 34
0.0
  3
LC-DIM-L-0140-02-02
  0
DIMENSION
  8
0
  5
3CB
  2
*D22
 10
803.824932
 20
156.8
 30
0.0
 11
803.824932
 21
156.8
 31
0.0
  1
DN50
 13
662.117613
 23
180.712126
 33
0.0
 14
712.117614
 24
180.712126
 34
0.0
  3
LC-DIM-L-0140-02-02
  0
DIMENSION
  8
0
  5
3CC
  2
*D23
 10
686.884102
 20
120.0
 30
0.0
 11
686.884102
 21
120.0
 31
0.0
  1
DN70
 13
649.617753
 23
174.796866
 33
0.0
 14
724.150451
 24
173.053847
 34
0.0
  3
LC-DIM-L-0140-02-02
  0
DIMENSION
  8
0
  5
3CD
  2
*D24
 10
431.2
 20
322.496892
 30
0.0
 11
431.2
 21
322.496892
 31
0.0
  1
35
 13
536.971053
 23
340.095899
 33
0.0
 14
475.619955
 24
304.897885
 34
0.0
 50
90.0
  3
LC-DIM-L-0140-02-02
  0
DIMENSION
  8
0
  5
3CE
  2
*D25
 10
470.4
 20
304.335385
 30
0.0
 11
470.4
 21
304.335385
 31
0.0
  1
DN50
 13
477.119955
 23
330.147885
 33
0.0
 14
477.119955
 24
278.522885
 34
0.0
 50
90.0
  3
LC-DIM-L-0140-02-02
  0
DIMENSION
  8
0
  5
3CF
  2
*D26
 10
823.2
 20
277.048682
 30
0.0
 11
823.2
 21
277.048682
 31
0.0
  1
50
 13
728.867782
 23
252.798678
 33
0.0
 14
717.499909
 24
301.298686
 34
0.0
 50
90.0
  3
LC-DIM-L-0140-02-02
  0
DIMENSION
  8
0
  5
3D0
  2
*D27
 10
862.4
 20
285.203276
 30
0.0
 11
862.4
 21
285.203276
 31
0.0
  1
110
 13
755.167681
 23
230.310653
 33
0.0
 14
837.271901
 24
340.095899
 34
0.0
 50
90.0
  3
LC-DIM-L-0140-02-02
  0
DIMENSION
  8
0
  5
3D1
  2
*D28
 10
687.152207
 20
80.0
 30
0.0
 11
687.152207
 21
80.0
 31
0.0
  1
%%c160
 13
607.184598
 23
275.310788
 33
0.0
 14
767.119816
 24
152.124
 34
0.0
  3
LC-DIM-L-0140-02-02
  0
INSERT
  8
0
  5
3D2
  2
*X29
 10
643.367613
 20
252.798513
 30
0.0
  0
INSERT
  8
0
  5
3D3
  2
BLK9
 10
0.0
 20
0.0
 30
0.0
  0
ARC
  8
LC-001-002-RND-0
  6
CONTINUOUS
  5
3D5
 10
718.867822
 20
312.798684
 30
0.0
 40
10.0
 50
359.999963
 51
90.0
  0
ARC
  8
LC-001-002-RND-0
  6
CONTINUOUS
  5
3D6
 10
718.867822
 20
312.798684
 30
0.0
 40
12.0
 50
359.999963
 51
89.999963
  0
ARC
  8
LC-001-002-RND-0
  6
CONTINUOUS
  5
3D7
 10
691.867834
 20
325.798705
 30
0.0
 40
9.0
 50
0.000006
 51
90.000006
  0
LINE
  8
LC-002-002-----0
  6
CONTINUOUS
  5
3D9
 10
691.867834
 20
330.798705
 30
0.0
 11
687.117835
 21
330.798704
 31
0.0
  0
LINE
  8
LC-002-002-----0
  6
CONTINUOUS
  5
3DA
 10
696.867834
 20
324.798705
 30
0.0
 11
696.867834
 21
325.798705
 31
0.0
  0
ARC
  8
LC-002-002-----0
  6
CONTINUOUS
  5
3DB
 10
691.867834
 20
325.798705
 30
0.0
 40
5.0
 50
0.000005
 51
90.000006
  0
ARC
  8
LC-001-002-RND-0
  6
CONTINUOUS
  5
3DC
 10
682.367837
 20
325.798704
 30
0.0
 40
9.0
 50
90.0
 51
180.000001
  0
LINE
  8
LC-002-002-----0
  6
CONTINUOUS
  5
3DD
 10
682.367837
 20
330.798704
 30
0.0
 11
687.117836
 21
330.798704
 31
0.0
  0
LINE
  8
LC-002-002-----0
  6
CONTINUOUS
  5
3DE
 10
677.367837
 20
324.798704
 30
0.0
 11
677.367837
 21
325.798704
 31
0.0
  0
LINE
  8
LC-002-002-----0
  6
CONTINUOUS
  5
3DF
 10
691.867833
 20
334.798705
 30
0.0
 11
687.117835
 21
334.798704
 31
0.0
  0
LINE
  8
LC-002-002-----0
  6
CONTINUOUS
  5
3E0
 10
700.867834
 20
324.798706
 30
0.0
 11
700.867834
 21
325.798706
 31
0.0
  0
ARC
  8
LC-002-002-----0
  6
CONTINUOUS
  5
3E1
 10
682.367837
 20
325.798704
 30
0.0
 40
5.0
 50
90.0
 51
180.000001
  0
LINE
  8
LC-002-002-----0
  6
CONTINUOUS
  5
3E2
 10
682.367837
 20
334.798704
 30
0.0
 11
687.117836
 21
334.798704
 31
0.0
  0
LINE
  8
LC-002-002-----0
  6
CONTINUOUS
  5
3E3
 10
673.367837
 20
324.798704
 30
0.0
 11
673.367837
 21
325.798704
 31
0.0
  0
LINE
  8
LC-002-002-----0
  6
CONTINUOUS
  5
3E4
 10
645.367613
 20
252.798513
 30
0.0
 11
656.742974
 21
252.798513
 31
0.0
  0
LINE
  8
LC-002-002-----0
  6
CONTINUOUS
  5
3E5
 10
655.367613
 20
324.798513
 30
0.0
 11
673.367837
 21
324.798513
 31
0.0
  0
ARC
  8
LC-002-002-----0
  6
CONTINUOUS
  5
3E6
 10
655.367613
 20
312.798513
 30
0.0
 40
12.0
 50
90.0
 51
179.999848
  0
LINE
  8
LC-002-002-----0
  6
CONTINUOUS
  5
3E7
 10
643.367613
 20
312.798545
 30
0.0
 11
643.367613
 21
254.798513
 31
0.0
  0
ARC
  8
LC-002-002-----0
  6
CONTINUOUS
  5
3E8
 10
655.367613
 20
312.798513
 30
0.0
 40
10.0
 50
90.0
 51
179.999848
  0
LINE
  8
LC-002-002-----0
  6
CONTINUOUS
  5
3E9
 10
645.367613
 20
313.261186
 30
0.0
 11
645.367613
 21
252.798513
 31
0.0
  0
LINE
  8
LC-002-002-----0
  6
CONTINUOUS
  5
3EA
 10
655.367613
 20
302.798513
 30
0.0
 11
658.367613
 21
302.798513
 31
0.0
  0
LINE
  8
LC-002-002-----0
  6
CONTINUOUS
  5
3EB
 10
655.367613
 20
302.798513
 30
0.0
 11
655.367613
 21
322.798513
 31
0.0
  0
LINE
  8
LC-002-002-----0
  6
CONTINUOUS
  5
3EC
 10
658.367613
 20
302.798513
 30
0.0
 11
658.867613
 21
302.798513
 31
0.0
  0
LINE
  8
LC-002-002-----0
  6
CONTINUOUS
  5
3ED
 10
701.609162
 20
293.798513
 30
0.0
 11
662.367616
 21
293.798513
 31
0.0
  0
LINE
  8
LC-002-002-----0
  6
CONTINUOUS
  5
3EE
 10
658.867613
 20
301.50562
 30
0.0
 11
658.867613
 21
302.798513
 31
0.0
  0
LINE
  8
LC-002-002-----0
  6
CONTINUOUS
  5
3EF
 10
658.867616
 20
300.091407
 30
0.0
 11
658.867616
 21
297.298513
 31
0.0
  0
LINE
  8
LC-002-002-----0
  6
CONTINUOUS
  5
3F0
 10
658.867616
 20
297.298513
 30
0.0
 11
662.367616
 21
293.798513
 31
0.0
  0
ARC
  8
LC-002-002-----0
  6
CONTINUOUS
  5
3F1
 10
658.617613
 20
300.798513
 30
0.0
 40
0.75
 50
289.471622
 51
70.528779
  0
LINE
  8
LC-002-002-----0
  6
CONTINUOUS
  5
3F2
 10
718.867829
 20
324.798684
 30
0.0
 11
700.867834
 21
324.798696
 31
0.0
  0
LINE
  8
LC-002-002-----0
  6
CONTINUOUS
  5
3F3
 10
730.867822
 20
312.798676
 30
0.0
 11
730.867784
 21
254.798679
 31
0.0
  0
LINE
  8
LC-002-002-----0
  6
CONTINUOUS
  5
3F4
 10
728.867822
 20
312.798678
 30
0.0
 11
728.867782
 21
252.798678
 31
0.0
  0
LINE
  8
LC-002-002-----0
  6
CONTINUOUS
  5
3F5
 10
728.867782
 20
252.798678
 30
0.0
 11
717.499909
 21
252.798685
 31
0.0
  0
LINE
  8
LC-002-002-----0
  6
CONTINUOUS
  5
3F6
 10
718.867822
 20
322.798684
 30
0.0
 11
688.560197
 21
322.798684
 31
0.0
  0
LINE
  8
LC-002-002-----0
  6
CONTINUOUS
  5
3F7
 10
645.367613
 20
252.798513
 30
0.0
 11
643.367613
 21
254.798513
 31
0.0
  0
LINE
  8
LC-002-002-----0
  6
CONTINUOUS
  5
3F8
 10
728.867782
 20
252.798678
 30
0.0
 11
730.867784
 21
254.798679
 31
0.0
  0
LINE
  8
LC-003-103-D00-1
  6
CONTINUOUS
  5
3FA
 10
662.117613
 20
180.712126
 30
0.0
 11
663.051707
 21
177.226086
 31
0.0
  0
ARC
  8
LC-002-002-----0
  6
CONTINUOUS
  5
3FB
 10
619.136733
 20
242.262934
 30
0.0
 40
11.952134
 50
228.503781
 51
270.000037
  0
LINE
  8
LC-002-002-----0
  6
CONTINUOUS
  5
3FC
 10
652.709072
 20
230.310839
 30
0.0
 11
652.709072
 21
230.363542
 31
0.0
  0
ARC
  8
LC-001-002-RND-0
  6
CONTINUOUS
  5
3FD
 10
835.271901
 20
340.946493
 30
0.0
 40
2.0
 50
0.0
 51
93.999997
  0
LINE
  8
LC-002-002-----0
  6
CONTINUOUS
  5
3FE
 10
649.617754
 20
230.310829
 30
0.0
 11
649.617753
 21
174.796866
 31
0.0
  0
LINE
  8
LC-002-002-----0
  6
CONTINUOUS
  5
3FF
 10
721.533723
 20
233.298686
 30
0.0
 11
720.487911
 21
233.298686
 31
0.0
  0
LINE
  8
LC-002-002-----0
  6
CONTINUOUS
  5
400
 10
649.617753
 20
174.796866
 30
0.0
 11
650.551834
 21
171.310829
 31
0.0
  0
LINE
  8
LC-002-002-----0
  6
CONTINUOUS
  5
401
 10
724.617516
 20
230.310653
 30
0.0
 11
724.617515
 21
174.796866
 31
0.0
  0
LINE
  8
LC-002-002-----0
  6
CONTINUOUS
  5
402
 10
724.617515
 20
174.796866
 30
0.0
 11
723.683387
 21
171.310828
 31
0.0
  0
LINE
  8
LC-002-002-----0
  6
CONTINUOUS
  5
403
 10
652.70907
 20
233.298686
 30
0.0
 11
652.70907
 21
233.298686
 31
0.0
  0
LINE
  8
LC-002-002-----0
  6
CONTINUOUS
  5
404
 10
773.523368
 20
327.954731
 30
0.0
 11
773.523368
 21
334.428804
 31
0.0
  0
LINE
  8
LC-002-002-----0
  6
CONTINUOUS
  5
405
 10
775.515391
 20
334.428804
 30
0.0
 11
773.523368
 21
334.428804
 31
0.0
  0
LINE
  8
LC-002-002-----0
  6
CONTINUOUS
  5
406
 10
600.719585
 20
327.954731
 30
0.0
 11
600.719585
 21
334.428804
 31
0.0
  0
LINE
  8
LC-002-002-----0
  6
CONTINUOUS
  5
407
 10
598.727563
 20
334.428804
 30
0.0
 11
600.719585
 21
334.428804
 31
0.0
  0
LINE
  8
LC-002-002-----0
  6
CONTINUOUS
  5
408
 10
598.727563
 20
328.452737
 30
0.0
 11
598.727563
 21
334.428804
 31
0.0
  0
LINE
  8
LC-002-002-----0
  6
CONTINUOUS
  5
409
 10
775.515391
 20
328.452737
 30
0.0
 11
775.515391
 21
334.428804
 31
0.0
  0
LINE
  8
LC-002-002-----0
  6
CONTINUOUS
  5
40A
 10
777.507413
 20
328.452737
 30
0.0
 11
775.515391
 21
328.452737
 31
0.0
  0
LINE
  8
LC-002-002-----0
  6
CONTINUOUS
  5
40B
 10
764.31164
 20
242.262787
 30
0.0
 11
764.31164
 21
307.781951
 31
0.0
  0
ARC
  8
LC-002-002-----0
  6
CONTINUOUS
  5
40C
 10
755.167681
 20
242.262787
 30
0.0
 40
11.952134
 50
270.0
 51
0.0
  0
LINE
  8
LC-002-002-----0
  6
CONTINUOUS
  5
40D
 10
765.656256
 20
316.995055
 30
0.0
 11
730.110173
 21
316.995055
 31
0.0
  0
LINE
  8
LC-002-002-----0
  6
CONTINUOUS
  5
40E
 10
652.709106
 20
171.310829
 30
0.0
 11
652.709081
 21
230.310829
 31
0.0
  0
LINE
  8
LC-002-002-----0
  6
CONTINUOUS
  5
40F
 10
650.551834
 20
171.310829
 30
0.0
 11
687.12135
 21
171.310844
 31
0.0
  0
LINE
  8
LC-002-002-----0
  6
CONTINUOUS
  5
410
 10
764.859447
 20
316.198246
 30
0.0
 11
764.660244
 21
316.198246
 31
0.0
  0
LINE
  8
LC-002-002-----0
  6
CONTINUOUS
  5
411
 10
773.524744
 20
317.49306
 30
0.0
 11
773.524744
 21
334.425251
 31
0.0
  0
LINE
  8
LC-002-002-----0
  6
CONTINUOUS
  5
412
 10
596.735541
 20
328.452737
 30
0.0
 11
598.727563
 21
328.452737
 31
0.0
  0
LINE
  8
LC-002-002-----0
  6
CONTINUOUS
  5
413
 10
764.859447
 20
312.712206
 30
0.0
 11
764.859447
 21
314.206223
 31
0.0
  0
LINE
  8
LC-002-002-----0
  6
CONTINUOUS
  5
414
 10
764.859447
 20
309.275968
 30
0.0
 11
764.859447
 21
309.773973
 31
0.0
  0
LINE
  8
LC-002-002-----0
  6
CONTINUOUS
  5
415
 10
764.859447
 20
307.781951
 30
0.0
 11
764.859447
 21
310.720184
 31
0.0
  0
LINE
  8
LC-002-002-----0
  6
CONTINUOUS
  5
416
 10
764.859447
 20
307.781951
 30
0.0
 11
764.31164
 21
307.781951
 31
0.0
  0
LINE
  8
LC-002-002-----0
  6
CONTINUOUS
  5
417
 10
764.859447
 20
310.720184
 30
0.0
 11
764.660244
 21
310.720184
 31
0.0
  0
LINE
  8
LC-002-002-----0
  6
CONTINUOUS
  5
418
 10
763.863435
 20
311.516993
 30
0.0
 11
763.863435
 21
311.915397
 31
0.0
  0
LINE
  8
LC-002-002-----0
  6
CONTINUOUS
  5
419
 10
763.863435
 20
315.003032
 30
0.0
 11
763.863435
 21
315.401437
 31
0.0
  0
LINE
  8
LC-002-002-----0
  6
CONTINUOUS
  5
41A
 10
764.859447
 20
314.206223
 30
0.0
 11
764.660244
 21
314.206223
 31
0.0
  0
ARC
  8
LC-002-002-----0
  6
CONTINUOUS
  5
41B
 10
764.660244
 20
315.401437
 30
0.0
 40
0.796809
 50
90.0
 51
180.0
  0
ARC
  8
LC-002-002-----0
  6
CONTINUOUS
  5
41C
 10
764.660244
 20
311.915397
 30
0.0
 40
0.796809
 50
90.0
 51
180.0
  0
LINE
  8
LC-002-002-----0
  6
CONTINUOUS
  5
41D
 10
797.061003
 20
338.343357
 30
0.0
 11
778.953786
 21
337.016346
 31
0.0
  0
LINE
  8
LC-002-002-----0
  6
CONTINUOUS
  5
41E
 10
777.559621
 20
328.449183
 30
0.0
 11
775.516766
 21
328.449183
 31
0.0
  0
ARC
  8
LC-002-002-----0
  6
CONTINUOUS
  5
41F
 10
764.660244
 20
311.516993
 30
0.0
 40
0.796809
 50
180.0
 51
270.0
  0
ARC
  8
LC-002-002-----0
  6
CONTINUOUS
  5
420
 10
764.660244
 20
315.003032
 30
0.0
 40
0.796809
 50
180.0
 51
270.0
  0
LINE
  8
LC-002-002-----0
  6
CONTINUOUS
  5
421
 10
609.931313
 20
253.81079
 30
0.0
 11
609.931313
 21
307.781951
 31
0.0
  0
ARC
  8
LC-002-002-----0
  6
CONTINUOUS
  5
422
 10
773.026738
 20
317.49306
 30
0.0
 40
0.498006
 50
270.0
 51
0.0
  0
LINE
  8
LC-002-002-----0
  6
CONTINUOUS
  5
423
 10
775.516766
 20
328.449183
 30
0.0
 11
775.516766
 21
334.425251
 31
0.0
  0
LINE
  8
LC-002-002-----0
  6
CONTINUOUS
  5
424
 10
835.132388
 20
342.941621
 30
0.0
 11
802.931077
 21
340.689888
 31
0.0
  0
ARC
  8
LC-002-002-----0
  6
CONTINUOUS
  5
425
 10
777.559621
 20
329.445195
 30
0.0
 40
0.996011
 50
270.0
 51
357.0
  0
LINE
  8
LC-002-002-----0
  6
CONTINUOUS
  5
426
 10
837.271901
 20
340.095899
 30
0.0
 11
804.081446
 21
337.774999
 31
0.0
  0
LINE
  8
LC-002-002-----0
  6
CONTINUOUS
  5
427
 10
778.953786
 20
337.016346
 30
0.0
 11
778.554267
 21
329.393067
 31
0.0
  0
LINE
  8
LC-002-002-----0
  6
CONTINUOUS
  5
428
 10
837.271901
 20
340.946493
 30
0.0
 11
837.271901
 21
340.095899
 31
0.0
  0
LINE
  8
LC-002-002-----0
  6
CONTINUOUS
  5
429
 10
609.383507
 20
316.198246
 30
0.0
 11
609.582709
 21
316.198246
 31
0.0
  0
LINE
  8
LC-002-002-----0
  6
CONTINUOUS
  5
42A
 10
781.730193
 20
332.900016
 30
0.0
 11
781.514838
 21
328.790807
 31
0.0
  0
LINE
  8
LC-002-002-----0
  6
CONTINUOUS
  5
42B
 10
804.081446
 20
337.774999
 30
0.0
 11
798.211372
 21
335.428468
 31
0.0
  0
ARC
  8
LC-001-002-RND-0
  6
CONTINUOUS
  5
42C
 10
538.971053
 20
340.946493
 30
0.0
 40
2.0
 50
86.000004
 51
180.0
  0
LINE
  8
LC-002-002-----0
  6
CONTINUOUS
  5
42D
 10
538.971053
 20
342.946493
 30
0.0
 11
835.271901
 21
342.946493
 31
0.0
  0
LINE
  8
LC-002-002-----0
  6
CONTINUOUS
  5
42E
 10
721.533723
 20
171.310652
 30
0.0
 11
721.533723
 21
230.36352
 31
0.0
  0
LINE
  8
LC-002-002-----0
  6
CONTINUOUS
  5
42F
 10
764.859447
 20
312.712206
 30
0.0
 11
764.660244
 21
312.712206
 31
0.0
  0
LINE
  8
LC-002-002-----0
  6
CONTINUOUS
  5
430
 10
723.68334
 20
171.310652
 30
0.0
 11
687.121476
 21
171.310652
 31
0.0
  0
LINE
  8
LC-002-002-----0
  6
CONTINUOUS
  5
431
 10
600.71821
 20
317.49306
 30
0.0
 11
600.71821
 21
334.425251
 31
0.0
  0
LINE
  8
LC-002-002-----0
  6
CONTINUOUS
  5
432
 10
609.383507
 20
312.712206
 30
0.0
 11
609.383507
 21
314.206223
 31
0.0
  0
LINE
  8
LC-002-002-----0
  6
CONTINUOUS
  5
433
 10
609.383507
 20
309.275968
 30
0.0
 11
609.383507
 21
309.773973
 31
0.0
  0
LINE
  8
LC-002-002-----0
  6
CONTINUOUS
  5
434
 10
609.383507
 20
307.781951
 30
0.0
 11
609.383507
 21
310.720184
 31
0.0
  0
ARC
  8
LC-002-002-----0
  6
CONTINUOUS
  5
435
 10
755.34754
 20
242.262787
 30
0.0
 40
8.964101
 50
270.0
 51
0.0
  0
ARC
  8
LC-004-001-RND-0
  6
CONTINUOUS
  5
437
 10
783.222163
 20
332.821825
 30
0.0
 40
1.494017
 50
93.999997
 51
177.0
  0
LINE
  8
LC-002-002-----0
  6
CONTINUOUS
  5
438
 10
609.383507
 20
307.781951
 30
0.0
 11
609.931313
 21
307.781951
 31
0.0
  0
LINE
  8
LC-002-002-----0
  6
CONTINUOUS
  5
439
 10
609.383507
 20
310.720184
 30
0.0
 11
609.582709
 21
310.720184
 31
0.0
  0
LINE
  8
LC-002-002-----0
  6
CONTINUOUS
  5
43A
 10
610.379518
 20
311.516993
 30
0.0
 11
610.379518
 21
311.915397
 31
0.0
  0
LINE
  8
LC-002-002-----0
  6
CONTINUOUS
  5
43B
 10
610.379518
 20
315.003032
 30
0.0
 11
610.379518
 21
315.401437
 31
0.0
  0
LINE
  8
LC-002-002-----0
  6
CONTINUOUS
  5
43C
 10
609.383507
 20
314.206223
 30
0.0
 11
609.582709
 21
314.206223
 31
0.0
  0
LINE
  8
LC-002-002-----0
  6
CONTINUOUS
  5
43D
 10
577.761148
 20
338.300393
 30
0.0
 11
595.289167
 21
337.016346
 31
0.0
  0
ARC
  8
LC-002-002-----0
  6
CONTINUOUS
  5
43E
 10
609.582709
 20
315.401437
 30
0.0
 40
0.796809
 50
0.0
 51
90.0
  0
ARC
  8
LC-002-002-----0
  6
CONTINUOUS
  5
43F
 10
609.582709
 20
311.915397
 30
0.0
 40
0.796809
 50
0.0
 51
90.0
  0
LINE
  8
LC-002-002-----0
  6
CONTINUOUS
  5
440
 10
596.683332
 20
328.449183
 30
0.0
 11
598.726187
 21
328.449183
 31
0.0
  0
LINE
  8
LC-002-002-----0
  6
CONTINUOUS
  5
441
 10
598.726187
 20
328.449183
 30
0.0
 11
598.726187
 21
334.425251
 31
0.0
  0
ARC
  8
LC-002-002-----0
  6
CONTINUOUS
  5
442
 10
609.582709
 20
311.516993
 30
0.0
 40
0.796809
 50
270.0
 51
0.0
  0
ARC
  8
LC-002-002-----0
  6
CONTINUOUS
  5
443
 10
609.582709
 20
315.003032
 30
0.0
 40
0.796809
 50
270.0
 51
0.0
  0
LINE
  8
LC-002-002-----0
  6
CONTINUOUS
  5
444
 10
539.110566
 20
342.941621
 30
0.0
 11
570.588286
 21
340.740486
 31
0.0
  0
ARC
  8
LC-002-002-----0
  6
CONTINUOUS
  5
445
 10
601.216215
 20
317.49306
 30
0.0
 40
0.498006
 50
180.0
 51
270.0
  0
LINE
  8
LC-002-002-----0
  6
CONTINUOUS
  5
446
 10
536.971053
 20
340.095899
 30
0.0
 11
569.437916
 21
337.825598
 31
0.0
  0
LINE
  8
LC-002-002-----0
  6
CONTINUOUS
  5
447
 10
595.289167
 20
337.016346
 30
0.0
 11
595.688687
 21
329.393067
 31
0.0
  0
ARC
  8
LC-002-002-----0
  6
CONTINUOUS
  5
448
 10
596.683332
 20
329.445195
 30
0.0
 40
0.996011
 50
183.0
 51
270.0
  0
LINE
  8
LC-002-002-----0
  6
CONTINUOUS
  5
449
 10
536.971053
 20
340.946493
 30
0.0
 11
536.971053
 21
340.095899
 31
0.0
  0
LINE
  8
LC-002-002-----0
  6
CONTINUOUS
  5
44A
 10
592.512761
 20
332.900016
 30
0.0
 11
592.728115
 21
328.790807
 31
0.0
  0
LINE
  8
LC-002-002-----0
  6
CONTINUOUS
  5
44B
 10
569.437916
 20
337.825598
 30
0.0
 11
575.291635
 21
335.479702
 31
0.0
  0
LINE
  8
LC-002-002-----0
  6
CONTINUOUS
  5
44C
 10
609.383507
 20
312.712206
 30
0.0
 11
609.582709
 21
312.712206
 31
0.0
  0
LINE
  8
LC-002-002-----0
  6
CONTINUOUS
  5
44D
 10
597.979179
 20
317.991066
 30
0.0
 11
607.184598
 21
304.844364
 31
0.0
  0
LINE
  8
LC-002-002-----0
  6
CONTINUOUS
  5
44E
 10
595.712054
 20
325.959155
 30
0.0
 11
595.987157
 21
325.959155
 31
0.0
  0
LINE
  8
LC-002-002-----0
  6
CONTINUOUS
  5
44F
 10
776.332919
 20
317.991066
 30
0.0
 11
767.119816
 21
304.833391
 31
0.0
  0
LINE
  8
LC-005-001-----0
  6
CONTINUOUS
  5
451
 10
575.291635
 20
335.479702
 30
0.0
 11
591.125009
 21
334.312202
 31
0.0
  0
ARC
  8
LC-002-002-----0
  6
CONTINUOUS
  5
452
 10
618.895414
 20
242.262787
 30
0.0
 40
8.964101
 50
226.034602
 51
270.0
  0
ARC
  8
LC-004-001-RND-0
  6
CONTINUOUS
  5
453
 10
591.020791
 20
332.821825
 30
0.0
 40
1.494017
 50
3.0
 51
86.000003
  0
LINE
  8
LC-002-002-----0
  6
CONTINUOUS
  5
454
 10
778.5309
 20
325.959155
 30
0.0
 11
778.255797
 21
325.959155
 31
0.0
  0
LINE
  8
LC-005-001-----0
  6
CONTINUOUS
  5
455
 10
798.211372
 20
335.428468
 30
0.0
 11
783.117944
 21
334.312202
 31
0.0
  0
LINE
  8
LC-002-002-----0
  6
CONTINUOUS
  5
456
 10
776.332919
 20
317.991066
 30
0.0
 11
776.263775
 21
323.967133
 31
0.0
  0
LINE
  8
LC-002-002-----0
  6
CONTINUOUS
  5
457
 10
773.026738
 20
316.995055
 30
0.0
 11
765.656256
 21
316.995055
 31
0.0
  0
LINE
  8
LC-002-002-----0
  6
CONTINUOUS
  5
458
 10
773.524744
 20
318.489071
 30
0.0
 11
773.524744
 21
319.783271
 31
0.0
  0
LINE
  8
LC-002-002-----0
  6
CONTINUOUS
  5
459
 10
597.979179
 20
317.991066
 30
0.0
 11
597.979179
 21
323.967133
 31
0.0
  0
ARC
  8
LC-002-002-----0
  6
CONTINUOUS
  5
45A
 10
778.5309
 20
328.947189
 30
0.0
 40
2.988034
 50
270.0
 51
357.0
  0
ARC
  8
LC-002-002-----0
  6
CONTINUOUS
  5
45B
 10
778.255797
 20
323.967133
 30
0.0
 40
1.992022
 50
90.0
 51
180.0
  0
LINE
  8
LC-002-002-----0
  6
CONTINUOUS
  5
45C
 10
775.516766
 20
334.425251
 30
0.0
 11
773.524744
 21
334.425251
 31
0.0
  0
LINE
  8
LC-002-002-----0
  6
CONTINUOUS
  5
45D
 10
764.859447
 20
309.026965
 30
0.0
 11
764.859447
 21
309.524971
 31
0.0
  0
LINE
  8
LC-002-002-----0
  6
CONTINUOUS
  5
45E
 10
773.524744
 20
318.489071
 30
0.0
 11
773.524744
 21
319.783271
 31
0.0
  0
ARC
  8
LC-002-002-----0
  6
CONTINUOUS
  5
45F
 10
595.712054
 20
328.947189
 30
0.0
 40
2.988034
 50
183.0
 51
270.0
  0
LINE
  8
LC-002-002-----0
  6
CONTINUOUS
  5
460
 10
601.216215
 20
316.995055
 30
0.0
 11
608.586698
 21
316.995055
 31
0.0
  0
ARC
  8
LC-002-002-----0
  6
CONTINUOUS
  5
461
 10
595.987157
 20
323.967133
 30
0.0
 40
1.992022
 50
0.0
 51
90.0
  0
LINE
  8
LC-002-002-----0
  6
CONTINUOUS
  5
462
 10
764.859447
 20
309.226167
 30
0.0
 11
764.859447
 21
309.724173
 31
0.0
  0
LINE
  8
LC-002-002-----0
  6
CONTINUOUS
  5
463
 10
600.71821
 20
318.489071
 30
0.0
 11
600.71821
 21
319.783271
 31
0.0
  0
LINE
  8
LC-002-002-----0
  6
CONTINUOUS
  5
464
 10
598.726187
 20
334.425251
 30
0.0
 11
600.71821
 21
334.425251
 31
0.0
  0
LINE
  8
LC-002-002-----0
  6
CONTINUOUS
  5
465
 10
609.383507
 20
309.026965
 30
0.0
 11
609.383507
 21
309.524971
 31
0.0
  0
LINE
  8
LC-002-002-----0
  6
CONTINUOUS
  5
466
 10
802.931077
 20
340.689888
 30
0.0
 11
797.061003
 21
338.343357
 31
0.0
  0
LINE
  8
LC-002-002-----0
  6
CONTINUOUS
  5
467
 10
600.71821
 20
318.489071
 30
0.0
 11
600.71821
 21
319.783271
 31
0.0
  0
LINE
  8
LC-002-002-----0
  6
CONTINUOUS
  5
468
 10
609.383507
 20
309.226167
 30
0.0
 11
609.383507
 21
309.724173
 31
0.0
  0
LINE
  8
LC-002-002-----0
  6
CONTINUOUS
  5
469
 10
570.588286
 20
340.740486
 30
0.0
 11
577.761148
 21
338.300393
 31
0.0
  0
LINE
  8
LC-002-002-----0
  6
CONTINUOUS
  5
46A
 10
619.13674
 20
230.310799
 30
0.0
 11
649.617754
 21
230.310829
 31
0.0
  0
LINE
  8
LC-002-002-----0
  6
CONTINUOUS
  5
46B
 10
724.617516
 20
230.310653
 30
0.0
 11
755.167681
 21
230.310653
 31
0.0
  0
ARC
  8
LC-002-002-----0
  6
CONTINUOUS
  5
46C
 10
765.656256
 20
316.198246
 30
0.0
 40
0.796809
 50
90.0
 51
180.0
  0
LINE
  8
LC-002-002-----0
  6
CONTINUOUS
  5
46D
 10
755.34754
 20
233.298686
 30
0.0
 11
721.533723
 21
233.298686
 31
0.0
  0
ARC
  8
LC-002-002-----0
  6
CONTINUOUS
  5
46E
 10
608.586698
 20
316.198246
 30
0.0
 40
0.796809
 50
0.0
 51
90.0
  0
LINE
  8
LC-002-002-----0
  6
CONTINUOUS
  5
46F
 10
618.895414
 20
233.298686
 30
0.0
 11
653.754914
 21
233.298686
 31
0.0
  0
LINE
  8
LC-002-002-----0
  6
CONTINUOUS
  5
470
 10
644.125325
 20
316.995055
 30
0.0
 11
608.586698
 21
316.995055
 31
0.0
  0
LINE
  8
LC-003-103-D00-1
  6
CONTINUOUS
  5
471
 10
663.051707
 20
177.226086
 30
0.0
 11
665.208988
 21
177.226086
 31
0.0
  0
LINE
  8
LC-003-103-D00-1
  6
CONTINUOUS
  5
472
 10
665.208988
 20
177.226086
 30
0.0
 11
665.208906
 21
229.298686
 31
0.0
  0
LINE
  8
LC-002-002-----0
  6
CONTINUOUS
  5
473
 10
665.208988
 20
177.226086
 30
0.0
 11
709.026237
 21
177.226086
 31
0.0
  0
LINE
  8
LC-002-002-----0
  6
CONTINUOUS
  5
474
 10
609.931313
 20
307.781951
 30
0.0
 11
643.367613
 21
307.781951
 31
0.0
  0
LINE
  8
LC-002-002-----0
  6
CONTINUOUS
  5
475
 10
665.208906
 20
229.298686
 30
0.0
 11
709.033783
 21
229.298672
 31
0.0
  0
LINE
  8
LC-002-002-----0
  6
CONTINUOUS
  5
476
 10
667.120037
 20
232.005635
 30
0.0
 11
661.914322
 21
233.400502
 31
0.0
  0
LINE
  8
LC-002-002-----0
  6
CONTINUOUS
  5
477
 10
607.184598
 20
275.310788
 30
0.0
 11
605.684598
 21
275.310786
 31
0.0
  0
LINE
  8
LC-003-103-D00-1
  6
CONTINUOUS
  5
478
 10
712.117614
 20
180.712126
 30
0.0
 11
711.183519
 21
177.226086
 31
0.0
  0
LINE
  8
LC-002-002-----0
  6
CONTINUOUS
  5
479
 10
605.684598
 20
275.310786
 30
0.0
 11
605.684598
 21
257.800396
 31
0.0
  0
LINE
  8
LC-003-103-D00-1
  6
CONTINUOUS
  5
47A
 10
711.183519
 20
177.226086
 30
0.0
 11
709.026237
 21
177.226086
 31
0.0
  0
LINE
  8
LC-002-002-----0
  6
CONTINUOUS
  5
47B
 10
605.684598
 20
253.810786
 30
0.0
 11
605.684598
 21
235.810786
 31
0.0
  0
LINE
  8
LC-003-103-D00-1
  6
CONTINUOUS
  5
47C
 10
709.026237
 20
177.226086
 30
0.0
 11
709.026335
 21
229.298672
 31
0.0
  0
LINE
  8
LC-002-002-----0
  6
CONTINUOUS
  5
47D
 10
605.684598
 20
235.810786
 30
0.0
 11
605.684598
 21
233.310786
 31
0.0
  0
LINE
  8
LC-002-002-----0
  6
CONTINUOUS
  5
47E
 10
605.684598
 20
233.310786
 30
0.0
 11
611.217599
 21
233.310792
 31
0.0
  0
LINE
  8
LC-002-002-----0
  6
CONTINUOUS
  5
47F
 10
612.672322
 20
235.810793
 30
0.0
 11
605.684598
 21
235.810786
 31
0.0
  0
LINE
  8
LC-002-002-----0
  6
CONTINUOUS
  5
480
 10
609.931313
 20
253.81079
 30
0.0
 11
605.684598
 21
253.810786
 31
0.0
  0
LINE
  8
LC-002-002-----0
  6
CONTINUOUS
  5
481
 10
607.184598
 20
275.310788
 30
0.0
 11
607.184598
 21
304.844364
 31
0.0
  0
LINE
  8
LC-002-002-----0
  6
CONTINUOUS
  5
482
 10
712.320922
 20
233.400487
 30
0.0
 11
707.120037
 21
232.006914
 31
0.0
  0
LINE
  8
LC-002-002-----0
  6
CONTINUOUS
  5
483
 10
707.120037
 20
232.006914
 30
0.0
 11
667.120037
 21
232.006914
 31
0.0
  0
LINE
  8
LC-002-002-----0
  6
CONTINUOUS
  5
484
 10
717.499909
 20
301.298686
 30
0.0
 11
701.609162
 21
301.298686
 31
0.0
  0
ARC
  8
LC-003-103-D00-1
  6
CONTINUOUS
  5
485
 10
653.754914
 20
236.286732
 30
0.0
 40
2.988044
 50
269.999929
 51
0.0
  0
ARC
  8
LC-003-103-D00-1
  6
CONTINUOUS
  5
486
 10
720.487911
 20
236.286732
 30
0.0
 40
2.988046
 50
180.0
 51
270.0
  0
LINE
  8
LC-003-103-D00-1
  6
CONTINUOUS
 62
     4
  5
487
 10
665.208937
 20
230.31085
 30
0.0
 11
665.208921
 21
230.31085
 31
0.0
  0
ARC
  8
LC-003-103-D00-1
  6
CONTINUOUS
  5
488
 10
662.687685
 20
236.286732
 30
0.0
 40
2.988045
 50
180.605225
 51
255.0
  0
ARC
  8
LC-002-002-----0
  6
CONTINUOUS
  5
489
 10
620.315196
 20
242.262787
 30
0.0
 40
8.964101
 50
180.0
 51
226.034602
  0
LINE
  8
LC-002-002-----0
  6
CONTINUOUS
  5
48A
 10
612.672322
 20
235.810793
 30
0.0
 11
614.092104
 21
235.810793
 31
0.0
  0
LINE
  8
LC-002-002-----0
  6
CONTINUOUS
  5
48B
 10
611.351095
 20
242.262787
 30
0.0
 11
611.351095
 21
253.81079
 31
0.0
  0
LINE
  8
LC-002-002-----0
  6
CONTINUOUS
  5
48C
 10
611.351095
 20
253.81079
 30
0.0
 11
609.931313
 21
253.81079
 31
0.0
  0
LINE
  8
LC-002-002-----0
  6
CONTINUOUS
  5
48D
 10
667.115265
 20
232.006914
 30
0.0
 11
667.115265
 21
229.298685
 31
0.0
  0
LINE
  8
LC-002-002-----0
  6
CONTINUOUS
  5
48E
 10
707.120037
 20
232.006914
 30
0.0
 11
707.120037
 21
229.298673
 31
0.0
  0
LINE
  8
LC-002-002-----0
  6
CONTINUOUS
  5
48F
 10
662.117613
 20
230.75784
 30
0.0
 11
658.76223
 21
231.656912
 31
0.0
  0
LINE
  8
LC-002-002-----0
  6
CONTINUOUS
  5
490
 10
715.473014
 20
231.656897
 30
0.0
 11
712.117627
 21
230.757823
 31
0.0
  0
LINE
  8
LC-002-002-----0
  6
CONTINUOUS
  5
491
 10
721.533723
 20
230.310653
 30
0.0
 11
721.533723
 21
230.310653
 31
0.0
  0
LINE
  8
LC-002-002-----0
  6
CONTINUOUS
  5
492
 10
652.709081
 20
230.310829
 30
0.0
 11
652.709072
 21
230.310839
 31
0.0
  0
LINE
  8
LC-002-002-----0
  6
CONTINUOUS
  5
493
 10
715.12586
 20
298.798686
 30
0.0
 11
702.078073
 21
298.798686
 31
0.0
  0
ARC
  8
LC-002-002-----0
  6
CONTINUOUS
  5
494
 10
657.6609
 20
300.033742
 30
0.0
 40
1.812703
 50
317.052024
 51
44.25254
  0
LINE
  8
LC-002-002-----0
  6
CONTINUOUS
  5
495
 10
658.959286
 20
301.298686
 30
0.0
 11
656.742974
 21
301.298686
 31
0.0
  0
ARC
  8
LC-002-002-----0
  6
CONTINUOUS
  5
496
 10
716.450197
 20
300.036342
 30
0.0
 40
1.812638
 50
135.860092
 51
223.062235
  0
LINE
  8
LC-003-103-D00-1
  6
CONTINUOUS
  5
497
 10
662.117613
 20
230.75784
 30
0.0
 11
662.117613
 21
180.712126
 31
0.0
  0
LINE
  8
LC-003-103-D00-1
  6
CONTINUOUS
  5
498
 10
655.710863
 20
230.363542
 30
0.0
 11
652.709081
 21
230.363542
 31
0.0
  0
ARC
  8
LC-003-103-D00-1
  6
CONTINUOUS
  5
499
 10
657.667671
 20
232.416829
 30
0.0
 40
0.489202
 50
33.690094
 51
146.30999
  0
LINE
  8
LC-003-103-D00-1
  6
CONTINUOUS
  5
49A
 10
658.76223
 20
231.656912
 30
0.0
 11
658.074711
 21
232.688192
 31
0.0
  0
LINE
  8
LC-003-103-D00-1
  6
CONTINUOUS
  5
49B
 10
655.710863
 20
230.363542
 30
0.0
 11
657.260629
 21
232.688192
 31
0.0
  0
CIRCLE
  8
LC-002-002-----0
  6
CONTINUOUS
  5
49C
 10
545.333943
 20
266.953064
 30
0.0
 40
3.0
  0
CIRCLE
  8
LC-002-002-----0
  6
CONTINUOUS
  5
49D
 10
594.905967
 20
266.953064
 30
0.0
 40
3.0
  0
ARC
  8
LC-003-103-D00-1
  6
CONTINUOUS
  5
49E
 10
711.547559
 20
236.286716
 30
0.0
 40
2.988045
 50
285.0
 51
359.394745
  0
LINE
  8
LC-003-103-D00-1
  6
CONTINUOUS
  5
49F
 10
718.524377
 20
230.36352
 30
0.0
 11
721.533723
 21
230.36352
 31
0.0
  0
ARC
  8
LC-003-103-D00-1
  6
CONTINUOUS
  5
4A0
 10
716.567571
 20
232.416808
 30
0.0
 40
0.489202
 50
33.689972
 51
146.30986
  0
LINE
  8
LC-003-103-D00-1
  6
CONTINUOUS
  5
4A1
 10
715.473014
 20
231.656897
 30
0.0
 11
716.160531
 21
232.688169
 31
0.0
  0
LINE
  8
LC-003-103-D00-1
  6
CONTINUOUS
  5
4A2
 10
718.524377
 20
230.36352
 30
0.0
 11
716.974613
 21
232.688169
 31
0.0
  0
LINE
  8
LC-003-103-D00-1
  6
CONTINUOUS
  5
4A3
 10
712.117627
 20
230.757823
 30
0.0
 11
712.117614
 21
180.712126
 31
0.0
  0
LINE
  8
LC-003-103-D00-1
  6
CONTINUOUS
  5
4A4
 10
658.987748
 20
298.798686
 30
0.0
 11
659.699803
 21
236.255201
 31
0.0
  0
LINE
  8
LC-003-103-D00-1
  6
CONTINUOUS
  5
4A5
 10
656.742974
 20
301.298686
 30
0.0
 11
656.742974
 21
236.286732
 31
0.0
  0
LINE
  8
LC-003-103-D00-1
  6
CONTINUOUS
  5
4A6
 10
717.499909
 20
301.298686
 30
0.0
 11
717.499909
 21
236.286732
 31
0.0
  0
LINE
  8
LC-003-103-D00-1
  6
CONTINUOUS
  5
4A7
 10
715.12586
 20
298.798686
 30
0.0
 11
714.537707
 21
236.260695
 31
0.0
  0
LINE
  8
LC-002-002-----0
  6
CONTINUOUS
  5
4A8
 10
477.119955
 20
279.897885
 30
0.0
 11
477.119955
 21
272.897885
 31
0.0
  0
LINE
  8
LC-002-002-----0
  6
CONTINUOUS
  5
4A9
 10
482.619955
 20
326.897885
 30
0.0
 11
483.619955
 21
327.897885
 31
0.0
  0
LINE
  8
LC-002-002-----0
  6
CONTINUOUS
  5
4AA
 10
475.619955
 20
281.897885
 30
0.0
 11
498.119955
 21
281.897885
 31
0.0
  0
LINE
  8
LC-002-002-----0
  6
CONTINUOUS
  5
4AB
 10
481.619955
 20
327.897885
 30
0.0
 11
482.619955
 21
326.897885
 31
0.0
  0
LINE
  8
LC-002-002-----0
  6
CONTINUOUS
  5
4AC
 10
475.619955
 20
327.897885
 30
0.0
 11
481.619955
 21
327.897885
 31
0.0
  0
LINE
  8
LC-002-002-----0
  6
CONTINUOUS
  5
4AD
 10
483.619955
 20
327.897885
 30
0.0
 11
498.119955
 21
327.897885
 31
0.0
  0
LINE
  8
LC-002-002-----0
  6
CONTINUOUS
  5
4AE
 10
481.619955
 20
281.897885
 30
0.0
 11
482.619955
 21
282.897885
 31
0.0
  0
LINE
  8
LC-002-002-----0
  6
CONTINUOUS
  5
4AF
 10
482.619955
 20
282.897885
 30
0.0
 11
483.619955
 21
281.897885
 31
0.0
  0
LINE
  8
LC-002-002-----0
  6
CONTINUOUS
  5
4B0
 10
475.619955
 20
272.897885
 30
0.0
 11
475.619955
 21
336.897885
 31
0.0
  0
LINE
  8
LC-002-002-----0
  6
CONTINUOUS
  5
4B1
 10
477.119955
 20
329.897885
 30
0.0
 11
477.119955
 21
336.897885
 31
0.0
  0
LINE
  8
LC-002-002-----0
  6
CONTINUOUS
  5
4B2
 10
503.619955
 20
281.371606
 30
0.0
 11
503.619955
 21
328.424165
 31
0.0
  0
LINE
  8
LC-002-002-----0
  6
CONTINUOUS
  5
4B3
 10
475.619955
 20
336.897885
 30
0.0
 11
477.119955
 21
336.897885
 31
0.0
  0
LINE
  8
LC-002-002-----0
  6
CONTINUOUS
  5
4B4
 10
477.119955
 20
329.897885
 30
0.0
 11
498.119955
 21
329.897885
 31
0.0
  0
LINE
  8
LC-002-002-----0
  6
CONTINUOUS
  5
4B5
 10
477.119955
 20
279.897885
 30
0.0
 11
498.119955
 21
279.897885
 31
0.0
  0
LINE
  8
LC-002-002-----0
  6
CONTINUOUS
  5
4B6
 10
475.619955
 20
272.897885
 30
0.0
 11
477.119955
 21
272.897885
 31
0.0
  0
LINE
  8
LC-002-002-----0
  6
CONTINUOUS
  5
4B7
 10
498.119955
 20
279.897885
 30
0.0
 11
503.619955
 21
281.371606
 31
0.0
  0
LINE
  8
LC-002-002-----0
  6
CONTINUOUS
  5
4B8
 10
498.119955
 20
281.897885
 30
0.0
 11
502.119955
 21
282.969682
 31
0.0
  0
LINE
  8
LC-002-002-----0
  6
CONTINUOUS
  5
4B9
 10
498.119955
 20
327.897885
 30
0.0
 11
502.119955
 21
326.826088
 31
0.0
  0
LINE
  8
LC-002-002-----0
  6
CONTINUOUS
  5
4BA
 10
498.119955
 20
329.897885
 30
0.0
 11
503.619955
 21
328.424165
 31
0.0
  0
LINE
  8
LC-002-002-----0
  6
CONTINUOUS
  5
4BB
 10
653.117635
 20
233.298686
 30
0.0
 11
652.70907
 21
233.298686
 31
0.0
  0
LINE
  8
LC-002-002-----0
  6
CONTINUOUS
  5
4BC
 10
502.119955
 20
282.969682
 30
0.0
 11
502.119955
 21
326.826088
 31
0.0
  0
LINE
  8
LC-007-206-----0
  6
CONTINUOUS
  5
4BE
 10
599.219955
 20
279.697885
 30
0.0
 11
599.219955
 21
277.197885
 31
0.0
  0
LINE
  8
LC-007-206-----0
  6
CONTINUOUS
  5
4BF
 10
540.119955
 20
330.147885
 30
0.0
 11
493.619955
 21
330.147885
 31
0.0
  0
LINE
  8
LC-007-206-----0
  6
CONTINUOUS
  5
4C0
 10
550.119955
 20
257.408966
 30
0.0
 11
590.119955
 21
257.408966
 31
0.0
  0
LINE
  8
LC-007-206-----0
  6
CONTINUOUS
  5
4C1
 10
547.819955
 20
258.908966
 30
0.0
 11
547.819955
 21
260.908966
 31
0.0
  0
LINE
  8
LC-002-002-----0
  6
CONTINUOUS
  5
4C2
 10
481.319955
 20
329.897885
 30
0.0
 11
481.319955
 21
330.147885
 31
0.0
  0
LINE
  8
LC-007-206-----0
  6
CONTINUOUS
  5
4C3
 10
546.319955
 20
272.909034
 30
0.0
 11
543.669955
 21
272.909034
 31
0.0
  0
LINE
  8
LC-007-206-----0
  6
CONTINUOUS
  5
4C4
 10
483.619955
 20
335.147885
 30
0.0
 11
481.119955
 21
332.647885
 31
0.0
  0
LINE
  8
LC-007-206-----0
  6
CONTINUOUS
  5
4C5
 10
481.119955
 20
332.647885
 30
0.0
 11
477.119955
 21
332.647885
 31
0.0
  0
LINE
  8
LC-007-206-----0
  6
CONTINUOUS
  5
4C6
 10
547.819955
 20
276.197885
 30
0.0
 11
547.819955
 21
274.409034
 31
0.0
  0
ARC
  8
LC-007-206-----0
  6
CONTINUOUS
  5
4C7
 10
548.119955
 20
277.697885
 30
0.0
 40
2.0
 50
360.0
 51
90.0
  0
ARC
  8
LC-007-206-----0
  6
CONTINUOUS
  5
4C8
 10
546.819955
 20
276.197885
 30
0.0
 40
1.0
 50
360.0
 51
90.0
  0
ARC
  8
LC-007-206-----0
  6
CONTINUOUS
  5
4C9
 10
546.319955
 20
274.409034
 30
0.0
 40
1.5
 50
270.0
 51
360.0
  0
LINE
  8
LC-007-206-----0
  6
CONTINUOUS
  5
4CA
 10
550.119955
 20
277.697885
 30
0.0
 11
550.119955
 21
257.408966
 31
0.0
  0
LINE
  8
LC-007-206-----0
  6
CONTINUOUS
  5
4CB
 10
546.819955
 20
277.197885
 30
0.0
 11
496.119955
 21
277.197885
 31
0.0
  0
LINE
  8
LC-007-206-----0
  6
CONTINUOUS
  5
4CC
 10
593.065949
 20
279.697885
 30
0.0
 11
599.219955
 21
279.697885
 31
0.0
  0
LINE
  8
LC-007-206-----0
  6
CONTINUOUS
  5
4CD
 10
592.919955
 20
277.197885
 30
0.0
 11
599.219955
 21
277.197885
 31
0.0
  0
LINE
  8
LC-007-206-----0
  6
CONTINUOUS
  5
4CE
 10
543.669955
 20
270.409034
 30
0.0
 11
546.819955
 21
270.409034
 31
0.0
  0
ARC
  8
LC-007-206-----0
  6
CONTINUOUS
  5
4CF
 10
593.065949
 20
280.197885
 30
0.0
 40
0.5
 50
180.054053
 51
270.0
  0
ARC
  8
LC-007-206-----0
  6
CONTINUOUS
  5
4D0
 10
549.319955
 20
258.908966
 30
0.0
 40
1.5
 50
180.0
 51
270.0
  0
LINE
  8
LC-007-206-----0
  6
CONTINUOUS
  5
4D1
 10
481.119955
 20
277.147885
 30
0.0
 11
483.619955
 21
274.647885
 31
0.0
  0
LINE
  8
LC-002-002-----0
  6
CONTINUOUS
  5
4D2
 10
485.923508
 20
275.044332
 30
0.0
 11
481.319955
 21
279.647885
 31
0.0
  0
ARC
  8
LC-007-206-----0
  6
CONTINUOUS
  5
4D3
 10
540.065972
 20
280.147885
 30
0.0
 40
52.5
 50
0.054053
 51
17.036286
  0
ARC
  8
LC-007-206-----0
  6
CONTINUOUS
  5
4D4
 10
590.919955
 20
258.908966
 30
0.0
 40
1.5
 50
270.0
 51
360.0
  0
LINE
  8
LC-007-206-----0
  6
CONTINUOUS
  5
4D5
 10
590.119955
 20
257.408966
 30
0.0
 11
590.919955
 21
257.408966
 31
0.0
  0
LINE
  8
LC-007-206-----0
  6
CONTINUOUS
  5
4D6
 10
592.419955
 20
258.908966
 30
0.0
 11
592.419955
 21
260.908966
 31
0.0
  0
LINE
  8
LC-007-206-----0
  6
CONTINUOUS
  5
4D7
 10
590.119955
 20
280.147885
 30
0.0
 11
590.119955
 21
257.408966
 31
0.0
  0
LINE
  8
LC-007-206-----0
  6
CONTINUOUS
  5
4D8
 10
596.569955
 20
270.409034
 30
0.0
 11
593.419955
 21
270.409034
 31
0.0
  0
LINE
  8
LC-002-002-----0
  6
CONTINUOUS
  5
4D9
 10
485.923508
 20
334.751439
 30
0.0
 11
481.319955
 21
330.147885
 31
0.0
  0
ARC
  8
LC-007-206-----0
  6
CONTINUOUS
  5
4DA
 10
596.569955
 20
270.909034
 30
0.0
 40
0.5
 50
270.0
 51
360.0
  0
LINE
  8
LC-007-206-----0
  6
CONTINUOUS
  5
4DB
 10
493.619955
 20
334.397885
 30
0.0
 11
493.619955
 21
329.897885
 31
0.0
  0
ARC
  8
LC-007-206-----0
  6
CONTINUOUS
  5
4DC
 10
596.569955
 20
272.409034
 30
0.0
 40
0.5
 50
360.0
 51
90.0
  0
LINE
  8
LC-007-206-----0
  6
CONTINUOUS
  5
4DD
 10
593.919955
 20
272.909034
 30
0.0
 11
596.569955
 21
272.909034
 31
0.0
  0
ARC
  8
LC-007-206-----0
  6
CONTINUOUS
  5
4DE
 10
540.065972
 20
280.147885
 30
0.0
 40
52.5
 50
17.036286
 51
90.0
  0
ARC
  8
LC-007-206-----0
  6
CONTINUOUS
  5
4DF
 10
593.919955
 20
274.409034
 30
0.0
 40
1.5
 50
180.0
 51
270.0
  0
ARC
  8
LC-007-206-----0
  6
CONTINUOUS
  5
4E0
 10
540.119955
 20
280.147885
 30
0.0
 40
50.0
 50
360.0
 51
90.0
  0
LINE
  8
LC-007-206-----0
  6
CONTINUOUS
  5
4E1
 10
597.069955
 20
272.409034
 30
0.0
 11
597.069955
 21
270.909034
 31
0.0
  0
LINE
  8
LC-007-206-----0
  6
CONTINUOUS
  5
4E2
 10
550.119955
 20
257.408966
 30
0.0
 11
549.319955
 21
257.408966
 31
0.0
  0
ARC
  8
LC-007-206-----0
  6
CONTINUOUS
  5
4E3
 10
543.669955
 20
270.909034
 30
0.0
 40
0.5
 50
180.0
 51
270.0
  0
ARC
  8
LC-007-206-----0
  6
CONTINUOUS
  5
4E4
 10
543.669955
 20
272.409034
 30
0.0
 40
0.5
 50
90.0
 51
180.0
  0
LINE
  8
LC-007-206-----0
  6
CONTINUOUS
  5
4E5
 10
543.169955
 20
272.409034
 30
0.0
 11
543.169955
 21
270.909034
 31
0.0
  0
ARC
  8
LC-007-206-----0
  6
CONTINUOUS
  5
4E6
 10
592.919955
 20
276.697885
 30
0.0
 40
0.5
 50
90.0
 51
180.0
  0
LINE
  8
LC-007-206-----0
  6
CONTINUOUS
  5
4E7
 10
592.419955
 20
276.697885
 30
0.0
 11
592.419955
 21
274.409034
 31
0.0
  0
ARC
  8
LC-007-206-----0
  6
CONTINUOUS
  5
4E8
 10
486.277062
 20
334.397885
 30
0.0
 40
0.5
 50
90.0
 51
135.0
  0
LINE
  8
LC-007-206-----0
  6
CONTINUOUS
  5
4E9
 10
493.119955
 20
334.897885
 30
0.0
 11
486.277062
 21
334.897885
 31
0.0
  0
LINE
  8
LC-007-206-----0
  6
CONTINUOUS
  5
4EA
 10
494.619955
 20
337.397885
 30
0.0
 11
484.619955
 21
337.397885
 31
0.0
  0
LINE
  8
LC-007-206-----0
  6
CONTINUOUS
  5
4EB
 10
481.319955
 20
330.147885
 30
0.0
 11
477.119955
 21
330.147885
 31
0.0
  0
LINE
  8
LC-007-206-----0
  6
CONTINUOUS
  5
4EC
 10
496.119955
 20
332.647885
 30
0.0
 11
540.065972
 21
332.647885
 31
0.0
  0
ARC
  8
LC-007-206-----0
  6
CONTINUOUS
  5
4ED
 10
484.619955
 20
336.397885
 30
0.0
 40
1.0
 50
90.0
 51
180.0
  0
ARC
  8
LC-007-206-----0
  6
CONTINUOUS
  5
4EE
 10
494.619955
 20
336.397885
 30
0.0
 40
1.0
 50
360.0
 51
90.0
  0
ARC
  8
LC-007-206-----0
  6
CONTINUOUS
  5
4EF
 10
496.119955
 20
333.147885
 30
0.0
 40
0.5
 50
180.0
 51
270.0
  0
ARC
  8
LC-007-206-----0
  6
CONTINUOUS
  5
4F0
 10
493.119955
 20
334.397885
 30
0.0
 40
0.5
 50
360.0
 51
90.0
  0
LINE
  8
LC-007-206-----0
  6
CONTINUOUS
  5
4F1
 10
477.119955
 20
277.147885
 30
0.0
 11
477.119955
 21
279.897885
 31
0.0
  0
LINE
  8
LC-007-206-----0
  6
CONTINUOUS
  5
4F2
 10
495.619955
 20
336.397885
 30
0.0
 11
495.619955
 21
333.147885
 31
0.0
  0
LINE
  8
LC-007-206-----0
  6
CONTINUOUS
  5
4F3
 10
483.619955
 20
336.397885
 30
0.0
 11
483.619955
 21
335.147885
 31
0.0
  0
LINE
  8
LC-007-206-----0
  6
CONTINUOUS
  5
4F4
 10
548.119955
 20
279.647885
 30
0.0
 11
493.619955
 21
279.647885
 31
0.0
  0
LINE
  8
LC-007-206-----0
  6
CONTINUOUS
  5
4F5
 10
477.119955
 20
332.647885
 30
0.0
 11
477.119955
 21
329.897885
 31
0.0
  0
LINE
  8
LC-007-206-----0
  6
CONTINUOUS
  5
4F6
 10
477.119955
 20
277.147885
 30
0.0
 11
481.119955
 21
277.147885
 31
0.0
  0
ARC
  8
LC-007-206-----0
  6
CONTINUOUS
  5
4F7
 10
486.277062
 20
275.397885
 30
0.0
 40
0.5
 50
225.0
 51
270.0
  0
LINE
  8
LC-007-206-----0
  6
CONTINUOUS
  5
4F8
 10
493.119955
 20
274.897885
 30
0.0
 11
486.277062
 21
274.897885
 31
0.0
  0
LINE
  8
LC-007-206-----0
  6
CONTINUOUS
  5
4F9
 10
494.619955
 20
272.397885
 30
0.0
 11
484.619955
 21
272.397885
 31
0.0
  0
LINE
  8
LC-007-206-----0
  6
CONTINUOUS
  5
4FA
 10
481.319955
 20
279.647885
 30
0.0
 11
477.119955
 21
279.647885
 31
0.0
  0
LINE
  8
LC-002-002-----0
  6
CONTINUOUS
  5
4FB
 10
545.119955
 20
261.908966
 30
0.0
 11
546.119955
 21
260.908966
 31
0.0
  0
ARC
  8
LC-007-206-----0
  6
CONTINUOUS
  5
4FC
 10
484.619955
 20
273.397885
 30
0.0
 40
1.0
 50
180.0
 51
270.0
  0
ARC
  8
LC-007-206-----0
  6
CONTINUOUS
  5
4FD
 10
494.619955
 20
273.397885
 30
0.0
 40
1.0
 50
270.0
 51
360.0
  0
ARC
  8
LC-007-206-----0
  6
CONTINUOUS
  5
4FE
 10
496.119955
 20
276.697885
 30
0.0
 40
0.5
 50
90.0
 51
180.0
  0
ARC
  8
LC-007-206-----0
  6
CONTINUOUS
  5
4FF
 10
493.119955
 20
275.397885
 30
0.0
 40
0.5
 50
270.0
 51
360.0
  0
LINE
  8
LC-007-206-----0
  6
CONTINUOUS
  5
500
 10
495.619955
 20
273.397885
 30
0.0
 11
495.619955
 21
276.697885
 31
0.0
  0
LINE
  8
LC-007-206-----0
  6
CONTINUOUS
  5
501
 10
483.619955
 20
274.647885
 30
0.0
 11
483.619955
 21
273.397885
 31
0.0
  0
LINE
  8
LC-002-002-----0
  6
CONTINUOUS
  5
502
 10
595.119955
 20
261.908966
 30
0.0
 11
594.119955
 21
260.908966
 31
0.0
  0
LINE
  8
LC-002-002-----0
  6
CONTINUOUS
  5
503
 10
546.119955
 20
260.908966
 30
0.0
 11
547.819955
 21
260.908966
 31
0.0
  0
LINE
  8
LC-002-002-----0
  6
CONTINUOUS
  5
504
 10
545.119955
 20
263.408966
 30
0.0
 11
545.119955
 21
261.908966
 31
0.0
  0
LINE
  8
LC-002-002-----0
  6
CONTINUOUS
  5
505
 10
545.119955
 20
263.408966
 30
0.0
 11
547.819955
 21
263.408966
 31
0.0
  0
LINE
  8
LC-002-002-----0
  6
CONTINUOUS
  5
506
 10
594.119955
 20
260.908966
 30
0.0
 11
592.419955
 21
260.908966
 31
0.0
  0
LINE
  8
LC-002-002-----0
  6
CONTINUOUS
  5
507
 10
595.119955
 20
263.408966
 30
0.0
 11
595.119955
 21
261.908966
 31
0.0
  0
LINE
  8
LC-002-002-----0
  6
CONTINUOUS
  5
508
 10
595.119955
 20
263.408966
 30
0.0
 11
592.419955
 21
263.408966
 31
0.0
  0
LINE
  8
LC-007-206-----0
  6
CONTINUOUS
  5
509
 10
592.419955
 20
269.409034
 30
0.0
 11
592.419955
 21
263.408966
 31
0.0
  0
LINE
  8
LC-007-206-----0
  6
CONTINUOUS
  5
50A
 10
547.819955
 20
269.409034
 30
0.0
 11
547.819955
 21
263.408966
 31
0.0
  0
LINE
  8
LC-007-206-----0
  6
CONTINUOUS
  5
50B
 10
546.819955
 20
270.409034
 30
0.0
 11
547.819955
 21
269.409034
 31
0.0
  0
LINE
  8
LC-007-206-----0
  6
CONTINUOUS
  5
50C
 10
593.419955
 20
270.409034
 30
0.0
 11
592.419955
 21
269.409034
 31
0.0
  0
LINE
  8
LC-007-206-----0
  6
CONTINUOUS
  5
50D
 10
493.619955
 20
275.397885
 30
0.0
 11
493.619955
 21
279.897885
 31
0.0
  0
LINE
  8
LC-002-002-----0
  6
CONTINUOUS
  5
50E
 10
481.319955
 20
279.647885
 30
0.0
 11
481.319955
 21
279.897885
 31
0.0
  0
LINE
  8
LC-002-002-----0
  6
CONTINUOUS
  5
50F
 10
555.119955
 20
236.810786
 30
0.0
 11
605.549344
 21
236.810786
 31
0.0
  0
ARC
  8
LC-001-002-RND-0
  6
CONTINUOUS
  5
510
 10
555.119955
 20
241.810786
 30
0.0
 40
5.0
 50
180.0
 51
270.0
  0
LINE
  8
LC-002-002-----0
  6
CONTINUOUS
  5
511
 10
554.119955
 20
233.810842
 30
0.0
 11
570.119955
 21
233.810842
 31
0.0
  0
LINE
  8
LC-002-002-----0
  6
CONTINUOUS
  5
512
 10
541.005141
 20
276.209241
 30
0.0
 11
540.6654
 21
256.7455
 31
0.0
  0
LINE
  8
LC-002-002-----0
  6
CONTINUOUS
  5
513
 10
544.520431
 20
273.039765
 30
0.0
 11
544.520431
 21
274.20901
 31
0.0
  0
LINE
  8
LC-002-002-----0
  6
CONTINUOUS
  5
514
 10
597.219451
 20
258.198205
 30
0.0
 11
597.219451
 21
272.909034
 31
0.0
  0
ARC
  8
LC-002-002-----0
  6
CONTINUOUS
  5
515
 10
542.675353
 20
256.710416
 30
0.0
 40
1.999963
 50
179.0
 51
270.0
  0
LINE
  8
LC-002-002-----0
  6
CONTINUOUS
  5
516
 10
543.020459
 20
272.909034
 30
0.0
 11
544.514723
 21
273.039765
 31
0.0
  0
LINE
  8
LC-002-002-----0
  6
CONTINUOUS
  5
517
 10
542.020478
 20
276.708963
 30
0.0
 11
541.520487
 21
276.708963
 31
0.0
  0
LINE
  8
LC-002-002-----0
  6
CONTINUOUS
  5
518
 10
595.719479
 20
273.039765
 30
0.0
 11
593.307499
 21
273.039765
 31
0.0
  0
LINE
  8
LC-002-002-----0
  6
CONTINUOUS
  5
519
 10
592.231561
 20
258.181168
 30
0.0
 11
592.519955
 21
258.181168
 31
0.0
  0
LINE
  8
LC-002-002-----0
  6
CONTINUOUS
  5
51A
 10
598.219432
 20
276.708963
 30
0.0
 11
592.419955
 21
276.708963
 31
0.0
  0
LINE
  8
LC-002-002-----0
  6
CONTINUOUS
  5
51B
 10
595.719479
 20
274.20901
 30
0.0
 11
598.219432
 21
276.708963
 31
0.0
  0
LINE
  8
LC-002-002-----0
  6
CONTINUOUS
  5
51C
 10
595.719479
 20
273.039765
 30
0.0
 11
595.719479
 21
274.20901
 31
0.0
  0
LINE
  8
LC-002-002-----0
  6
CONTINUOUS
  5
51D
 10
597.219451
 20
272.909034
 30
0.0
 11
595.725187
 21
273.039765
 31
0.0
  0
LINE
  8
LC-002-002-----0
  6
CONTINUOUS
  5
51E
 10
599.234769
 20
276.209241
 30
0.0
 11
599.575123
 21
256.710416
 31
0.0
  0
ARC
  8
LC-002-002-----0
  6
CONTINUOUS
  5
51F
 10
541.520487
 20
276.208973
 30
0.0
 40
0.499991
 50
90.0
 51
180.0
  0
LINE
  8
LC-002-002-----0
  6
CONTINUOUS
  5
520
 10
543.020459
 20
258.181168
 30
0.0
 11
543.020459
 21
272.909034
 31
0.0
  0
LINE
  8
LC-002-002-----0
  6
CONTINUOUS
  5
521
 10
599.575123
 20
256.710416
 30
0.0
 11
604.449344
 21
256.710416
 31
0.0
  0
ARC
  8
LC-002-002-----0
  6
CONTINUOUS
  5
522
 10
598.719423
 20
276.208973
 30
0.0
 40
0.499991
 50
0.0
 51
90.0
  0
LINE
  8
LC-002-002-----0
  6
CONTINUOUS
  5
523
 10
605.449326
 20
231.810879
 30
0.0
 11
607.449309
 21
231.810879
 31
0.0
  0
LINE
  8
LC-002-002-----0
  6
CONTINUOUS
  5
524
 10
598.219432
 20
276.708963
 30
0.0
 11
598.719423
 21
276.708963
 31
0.0
  0
ARC
  8
LC-002-002-----0
  6
CONTINUOUS
  5
525
 10
606.549326
 20
252.800489
 30
0.0
 40
0.999981
 50
90.0
 51
180.0
  0
LINE
  8
LC-002-002-----0
  6
CONTINUOUS
  5
526
 10
606.549326
 20
253.80047
 30
0.0
 11
607.449309
 21
253.80047
 31
0.0
  0
LINE
  8
LC-002-002-----0
  6
CONTINUOUS
  5
527
 10
606.549326
 20
235.810805
 30
0.0
 11
607.449309
 21
235.810805
 31
0.0
  0
ARC
  8
LC-002-002-----0
  6
CONTINUOUS
  5
528
 10
605.449326
 20
232.810861
 30
0.0
 40
0.999981
 50
180.0
 51
270.0
  0
LINE
  8
LC-002-002-----0
  6
CONTINUOUS
  5
529
 10
570.119955
 20
233.810842
 30
0.0
 11
603.449363
 21
233.810842
 31
0.0
  0
ARC
  8
LC-002-002-----0
  6
CONTINUOUS
  5
52A
 10
606.549326
 20
236.810786
 30
0.0
 40
0.999981
 50
180.0
 51
270.0
  0
ARC
  8
LC-002-002-----0
  6
CONTINUOUS
  5
52B
 10
603.449363
 20
232.810861
 30
0.0
 40
0.999981
 50
360.0
 51
90.0
  0
LINE
  8
LC-002-002-----0
  6
CONTINUOUS
  5
52C
 10
544.520431
 20
274.20901
 30
0.0
 11
542.020478
 21
276.708963
 31
0.0
  0
LINE
  8
LC-002-002-----0
  6
CONTINUOUS
  5
52D
 10
547.119955
 20
251.710453
 30
0.0
 11
547.119955
 21
240.810842
 31
0.0
  0
LINE
  8
LC-002-002-----0
  6
CONTINUOUS
  5
52E
 10
607.449309
 20
276.708963
 30
0.0
 11
607.449309
 21
257.800396
 31
0.0
  0
LINE
  8
LC-002-002-----0
  6
CONTINUOUS
  5
52F
 10
590.119955
 20
252.800489
 30
0.0
 11
605.549344
 21
252.800489
 31
0.0
  0
LINE
  8
LC-002-002-----0
  6
CONTINUOUS
  5
530
 10
595.719479
 20
274.20901
 30
0.0
 11
592.433351
 21
274.20901
 31
0.0
  0
LINE
  8
LC-002-002-----0
  6
CONTINUOUS
  5
531
 10
597.219451
 20
272.909034
 30
0.0
 11
593.919955
 21
272.909034
 31
0.0
  0
LINE
  8
LC-002-002-----0
  6
CONTINUOUS
  5
532
 10
542.675353
 20
254.710453
 30
0.0
 11
544.119955
 21
254.710453
 31
0.0
  0
ARC
  8
LC-001-002-RND-0
  6
CONTINUOUS
  5
533
 10
554.119955
 20
240.810842
 30
0.0
 40
7.0
 50
180.0
 51
270.0
  0
ARC
  8
LC-002-002-----0
  6
CONTINUOUS
  5
534
 10
605.449326
 20
256.800415
 30
0.0
 40
0.999981
 50
90.0
 51
185.163607
  0
LINE
  8
LC-002-002-----0
  6
CONTINUOUS
  5
535
 10
605.549344
 20
236.810786
 30
0.0
 11
605.549344
 21
252.800489
 31
0.0
  0
LINE
  8
LC-002-002-----0
  6
CONTINUOUS
  5
536
 10
605.449326
 20
257.800396
 30
0.0
 11
607.449309
 21
257.800396
 31
0.0
  0
LINE
  8
LC-002-002-----0
  6
CONTINUOUS
  5
537
 10
550.119955
 20
256.408963
 30
0.0
 11
550.119955
 21
241.810786
 31
0.0
  0
LINE
  8
LC-002-002-----0
  6
CONTINUOUS
  5
538
 10
547.719955
 20
256.408963
 30
0.0
 11
592.519955
 21
256.408963
 31
0.0
  0
LINE
  8
LC-002-002-----0
  6
CONTINUOUS
  5
539
 10
592.519955
 20
258.181168
 30
0.0
 11
592.519955
 21
256.408963
 31
0.0
  0
LINE
  8
LC-002-002-----0
  6
CONTINUOUS
  5
53A
 10
592.519955
 20
258.181168
 30
0.0
 11
597.219451
 21
258.181168
 31
0.0
  0
LINE
  8
LC-002-002-----0
  6
CONTINUOUS
  5
53B
 10
590.119955
 20
256.408963
 30
0.0
 11
590.119955
 21
252.800489
 31
0.0
  0
LINE
  8
LC-002-002-----0
  6
CONTINUOUS
  5
53C
 10
548.008349
 20
258.181168
 30
0.0
 11
543.020459
 21
258.181168
 31
0.0
  0
ARC
  8
LC-001-002-RND-0
  6
CONTINUOUS
  5
53D
 10
544.119955
 20
251.710453
 30
0.0
 40
3.0
 50
360.0
 51
90.0
  0
LINE
  8
LC-002-002-----0
  6
CONTINUOUS
  5
53E
 10
547.719955
 20
258.181168
 30
0.0
 11
547.719955
 21
256.408963
 31
0.0
  0
LINE
  8
LC-002-002-----0
  6
CONTINUOUS
  5
53F
 10
542.020478
 20
276.708963
 30
0.0
 11
547.679489
 21
276.708963
 31
0.0
  0
LINE
  8
LC-002-002-----0
  6
CONTINUOUS
  5
540
 10
544.520431
 20
274.20901
 30
0.0
 11
547.806559
 21
274.20901
 31
0.0
  0
LINE
  8
LC-002-002-----0
  6
CONTINUOUS
  5
541
 10
543.020459
 20
272.909034
 30
0.0
 11
546.319955
 21
272.909034
 31
0.0
  0
LINE
  8
LC-002-002-----0
  6
CONTINUOUS
  5
542
 10
544.520431
 20
273.039765
 30
0.0
 11
546.932412
 21
273.039765
 31
0.0
  0
LINE
  8
LC-002-002-----0
  6
CONTINUOUS
  5
543
 10
484.529046
 20
277.408569
 30
0.0
 11
489.074501
 21
274.78425
 31
0.0
  0
LINE
  8
LC-002-002-----0
  6
CONTINUOUS
  5
544
 10
484.529046
 20
277.408569
 30
0.0
 11
491.347228
 21
280.890184
 31
0.0
  0
LINE
  8
LC-002-002-----0
  6
CONTINUOUS
  5
545
 10
489.074501
 20
274.78425
 30
0.0
 11
493.619955
 21
274.78425
 31
0.0
  0
LINE
  8
LC-002-002-----0
  6
CONTINUOUS
  5
546
 10
489.081133
 20
277.987432
 30
0.0
 11
493.619955
 21
277.966068
 31
0.0
  0
LINE
  8
LC-002-002-----0
  6
CONTINUOUS
  5
547
 10
491.347228
 20
280.890184
 30
0.0
 11
489.081133
 21
277.987432
 31
0.0
  0
LINE
  8
LC-002-002-----0
  6
CONTINUOUS
  5
548
 10
493.619955
 20
329.897885
 30
0.0
 11
493.619955
 21
335.011521
 31
0.0
  0
LINE
  8
LC-002-002-----0
  6
CONTINUOUS
  5
549
 10
484.529046
 20
332.387201
 30
0.0
 11
489.074501
 21
335.011521
 31
0.0
  0
LINE
  8
LC-002-002-----0
  6
CONTINUOUS
  5
54A
 10
484.529046
 20
332.387201
 30
0.0
 11
491.347228
 21
328.905586
 31
0.0
  0
LINE
  8
LC-002-002-----0
  6
CONTINUOUS
  5
54B
 10
489.074501
 20
335.011521
 30
0.0
 11
493.619955
 21
335.011521
 31
0.0
  0
LINE
  8
LC-002-002-----0
  6
CONTINUOUS
  5
54C
 10
489.081133
 20
331.808339
 30
0.0
 11
493.619955
 21
331.829703
 31
0.0
  0
LINE
  8
LC-002-002-----0
  6
CONTINUOUS
  5
54D
 10
491.347228
 20
328.905586
 30
0.0
 11
489.081133
 21
331.808339
 31
0.0
  0
LINE
  8
LC-002-002-----0
  6
CONTINUOUS
  5
54E
 10
607.449309
 20
233.310788
 30
0.0
 11
607.449309
 21
231.810879
 31
0.0
  0
LINE
  8
LC-002-002-----0
  6
CONTINUOUS
  5
54F
 10
607.449309
 20
253.810788
 30
0.0
 11
607.449309
 21
253.80047
 31
0.0
  0
LINE
  8
LC-002-002-----0
  6
CONTINUOUS
  5
550
 10
767.119816
 20
304.833391
 30
0.0
 11
767.119816
 21
242.262787
 31
0.0
  0
LINE
  8
LC-002-002-----0
  6
CONTINUOUS
  5
551
 10
730.867818
 20
307.781951
 30
0.0
 11
764.31164
 21
307.781951
 31
0.0
  0
LINE
  8
LC-002-002-----0
  6
DASHDOT
 62
     2
  5
553
 10
475.619955
 20
304.897885
 30
0.0
 11
542.619955
 21
304.897885
 31
0.0
  0
LINE
  8
LC-002-002-----0
  6
DASHDOT
 62
     2
  5
554
 10
570.119955
 20
277.397885
 30
0.0
 11
570.119955
 21
257.408966
 31
0.0
  0
ARC
  8
LC-001-002-RND-0
  6
DASHDOT
 62
     2
  5
555
 10
542.619955
 20
277.397885
 30
0.0
 40
27.5
 50
0.0
 51
90.0
  0
LINE
  8
LC-002-002-----0
  6
CONTINUOUS
  5
556
 10
778.867613
 20
337.309155
 30
0.0
 11
760.117613
 21
335.998028
 31
0.0
  0
LINE
  8
LC-002-002-----0
  6
CONTINUOUS
  5
557
 10
598.117827
 20
334.610737
 30
0.0
 11
608.117613
 21
333.911484
 31
0.0
  0
LINE
  8
LC-002-002-----0
  6
CONTINUOUS
  5
558
 10
778.867613
 20
337.309155
 30
0.0
 11
687.117613
 21
337.309155
 31
0.0
  0
LINE
  8
LC-002-002-----0
  6
CONTINUOUS
  5
559
 10
756.364273
 20
317.309557
 30
0.0
 11
756.364273
 21
320.309557
 31
0.0
  0
LINE
  8
LC-002-002-----0
  6
CONTINUOUS
  5
55A
 10
750.704892
 20
317.309557
 30
0.0
 11
750.704892
 21
320.309557
 31
0.0
  0
LINE
  8
LC-002-002-----0
  6
CONTINUOUS
  5
55B
 10
743.885467
 20
317.309557
 30
0.0
 11
743.885467
 21
320.309557
 31
0.0
  0
LINE
  8
LC-002-002-----0
  6
CONTINUOUS
  5
55C
 10
749.935543
 20
335.998028
 30
0.0
 11
749.185543
 21
335.248028
 31
0.0
  0
LINE
  8
LC-002-002-----0
  6
CONTINUOUS
  5
55D
 10
749.185543
 20
335.248028
 30
0.0
 11
749.185543
 21
320.309557
 31
0.0
  0
LINE
  8
LC-002-002-----0
  6
CONTINUOUS
  5
55E
 10
595.367613
 20
337.309155
 30
0.0
 11
687.117613
 21
337.309155
 31
0.0
  0
LINE
  8
LC-002-002-----0
  6
CONTINUOUS
  5
55F
 10
749.185543
 20
335.248028
 30
0.0
 11
754.729851
 21
335.248028
 31
0.0
  0
LINE
  8
LC-002-002-----0
  6
CONTINUOUS
  5
560
 10
754.729851
 20
335.248028
 30
0.0
 11
754.729851
 21
320.309557
 31
0.0
  0
LINE
  8
LC-002-002-----0
  6
CONTINUOUS
  5
561
 10
760.117613
 20
335.998028
 30
0.0
 11
759.367613
 21
335.248028
 31
0.0
  0
LINE
  8
LC-002-002-----0
  6
CONTINUOUS
  5
562
 10
754.383973
 20
335.998028
 30
0.0
 11
754.729851
 21
335.248028
 31
0.0
  0
LINE
  8
LC-002-002-----0
  6
CONTINUOUS
  5
563
 10
731.427318
 20
317.309557
 30
0.0
 11
731.427318
 21
320.309557
 31
0.0
  0
LINE
  8
LC-002-002-----0
  6
CONTINUOUS
  5
564
 10
756.617613
 20
317.309557
 30
0.0
 11
756.617613
 21
320.309557
 31
0.0
  0
LINE
  8
LC-002-002-----0
  6
CONTINUOUS
  5
565
 10
759.367613
 20
320.309557
 30
0.0
 11
759.367613
 21
335.248028
 31
0.0
  0
LINE
  8
LC-002-002-----0
  6
CONTINUOUS
  5
566
 10
722.117613
 20
335.998028
 30
0.0
 11
721.367613
 21
335.248028
 31
0.0
  0
LINE
  8
LC-002-002-----0
  6
CONTINUOUS
  5
567
 10
721.367613
 20
335.248028
 30
0.0
 11
721.367613
 21
324.798683
 31
0.0
  0
LINE
  8
LC-002-002-----0
  6
CONTINUOUS
  5
568
 10
617.870953
 20
317.309557
 30
0.0
 11
617.870953
 21
320.309557
 31
0.0
  0
LINE
  8
LC-002-002-----0
  6
CONTINUOUS
  5
569
 10
623.530333
 20
317.309557
 30
0.0
 11
623.530333
 21
320.309557
 31
0.0
  0
LINE
  8
LC-002-002-----0
  6
CONTINUOUS
  5
56A
 10
727.685578
 20
335.998028
 30
0.0
 11
728.317961
 21
335.248028
 31
0.0
  0
LINE
  8
LC-002-002-----0
  6
CONTINUOUS
  5
56B
 10
728.317961
 20
335.248028
 30
0.0
 11
728.317961
 21
320.309557
 31
0.0
  0
LINE
  8
LC-002-002-----0
  6
CONTINUOUS
  5
56C
 10
728.317961
 20
335.248028
 30
0.0
 11
721.367613
 21
335.248028
 31
0.0
  0
LINE
  8
LC-002-002-----0
  6
CONTINUOUS
  5
56D
 10
630.349758
 20
317.309557
 30
0.0
 11
630.349758
 21
320.309557
 31
0.0
  0
LINE
  8
LC-002-002-----0
  6
CONTINUOUS
  5
56E
 10
624.299682
 20
335.998028
 30
0.0
 11
625.049682
 21
335.248028
 31
0.0
  0
LINE
  8
LC-002-002-----0
  6
CONTINUOUS
  5
56F
 10
625.049682
 20
335.248028
 30
0.0
 11
625.049682
 21
320.309557
 31
0.0
  0
LINE
  8
LC-002-002-----0
  6
CONTINUOUS
  5
570
 10
625.049682
 20
335.248028
 30
0.0
 11
619.505374
 21
335.248028
 31
0.0
  0
LINE
  8
LC-002-002-----0
  6
CONTINUOUS
  5
571
 10
619.505374
 20
335.248028
 30
0.0
 11
619.505374
 21
320.309557
 31
0.0
  0
LINE
  8
LC-002-002-----0
  6
CONTINUOUS
  5
572
 10
614.117613
 20
335.998028
 30
0.0
 11
614.867613
 21
335.248028
 31
0.0
  0
LINE
  8
LC-002-002-----0
  6
CONTINUOUS
  5
573
 10
619.851252
 20
335.998028
 30
0.0
 11
619.505374
 21
335.248028
 31
0.0
  0
LINE
  8
LC-002-002-----0
  6
CONTINUOUS
  5
574
 10
642.807908
 20
317.309557
 30
0.0
 11
642.807908
 21
320.309557
 31
0.0
  0
LINE
  8
LC-002-002-----0
  6
CONTINUOUS
  5
575
 10
617.617613
 20
317.309557
 30
0.0
 11
617.617613
 21
320.309557
 31
0.0
  0
LINE
  8
LC-002-002-----0
  6
CONTINUOUS
  5
576
 10
614.867613
 20
320.309557
 30
0.0
 11
614.867613
 21
335.248028
 31
0.0
  0
LINE
  8
LC-002-002-----0
  6
CONTINUOUS
  5
577
 10
652.117613
 20
335.998028
 30
0.0
 11
652.867613
 21
335.248028
 31
0.0
  0
LINE
  8
LC-002-002-----0
  6
CONTINUOUS
  5
578
 10
652.867613
 20
335.248028
 30
0.0
 11
652.867613
 21
324.798513
 31
0.0
  0
LINE
  8
LC-002-002-----0
  6
CONTINUOUS
  5
579
 10
646.549648
 20
335.998028
 30
0.0
 11
645.917264
 21
335.248028
 31
0.0
  0
LINE
  8
LC-002-002-----0
  6
CONTINUOUS
  5
57A
 10
645.917264
 20
335.248028
 30
0.0
 11
645.917264
 21
320.309557
 31
0.0
  0
LINE
  8
LC-002-002-----0
  6
CONTINUOUS
  5
57B
 10
645.917264
 20
335.248028
 30
0.0
 11
652.867613
 21
335.248028
 31
0.0
  0
ARC
  8
LC-001-002-RND-0
  6
CONTINUOUS
  5
57C
 10
765.117613
 20
318.309557
 30
0.0
 40
1.0
 50
270.0
 51
0.0
  0
LINE
  8
LC-002-002-----0
  6
CONTINUOUS
  5
57D
 10
595.367613
 20
337.309155
 30
0.0
 11
596.367613
 21
330.309557
 31
0.0
  0
LINE
  8
LC-002-002-----0
  6
CONTINUOUS
  5
57E
 10
597.540477
 20
330.309557
 30
0.0
 11
596.367613
 21
330.309557
 31
0.0
  0
LINE
  8
LC-002-002-----0
  6
CONTINUOUS
  5
57F
 10
598.117827
 20
331.309557
 30
0.0
 11
597.540477
 21
330.309557
 31
0.0
  0
LINE
  8
LC-002-002-----0
  6
CONTINUOUS
  5
580
 10
598.117827
 20
331.309557
 30
0.0
 11
598.117827
 21
334.610737
 31
0.0
  0
ARC
  8
LC-001-002-RND-0
  6
CONTINUOUS
  5
581
 10
609.117613
 20
318.309557
 30
0.0
 40
1.0
 50
180.0
 51
270.0
  0
LINE
  8
LC-002-002-----0
  6
CONTINUOUS
  5
582
 10
609.117613
 20
317.309557
 30
0.0
 11
644.125325
 21
317.309557
 31
0.0
  0
LINE
  8
LC-002-002-----0
  6
CONTINUOUS
  5
583
 10
776.117398
 20
331.309557
 30
0.0
 11
776.694748
 21
330.309557
 31
0.0
  0
LINE
  8
LC-002-002-----0
  6
CONTINUOUS
  5
584
 10
608.117613
 20
318.309557
 30
0.0
 11
608.117613
 21
333.911484
 31
0.0
  0
LINE
  8
LC-002-002-----0
  6
CONTINUOUS
  5
585
 10
776.117398
 20
331.309557
 30
0.0
 11
776.117398
 21
334.610737
 31
0.0
  0
LINE
  8
LC-002-002-----0
  6
CONTINUOUS
  5
586
 10
765.117613
 20
317.309557
 30
0.0
 11
756.617613
 21
317.309557
 31
0.0
  0
LINE
  8
LC-002-002-----0
  6
CONTINUOUS
  5
587
 10
766.117613
 20
318.309557
 30
0.0
 11
766.117613
 21
333.911484
 31
0.0
  0
LINE
  8
LC-002-002-----0
  6
CONTINUOUS
  5
588
 10
776.291748
 20
330.309557
 30
0.0
 11
777.867613
 21
330.309557
 31
0.0
  0
LINE
  8
LC-002-002-----0
  6
CONTINUOUS
  5
589
 10
756.617613
 20
317.309557
 30
0.0
 11
729.987715
 21
317.309557
 31
0.0
  0
LINE
  8
LC-002-002-----0
  6
CONTINUOUS
  5
58A
 10
756.617613
 20
320.309557
 30
0.0
 11
759.367613
 21
320.309557
 31
0.0
  0
LINE
  8
LC-002-002-----0
  6
CONTINUOUS
  5
58B
 10
743.885467
 20
320.309557
 30
0.0
 11
756.617613
 21
320.309557
 31
0.0
  0
LINE
  8
LC-002-002-----0
  6
CONTINUOUS
  5
58C
 10
728.317961
 20
320.309557
 30
0.0
 11
731.427318
 21
320.309557
 31
0.0
  0
LINE
  8
LC-002-002-----0
  6
CONTINUOUS
  5
58D
 10
646.008969
 20
320.309557
 30
0.0
 11
642.807908
 21
320.309557
 31
0.0
  0
LINE
  8
LC-002-002-----0
  6
CONTINUOUS
  5
58E
 10
776.117398
 20
334.610737
 30
0.0
 11
766.117613
 21
333.911484
 31
0.0
  0
LINE
  8
LC-002-002-----0
  6
CONTINUOUS
  5
58F
 10
630.349758
 20
320.309557
 30
0.0
 11
614.867613
 21
320.309557
 31
0.0
  0
LINE
  8
LC-002-002-----0
  6
CONTINUOUS
  5
590
 10
760.117613
 20
335.998028
 30
0.0
 11
614.117613
 21
335.998028
 31
0.0
  0
LINE
  8
LC-002-002-----0
  6
CONTINUOUS
  5
591
 10
778.867613
 20
337.309155
 30
0.0
 11
777.867613
 21
330.309557
 31
0.0
  0
LINE
  8
LC-002-002-----0
  6
CONTINUOUS
  5
592
 10
595.367613
 20
337.309155
 30
0.0
 11
614.117613
 21
335.998028
 31
0.0
  0
LINE
  8
LC-002-002-----0
  6
DASHDOT
 62
     2
  5
593
 10
687.117613
 20
342.946493
 30
0.0
 11
687.117613
 21
171.310844
 31
0.0
  0
LINE
  8
LC-002-002-----0
  6
CONTINUOUS
  5
594
 10
607.449309
 20
276.708963
 30
0.0
 11
607.184598
 21
276.708963
 31
0.0
  0
LINE
  8
LC-002-002-----0
  6
CONTINUOUS
 62
     2
  5
595
 10
767.119816
 20
242.262787
 30
0.0
 11
767.119816
 21
196.08
 31
0.0
  0
LINE
  8
LC-002-002-----0
  6
CONTINUOUS
  5
596
 10
677.367837
 20
324.798513
 30
0.0
 11
688.229651
 21
324.798513
 31
0.0
  0
LINE
  8
LC-002-002-----0
  6
CONTINUOUS
  5
597
 10
696.867834
 20
324.798699
 30
0.0
 11
687.117836
 21
324.798705
 31
0.0
  0
LINE
  8
LC-002-002-----0
  6
CONTINUOUS
  5
598
 10
688.552347
 20
293.798513
 30
0.0
 11
688.560197
 21
322.798684
 31
0.0
  0
LINE
  8
LC-002-002-----0
  6
CONTINUOUS
  5
599
 10
703.828075
 20
301.798513
 30
0.0
 11
703.828075
 21
322.298684
 31
0.0
  0
LINE
  8
LC-002-002-----0
  6
CONTINUOUS
  5
59A
 10
701.609162
 20
293.798513
 30
0.0
 11
702.078073
 21
297.298513
 31
0.0
  0
LINE
  8
LC-002-002-----0
  6
CONTINUOUS
  5
59B
 10
702.078073
 20
297.298513
 30
0.0
 11
702.078073
 21
300.384301
 31
0.0
  0
LINE
  8
LC-002-002-----0
  6
CONTINUOUS
  5
59C
 10
702.078073
 20
301.798513
 30
0.0
 11
703.828075
 21
301.798513
 31
0.0
  0
ARC
  8
LC-002-002-----0
  6
CONTINUOUS
  5
59D
 10
702.376766
 20
301.091407
 30
0.0
 40
0.767605
 50
112.900021
 51
247.099979
  0
ENDSEC
  0
EOF
