  0
SECTION
  2
HEADER
  9
$ACADVER
  1
AC1009
  9
$INSBASE
 10
0.0
 20
0.0
 30
0.0
  9
$EXTMIN
 10
0.0
 20
0.0
 30
0.0
  9
$EXTMAX
 10
840.0
 20
594.0
 30
0.0
  9
$LIMMIN
 10
0.0
 20
0.0
  9
$LIMMAX
 10
840.0
 20
594.0
  9
$ORTHOMODE
 70
     0
  9
$REGENMODE
 70
     1
  9
$FILLMODE
 70
     1
  9
$QTEXTMODE
 70
     0
  9
$MIRRTEXT
 70
     1
  9
$DRAGMODE
 70
     2
  9
$LTSCALE
 40
2.0
  9
$OSMODE
 70
     0
  9
$ATTMODE
 70
     1
  9
$TEXTSIZE
 40
0.2
  9
$TRACEWID
 40
0.05
  9
$TEXTSTYLE
  7
STANDARD
  9
$CLAYER
  8
0
  9
$CELTYPE
  6
BYLAYER
  9
$CECOLOR
 62
     7
  9
$DIMSCALE
 40
2.0
  9
$DIMASZ
 40
3.5
  9
$DIMEXO
 40
0.0625
  9
$DIMDLI
 40
0.38
  9
$DIMRND
 40
0.0
  9
$DIMDLE
 40
0.0
  9
$DIMEXE
 40
0.18
  9
$DIMTP
 40
0.0
  9
$DIMTM
 40
0.0
  9
$DIMTXT
 40
3.5
  9
$DIMCEN
 40
0.09
  9
$DIMTSZ
 40
0.0
  9
$DIMTOL
 70
     0
  9
$DIMLIM
 70
     0
  9
$DIMTIH
 70
     1
  9
$DIMTOH
 70
     1
  9
$DIMSE1
 70
     0
  9
$DIMSE2
 70
     0
  9
$DIMTAD
 70
     1
  9
$DIMZIN
 70
     0
  9
$DIMBLK
  1

  9
$DIMASO
 70
     1
  9
$DIMSHO
 70
     1
  9
$DIMPOST
  1

  9
$DIMAPOST
  1

  9
$DIMALT
 70
     0
  9
$DIMALTD
 70
     2
  9
$DIMALTF
 40
25.4
  9
$DIMLFAC
 40
1.0
  9
$DIMTOFL
 70
     0
  9
$DIMTVP
 40
0.0
  9
$DIMTIX
 70
     0
  9
$DIMSOXD
 70
     0
  9
$DIMSAH
 70
     0
  9
$DIMBLK1
  1

  9
$DIMBLK2
  1

  9
$DIMSTYLE
  2
STANDARD
  9
$DIMCLRD
 70
     0
  9
$DIMCLRE
 70
     0
  9
$DIMCLRT
 70
     0
  9
$DIMTFAC
 40
1.0
  9
$DIMGAP
 40
0.09
  9
$LUNITS
 70
     2
  9
$LUPREC
 70
     2
  9
$AXISMODE
 70
     0
  9
$AXISUNIT
 10
0.0
 20
0.0
  9
$SKETCHINC
 40
0.1
  9
$FILLETRAD
 40
0.0
  9
$AUNITS
 70
     0
  9
$AUPREC
 70
     0
  9
$MENU
  1
acad
  9
$ELEVATION
 40
0.0
  9
$PELEVATION
 40
0.0
  9
$THICKNESS
 40
0.0
  9
$LIMCHECK
 70
     0
  9
$BLIPMODE
 70
     1
  9
$CHAMFERA
 40
0.0
  9
$CHAMFERB
 40
0.0
  9
$SKPOLY
 70
     0
  9
$TDCREATE
 40
0.000000000
  9
$TDUPDATE
 40
0.000000000
  9
$TDINDWG
 40
0.0000000000
  9
$TDUSRTIMER
 40
0.0000000000
  9
$USRTIMER
 70
     1
  9
$ANGBASE
 50
0.0
  9
$ANGDIR
 70
     0
  9
$PDMODE
 70
     0
  9
$PDSIZE
 40
0.0
  9
$PLINEWID
 40
0.0
  9
$COORDS
 70
     0
  9
$SPLFRAME
 70
     0
  9
$SPLINETYPE
 70
     6
  9
$SPLINESEGS
 70
     8
  9
$ATTDIA
 70
     0
  9
$ATTREQ
 70
     1
  9
$HANDLING
 70
     1
  9
$HANDSEED
  5
4D7
  9
$SURFTAB1
 70
     6
  9
$SURFTAB2
 70
     6
  9
$SURFTYPE
 70
     6
  9
$SURFU
 70
     6
  9
$SURFV
 70
     6
  9
$UCSNAME
  2

  9
$UCSORG
 10
0.0
 20
0.0
 30
0.0
  9
$UCSXDIR
 10
1.0
 20
0.0
 30
0.0
  9
$UCSYDIR
 10
0.0
 20
1.0
 30
0.0
  9
$PUCSNAME
  2

  9
$PUCSORG
 10
0.0
 20
0.0
 30
0.0
  9
$PUCSXDIR
 10
1.0
 20
0.0
 30
0.0
  9
$PUCSYDIR
 10
0.0
 20
1.0
 30
0.0
  9
$USERI1
 70
     0
  9
$USERI2
 70
     0
  9
$USERI3
 70
     0
  9
$USERI4
 70
     0
  9
$USERI5
 70
     0
  9
$USERR1
 40
0.0
  9
$USERR2
 40
0.0
  9
$USERR3
 40
0.0
  9
$USERR4
 40
0.0
  9
$USERR5
 40
0.0
  9
$WORLDVIEW
 70
     1
  9
$SHADEDGE
 70
     3
  9
$SHADEDIF
 70
    70
  9
$TILEMODE
 70
     1
  9
$MAXACTVP
 70
    16
  9
$PINSBASE
 10
0.0
 20
0.0
 30
0.0
  9
$PLIMCHECK
 70
     0
  9
$PEXTMIN
 10
1.000000E+20
 20
1.000000E+20
 30
1.000000E+20
  9
$PEXTMAX
 10
-1.000000E+20
 20
-1.000000E+20
 30
-1.000000E+20
  9
$PLIMMIN
 10
0.0
 20
0.0
  9
$PLIMMAX
 10
840.0
 20
594.0
  9
$UNITMODE
 70
     0
  9
$VISRETAIN
 70
     0
  9
$PLINEGEN
 70
     1
  9
$PSLTSCALE
 70
     0
  9
$TREEDEPTH
 70
  3020
  9
$DWGCODEPAGE
  3
dos850
  0
ENDSEC
  0
SECTION
  2
TABLES
  0
TABLE
  2
VPORT
 70
     1
  0
VPORT
  2
*ACTIVE
 70
     0
 10
0.0
 20
0.0
 11
1.0
 21
1.0
 12
420.0
 22
297.0
 13
0.0
 23
0.0
 14
1.0
 24
1.0
 15
0.0
 25
0.0
 16
0.0
 26
0.0
 36
1.0
 17
0.0
 27
0.0
 37
0.0
 40
594.0
 41
1.604229
 42
50.0
 43
0.0
 44
0.0
 50
0.0
 51
0.0
 71
     0
 72
   100
 73
     1
 74
     1
 75
     0
 76
     0
 77
     0
 78
     0
  0
ENDTAB
  0
TABLE
  2
LTYPE
 70
     2
  0
LTYPE
  2
CONTINUOUS
 70
    64
  3
Solid line
 72
    65
 73
     0
 40
0.0
  0
LTYPE
  2
DASHDOT
 70
    64
  3
__ . __ . __ . __ . __
 72
    65
 73
     4
 40
7.5
 49
5.0
 49
-1.25
 49
0.0
 49
-1.25
  0
ENDTAB
  0
TABLE
  2
LAYER
 70
    14
  0
LAYER
  2
0
 70
     0
 62
     7
  6
CONTINUOUS
  0
LAYER
  2
LC-INFO-1-2-MM-A3-0
 70
     1
 62
    -1
  6
CONTINUOUS
  0
LAYER
  2
LC-006-005-----0
 70
     0
 62
     2
  6
CONTINUOUS
  0
LAYER
  2
LC-010-003-MTH-0
 70
     0
 62
     2
  6
CONTINUOUS
  0
LAYER
  2
LC-011-003-MTG-0
 70
     0
 62
     2
  6
CONTINUOUS
  0
LAYER
  2
LC-009-003-----0
 70
     0
 62
     2
  6
CONTINUOUS
  0
LAYER
  2
LC-007-000-----0
 70
     0
 62
     7
  6
CONTINUOUS
  0
LAYER
  2
LC-008-000-----0
 70
     0
 62
     7
  6
CONTINUOUS
  0
LAYER
  2
LC-001-103-D00-1
 70
     0
 62
     1
  6
CONTINUOUS
  0
LAYER
  2
LC-002-002-----0
 70
     0
 62
     1
  6
CONTINUOUS
  0
LAYER
  2
LC-003-002-RND-0
 70
     0
 62
     1
  6
CONTINUOUS
  0
LAYER
  2
LC-004-001-RND-0
 70
     0
 62
     1
  6
CONTINUOUS
  0
LAYER
  2
LC-005-001-----0
 70
     0
 62
     1
  6
CONTINUOUS
  0
LAYER
  2
LC-000
 70
     0
 62
     7
  6
CONTINUOUS
  0
ENDTAB
  0
TABLE
  2
STYLE
 70
     4
  0
STYLE
  2
STANDARD
 70
     0
 40
0.0
 41
1.0
 50
0.0
 71
     0
 42
0.0
  3
txt
  4

  0
STYLE
  2
LC-STANDARD
 70
    64
 40
0.0
 41
1.0
 50
0.0
 71
     0
 42
3.5
  3
MONOTXT
  4

  0
STYLE
  2
LC-TXTSTYLE-150-400-0-0-A2
 70
    64
 40
0.0
 41
1.0
 50
15.0
 71
     0
 42
3.5
  3
MONOTXT
  4

  0
STYLE
  2
LC-TXTSTYLE-150-400-0-0-D3
 70
    64
 40
0.0
 41
1.0
 50
15.0
 71
     0
 42
3.5
  3
LC-STANDARD
  4

  0
ENDTAB
  0
TABLE
  2
VIEW
 70
     0
  0
ENDTAB
  0
TABLE
  2
UCS
 70
     0
  0
ENDTAB
  0
TABLE
  2
APPID
 70
     1
  0
APPID
  2
ACAD
 70
     0
  0
ENDTAB
  0
TABLE
  2
DIMSTYLE
 70
     3
  0
DIMSTYLE
  2
STANDARD
 70
     0
  3

  4

  5

  6

  7

 40
1.0
 41
0.18
 42
0.0625
 43
0.38
 44
0.18
 45
0.0
 46
0.0
 47
0.0
 48
0.0
 71
     0
 72
     0
 73
     1
 74
     1
 75
     0
 76
     0
 77
     0
 78
     0
140
0.18
141
0.09
142
0.0
143
25.4
144
1.0
145
0.0
146
1.0
147
0.09
170
     0
171
     2
172
     0
173
     0
174
     0
175
     0
176
     0
177
     0
178
     0
  0
DIMSTYLE
  2
LC-STANDARD
 70
     0
  3

  4

  5

  6

  7

 40
1.0
 41
3.5
 42
0.0
 43
7.5
 44
1.8
 45
0.0
 46
0.0
 47
0.0
 48
0.0
 71
     0
 72
     0
 73
     0
 74
     0
 75
     0
 76
     0
 77
     1
 78
     8
140
3.5
141
0.0
142
0.0
143
25.4
144
1.0
145
0.0
146
0.71
147
1.5
170
     0
171
     2
172
     1
173
     0
174
     0
175
     0
176
     0
177
     0
178
     3
  0
DIMSTYLE
  2
LC-DIM-L-0140-02-02
 70
     0
  3

  4

  5

  6

  7

 40
2.0
 41
3.5
 42
0.0
 43
7.5
 44
1.8
 45
0.0
 46
0.0
 47
0.0
 48
0.0
 71
     0
 72
     0
 73
     0
 74
     0
 75
     0
 76
     0
 77
     1
 78
     8
140
14.0
141
0.0
142
0.0
143
25.4
144
1.0
145
0.0
146
0.71
147
1.5
170
     0
171
     2
172
     0
173
     0
174
     0
175
     0
176
     2
177
     2
178
     8
  0
ENDTAB
  0
ENDSEC
  0
SECTION
  2
BLOCKS
  0
BLOCK
  8
0
  5
23
  2
*X0
 70
    65
 10
350.221328
 20
171.694578
 30
0.0
  3
*X0
  0
LINE
  8
LC-006-005-----0
  6
CONTINUOUS
  5
25
 10
364.632531
 20
172.299486
 30
0.0
 11
367.716457
 21
175.383412
 31
0.0
  0
LINE
  8
LC-006-005-----0
  6
CONTINUOUS
  5
26
 10
364.632653
 20
175.128036
 30
0.0
 11
367.716579
 21
178.211962
 31
0.0
  0
LINE
  8
LC-006-005-----0
  6
CONTINUOUS
  5
27
 10
364.632775
 20
177.956585
 30
0.0
 11
367.716701
 21
181.040511
 31
0.0
  0
LINE
  8
LC-006-005-----0
  6
CONTINUOUS
  5
28
 10
364.632898
 20
180.785135
 30
0.0
 11
367.716824
 21
183.869061
 31
0.0
  0
LINE
  8
LC-006-005-----0
  6
CONTINUOUS
  5
29
 10
364.63302
 20
183.613684
 30
0.0
 11
367.716946
 21
186.69761
 31
0.0
  0
LINE
  8
LC-006-005-----0
  6
CONTINUOUS
  5
2A
 10
364.633143
 20
186.442234
 30
0.0
 11
367.717068
 21
189.52616
 31
0.0
  0
LINE
  8
LC-006-005-----0
  6
CONTINUOUS
  5
2B
 10
352.973091
 20
177.610609
 30
0.0
 11
354.761998
 21
179.399516
 31
0.0
  0
LINE
  8
LC-006-005-----0
  6
CONTINUOUS
  5
2C
 10
364.633265
 20
189.270783
 30
0.0
 11
367.717191
 21
192.354709
 31
0.0
  0
LINE
  8
LC-006-005-----0
  6
CONTINUOUS
  5
2D
 10
352.125364
 20
179.59131
 30
0.0
 11
355.216872
 21
182.682817
 31
0.0
  0
LINE
  8
LC-006-005-----0
  6
CONTINUOUS
  5
2E
 10
364.633387
 20
192.099333
 30
0.0
 11
367.717313
 21
195.183259
 31
0.0
  0
LINE
  8
LC-006-005-----0
  6
CONTINUOUS
  5
2F
 10
352.125492
 20
182.419864
 30
0.0
 11
355.216995
 21
185.511367
 31
0.0
  0
LINE
  8
LC-006-005-----0
  6
CONTINUOUS
  5
30
 10
364.63351
 20
194.927882
 30
0.0
 11
367.717436
 21
198.011808
 31
0.0
  0
LINE
  8
LC-006-005-----0
  6
CONTINUOUS
  5
31
 10
400.653246
 20
230.947619
 30
0.0
 11
409.898123
 21
240.192495
 31
0.0
  0
LINE
  8
LC-006-005-----0
  6
CONTINUOUS
  5
32
 10
352.12562
 20
185.248419
 30
0.0
 11
355.217118
 21
188.339918
 31
0.0
  0
LINE
  8
LC-006-005-----0
  6
CONTINUOUS
  5
33
 10
364.633632
 20
197.756432
 30
0.0
 11
367.717558
 21
200.840358
 31
0.0
  0
LINE
  8
LC-006-005-----0
  6
CONTINUOUS
  5
34
 10
397.570447
 20
230.693246
 30
0.0
 11
400.899889
 21
234.022689
 31
0.0
  0
LINE
  8
LC-006-005-----0
  6
CONTINUOUS
  5
35
 10
407.072044
 20
240.194844
 30
0.0
 11
410.152549
 21
243.275349
 31
0.0
  0
LINE
  8
LC-006-005-----0
  6
CONTINUOUS
  5
36
 10
352.125747
 20
188.076974
 30
0.0
 11
355.217241
 21
191.168468
 31
0.0
  0
LINE
  8
LC-006-005-----0
  6
CONTINUOUS
  5
37
 10
364.633754
 20
200.584981
 30
0.0
 11
367.71768
 21
203.668907
 31
0.0
  0
LINE
  8
LC-006-005-----0
  6
CONTINUOUS
  5
38
 10
394.742142
 20
230.693369
 30
0.0
 11
397.730046
 21
233.681273
 31
0.0
  0
LINE
  8
LC-006-005-----0
  6
CONTINUOUS
  5
39
 10
407.413522
 20
243.364749
 30
0.0
 11
410.152672
 21
246.103899
 31
0.0
  0
LINE
  8
LC-006-005-----0
  6
CONTINUOUS
  5
3A
 10
352.125875
 20
190.905529
 30
0.0
 11
355.217364
 21
193.997018
 31
0.0
  0
LINE
  8
LC-006-005-----0
  6
CONTINUOUS
  5
3B
 10
364.633877
 20
203.413531
 30
0.0
 11
367.717803
 21
206.497457
 31
0.0
  0
LINE
  8
LC-006-005-----0
  6
CONTINUOUS
  5
3C
 10
391.913837
 20
230.693491
 30
0.0
 11
394.901742
 21
233.681395
 31
0.0
  0
LINE
  8
LC-006-005-----0
  6
CONTINUOUS
  5
3D
 10
407.413645
 20
246.193299
 30
0.0
 11
410.152794
 21
248.932448
 31
0.0
  0
LINE
  8
LC-006-005-----0
  6
CONTINUOUS
  5
3E
 10
352.126002
 20
193.734083
 30
0.0
 11
355.217487
 21
196.825568
 31
0.0
  0
LINE
  8
LC-006-005-----0
  6
CONTINUOUS
  5
3F
 10
364.633999
 20
206.24208
 30
0.0
 11
367.717925
 21
209.326006
 31
0.0
  0
LINE
  8
LC-006-005-----0
  6
CONTINUOUS
  5
40
 10
389.085532
 20
230.693613
 30
0.0
 11
392.073437
 21
233.681518
 31
0.0
  0
LINE
  8
LC-006-005-----0
  6
CONTINUOUS
  5
41
 10
407.413767
 20
249.021848
 30
0.0
 11
410.152916
 21
251.760998
 31
0.0
  0
LINE
  8
LC-006-005-----0
  6
CONTINUOUS
  5
42
 10
352.12613
 20
196.562638
 30
0.0
 11
355.21761
 21
199.654118
 31
0.0
  0
LINE
  8
LC-006-005-----0
  6
CONTINUOUS
  5
43
 10
364.634122
 20
209.07063
 30
0.0
 11
367.718048
 21
212.154556
 31
0.0
  0
LINE
  8
LC-006-005-----0
  6
CONTINUOUS
  5
44
 10
386.257228
 20
230.693736
 30
0.0
 11
389.245132
 21
233.68164
 31
0.0
  0
LINE
  8
LC-006-005-----0
  6
CONTINUOUS
  5
45
 10
407.41389
 20
251.850398
 30
0.0
 11
410.153039
 21
254.589547
 31
0.0
  0
LINE
  8
LC-006-005-----0
  6
CONTINUOUS
  5
46
 10
352.126258
 20
199.391193
 30
0.0
 11
355.217733
 21
202.482669
 31
0.0
  0
LINE
  8
LC-006-005-----0
  6
CONTINUOUS
  5
47
 10
364.634244
 20
211.899179
 30
0.0
 11
367.71817
 21
214.983105
 31
0.0
  0
LINE
  8
LC-006-005-----0
  6
CONTINUOUS
  5
48
 10
383.428923
 20
230.693858
 30
0.0
 11
386.416827
 21
233.681763
 31
0.0
  0
LINE
  8
LC-006-005-----0
  6
CONTINUOUS
  5
49
 10
407.414012
 20
254.678947
 30
0.0
 11
410.153161
 21
257.418096
 31
0.0
  0
LINE
  8
LC-006-005-----0
  6
CONTINUOUS
  5
4A
 10
352.126385
 20
202.219748
 30
0.0
 11
355.217856
 21
205.311219
 31
0.0
  0
LINE
  8
LC-006-005-----0
  6
CONTINUOUS
  5
4B
 10
364.634366
 20
214.727729
 30
0.0
 11
367.718292
 21
217.811655
 31
0.0
  0
LINE
  8
LC-006-005-----0
  6
CONTINUOUS
  5
4C
 10
380.600618
 20
230.693981
 30
0.0
 11
383.588522
 21
233.681885
 31
0.0
  0
LINE
  8
LC-006-005-----0
  6
CONTINUOUS
  5
4D
 10
407.414134
 20
257.507497
 30
0.0
 11
410.153284
 21
260.246646
 31
0.0
  0
LINE
  8
LC-006-005-----0
  6
CONTINUOUS
  5
4E
 10
352.126513
 20
205.048303
 30
0.0
 11
355.217979
 21
208.139769
 31
0.0
  0
LINE
  8
LC-006-005-----0
  6
CONTINUOUS
  5
4F
 10
364.634489
 20
217.556278
 30
0.0
 11
367.718415
 21
220.640204
 31
0.0
  0
LINE
  8
LC-006-005-----0
  6
CONTINUOUS
  5
50
 10
377.772313
 20
230.694103
 30
0.0
 11
380.760218
 21
233.682007
 31
0.0
  0
LINE
  8
LC-006-005-----0
  6
CONTINUOUS
  5
51
 10
407.414257
 20
260.336046
 30
0.0
 11
410.153406
 21
263.075195
 31
0.0
  0
LINE
  8
LC-006-005-----0
  6
CONTINUOUS
  5
52
 10
352.126641
 20
207.876857
 30
0.0
 11
355.218103
 21
210.968319
 31
0.0
  0
LINE
  8
LC-006-005-----0
  6
CONTINUOUS
  5
53
 10
364.634611
 20
220.384828
 30
0.0
 11
367.718537
 21
223.468754
 31
0.0
  0
LINE
  8
LC-006-005-----0
  6
CONTINUOUS
  5
54
 10
374.944009
 20
230.694225
 30
0.0
 11
377.931913
 21
233.68213
 31
0.0
  0
LINE
  8
LC-006-005-----0
  6
CONTINUOUS
  5
55
 10
407.414379
 20
263.164596
 30
0.0
 11
410.153528
 21
265.903745
 31
0.0
  0
LINE
  8
LC-006-005-----0
  6
CONTINUOUS
  5
56
 10
352.126768
 20
210.705412
 30
0.0
 11
355.218226
 21
213.796869
 31
0.0
  0
LINE
  8
LC-006-005-----0
  6
CONTINUOUS
  5
57
 10
364.634734
 20
223.213377
 30
0.0
 11
367.718659
 21
226.297303
 31
0.0
  0
LINE
  8
LC-006-005-----0
  6
CONTINUOUS
  5
58
 10
372.115704
 20
230.694348
 30
0.0
 11
375.103608
 21
233.682252
 31
0.0
  0
LINE
  8
LC-006-005-----0
  6
CONTINUOUS
  5
59
 10
407.414501
 20
265.993145
 30
0.0
 11
410.153651
 21
268.732294
 31
0.0
  0
LINE
  8
LC-006-005-----0
  6
CONTINUOUS
  5
5A
 10
352.126896
 20
213.533967
 30
0.0
 11
355.218349
 21
216.62542
 31
0.0
  0
LINE
  8
LC-006-005-----0
  6
CONTINUOUS
  5
5B
 10
364.634856
 20
226.041927
 30
0.0
 11
367.718782
 21
229.125853
 31
0.0
  0
LINE
  8
LC-006-005-----0
  6
CONTINUOUS
  5
5C
 10
369.287399
 20
230.69447
 30
0.0
 11
372.275303
 21
233.682374
 31
0.0
  0
LINE
  8
LC-006-005-----0
  6
CONTINUOUS
  5
5D
 10
407.414624
 20
268.821695
 30
0.0
 11
410.153773
 21
271.560844
 31
0.0
  0
LINE
  8
LC-006-005-----0
  6
CONTINUOUS
  5
5E
 10
478.969404
 20
340.376475
 30
0.0
 11
480.334321
 21
341.741392
 31
0.0
  0
LINE
  8
LC-006-005-----0
  6
CONTINUOUS
  5
5F
 10
352.127024
 20
216.362522
 30
0.0
 11
355.218472
 21
219.45397
 31
0.0
  0
LINE
  8
LC-006-005-----0
  6
CONTINUOUS
  5
60
 10
364.634978
 20
228.870476
 30
0.0
 11
369.446999
 21
233.682497
 31
0.0
  0
LINE
  8
LC-006-005-----0
  6
CONTINUOUS
  5
61
 10
407.414746
 20
271.650244
 30
0.0
 11
410.153895
 21
274.389393
 31
0.0
  0
LINE
  8
LC-006-005-----0
  6
CONTINUOUS
  5
62
 10
475.928467
 20
340.163965
 30
0.0
 11
478.993148
 21
343.228646
 31
0.0
  0
LINE
  8
LC-006-005-----0
  6
CONTINUOUS
  5
63
 10
352.127151
 20
219.191076
 30
0.0
 11
355.218595
 21
222.28252
 31
0.0
  0
LINE
  8
LC-006-005-----0
  6
CONTINUOUS
  5
64
 10
363.683655
 20
230.74758
 30
0.0
 11
366.618694
 21
233.682619
 31
0.0
  0
LINE
  8
LC-006-005-----0
  6
CONTINUOUS
  5
65
 10
407.414868
 20
274.478794
 30
0.0
 11
410.154018
 21
277.217943
 31
0.0
  0
LINE
  8
LC-006-005-----0
  6
CONTINUOUS
  5
66
 10
472.887529
 20
339.951454
 30
0.0
 11
476.1079
 21
343.171825
 31
0.0
  0
LINE
  8
LC-006-005-----0
  6
CONTINUOUS
  5
67
 10
352.127279
 20
222.019631
 30
0.0
 11
355.218718
 21
225.11107
 31
0.0
  0
LINE
  8
LC-006-005-----0
  6
CONTINUOUS
  5
68
 10
361.317572
 20
231.209924
 30
0.0
 11
363.790389
 21
233.682741
 31
0.0
  0
LINE
  8
LC-006-005-----0
  6
CONTINUOUS
  5
69
 10
407.414991
 20
277.307343
 30
0.0
 11
410.15414
 21
280.046492
 31
0.0
  0
LINE
  8
LC-006-005-----0
  6
CONTINUOUS
  5
6A
 10
469.846591
 20
339.738943
 30
0.0
 11
473.066962
 21
342.959315
 31
0.0
  0
LINE
  8
LC-006-005-----0
  6
CONTINUOUS
  5
6B
 10
352.127407
 20
224.848186
 30
0.0
 11
355.218841
 21
227.93962
 31
0.0
  0
LINE
  8
LC-006-005-----0
  6
CONTINUOUS
  5
6C
 10
360.186265
 20
232.907044
 30
0.0
 11
361.664596
 21
234.385375
 31
0.0
  0
LINE
  8
LC-006-005-----0
  6
CONTINUOUS
  5
6D
 10
407.415113
 20
280.135893
 30
0.0
 11
410.154262
 21
282.875042
 31
0.0
  0
LINE
  8
LC-006-005-----0
  6
CONTINUOUS
  5
6E
 10
466.805653
 20
339.526433
 30
0.0
 11
470.026025
 21
342.746804
 31
0.0
  0
LINE
  8
LC-006-005-----0
  6
CONTINUOUS
  5
6F
 10
352.127534
 20
227.676741
 30
0.0
 11
355.218964
 21
230.768171
 31
0.0
  0
LINE
  8
LC-006-005-----0
  6
CONTINUOUS
  5
70
 10
355.729927
 20
231.279133
 30
0.0
 11
360.640449
 21
236.189655
 31
0.0
  0
LINE
  8
LC-006-005-----0
  6
CONTINUOUS
  5
71
 10
407.415235
 20
282.964442
 30
0.0
 11
410.154385
 21
285.703591
 31
0.0
  0
LINE
  8
LC-006-005-----0
  6
CONTINUOUS
  5
72
 10
463.764715
 20
339.313922
 30
0.0
 11
466.985087
 21
342.534293
 31
0.0
  0
LINE
  8
LC-006-005-----0
  6
CONTINUOUS
  5
73
 10
351.305634
 20
229.683268
 30
0.0
 11
355.401737
 21
233.779371
 31
0.0
  0
LINE
  8
LC-006-005-----0
  6
CONTINUOUS
  5
74
 10
357.540841
 20
235.918474
 30
0.0
 11
360.601559
 21
238.979192
 31
0.0
  0
LINE
  8
LC-006-005-----0
  6
CONTINUOUS
  5
75
 10
407.415358
 20
285.792991
 30
0.0
 11
410.154507
 21
288.532141
 31
0.0
  0
LINE
  8
LC-006-005-----0
  6
CONTINUOUS
  5
76
 10
460.723778
 20
339.101411
 30
0.0
 11
463.944149
 21
342.321783
 31
0.0
  0
LINE
  8
LC-006-005-----0
  6
CONTINUOUS
  5
77
 10
350.221403
 20
231.427464
 30
0.0
 11
351.538279
 21
232.744339
 31
0.0
  0
LINE
  8
LC-006-005-----0
  6
CONTINUOUS
  5
78
 10
357.660285
 20
238.866346
 30
0.0
 11
360.601683
 21
241.807744
 31
0.0
  0
LINE
  8
LC-006-005-----0
  6
CONTINUOUS
  5
79
 10
407.41548
 20
288.621541
 30
0.0
 11
410.154629
 21
291.36069
 31
0.0
  0
LINE
  8
LC-006-005-----0
  6
CONTINUOUS
  5
7A
 10
457.68284
 20
338.888901
 30
0.0
 11
460.903211
 21
342.109272
 31
0.0
  0
LINE
  8
LC-006-005-----0
  6
CONTINUOUS
  5
7B
 10
357.687263
 20
241.721751
 30
0.0
 11
360.601807
 21
244.636295
 31
0.0
  0
LINE
  8
LC-006-005-----0
  6
CONTINUOUS
  5
7C
 10
407.415603
 20
291.45009
 30
0.0
 11
410.154752
 21
294.18924
 31
0.0
  0
LINE
  8
LC-006-005-----0
  6
CONTINUOUS
  5
7D
 10
454.641902
 20
338.67639
 30
0.0
 11
457.862273
 21
341.896761
 31
0.0
  0
LINE
  8
LC-006-005-----0
  6
CONTINUOUS
  5
7E
 10
357.714241
 20
244.577156
 30
0.0
 11
360.601932
 21
247.464847
 31
0.0
  0
LINE
  8
LC-006-005-----0
  6
CONTINUOUS
  5
7F
 10
407.415725
 20
294.27864
 30
0.0
 11
410.154874
 21
297.017789
 31
0.0
  0
LINE
  8
LC-006-005-----0
  6
CONTINUOUS
  5
80
 10
451.600964
 20
338.463879
 30
0.0
 11
454.821335
 21
341.68425
 31
0.0
  0
LINE
  8
LC-006-005-----0
  6
CONTINUOUS
  5
81
 10
357.741219
 20
247.432561
 30
0.0
 11
360.602056
 21
250.293398
 31
0.0
  0
LINE
  8
LC-006-005-----0
  6
CONTINUOUS
  5
82
 10
407.415847
 20
297.107189
 30
0.0
 11
410.154997
 21
299.846339
 31
0.0
  0
LINE
  8
LC-006-005-----0
  6
CONTINUOUS
  5
83
 10
448.560026
 20
338.251369
 30
0.0
 11
451.780398
 21
341.47174
 31
0.0
  0
LINE
  8
LC-006-005-----0
  6
CONTINUOUS
  5
84
 10
357.768197
 20
250.287966
 30
0.0
 11
360.60218
 21
253.121949
 31
0.0
  0
LINE
  8
LC-006-005-----0
  6
CONTINUOUS
  5
85
 10
407.41597
 20
299.935739
 30
0.0
 11
410.155119
 21
302.674888
 31
0.0
  0
LINE
  8
LC-006-005-----0
  6
CONTINUOUS
  5
86
 10
444.602493
 20
337.122262
 30
0.0
 11
448.73946
 21
341.259229
 31
0.0
  0
LINE
  8
LC-006-005-----0
  6
CONTINUOUS
  5
87
 10
357.795174
 20
253.143371
 30
0.0
 11
360.602304
 21
255.950501
 31
0.0
  0
LINE
  8
LC-006-005-----0
  6
CONTINUOUS
  5
88
 10
407.416092
 20
302.764288
 30
0.0
 11
410.828064
 21
306.176261
 31
0.0
  0
LINE
  8
LC-006-005-----0
  6
CONTINUOUS
  5
89
 10
440.392632
 20
335.740828
 30
0.0
 11
445.512458
 21
340.860655
 31
0.0
  0
LINE
  8
LC-006-005-----0
  6
CONTINUOUS
  5
8A
 10
357.822152
 20
255.998776
 30
0.0
 11
360.602429
 21
258.779052
 31
0.0
  0
LINE
  8
LC-006-005-----0
  6
CONTINUOUS
  5
8B
 10
407.416214
 20
305.592838
 30
0.0
 11
417.436285
 21
315.612908
 31
0.0
  0
LINE
  8
LC-006-005-----0
  6
CONTINUOUS
  5
8C
 10
437.338463
 20
335.515086
 30
0.0
 11
440.800811
 21
338.977435
 31
0.0
  0
LINE
  8
LC-006-005-----0
  6
CONTINUOUS
  5
8D
 10
357.84913
 20
258.854181
 30
0.0
 11
360.602553
 21
261.607604
 31
0.0
  0
LINE
  8
LC-006-005-----0
  6
CONTINUOUS
  5
8E
 10
407.964167
 20
308.969217
 30
0.0
 11
419.368988
 21
320.374039
 31
0.0
  0
LINE
  8
LC-006-005-----0
  6
CONTINUOUS
  5
8F
 10
434.284293
 20
335.289344
 30
0.0
 11
437.525593
 21
338.530643
 31
0.0
  0
LINE
  8
LC-006-005-----0
  6
CONTINUOUS
  5
90
 10
357.876108
 20
261.709586
 30
0.0
 11
360.602677
 21
264.436155
 31
0.0
  0
LINE
  8
LC-006-005-----0
  6
CONTINUOUS
  5
91
 10
407.372364
 20
311.205842
 30
0.0
 11
413.54348
 21
317.376958
 31
0.0
  0
LINE
  8
LC-006-005-----0
  6
CONTINUOUS
  5
92
 10
416.629961
 20
320.463439
 30
0.0
 11
419.369111
 21
323.202588
 31
0.0
  0
LINE
  8
LC-006-005-----0
  6
CONTINUOUS
  5
93
 10
422.704687
 20
326.538164
 30
0.0
 11
424.427078
 21
328.260556
 31
0.0
  0
LINE
  8
LC-006-005-----0
  6
CONTINUOUS
  5
94
 10
431.230124
 20
335.063602
 30
0.0
 11
434.473631
 21
338.307109
 31
0.0
  0
LINE
  8
LC-006-005-----0
  6
CONTINUOUS
  5
95
 10
357.903086
 20
264.564991
 30
0.0
 11
360.602801
 21
267.264706
 31
0.0
  0
LINE
  8
LC-006-005-----0
  6
CONTINUOUS
  5
96
 10
407.926464
 20
314.588369
 30
0.0
 11
410.715175
 21
317.37708
 31
0.0
  0
LINE
  8
LC-006-005-----0
  6
CONTINUOUS
  5
97
 10
416.630084
 20
323.291988
 30
0.0
 11
424.737236
 21
331.399141
 31
0.0
  0
LINE
  8
LC-006-005-----0
  6
CONTINUOUS
  5
98
 10
428.175955
 20
334.83786
 30
0.0
 11
431.42167
 21
338.083575
 31
0.0
  0
LINE
  8
LC-006-005-----0
  6
CONTINUOUS
  5
99
 10
357.930064
 20
267.420396
 30
0.0
 11
360.602926
 21
270.093258
 31
0.0
  0
LINE
  8
LC-006-005-----0
  6
CONTINUOUS
  5
9A
 10
416.630206
 20
326.120538
 30
0.0
 11
419.340504
 21
328.830836
 31
0.0
  0
LINE
  8
LC-006-005-----0
  6
CONTINUOUS
  5
9B
 10
421.736032
 20
331.226364
 30
0.0
 11
428.369709
 21
337.860041
 31
0.0
  0
LINE
  8
LC-006-005-----0
  6
CONTINUOUS
  5
9C
 10
357.957042
 20
270.275801
 30
0.0
 11
360.60305
 21
272.921809
 31
0.0
  0
LINE
  8
LC-006-005-----0
  6
CONTINUOUS
  5
9D
 10
416.630328
 20
328.949087
 30
0.0
 11
418.621061
 21
330.93982
 31
0.0
  0
LINE
  8
LC-006-005-----0
  6
CONTINUOUS
  5
9E
 10
421.892599
 20
334.211358
 30
0.0
 11
425.317748
 21
337.636507
 31
0.0
  0
LINE
  8
LC-006-005-----0
  6
CONTINUOUS
  5
9F
 10
357.98402
 20
273.131206
 30
0.0
 11
360.603174
 21
275.750361
 31
0.0
  0
LINE
  8
LC-006-005-----0
  6
CONTINUOUS
  5
A0
 10
416.630451
 20
331.777637
 30
0.0
 11
418.621184
 21
333.76837
 31
0.0
  0
LINE
  8
LC-006-005-----0
  6
CONTINUOUS
  5
A1
 10
422.049165
 20
337.196351
 30
0.0
 11
422.265787
 21
337.412973
 31
0.0
  0
LINE
  8
LC-006-005-----0
  6
CONTINUOUS
  5
A2
 10
358.010998
 20
275.986611
 30
0.0
 11
360.603299
 21
278.578912
 31
0.0
  0
LINE
  8
LC-006-005-----0
  6
CONTINUOUS
  5
A3
 10
416.630573
 20
334.606186
 30
0.0
 11
416.831398
 21
334.807011
 31
0.0
  0
LINE
  8
LC-006-005-----0
  6
CONTINUOUS
  5
A4
 10
358.037975
 20
278.842016
 30
0.0
 11
360.603423
 21
281.407463
 31
0.0
  0
LINE
  8
LC-006-005-----0
  6
CONTINUOUS
  5
A5
 10
358.064953
 20
281.697421
 30
0.0
 11
360.603547
 21
284.236015
 31
0.0
  0
LINE
  8
LC-006-005-----0
  6
CONTINUOUS
  5
A6
 10
358.091931
 20
284.552826
 30
0.0
 11
360.603671
 21
287.064566
 31
0.0
  0
LINE
  8
LC-006-005-----0
  6
CONTINUOUS
  5
A7
 10
358.118909
 20
287.408231
 30
0.0
 11
360.603796
 21
289.893118
 31
0.0
  0
LINE
  8
LC-006-005-----0
  6
CONTINUOUS
  5
A8
 10
358.145887
 20
290.263636
 30
0.0
 11
360.60392
 21
292.721669
 31
0.0
  0
LINE
  8
LC-006-005-----0
  6
CONTINUOUS
  5
A9
 10
358.172865
 20
293.119041
 30
0.0
 11
360.604044
 21
295.55022
 31
0.0
  0
LINE
  8
LC-006-005-----0
  6
CONTINUOUS
  5
AA
 10
358.199843
 20
295.974446
 30
0.0
 11
360.604168
 21
298.378772
 31
0.0
  0
LINE
  8
LC-006-005-----0
  6
CONTINUOUS
  5
AB
 10
358.226821
 20
298.829851
 30
0.0
 11
360.604293
 21
301.207323
 31
0.0
  0
ENDBLK
  8
0
  5
AC
  0
BLOCK
  8
0
  5
AE
  2
*X1
 70
    65
 10
180.069581
 20
171.696159
 30
0.0
  3
*X1
  0
LINE
  8
LC-006-005-----0
  6
CONTINUOUS
  5
AF
 10
307.719241
 20
177.611593
 30
0.0
 11
308.315244
 21
178.207596
 31
0.0
  0
LINE
  8
LC-006-005-----0
  6
CONTINUOUS
  5
B0
 10
305.89018
 20
178.610959
 30
0.0
 11
308.315238
 21
181.036018
 31
0.0
  0
LINE
  8
LC-006-005-----0
  6
CONTINUOUS
  5
B1
 10
305.292456
 20
180.841663
 30
0.0
 11
308.315233
 21
183.86444
 31
0.0
  0
LINE
  8
LC-006-005-----0
  6
CONTINUOUS
  5
B2
 10
293.58637
 20
171.964004
 30
0.0
 11
295.807759
 21
174.185393
 31
0.0
  0
LINE
  8
LC-006-005-----0
  6
CONTINUOUS
  5
B3
 10
305.223867
 20
183.601501
 30
0.0
 11
308.315228
 21
186.692861
 31
0.0
  0
LINE
  8
LC-006-005-----0
  6
CONTINUOUS
  5
B4
 10
292.988629
 20
174.19469
 30
0.0
 11
295.807759
 21
177.01382
 31
0.0
  0
LINE
  8
LC-006-005-----0
  6
CONTINUOUS
  5
B5
 10
305.223866
 20
186.429927
 30
0.0
 11
308.315223
 21
189.521283
 31
0.0
  0
LINE
  8
LC-006-005-----0
  6
CONTINUOUS
  5
B6
 10
292.723967
 20
176.758455
 30
0.0
 11
295.807759
 21
179.842247
 31
0.0
  0
LINE
  8
LC-006-005-----0
  6
CONTINUOUS
  5
B7
 10
305.223866
 20
189.258354
 30
0.0
 11
308.315217
 21
192.349705
 31
0.0
  0
LINE
  8
LC-006-005-----0
  6
CONTINUOUS
  5
B8
 10
292.723967
 20
179.586882
 30
0.0
 11
295.807759
 21
182.670674
 31
0.0
  0
LINE
  8
LC-006-005-----0
  6
CONTINUOUS
  5
B9
 10
305.223865
 20
192.08678
 30
0.0
 11
308.315212
 21
195.178127
 31
0.0
  0
LINE
  8
LC-006-005-----0
  6
CONTINUOUS
  5
BA
 10
292.723967
 20
182.415309
 30
0.0
 11
295.807759
 21
185.499101
 31
0.0
  0
LINE
  8
LC-006-005-----0
  6
CONTINUOUS
  5
BB
 10
305.223864
 20
194.915206
 30
0.0
 11
308.315207
 21
198.006549
 31
0.0
  0
LINE
  8
LC-006-005-----0
  6
CONTINUOUS
  5
BC
 10
292.723967
 20
185.243736
 30
0.0
 11
295.807759
 21
188.327528
 31
0.0
  0
LINE
  8
LC-006-005-----0
  6
CONTINUOUS
  5
BD
 10
305.223863
 20
197.743633
 30
0.0
 11
308.315201
 21
200.834971
 31
0.0
  0
LINE
  8
LC-006-005-----0
  6
CONTINUOUS
  5
BE
 10
292.723967
 20
188.072163
 30
0.0
 11
295.807759
 21
191.155955
 31
0.0
  0
LINE
  8
LC-006-005-----0
  6
CONTINUOUS
  5
BF
 10
305.223863
 20
200.572059
 30
0.0
 11
308.315196
 21
203.663392
 31
0.0
  0
LINE
  8
LC-006-005-----0
  6
CONTINUOUS
  5
C0
 10
292.723967
 20
190.90059
 30
0.0
 11
295.807759
 21
193.984383
 31
0.0
  0
LINE
  8
LC-006-005-----0
  6
CONTINUOUS
  5
C1
 10
305.223862
 20
203.400486
 30
0.0
 11
308.315191
 21
206.491814
 31
0.0
  0
LINE
  8
LC-006-005-----0
  6
CONTINUOUS
  5
C2
 10
292.723967
 20
193.729017
 30
0.0
 11
295.807759
 21
196.81281
 31
0.0
  0
LINE
  8
LC-006-005-----0
  6
CONTINUOUS
  5
C3
 10
305.223861
 20
206.228912
 30
0.0
 11
308.315186
 21
209.320236
 31
0.0
  0
LINE
  8
LC-006-005-----0
  6
CONTINUOUS
  5
C4
 10
292.723967
 20
196.557444
 30
0.0
 11
295.807759
 21
199.641237
 31
0.0
  0
LINE
  8
LC-006-005-----0
  6
CONTINUOUS
  5
C5
 10
305.223861
 20
209.057338
 30
0.0
 11
308.31518
 21
212.148658
 31
0.0
  0
LINE
  8
LC-006-005-----0
  6
CONTINUOUS
  5
C6
 10
292.723966
 20
199.385871
 30
0.0
 11
295.807759
 21
202.469664
 31
0.0
  0
LINE
  8
LC-006-005-----0
  6
CONTINUOUS
  5
C7
 10
305.22386
 20
211.885765
 30
0.0
 11
308.315175
 21
214.97708
 31
0.0
  0
LINE
  8
LC-006-005-----0
  6
CONTINUOUS
  5
C8
 10
292.723966
 20
202.214298
 30
0.0
 11
295.807759
 21
205.298091
 31
0.0
  0
LINE
  8
LC-006-005-----0
  6
CONTINUOUS
  5
C9
 10
305.223859
 20
214.714191
 30
0.0
 11
308.31517
 21
217.805502
 31
0.0
  0
LINE
  8
LC-006-005-----0
  6
CONTINUOUS
  5
CA
 10
292.723966
 20
205.042726
 30
0.0
 11
295.807759
 21
208.126518
 31
0.0
  0
LINE
  8
LC-006-005-----0
  6
CONTINUOUS
  5
CB
 10
305.223858
 20
217.542618
 30
0.0
 11
308.315164
 21
220.633924
 31
0.0
  0
LINE
  8
LC-006-005-----0
  6
CONTINUOUS
  5
CC
 10
292.723966
 20
207.871153
 30
0.0
 11
295.807759
 21
210.954945
 31
0.0
  0
LINE
  8
LC-006-005-----0
  6
CONTINUOUS
  5
CD
 10
305.223858
 20
220.371044
 30
0.0
 11
308.315159
 21
223.462345
 31
0.0
  0
LINE
  8
LC-006-005-----0
  6
CONTINUOUS
  5
CE
 10
292.723966
 20
210.69958
 30
0.0
 11
295.807759
 21
213.783372
 31
0.0
  0
LINE
  8
LC-006-005-----0
  6
CONTINUOUS
  5
CF
 10
305.223857
 20
223.19947
 30
0.0
 11
308.315154
 21
226.290767
 31
0.0
  0
LINE
  8
LC-006-005-----0
  6
CONTINUOUS
  5
D0
 10
292.723966
 20
213.528007
 30
0.0
 11
295.807759
 21
216.611799
 31
0.0
  0
LINE
  8
LC-006-005-----0
  6
CONTINUOUS
  5
D1
 10
305.223856
 20
226.027897
 30
0.0
 11
308.315149
 21
229.119189
 31
0.0
  0
LINE
  8
LC-006-005-----0
  6
CONTINUOUS
  5
D2
 10
308.880139
 20
229.68418
 30
0.0
 11
310.221445
 21
231.025485
 31
0.0
  0
LINE
  8
LC-006-005-----0
  6
CONTINUOUS
  5
D3
 10
292.723966
 20
216.356434
 30
0.0
 11
295.807759
 21
219.440226
 31
0.0
  0
LINE
  8
LC-006-005-----0
  6
CONTINUOUS
  5
D4
 10
305.223855
 20
228.856323
 30
0.0
 11
309.068803
 21
232.70127
 31
0.0
  0
LINE
  8
LC-006-005-----0
  6
CONTINUOUS
  5
D5
 10
292.723966
 20
219.184861
 30
0.0
 11
295.807759
 21
222.268654
 31
0.0
  0
LINE
  8
LC-006-005-----0
  6
CONTINUOUS
  5
D6
 10
304.796851
 20
231.257746
 30
0.0
 11
306.838093
 21
233.298987
 31
0.0
  0
LINE
  8
LC-006-005-----0
  6
CONTINUOUS
  5
D7
 10
292.723966
 20
222.013288
 30
0.0
 11
295.807759
 21
225.097081
 31
0.0
  0
LINE
  8
LC-006-005-----0
  6
CONTINUOUS
  5
D8
 10
302.566141
 20
231.855463
 30
0.0
 11
304.630609
 21
233.919931
 31
0.0
  0
LINE
  8
LC-006-005-----0
  6
CONTINUOUS
  5
D9
 10
292.723966
 20
224.841715
 30
0.0
 11
295.807759
 21
227.925508
 31
0.0
  0
LINE
  8
LC-006-005-----0
  6
CONTINUOUS
  5
DA
 10
298.631278
 20
230.749027
 30
0.0
 11
299.188758
 21
231.306507
 31
0.0
  0
LINE
  8
LC-006-005-----0
  6
CONTINUOUS
  5
DB
 10
301.07226
 20
233.190009
 30
0.0
 11
303.154261
 21
235.27201
 31
0.0
  0
LINE
  8
LC-006-005-----0
  6
CONTINUOUS
  5
DC
 10
292.723966
 20
227.670142
 30
0.0
 11
302.793492
 21
237.739668
 31
0.0
  0
LINE
  8
LC-006-005-----0
  6
CONTINUOUS
  5
DD
 10
292.723966
 20
230.498569
 30
0.0
 11
295.90959
 21
233.684193
 31
0.0
  0
LINE
  8
LC-006-005-----0
  6
CONTINUOUS
  5
DE
 10
299.841616
 20
237.61622
 30
0.0
 11
302.767139
 21
240.541742
 31
0.0
  0
LINE
  8
LC-006-005-----0
  6
CONTINUOUS
  5
DF
 10
290.093129
 20
230.69616
 30
0.0
 11
293.081163
 21
233.684193
 31
0.0
  0
LINE
  8
LC-006-005-----0
  6
CONTINUOUS
  5
E0
 10
299.841615
 20
240.444645
 30
0.0
 11
302.740786
 21
243.343816
 31
0.0
  0
LINE
  8
LC-006-005-----0
  6
CONTINUOUS
  5
E1
 10
287.264702
 20
230.69616
 30
0.0
 11
290.252736
 21
233.684193
 31
0.0
  0
LINE
  8
LC-006-005-----0
  6
CONTINUOUS
  5
E2
 10
299.841613
 20
243.27307
 30
0.0
 11
302.714433
 21
246.145891
 31
0.0
  0
LINE
  8
LC-006-005-----0
  6
CONTINUOUS
  5
E3
 10
284.436275
 20
230.69616
 30
0.0
 11
287.424309
 21
233.684193
 31
0.0
  0
LINE
  8
LC-006-005-----0
  6
CONTINUOUS
  5
E4
 10
299.841611
 20
246.101495
 30
0.0
 11
302.68808
 21
248.947965
 31
0.0
  0
LINE
  8
LC-006-005-----0
  6
CONTINUOUS
  5
E5
 10
281.607848
 20
230.69616
 30
0.0
 11
284.595882
 21
233.684193
 31
0.0
  0
LINE
  8
LC-006-005-----0
  6
CONTINUOUS
  5
E6
 10
299.841609
 20
248.929921
 30
0.0
 11
302.661728
 21
251.750039
 31
0.0
  0
LINE
  8
LC-006-005-----0
  6
CONTINUOUS
  5
E7
 10
278.779421
 20
230.69616
 30
0.0
 11
281.767455
 21
233.684193
 31
0.0
  0
LINE
  8
LC-006-005-----0
  6
CONTINUOUS
  5
E8
 10
299.841607
 20
251.758346
 30
0.0
 11
302.635375
 21
254.552114
 31
0.0
  0
LINE
  8
LC-006-005-----0
  6
CONTINUOUS
  5
E9
 10
275.950994
 20
230.69616
 30
0.0
 11
278.939027
 21
233.684193
 31
0.0
  0
LINE
  8
LC-006-005-----0
  6
CONTINUOUS
  5
EA
 10
299.841605
 20
254.586771
 30
0.0
 11
302.609022
 21
257.354188
 31
0.0
  0
LINE
  8
LC-006-005-----0
  6
CONTINUOUS
  5
EB
 10
273.122567
 20
230.69616
 30
0.0
 11
276.1106
 21
233.684193
 31
0.0
  0
LINE
  8
LC-006-005-----0
  6
CONTINUOUS
  5
EC
 10
299.841603
 20
257.415196
 30
0.0
 11
302.582669
 21
260.156262
 31
0.0
  0
LINE
  8
LC-006-005-----0
  6
CONTINUOUS
  5
ED
 10
270.29414
 20
230.69616
 30
0.0
 11
273.282173
 21
233.684193
 31
0.0
  0
LINE
  8
LC-006-005-----0
  6
CONTINUOUS
  5
EE
 10
299.841601
 20
260.243621
 30
0.0
 11
302.556317
 21
262.958337
 31
0.0
  0
LINE
  8
LC-006-005-----0
  6
CONTINUOUS
  5
EF
 10
267.465712
 20
230.69616
 30
0.0
 11
270.453746
 21
233.684193
 31
0.0
  0
LINE
  8
LC-006-005-----0
  6
CONTINUOUS
  5
F0
 10
299.841599
 20
263.072047
 30
0.0
 11
302.529964
 21
265.760411
 31
0.0
  0
LINE
  8
LC-006-005-----0
  6
CONTINUOUS
  5
F1
 10
264.637285
 20
230.69616
 30
0.0
 11
267.625319
 21
233.684193
 31
0.0
  0
LINE
  8
LC-006-005-----0
  6
CONTINUOUS
  5
F2
 10
299.841597
 20
265.900472
 30
0.0
 11
302.503611
 21
268.562485
 31
0.0
  0
LINE
  8
LC-006-005-----0
  6
CONTINUOUS
  5
F3
 10
261.816469
 20
230.703771
 30
0.0
 11
264.796892
 21
233.684193
 31
0.0
  0
LINE
  8
LC-006-005-----0
  6
CONTINUOUS
  5
F4
 10
299.841595
 20
268.728897
 30
0.0
 11
302.477258
 21
271.36456
 31
0.0
  0
LINE
  8
LC-006-005-----0
  6
CONTINUOUS
  5
F5
 10
259.33866
 20
231.054389
 30
0.0
 11
261.968501
 21
233.68423
 31
0.0
  0
LINE
  8
LC-006-005-----0
  6
CONTINUOUS
  5
F6
 10
299.841593
 20
271.557322
 30
0.0
 11
302.450905
 21
274.166634
 31
0.0
  0
LINE
  8
LC-006-005-----0
  6
CONTINUOUS
  5
F7
 10
257.246477
 20
231.790632
 30
0.0
 11
259.495309
 21
234.039465
 31
0.0
  0
LINE
  8
LC-006-005-----0
  6
CONTINUOUS
  5
F8
 10
299.841592
 20
274.385747
 30
0.0
 11
302.424553
 21
276.968708
 31
0.0
  0
LINE
  8
LC-006-005-----0
  6
CONTINUOUS
  5
F9
 10
255.445043
 20
232.817626
 30
0.0
 11
257.512323
 21
234.884906
 31
0.0
  0
LINE
  8
LC-006-005-----0
  6
CONTINUOUS
  5
FA
 10
299.84159
 20
277.214173
 30
0.0
 11
302.3982
 21
279.770783
 31
0.0
  0
LINE
  8
LC-006-005-----0
  6
CONTINUOUS
  5
FB
 10
253.894297
 20
234.095307
 30
0.0
 11
255.886091
 21
236.087101
 31
0.0
  0
LINE
  8
LC-006-005-----0
  6
CONTINUOUS
  5
FC
 10
299.841588
 20
280.042598
 30
0.0
 11
302.371847
 21
282.572857
 31
0.0
  0
LINE
  8
LC-006-005-----0
  6
CONTINUOUS
  5
FD
 10
252.581931
 20
235.611368
 30
0.0
 11
254.580061
 21
237.609498
 31
0.0
  0
LINE
  8
LC-006-005-----0
  6
CONTINUOUS
  5
FE
 10
299.841586
 20
282.871023
 30
0.0
 11
302.345494
 21
285.374931
 31
0.0
  0
LINE
  8
LC-006-005-----0
  6
CONTINUOUS
  5
FF
 10
251.517045
 20
237.37491
 30
0.0
 11
253.612185
 21
239.470049
 31
0.0
  0
LINE
  8
LC-006-005-----0
  6
CONTINUOUS
  5
100
 10
299.841584
 20
285.699448
 30
0.0
 11
302.319141
 21
288.177006
 31
0.0
  0
LINE
  8
LC-006-005-----0
  6
CONTINUOUS
  5
101
 10
250.734757
 20
239.421048
 30
0.0
 11
253.07394
 21
241.760231
 31
0.0
  0
LINE
  8
LC-006-005-----0
  6
CONTINUOUS
  5
102
 10
299.841582
 20
288.527874
 30
0.0
 11
302.292789
 21
290.97908
 31
0.0
  0
LINE
  8
LC-006-005-----0
  6
CONTINUOUS
  5
103
 10
250.318627
 20
241.833345
 30
0.0
 11
253.029842
 21
244.54456
 31
0.0
  0
LINE
  8
LC-006-005-----0
  6
CONTINUOUS
  5
104
 10
299.84158
 20
291.356299
 30
0.0
 11
302.266436
 21
293.781154
 31
0.0
  0
LINE
  8
LC-006-005-----0
  6
CONTINUOUS
  5
105
 10
250.290811
 20
244.633957
 30
0.0
 11
253.029842
 21
247.372987
 31
0.0
  0
LINE
  8
LC-006-005-----0
  6
CONTINUOUS
  5
106
 10
299.841578
 20
294.184724
 30
0.0
 11
302.240083
 21
296.583229
 31
0.0
  0
LINE
  8
LC-006-005-----0
  6
CONTINUOUS
  5
107
 10
250.290811
 20
247.462384
 30
0.0
 11
253.029842
 21
250.201414
 31
0.0
  0
LINE
  8
LC-006-005-----0
  6
CONTINUOUS
  5
108
 10
299.841576
 20
297.013149
 30
0.0
 11
302.572398
 21
299.743971
 31
0.0
  0
LINE
  8
LC-006-005-----0
  6
CONTINUOUS
  5
109
 10
250.290811
 20
250.290811
 30
0.0
 11
253.029842
 21
253.029842
 31
0.0
  0
LINE
  8
LC-006-005-----0
  6
CONTINUOUS
  5
10A
 10
299.841574
 20
299.841574
 30
0.0
 11
301.684193
 21
301.684193
 31
0.0
  0
LINE
  8
LC-006-005-----0
  6
CONTINUOUS
  5
10B
 10
250.290811
 20
253.119238
 30
0.0
 11
253.029842
 21
255.858269
 31
0.0
  0
LINE
  8
LC-006-005-----0
  6
CONTINUOUS
  5
10C
 10
250.290811
 20
255.947665
 30
0.0
 11
253.029842
 21
258.686696
 31
0.0
  0
LINE
  8
LC-006-005-----0
  6
CONTINUOUS
  5
10D
 10
250.290811
 20
258.776092
 30
0.0
 11
253.029842
 21
261.515123
 31
0.0
  0
LINE
  8
LC-006-005-----0
  6
CONTINUOUS
  5
10E
 10
250.290811
 20
261.604519
 30
0.0
 11
253.029842
 21
264.34355
 31
0.0
  0
LINE
  8
LC-006-005-----0
  6
CONTINUOUS
  5
10F
 10
250.290811
 20
264.432946
 30
0.0
 11
253.029842
 21
267.171977
 31
0.0
  0
LINE
  8
LC-006-005-----0
  6
CONTINUOUS
  5
110
 10
250.290811
 20
267.261374
 30
0.0
 11
253.029842
 21
270.000404
 31
0.0
  0
LINE
  8
LC-006-005-----0
  6
CONTINUOUS
  5
111
 10
250.290811
 20
270.089801
 30
0.0
 11
253.029842
 21
272.828831
 31
0.0
  0
LINE
  8
LC-006-005-----0
  6
CONTINUOUS
  5
112
 10
250.290811
 20
272.918228
 30
0.0
 11
253.029842
 21
275.657259
 31
0.0
  0
LINE
  8
LC-006-005-----0
  6
CONTINUOUS
  5
113
 10
250.290811
 20
275.746655
 30
0.0
 11
253.029842
 21
278.485686
 31
0.0
  0
LINE
  8
LC-006-005-----0
  6
CONTINUOUS
  5
114
 10
250.290811
 20
278.575082
 30
0.0
 11
253.029842
 21
281.314113
 31
0.0
  0
LINE
  8
LC-006-005-----0
  6
CONTINUOUS
  5
115
 10
250.290811
 20
281.403509
 30
0.0
 11
253.029842
 21
284.14254
 31
0.0
  0
LINE
  8
LC-006-005-----0
  6
CONTINUOUS
  5
116
 10
250.290811
 20
284.231936
 30
0.0
 11
253.029842
 21
286.970967
 31
0.0
  0
LINE
  8
LC-006-005-----0
  6
CONTINUOUS
  5
117
 10
250.290811
 20
287.060363
 30
0.0
 11
253.029842
 21
289.799394
 31
0.0
  0
LINE
  8
LC-006-005-----0
  6
CONTINUOUS
  5
118
 10
250.290811
 20
289.888791
 30
0.0
 11
253.029842
 21
292.627821
 31
0.0
  0
LINE
  8
LC-006-005-----0
  6
CONTINUOUS
  5
119
 10
250.290811
 20
292.717218
 30
0.0
 11
253.029842
 21
295.456248
 31
0.0
  0
LINE
  8
LC-006-005-----0
  6
CONTINUOUS
  5
11A
 10
250.290811
 20
295.545645
 30
0.0
 11
253.029842
 21
298.284676
 31
0.0
  0
LINE
  8
LC-006-005-----0
  6
CONTINUOUS
  5
11B
 10
250.290811
 20
298.374072
 30
0.0
 11
253.029842
 21
301.113103
 31
0.0
  0
LINE
  8
LC-006-005-----0
  6
CONTINUOUS
  5
11C
 10
250.290811
 20
301.202499
 30
0.0
 11
253.029842
 21
303.94153
 31
0.0
  0
LINE
  8
LC-006-005-----0
  6
CONTINUOUS
  5
11D
 10
250.290811
 20
304.030926
 30
0.0
 11
253.029842
 21
306.769957
 31
0.0
  0
LINE
  8
LC-006-005-----0
  6
CONTINUOUS
  5
11E
 10
249.615211
 20
306.183754
 30
0.0
 11
252.482035
 21
309.050578
 31
0.0
  0
LINE
  8
LC-006-005-----0
  6
CONTINUOUS
  5
11F
 10
248.450362
 20
307.847332
 30
0.0
 11
253.344903
 21
312.741873
 31
0.0
  0
LINE
  8
LC-006-005-----0
  6
CONTINUOUS
  5
120
 10
247.285512
 20
309.510909
 30
0.0
 11
253.478047
 21
315.703443
 31
0.0
  0
LINE
  8
LC-006-005-----0
  6
CONTINUOUS
  5
121
 10
246.120663
 20
311.174487
 30
0.0
 11
252.165631
 21
317.219454
 31
0.0
  0
LINE
  8
LC-006-005-----0
  6
CONTINUOUS
  5
122
 10
244.955813
 20
312.838064
 30
0.0
 11
249.498311
 21
317.380562
 31
0.0
  0
LINE
  8
LC-006-005-----0
  6
CONTINUOUS
  5
123
 10
243.790964
 20
314.501642
 30
0.0
 11
246.669884
 21
317.380562
 31
0.0
  0
LINE
  8
LC-006-005-----0
  6
CONTINUOUS
  5
124
 10
242.626114
 20
316.165219
 30
0.0
 11
243.975177
 21
317.514282
 31
0.0
  0
LINE
  8
LC-006-005-----0
  6
CONTINUOUS
  5
125
 10
241.461264
 20
317.828797
 30
0.0
 11
243.816738
 21
320.18427
 31
0.0
  0
LINE
  8
LC-006-005-----0
  6
CONTINUOUS
  5
126
 10
241.077707
 20
320.273667
 30
0.0
 11
243.816738
 21
323.012697
 31
0.0
  0
LINE
  8
LC-006-005-----0
  6
CONTINUOUS
  5
127
 10
241.077707
 20
323.102094
 30
0.0
 11
243.816738
 21
325.841125
 31
0.0
  0
LINE
  8
LC-006-005-----0
  6
CONTINUOUS
  5
128
 10
240.686025
 20
325.538838
 30
0.0
 11
243.816738
 21
328.669552
 31
0.0
  0
LINE
  8
LC-006-005-----0
  6
CONTINUOUS
  5
129
 10
238.666879
 20
326.34812
 30
0.0
 11
241.15345
 21
328.834691
 31
0.0
  0
LINE
  8
LC-006-005-----0
  6
CONTINUOUS
  5
12A
 10
241.826091
 20
329.507332
 30
0.0
 11
243.816738
 21
331.497979
 31
0.0
  0
LINE
  8
LC-006-005-----0
  6
CONTINUOUS
  5
12B
 10
236.703956
 20
327.213624
 30
0.0
 11
238.885919
 21
329.395587
 31
0.0
  0
LINE
  8
LC-006-005-----0
  6
CONTINUOUS
  5
12C
 10
241.826091
 20
332.335759
 30
0.0
 11
243.816738
 21
334.326406
 31
0.0
  0
LINE
  8
LC-006-005-----0
  6
CONTINUOUS
  5
12D
 10
235.827239
 20
329.165334
 30
0.0
 11
238.670353
 21
332.008448
 31
0.0
  0
LINE
  8
LC-006-005-----0
  6
CONTINUOUS
  5
12E
 10
235.68637
 20
331.852892
 30
0.0
 11
238.529503
 21
334.696025
 31
0.0
  0
LINE
  8
LC-006-005-----0
  6
CONTINUOUS
  5
12F
 10
235.221255
 20
334.216205
 30
0.0
 11
238.388653
 21
337.383602
 31
0.0
  0
LINE
  8
LC-006-005-----0
  6
CONTINUOUS
  5
130
 10
232.967255
 20
334.790632
 30
0.0
 11
235.770297
 21
337.593673
 31
0.0
  0
LINE
  8
LC-006-005-----0
  6
CONTINUOUS
  5
131
 10
230.333603
 20
334.985407
 30
0.0
 11
233.135
 21
337.786804
 31
0.0
  0
LINE
  8
LC-006-005-----0
  6
CONTINUOUS
  5
132
 10
227.699951
 20
335.180182
 30
0.0
 11
230.499704
 21
337.979935
 31
0.0
  0
LINE
  8
LC-006-005-----0
  6
CONTINUOUS
  5
133
 10
225.066299
 20
335.374957
 30
0.0
 11
227.864408
 21
338.173066
 31
0.0
  0
LINE
  8
LC-006-005-----0
  6
CONTINUOUS
  5
134
 10
222.432647
 20
335.569732
 30
0.0
 11
225.229112
 21
338.366197
 31
0.0
  0
LINE
  8
LC-006-005-----0
  6
CONTINUOUS
  5
135
 10
219.798995
 20
335.764507
 30
0.0
 11
222.593816
 21
338.559328
 31
0.0
  0
LINE
  8
LC-006-005-----0
  6
CONTINUOUS
  5
136
 10
217.622639
 20
336.416579
 30
0.0
 11
220.033609
 21
338.827549
 31
0.0
  0
LINE
  8
LC-006-005-----0
  6
CONTINUOUS
  5
137
 10
215.601966
 20
337.224332
 30
0.0
 11
218.012936
 21
339.635302
 31
0.0
  0
LINE
  8
LC-006-005-----0
  6
CONTINUOUS
  5
138
 10
213.581292
 20
338.032086
 30
0.0
 11
215.992262
 21
340.443056
 31
0.0
  0
LINE
  8
LC-006-005-----0
  6
CONTINUOUS
  5
139
 10
211.036753
 20
338.315974
 30
0.0
 11
213.836318
 21
341.115539
 31
0.0
  0
LINE
  8
LC-006-005-----0
  6
CONTINUOUS
  5
13A
 10
208.393182
 20
338.50083
 30
0.0
 11
211.192748
 21
341.300395
 31
0.0
  0
LINE
  8
LC-006-005-----0
  6
CONTINUOUS
  5
13B
 10
205.749611
 20
338.685686
 30
0.0
 11
208.549177
 21
341.485252
 31
0.0
  0
LINE
  8
LC-006-005-----0
  6
CONTINUOUS
  5
13C
 10
203.10604
 20
338.870542
 30
0.0
 11
205.905606
 21
341.670108
 31
0.0
  0
LINE
  8
LC-006-005-----0
  6
CONTINUOUS
  5
13D
 10
200.46247
 20
339.055399
 30
0.0
 11
203.262035
 21
341.854964
 31
0.0
  0
LINE
  8
LC-006-005-----0
  6
CONTINUOUS
  5
13E
 10
197.818899
 20
339.240255
 30
0.0
 11
200.618464
 21
342.039821
 31
0.0
  0
LINE
  8
LC-006-005-----0
  6
CONTINUOUS
  5
13F
 10
195.175328
 20
339.425111
 30
0.0
 11
197.974894
 21
342.224677
 31
0.0
  0
LINE
  8
LC-006-005-----0
  6
CONTINUOUS
  5
140
 10
192.531757
 20
339.609967
 30
0.0
 11
195.331323
 21
342.409533
 31
0.0
  0
LINE
  8
LC-006-005-----0
  6
CONTINUOUS
  5
141
 10
189.888186
 20
339.794824
 30
0.0
 11
192.687752
 21
342.59439
 31
0.0
  0
LINE
  8
LC-006-005-----0
  6
CONTINUOUS
  5
142
 10
187.244615
 20
339.97968
 30
0.0
 11
190.044181
 21
342.779246
 31
0.0
  0
LINE
  8
LC-006-005-----0
  6
CONTINUOUS
  5
143
 10
184.601044
 20
340.164536
 30
0.0
 11
187.40061
 21
342.964102
 31
0.0
  0
LINE
  8
LC-006-005-----0
  6
CONTINUOUS
  5
144
 10
181.957474
 20
340.349393
 30
0.0
 11
184.75704
 21
343.148959
 31
0.0
  0
LINE
  8
LC-006-005-----0
  6
CONTINUOUS
  5
145
 10
180.069581
 20
341.289927
 30
0.0
 11
182.11122
 21
343.331566
 31
0.0
  0
ENDBLK
  8
0
  5
146
  0
BLOCK
  8
0
  5
148
  2
BLK1
 70
    64
 10
0.0
 20
0.0
 30
0.0
  3
BLK1
  0
ENDBLK
  8
0
  5
149
  0
BLOCK
  8
0
  5
14B
  2
*X3
 70
    65
 10
288.722942
 20
252.184189
 30
0.0
  3
*X3
  0
LINE
  8
LC-006-005-----0
  6
CONTINUOUS
  5
14C
 10
370.978418
 20
252.184479
 30
0.0
 11
371.723113
 21
252.929173
 31
0.0
  0
LINE
  8
LC-006-005-----0
  6
CONTINUOUS
  5
14D
 10
370.723272
 20
254.757759
 30
0.0
 11
371.723115
 21
255.757602
 31
0.0
  0
LINE
  8
LC-006-005-----0
  6
CONTINUOUS
  5
14E
 10
370.723266
 20
257.586181
 30
0.0
 11
371.723116
 21
258.586031
 31
0.0
  0
LINE
  8
LC-006-005-----0
  6
CONTINUOUS
  5
14F
 10
370.72326
 20
260.414602
 30
0.0
 11
371.723118
 21
261.41446
 31
0.0
  0
LINE
  8
LC-006-005-----0
  6
CONTINUOUS
  5
150
 10
370.723254
 20
263.243023
 30
0.0
 11
371.72312
 21
264.242889
 31
0.0
  0
LINE
  8
LC-006-005-----0
  6
CONTINUOUS
  5
151
 10
370.723248
 20
266.071445
 30
0.0
 11
371.723122
 21
267.071318
 31
0.0
  0
LINE
  8
LC-006-005-----0
  6
CONTINUOUS
  5
152
 10
370.723242
 20
268.899866
 30
0.0
 11
371.723124
 21
269.899747
 31
0.0
  0
LINE
  8
LC-006-005-----0
  6
CONTINUOUS
  5
153
 10
370.723236
 20
271.728287
 30
0.0
 11
371.723126
 21
272.728176
 31
0.0
  0
LINE
  8
LC-006-005-----0
  6
CONTINUOUS
  5
154
 10
370.723231
 20
274.556708
 30
0.0
 11
371.723127
 21
275.556605
 31
0.0
  0
LINE
  8
LC-006-005-----0
  6
CONTINUOUS
  5
155
 10
370.723225
 20
277.38513
 30
0.0
 11
371.723129
 21
278.385034
 31
0.0
  0
LINE
  8
LC-006-005-----0
  6
CONTINUOUS
  5
156
 10
370.723219
 20
280.213551
 30
0.0
 11
371.723131
 21
281.213463
 31
0.0
  0
LINE
  8
LC-006-005-----0
  6
CONTINUOUS
  5
157
 10
370.723213
 20
283.041972
 30
0.0
 11
371.723133
 21
284.041892
 31
0.0
  0
LINE
  8
LC-006-005-----0
  6
CONTINUOUS
  5
158
 10
370.723207
 20
285.870393
 30
0.0
 11
371.723135
 21
286.870321
 31
0.0
  0
LINE
  8
LC-006-005-----0
  6
CONTINUOUS
  5
159
 10
370.723201
 20
288.698815
 30
0.0
 11
371.723137
 21
289.69875
 31
0.0
  0
LINE
  8
LC-006-005-----0
  6
CONTINUOUS
  5
15A
 10
370.723195
 20
291.527236
 30
0.0
 11
371.723139
 21
292.527179
 31
0.0
  0
LINE
  8
LC-006-005-----0
  6
CONTINUOUS
  5
15B
 10
370.72319
 20
294.355657
 30
0.0
 11
371.72314
 21
295.355608
 31
0.0
  0
LINE
  8
LC-006-005-----0
  6
CONTINUOUS
  5
15C
 10
370.723184
 20
297.184079
 30
0.0
 11
371.723142
 21
298.184037
 31
0.0
  0
LINE
  8
LC-006-005-----0
  6
CONTINUOUS
  5
15D
 10
370.723178
 20
300.0125
 30
0.0
 11
371.723144
 21
301.012466
 31
0.0
  0
LINE
  8
LC-006-005-----0
  6
CONTINUOUS
  5
15E
 10
370.723172
 20
302.840921
 30
0.0
 11
371.723146
 21
303.840895
 31
0.0
  0
LINE
  8
LC-006-005-----0
  6
CONTINUOUS
  5
15F
 10
370.723166
 20
305.669342
 30
0.0
 11
371.723148
 21
306.669324
 31
0.0
  0
LINE
  8
LC-006-005-----0
  6
CONTINUOUS
  5
160
 10
370.72316
 20
308.497764
 30
0.0
 11
371.72315
 21
309.497753
 31
0.0
  0
LINE
  8
LC-006-005-----0
  6
CONTINUOUS
  5
161
 10
370.723154
 20
311.326185
 30
0.0
 11
371.722324
 21
312.325355
 31
0.0
  0
LINE
  8
LC-006-005-----0
  6
CONTINUOUS
  5
162
 10
370.558748
 20
313.990205
 30
0.0
 11
371.422449
 21
314.853907
 31
0.0
  0
LINE
  8
LC-006-005-----0
  6
CONTINUOUS
  5
163
 10
369.899266
 20
316.159151
 30
0.0
 11
370.722289
 21
316.982174
 31
0.0
  0
LINE
  8
LC-006-005-----0
  6
CONTINUOUS
  5
164
 10
368.880422
 20
317.968734
 30
0.0
 11
369.725604
 21
318.813916
 31
0.0
  0
LINE
  8
LC-006-005-----0
  6
CONTINUOUS
  5
165
 10
367.562787
 20
319.479526
 30
0.0
 11
368.476302
 21
320.39304
 31
0.0
  0
LINE
  8
LC-006-005-----0
  6
CONTINUOUS
  5
166
 10
365.958959
 20
320.704125
 30
0.0
 11
366.989259
 21
321.734425
 31
0.0
  0
LINE
  8
LC-006-005-----0
  6
CONTINUOUS
  5
167
 10
364.043457
 20
321.61705
 30
0.0
 11
365.25806
 21
322.831654
 31
0.0
  0
LINE
  8
LC-006-005-----0
  6
CONTINUOUS
  5
168
 10
361.731386
 20
322.133406
 30
0.0
 11
363.251807
 21
323.653827
 31
0.0
  0
LINE
  8
LC-006-005-----0
  6
CONTINUOUS
  5
169
 10
288.95378
 20
252.184228
 30
0.0
 11
289.72311
 21
252.953557
 31
0.0
  0
LINE
  8
LC-006-005-----0
  6
CONTINUOUS
  5
16A
 10
330.453744
 20
293.684192
 30
0.0
 11
331.65893
 21
294.889377
 31
0.0
  0
LINE
  8
LC-006-005-----0
  6
CONTINUOUS
  5
16B
 10
358.953916
 20
322.184363
 30
0.0
 11
360.896421
 21
324.126869
 31
0.0
  0
LINE
  8
LC-006-005-----0
  6
CONTINUOUS
  5
16C
 10
288.723105
 20
254.781979
 30
0.0
 11
289.723102
 21
255.781976
 31
0.0
  0
LINE
  8
LC-006-005-----0
  6
CONTINUOUS
  5
16D
 10
327.625317
 20
293.684192
 30
0.0
 11
331.659695
 21
297.71857
 31
0.0
  0
LINE
  8
LC-006-005-----0
  6
CONTINUOUS
  5
16E
 10
356.125489
 20
322.184363
 30
0.0
 11
358.12549
 21
324.184364
 31
0.0
  0
LINE
  8
LC-006-005-----0
  6
CONTINUOUS
  5
16F
 10
288.723097
 20
257.610398
 30
0.0
 11
289.723094
 21
258.610396
 31
0.0
  0
LINE
  8
LC-006-005-----0
  6
CONTINUOUS
  5
170
 10
324.79689
 20
293.684192
 30
0.0
 11
331.660461
 21
300.547763
 31
0.0
  0
LINE
  8
LC-006-005-----0
  6
CONTINUOUS
  5
171
 10
353.297061
 20
322.184363
 30
0.0
 11
355.297065
 21
324.184366
 31
0.0
  0
LINE
  8
LC-006-005-----0
  6
CONTINUOUS
  5
172
 10
288.723089
 20
260.438818
 30
0.0
 11
289.723086
 21
261.438815
 31
0.0
  0
LINE
  8
LC-006-005-----0
  6
CONTINUOUS
  5
173
 10
321.968463
 20
293.684192
 30
0.0
 11
331.661227
 21
303.376956
 31
0.0
  0
LINE
  8
LC-006-005-----0
  6
CONTINUOUS
  5
174
 10
350.468634
 20
322.184363
 30
0.0
 11
352.468639
 21
324.184368
 31
0.0
  0
LINE
  8
LC-006-005-----0
  6
CONTINUOUS
  5
175
 10
288.723081
 20
263.267237
 30
0.0
 11
289.723078
 21
264.267234
 31
0.0
  0
LINE
  8
LC-006-005-----0
  6
CONTINUOUS
  5
176
 10
319.140036
 20
293.684192
 30
0.0
 11
331.661993
 21
306.206149
 31
0.0
  0
LINE
  8
LC-006-005-----0
  6
CONTINUOUS
  5
177
 10
347.640207
 20
322.184363
 30
0.0
 11
349.640214
 21
324.18437
 31
0.0
  0
LINE
  8
LC-006-005-----0
  6
CONTINUOUS
  5
178
 10
288.723073
 20
266.095656
 30
0.0
 11
289.72307
 21
267.095653
 31
0.0
  0
LINE
  8
LC-006-005-----0
  6
CONTINUOUS
  5
179
 10
316.311609
 20
293.684192
 30
0.0
 11
331.662759
 21
309.035342
 31
0.0
  0
LINE
  8
LC-006-005-----0
  6
CONTINUOUS
  5
17A
 10
344.81178
 20
322.184363
 30
0.0
 11
346.811789
 21
324.184372
 31
0.0
  0
LINE
  8
LC-006-005-----0
  6
CONTINUOUS
  5
17B
 10
288.723065
 20
268.924075
 30
0.0
 11
289.723062
 21
269.924072
 31
0.0
  0
LINE
  8
LC-006-005-----0
  6
CONTINUOUS
  5
17C
 10
313.483182
 20
293.684192
 30
0.0
 11
331.663524
 21
311.864535
 31
0.0
  0
LINE
  8
LC-006-005-----0
  6
CONTINUOUS
  5
17D
 10
341.983353
 20
322.184363
 30
0.0
 11
343.983364
 21
324.184374
 31
0.0
  0
LINE
  8
LC-006-005-----0
  6
CONTINUOUS
  5
17E
 10
288.723057
 20
271.752494
 30
0.0
 11
289.723054
 21
272.752491
 31
0.0
  0
LINE
  8
LC-006-005-----0
  6
CONTINUOUS
  5
17F
 10
310.654755
 20
293.684192
 30
0.0
 11
331.66429
 21
314.693727
 31
0.0
  0
LINE
  8
LC-006-005-----0
  6
CONTINUOUS
  5
180
 10
339.154926
 20
322.184363
 30
0.0
 11
343.817931
 21
326.847368
 31
0.0
  0
LINE
  8
LC-006-005-----0
  6
CONTINUOUS
  5
181
 10
288.723049
 20
274.580913
 30
0.0
 11
289.723046
 21
275.58091
 31
0.0
  0
LINE
  8
LC-006-005-----0
  6
CONTINUOUS
  5
182
 10
307.826327
 20
293.684192
 30
0.0
 11
331.665056
 21
317.52292
 31
0.0
  0
LINE
  8
LC-006-005-----0
  6
CONTINUOUS
  5
183
 10
336.326499
 20
322.184363
 30
0.0
 11
338.326514
 21
324.184378
 31
0.0
  0
LINE
  8
LC-006-005-----0
  6
CONTINUOUS
  5
184
 10
339.935672
 20
325.793536
 30
0.0
 11
343.129768
 21
328.987633
 31
0.0
  0
LINE
  8
LC-006-005-----0
  6
CONTINUOUS
  5
185
 10
288.723041
 20
277.409332
 30
0.0
 11
289.723038
 21
278.409329
 31
0.0
  0
LINE
  8
LC-006-005-----0
  6
CONTINUOUS
  5
186
 10
304.9979
 20
293.684192
 30
0.0
 11
331.665822
 21
320.352113
 31
0.0
  0
LINE
  8
LC-006-005-----0
  6
CONTINUOUS
  5
187
 10
333.498072
 20
322.184363
 30
0.0
 11
335.498089
 21
324.18438
 31
0.0
  0
LINE
  8
LC-006-005-----0
  6
CONTINUOUS
  5
188
 10
339.187757
 20
327.874048
 30
0.0
 11
342.053539
 21
330.739831
 31
0.0
  0
LINE
  8
LC-006-005-----0
  6
CONTINUOUS
  5
189
 10
288.723033
 20
280.237751
 30
0.0
 11
289.72303
 21
281.237748
 31
0.0
  0
LINE
  8
LC-006-005-----0
  6
CONTINUOUS
  5
18A
 10
303.142367
 20
294.657086
 30
0.0
 11
332.669663
 21
324.184382
 31
0.0
  0
LINE
  8
LC-006-005-----0
  6
CONTINUOUS
  5
18B
 10
337.796152
 20
329.310871
 30
0.0
 11
340.651708
 21
332.166427
 31
0.0
  0
LINE
  8
LC-006-005-----0
  6
CONTINUOUS
  5
18C
 10
288.723025
 20
283.06617
 30
0.0
 11
289.723022
 21
284.066168
 31
0.0
  0
LINE
  8
LC-006-005-----0
  6
CONTINUOUS
  5
18D
 10
302.54465
 20
296.887796
 30
0.0
 11
329.841046
 21
324.184192
 31
0.0
  0
LINE
  8
LC-006-005-----0
  6
CONTINUOUS
  5
18E
 10
335.776116
 20
330.119262
 30
0.0
 11
338.926284
 21
333.26943
 31
0.0
  0
LINE
  8
LC-006-005-----0
  6
CONTINUOUS
  5
18F
 10
288.723017
 20
285.89459
 30
0.0
 11
289.723014
 21
286.894587
 31
0.0
  0
LINE
  8
LC-006-005-----0
  6
CONTINUOUS
  5
190
 10
302.465231
 20
299.636804
 30
0.0
 11
327.012619
 21
324.184192
 31
0.0
  0
LINE
  8
LC-006-005-----0
  6
CONTINUOUS
  5
191
 10
333.012619
 20
330.184192
 30
0.0
 11
336.820864
 21
333.992437
 31
0.0
  0
LINE
  8
LC-006-005-----0
  6
CONTINUOUS
  5
192
 10
288.723009
 20
288.723009
 30
0.0
 11
289.723006
 21
289.723006
 31
0.0
  0
LINE
  8
LC-006-005-----0
  6
CONTINUOUS
  5
193
 10
301.684192
 20
301.684192
 30
0.0
 11
324.184192
 21
324.184192
 31
0.0
  0
LINE
  8
LC-006-005-----0
  6
CONTINUOUS
  5
194
 10
330.184192
 20
330.184192
 30
0.0
 11
334.184192
 21
334.184192
 31
0.0
  0
LINE
  8
LC-006-005-----0
  6
CONTINUOUS
  5
195
 10
288.723001
 20
291.551428
 30
0.0
 11
289.722998
 21
292.551425
 31
0.0
  0
LINE
  8
LC-006-005-----0
  6
CONTINUOUS
  5
196
 10
298.965257
 20
301.793685
 30
0.0
 11
321.355765
 21
324.184192
 31
0.0
  0
LINE
  8
LC-006-005-----0
  6
CONTINUOUS
  5
197
 10
327.355765
 20
330.184192
 30
0.0
 11
331.355765
 21
334.184192
 31
0.0
  0
LINE
  8
LC-006-005-----0
  6
CONTINUOUS
  5
198
 10
288.722993
 20
294.379847
 30
0.0
 11
289.72299
 21
295.379844
 31
0.0
  0
LINE
  8
LC-006-005-----0
  6
CONTINUOUS
  5
199
 10
298.966023
 20
304.622878
 30
0.0
 11
320.58639
 21
326.243244
 31
0.0
  0
LINE
  8
LC-006-005-----0
  6
CONTINUOUS
  5
19A
 10
324.413891
 20
330.070746
 30
0.0
 11
328.527338
 21
334.184192
 31
0.0
  0
LINE
  8
LC-006-005-----0
  6
CONTINUOUS
  5
19B
 10
288.722985
 20
297.208266
 30
0.0
 11
289.722982
 21
298.208263
 31
0.0
  0
LINE
  8
LC-006-005-----0
  6
CONTINUOUS
  5
19C
 10
298.966789
 20
307.45207
 30
0.0
 11
315.69891
 21
324.184192
 31
0.0
  0
LINE
  8
LC-006-005-----0
  6
CONTINUOUS
  5
19D
 10
316.472944
 20
324.958225
 30
0.0
 11
325.69891
 21
334.184192
 31
0.0
  0
LINE
  8
LC-006-005-----0
  6
CONTINUOUS
  5
19E
 10
288.722977
 20
300.036685
 30
0.0
 11
289.722974
 21
301.036682
 31
0.0
  0
LINE
  8
LC-006-005-----0
  6
CONTINUOUS
  5
19F
 10
298.967555
 20
310.281263
 30
0.0
 11
312.870483
 21
324.184192
 31
0.0
  0
LINE
  8
LC-006-005-----0
  6
CONTINUOUS
  5
1A0
 10
317.055279
 20
328.368988
 30
0.0
 11
322.288148
 21
333.601856
 31
0.0
  0
LINE
  8
LC-006-005-----0
  6
CONTINUOUS
  5
1A1
 10
288.722969
 20
302.865104
 30
0.0
 11
289.722966
 21
303.865101
 31
0.0
  0
LINE
  8
LC-006-005-----0
  6
CONTINUOUS
  5
1A2
 10
298.968321
 20
313.110456
 30
0.0
 11
310.042056
 21
324.184192
 31
0.0
  0
LINE
  8
LC-006-005-----0
  6
CONTINUOUS
  5
1A3
 10
288.722961
 20
305.693523
 30
0.0
 11
289.722958
 21
306.69352
 31
0.0
  0
LINE
  8
LC-006-005-----0
  6
CONTINUOUS
  5
1A4
 10
298.969086
 20
315.939649
 30
0.0
 11
307.213629
 21
324.184192
 31
0.0
  0
LINE
  8
LC-006-005-----0
  6
CONTINUOUS
  5
1A5
 10
288.722953
 20
308.521942
 30
0.0
 11
289.72295
 21
309.52194
 31
0.0
  0
LINE
  8
LC-006-005-----0
  6
CONTINUOUS
  5
1A6
 10
298.969852
 20
318.768842
 30
0.0
 11
304.385202
 21
324.184192
 31
0.0
  0
LINE
  8
LC-006-005-----0
  6
CONTINUOUS
  5
1A7
 10
288.722945
 20
311.350362
 30
0.0
 11
289.724346
 21
312.351763
 31
0.0
  0
LINE
  8
LC-006-005-----0
  6
CONTINUOUS
  5
1A8
 10
298.970618
 20
321.598035
 30
0.0
 11
301.556775
 21
324.184192
 31
0.0
  0
LINE
  8
LC-006-005-----0
  6
CONTINUOUS
  5
1A9
 10
288.925871
 20
314.381715
 30
0.0
 11
290.435461
 21
315.891305
 31
0.0
  0
LINE
  8
LC-006-005-----0
  6
CONTINUOUS
  5
1AA
 10
296.015829
 20
321.471673
 30
0.0
 11
298.525419
 21
323.981263
 31
0.0
  0
LINE
  8
LC-006-005-----0
  6
CONTINUOUS
  5
1AB
 10
291.19497
 20
319.479241
 30
0.0
 11
293.427893
 21
321.712164
 31
0.0
  0
ENDBLK
  8
0
  5
1AC
  0
BLOCK
  8
0
  5
1AE
  2
BLK2
 70
    64
 10
0.0
 20
0.0
 30
0.0
  3
BLK2
  0
ENDBLK
  8
0
  5
1AF
  0
BLOCK
  8
0
  5
1B1
  2
BLK3
 70
    64
 10
0.0
 20
0.0
 30
0.0
  3
BLK3
  0
ENDBLK
  8
0
  5
1B2
  0
BLOCK
  8
0
  5
1B4
  2
*X6
 70
    65
 10
399.723716
 20
317.710209
 30
0.0
  3
*X6
  0
LINE
  8
LC-006-005-----0
  6
CONTINUOUS
  5
1B5
 10
408.219877
 20
317.710209
 30
0.0
 11
409.223716
 21
318.714048
 31
0.0
  0
LINE
  8
LC-006-005-----0
  6
CONTINUOUS
  5
1B6
 10
405.39145
 20
317.710209
 30
0.0
 11
409.223716
 21
321.542475
 31
0.0
  0
LINE
  8
LC-006-005-----0
  6
CONTINUOUS
  5
1B7
 10
419.284975
 20
331.603734
 30
0.0
 11
421.404122
 21
333.722882
 31
0.0
  0
LINE
  8
LC-006-005-----0
  6
CONTINUOUS
  5
1B8
 10
402.563023
 20
317.710209
 30
0.0
 11
409.223716
 21
324.370902
 31
0.0
  0
LINE
  8
LC-006-005-----0
  6
CONTINUOUS
  5
1B9
 10
419.223501
 20
334.370687
 30
0.0
 11
421.875558
 21
337.022745
 31
0.0
  0
LINE
  8
LC-006-005-----0
  6
CONTINUOUS
  5
1BA
 10
399.734596
 20
317.710209
 30
0.0
 11
409.223716
 21
327.199329
 31
0.0
  0
LINE
  8
LC-006-005-----0
  6
CONTINUOUS
  5
1BB
 10
416.871293
 20
334.846906
 30
0.0
 11
419.565817
 21
337.54143
 31
0.0
  0
LINE
  8
LC-006-005-----0
  6
CONTINUOUS
  5
1BC
 10
399.723716
 20
320.527756
 30
0.0
 11
399.906169
 21
320.710209
 31
0.0
  0
LINE
  8
LC-006-005-----0
  6
CONTINUOUS
  5
1BD
 10
402.473716
 20
323.277756
 30
0.0
 11
409.223716
 21
330.027756
 31
0.0
  0
LINE
  8
LC-006-005-----0
  6
CONTINUOUS
  5
1BE
 10
413.830212
 20
334.634253
 30
0.0
 11
416.524737
 21
337.328777
 31
0.0
  0
LINE
  8
LC-006-005-----0
  6
CONTINUOUS
  5
1BF
 10
402.473716
 20
326.106184
 30
0.0
 11
409.223716
 21
332.856184
 31
0.0
  0
LINE
  8
LC-006-005-----0
  6
CONTINUOUS
  5
1C0
 10
410.789132
 20
334.4216
 30
0.0
 11
413.483656
 21
337.116124
 31
0.0
  0
LINE
  8
LC-006-005-----0
  6
CONTINUOUS
  5
1C1
 10
402.473716
 20
328.934611
 30
0.0
 11
410.442576
 21
336.903471
 31
0.0
  0
LINE
  8
LC-006-005-----0
  6
CONTINUOUS
  5
1C2
 10
402.473716
 20
331.763038
 30
0.0
 11
407.401496
 21
336.690818
 31
0.0
  0
LINE
  8
LC-006-005-----0
  6
CONTINUOUS
  5
1C3
 10
402.473716
 20
334.591465
 30
0.0
 11
404.360416
 21
336.478165
 31
0.0
  0
ENDBLK
  8
0
  5
1C4
  0
BLOCK
  8
0
  5
1C6
  2
*X7
 70
    65
 10
238.473716
 20
317.710209
 30
0.0
  3
*X7
  0
LINE
  8
LC-006-005-----0
  6
CONTINUOUS
  5
1C7
 10
258.313239
 20
317.710209
 30
0.0
 11
260.723716
 21
320.120685
 31
0.0
  0
LINE
  8
LC-006-005-----0
  6
CONTINUOUS
  5
1C8
 10
255.484812
 20
317.710209
 30
0.0
 11
258.484812
 21
320.710209
 31
0.0
  0
LINE
  8
LC-006-005-----0
  6
CONTINUOUS
  5
1C9
 10
252.656385
 20
317.710209
 30
0.0
 11
257.973716
 21
323.02754
 31
0.0
  0
LINE
  8
LC-006-005-----0
  6
CONTINUOUS
  5
1CA
 10
251.223716
 20
319.105967
 30
0.0
 11
257.973716
 21
325.855967
 31
0.0
  0
LINE
  8
LC-006-005-----0
  6
CONTINUOUS
  5
1CB
 10
251.223716
 20
321.934394
 30
0.0
 11
257.973716
 21
328.684394
 31
0.0
  0
LINE
  8
LC-006-005-----0
  6
CONTINUOUS
  5
1CC
 10
251.223716
 20
324.762821
 30
0.0
 11
257.973716
 21
331.512821
 31
0.0
  0
LINE
  8
LC-006-005-----0
  6
CONTINUOUS
  5
1CD
 10
251.223716
 20
327.591248
 30
0.0
 11
257.973716
 21
334.341248
 31
0.0
  0
LINE
  8
LC-006-005-----0
  6
CONTINUOUS
  5
1CE
 10
251.223716
 20
330.419675
 30
0.0
 11
257.204092
 21
336.400051
 31
0.0
  0
LINE
  8
LC-006-005-----0
  6
CONTINUOUS
  5
1CF
 10
251.223716
 20
333.248102
 30
0.0
 11
254.560521
 21
336.584908
 31
0.0
  0
LINE
  8
LC-006-005-----0
  6
CONTINUOUS
  5
1D0
 10
249.574636
 20
334.42745
 30
0.0
 11
251.916951
 21
336.769764
 31
0.0
  0
LINE
  8
LC-006-005-----0
  6
CONTINUOUS
  5
1D1
 10
246.931066
 20
334.612307
 30
0.0
 11
249.27338
 21
336.954621
 31
0.0
  0
LINE
  8
LC-006-005-----0
  6
CONTINUOUS
  5
1D2
 10
240.200541
 20
330.710209
 30
0.0
 11
241.223931
 21
331.733599
 31
0.0
  0
LINE
  8
LC-006-005-----0
  6
CONTINUOUS
  5
1D3
 10
244.287495
 20
334.797163
 30
0.0
 11
246.629809
 21
337.139477
 31
0.0
  0
LINE
  8
LC-006-005-----0
  6
CONTINUOUS
  5
1D4
 10
239.211002
 20
332.549098
 30
0.0
 11
241.223931
 21
334.562026
 31
0.0
  0
LINE
  8
LC-006-005-----0
  6
CONTINUOUS
  5
1D5
 10
241.643924
 20
334.98202
 30
0.0
 11
243.986239
 21
337.324334
 31
0.0
  0
LINE
  8
LC-006-005-----0
  6
CONTINUOUS
  5
1D6
 10
238.857431
 20
335.023953
 30
0.0
 11
241.342668
 21
337.50919
 31
0.0
  0
LINE
  8
LC-006-005-----0
  6
CONTINUOUS
  5
1D7
 10
238.50386
 20
337.498809
 30
0.0
 11
238.699097
 21
337.694047
 31
0.0
  0
ENDBLK
  8
0
  5
1D8
  0
BLOCK
  8
0
  5
1DA
  2
*D8
 70
    65
 10
0.0
 20
0.0
 30
0.0
  3
*D8
  0
LINE
  8
LC-010-003-MTH-0
  6
CONTINUOUS
  5
1DC
 10
180.069581
 20
340.481407
 30
0.0
 11
180.069581
 21
526.4
 31
0.0
  0
LINE
  8
LC-010-003-MTH-0
  6
CONTINUOUS
  5
1DD
 10
480.370429
 20
340.481407
 30
0.0
 11
480.370429
 21
526.4
 31
0.0
  0
LINE
  8
LC-011-003-MTG-0
  6
CONTINUOUS
  5
1DF
 10
180.069581
 20
509.6
 30
0.0
 11
480.370429
 21
509.6
 31
0.0
  0
LINE
  8
LC-009-003-----0
  6
CONTINUOUS
  5
1E1
 10
207.830037
 20
513.254733
 30
0.0
 11
180.069581
 21
509.6
 31
0.0
  0
LINE
  8
LC-009-003-----0
  6
CONTINUOUS
  5
1E2
 10
180.069581
 20
509.6
 30
0.0
 11
207.830037
 21
505.945267
 31
0.0
  0
LINE
  8
LC-009-003-----0
  6
CONTINUOUS
  5
1E3
 10
207.830037
 20
505.945267
 30
0.0
 11
207.830037
 21
513.254733
 31
0.0
  0
LINE
  8
LC-009-003-----0
  6
CONTINUOUS
  5
1E4
 10
207.892319
 20
512.304503
 30
0.0
 11
187.349581
 21
509.6
 31
0.0
  0
LINE
  8
LC-009-003-----0
  6
CONTINUOUS
  5
1E5
 10
187.349581
 20
509.6
 30
0.0
 11
207.892319
 21
506.895497
 31
0.0
  0
LINE
  8
LC-009-003-----0
  6
CONTINUOUS
  5
1E6
 10
207.9546
 20
511.354272
 30
0.0
 11
194.629581
 21
509.6
 31
0.0
  0
LINE
  8
LC-009-003-----0
  6
CONTINUOUS
  5
1E7
 10
194.629581
 20
509.6
 30
0.0
 11
207.9546
 21
507.845728
 31
0.0
  0
LINE
  8
LC-009-003-----0
  6
CONTINUOUS
  5
1E8
 10
208.016881
 20
510.404041
 30
0.0
 11
201.909581
 21
509.6
 31
0.0
  0
LINE
  8
LC-009-003-----0
  6
CONTINUOUS
  5
1E9
 10
201.909581
 20
509.6
 30
0.0
 11
208.016881
 21
508.795959
 31
0.0
  0
LINE
  8
LC-009-003-----0
  6
CONTINUOUS
  5
1EA
 10
452.609973
 20
505.945267
 30
0.0
 11
480.370429
 21
509.6
 31
0.0
  0
LINE
  8
LC-009-003-----0
  6
CONTINUOUS
  5
1EB
 10
480.370429
 20
509.6
 30
0.0
 11
452.609973
 21
513.254733
 31
0.0
  0
LINE
  8
LC-009-003-----0
  6
CONTINUOUS
  5
1EC
 10
452.609973
 20
513.254733
 30
0.0
 11
452.609973
 21
505.945267
 31
0.0
  0
LINE
  8
LC-009-003-----0
  6
CONTINUOUS
  5
1ED
 10
452.547692
 20
506.895497
 30
0.0
 11
473.090429
 21
509.6
 31
0.0
  0
LINE
  8
LC-009-003-----0
  6
CONTINUOUS
  5
1EE
 10
473.090429
 20
509.6
 30
0.0
 11
452.547692
 21
512.304503
 31
0.0
  0
LINE
  8
LC-009-003-----0
  6
CONTINUOUS
  5
1EF
 10
452.48541
 20
507.845728
 30
0.0
 11
465.810429
 21
509.6
 31
0.0
  0
LINE
  8
LC-009-003-----0
  6
CONTINUOUS
  5
1F0
 10
465.810429
 20
509.6
 30
0.0
 11
452.48541
 21
511.354272
 31
0.0
  0
LINE
  8
LC-009-003-----0
  6
CONTINUOUS
  5
1F1
 10
452.423129
 20
508.795959
 30
0.0
 11
458.530429
 21
509.6
 31
0.0
  0
LINE
  8
LC-009-003-----0
  6
CONTINUOUS
  5
1F2
 10
458.530429
 20
509.6
 30
0.0
 11
452.423129
 21
510.404041
 31
0.0
  0
TEXT
  8
LC-009-003-----0
  6
CONTINUOUS
 62
     8
  5
1F4
 10
296.470527
 20
517.427554
 30
0.0
 40
28.0
  1
Ø300
 41
0.9
 51
15.0
  7
LC-TXTSTYLE-150-400-0-0-D0
 72
     1
 11
334.568165
 21
517.427554
 31
0.0
  0
ENDBLK
  8
0
  5
1F5
  0
BLOCK
  8
0
  5
1F7
  2
*D9
 70
    65
 10
0.0
 20
0.0
 30
0.0
  3
*D9
  0
LINE
  8
LC-010-003-MTH-0
  6
CONTINUOUS
  5
1F8
 10
292.723967
 20
175.182374
 30
0.0
 11
292.723967
 21
100.8
 31
0.0
  0
LINE
  8
LC-010-003-MTH-0
  6
CONTINUOUS
  5
1F9
 10
367.723729
 20
175.182374
 30
0.0
 11
367.723729
 21
100.8
 31
0.0
  0
LINE
  8
LC-009-003-----0
  6
CONTINUOUS
  5
1FA
 10
264.963511
 20
113.945267
 30
0.0
 11
292.723967
 21
117.6
 31
0.0
  0
LINE
  8
LC-009-003-----0
  6
CONTINUOUS
  5
1FB
 10
292.723967
 20
117.6
 30
0.0
 11
264.963511
 21
121.254733
 31
0.0
  0
LINE
  8
LC-009-003-----0
  6
CONTINUOUS
  5
1FC
 10
264.963511
 20
121.254733
 30
0.0
 11
264.963511
 21
113.945267
 31
0.0
  0
LINE
  8
LC-009-003-----0
  6
CONTINUOUS
  5
1FD
 10
264.901229
 20
114.895497
 30
0.0
 11
285.443967
 21
117.6
 31
0.0
  0
LINE
  8
LC-009-003-----0
  6
CONTINUOUS
  5
1FE
 10
285.443967
 20
117.6
 30
0.0
 11
264.901229
 21
120.304503
 31
0.0
  0
LINE
  8
LC-009-003-----0
  6
CONTINUOUS
  5
1FF
 10
264.838948
 20
115.845728
 30
0.0
 11
278.163967
 21
117.6
 31
0.0
  0
LINE
  8
LC-009-003-----0
  6
CONTINUOUS
  5
200
 10
278.163967
 20
117.6
 30
0.0
 11
264.838948
 21
119.354272
 31
0.0
  0
LINE
  8
LC-009-003-----0
  6
CONTINUOUS
  5
201
 10
264.776666
 20
116.795959
 30
0.0
 11
270.883967
 21
117.6
 31
0.0
  0
LINE
  8
LC-009-003-----0
  6
CONTINUOUS
  5
202
 10
270.883967
 20
117.6
 30
0.0
 11
264.776666
 21
118.404041
 31
0.0
  0
LINE
  8
LC-009-003-----0
  6
CONTINUOUS
  5
203
 10
395.484185
 20
121.254733
 30
0.0
 11
367.723729
 21
117.6
 31
0.0
  0
LINE
  8
LC-009-003-----0
  6
CONTINUOUS
  5
204
 10
367.723729
 20
117.6
 30
0.0
 11
395.484185
 21
113.945267
 31
0.0
  0
LINE
  8
LC-009-003-----0
  6
CONTINUOUS
  5
205
 10
395.484185
 20
113.945267
 30
0.0
 11
395.484185
 21
121.254733
 31
0.0
  0
LINE
  8
LC-009-003-----0
  6
CONTINUOUS
  5
206
 10
395.546466
 20
120.304503
 30
0.0
 11
375.003729
 21
117.6
 31
0.0
  0
LINE
  8
LC-009-003-----0
  6
CONTINUOUS
  5
207
 10
375.003729
 20
117.6
 30
0.0
 11
395.546466
 21
114.895497
 31
0.0
  0
LINE
  8
LC-009-003-----0
  6
CONTINUOUS
  5
208
 10
395.608748
 20
119.354272
 30
0.0
 11
382.283729
 21
117.6
 31
0.0
  0
LINE
  8
LC-009-003-----0
  6
CONTINUOUS
  5
209
 10
382.283729
 20
117.6
 30
0.0
 11
395.608748
 21
115.845728
 31
0.0
  0
LINE
  8
LC-009-003-----0
  6
CONTINUOUS
  5
20A
 10
395.671029
 20
118.404041
 30
0.0
 11
389.563729
 21
117.6
 31
0.0
  0
LINE
  8
LC-009-003-----0
  6
CONTINUOUS
  5
20B
 10
389.563729
 20
117.6
 30
0.0
 11
395.671029
 21
116.795959
 31
0.0
  0
LINE
  8
LC-011-003-MTG-0
  6
CONTINUOUS
  5
20C
 10
253.523967
 20
117.6
 30
0.0
 11
496.693829
 21
117.6
 31
0.0
  0
TEXT
  8
LC-009-003-----0
  6
CONTINUOUS
 62
     8
  5
20D
 10
410.151889
 20
125.427554
 30
0.0
 40
28.0
  1
DN70
 51
15.0
  7
LC-TXTSTYLE-150-400-0-0-D0
  0
ENDBLK
  8
0
  5
20E
  0
BLOCK
  8
0
  5
210
  2
*D10
 70
    65
 10
0.0
 20
0.0
 30
0.0
  3
*D10
  0
LINE
  8
LC-010-003-MTH-0
  6
CONTINUOUS
  5
211
 10
305.223868
 20
181.097634
 30
0.0
 11
305.223868
 21
140.0
 31
0.0
  0
LINE
  8
LC-010-003-MTH-0
  6
CONTINUOUS
  5
212
 10
355.223869
 20
181.097634
 30
0.0
 11
355.223869
 21
140.0
 31
0.0
  0
LINE
  8
LC-009-003-----0
  6
CONTINUOUS
  5
213
 10
277.463412
 20
153.145267
 30
0.0
 11
305.223868
 21
156.8
 31
0.0
  0
LINE
  8
LC-009-003-----0
  6
CONTINUOUS
  5
214
 10
305.223868
 20
156.8
 30
0.0
 11
277.463412
 21
160.454733
 31
0.0
  0
LINE
  8
LC-009-003-----0
  6
CONTINUOUS
  5
215
 10
277.463412
 20
160.454733
 30
0.0
 11
277.463412
 21
153.145267
 31
0.0
  0
LINE
  8
LC-009-003-----0
  6
CONTINUOUS
  5
216
 10
277.40113
 20
154.095497
 30
0.0
 11
297.943868
 21
156.8
 31
0.0
  0
LINE
  8
LC-009-003-----0
  6
CONTINUOUS
  5
217
 10
297.943868
 20
156.8
 30
0.0
 11
277.40113
 21
159.504503
 31
0.0
  0
LINE
  8
LC-009-003-----0
  6
CONTINUOUS
  5
218
 10
277.338849
 20
155.045728
 30
0.0
 11
290.663868
 21
156.8
 31
0.0
  0
LINE
  8
LC-009-003-----0
  6
CONTINUOUS
  5
219
 10
290.663868
 20
156.8
 30
0.0
 11
277.338849
 21
158.554272
 31
0.0
  0
LINE
  8
LC-009-003-----0
  6
CONTINUOUS
  5
21A
 10
277.276567
 20
155.995959
 30
0.0
 11
283.383868
 21
156.8
 31
0.0
  0
LINE
  8
LC-009-003-----0
  6
CONTINUOUS
  5
21B
 10
283.383868
 20
156.8
 30
0.0
 11
277.276567
 21
157.604041
 31
0.0
  0
LINE
  8
LC-009-003-----0
  6
CONTINUOUS
  5
21C
 10
382.984325
 20
160.454733
 30
0.0
 11
355.223869
 21
156.8
 31
0.0
  0
LINE
  8
LC-009-003-----0
  6
CONTINUOUS
  5
21D
 10
355.223869
 20
156.8
 30
0.0
 11
382.984325
 21
153.145267
 31
0.0
  0
LINE
  8
LC-009-003-----0
  6
CONTINUOUS
  5
21E
 10
382.984325
 20
153.145267
 30
0.0
 11
382.984325
 21
160.454733
 31
0.0
  0
LINE
  8
LC-009-003-----0
  6
CONTINUOUS
  5
21F
 10
383.046606
 20
159.504503
 30
0.0
 11
362.503869
 21
156.8
 31
0.0
  0
LINE
  8
LC-009-003-----0
  6
CONTINUOUS
  5
220
 10
362.503869
 20
156.8
 30
0.0
 11
383.046606
 21
154.095497
 31
0.0
  0
LINE
  8
LC-009-003-----0
  6
CONTINUOUS
  5
221
 10
383.108888
 20
158.554272
 30
0.0
 11
369.783869
 21
156.8
 31
0.0
  0
LINE
  8
LC-009-003-----0
  6
CONTINUOUS
  5
222
 10
369.783869
 20
156.8
 30
0.0
 11
383.108888
 21
155.045728
 31
0.0
  0
LINE
  8
LC-009-003-----0
  6
CONTINUOUS
  5
223
 10
383.171169
 20
157.604041
 30
0.0
 11
377.063869
 21
156.8
 31
0.0
  0
LINE
  8
LC-009-003-----0
  6
CONTINUOUS
  5
224
 10
377.063869
 20
156.8
 30
0.0
 11
383.171169
 21
155.995959
 31
0.0
  0
LINE
  8
LC-011-003-MTG-0
  6
CONTINUOUS
  5
225
 10
266.023868
 20
156.8
 30
0.0
 11
498.686911
 21
156.8
 31
0.0
  0
TEXT
  8
LC-009-003-----0
  6
CONTINUOUS
 62
     8
  5
226
 10
412.144971
 20
164.627554
 30
0.0
 40
28.0
  1
DN50
 51
15.0
  7
LC-TXTSTYLE-150-400-0-0-D0
  0
ENDBLK
  8
0
  5
227
  0
BLOCK
  8
0
  5
229
  2
*D11
 70
    65
 10
0.0
 20
0.0
 30
0.0
  3
*D11
  0
LINE
  8
LC-010-003-MTH-0
  6
CONTINUOUS
  5
22A
 10
262.242945
 20
230.69616
 30
0.0
 11
139.2
 21
230.69616
 31
0.0
  0
LINE
  8
LC-010-003-MTH-0
  6
CONTINUOUS
  5
22B
 10
180.069581
 20
340.481407
 30
0.0
 11
139.2
 21
340.481407
 31
0.0
  0
LINE
  8
LC-011-003-MTG-0
  6
CONTINUOUS
  5
22C
 10
156.0
 20
230.69616
 30
0.0
 11
156.0
 21
340.481407
 31
0.0
  0
LINE
  8
LC-009-003-----0
  6
CONTINUOUS
  5
22D
 10
152.345267
 20
258.456616
 30
0.0
 11
156.0
 21
230.69616
 31
0.0
  0
LINE
  8
LC-009-003-----0
  6
CONTINUOUS
  5
22E
 10
156.0
 20
230.69616
 30
0.0
 11
159.654733
 21
258.456616
 31
0.0
  0
LINE
  8
LC-009-003-----0
  6
CONTINUOUS
  5
22F
 10
159.654733
 20
258.456616
 30
0.0
 11
152.345267
 21
258.456616
 31
0.0
  0
LINE
  8
LC-009-003-----0
  6
CONTINUOUS
  5
230
 10
153.295497
 20
258.518897
 30
0.0
 11
156.0
 21
237.97616
 31
0.0
  0
LINE
  8
LC-009-003-----0
  6
CONTINUOUS
  5
231
 10
156.0
 20
237.97616
 30
0.0
 11
158.704503
 21
258.518897
 31
0.0
  0
LINE
  8
LC-009-003-----0
  6
CONTINUOUS
  5
232
 10
154.245728
 20
258.581179
 30
0.0
 11
156.0
 21
245.25616
 31
0.0
  0
LINE
  8
LC-009-003-----0
  6
CONTINUOUS
  5
233
 10
156.0
 20
245.25616
 30
0.0
 11
157.754272
 21
258.581179
 31
0.0
  0
LINE
  8
LC-009-003-----0
  6
CONTINUOUS
  5
234
 10
155.195959
 20
258.64346
 30
0.0
 11
156.0
 21
252.53616
 31
0.0
  0
LINE
  8
LC-009-003-----0
  6
CONTINUOUS
  5
235
 10
156.0
 20
252.53616
 30
0.0
 11
156.804041
 21
258.64346
 31
0.0
  0
LINE
  8
LC-009-003-----0
  6
CONTINUOUS
  5
236
 10
159.654733
 20
312.720951
 30
0.0
 11
156.0
 21
340.481407
 31
0.0
  0
LINE
  8
LC-009-003-----0
  6
CONTINUOUS
  5
237
 10
156.0
 20
340.481407
 30
0.0
 11
152.345267
 21
312.720951
 31
0.0
  0
LINE
  8
LC-009-003-----0
  6
CONTINUOUS
  5
238
 10
152.345267
 20
312.720951
 30
0.0
 11
159.654733
 21
312.720951
 31
0.0
  0
LINE
  8
LC-009-003-----0
  6
CONTINUOUS
  5
239
 10
158.704503
 20
312.658669
 30
0.0
 11
156.0
 21
333.201407
 31
0.0
  0
LINE
  8
LC-009-003-----0
  6
CONTINUOUS
  5
23A
 10
156.0
 20
333.201407
 30
0.0
 11
153.295497
 21
312.658669
 31
0.0
  0
LINE
  8
LC-009-003-----0
  6
CONTINUOUS
  5
23B
 10
157.754272
 20
312.596388
 30
0.0
 11
156.0
 21
325.921407
 31
0.0
  0
LINE
  8
LC-009-003-----0
  6
CONTINUOUS
  5
23C
 10
156.0
 20
325.921407
 30
0.0
 11
154.245728
 21
312.596388
 31
0.0
  0
LINE
  8
LC-009-003-----0
  6
CONTINUOUS
  5
23D
 10
156.804041
 20
312.534106
 30
0.0
 11
156.0
 21
318.641407
 31
0.0
  0
LINE
  8
LC-009-003-----0
  6
CONTINUOUS
  5
23E
 10
156.0
 20
318.641407
 30
0.0
 11
155.195959
 21
312.534106
 31
0.0
  0
TEXT
  8
LC-009-003-----0
  6
CONTINUOUS
 62
     8
  5
23F
 10
148.172446
 20
260.173164
 30
0.0
 40
28.0
  1
110
 50
90.0
 51
15.0
  7
LC-TXTSTYLE-150-400-0-0-D0
 72
     1
 11
148.172446
 21
289.936943
 31
0.0
  0
ENDBLK
  8
0
  5
240
  0
BLOCK
  8
0
  5
242
  2
*D12
 70
    65
 10
0.0
 20
0.0
 30
0.0
  3
*D12
  0
LINE
  8
LC-010-003-MTH-0
  6
CONTINUOUS
  5
243
 10
288.722946
 20
252.184189
 30
0.0
 11
191.2
 21
252.184189
 31
0.0
  0
LINE
  8
LC-010-003-MTH-0
  6
CONTINUOUS
  5
244
 10
298.965228
 20
301.684192
 30
0.0
 11
191.2
 21
301.684192
 31
0.0
  0
LINE
  8
LC-009-003-----0
  6
CONTINUOUS
  5
245
 10
211.654733
 20
224.423733
 30
0.0
 11
208.0
 21
252.184189
 31
0.0
  0
LINE
  8
LC-009-003-----0
  6
CONTINUOUS
  5
246
 10
208.0
 20
252.184189
 30
0.0
 11
204.345267
 21
224.423733
 31
0.0
  0
LINE
  8
LC-009-003-----0
  6
CONTINUOUS
  5
247
 10
204.345267
 20
224.423733
 30
0.0
 11
211.654733
 21
224.423733
 31
0.0
  0
LINE
  8
LC-009-003-----0
  6
CONTINUOUS
  5
248
 10
210.704503
 20
224.361452
 30
0.0
 11
208.0
 21
244.904189
 31
0.0
  0
LINE
  8
LC-009-003-----0
  6
CONTINUOUS
  5
249
 10
208.0
 20
244.904189
 30
0.0
 11
205.295497
 21
224.361452
 31
0.0
  0
LINE
  8
LC-009-003-----0
  6
CONTINUOUS
  5
24A
 10
209.754272
 20
224.29917
 30
0.0
 11
208.0
 21
237.624189
 31
0.0
  0
LINE
  8
LC-009-003-----0
  6
CONTINUOUS
  5
24B
 10
208.0
 20
237.624189
 30
0.0
 11
206.245728
 21
224.29917
 31
0.0
  0
LINE
  8
LC-009-003-----0
  6
CONTINUOUS
  5
24C
 10
208.804041
 20
224.236889
 30
0.0
 11
208.0
 21
230.344189
 31
0.0
  0
LINE
  8
LC-009-003-----0
  6
CONTINUOUS
  5
24D
 10
208.0
 20
230.344189
 30
0.0
 11
207.195959
 21
224.236889
 31
0.0
  0
LINE
  8
LC-009-003-----0
  6
CONTINUOUS
  5
24E
 10
204.345267
 20
329.444648
 30
0.0
 11
208.0
 21
301.684192
 31
0.0
  0
LINE
  8
LC-009-003-----0
  6
CONTINUOUS
  5
24F
 10
208.0
 20
301.684192
 30
0.0
 11
211.654733
 21
329.444648
 31
0.0
  0
LINE
  8
LC-009-003-----0
  6
CONTINUOUS
  5
250
 10
211.654733
 20
329.444648
 30
0.0
 11
204.345267
 21
329.444648
 31
0.0
  0
LINE
  8
LC-009-003-----0
  6
CONTINUOUS
  5
251
 10
205.295497
 20
329.506929
 30
0.0
 11
208.0
 21
308.964192
 31
0.0
  0
LINE
  8
LC-009-003-----0
  6
CONTINUOUS
  5
252
 10
208.0
 20
308.964192
 30
0.0
 11
210.704503
 21
329.506929
 31
0.0
  0
LINE
  8
LC-009-003-----0
  6
CONTINUOUS
  5
253
 10
206.245728
 20
329.569211
 30
0.0
 11
208.0
 21
316.244192
 31
0.0
  0
LINE
  8
LC-009-003-----0
  6
CONTINUOUS
  5
254
 10
208.0
 20
316.244192
 30
0.0
 11
209.754272
 21
329.569211
 31
0.0
  0
LINE
  8
LC-009-003-----0
  6
CONTINUOUS
  5
255
 10
207.195959
 20
329.631492
 30
0.0
 11
208.0
 21
323.524192
 31
0.0
  0
LINE
  8
LC-009-003-----0
  6
CONTINUOUS
  5
256
 10
208.0
 20
323.524192
 30
0.0
 11
208.804041
 21
329.631492
 31
0.0
  0
LINE
  8
LC-011-003-MTG-0
  6
CONTINUOUS
  5
257
 10
208.0
 20
212.984189
 30
0.0
 11
208.0
 21
340.884192
 31
0.0
  0
TEXT
  8
LC-009-003-----0
  6
CONTINUOUS
 62
     8
  5
258
 10
200.172446
 20
265.904398
 30
0.0
 40
28.0
  1
50
 50
90.0
 51
15.0
  7
LC-TXTSTYLE-150-400-0-0-D0
 72
     1
 11
200.172446
 21
281.28235
 31
0.0
  0
ENDBLK
  8
0
  5
259
  0
BLOCK
  8
0
  5
25B
  2
*D13
 70
    65
 10
0.0
 20
0.0
 30
0.0
  3
*D13
  0
LINE
  8
LC-010-003-MTH-0
  6
CONTINUOUS
  5
25C
 10
250.290811
 20
242.648294
 30
0.0
 11
250.290811
 21
61.6
 31
0.0
  0
LINE
  8
LC-010-003-MTH-0
  6
CONTINUOUS
  5
25D
 10
410.156884
 20
133.65
 30
0.0
 11
410.156884
 21
61.6
 31
0.0
  0
LINE
  8
LC-011-003-MTG-0
  6
CONTINUOUS
  5
25E
 10
250.290811
 20
78.4
 30
0.0
 11
410.156884
 21
78.4
 31
0.0
  0
LINE
  8
LC-009-003-----0
  6
CONTINUOUS
  5
25F
 10
278.051267
 20
82.054733
 30
0.0
 11
250.290811
 21
78.4
 31
0.0
  0
LINE
  8
LC-009-003-----0
  6
CONTINUOUS
  5
260
 10
250.290811
 20
78.4
 30
0.0
 11
278.051267
 21
74.745267
 31
0.0
  0
LINE
  8
LC-009-003-----0
  6
CONTINUOUS
  5
261
 10
278.051267
 20
74.745267
 30
0.0
 11
278.051267
 21
82.054733
 31
0.0
  0
LINE
  8
LC-009-003-----0
  6
CONTINUOUS
  5
262
 10
278.113548
 20
81.104503
 30
0.0
 11
257.570811
 21
78.4
 31
0.0
  0
LINE
  8
LC-009-003-----0
  6
CONTINUOUS
  5
263
 10
257.570811
 20
78.4
 30
0.0
 11
278.113548
 21
75.695497
 31
0.0
  0
LINE
  8
LC-009-003-----0
  6
CONTINUOUS
  5
264
 10
278.17583
 20
80.154272
 30
0.0
 11
264.850811
 21
78.4
 31
0.0
  0
LINE
  8
LC-009-003-----0
  6
CONTINUOUS
  5
265
 10
264.850811
 20
78.4
 30
0.0
 11
278.17583
 21
76.645728
 31
0.0
  0
LINE
  8
LC-009-003-----0
  6
CONTINUOUS
  5
266
 10
278.238111
 20
79.204041
 30
0.0
 11
272.130811
 21
78.4
 31
0.0
  0
LINE
  8
LC-009-003-----0
  6
CONTINUOUS
  5
267
 10
272.130811
 20
78.4
 30
0.0
 11
278.238111
 21
77.595959
 31
0.0
  0
LINE
  8
LC-009-003-----0
  6
CONTINUOUS
  5
268
 10
382.396428
 20
74.745267
 30
0.0
 11
410.156884
 21
78.4
 31
0.0
  0
LINE
  8
LC-009-003-----0
  6
CONTINUOUS
  5
269
 10
410.156884
 20
78.4
 30
0.0
 11
382.396428
 21
82.054733
 31
0.0
  0
LINE
  8
LC-009-003-----0
  6
CONTINUOUS
  5
26A
 10
382.396428
 20
82.054733
 30
0.0
 11
382.396428
 21
74.745267
 31
0.0
  0
LINE
  8
LC-009-003-----0
  6
CONTINUOUS
  5
26B
 10
382.334146
 20
75.695497
 30
0.0
 11
402.876884
 21
78.4
 31
0.0
  0
LINE
  8
LC-009-003-----0
  6
CONTINUOUS
  5
26C
 10
402.876884
 20
78.4
 30
0.0
 11
382.334146
 21
81.104503
 31
0.0
  0
LINE
  8
LC-009-003-----0
  6
CONTINUOUS
  5
26D
 10
382.271865
 20
76.645728
 30
0.0
 11
395.596884
 21
78.4
 31
0.0
  0
LINE
  8
LC-009-003-----0
  6
CONTINUOUS
  5
26E
 10
395.596884
 20
78.4
 30
0.0
 11
382.271865
 21
80.154272
 31
0.0
  0
LINE
  8
LC-009-003-----0
  6
CONTINUOUS
  5
26F
 10
382.209583
 20
77.595959
 30
0.0
 11
388.316884
 21
78.4
 31
0.0
  0
LINE
  8
LC-009-003-----0
  6
CONTINUOUS
  5
270
 10
388.316884
 20
78.4
 30
0.0
 11
382.209583
 21
79.204041
 31
0.0
  0
TEXT
  8
LC-009-003-----0
  6
CONTINUOUS
 62
     8
  5
271
 10
296.474369
 20
86.227554
 30
0.0
 40
28.0
  1
Ø160
 51
15.0
  7
LC-TXTSTYLE-150-400-0-0-D0
 72
     1
 11
334.572007
 21
86.227554
 31
0.0
  0
ENDBLK
  8
0
  5
272
  0
BLOCK
  8
0
  5
274
  2
*X14
 70
    65
 10
258.223902
 20
320.710209
 30
0.0
  3
*X14
  0
LINE
  8
LC-006-005-----0
  6
CONTINUOUS
  5
275
 10
283.723958
 20
412.069114
 30
0.0
 11
282.582657
 21
413.210416
 31
0.0
  0
LINE
  8
LC-006-005-----0
  6
CONTINUOUS
  5
276
 10
283.723956
 20
409.240689
 30
0.0
 11
280.223959
 21
412.740687
 31
0.0
  0
LINE
  8
LC-006-005-----0
  6
CONTINUOUS
  5
277
 10
285.223954
 20
404.912265
 30
0.0
 11
280.223957
 21
409.912262
 31
0.0
  0
LINE
  8
LC-006-005-----0
  6
CONTINUOUS
  5
278
 10
285.223952
 20
402.08384
 30
0.0
 11
280.223955
 21
407.083836
 31
0.0
  0
LINE
  8
LC-006-005-----0
  6
CONTINUOUS
  5
279
 10
285.22395
 20
399.255414
 30
0.0
 11
282.223952
 21
402.255412
 31
0.0
  0
LINE
  8
LC-006-005-----0
  6
CONTINUOUS
  5
27A
 10
280.268947
 20
404.210417
 30
0.0
 11
280.223953
 21
404.255411
 31
0.0
  0
LINE
  8
LC-006-005-----0
  6
CONTINUOUS
  5
27B
 10
285.223948
 20
396.426989
 30
0.0
 11
282.22395
 21
399.426987
 31
0.0
  0
LINE
  8
LC-006-005-----0
  6
CONTINUOUS
  5
27C
 10
283.612095
 20
395.210415
 30
0.0
 11
280.612093
 21
398.210417
 31
0.0
  0
LINE
  8
LC-006-005-----0
  6
CONTINUOUS
  5
27D
 10
280.783666
 20
395.210417
 30
0.0
 11
277.783664
 21
398.210419
 31
0.0
  0
LINE
  8
LC-006-005-----0
  6
CONTINUOUS
  5
27E
 10
277.955237
 20
395.210419
 30
0.0
 11
274.955235
 21
398.210421
 31
0.0
  0
LINE
  8
LC-006-005-----0
  6
CONTINUOUS
  5
27F
 10
275.126808
 20
395.21042
 30
0.0
 11
272.126806
 21
398.210422
 31
0.0
  0
LINE
  8
LC-006-005-----0
  6
CONTINUOUS
  5
280
 10
272.298379
 20
395.210422
 30
0.0
 11
269.298377
 21
398.210424
 31
0.0
  0
LINE
  8
LC-006-005-----0
  6
CONTINUOUS
  5
281
 10
269.46995
 20
395.210424
 30
0.0
 11
266.60231
 21
398.078064
 31
0.0
  0
LINE
  8
LC-006-005-----0
  6
CONTINUOUS
  5
282
 10
266.789973
 20
395.061974
 30
0.0
 11
264.401082
 21
397.450865
 31
0.0
  0
LINE
  8
LC-006-005-----0
  6
CONTINUOUS
  5
283
 10
264.741064
 20
394.282456
 30
0.0
 11
262.566967
 21
396.456553
 31
0.0
  0
LINE
  8
LC-006-005-----0
  6
CONTINUOUS
  5
284
 10
263.156004
 20
393.039089
 30
0.0
 11
261.03425
 21
395.160843
 31
0.0
  0
LINE
  8
LC-006-005-----0
  6
CONTINUOUS
  5
285
 10
261.984
 20
391.382666
 30
0.0
 11
259.787389
 21
393.579276
 31
0.0
  0
LINE
  8
LC-006-005-----0
  6
CONTINUOUS
  5
286
 10
261.299835
 20
389.238403
 30
0.0
 11
258.848677
 21
391.689562
 31
0.0
  0
LINE
  8
LC-006-005-----0
  6
CONTINUOUS
  5
287
 10
261.223942
 20
386.48587
 30
0.0
 11
258.296547
 21
389.413264
 31
0.0
  0
LINE
  8
LC-006-005-----0
  6
CONTINUOUS
  5
288
 10
261.22394
 20
383.657445
 30
0.0
 11
258.223942
 21
386.657443
 31
0.0
  0
LINE
  8
LC-006-005-----0
  6
CONTINUOUS
  5
289
 10
261.223938
 20
380.829019
 30
0.0
 11
258.22394
 21
383.829017
 31
0.0
  0
LINE
  8
LC-006-005-----0
  6
CONTINUOUS
  5
28A
 10
261.223936
 20
378.000594
 30
0.0
 11
258.223938
 21
381.000592
 31
0.0
  0
LINE
  8
LC-006-005-----0
  6
CONTINUOUS
  5
28B
 10
261.223934
 20
375.172169
 30
0.0
 11
258.223936
 21
378.172167
 31
0.0
  0
LINE
  8
LC-006-005-----0
  6
CONTINUOUS
  5
28C
 10
261.223932
 20
372.343744
 30
0.0
 11
258.223934
 21
375.343742
 31
0.0
  0
LINE
  8
LC-006-005-----0
  6
CONTINUOUS
  5
28D
 10
261.22393
 20
369.515318
 30
0.0
 11
258.223932
 21
372.515316
 31
0.0
  0
LINE
  8
LC-006-005-----0
  6
CONTINUOUS
  5
28E
 10
261.223929
 20
366.686893
 30
0.0
 11
258.223931
 21
369.686891
 31
0.0
  0
LINE
  8
LC-006-005-----0
  6
CONTINUOUS
  5
28F
 10
261.223927
 20
363.858468
 30
0.0
 11
258.223929
 21
366.858466
 31
0.0
  0
LINE
  8
LC-006-005-----0
  6
CONTINUOUS
  5
290
 10
261.223925
 20
361.030043
 30
0.0
 11
258.223927
 21
364.030041
 31
0.0
  0
LINE
  8
LC-006-005-----0
  6
CONTINUOUS
  5
291
 10
261.223923
 20
358.201617
 30
0.0
 11
258.223925
 21
361.201615
 31
0.0
  0
LINE
  8
LC-006-005-----0
  6
CONTINUOUS
  5
292
 10
261.223921
 20
355.373192
 30
0.0
 11
258.223923
 21
358.37319
 31
0.0
  0
LINE
  8
LC-006-005-----0
  6
CONTINUOUS
  5
293
 10
261.223919
 20
352.544767
 30
0.0
 11
258.223921
 21
355.544765
 31
0.0
  0
LINE
  8
LC-006-005-----0
  6
CONTINUOUS
  5
294
 10
261.223918
 20
349.716341
 30
0.0
 11
258.223919
 21
352.716339
 31
0.0
  0
LINE
  8
LC-006-005-----0
  6
CONTINUOUS
  5
295
 10
261.223916
 20
346.887916
 30
0.0
 11
258.223918
 21
349.887914
 31
0.0
  0
LINE
  8
LC-006-005-----0
  6
CONTINUOUS
  5
296
 10
261.223914
 20
344.059491
 30
0.0
 11
258.223916
 21
347.059489
 31
0.0
  0
LINE
  8
LC-006-005-----0
  6
CONTINUOUS
  5
297
 10
261.223912
 20
341.231066
 30
0.0
 11
258.223914
 21
344.231064
 31
0.0
  0
LINE
  8
LC-006-005-----0
  6
CONTINUOUS
  5
298
 10
261.22391
 20
338.40264
 30
0.0
 11
258.223912
 21
341.402638
 31
0.0
  0
LINE
  8
LC-006-005-----0
  6
CONTINUOUS
  5
299
 10
261.223908
 20
335.574215
 30
0.0
 11
258.22391
 21
338.574213
 31
0.0
  0
LINE
  8
LC-006-005-----0
  6
CONTINUOUS
  5
29A
 10
261.223906
 20
332.74579
 30
0.0
 11
258.223908
 21
335.745788
 31
0.0
  0
LINE
  8
LC-006-005-----0
  6
CONTINUOUS
  5
29B
 10
261.223905
 20
329.917364
 30
0.0
 11
258.223907
 21
332.917363
 31
0.0
  0
LINE
  8
LC-006-005-----0
  6
CONTINUOUS
  5
29C
 10
261.223903
 20
327.088939
 30
0.0
 11
258.223905
 21
330.088937
 31
0.0
  0
LINE
  8
LC-006-005-----0
  6
CONTINUOUS
  5
29D
 10
261.223901
 20
324.260514
 30
0.0
 11
258.223903
 21
327.260512
 31
0.0
  0
LINE
  8
LC-006-005-----0
  6
CONTINUOUS
  5
29E
 10
261.223899
 20
321.432089
 30
0.0
 11
258.691727
 21
323.96426
 31
0.0
  0
ENDBLK
  8
0
  5
29F
  0
BLOCK
  8
0
  5
2A1
  2
*X15
 70
    65
 10
375.223477
 20
320.710209
 30
0.0
  3
*X15
  0
LINE
  8
LC-006-005-----0
  6
CONTINUOUS
  5
2A2
 10
402.083849
 20
389.875745
 30
0.0
 11
393.88881
 21
398.070785
 31
0.0
  0
LINE
  8
LC-006-005-----0
  6
CONTINUOUS
  5
2A3
 10
380.223474
 20
411.736121
 30
0.0
 11
378.749179
 21
413.210416
 31
0.0
  0
LINE
  8
LC-006-005-----0
  6
CONTINUOUS
  5
2A4
 10
402.22349
 20
386.907678
 30
0.0
 11
398.936316
 21
390.194851
 31
0.0
  0
LINE
  8
LC-006-005-----0
  6
CONTINUOUS
  5
2A5
 10
394.207915
 20
394.923252
 30
0.0
 11
390.920744
 21
398.210424
 31
0.0
  0
LINE
  8
LC-006-005-----0
  6
CONTINUOUS
  5
2A6
 10
380.223476
 20
408.907692
 30
0.0
 11
376.723473
 21
412.407695
 31
0.0
  0
LINE
  8
LC-006-005-----0
  6
CONTINUOUS
  5
2A7
 10
402.223492
 20
384.079249
 30
0.0
 11
399.22349
 21
387.079251
 31
0.0
  0
LINE
  8
LC-006-005-----0
  6
CONTINUOUS
  5
2A8
 10
391.092317
 20
395.210424
 30
0.0
 11
388.092318
 21
398.210422
 31
0.0
  0
LINE
  8
LC-006-005-----0
  6
CONTINUOUS
  5
2A9
 10
380.223477
 20
406.079263
 30
0.0
 11
376.723475
 21
409.579266
 31
0.0
  0
LINE
  8
LC-006-005-----0
  6
CONTINUOUS
  5
2AA
 10
402.223494
 20
381.25082
 30
0.0
 11
399.223492
 21
384.250822
 31
0.0
  0
LINE
  8
LC-006-005-----0
  6
CONTINUOUS
  5
2AB
 10
388.263891
 20
395.210422
 30
0.0
 11
385.263893
 21
398.21042
 31
0.0
  0
LINE
  8
LC-006-005-----0
  6
CONTINUOUS
  5
2AC
 10
379.263897
 20
404.210416
 30
0.0
 11
376.263899
 21
407.210414
 31
0.0
  0
LINE
  8
LC-006-005-----0
  6
CONTINUOUS
  5
2AD
 10
402.223495
 20
378.422391
 30
0.0
 11
399.223493
 21
381.422393
 31
0.0
  0
LINE
  8
LC-006-005-----0
  6
CONTINUOUS
  5
2AE
 10
385.435466
 20
395.21042
 30
0.0
 11
382.435468
 21
398.210419
 31
0.0
  0
LINE
  8
LC-006-005-----0
  6
CONTINUOUS
  5
2AF
 10
378.22348
 20
402.422407
 30
0.0
 11
375.223478
 21
405.422409
 31
0.0
  0
LINE
  8
LC-006-005-----0
  6
CONTINUOUS
  5
2B0
 10
402.223497
 20
375.593962
 30
0.0
 11
399.223495
 21
378.593964
 31
0.0
  0
LINE
  8
LC-006-005-----0
  6
CONTINUOUS
  5
2B1
 10
382.607041
 20
395.210419
 30
0.0
 11
379.607043
 21
398.210417
 31
0.0
  0
LINE
  8
LC-006-005-----0
  6
CONTINUOUS
  5
2B2
 10
378.223482
 20
399.593978
 30
0.0
 11
375.22348
 21
402.59398
 31
0.0
  0
LINE
  8
LC-006-005-----0
  6
CONTINUOUS
  5
2B3
 10
402.223499
 20
372.765533
 30
0.0
 11
399.223497
 21
375.765535
 31
0.0
  0
LINE
  8
LC-006-005-----0
  6
CONTINUOUS
  5
2B4
 10
379.778615
 20
395.210417
 30
0.0
 11
375.223481
 21
399.765551
 31
0.0
  0
LINE
  8
LC-006-005-----0
  6
CONTINUOUS
  5
2B5
 10
402.223501
 20
369.937104
 30
0.0
 11
399.223499
 21
372.937106
 31
0.0
  0
LINE
  8
LC-006-005-----0
  6
CONTINUOUS
  5
2B6
 10
376.95019
 20
395.210415
 30
0.0
 11
375.223483
 21
396.937122
 31
0.0
  0
LINE
  8
LC-006-005-----0
  6
CONTINUOUS
  5
2B7
 10
402.223503
 20
367.108675
 30
0.0
 11
399.223501
 21
370.108677
 31
0.0
  0
LINE
  8
LC-006-005-----0
  6
CONTINUOUS
  5
2B8
 10
402.223505
 20
364.280246
 30
0.0
 11
399.223503
 21
367.280248
 31
0.0
  0
LINE
  8
LC-006-005-----0
  6
CONTINUOUS
  5
2B9
 10
402.223507
 20
361.451817
 30
0.0
 11
399.223505
 21
364.451819
 31
0.0
  0
LINE
  8
LC-006-005-----0
  6
CONTINUOUS
  5
2BA
 10
402.223508
 20
358.623388
 30
0.0
 11
399.223506
 21
361.62339
 31
0.0
  0
LINE
  8
LC-006-005-----0
  6
CONTINUOUS
  5
2BB
 10
402.22351
 20
355.794959
 30
0.0
 11
399.223508
 21
358.794961
 31
0.0
  0
LINE
  8
LC-006-005-----0
  6
CONTINUOUS
  5
2BC
 10
402.223512
 20
352.96653
 30
0.0
 11
399.22351
 21
355.966532
 31
0.0
  0
LINE
  8
LC-006-005-----0
  6
CONTINUOUS
  5
2BD
 10
402.223514
 20
350.138101
 30
0.0
 11
399.223512
 21
353.138103
 31
0.0
  0
LINE
  8
LC-006-005-----0
  6
CONTINUOUS
  5
2BE
 10
402.223516
 20
347.309672
 30
0.0
 11
399.223514
 21
350.309674
 31
0.0
  0
LINE
  8
LC-006-005-----0
  6
CONTINUOUS
  5
2BF
 10
402.223518
 20
344.481243
 30
0.0
 11
399.223516
 21
347.481245
 31
0.0
  0
LINE
  8
LC-006-005-----0
  6
CONTINUOUS
  5
2C0
 10
402.223519
 20
341.652814
 30
0.0
 11
399.223518
 21
344.652816
 31
0.0
  0
LINE
  8
LC-006-005-----0
  6
CONTINUOUS
  5
2C1
 10
402.223521
 20
338.824385
 30
0.0
 11
399.223519
 21
341.824387
 31
0.0
  0
LINE
  8
LC-006-005-----0
  6
CONTINUOUS
  5
2C2
 10
402.223523
 20
335.995956
 30
0.0
 11
399.223521
 21
338.995958
 31
0.0
  0
LINE
  8
LC-006-005-----0
  6
CONTINUOUS
  5
2C3
 10
402.223525
 20
333.167527
 30
0.0
 11
399.223523
 21
336.167529
 31
0.0
  0
LINE
  8
LC-006-005-----0
  6
CONTINUOUS
  5
2C4
 10
402.223527
 20
330.339098
 30
0.0
 11
399.223525
 21
333.3391
 31
0.0
  0
LINE
  8
LC-006-005-----0
  6
CONTINUOUS
  5
2C5
 10
402.223529
 20
327.510669
 30
0.0
 11
399.223527
 21
330.510671
 31
0.0
  0
LINE
  8
LC-006-005-----0
  6
CONTINUOUS
  5
2C6
 10
402.006295
 20
324.899476
 30
0.0
 11
399.223529
 21
327.682242
 31
0.0
  0
LINE
  8
LC-006-005-----0
  6
CONTINUOUS
  5
2C7
 10
401.408578
 20
322.668766
 30
0.0
 11
399.22353
 21
324.853813
 31
0.0
  0
LINE
  8
LC-006-005-----0
  6
CONTINUOUS
  5
2C8
 10
400.538708
 20
320.710209
 30
0.0
 11
399.223532
 21
322.025385
 31
0.0
  0
ENDBLK
  8
0
  5
2C9
  0
BLOCK
  8
0
  5
2CB
  2
*X16
 70
    65
 10
330.223716
 20
407.210209
 30
0.0
  3
*X16
  0
LINE
  8
LC-006-005-----0
  6
CONTINUOUS
  5
2CC
 10
330.223716
 20
412.238404
 30
0.0
 11
330.251911
 21
412.210209
 31
0.0
  0
LINE
  8
LC-006-005-----0
  6
CONTINUOUS
  5
2CD
 10
333.494552
 20
413.210209
 30
0.0
 11
334.494552
 21
412.210209
 31
0.0
  0
LINE
  8
LC-006-005-----0
  6
CONTINUOUS
  5
2CE
 10
338.223716
 20
408.481045
 30
0.0
 11
338.494552
 21
408.210209
 31
0.0
  0
LINE
  8
LC-006-005-----0
  6
CONTINUOUS
  5
2CF
 10
337.831911
 20
413.115491
 30
0.0
 11
339.128998
 21
411.818404
 31
0.0
  0
LINE
  8
LC-006-005-----0
  6
CONTINUOUS
  5
2D0
 10
345.223716
 20
409.966326
 30
0.0
 11
346.223716
 21
408.966326
 31
0.0
  0
LINE
  8
LC-006-005-----0
  6
CONTINUOUS
  5
2D1
 10
346.399985
 20
413.032698
 30
0.0
 11
347.222475
 21
412.210208
 31
0.0
  0
LINE
  8
LC-006-005-----0
  6
CONTINUOUS
  5
2D2
 10
350.223716
 20
409.208967
 30
0.0
 11
351.222474
 21
408.210209
 31
0.0
  0
LINE
  8
LC-006-005-----0
  6
CONTINUOUS
  5
2D3
 10
357.223716
 20
410.694248
 30
0.0
 11
358.223716
 21
409.694248
 31
0.0
  0
LINE
  8
LC-006-005-----0
  6
CONTINUOUS
  5
2D4
 10
358.966947
 20
413.193658
 30
0.0
 11
359.950396
 21
412.210209
 31
0.0
  0
LINE
  8
LC-006-005-----0
  6
CONTINUOUS
  5
2D5
 10
362.223716
 20
409.936889
 30
0.0
 11
363.223716
 21
408.936889
 31
0.0
  0
LINE
  8
LC-006-005-----0
  6
CONTINUOUS
  5
2D6
 10
369.233919
 20
411.411968
 30
0.0
 11
370.223716
 21
410.422171
 31
0.0
  0
LINE
  8
LC-006-005-----0
  6
CONTINUOUS
  5
2D7
 10
371.678318
 20
413.210209
 30
0.0
 11
372.678318
 21
412.210209
 31
0.0
  0
LINE
  8
LC-006-005-----0
  6
CONTINUOUS
  5
2D8
 10
374.223716
 20
410.664811
 30
0.0
 11
375.223716
 21
409.664811
 31
0.0
  0
ENDBLK
  8
0
  5
2D9
  0
BLOCK
  8
0
  5
2DB
  2
BLK4
 70
    64
 10
0.0
 20
0.0
 30
0.0
  3
BLK4
  0
ENDBLK
  8
0
  5
2DC
  0
BLOCK
  8
0
  5
2DE
  2
*X18
 70
    65
 10
285.223955
 20
407.210413
 30
0.0
  3
*X18
  0
LINE
  8
LC-006-005-----0
  6
CONTINUOUS
  5
2DF
 10
285.223957
 20
410.569115
 30
0.0
 11
286.223957
 21
409.569116
 31
0.0
  0
LINE
  8
LC-006-005-----0
  6
CONTINUOUS
  5
2E0
 10
286.8589
 20
413.176813
 30
0.0
 11
287.825301
 21
412.210412
 31
0.0
  0
LINE
  8
LC-006-005-----0
  6
CONTINUOUS
  5
2E1
 10
290.223957
 20
409.811757
 30
0.0
 11
291.223956
 21
408.811757
 31
0.0
  0
LINE
  8
LC-006-005-----0
  6
CONTINUOUS
  5
2E2
 10
297.225758
 20
411.295237
 30
0.0
 11
298.223957
 21
410.297038
 31
0.0
  0
LINE
  8
LC-006-005-----0
  6
CONTINUOUS
  5
2E3
 10
299.553231
 20
413.210404
 30
0.0
 11
300.553232
 21
412.210404
 31
0.0
  0
LINE
  8
LC-006-005-----0
  6
CONTINUOUS
  5
2E4
 10
302.223957
 20
410.539678
 30
0.0
 11
303.223957
 21
409.539679
 31
0.0
  0
LINE
  8
LC-006-005-----0
  6
CONTINUOUS
  5
2E5
 10
309.347228
 20
411.901689
 30
0.0
 11
310.223958
 21
411.024959
 31
0.0
  0
LINE
  8
LC-006-005-----0
  6
CONTINUOUS
  5
2E6
 10
312.281161
 20
413.210396
 30
0.0
 11
313.282901
 21
412.208657
 31
0.0
  0
LINE
  8
LC-006-005-----0
  6
CONTINUOUS
  5
2E7
 10
314.222219
 20
411.269338
 30
0.0
 11
315.223957
 21
410.2676
 31
0.0
  0
LINE
  8
LC-006-005-----0
  6
CONTINUOUS
  5
2E8
 10
321.223956
 20
408.510242
 30
0.0
 11
321.523808
 21
408.21039
 31
0.0
  0
LINE
  8
LC-006-005-----0
  6
CONTINUOUS
  5
2E9
 10
321.599614
 20
412.377225
 30
0.0
 11
322.326121
 21
411.650718
 31
0.0
  0
LINE
  8
LC-006-005-----0
  6
CONTINUOUS
  5
2EA
 10
325.009092
 20
413.210388
 30
0.0
 11
326.009092
 21
412.210387
 31
0.0
  0
LINE
  8
LC-006-005-----0
  6
CONTINUOUS
  5
2EB
 10
329.251735
 20
413.210385
 30
0.0
 11
330.223958
 21
412.238162
 31
0.0
  0
ENDBLK
  8
0
  5
2EC
  0
BLOCK
  8
0
  5
2EE
  2
*D19
 70
    65
 10
0.0
 20
0.0
 30
0.0
  3
*D19
  0
LINE
  8
LC-010-003-MTH-0
  6
CONTINUOUS
  5
2EF
 10
280.223959
 20
413.210417
 30
0.0
 11
280.223959
 21
448.0
 31
0.0
  0
LINE
  8
LC-010-003-MTH-0
  6
CONTINUOUS
  5
2F0
 10
380.223716
 20
413.210209
 30
0.0
 11
380.223716
 21
448.0
 31
0.0
  0
LINE
  8
LC-011-003-MTG-0
  6
CONTINUOUS
  5
2F1
 10
280.223959
 20
431.2
 30
0.0
 11
380.223716
 21
431.2
 31
0.0
  0
LINE
  8
LC-009-003-----0
  6
CONTINUOUS
  5
2F2
 10
307.984415
 20
434.854733
 30
0.0
 11
280.223959
 21
431.2
 31
0.0
  0
LINE
  8
LC-009-003-----0
  6
CONTINUOUS
  5
2F3
 10
280.223959
 20
431.2
 30
0.0
 11
307.984415
 21
427.545267
 31
0.0
  0
LINE
  8
LC-009-003-----0
  6
CONTINUOUS
  5
2F4
 10
307.984415
 20
427.545267
 30
0.0
 11
307.984415
 21
434.854733
 31
0.0
  0
LINE
  8
LC-009-003-----0
  6
CONTINUOUS
  5
2F5
 10
308.046697
 20
433.904503
 30
0.0
 11
287.503959
 21
431.2
 31
0.0
  0
LINE
  8
LC-009-003-----0
  6
CONTINUOUS
  5
2F6
 10
287.503959
 20
431.2
 30
0.0
 11
308.046697
 21
428.495497
 31
0.0
  0
LINE
  8
LC-009-003-----0
  6
CONTINUOUS
  5
2F7
 10
308.108978
 20
432.954272
 30
0.0
 11
294.783959
 21
431.2
 31
0.0
  0
LINE
  8
LC-009-003-----0
  6
CONTINUOUS
  5
2F8
 10
294.783959
 20
431.2
 30
0.0
 11
308.108978
 21
429.445728
 31
0.0
  0
LINE
  8
LC-009-003-----0
  6
CONTINUOUS
  5
2F9
 10
308.171259
 20
432.004041
 30
0.0
 11
302.063959
 21
431.2
 31
0.0
  0
LINE
  8
LC-009-003-----0
  6
CONTINUOUS
  5
2FA
 10
302.063959
 20
431.2
 30
0.0
 11
308.171259
 21
430.395959
 31
0.0
  0
LINE
  8
LC-009-003-----0
  6
CONTINUOUS
  5
2FB
 10
352.46326
 20
427.545267
 30
0.0
 11
380.223716
 21
431.2
 31
0.0
  0
LINE
  8
LC-009-003-----0
  6
CONTINUOUS
  5
2FC
 10
380.223716
 20
431.2
 30
0.0
 11
352.46326
 21
434.854733
 31
0.0
  0
LINE
  8
LC-009-003-----0
  6
CONTINUOUS
  5
2FD
 10
352.46326
 20
434.854733
 30
0.0
 11
352.46326
 21
427.545267
 31
0.0
  0
LINE
  8
LC-009-003-----0
  6
CONTINUOUS
  5
2FE
 10
352.400978
 20
428.495497
 30
0.0
 11
372.943716
 21
431.2
 31
0.0
  0
LINE
  8
LC-009-003-----0
  6
CONTINUOUS
  5
2FF
 10
372.943716
 20
431.2
 30
0.0
 11
352.400978
 21
433.904503
 31
0.0
  0
LINE
  8
LC-009-003-----0
  6
CONTINUOUS
  5
300
 10
352.338697
 20
429.445728
 30
0.0
 11
365.663716
 21
431.2
 31
0.0
  0
LINE
  8
LC-009-003-----0
  6
CONTINUOUS
  5
301
 10
365.663716
 20
431.2
 30
0.0
 11
352.338697
 21
432.954272
 31
0.0
  0
LINE
  8
LC-009-003-----0
  6
CONTINUOUS
  5
302
 10
352.276416
 20
430.395959
 30
0.0
 11
358.383716
 21
431.2
 31
0.0
  0
LINE
  8
LC-009-003-----0
  6
CONTINUOUS
  5
303
 10
358.383716
 20
431.2
 30
0.0
 11
352.276416
 21
432.004041
 31
0.0
  0
TEXT
  8
LC-009-003-----0
  6
CONTINUOUS
 62
     8
  5
304
 10
304.808218
 20
439.027554
 30
0.0
 40
28.0
  1
100
 51
15.0
  7
LC-TXTSTYLE-150-400-0-0-D0
 72
     1
 11
334.571997
 21
439.027554
 31
0.0
  0
ENDBLK
  8
0
  5
305
  0
BLOCK
  8
0
  5
307
  2
BLK5
 70
    64
 10
0.0
 20
0.0
 30
0.0
  3
BLK5
  0
ENDBLK
  8
0
  5
308
  0
BLOCK
  8
0
  5
30A
  2
BLK6
 70
    64
 10
0.0
 20
0.0
 30
0.0
  3
BLK6
  0
ENDBLK
  8
0
  5
30B
  0
BLOCK
  8
0
  5
30D
  2
*D22
 70
    65
 10
0.0
 20
0.0
 30
0.0
  3
*D22
  0
LINE
  8
LC-010-003-MTH-0
  6
CONTINUOUS
  5
30E
 10
402.223716
 20
343.332
 30
0.0
 11
464.8
 21
343.332
 31
0.0
  0
LINE
  8
LC-010-003-MTH-0
  6
CONTINUOUS
  5
30F
 10
380.223716
 20
413.210209
 30
0.0
 11
464.8
 21
413.210209
 31
0.0
  0
LINE
  8
LC-011-003-MTG-0
  6
CONTINUOUS
  5
310
 10
448.0
 20
343.332
 30
0.0
 11
448.0
 21
413.210209
 31
0.0
  0
LINE
  8
LC-009-003-----0
  6
CONTINUOUS
  5
311
 10
444.345267
 20
371.092456
 30
0.0
 11
448.0
 21
343.332
 31
0.0
  0
LINE
  8
LC-009-003-----0
  6
CONTINUOUS
  5
312
 10
448.0
 20
343.332
 30
0.0
 11
451.654733
 21
371.092456
 31
0.0
  0
LINE
  8
LC-009-003-----0
  6
CONTINUOUS
  5
313
 10
451.654733
 20
371.092456
 30
0.0
 11
444.345267
 21
371.092456
 31
0.0
  0
LINE
  8
LC-009-003-----0
  6
CONTINUOUS
  5
314
 10
445.295497
 20
371.154738
 30
0.0
 11
448.0
 21
350.612
 31
0.0
  0
LINE
  8
LC-009-003-----0
  6
CONTINUOUS
  5
315
 10
448.0
 20
350.612
 30
0.0
 11
450.704503
 21
371.154738
 31
0.0
  0
LINE
  8
LC-009-003-----0
  6
CONTINUOUS
  5
316
 10
446.245728
 20
371.217019
 30
0.0
 11
448.0
 21
357.892
 31
0.0
  0
LINE
  8
LC-009-003-----0
  6
CONTINUOUS
  5
317
 10
448.0
 20
357.892
 30
0.0
 11
449.754272
 21
371.217019
 31
0.0
  0
LINE
  8
LC-009-003-----0
  6
CONTINUOUS
  5
318
 10
447.195959
 20
371.2793
 30
0.0
 11
448.0
 21
365.172
 31
0.0
  0
LINE
  8
LC-009-003-----0
  6
CONTINUOUS
  5
319
 10
448.0
 20
365.172
 30
0.0
 11
448.804041
 21
371.2793
 31
0.0
  0
LINE
  8
LC-009-003-----0
  6
CONTINUOUS
  5
31A
 10
451.654733
 20
385.449753
 30
0.0
 11
448.0
 21
413.210209
 31
0.0
  0
LINE
  8
LC-009-003-----0
  6
CONTINUOUS
  5
31B
 10
448.0
 20
413.210209
 30
0.0
 11
444.345267
 21
385.449753
 31
0.0
  0
LINE
  8
LC-009-003-----0
  6
CONTINUOUS
  5
31C
 10
444.345267
 20
385.449753
 30
0.0
 11
451.654733
 21
385.449753
 31
0.0
  0
LINE
  8
LC-009-003-----0
  6
CONTINUOUS
  5
31D
 10
450.704503
 20
385.387471
 30
0.0
 11
448.0
 21
405.930209
 31
0.0
  0
LINE
  8
LC-009-003-----0
  6
CONTINUOUS
  5
31E
 10
448.0
 20
405.930209
 30
0.0
 11
445.295497
 21
385.387471
 31
0.0
  0
LINE
  8
LC-009-003-----0
  6
CONTINUOUS
  5
31F
 10
449.754272
 20
385.32519
 30
0.0
 11
448.0
 21
398.650209
 31
0.0
  0
LINE
  8
LC-009-003-----0
  6
CONTINUOUS
  5
320
 10
448.0
 20
398.650209
 30
0.0
 11
446.245728
 21
385.32519
 31
0.0
  0
LINE
  8
LC-009-003-----0
  6
CONTINUOUS
  5
321
 10
448.804041
 20
385.262909
 30
0.0
 11
448.0
 21
391.370209
 31
0.0
  0
LINE
  8
LC-009-003-----0
  6
CONTINUOUS
  5
322
 10
448.0
 20
391.370209
 30
0.0
 11
447.195959
 21
385.262909
 31
0.0
  0
TEXT
  8
LC-009-003-----0
  6
CONTINUOUS
 62
     8
  5
323
 10
440.172446
 20
347.316115
 30
0.0
 40
28.0
  1
8-69
 50
90.0
 51
15.0
  7
LC-TXTSTYLE-150-400-0-0-D0
 72
     1
 11
440.172446
 21
382.619264
 31
0.0
  0
ENDBLK
  8
0
  5
324
  0
BLOCK
  8
0
  5
326
  2
*D23
 70
    65
 10
0.0
 20
0.0
 30
0.0
  3
*D23
  0
LINE
  8
LC-010-003-MTH-0
  6
CONTINUOUS
  5
327
 10
235.718967
 20
331.230919
 30
0.0
 11
235.718967
 21
487.2
 31
0.0
  0
LINE
  8
LC-010-003-MTH-0
  6
CONTINUOUS
  5
328
 10
424.721044
 20
419.558832
 30
0.0
 11
424.721044
 21
487.2
 31
0.0
  0
LINE
  8
LC-011-003-MTG-0
  6
CONTINUOUS
  5
329
 10
235.718967
 20
470.4
 30
0.0
 11
424.721044
 21
470.4
 31
0.0
  0
LINE
  8
LC-009-003-----0
  6
CONTINUOUS
  5
32A
 10
263.479423
 20
474.054733
 30
0.0
 11
235.718967
 21
470.4
 31
0.0
  0
LINE
  8
LC-009-003-----0
  6
CONTINUOUS
  5
32B
 10
235.718967
 20
470.4
 30
0.0
 11
263.479423
 21
466.745267
 31
0.0
  0
LINE
  8
LC-009-003-----0
  6
CONTINUOUS
  5
32C
 10
263.479423
 20
466.745267
 30
0.0
 11
263.479423
 21
474.054733
 31
0.0
  0
LINE
  8
LC-009-003-----0
  6
CONTINUOUS
  5
32D
 10
263.541704
 20
473.104503
 30
0.0
 11
242.998967
 21
470.4
 31
0.0
  0
LINE
  8
LC-009-003-----0
  6
CONTINUOUS
  5
32E
 10
242.998967
 20
470.4
 30
0.0
 11
263.541704
 21
467.695497
 31
0.0
  0
LINE
  8
LC-009-003-----0
  6
CONTINUOUS
  5
32F
 10
263.603986
 20
472.154272
 30
0.0
 11
250.278967
 21
470.4
 31
0.0
  0
LINE
  8
LC-009-003-----0
  6
CONTINUOUS
  5
330
 10
250.278967
 20
470.4
 30
0.0
 11
263.603986
 21
468.645728
 31
0.0
  0
LINE
  8
LC-009-003-----0
  6
CONTINUOUS
  5
331
 10
263.666267
 20
471.204041
 30
0.0
 11
257.558967
 21
470.4
 31
0.0
  0
LINE
  8
LC-009-003-----0
  6
CONTINUOUS
  5
332
 10
257.558967
 20
470.4
 30
0.0
 11
263.666267
 21
469.595959
 31
0.0
  0
LINE
  8
LC-009-003-----0
  6
CONTINUOUS
  5
333
 10
396.960588
 20
466.745267
 30
0.0
 11
424.721044
 21
470.4
 31
0.0
  0
LINE
  8
LC-009-003-----0
  6
CONTINUOUS
  5
334
 10
424.721044
 20
470.4
 30
0.0
 11
396.960588
 21
474.054733
 31
0.0
  0
LINE
  8
LC-009-003-----0
  6
CONTINUOUS
  5
335
 10
396.960588
 20
474.054733
 30
0.0
 11
396.960588
 21
466.745267
 31
0.0
  0
LINE
  8
LC-009-003-----0
  6
CONTINUOUS
  5
336
 10
396.898306
 20
467.695497
 30
0.0
 11
417.441044
 21
470.4
 31
0.0
  0
LINE
  8
LC-009-003-----0
  6
CONTINUOUS
  5
337
 10
417.441044
 20
470.4
 30
0.0
 11
396.898306
 21
473.104503
 31
0.0
  0
LINE
  8
LC-009-003-----0
  6
CONTINUOUS
  5
338
 10
396.836025
 20
468.645728
 30
0.0
 11
410.161044
 21
470.4
 31
0.0
  0
LINE
  8
LC-009-003-----0
  6
CONTINUOUS
  5
339
 10
410.161044
 20
470.4
 30
0.0
 11
396.836025
 21
472.154272
 31
0.0
  0
LINE
  8
LC-009-003-----0
  6
CONTINUOUS
  5
33A
 10
396.773744
 20
469.595959
 30
0.0
 11
402.881044
 21
470.4
 31
0.0
  0
LINE
  8
LC-009-003-----0
  6
CONTINUOUS
  5
33B
 10
402.881044
 20
470.4
 30
0.0
 11
396.773744
 21
471.204041
 31
0.0
  0
TEXT
  8
LC-009-003-----0
  6
CONTINUOUS
 62
     8
  5
33C
 10
296.470528
 20
478.227554
 30
0.0
 40
28.0
  1
Ø190
 51
15.0
  7
LC-TXTSTYLE-150-400-0-0-D0
 72
     1
 11
334.568165
 21
478.227554
 31
0.0
  0
ENDBLK
  8
0
  5
33D
  0
ENDSEC
  0
SECTION
  2
ENTITIES
  0
VIEWPORT
  8
LC-000
  5
4CD
 67
     1
 68
     1
 10
420.0
 20
297.0
 30
0.0
 40
840.0
 41
594.0
 69
     1
1001
ACAD
1000
MVIEW
1002
{
1070
    16
1010
0.0
1020
0.0
1030
0.0
1010
0.0
1020
0.0
1030
1.0
1040
0.0
1040
594.0
1040
420.0
1040
297.0
1040
50.0
1040
0.0
1040
0.0
1070
     0
1070
   100
1070
     1
1070
     1
1070
     0
1070
     0
1070
     0
1070
     0
1040
0.0
1040
0.0
1040
0.0
1040
1.0
1040
1.0
1040
0.0
1040
0.0
1070
     0
1002
{
1002
}
1002
}
  0
VIEWPORT
  8
0
  5
4CE
 67
     1
 68
     1
 10
0.0
 20
0.0
 30
0.0
 40
0.0
 41
0.0
 69
     1
1001
ACAD
1000
MVIEW
1002
{
1070
    16
1010
0.0
1020
0.0
1030
0.0
1010
0.0
1020
0.0
1030
1.0
1040
0.0
1040
594.0
1040
0.0
1040
0.0
1040
50.0
1040
0.0
1040
0.0
1070
     0
1070
   100
1070
     0
1070
     1
1070
     0
1070
     0
1070
     0
1070
     0
1040
0.0
1040
0.0
1040
0.0
1040
0.5
1040
0.5
1040
0.5
1040
0.5
1070
     0
1002
{
1002
}
1002
}
  0
INSERT
  8
0
  5
33E
  2
*X0
 10
350.221328
 20
171.694578
 30
0.0
  0
INSERT
  8
0
  5
33F
  2
*X1
 10
180.069581
 20
171.696159
 30
0.0
  0
INSERT
  8
0
  5
341
  2
BLK1
 10
0.0
 20
0.0
 30
0.0
  0
INSERT
  8
0
  5
342
  2
*X3
 10
288.722942
 20
252.184189
 30
0.0
  0
INSERT
  8
0
  5
343
  2
BLK2
 10
0.0
 20
0.0
 30
0.0
  0
INSERT
  8
0
  5
345
  2
BLK3
 10
0.0
 20
0.0
 30
0.0
  0
INSERT
  8
0
  5
346
  2
*X6
 10
399.723716
 20
317.710209
 30
0.0
  0
INSERT
  8
0
  5
347
  2
*X7
 10
238.473716
 20
317.710209
 30
0.0
  0
DIMENSION
  8
0
  5
348
  2
*D8
 10
330.220005
 20
509.6
 30
0.0
 11
330.220005
 21
509.6
 31
0.0
  1
%%c300
 13
180.069581
 23
340.481407
 33
0.0
 14
480.370429
 24
340.481407
 34
0.0
  3
LC-DIM-L-0140-02-02
  0
DIMENSION
  8
0
  5
349
  2
*D9
 10
330.223848
 20
117.6
 30
0.0
 11
330.223848
 21
117.6
 31
0.0
  1
DN70
 13
292.723967
 23
175.182374
 33
0.0
 14
367.723729
 24
175.182374
 34
0.0
  3
LC-DIM-L-0140-02-02
  0
DIMENSION
  8
0
  5
34A
  2
*D10
 10
448.201861
 20
156.8
 30
0.0
 11
448.201861
 21
156.8
 31
0.0
  1
DN50
 13
305.223868
 23
181.097634
 33
0.0
 14
355.223869
 24
181.097634
 34
0.0
  3
LC-DIM-L-0140-02-02
  0
DIMENSION
  8
0
  5
34B
  2
*D11
 10
156.0
 20
285.588783
 30
0.0
 11
156.0
 21
285.588783
 31
0.0
  1
110
 13
180.069581
 23
340.481407
 33
0.0
 14
262.242945
 24
230.69616
 34
0.0
 50
90.0
  3
LC-DIM-L-0140-02-02
  0
DIMENSION
  8
0
  5
34C
  2
*D12
 10
208.0
 20
276.93419
 30
0.0
 11
208.0
 21
276.93419
 31
0.0
  1
50
 13
288.722946
 23
252.184189
 33
0.0
 14
298.965228
 24
301.684192
 34
0.0
 50
90.0
  3
LC-DIM-L-0140-02-02
  0
DIMENSION
  8
0
  5
34D
  2
*D13
 10
330.223847
 20
78.4
 30
0.0
 11
330.223847
 21
78.4
 31
0.0
  1
%%c160
 13
250.290811
 23
242.648294
 33
0.0
 14
410.156884
 24
133.65
 34
0.0
  3
LC-DIM-L-0140-02-02
  0
INSERT
  8
0
  5
34E
  2
*X14
 10
258.223902
 20
320.710209
 30
0.0
  0
INSERT
  8
0
  5
34F
  2
*X15
 10
375.223477
 20
320.710209
 30
0.0
  0
INSERT
  8
0
  5
350
  2
*X16
 10
330.223716
 20
407.210209
 30
0.0
  0
INSERT
  8
0
  5
351
  2
BLK4
 10
0.0
 20
0.0
 30
0.0
  0
INSERT
  8
0
  5
352
  2
*X18
 10
285.223955
 20
407.210413
 30
0.0
  0
DIMENSION
  8
0
  5
353
  2
*D19
 10
330.223837
 20
431.2
 30
0.0
 11
330.223837
 21
431.2
 31
0.0
 13
280.223959
 23
413.210417
 33
0.0
 14
380.223716
 24
413.210209
 34
0.0
  3
LC-DIM-L-0140-02-02
  0
INSERT
  8
0
  5
354
  2
BLK5
 10
0.0
 20
0.0
 30
0.0
  0
INSERT
  8
0
  5
355
  2
BLK6
 10
0.0
 20
0.0
 30
0.0
  0
DIMENSION
  8
0
  5
356
  2
*D22
 10
448.0
 20
378.271105
 30
0.0
 11
448.0
 21
378.271105
 31
0.0
  1
8-69
 13
402.223716
 23
343.332
 33
0.0
 14
380.223716
 24
413.210209
 34
0.0
 50
90.0
  3
LC-DIM-L-0140-02-02
  0
DIMENSION
  8
0
  5
357
  2
*D23
 10
330.220005
 20
470.4
 30
0.0
 11
330.220005
 21
470.4
 31
0.0
  1
%%c190
 13
235.718967
 23
331.230919
 33
0.0
 14
424.721044
 24
419.558832
 34
0.0
  3
LC-DIM-L-0140-02-02
  0
LINE
  8
LC-001-103-D00-1
  6
CONTINUOUS
  5
359
 10
355.223869
 20
181.097634
 30
0.0
 11
354.289775
 21
177.611593
 31
0.0
  0
ARC
  8
LC-002-002-----0
  6
CONTINUOUS
  5
35B
 10
398.204749
 20
242.648441
 30
0.0
 40
11.952134
 50
269.999963
 51
0.0
  0
LINE
  8
LC-002-002-----0
  6
CONTINUOUS
  5
35C
 10
364.63241
 20
230.696346
 30
0.0
 11
364.63241
 21
230.749049
 31
0.0
  0
ARC
  8
LC-003-002-RND-0
  6
CONTINUOUS
  5
35E
 10
182.069581
 20
341.332
 30
0.0
 40
2.0
 50
86.000003
 51
180.0
  0
LINE
  8
LC-002-002-----0
  6
CONTINUOUS
  5
35F
 10
367.723728
 20
230.696336
 30
0.0
 11
367.723729
 21
175.182374
 31
0.0
  0
LINE
  8
LC-002-002-----0
  6
CONTINUOUS
  5
360
 10
295.807759
 20
233.684193
 30
0.0
 11
296.853571
 21
233.684193
 31
0.0
  0
LINE
  8
LC-002-002-----0
  6
CONTINUOUS
  5
361
 10
367.723729
 20
175.182374
 30
0.0
 11
366.789648
 21
171.696336
 31
0.0
  0
LINE
  8
LC-002-002-----0
  6
CONTINUOUS
  5
362
 10
292.723966
 20
230.69616
 30
0.0
 11
292.723967
 21
175.182374
 31
0.0
  0
LINE
  8
LC-002-002-----0
  6
CONTINUOUS
  5
363
 10
292.723967
 20
175.182374
 30
0.0
 11
293.658095
 21
171.696335
 31
0.0
  0
LINE
  8
LC-002-002-----0
  6
CONTINUOUS
  5
364
 10
364.632412
 20
233.684193
 30
0.0
 11
364.632412
 21
233.684193
 31
0.0
  0
LINE
  8
LC-002-002-----0
  6
CONTINUOUS
  5
365
 10
243.818114
 20
328.340239
 30
0.0
 11
243.818114
 21
334.814311
 31
0.0
  0
LINE
  8
LC-002-002-----0
  6
CONTINUOUS
  5
366
 10
241.826091
 20
334.814311
 30
0.0
 11
243.818114
 21
334.814311
 31
0.0
  0
LINE
  8
LC-002-002-----0
  6
CONTINUOUS
  5
367
 10
416.621897
 20
328.340239
 30
0.0
 11
416.621897
 21
334.814311
 31
0.0
  0
LINE
  8
LC-002-002-----0
  6
CONTINUOUS
  5
368
 10
418.613919
 20
334.814311
 30
0.0
 11
416.621897
 21
334.814311
 31
0.0
  0
LINE
  8
LC-002-002-----0
  6
CONTINUOUS
  5
369
 10
418.613919
 20
328.838244
 30
0.0
 11
418.613919
 21
334.814311
 31
0.0
  0
LINE
  8
LC-002-002-----0
  6
CONTINUOUS
  5
36A
 10
241.826091
 20
328.838244
 30
0.0
 11
241.826091
 21
334.814311
 31
0.0
  0
LINE
  8
LC-002-002-----0
  6
CONTINUOUS
  5
36B
 10
239.834069
 20
328.838244
 30
0.0
 11
241.826091
 21
328.838244
 31
0.0
  0
LINE
  8
LC-002-002-----0
  6
CONTINUOUS
  5
36C
 10
253.029842
 20
242.648294
 30
0.0
 11
253.029842
 21
308.167458
 31
0.0
  0
ARC
  8
LC-002-002-----0
  6
CONTINUOUS
  5
36D
 10
262.242945
 20
242.648294
 30
0.0
 40
11.952134
 50
180.0
 51
270.0
  0
LINE
  8
LC-002-002-----0
  6
CONTINUOUS
  5
36E
 10
364.632376
 20
171.696336
 30
0.0
 11
364.632401
 21
230.696336
 31
0.0
  0
LINE
  8
LC-002-002-----0
  6
CONTINUOUS
  5
36F
 10
366.789648
 20
171.696336
 30
0.0
 11
330.220132
 21
171.696351
 31
0.0
  0
LINE
  8
LC-002-002-----0
  6
CONTINUOUS
  5
370
 10
252.482035
 20
316.583753
 30
0.0
 11
252.681238
 21
316.583753
 31
0.0
  0
LINE
  8
LC-002-002-----0
  6
CONTINUOUS
  5
371
 10
243.816738
 20
317.878568
 30
0.0
 11
243.816738
 21
334.810758
 31
0.0
  0
LINE
  8
LC-002-002-----0
  6
CONTINUOUS
  5
372
 10
420.605941
 20
328.838244
 30
0.0
 11
418.613919
 21
328.838244
 31
0.0
  0
LINE
  8
LC-002-002-----0
  6
CONTINUOUS
  5
373
 10
252.482035
 20
313.097714
 30
0.0
 11
252.482035
 21
314.591731
 31
0.0
  0
LINE
  8
LC-002-002-----0
  6
CONTINUOUS
  5
374
 10
252.482035
 20
309.661475
 30
0.0
 11
252.482035
 21
310.159481
 31
0.0
  0
LINE
  8
LC-002-002-----0
  6
CONTINUOUS
  5
375
 10
252.482035
 20
308.167458
 30
0.0
 11
252.482035
 21
311.105691
 31
0.0
  0
LINE
  8
LC-002-002-----0
  6
CONTINUOUS
  5
376
 10
252.482035
 20
308.167458
 30
0.0
 11
288.722954
 21
308.167458
 31
0.0
  0
LINE
  8
LC-002-002-----0
  6
CONTINUOUS
  5
377
 10
252.482035
 20
311.105691
 30
0.0
 11
252.681238
 21
311.105691
 31
0.0
  0
LINE
  8
LC-002-002-----0
  6
CONTINUOUS
  5
378
 10
253.478047
 20
311.9025
 30
0.0
 11
253.478047
 21
312.300905
 31
0.0
  0
LINE
  8
LC-002-002-----0
  6
CONTINUOUS
  5
379
 10
253.478047
 20
315.38854
 30
0.0
 11
253.478047
 21
315.786944
 31
0.0
  0
LINE
  8
LC-002-002-----0
  6
CONTINUOUS
  5
37A
 10
252.482035
 20
314.591731
 30
0.0
 11
252.681238
 21
314.591731
 31
0.0
  0
ARC
  8
LC-002-002-----0
  6
CONTINUOUS
  5
37B
 10
252.681238
 20
315.786944
 30
0.0
 40
0.796809
 50
0.0
 51
90.0
  0
ARC
  8
LC-002-002-----0
  6
CONTINUOUS
  5
37C
 10
252.681238
 20
312.300905
 30
0.0
 40
0.796809
 50
0.0
 51
90.0
  0
LINE
  8
LC-002-002-----0
  6
CONTINUOUS
  5
37D
 10
220.280479
 20
338.728864
 30
0.0
 11
238.387696
 21
337.401854
 31
0.0
  0
LINE
  8
LC-002-002-----0
  6
CONTINUOUS
  5
37E
 10
239.781861
 20
328.834691
 30
0.0
 11
241.824716
 21
328.834691
 31
0.0
  0
ARC
  8
LC-002-002-----0
  6
CONTINUOUS
  5
37F
 10
252.681238
 20
311.9025
 30
0.0
 40
0.796809
 50
270.0
 51
0.0
  0
ARC
  8
LC-002-002-----0
  6
CONTINUOUS
  5
380
 10
252.681238
 20
315.38854
 30
0.0
 40
0.796809
 50
270.0
 51
0.0
  0
LINE
  8
LC-002-002-----0
  6
CONTINUOUS
  5
381
 10
407.410169
 20
242.648294
 30
0.0
 11
407.410169
 21
308.167458
 31
0.0
  0
ARC
  8
LC-002-002-----0
  6
CONTINUOUS
  5
382
 10
244.314744
 20
317.878568
 30
0.0
 40
0.498006
 50
180.0
 51
270.0
  0
LINE
  8
LC-002-002-----0
  6
CONTINUOUS
  5
383
 10
241.824716
 20
328.834691
 30
0.0
 11
241.824716
 21
334.810758
 31
0.0
  0
LINE
  8
LC-002-002-----0
  6
CONTINUOUS
  5
384
 10
182.209094
 20
343.327128
 30
0.0
 11
214.410405
 21
341.075395
 31
0.0
  0
ARC
  8
LC-002-002-----0
  6
CONTINUOUS
  5
385
 10
239.781861
 20
329.830702
 30
0.0
 40
0.996011
 50
183.0
 51
270.0
  0
LINE
  8
LC-002-002-----0
  6
CONTINUOUS
  5
386
 10
180.069581
 20
340.481407
 30
0.0
 11
213.260036
 21
338.160507
 31
0.0
  0
LINE
  8
LC-002-002-----0
  6
CONTINUOUS
  5
387
 10
238.387696
 20
337.401854
 30
0.0
 11
238.787215
 21
329.778575
 31
0.0
  0
LINE
  8
LC-002-002-----0
  6
CONTINUOUS
  5
388
 10
180.069581
 20
341.332
 30
0.0
 11
180.069581
 21
340.481407
 31
0.0
  0
LINE
  8
LC-002-002-----0
  6
CONTINUOUS
  5
389
 10
407.957975
 20
316.583753
 30
0.0
 11
407.758773
 21
316.583753
 31
0.0
  0
LINE
  8
LC-002-002-----0
  6
CONTINUOUS
  5
38A
 10
235.61129
 20
333.285523
 30
0.0
 11
235.826644
 21
329.176315
 31
0.0
  0
LINE
  8
LC-002-002-----0
  6
CONTINUOUS
  5
38B
 10
213.260036
 20
338.160507
 30
0.0
 11
219.13011
 21
335.813975
 31
0.0
  0
ARC
  8
LC-003-002-RND-0
  6
CONTINUOUS
  5
38C
 10
478.370429
 20
341.332
 30
0.0
 40
2.0
 50
0.0
 51
93.999996
  0
LINE
  8
LC-002-002-----0
  6
CONTINUOUS
  5
38D
 10
478.370429
 20
343.332
 30
0.0
 11
402.223716
 21
343.332
 31
0.0
  0
LINE
  8
LC-002-002-----0
  6
CONTINUOUS
  5
38E
 10
295.807759
 20
171.696159
 30
0.0
 11
295.807759
 21
230.749027
 31
0.0
  0
LINE
  8
LC-002-002-----0
  6
CONTINUOUS
  5
38F
 10
252.482035
 20
313.097714
 30
0.0
 11
252.681238
 21
313.097714
 31
0.0
  0
LINE
  8
LC-002-002-----0
  6
CONTINUOUS
  5
390
 10
293.658142
 20
171.696159
 30
0.0
 11
330.220006
 21
171.696159
 31
0.0
  0
LINE
  8
LC-002-002-----0
  6
CONTINUOUS
  5
391
 10
250.290811
 20
242.648294
 30
0.0
 11
250.290811
 21
305.218898
 31
0.0
  0
LINE
  8
LC-002-002-----0
  6
CONTINUOUS
  5
392
 10
416.623272
 20
317.878568
 30
0.0
 11
416.623272
 21
334.810758
 31
0.0
  0
LINE
  8
LC-002-002-----0
  6
CONTINUOUS
  5
393
 10
407.957975
 20
313.097714
 30
0.0
 11
407.957975
 21
314.591731
 31
0.0
  0
LINE
  8
LC-002-002-----0
  6
CONTINUOUS
  5
394
 10
407.957975
 20
309.661475
 30
0.0
 11
407.957975
 21
310.159481
 31
0.0
  0
LINE
  8
LC-002-002-----0
  6
CONTINUOUS
  5
395
 10
407.957975
 20
308.167458
 30
0.0
 11
407.957975
 21
311.105691
 31
0.0
  0
ARC
  8
LC-002-002-----0
  6
CONTINUOUS
  5
396
 10
261.993942
 20
242.648294
 30
0.0
 40
8.964101
 50
180.0
 51
270.0
  0
ARC
  8
LC-004-001-RND-0
  6
CONTINUOUS
  5
398
 10
234.11932
 20
333.207333
 30
0.0
 40
1.494017
 50
3.0
 51
86.000003
  0
LINE
  8
LC-002-002-----0
  6
CONTINUOUS
  5
399
 10
407.957975
 20
308.167458
 30
0.0
 11
371.723149
 21
308.167458
 31
0.0
  0
LINE
  8
LC-002-002-----0
  6
CONTINUOUS
  5
39A
 10
407.957975
 20
311.105691
 30
0.0
 11
407.758773
 21
311.105691
 31
0.0
  0
LINE
  8
LC-002-002-----0
  6
CONTINUOUS
  5
39B
 10
406.961964
 20
311.9025
 30
0.0
 11
406.961964
 21
312.300905
 31
0.0
  0
LINE
  8
LC-002-002-----0
  6
CONTINUOUS
  5
39C
 10
406.961964
 20
315.38854
 30
0.0
 11
406.961964
 21
315.786944
 31
0.0
  0
LINE
  8
LC-002-002-----0
  6
CONTINUOUS
  5
39D
 10
407.957975
 20
314.591731
 30
0.0
 11
407.758773
 21
314.591731
 31
0.0
  0
LINE
  8
LC-002-002-----0
  6
CONTINUOUS
  5
39E
 10
439.580334
 20
338.6859
 30
0.0
 11
422.052315
 21
337.401854
 31
0.0
  0
ARC
  8
LC-002-002-----0
  6
CONTINUOUS
  5
39F
 10
407.758773
 20
315.786944
 30
0.0
 40
0.796809
 50
90.0
 51
180.0
  0
ARC
  8
LC-002-002-----0
  6
CONTINUOUS
  5
3A0
 10
407.758773
 20
312.300905
 30
0.0
 40
0.796809
 50
90.0
 51
180.0
  0
LINE
  8
LC-002-002-----0
  6
CONTINUOUS
  5
3A1
 10
420.65815
 20
328.834691
 30
0.0
 11
418.615295
 21
328.834691
 31
0.0
  0
LINE
  8
LC-002-002-----0
  6
CONTINUOUS
  5
3A2
 10
418.615295
 20
328.834691
 30
0.0
 11
418.615295
 21
334.810758
 31
0.0
  0
ARC
  8
LC-002-002-----0
  6
CONTINUOUS
  5
3A3
 10
407.758773
 20
311.9025
 30
0.0
 40
0.796809
 50
180.0
 51
270.0
  0
ARC
  8
LC-002-002-----0
  6
CONTINUOUS
  5
3A4
 10
407.758773
 20
315.38854
 30
0.0
 40
0.796809
 50
180.0
 51
270.0
  0
LINE
  8
LC-002-002-----0
  6
CONTINUOUS
  5
3A5
 10
478.230916
 20
343.327128
 30
0.0
 11
446.753196
 21
341.125993
 31
0.0
  0
ARC
  8
LC-002-002-----0
  6
CONTINUOUS
  5
3A6
 10
416.125267
 20
317.878568
 30
0.0
 40
0.498006
 50
270.0
 51
0.0
  0
LINE
  8
LC-002-002-----0
  6
CONTINUOUS
  5
3A7
 10
480.370429
 20
340.481407
 30
0.0
 11
447.903566
 21
338.211105
 31
0.0
  0
LINE
  8
LC-002-002-----0
  6
CONTINUOUS
  5
3A8
 10
422.052315
 20
337.401854
 30
0.0
 11
421.652795
 21
329.778575
 31
0.0
  0
ARC
  8
LC-002-002-----0
  6
CONTINUOUS
  5
3A9
 10
420.65815
 20
329.830702
 30
0.0
 40
0.996011
 50
270.0
 51
357.0
  0
LINE
  8
LC-002-002-----0
  6
CONTINUOUS
  5
3AA
 10
480.370429
 20
341.332
 30
0.0
 11
480.370429
 21
340.481407
 31
0.0
  0
LINE
  8
LC-002-002-----0
  6
CONTINUOUS
  5
3AB
 10
424.828721
 20
333.285523
 30
0.0
 11
424.613367
 21
329.176315
 31
0.0
  0
LINE
  8
LC-002-002-----0
  6
CONTINUOUS
  5
3AC
 10
447.903566
 20
338.211105
 30
0.0
 11
442.049847
 21
335.865209
 31
0.0
  0
LINE
  8
LC-002-002-----0
  6
CONTINUOUS
  5
3AD
 10
407.957975
 20
313.097714
 30
0.0
 11
407.758773
 21
313.097714
 31
0.0
  0
LINE
  8
LC-002-002-----0
  6
CONTINUOUS
  5
3AE
 10
419.362303
 20
318.376573
 30
0.0
 11
410.156884
 21
305.229871
 31
0.0
  0
LINE
  8
LC-002-002-----0
  6
CONTINUOUS
  5
3AF
 10
421.629428
 20
326.344663
 30
0.0
 11
421.354325
 21
326.344663
 31
0.0
  0
LINE
  8
LC-002-002-----0
  6
CONTINUOUS
  5
3B0
 10
241.077707
 20
318.376573
 30
0.0
 11
250.290811
 21
305.218898
 31
0.0
  0
LINE
  8
LC-005-001-----0
  6
CONTINUOUS
  5
3B2
 10
442.049847
 20
335.865209
 30
0.0
 11
426.216474
 21
334.69771
 31
0.0
  0
ARC
  8
LC-002-002-----0
  6
CONTINUOUS
  5
3B3
 10
398.446068
 20
242.648294
 30
0.0
 40
8.964101
 50
270.0
 51
0.0
  0
ARC
  8
LC-004-001-RND-0
  6
CONTINUOUS
  5
3B4
 10
426.320691
 20
333.207333
 30
0.0
 40
1.494017
 50
93.999997
 51
177.0
  0
LINE
  8
LC-002-002-----0
  6
CONTINUOUS
  5
3B5
 10
238.810582
 20
326.344663
 30
0.0
 11
239.085685
 21
326.344663
 31
0.0
  0
LINE
  8
LC-005-001-----0
  6
CONTINUOUS
  5
3B6
 10
219.13011
 20
335.813975
 30
0.0
 11
234.223538
 21
334.69771
 31
0.0
  0
LINE
  8
LC-002-002-----0
  6
CONTINUOUS
  5
3B7
 10
241.077707
 20
318.376573
 30
0.0
 11
241.077707
 21
324.35264
 31
0.0
  0
LINE
  8
LC-002-002-----0
  6
CONTINUOUS
  5
3B8
 10
244.314744
 20
317.380562
 30
0.0
 11
251.685226
 21
317.380562
 31
0.0
  0
LINE
  8
LC-002-002-----0
  6
CONTINUOUS
  5
3B9
 10
243.816738
 20
318.874579
 30
0.0
 11
243.816738
 21
320.168778
 31
0.0
  0
LINE
  8
LC-002-002-----0
  6
CONTINUOUS
  5
3BA
 10
419.362303
 20
318.376573
 30
0.0
 11
419.362303
 21
324.35264
 31
0.0
  0
ARC
  8
LC-002-002-----0
  6
CONTINUOUS
  5
3BB
 10
238.810582
 20
329.332696
 30
0.0
 40
2.988034
 50
183.0
 51
270.0
  0
ARC
  8
LC-002-002-----0
  6
CONTINUOUS
  5
3BC
 10
239.085685
 20
324.35264
 30
0.0
 40
1.992022
 50
0.0
 51
90.0
  0
LINE
  8
LC-002-002-----0
  6
CONTINUOUS
  5
3BD
 10
241.824716
 20
334.810758
 30
0.0
 11
243.816738
 21
334.810758
 31
0.0
  0
LINE
  8
LC-002-002-----0
  6
CONTINUOUS
  5
3BE
 10
252.482035
 20
309.412472
 30
0.0
 11
252.482035
 21
309.910478
 31
0.0
  0
LINE
  8
LC-002-002-----0
  6
CONTINUOUS
  5
3BF
 10
243.816738
 20
318.874579
 30
0.0
 11
243.816738
 21
320.168778
 31
0.0
  0
ARC
  8
LC-002-002-----0
  6
CONTINUOUS
  5
3C0
 10
421.629428
 20
329.332696
 30
0.0
 40
2.988034
 50
270.0
 51
357.0
  0
LINE
  8
LC-002-002-----0
  6
CONTINUOUS
  5
3C1
 10
416.125267
 20
317.380562
 30
0.0
 11
408.754784
 21
317.380562
 31
0.0
  0
ARC
  8
LC-002-002-----0
  6
CONTINUOUS
  5
3C2
 10
421.354325
 20
324.35264
 30
0.0
 40
1.992022
 50
90.0
 51
180.0
  0
LINE
  8
LC-002-002-----0
  6
CONTINUOUS
  5
3C3
 10
252.482035
 20
309.611675
 30
0.0
 11
252.482035
 21
310.10968
 31
0.0
  0
LINE
  8
LC-002-002-----0
  6
CONTINUOUS
  5
3C4
 10
416.623272
 20
318.874579
 30
0.0
 11
416.623272
 21
320.168778
 31
0.0
  0
LINE
  8
LC-002-002-----0
  6
CONTINUOUS
  5
3C5
 10
418.615295
 20
334.810758
 30
0.0
 11
416.623272
 21
334.810758
 31
0.0
  0
LINE
  8
LC-002-002-----0
  6
CONTINUOUS
  5
3C6
 10
407.957975
 20
309.412472
 30
0.0
 11
407.957975
 21
309.910478
 31
0.0
  0
LINE
  8
LC-002-002-----0
  6
CONTINUOUS
  5
3C7
 10
214.410405
 20
341.075395
 30
0.0
 11
220.280479
 21
338.728864
 31
0.0
  0
LINE
  8
LC-002-002-----0
  6
CONTINUOUS
  5
3C8
 10
416.623272
 20
318.874579
 30
0.0
 11
416.623272
 21
320.168778
 31
0.0
  0
LINE
  8
LC-002-002-----0
  6
CONTINUOUS
  5
3C9
 10
407.957975
 20
309.611675
 30
0.0
 11
407.957975
 21
310.10968
 31
0.0
  0
LINE
  8
LC-002-002-----0
  6
CONTINUOUS
  5
3CA
 10
446.753196
 20
341.125993
 30
0.0
 11
439.580334
 21
338.6859
 31
0.0
  0
LINE
  8
LC-002-002-----0
  6
CONTINUOUS
  5
3CB
 10
398.204742
 20
230.696307
 30
0.0
 11
367.723728
 21
230.696336
 31
0.0
  0
LINE
  8
LC-002-002-----0
  6
CONTINUOUS
  5
3CC
 10
292.723966
 20
230.69616
 30
0.0
 11
262.242945
 21
230.69616
 31
0.0
  0
ARC
  8
LC-002-002-----0
  6
CONTINUOUS
  5
3CD
 10
251.685226
 20
316.583753
 30
0.0
 40
0.796809
 50
0.0
 51
90.0
  0
LINE
  8
LC-002-002-----0
  6
CONTINUOUS
  5
3CE
 10
261.993942
 20
233.684193
 30
0.0
 11
295.807759
 21
233.684193
 31
0.0
  0
LINE
  8
LC-002-002-----0
  6
CONTINUOUS
  5
3CF
 10
252.482035
 20
313.097714
 30
0.0
 11
252.681238
 21
313.097714
 31
0.0
  0
ARC
  8
LC-002-002-----0
  6
CONTINUOUS
  5
3D0
 10
408.754784
 20
316.583753
 30
0.0
 40
0.796809
 50
90.0
 51
180.0
  0
LINE
  8
LC-002-002-----0
  6
CONTINUOUS
  5
3D1
 10
398.446068
 20
233.684193
 30
0.0
 11
363.586568
 21
233.684193
 31
0.0
  0
LINE
  8
LC-001-103-D00-1
  6
CONTINUOUS
  5
3D2
 10
354.289775
 20
177.611593
 30
0.0
 11
352.132494
 21
177.611593
 31
0.0
  0
LINE
  8
LC-001-103-D00-1
  6
CONTINUOUS
  5
3D3
 10
352.132494
 20
177.611593
 30
0.0
 11
352.132576
 21
229.684193
 31
0.0
  0
LINE
  8
LC-002-002-----0
  6
CONTINUOUS
  5
3D4
 10
352.132494
 20
177.611593
 30
0.0
 11
308.315245
 21
177.611593
 31
0.0
  0
LINE
  8
LC-002-002-----0
  6
CONTINUOUS
  5
3D5
 10
352.132576
 20
229.684193
 30
0.0
 11
308.307699
 21
229.684179
 31
0.0
  0
LINE
  8
LC-002-002-----0
  6
CONTINUOUS
  5
3D6
 10
350.221445
 20
232.391142
 30
0.0
 11
355.42716
 21
233.78601
 31
0.0
  0
LINE
  8
LC-001-103-D00-1
  6
CONTINUOUS
  5
3D7
 10
305.223868
 20
181.097634
 30
0.0
 11
306.157963
 21
177.611593
 31
0.0
  0
LINE
  8
LC-001-103-D00-1
  6
CONTINUOUS
  5
3D8
 10
306.157963
 20
177.611593
 30
0.0
 11
308.315245
 21
177.611593
 31
0.0
  0
LINE
  8
LC-001-103-D00-1
  6
CONTINUOUS
  5
3D9
 10
308.315245
 20
177.611593
 30
0.0
 11
308.315147
 21
229.684179
 31
0.0
  0
LINE
  8
LC-002-002-----0
  6
CONTINUOUS
  5
3DA
 10
410.156884
 20
242.648441
 30
0.0
 11
410.156884
 21
305.229871
 31
0.0
  0
LINE
  8
LC-002-002-----0
  6
CONTINUOUS
  5
3DB
 10
305.02056
 20
233.785994
 30
0.0
 11
310.221445
 21
232.392421
 31
0.0
  0
LINE
  8
LC-002-002-----0
  6
CONTINUOUS
  5
3DC
 10
310.221445
 20
232.392421
 30
0.0
 11
350.221445
 21
232.392421
 31
0.0
  0
LINE
  8
LC-002-002-----0
  6
CONTINUOUS
  5
3DD
 10
346.934331
 20
301.684193
 30
0.0
 11
358.382196
 21
301.684193
 31
0.0
  0
ARC
  8
LC-001-103-D00-1
  6
CONTINUOUS
  5
3DE
 10
363.586568
 20
236.672239
 30
0.0
 40
2.988044
 50
180.0
 51
270.000071
  0
ARC
  8
LC-001-103-D00-1
  6
CONTINUOUS
  5
3DF
 10
296.853571
 20
236.672239
 30
0.0
 40
2.988046
 50
270.0
 51
0.0
  0
LINE
  8
LC-001-103-D00-1
  6
CONTINUOUS
 62
     4
  5
3E0
 10
352.132545
 20
230.696357
 30
0.0
 11
352.132561
 21
230.696357
 31
0.0
  0
ARC
  8
LC-001-103-D00-1
  6
CONTINUOUS
  5
3E1
 10
354.653797
 20
236.672239
 30
0.0
 40
2.988045
 50
285.0
 51
359.394775
  0
LINE
  8
LC-002-002-----0
  6
CONTINUOUS
  5
3E2
 10
350.226217
 20
232.392421
 30
0.0
 11
350.226217
 21
229.684192
 31
0.0
  0
LINE
  8
LC-002-002-----0
  6
CONTINUOUS
  5
3E3
 10
310.221445
 20
232.392421
 30
0.0
 11
310.221445
 21
229.68418
 31
0.0
  0
LINE
  8
LC-002-002-----0
  6
CONTINUOUS
  5
3E4
 10
355.223869
 20
231.143347
 30
0.0
 11
358.579252
 21
232.04242
 31
0.0
  0
LINE
  8
LC-002-002-----0
  6
CONTINUOUS
  5
3E5
 10
301.868468
 20
232.042404
 30
0.0
 11
305.223855
 21
231.143331
 31
0.0
  0
LINE
  8
LC-002-002-----0
  6
CONTINUOUS
  5
3E6
 10
295.807759
 20
230.69616
 30
0.0
 11
295.807759
 21
230.69616
 31
0.0
  0
LINE
  8
LC-002-002-----0
  6
CONTINUOUS
  5
3E7
 10
364.632401
 20
230.696336
 30
0.0
 11
364.63241
 21
230.696346
 31
0.0
  0
LINE
  8
LC-002-002-----0
  6
CONTINUOUS
  5
3E8
 10
345.184329
 20
299.184193
 30
0.0
 11
358.353734
 21
299.184193
 31
0.0
  0
ARC
  8
LC-002-002-----0
  6
CONTINUOUS
  5
3E9
 10
359.680582
 20
300.419249
 30
0.0
 40
1.812703
 50
135.74746
 51
222.947976
  0
LINE
  8
LC-002-002-----0
  6
CONTINUOUS
  5
3EA
 10
358.382196
 20
301.684193
 30
0.0
 11
360.598508
 21
301.684193
 31
0.0
  0
ARC
  8
LC-002-002-----0
  6
CONTINUOUS
  5
3EB
 10
300.891285
 20
300.421849
 30
0.0
 40
1.812638
 50
316.937765
 51
44.139908
  0
LINE
  8
LC-001-103-D00-1
  6
CONTINUOUS
  5
3EC
 10
355.223869
 20
231.143347
 30
0.0
 11
355.223869
 21
181.097634
 31
0.0
  0
LINE
  8
LC-001-103-D00-1
  6
CONTINUOUS
  5
3ED
 10
361.630619
 20
230.749049
 30
0.0
 11
364.632401
 21
230.749049
 31
0.0
  0
ARC
  8
LC-001-103-D00-1
  6
CONTINUOUS
  5
3EE
 10
359.673811
 20
232.802337
 30
0.0
 40
0.489202
 50
33.69001
 51
146.309906
  0
LINE
  8
LC-001-103-D00-1
  6
CONTINUOUS
  5
3EF
 10
358.579252
 20
232.04242
 30
0.0
 11
359.266771
 21
233.073699
 31
0.0
  0
LINE
  8
LC-001-103-D00-1
  6
CONTINUOUS
  5
3F0
 10
361.630619
 20
230.749049
 30
0.0
 11
360.080853
 21
233.073699
 31
0.0
  0
ARC
  8
LC-001-103-D00-1
  6
CONTINUOUS
  5
3F1
 10
305.793923
 20
236.672224
 30
0.0
 40
2.988045
 50
180.605255
 51
255.0
  0
LINE
  8
LC-001-103-D00-1
  6
CONTINUOUS
  5
3F2
 10
298.817105
 20
230.749027
 30
0.0
 11
295.807759
 21
230.749027
 31
0.0
  0
ARC
  8
LC-001-103-D00-1
  6
CONTINUOUS
  5
3F3
 10
300.773911
 20
232.802315
 30
0.0
 40
0.489202
 50
33.69014
 51
146.310028
  0
LINE
  8
LC-001-103-D00-1
  6
CONTINUOUS
  5
3F4
 10
301.868468
 20
232.042404
 30
0.0
 11
301.180951
 21
233.073676
 31
0.0
  0
LINE
  8
LC-001-103-D00-1
  6
CONTINUOUS
  5
3F5
 10
298.817105
 20
230.749027
 30
0.0
 11
300.366869
 21
233.073676
 31
0.0
  0
LINE
  8
LC-001-103-D00-1
  6
CONTINUOUS
  5
3F6
 10
305.223855
 20
231.143331
 30
0.0
 11
305.223868
 21
181.097634
 31
0.0
  0
LINE
  8
LC-001-103-D00-1
  6
CONTINUOUS
  5
3F7
 10
358.353734
 20
299.184193
 30
0.0
 11
357.641679
 21
236.640708
 31
0.0
  0
LINE
  8
LC-001-103-D00-1
  6
CONTINUOUS
  5
3F8
 10
360.598508
 20
301.684193
 30
0.0
 11
360.598508
 21
236.672239
 31
0.0
  0
LINE
  8
LC-001-103-D00-1
  6
CONTINUOUS
  5
3F9
 10
299.841573
 20
301.684193
 30
0.0
 11
299.841573
 21
236.672239
 31
0.0
  0
LINE
  8
LC-001-103-D00-1
  6
CONTINUOUS
  5
3FA
 10
302.215622
 20
299.184193
 30
0.0
 11
302.803775
 21
236.646202
 31
0.0
  0
LINE
  8
LC-002-002-----0
  6
CONTINUOUS
  5
3FB
 10
364.223847
 20
233.684193
 30
0.0
 11
364.632412
 21
233.684193
 31
0.0
  0
LINE
  8
LC-002-002-----0
  6
CONTINUOUS
  5
3FC
 10
288.722942
 20
312.184192
 30
0.0
 11
288.723112
 21
252.184357
 31
0.0
  0
LINE
  8
LC-002-002-----0
  6
CONTINUOUS
  5
3FD
 10
289.722942
 20
312.184192
 30
0.0
 11
289.723112
 21
252.184357
 31
0.0
  0
LINE
  8
LC-002-002-----0
  6
CONTINUOUS
  5
3FE
 10
289.723112
 20
252.184357
 30
0.0
 11
288.722946
 21
252.184189
 31
0.0
  0
LINE
  8
LC-002-002-----0
  6
CONTINUOUS
  5
3FF
 10
289.723112
 20
252.184357
 30
0.0
 11
299.841573
 21
252.184357
 31
0.0
  0
ARC
  8
LC-002-002-----0
  6
CONTINUOUS
  5
400
 10
299.722942
 20
312.184192
 30
0.0
 40
10.0
 50
94.313709
 51
179.999848
  0
ARC
  8
LC-003-002-RND-0
  6
CONTINUOUS
  5
401
 10
300.722942
 20
312.184192
 30
0.0
 40
12.0
 50
90.0
 51
180.0
  0
LINE
  8
LC-002-002-----0
  6
CONTINUOUS
  5
402
 10
359.723161
 20
324.184363
 30
0.0
 11
343.972941
 21
324.184374
 31
0.0
  0
LINE
  8
LC-002-002-----0
  6
CONTINUOUS
  5
403
 10
360.723159
 20
322.184363
 30
0.0
 11
331.666318
 21
322.184363
 31
0.0
  0
LINE
  8
LC-002-002-----0
  6
CONTINUOUS
  5
404
 10
300.722942
 20
324.184192
 30
0.0
 11
316.472944
 21
324.184192
 31
0.0
  0
ARC
  8
LC-003-002-RND-0
  6
CONTINUOUS
  5
405
 10
334.972941
 20
325.184192
 30
0.0
 40
9.0
 50
0.000006
 51
90.000006
  0
ARC
  8
LC-002-002-----0
  6
CONTINUOUS
  5
406
 10
360.723153
 20
312.184363
 30
0.0
 40
10.0
 50
0.000096
 51
89.999963
  0
ARC
  8
LC-002-002-----0
  6
CONTINUOUS
  5
407
 10
359.723153
 20
312.184363
 30
0.0
 40
12.0
 50
0.000096
 51
89.999963
  0
LINE
  8
LC-002-002-----0
  6
CONTINUOUS
  5
408
 10
371.723151
 20
312.184355
 30
0.0
 11
371.723112
 21
252.184355
 31
0.0
  0
LINE
  8
LC-002-002-----0
  6
CONTINUOUS
  5
409
 10
370.723151
 20
312.184357
 30
0.0
 11
370.723277
 21
252.184521
 31
0.0
  0
LINE
  8
LC-002-002-----0
  6
CONTINUOUS
  5
40A
 10
370.723277
 20
252.184521
 30
0.0
 11
371.723112
 21
252.184355
 31
0.0
  0
LINE
  8
LC-002-002-----0
  6
CONTINUOUS
  5
40B
 10
298.965228
 20
301.684192
 30
0.0
 11
298.970779
 21
322.193213
 31
0.0
  0
LINE
  8
LC-002-002-----0
  6
CONTINUOUS
  5
40C
 10
331.658603
 20
293.684192
 30
0.0
 11
303.403054
 21
293.684192
 31
0.0
  0
LINE
  8
LC-002-002-----0
  6
CONTINUOUS
  5
40D
 10
302.465231
 20
297.184192
 30
0.0
 11
303.403054
 21
293.684192
 31
0.0
  0
LINE
  8
LC-002-002-----0
  6
CONTINUOUS
  5
40E
 10
302.465231
 20
300.269979
 30
0.0
 11
302.465231
 21
297.184192
 31
0.0
  0
ARC
  8
LC-002-002-----0
  6
CONTINUOUS
  5
40F
 10
302.215228
 20
300.977085
 30
0.0
 40
0.75
 50
289.471622
 51
70.528779
  0
LINE
  8
LC-002-002-----0
  6
CONTINUOUS
  5
410
 10
298.965228
 20
301.684192
 30
0.0
 11
302.465228
 21
301.684192
 31
0.0
  0
LINE
  8
LC-002-002-----0
  6
CONTINUOUS
  5
411
 10
334.97294
 20
330.184192
 30
0.0
 11
330.222942
 21
330.184192
 31
0.0
  0
LINE
  8
LC-002-002-----0
  6
CONTINUOUS
  5
412
 10
339.972941
 20
324.184193
 30
0.0
 11
339.972941
 21
325.184193
 31
0.0
  0
ARC
  8
LC-002-002-----0
  6
CONTINUOUS
  5
413
 10
334.972941
 20
325.184192
 30
0.0
 40
5.0
 50
0.000005
 51
90.000006
  0
ARC
  8
LC-003-002-RND-0
  6
CONTINUOUS
  5
414
 10
325.472944
 20
325.184192
 30
0.0
 40
9.0
 50
90.0
 51
180.000001
  0
LINE
  8
LC-002-002-----0
  6
CONTINUOUS
  5
415
 10
325.472944
 20
330.184192
 30
0.0
 11
330.222942
 21
330.184192
 31
0.0
  0
LINE
  8
LC-002-002-----0
  6
CONTINUOUS
  5
416
 10
320.472944
 20
324.184192
 30
0.0
 11
320.472944
 21
325.184192
 31
0.0
  0
LINE
  8
LC-002-002-----0
  6
CONTINUOUS
  5
417
 10
334.97294
 20
334.184192
 30
0.0
 11
330.222941
 21
334.184192
 31
0.0
  0
LINE
  8
LC-002-002-----0
  6
CONTINUOUS
  5
418
 10
343.972941
 20
324.184193
 30
0.0
 11
343.972941
 21
325.184193
 31
0.0
  0
ARC
  8
LC-002-002-----0
  6
CONTINUOUS
  5
419
 10
325.472944
 20
325.184192
 30
0.0
 40
5.0
 50
90.0
 51
180.000001
  0
LINE
  8
LC-002-002-----0
  6
CONTINUOUS
  5
41A
 10
325.472944
 20
334.184192
 30
0.0
 11
330.222942
 21
334.184192
 31
0.0
  0
LINE
  8
LC-002-002-----0
  6
CONTINUOUS
  5
41B
 10
316.472944
 20
324.184192
 30
0.0
 11
316.472944
 21
325.184192
 31
0.0
  0
LINE
  8
LC-002-002-----0
  6
CONTINUOUS
  5
41C
 10
331.658603
 20
293.684192
 30
0.0
 11
331.666318
 21
322.184363
 31
0.0
  0
LINE
  8
LC-002-002-----0
  6
CONTINUOUS
  5
41D
 10
320.472944
 20
324.184192
 30
0.0
 11
330.222942
 21
324.184192
 31
0.0
  0
LINE
  8
LC-002-002-----0
  6
CONTINUOUS
  5
41E
 10
339.972941
 20
324.184377
 30
0.0
 11
330.222942
 21
324.184384
 31
0.0
  0
LINE
  8
LC-002-002-----0
  6
CONTINUOUS
  5
41F
 10
331.658603
 20
293.684192
 30
0.0
 11
344.715418
 21
293.684192
 31
0.0
  0
LINE
  8
LC-002-002-----0
  6
CONTINUOUS
  5
420
 10
344.715418
 20
293.684192
 30
0.0
 11
345.184329
 21
297.184192
 31
0.0
  0
LINE
  8
LC-002-002-----0
  6
CONTINUOUS
  5
421
 10
345.184329
 20
297.184192
 30
0.0
 11
345.184329
 21
300.269979
 31
0.0
  0
LINE
  8
LC-002-002-----0
  6
CONTINUOUS
  5
422
 10
345.184329
 20
301.684192
 30
0.0
 11
346.934331
 21
301.684192
 31
0.0
  0
LINE
  8
LC-002-002-----0
  6
CONTINUOUS
  5
423
 10
346.934331
 20
301.684192
 30
0.0
 11
346.934331
 21
322.184363
 31
0.0
  0
ARC
  8
LC-002-002-----0
  6
CONTINUOUS
  5
424
 10
345.483023
 20
300.977086
 30
0.0
 40
0.767605
 50
112.900021
 51
247.099979
  0
LINE
  8
LC-002-002-----0
  6
CONTINUOUS
  5
425
 10
360.598508
 20
252.184357
 30
0.0
 11
370.723277
 21
252.184357
 31
0.0
  0
LINE
  8
LC-002-002-----0
  6
CONTINUOUS
  5
426
 10
421.973716
 20
337.709807
 30
0.0
 11
403.223716
 21
336.398679
 31
0.0
  0
LINE
  8
LC-002-002-----0
  6
CONTINUOUS
  5
427
 10
241.223931
 20
335.011388
 30
0.0
 11
251.223716
 21
334.312135
 31
0.0
  0
LINE
  8
LC-002-002-----0
  6
CONTINUOUS
  5
428
 10
399.470376
 20
317.710209
 30
0.0
 11
399.470376
 21
320.710209
 31
0.0
  0
LINE
  8
LC-002-002-----0
  6
CONTINUOUS
  5
429
 10
403.223716
 20
336.398679
 30
0.0
 11
402.473716
 21
335.648679
 31
0.0
  0
LINE
  8
LC-002-002-----0
  6
CONTINUOUS
  5
42A
 10
399.723716
 20
317.710209
 30
0.0
 11
399.723716
 21
320.710209
 31
0.0
  0
LINE
  8
LC-002-002-----0
  6
CONTINUOUS
  5
42B
 10
402.473716
 20
320.710209
 30
0.0
 11
402.473716
 21
335.648679
 31
0.0
  0
LINE
  8
LC-002-002-----0
  6
CONTINUOUS
  5
42C
 10
260.977056
 20
317.710209
 30
0.0
 11
260.977056
 21
320.710209
 31
0.0
  0
LINE
  8
LC-002-002-----0
  6
CONTINUOUS
  5
42D
 10
257.223716
 20
336.398679
 30
0.0
 11
257.973716
 21
335.648679
 31
0.0
  0
LINE
  8
LC-002-002-----0
  6
CONTINUOUS
  5
42E
 10
260.723716
 20
317.710209
 30
0.0
 11
260.723716
 21
320.710209
 31
0.0
  0
LINE
  8
LC-002-002-----0
  6
CONTINUOUS
  5
42F
 10
257.973716
 20
320.710209
 30
0.0
 11
257.973716
 21
335.648679
 31
0.0
  0
ARC
  8
LC-003-002-RND-0
  6
CONTINUOUS
  5
430
 10
408.223716
 20
318.710209
 30
0.0
 40
1.0
 50
270.0
 51
0.0
  0
LINE
  8
LC-002-002-----0
  6
CONTINUOUS
  5
431
 10
238.473716
 20
337.709807
 30
0.0
 11
239.473716
 21
330.710209
 31
0.0
  0
LINE
  8
LC-002-002-----0
  6
CONTINUOUS
  5
432
 10
240.64658
 20
330.710209
 30
0.0
 11
239.473716
 21
330.710209
 31
0.0
  0
LINE
  8
LC-002-002-----0
  6
CONTINUOUS
  5
433
 10
241.223931
 20
331.710209
 30
0.0
 11
240.64658
 21
330.710209
 31
0.0
  0
LINE
  8
LC-002-002-----0
  6
CONTINUOUS
  5
434
 10
241.223931
 20
331.710209
 30
0.0
 11
241.223931
 21
335.011388
 31
0.0
  0
ARC
  8
LC-003-002-RND-0
  6
CONTINUOUS
  5
435
 10
252.223716
 20
318.710209
 30
0.0
 40
1.0
 50
180.0
 51
270.0
  0
LINE
  8
LC-002-002-----0
  6
CONTINUOUS
  5
436
 10
252.223716
 20
317.710209
 30
0.0
 11
290.071035
 21
317.710209
 31
0.0
  0
LINE
  8
LC-002-002-----0
  6
CONTINUOUS
  5
437
 10
419.223501
 20
331.710209
 30
0.0
 11
419.800851
 21
330.710209
 31
0.0
  0
LINE
  8
LC-002-002-----0
  6
CONTINUOUS
  5
438
 10
251.223716
 20
318.710209
 30
0.0
 11
251.223716
 21
334.312135
 31
0.0
  0
LINE
  8
LC-002-002-----0
  6
CONTINUOUS
  5
439
 10
419.223501
 20
331.710209
 30
0.0
 11
419.223501
 21
335.011388
 31
0.0
  0
LINE
  8
LC-002-002-----0
  6
CONTINUOUS
  5
43A
 10
408.223716
 20
317.710209
 30
0.0
 11
399.723716
 21
317.710209
 31
0.0
  0
LINE
  8
LC-002-002-----0
  6
CONTINUOUS
  5
43B
 10
409.223716
 20
318.710209
 30
0.0
 11
409.223716
 21
334.312135
 31
0.0
  0
LINE
  8
LC-002-002-----0
  6
CONTINUOUS
  5
43C
 10
419.397851
 20
330.710209
 30
0.0
 11
420.973716
 21
330.710209
 31
0.0
  0
LINE
  8
LC-002-002-----0
  6
CONTINUOUS
  5
43D
 10
399.723716
 20
317.710209
 30
0.0
 11
370.375149
 21
317.710209
 31
0.0
  0
LINE
  8
LC-002-002-----0
  6
CONTINUOUS
  5
43E
 10
399.723716
 20
320.710209
 30
0.0
 11
402.473716
 21
320.710209
 31
0.0
  0
LINE
  8
LC-002-002-----0
  6
CONTINUOUS
  5
43F
 10
419.223501
 20
335.011388
 30
0.0
 11
409.223716
 21
334.312135
 31
0.0
  0
LINE
  8
LC-002-002-----0
  6
CONTINUOUS
  5
440
 10
260.977056
 20
320.710209
 30
0.0
 11
257.973716
 21
320.710209
 31
0.0
  0
LINE
  8
LC-002-002-----0
  6
CONTINUOUS
  5
441
 10
421.973716
 20
337.709807
 30
0.0
 11
420.973716
 21
330.710209
 31
0.0
  0
LINE
  8
LC-002-002-----0
  6
CONTINUOUS
  5
442
 10
238.473716
 20
337.709807
 30
0.0
 11
257.223716
 21
336.398679
 31
0.0
  0
LINE
  8
LC-002-002-----0
  6
DASHDOT
 62
     2
  5
444
 10
330.223716
 20
171.696351
 30
0.0
 11
330.223716
 21
320.710209
 31
0.0
  0
LINE
  8
LC-002-002-----0
  6
CONTINUOUS
 62
     2
  5
445
 10
410.156884
 20
242.648441
 30
0.0
 11
410.156884
 21
200.772
 31
0.0
  0
LINE
  8
LC-002-002-----0
  6
CONTINUOUS
  5
446
 10
407.957975
 20
316.583753
 30
0.0
 11
370.887622
 21
316.583753
 31
0.0
  0
LINE
  8
LC-002-002-----0
  6
DASHDOT
 62
     2
  5
447
 10
330.223716
 20
413.210209
 30
0.0
 11
330.223716
 21
320.710209
 31
0.0
  0
LINE
  8
LC-002-002-----0
  6
CONTINUOUS
  5
448
 10
380.223716
 20
413.210209
 30
0.0
 11
380.223716
 21
404.210209
 31
0.0
  0
LINE
  8
LC-002-002-----0
  6
CONTINUOUS
  5
449
 10
380.223716
 20
404.210209
 30
0.0
 11
378.223716
 21
404.210209
 31
0.0
  0
LINE
  8
LC-002-002-----0
  6
CONTINUOUS
  5
44A
 10
378.223716
 20
404.210209
 30
0.0
 11
378.223716
 21
398.210209
 31
0.0
  0
LINE
  8
LC-002-002-----0
  6
CONTINUOUS
  5
44B
 10
376.723716
 20
413.210209
 30
0.0
 11
376.723716
 21
407.210209
 31
0.0
  0
LINE
  8
LC-002-002-----0
  6
CONTINUOUS
  5
44C
 10
376.723716
 20
407.210209
 30
0.0
 11
330.223716
 21
407.210209
 31
0.0
  0
LINE
  8
LC-002-002-----0
  6
CONTINUOUS
  5
44D
 10
375.223716
 20
407.210209
 30
0.0
 11
375.223716
 21
395.210209
 31
0.0
  0
LINE
  8
LC-002-002-----0
  6
CONTINUOUS
  5
44E
 10
402.22353
 20
325.710209
 30
0.0
 11
400.883784
 21
320.710209
 31
0.0
  0
LINE
  8
LC-002-002-----0
  6
CONTINUOUS
  5
44F
 10
378.223716
 20
398.210209
 30
0.0
 11
392.223716
 21
398.210209
 31
0.0
  0
ARC
  8
LC-002-002-----0
  6
CONTINUOUS
  5
450
 10
392.223716
 20
388.210209
 30
0.0
 40
10.0
 50
0.0
 51
90.0
  0
LINE
  8
LC-002-002-----0
  6
CONTINUOUS
  5
451
 10
402.223716
 20
388.210209
 30
0.0
 11
402.223716
 21
325.710903
 31
0.0
  0
LINE
  8
LC-005-001-----0
  6
CONTINUOUS
  5
452
 10
330.223716
 20
395.210209
 30
0.0
 11
392.223716
 21
395.210209
 31
0.0
  0
ARC
  8
LC-005-001-----0
  6
CONTINUOUS
  5
453
 10
392.223716
 20
388.210209
 30
0.0
 40
7.0
 50
0.0
 51
90.0
  0
LINE
  8
LC-002-002-----0
  6
CONTINUOUS
  5
454
 10
399.223716
 20
388.210209
 30
0.0
 11
399.223716
 21
320.710209
 31
0.0
  0
LINE
  8
LC-002-002-----0
  6
CONTINUOUS
  5
455
 10
259.563648
 20
320.710209
 30
0.0
 11
292.237661
 21
320.710209
 31
0.0
  0
LINE
  8
LC-002-002-----0
  6
CONTINUOUS
  5
456
 10
258.223902
 20
325.710209
 30
0.0
 11
259.563648
 21
320.710209
 31
0.0
  0
LINE
  8
LC-002-002-----0
  6
CONTINUOUS
 62
     2
  5
457
 10
306.778963
 20
454.56
 30
0.0
 11
291.778963
 21
454.56
 31
0.0
  0
LINE
  8
LC-002-002-----0
  6
CONTINUOUS
 62
     2
  5
458
 10
306.778963
 20
439.56
 30
0.0
 11
306.778963
 21
454.56
 31
0.0
  0
LINE
  8
LC-002-002-----0
  6
CONTINUOUS
  5
459
 10
338.223716
 20
408.210209
 30
0.0
 11
345.223716
 21
408.210209
 31
0.0
  0
LINE
  8
LC-002-002-----0
  6
CONTINUOUS
  5
45A
 10
345.223716
 20
408.210209
 30
0.0
 11
346.223716
 21
408.210209
 31
0.0
  0
LINE
  8
LC-002-002-----0
  6
CONTINUOUS
  5
45B
 10
350.223716
 20
408.210209
 30
0.0
 11
357.223716
 21
408.210209
 31
0.0
  0
LINE
  8
LC-002-002-----0
  6
CONTINUOUS
  5
45C
 10
357.223716
 20
408.210209
 30
0.0
 11
358.223716
 21
408.210209
 31
0.0
  0
LINE
  8
LC-002-002-----0
  6
CONTINUOUS
  5
45D
 10
362.223716
 20
408.210209
 30
0.0
 11
369.223716
 21
408.210209
 31
0.0
  0
LINE
  8
LC-002-002-----0
  6
CONTINUOUS
  5
45E
 10
369.223716
 20
408.210209
 30
0.0
 11
370.223716
 21
408.210209
 31
0.0
  0
LINE
  8
LC-002-002-----0
  6
CONTINUOUS
  5
45F
 10
376.723716
 20
413.210209
 30
0.0
 11
380.223716
 21
413.210209
 31
0.0
  0
LINE
  8
LC-002-002-----0
  6
CONTINUOUS
  5
460
 10
330.223716
 20
413.210209
 30
0.0
 11
347.223716
 21
413.210209
 31
0.0
  0
ARC
  8
LC-002-002-----0
  6
CONTINUOUS
  5
461
 10
337.223716
 20
411.210209
 30
0.0
 40
2.0
 50
0.0
 51
90.0
  0
LINE
  8
LC-002-002-----0
  6
CONTINUOUS
  5
462
 10
339.223716
 20
408.210209
 30
0.0
 11
339.223716
 21
411.210209
 31
0.0
  0
ARC
  8
LC-002-002-----0
  6
CONTINUOUS
  5
463
 10
347.223716
 20
411.210209
 30
0.0
 40
2.0
 50
90.0
 51
179.999848
  0
LINE
  8
LC-002-002-----0
  6
CONTINUOUS
  5
464
 10
345.223716
 20
411.210209
 30
0.0
 11
345.223716
 21
408.210209
 31
0.0
  0
LINE
  8
LC-002-002-----0
  6
CONTINUOUS
  5
465
 10
351.223716
 20
408.210209
 30
0.0
 11
351.223716
 21
411.210209
 31
0.0
  0
ARC
  8
LC-002-002-----0
  6
CONTINUOUS
  5
466
 10
349.223716
 20
411.210209
 30
0.0
 40
2.0
 50
0.0
 51
89.999981
  0
LINE
  8
LC-002-002-----0
  6
CONTINUOUS
  5
467
 10
347.223716
 20
413.210209
 30
0.0
 11
359.223716
 21
413.210209
 31
0.0
  0
ARC
  8
LC-002-002-----0
  6
CONTINUOUS
  5
468
 10
359.223716
 20
411.210209
 30
0.0
 40
2.0
 50
90.0
 51
179.999848
  0
LINE
  8
LC-002-002-----0
  6
CONTINUOUS
  5
469
 10
357.223716
 20
411.210209
 30
0.0
 11
357.223716
 21
408.210209
 31
0.0
  0
LINE
  8
LC-002-002-----0
  6
CONTINUOUS
  5
46A
 10
359.223716
 20
413.210209
 30
0.0
 11
371.223716
 21
413.210209
 31
0.0
  0
ARC
  8
LC-002-002-----0
  6
CONTINUOUS
  5
46B
 10
361.223716
 20
411.210209
 30
0.0
 40
2.0
 50
0.0
 51
90.0
  0
LINE
  8
LC-002-002-----0
  6
CONTINUOUS
  5
46C
 10
363.223716
 20
408.210209
 30
0.0
 11
363.223716
 21
411.210209
 31
0.0
  0
LINE
  8
LC-002-002-----0
  6
CONTINUOUS
  5
46D
 10
369.223716
 20
411.210209
 30
0.0
 11
369.223716
 21
408.210209
 31
0.0
  0
ARC
  8
LC-002-002-----0
  6
CONTINUOUS
  5
46E
 10
371.223716
 20
411.210209
 30
0.0
 40
2.0
 50
89.999981
 51
180.0
  0
LINE
  8
LC-002-002-----0
  6
CONTINUOUS
  5
46F
 10
371.223716
 20
413.210209
 30
0.0
 11
373.223716
 21
413.210209
 31
0.0
  0
ARC
  8
LC-002-002-----0
  6
CONTINUOUS
  5
470
 10
373.223716
 20
411.210209
 30
0.0
 40
2.0
 50
0.0
 51
90.0
  0
LINE
  8
LC-002-002-----0
  6
CONTINUOUS
  5
471
 10
375.223716
 20
407.210209
 30
0.0
 11
375.223716
 21
411.210209
 31
0.0
  0
LINE
  8
LC-002-002-----0
  6
CONTINUOUS
  5
472
 10
330.223716
 20
412.210209
 30
0.0
 11
337.223716
 21
412.210209
 31
0.0
  0
ARC
  8
LC-002-002-----0
  6
CONTINUOUS
  5
473
 10
337.223716
 20
411.210209
 30
0.0
 40
1.0
 50
0.0
 51
90.0
  0
LINE
  8
LC-002-002-----0
  6
CONTINUOUS
  5
474
 10
338.223716
 20
411.210209
 30
0.0
 11
338.223716
 21
408.210209
 31
0.0
  0
ARC
  8
LC-002-002-----0
  6
CONTINUOUS
  5
475
 10
347.223716
 20
411.210209
 30
0.0
 40
1.0
 50
90.0
 51
179.999848
  0
LINE
  8
LC-002-002-----0
  6
CONTINUOUS
  5
476
 10
346.223716
 20
408.210209
 30
0.0
 11
346.223716
 21
411.210209
 31
0.0
  0
LINE
  8
LC-002-002-----0
  6
CONTINUOUS
  5
477
 10
350.223716
 20
411.210209
 30
0.0
 11
350.223716
 21
408.210209
 31
0.0
  0
ARC
  8
LC-002-002-----0
  6
CONTINUOUS
  5
478
 10
349.223716
 20
411.210209
 30
0.0
 40
1.0
 50
0.0
 51
89.999981
  0
LINE
  8
LC-002-002-----0
  6
CONTINUOUS
  5
479
 10
347.223716
 20
412.210209
 30
0.0
 11
349.223716
 21
412.210209
 31
0.0
  0
LINE
  8
LC-002-002-----0
  6
CONTINUOUS
  5
47A
 10
358.223716
 20
408.210209
 30
0.0
 11
358.223716
 21
411.210209
 31
0.0
  0
ARC
  8
LC-002-002-----0
  6
CONTINUOUS
  5
47B
 10
359.223716
 20
411.210209
 30
0.0
 40
1.0
 50
89.999981
 51
180.0
  0
LINE
  8
LC-002-002-----0
  6
CONTINUOUS
  5
47C
 10
359.223716
 20
412.210209
 30
0.0
 11
361.223716
 21
412.210209
 31
0.0
  0
ARC
  8
LC-002-002-----0
  6
CONTINUOUS
  5
47D
 10
361.223716
 20
411.210209
 30
0.0
 40
1.0
 50
0.0
 51
90.0
  0
LINE
  8
LC-002-002-----0
  6
CONTINUOUS
  5
47E
 10
362.223716
 20
411.210209
 30
0.0
 11
362.223716
 21
408.210209
 31
0.0
  0
ARC
  8
LC-002-002-----0
  6
CONTINUOUS
  5
47F
 10
371.223716
 20
411.210209
 30
0.0
 40
1.0
 50
90.0
 51
179.999848
  0
LINE
  8
LC-002-002-----0
  6
CONTINUOUS
  5
480
 10
370.223716
 20
408.210209
 30
0.0
 11
370.223716
 21
411.210209
 31
0.0
  0
LINE
  8
LC-002-002-----0
  6
CONTINUOUS
  5
481
 10
374.223716
 20
411.210209
 30
0.0
 11
374.223716
 21
407.210209
 31
0.0
  0
ARC
  8
LC-002-002-----0
  6
CONTINUOUS
  5
482
 10
373.223716
 20
411.210209
 30
0.0
 40
1.0
 50
0.0
 51
89.999981
  0
LINE
  8
LC-002-002-----0
  6
CONTINUOUS
  5
483
 10
371.223716
 20
412.210209
 30
0.0
 11
373.223716
 21
412.210209
 31
0.0
  0
LINE
  8
LC-002-002-----0
  6
CONTINUOUS
  5
484
 10
280.223959
 20
413.210417
 30
0.0
 11
280.223953
 21
404.210417
 31
0.0
  0
LINE
  8
LC-002-002-----0
  6
CONTINUOUS
  5
485
 10
280.223953
 20
404.210417
 30
0.0
 11
282.223953
 21
404.210416
 31
0.0
  0
LINE
  8
LC-002-002-----0
  6
CONTINUOUS
  5
486
 10
282.223953
 20
404.210416
 30
0.0
 11
282.223949
 21
398.210416
 31
0.0
  0
LINE
  8
LC-002-002-----0
  6
CONTINUOUS
  5
487
 10
283.723959
 20
413.210415
 30
0.0
 11
283.723955
 21
407.210415
 31
0.0
  0
LINE
  8
LC-002-002-----0
  6
CONTINUOUS
  5
488
 10
283.723955
 20
407.210415
 30
0.0
 11
330.223955
 21
407.210384
 31
0.0
  0
LINE
  8
LC-002-002-----0
  6
CONTINUOUS
  5
489
 10
285.223955
 20
407.210414
 30
0.0
 11
285.223947
 21
395.210414
 31
0.0
  0
LINE
  8
LC-002-002-----0
  6
CONTINUOUS
  5
48A
 10
282.223949
 20
398.210416
 30
0.0
 11
268.223949
 21
398.210425
 31
0.0
  0
ARC
  8
LC-002-002-----0
  6
CONTINUOUS
  5
48B
 10
268.223943
 20
388.210425
 30
0.0
 40
10.0
 50
89.999963
 51
179.999944
  0
LINE
  8
LC-002-002-----0
  6
CONTINUOUS
  5
48C
 10
258.223943
 20
388.210431
 30
0.0
 11
258.223902
 21
325.710209
 31
0.0
  0
LINE
  8
LC-005-001-----0
  6
CONTINUOUS
  5
48D
 10
330.223947
 20
395.210384
 30
0.0
 11
268.223947
 21
395.210425
 31
0.0
  0
ARC
  8
LC-005-001-----0
  6
CONTINUOUS
  5
48E
 10
268.223943
 20
388.210425
 30
0.0
 40
7.0
 50
89.999963
 51
179.999944
  0
LINE
  8
LC-002-002-----0
  6
CONTINUOUS
  5
48F
 10
261.223943
 20
388.210429
 30
0.0
 11
261.223899
 21
320.710209
 31
0.0
  0
LINE
  8
LC-002-002-----0
  6
CONTINUOUS
  5
490
 10
322.223956
 20
408.21039
 30
0.0
 11
315.223956
 21
408.210394
 31
0.0
  0
LINE
  8
LC-002-002-----0
  6
CONTINUOUS
  5
491
 10
315.223956
 20
408.210394
 30
0.0
 11
314.223956
 21
408.210395
 31
0.0
  0
LINE
  8
LC-002-002-----0
  6
CONTINUOUS
  5
492
 10
310.223956
 20
408.210397
 30
0.0
 11
303.223956
 21
408.210402
 31
0.0
  0
LINE
  8
LC-002-002-----0
  6
CONTINUOUS
  5
493
 10
303.223956
 20
408.210402
 30
0.0
 11
302.223956
 21
408.210403
 31
0.0
  0
LINE
  8
LC-002-002-----0
  6
CONTINUOUS
  5
494
 10
298.223956
 20
408.210405
 30
0.0
 11
291.223956
 21
408.21041
 31
0.0
  0
LINE
  8
LC-002-002-----0
  6
CONTINUOUS
  5
495
 10
291.223956
 20
408.21041
 30
0.0
 11
290.223956
 21
408.210411
 31
0.0
  0
LINE
  8
LC-002-002-----0
  6
CONTINUOUS
  5
496
 10
283.723959
 20
413.210415
 30
0.0
 11
280.223959
 21
413.210417
 31
0.0
  0
LINE
  8
LC-002-002-----0
  6
CONTINUOUS
  5
497
 10
330.223959
 20
413.210384
 30
0.0
 11
313.223959
 21
413.210396
 31
0.0
  0
ARC
  8
LC-002-002-----0
  6
CONTINUOUS
  5
498
 10
323.223958
 20
411.210389
 30
0.0
 40
2.0
 50
89.999963
 51
179.999944
  0
LINE
  8
LC-002-002-----0
  6
CONTINUOUS
  5
499
 10
321.223956
 20
408.21039
 30
0.0
 11
321.223958
 21
411.21039
 31
0.0
  0
ARC
  8
LC-002-002-----0
  6
CONTINUOUS
  5
49A
 10
313.223958
 20
411.210396
 30
0.0
 40
2.0
 50
0.000096
 51
89.999963
  0
LINE
  8
LC-002-002-----0
  6
CONTINUOUS
  5
49B
 10
315.223958
 20
411.210394
 30
0.0
 11
315.223956
 21
408.210394
 31
0.0
  0
LINE
  8
LC-002-002-----0
  6
CONTINUOUS
  5
49C
 10
309.223956
 20
408.210398
 30
0.0
 11
309.223958
 21
411.210398
 31
0.0
  0
ARC
  8
LC-002-002-----0
  6
CONTINUOUS
  5
49D
 10
311.223958
 20
411.210397
 30
0.0
 40
2.0
 50
89.999963
 51
179.999963
  0
LINE
  8
LC-002-002-----0
  6
CONTINUOUS
  5
49E
 10
313.223959
 20
413.210396
 30
0.0
 11
301.223959
 21
413.210403
 31
0.0
  0
ARC
  8
LC-002-002-----0
  6
CONTINUOUS
  5
49F
 10
301.223958
 20
411.210403
 30
0.0
 40
2.0
 50
0.000096
 51
89.999963
  0
LINE
  8
LC-002-002-----0
  6
CONTINUOUS
  5
4A0
 10
303.223958
 20
411.210402
 30
0.0
 11
303.223956
 21
408.210402
 31
0.0
  0
LINE
  8
LC-002-002-----0
  6
CONTINUOUS
  5
4A1
 10
301.223959
 20
413.210403
 30
0.0
 11
289.223959
 21
413.210411
 31
0.0
  0
ARC
  8
LC-002-002-----0
  6
CONTINUOUS
  5
4A2
 10
299.223958
 20
411.210405
 30
0.0
 40
2.0
 50
89.999963
 51
179.999944
  0
LINE
  8
LC-002-002-----0
  6
CONTINUOUS
  5
4A3
 10
297.223956
 20
408.210406
 30
0.0
 11
297.223958
 21
411.210406
 31
0.0
  0
LINE
  8
LC-002-002-----0
  6
CONTINUOUS
  5
4A4
 10
291.223958
 20
411.21041
 30
0.0
 11
291.223956
 21
408.21041
 31
0.0
  0
ARC
  8
LC-002-002-----0
  6
CONTINUOUS
  5
4A5
 10
289.223958
 20
411.210411
 30
0.0
 40
2.0
 50
359.999963
 51
89.999888
  0
LINE
  8
LC-002-002-----0
  6
CONTINUOUS
  5
4A6
 10
289.223959
 20
413.210411
 30
0.0
 11
287.223959
 21
413.210412
 31
0.0
  0
ARC
  8
LC-002-002-----0
  6
CONTINUOUS
  5
4A7
 10
287.223958
 20
411.210412
 30
0.0
 40
2.0
 50
89.999963
 51
179.999944
  0
LINE
  8
LC-002-002-----0
  6
CONTINUOUS
  5
4A8
 10
285.223955
 20
407.210414
 30
0.0
 11
285.223958
 21
411.210414
 31
0.0
  0
LINE
  8
LC-002-002-----0
  6
CONTINUOUS
  5
4A9
 10
330.223958
 20
412.210384
 30
0.0
 11
323.223958
 21
412.210389
 31
0.0
  0
ARC
  8
LC-002-002-----0
  6
CONTINUOUS
  5
4AA
 10
323.223958
 20
411.210389
 30
0.0
 40
1.0
 50
89.999963
 51
179.999944
  0
LINE
  8
LC-002-002-----0
  6
CONTINUOUS
  5
4AB
 10
322.223958
 20
411.21039
 30
0.0
 11
322.223956
 21
408.21039
 31
0.0
  0
ARC
  8
LC-002-002-----0
  6
CONTINUOUS
  5
4AC
 10
313.223958
 20
411.210396
 30
0.0
 40
1.0
 50
0.000096
 51
89.999963
  0
LINE
  8
LC-002-002-----0
  6
CONTINUOUS
  5
4AD
 10
314.223956
 20
408.210395
 30
0.0
 11
314.223958
 21
411.210395
 31
0.0
  0
LINE
  8
LC-002-002-----0
  6
CONTINUOUS
  5
4AE
 10
310.223958
 20
411.210397
 30
0.0
 11
310.223956
 21
408.210397
 31
0.0
  0
ARC
  8
LC-002-002-----0
  6
CONTINUOUS
  5
4AF
 10
311.223958
 20
411.210397
 30
0.0
 40
1.0
 50
89.999963
 51
179.999963
  0
LINE
  8
LC-002-002-----0
  6
CONTINUOUS
  5
4B0
 10
313.223958
 20
412.210396
 30
0.0
 11
311.223958
 21
412.210397
 31
0.0
  0
LINE
  8
LC-002-002-----0
  6
CONTINUOUS
  5
4B1
 10
302.223956
 20
408.210403
 30
0.0
 11
302.223958
 21
411.210403
 31
0.0
  0
ARC
  8
LC-002-002-----0
  6
CONTINUOUS
  5
4B2
 10
301.223958
 20
411.210403
 30
0.0
 40
1.0
 50
359.999963
 51
89.999888
  0
LINE
  8
LC-002-002-----0
  6
CONTINUOUS
  5
4B3
 10
301.223958
 20
412.210403
 30
0.0
 11
299.223958
 21
412.210405
 31
0.0
  0
ARC
  8
LC-002-002-----0
  6
CONTINUOUS
  5
4B4
 10
299.223958
 20
411.210405
 30
0.0
 40
1.0
 50
89.999963
 51
179.999944
  0
LINE
  8
LC-002-002-----0
  6
CONTINUOUS
  5
4B5
 10
298.223958
 20
411.210405
 30
0.0
 11
298.223956
 21
408.210405
 31
0.0
  0
ARC
  8
LC-002-002-----0
  6
CONTINUOUS
  5
4B6
 10
289.223958
 20
411.210411
 30
0.0
 40
1.0
 50
0.000096
 51
89.999963
  0
LINE
  8
LC-002-002-----0
  6
CONTINUOUS
  5
4B7
 10
290.223956
 20
408.210411
 30
0.0
 11
290.223958
 21
411.210411
 31
0.0
  0
LINE
  8
LC-002-002-----0
  6
CONTINUOUS
  5
4B8
 10
286.223958
 20
411.210413
 30
0.0
 11
286.223955
 21
407.210413
 31
0.0
  0
ARC
  8
LC-002-002-----0
  6
CONTINUOUS
  5
4B9
 10
287.223958
 20
411.210412
 30
0.0
 40
1.0
 50
89.999963
 51
179.999963
  0
LINE
  8
LC-002-002-----0
  6
CONTINUOUS
  5
4BA
 10
289.223958
 20
412.210411
 30
0.0
 11
287.223958
 21
412.210412
 31
0.0
  0
LINE
  8
LC-002-002-----0
  6
CONTINUOUS
 62
     2
  5
4BB
 10
291.778963
 20
439.56
 30
0.0
 11
291.778963
 21
454.56
 31
0.0
  0
LINE
  8
LC-002-002-----0
  6
CONTINUOUS
 62
     2
  5
4BC
 10
306.778963
 20
439.56
 30
0.0
 11
291.778963
 21
439.56
 31
0.0
  0
LINE
  8
LC-002-002-----0
  6
CONTINUOUS
  5
4BD
 10
360.228407
 20
395.210384
 30
0.0
 11
378.29553
 21
382.210384
 31
0.0
  0
LINE
  8
LC-002-002-----0
  6
CONTINUOUS
  5
4BE
 10
375.223716
 20
395.210209
 30
0.0
 11
399.223716
 21
382.465286
 31
0.0
  0
LINE
  8
LC-002-002-----0
  6
CONTINUOUS
  5
4BF
 10
300.219024
 20
395.210384
 30
0.0
 11
282.151902
 21
382.210384
 31
0.0
  0
LINE
  8
LC-002-002-----0
  6
CONTINUOUS
  5
4C0
 10
280.030582
 20
382.210384
 30
0.0
 11
298.068442
 21
395.210384
 31
0.0
  0
LINE
  8
LC-002-002-----0
  6
CONTINUOUS
  5
4C1
 10
282.151902
 20
382.210384
 30
0.0
 11
280.030582
 21
382.210384
 31
0.0
  0
LINE
  8
LC-002-002-----0
  6
CONTINUOUS
  5
4C2
 10
280.030582
 20
382.210384
 30
0.0
 11
280.030582
 21
388.210384
 31
0.0
  0
ARC
  8
LC-003-002-RND-0
  6
CONTINUOUS
  5
4C3
 10
287.030582
 20
388.210384
 30
0.0
 40
7.0
 50
136.406436
 51
180.0
  0
LINE
  8
LC-002-002-----0
  6
CONTINUOUS
  5
4C4
 10
380.41685
 20
382.210384
 30
0.0
 11
362.37899
 21
395.210384
 31
0.0
  0
LINE
  8
LC-002-002-----0
  6
CONTINUOUS
  5
4C5
 10
378.29553
 20
382.210384
 30
0.0
 11
380.41685
 21
382.210384
 31
0.0
  0
LINE
  8
LC-002-002-----0
  6
CONTINUOUS
  5
4C6
 10
380.41685
 20
382.210384
 30
0.0
 11
380.41685
 21
388.210384
 31
0.0
  0
ARC
  8
LC-003-002-RND-0
  6
CONTINUOUS
  5
4C7
 10
373.41685
 20
388.210384
 30
0.0
 40
7.0
 50
0.0
 51
55.00113
  0
LINE
  8
LC-002-002-----0
  6
CONTINUOUS
  5
4C8
 10
285.223947
 20
395.210414
 30
0.0
 11
261.223939
 21
382.4654
 31
0.0
  0
LINE
  8
LC-002-002-----0
  6
CONTINUOUS
  5
4C9
 10
258.223913
 20
343.332
 30
0.0
 11
182.069581
 21
343.332
 31
0.0
  0
LINE
  8
LC-002-002-----0
  6
CONTINUOUS
  5
4CA
 10
368.167675
 20
320.710209
 30
0.0
 11
400.883784
 21
320.710209
 31
0.0
  0
LINE
  8
LC-002-002-----0
  6
CONTINUOUS
 62
     2
  5
4CB
 10
424.721044
 20
331.230919
 30
0.0
 11
424.721044
 21
352.26576
 31
0.0
  0
ENDSEC
  0
EOF
