  0
SECTION
  2
HEADER
  9
$ACADVER
  1
AC1009
  9
$INSBASE
 10
0.0
 20
0.0
 30
0.0
  9
$EXTMIN
 10
0.0
 20
0.0
 30
0.0
  9
$EXTMAX
 10
840.0
 20
594.0
 30
0.0
  9
$LIMMIN
 10
0.0
 20
0.0
  9
$LIMMAX
 10
840.0
 20
594.0
  9
$ORTHOMODE
 70
     0
  9
$REGENMODE
 70
     1
  9
$FILLMODE
 70
     1
  9
$QTEXTMODE
 70
     0
  9
$MIRRTEXT
 70
     1
  9
$DRAGMODE
 70
     2
  9
$LTSCALE
 40
2.0
  9
$OSMODE
 70
     0
  9
$ATTMODE
 70
     1
  9
$TEXTSIZE
 40
0.2
  9
$TRACEWID
 40
0.05
  9
$TEXTSTYLE
  7
STANDARD
  9
$CLAYER
  8
0
  9
$CELTYPE
  6
BYLAYER
  9
$CECOLOR
 62
     7
  9
$DIMSCALE
 40
2.0
  9
$DIMASZ
 40
3.5
  9
$DIMEXO
 40
0.0625
  9
$DIMDLI
 40
0.38
  9
$DIMRND
 40
0.0
  9
$DIMDLE
 40
0.0
  9
$DIMEXE
 40
0.18
  9
$DIMTP
 40
0.0
  9
$DIMTM
 40
0.0
  9
$DIMTXT
 40
3.5
  9
$DIMCEN
 40
0.09
  9
$DIMTSZ
 40
0.0
  9
$DIMTOL
 70
     0
  9
$DIMLIM
 70
     0
  9
$DIMTIH
 70
     1
  9
$DIMTOH
 70
     1
  9
$DIMSE1
 70
     0
  9
$DIMSE2
 70
     0
  9
$DIMTAD
 70
     1
  9
$DIMZIN
 70
     0
  9
$DIMBLK
  1

  9
$DIMASO
 70
     1
  9
$DIMSHO
 70
     1
  9
$DIMPOST
  1

  9
$DIMAPOST
  1

  9
$DIMALT
 70
     0
  9
$DIMALTD
 70
     2
  9
$DIMALTF
 40
25.4
  9
$DIMLFAC
 40
1.0
  9
$DIMTOFL
 70
     0
  9
$DIMTVP
 40
0.0
  9
$DIMTIX
 70
     0
  9
$DIMSOXD
 70
     0
  9
$DIMSAH
 70
     0
  9
$DIMBLK1
  1

  9
$DIMBLK2
  1

  9
$DIMSTYLE
  2
STANDARD
  9
$DIMCLRD
 70
     0
  9
$DIMCLRE
 70
     0
  9
$DIMCLRT
 70
     0
  9
$DIMTFAC
 40
1.0
  9
$DIMGAP
 40
0.09
  9
$LUNITS
 70
     2
  9
$LUPREC
 70
     2
  9
$AXISMODE
 70
     0
  9
$AXISUNIT
 10
0.0
 20
0.0
  9
$SKETCHINC
 40
0.1
  9
$FILLETRAD
 40
0.0
  9
$AUNITS
 70
     0
  9
$AUPREC
 70
     0
  9
$MENU
  1
acad
  9
$ELEVATION
 40
0.0
  9
$PELEVATION
 40
0.0
  9
$THICKNESS
 40
0.0
  9
$LIMCHECK
 70
     0
  9
$BLIPMODE
 70
     1
  9
$CHAMFERA
 40
0.0
  9
$CHAMFERB
 40
0.0
  9
$SKPOLY
 70
     0
  9
$TDCREATE
 40
0.000000000
  9
$TDUPDATE
 40
0.000000000
  9
$TDINDWG
 40
0.0000000000
  9
$TDUSRTIMER
 40
0.0000000000
  9
$USRTIMER
 70
     1
  9
$ANGBASE
 50
0.0
  9
$ANGDIR
 70
     0
  9
$PDMODE
 70
     0
  9
$PDSIZE
 40
0.0
  9
$PLINEWID
 40
0.0
  9
$COORDS
 70
     0
  9
$SPLFRAME
 70
     0
  9
$SPLINETYPE
 70
     6
  9
$SPLINESEGS
 70
     8
  9
$ATTDIA
 70
     0
  9
$ATTREQ
 70
     1
  9
$HANDLING
 70
     1
  9
$HANDSEED
  5
3A8
  9
$SURFTAB1
 70
     6
  9
$SURFTAB2
 70
     6
  9
$SURFTYPE
 70
     6
  9
$SURFU
 70
     6
  9
$SURFV
 70
     6
  9
$UCSNAME
  2

  9
$UCSORG
 10
0.0
 20
0.0
 30
0.0
  9
$UCSXDIR
 10
1.0
 20
0.0
 30
0.0
  9
$UCSYDIR
 10
0.0
 20
1.0
 30
0.0
  9
$PUCSNAME
  2

  9
$PUCSORG
 10
0.0
 20
0.0
 30
0.0
  9
$PUCSXDIR
 10
1.0
 20
0.0
 30
0.0
  9
$PUCSYDIR
 10
0.0
 20
1.0
 30
0.0
  9
$USERI1
 70
     0
  9
$USERI2
 70
     0
  9
$USERI3
 70
     0
  9
$USERI4
 70
     0
  9
$USERI5
 70
     0
  9
$USERR1
 40
0.0
  9
$USERR2
 40
0.0
  9
$USERR3
 40
0.0
  9
$USERR4
 40
0.0
  9
$USERR5
 40
0.0
  9
$WORLDVIEW
 70
     1
  9
$SHADEDGE
 70
     3
  9
$SHADEDIF
 70
    70
  9
$TILEMODE
 70
     1
  9
$MAXACTVP
 70
    16
  9
$PINSBASE
 10
0.0
 20
0.0
 30
0.0
  9
$PLIMCHECK
 70
     0
  9
$PEXTMIN
 10
1.000000E+20
 20
1.000000E+20
 30
1.000000E+20
  9
$PEXTMAX
 10
-1.000000E+20
 20
-1.000000E+20
 30
-1.000000E+20
  9
$PLIMMIN
 10
0.0
 20
0.0
  9
$PLIMMAX
 10
840.0
 20
594.0
  9
$UNITMODE
 70
     0
  9
$VISRETAIN
 70
     0
  9
$PLINEGEN
 70
     1
  9
$PSLTSCALE
 70
     0
  9
$TREEDEPTH
 70
  3020
  9
$DWGCODEPAGE
  3
dos850
  0
ENDSEC
  0
SECTION
  2
TABLES
  0
TABLE
  2
VPORT
 70
     1
  0
VPORT
  2
*ACTIVE
 70
     0
 10
0.0
 20
0.0
 11
1.0
 21
1.0
 12
420.0
 22
297.0
 13
0.0
 23
0.0
 14
1.0
 24
1.0
 15
0.0
 25
0.0
 16
0.0
 26
0.0
 36
1.0
 17
0.0
 27
0.0
 37
0.0
 40
594.0
 41
1.604229
 42
50.0
 43
0.0
 44
0.0
 50
0.0
 51
0.0
 71
     0
 72
   100
 73
     1
 74
     1
 75
     0
 76
     0
 77
     0
 78
     0
  0
ENDTAB
  0
TABLE
  2
LTYPE
 70
     2
  0
LTYPE
  2
CONTINUOUS
 70
    64
  3
Solid line
 72
    65
 73
     0
 40
0.0
  0
LTYPE
  2
DASHDOT
 70
    64
  3
__ . __ . __ . __ . __
 72
    65
 73
     4
 40
7.5
 49
5.0
 49
-1.25
 49
0.0
 49
-1.25
  0
ENDTAB
  0
TABLE
  2
LAYER
 70
    13
  0
LAYER
  2
0
 70
     0
 62
     7
  6
CONTINUOUS
  0
LAYER
  2
LC-INFO-1-2-MM-A3-0
 70
     1
 62
    -1
  6
CONTINUOUS
  0
LAYER
  2
LC-006-005-----0
 70
     0
 62
     2
  6
CONTINUOUS
  0
LAYER
  2
LC-009-003-MTH-0
 70
     0
 62
     2
  6
CONTINUOUS
  0
LAYER
  2
LC-010-003-MTG-0
 70
     0
 62
     2
  6
CONTINUOUS
  0
LAYER
  2
LC-008-003-----0
 70
     0
 62
     2
  6
CONTINUOUS
  0
LAYER
  2
LC-003-000-----0
 70
     0
 62
     7
  6
CONTINUOUS
  0
LAYER
  2
LC-007-000-----0
 70
     0
 62
     7
  6
CONTINUOUS
  0
LAYER
  2
LC-001-002-----0
 70
     0
 62
     1
  6
CONTINUOUS
  0
LAYER
  2
LC-002-002-RND-0
 70
     0
 62
     1
  6
CONTINUOUS
  0
LAYER
  2
LC-004-001-RND-0
 70
     0
 62
     1
  6
CONTINUOUS
  0
LAYER
  2
LC-005-001-----0
 70
     0
 62
     1
  6
CONTINUOUS
  0
LAYER
  2
LC-000
 70
     0
 62
     7
  6
CONTINUOUS
  0
ENDTAB
  0
TABLE
  2
STYLE
 70
     4
  0
STYLE
  2
STANDARD
 70
     0
 40
0.0
 41
1.0
 50
0.0
 71
     0
 42
0.0
  3
txt
  4

  0
STYLE
  2
LC-STANDARD
 70
    64
 40
0.0
 41
1.0
 50
0.0
 71
     0
 42
3.5
  3
MONOTXT
  4

  0
STYLE
  2
LC-TXTSTYLE-150-400-0-0-A2
 70
    64
 40
0.0
 41
1.0
 50
15.0
 71
     0
 42
3.5
  3
MONOTXT
  4

  0
STYLE
  2
LC-TXTSTYLE-150-400-0-0-D3
 70
    64
 40
0.0
 41
1.0
 50
15.0
 71
     0
 42
3.5
  3
LC-STANDARD
  4

  0
ENDTAB
  0
TABLE
  2
VIEW
 70
     0
  0
ENDTAB
  0
TABLE
  2
UCS
 70
     0
  0
ENDTAB
  0
TABLE
  2
APPID
 70
     1
  0
APPID
  2
ACAD
 70
     0
  0
ENDTAB
  0
TABLE
  2
DIMSTYLE
 70
     3
  0
DIMSTYLE
  2
STANDARD
 70
     0
  3

  4

  5

  6

  7

 40
1.0
 41
0.18
 42
0.0625
 43
0.38
 44
0.18
 45
0.0
 46
0.0
 47
0.0
 48
0.0
 71
     0
 72
     0
 73
     1
 74
     1
 75
     0
 76
     0
 77
     0
 78
     0
140
0.18
141
0.09
142
0.0
143
25.4
144
1.0
145
0.0
146
1.0
147
0.09
170
     0
171
     2
172
     0
173
     0
174
     0
175
     0
176
     0
177
     0
178
     0
  0
DIMSTYLE
  2
LC-STANDARD
 70
     0
  3

  4

  5

  6

  7

 40
1.0
 41
3.5
 42
0.0
 43
7.5
 44
1.8
 45
0.0
 46
0.0
 47
0.0
 48
0.0
 71
     0
 72
     0
 73
     0
 74
     0
 75
     0
 76
     0
 77
     1
 78
     8
140
3.5
141
0.0
142
0.0
143
25.4
144
1.0
145
0.0
146
0.71
147
1.5
170
     0
171
     2
172
     1
173
     0
174
     0
175
     0
176
     0
177
     0
178
     3
  0
DIMSTYLE
  2
LC-DIM-L-0140-02-02
 70
     0
  3

  4

  5

  6

  7

 40
2.0
 41
3.5
 42
0.0
 43
7.5
 44
1.8
 45
0.0
 46
0.0
 47
0.0
 48
0.0
 71
     0
 72
     0
 73
     0
 74
     0
 75
     0
 76
     0
 77
     1
 78
     8
140
14.0
141
0.0
142
0.0
143
25.4
144
1.0
145
0.0
146
0.71
147
1.5
170
     0
171
     2
172
     0
173
     0
174
     0
175
     0
176
     2
177
     2
178
     8
  0
ENDTAB
  0
ENDSEC
  0
SECTION
  2
BLOCKS
  0
BLOCK
  8
0
  5
23
  2
BLK1
 70
    64
 10
0.0
 20
0.0
 30
0.0
  3
BLK1
  0
ENDBLK
  8
0
  5
24
  0
BLOCK
  8
0
  5
26
  2
*X1
 70
    65
 10
242.910686
 20
221.945542
 30
0.0
  3
*X1
  0
LINE
  8
LC-006-005-----0
  6
CONTINUOUS
  5
28
 10
369.724537
 20
242.445316
 30
0.0
 11
371.662429
 21
244.383208
 31
0.0
  0
LINE
  8
LC-006-005-----0
  6
CONTINUOUS
  5
29
 10
369.028836
 20
244.578042
 30
0.0
 11
371.662429
 21
247.211635
 31
0.0
  0
LINE
  8
LC-006-005-----0
  6
CONTINUOUS
  5
2A
 10
368.662429
 20
247.040063
 30
0.0
 11
371.662429
 21
250.040063
 31
0.0
  0
LINE
  8
LC-006-005-----0
  6
CONTINUOUS
  5
2B
 10
340.739482
 20
221.945543
 30
0.0
 11
341.662429
 21
222.86849
 31
0.0
  0
LINE
  8
LC-006-005-----0
  6
CONTINUOUS
  5
2C
 10
368.662429
 20
249.86849
 30
0.0
 11
371.662429
 21
252.86849
 31
0.0
  0
LINE
  8
LC-006-005-----0
  6
CONTINUOUS
  5
2D
 10
339.560269
 20
223.594757
 30
0.0
 11
341.662429
 21
225.696917
 31
0.0
  0
LINE
  8
LC-006-005-----0
  6
CONTINUOUS
  5
2E
 10
368.662429
 20
252.696917
 30
0.0
 11
371.662429
 21
255.696917
 31
0.0
  0
LINE
  8
LC-006-005-----0
  6
CONTINUOUS
  5
2F
 10
338.962552
 20
225.825468
 30
0.0
 11
341.662429
 21
228.525344
 31
0.0
  0
LINE
  8
LC-006-005-----0
  6
CONTINUOUS
  5
30
 10
368.662429
 20
255.525344
 30
0.0
 11
371.662429
 21
258.525344
 31
0.0
  0
LINE
  8
LC-006-005-----0
  6
CONTINUOUS
  5
31
 10
338.662429
 20
228.353771
 30
0.0
 11
341.662429
 21
231.353771
 31
0.0
  0
LINE
  8
LC-006-005-----0
  6
CONTINUOUS
  5
32
 10
368.662429
 20
258.353771
 30
0.0
 11
371.662429
 21
261.353771
 31
0.0
  0
LINE
  8
LC-006-005-----0
  6
CONTINUOUS
  5
33
 10
338.662429
 20
231.182198
 30
0.0
 11
341.662429
 21
234.182198
 31
0.0
  0
LINE
  8
LC-006-005-----0
  6
CONTINUOUS
  5
34
 10
368.662429
 20
261.182198
 30
0.0
 11
371.662429
 21
264.182198
 31
0.0
  0
LINE
  8
LC-006-005-----0
  6
CONTINUOUS
  5
35
 10
338.662429
 20
234.010625
 30
0.0
 11
341.662429
 21
237.010625
 31
0.0
  0
LINE
  8
LC-006-005-----0
  6
CONTINUOUS
  5
36
 10
368.662429
 20
264.010625
 30
0.0
 11
371.662429
 21
267.010625
 31
0.0
  0
LINE
  8
LC-006-005-----0
  6
CONTINUOUS
  5
37
 10
338.662429
 20
236.839052
 30
0.0
 11
341.662429
 21
239.839052
 31
0.0
  0
LINE
  8
LC-006-005-----0
  6
CONTINUOUS
  5
38
 10
368.662429
 20
266.839052
 30
0.0
 11
371.662429
 21
269.839052
 31
0.0
  0
LINE
  8
LC-006-005-----0
  6
CONTINUOUS
  5
39
 10
338.662429
 20
239.66748
 30
0.0
 11
341.662429
 21
242.66748
 31
0.0
  0
LINE
  8
LC-006-005-----0
  6
CONTINUOUS
  5
3A
 10
368.662429
 20
269.66748
 30
0.0
 11
371.662429
 21
272.66748
 31
0.0
  0
LINE
  8
LC-006-005-----0
  6
CONTINUOUS
  5
3B
 10
338.662429
 20
242.495907
 30
0.0
 11
341.662429
 21
245.495907
 31
0.0
  0
LINE
  8
LC-006-005-----0
  6
CONTINUOUS
  5
3C
 10
368.662429
 20
272.495907
 30
0.0
 11
371.662429
 21
275.495907
 31
0.0
  0
LINE
  8
LC-006-005-----0
  6
CONTINUOUS
  5
3D
 10
338.662429
 20
245.324334
 30
0.0
 11
341.662429
 21
248.324334
 31
0.0
  0
LINE
  8
LC-006-005-----0
  6
CONTINUOUS
  5
3E
 10
368.662429
 20
275.324334
 30
0.0
 11
371.662429
 21
278.324334
 31
0.0
  0
LINE
  8
LC-006-005-----0
  6
CONTINUOUS
  5
3F
 10
338.662429
 20
248.152761
 30
0.0
 11
341.662429
 21
251.152761
 31
0.0
  0
LINE
  8
LC-006-005-----0
  6
CONTINUOUS
  5
40
 10
368.662429
 20
278.152761
 30
0.0
 11
371.662429
 21
281.152761
 31
0.0
  0
LINE
  8
LC-006-005-----0
  6
CONTINUOUS
  5
41
 10
338.662429
 20
250.981188
 30
0.0
 11
341.662429
 21
253.981188
 31
0.0
  0
LINE
  8
LC-006-005-----0
  6
CONTINUOUS
  5
42
 10
368.662429
 20
280.981188
 30
0.0
 11
371.662429
 21
283.981188
 31
0.0
  0
LINE
  8
LC-006-005-----0
  6
CONTINUOUS
  5
43
 10
338.662429
 20
253.809615
 30
0.0
 11
341.662429
 21
256.809615
 31
0.0
  0
LINE
  8
LC-006-005-----0
  6
CONTINUOUS
  5
44
 10
368.662429
 20
283.809615
 30
0.0
 11
371.662429
 21
286.809615
 31
0.0
  0
LINE
  8
LC-006-005-----0
  6
CONTINUOUS
  5
45
 10
338.662429
 20
256.638042
 30
0.0
 11
341.662429
 21
259.638042
 31
0.0
  0
LINE
  8
LC-006-005-----0
  6
CONTINUOUS
  5
46
 10
368.662429
 20
286.638042
 30
0.0
 11
371.662429
 21
289.638042
 31
0.0
  0
LINE
  8
LC-006-005-----0
  6
CONTINUOUS
  5
47
 10
338.662429
 20
259.466469
 30
0.0
 11
341.662429
 21
262.466469
 31
0.0
  0
LINE
  8
LC-006-005-----0
  6
CONTINUOUS
  5
48
 10
368.662429
 20
289.466469
 30
0.0
 11
371.662429
 21
292.466469
 31
0.0
  0
LINE
  8
LC-006-005-----0
  6
CONTINUOUS
  5
49
 10
338.662429
 20
262.294897
 30
0.0
 11
341.662429
 21
265.294897
 31
0.0
  0
LINE
  8
LC-006-005-----0
  6
CONTINUOUS
  5
4A
 10
368.662429
 20
292.294897
 30
0.0
 11
371.662429
 21
295.294897
 31
0.0
  0
LINE
  8
LC-006-005-----0
  6
CONTINUOUS
  5
4B
 10
338.662429
 20
265.123324
 30
0.0
 11
341.662429
 21
268.123324
 31
0.0
  0
LINE
  8
LC-006-005-----0
  6
CONTINUOUS
  5
4C
 10
368.51196
 20
294.972855
 30
0.0
 11
370.938542
 21
297.399437
 31
0.0
  0
LINE
  8
LC-006-005-----0
  6
CONTINUOUS
  5
4D
 10
338.662429
 20
267.951751
 30
0.0
 11
341.662429
 21
270.951751
 31
0.0
  0
LINE
  8
LC-006-005-----0
  6
CONTINUOUS
  5
4E
 10
366.474588
 20
295.76391
 30
0.0
 11
369.120753
 21
298.410075
 31
0.0
  0
LINE
  8
LC-006-005-----0
  6
CONTINUOUS
  5
4F
 10
338.662429
 20
270.780178
 30
0.0
 11
341.662429
 21
273.780178
 31
0.0
  0
LINE
  8
LC-006-005-----0
  6
CONTINUOUS
  5
50
 10
365.431667
 20
297.549416
 30
0.0
 11
366.966689
 21
299.084438
 31
0.0
  0
LINE
  8
LC-006-005-----0
  6
CONTINUOUS
  5
51
 10
338.662429
 20
273.608605
 30
0.0
 11
341.662429
 21
276.608605
 31
0.0
  0
LINE
  8
LC-006-005-----0
  6
CONTINUOUS
  5
52
 10
360.49914
 20
295.445316
 30
0.0
 11
366.139388
 21
301.085564
 31
0.0
  0
LINE
  8
LC-006-005-----0
  6
CONTINUOUS
  5
53
 10
338.662429
 20
276.437032
 30
0.0
 11
341.662429
 21
279.437032
 31
0.0
  0
LINE
  8
LC-006-005-----0
  6
CONTINUOUS
  5
54
 10
357.670713
 20
295.445316
 30
0.0
 11
360.723681
 21
298.498284
 31
0.0
  0
LINE
  8
LC-006-005-----0
  6
CONTINUOUS
  5
55
 10
363.109461
 20
300.884064
 30
0.0
 11
366.114918
 21
303.889521
 31
0.0
  0
LINE
  8
LC-006-005-----0
  6
CONTINUOUS
  5
56
 10
338.662429
 20
279.265459
 30
0.0
 11
341.662429
 21
282.265459
 31
0.0
  0
LINE
  8
LC-006-005-----0
  6
CONTINUOUS
  5
57
 10
354.842286
 20
295.445316
 30
0.0
 11
357.842286
 21
298.445316
 31
0.0
  0
LINE
  8
LC-006-005-----0
  6
CONTINUOUS
  5
58
 10
363.162429
 20
303.765459
 30
0.0
 11
366.090448
 21
306.693479
 31
0.0
  0
LINE
  8
LC-006-005-----0
  6
CONTINUOUS
  5
59
 10
338.662429
 20
282.093886
 30
0.0
 11
341.662429
 21
285.093886
 31
0.0
  0
LINE
  8
LC-006-005-----0
  6
CONTINUOUS
  5
5A
 10
352.013858
 20
295.445316
 30
0.0
 11
355.013858
 21
298.445316
 31
0.0
  0
LINE
  8
LC-006-005-----0
  6
CONTINUOUS
  5
5B
 10
363.162429
 20
306.593886
 30
0.0
 11
366.065979
 21
309.497436
 31
0.0
  0
LINE
  8
LC-006-005-----0
  6
CONTINUOUS
  5
5C
 10
338.662429
 20
284.922314
 30
0.0
 11
341.662429
 21
287.922314
 31
0.0
  0
LINE
  8
LC-006-005-----0
  6
CONTINUOUS
  5
5D
 10
349.185431
 20
295.445316
 30
0.0
 11
352.185431
 21
298.445316
 31
0.0
  0
LINE
  8
LC-006-005-----0
  6
CONTINUOUS
  5
5E
 10
363.162429
 20
309.422314
 30
0.0
 11
366.041509
 21
312.301393
 31
0.0
  0
LINE
  8
LC-006-005-----0
  6
CONTINUOUS
  5
5F
 10
338.662429
 20
287.750741
 30
0.0
 11
341.662429
 21
290.750741
 31
0.0
  0
LINE
  8
LC-006-005-----0
  6
CONTINUOUS
  5
60
 10
346.357004
 20
295.445316
 30
0.0
 11
349.357004
 21
298.445316
 31
0.0
  0
LINE
  8
LC-006-005-----0
  6
CONTINUOUS
  5
61
 10
363.162429
 20
312.250741
 30
0.0
 11
366.017039
 21
315.105351
 31
0.0
  0
LINE
  8
LC-006-005-----0
  6
CONTINUOUS
  5
62
 10
338.662429
 20
290.579168
 30
0.0
 11
341.662429
 21
293.579168
 31
0.0
  0
LINE
  8
LC-006-005-----0
  6
CONTINUOUS
  5
63
 10
343.528577
 20
295.445316
 30
0.0
 11
346.528577
 21
298.445316
 31
0.0
  0
LINE
  8
LC-006-005-----0
  6
CONTINUOUS
  5
64
 10
363.162429
 20
315.079168
 30
0.0
 11
365.992569
 21
317.909308
 31
0.0
  0
LINE
  8
LC-006-005-----0
  6
CONTINUOUS
  5
65
 10
338.662429
 20
293.407595
 30
0.0
 11
343.70015
 21
298.445316
 31
0.0
  0
LINE
  8
LC-006-005-----0
  6
CONTINUOUS
  5
66
 10
363.162429
 20
317.907595
 30
0.0
 11
365.968099
 21
320.713265
 31
0.0
  0
LINE
  8
LC-006-005-----0
  6
CONTINUOUS
  5
67
 10
337.871723
 20
295.445316
 30
0.0
 11
340.871723
 21
298.445316
 31
0.0
  0
LINE
  8
LC-006-005-----0
  6
CONTINUOUS
  5
68
 10
363.162429
 20
320.736022
 30
0.0
 11
365.94363
 21
323.517223
 31
0.0
  0
LINE
  8
LC-006-005-----0
  6
CONTINUOUS
  5
69
 10
335.043296
 20
295.445316
 30
0.0
 11
338.043296
 21
298.445316
 31
0.0
  0
LINE
  8
LC-006-005-----0
  6
CONTINUOUS
  5
6A
 10
363.162429
 20
323.564449
 30
0.0
 11
365.91916
 21
326.32118
 31
0.0
  0
LINE
  8
LC-006-005-----0
  6
CONTINUOUS
  5
6B
 10
332.214869
 20
295.445316
 30
0.0
 11
335.214869
 21
298.445316
 31
0.0
  0
LINE
  8
LC-006-005-----0
  6
CONTINUOUS
  5
6C
 10
363.162429
 20
326.392876
 30
0.0
 11
365.89469
 21
329.125138
 31
0.0
  0
LINE
  8
LC-006-005-----0
  6
CONTINUOUS
  5
6D
 10
329.386441
 20
295.445316
 30
0.0
 11
332.386441
 21
298.445316
 31
0.0
  0
LINE
  8
LC-006-005-----0
  6
CONTINUOUS
  5
6E
 10
363.162429
 20
329.221303
 30
0.0
 11
365.87022
 21
331.929095
 31
0.0
  0
LINE
  8
LC-006-005-----0
  6
CONTINUOUS
  5
6F
 10
326.558014
 20
295.445316
 30
0.0
 11
329.558014
 21
298.445316
 31
0.0
  0
LINE
  8
LC-006-005-----0
  6
CONTINUOUS
  5
70
 10
363.162429
 20
332.049731
 30
0.0
 11
365.845751
 21
334.733052
 31
0.0
  0
LINE
  8
LC-006-005-----0
  6
CONTINUOUS
  5
71
 10
323.80792
 20
295.523649
 30
0.0
 11
326.729587
 21
298.445316
 31
0.0
  0
LINE
  8
LC-006-005-----0
  6
CONTINUOUS
  5
72
 10
363.162429
 20
334.878158
 30
0.0
 11
365.821281
 21
337.53701
 31
0.0
  0
LINE
  8
LC-006-005-----0
  6
CONTINUOUS
  5
73
 10
321.489856
 20
296.034012
 30
0.0
 11
323.979352
 21
298.523508
 31
0.0
  0
LINE
  8
LC-006-005-----0
  6
CONTINUOUS
  5
74
 10
363.162429
 20
337.706585
 30
0.0
 11
365.796811
 21
340.340967
 31
0.0
  0
LINE
  8
LC-006-005-----0
  6
CONTINUOUS
  5
75
 10
319.517517
 20
296.8901
 30
0.0
 11
321.746481
 21
299.119064
 31
0.0
  0
LINE
  8
LC-006-005-----0
  6
CONTINUOUS
  5
76
 10
363.162429
 20
340.535012
 30
0.0
 11
365.772341
 21
343.144924
 31
0.0
  0
LINE
  8
LC-006-005-----0
  6
CONTINUOUS
  5
77
 10
317.820504
 20
298.021514
 30
0.0
 11
319.92541
 21
300.12642
 31
0.0
  0
LINE
  8
LC-006-005-----0
  6
CONTINUOUS
  5
78
 10
363.162429
 20
343.363439
 30
0.0
 11
365.747872
 21
345.948882
 31
0.0
  0
LINE
  8
LC-006-005-----0
  6
CONTINUOUS
  5
79
 10
316.370604
 20
299.400041
 30
0.0
 11
318.436524
 21
301.465961
 31
0.0
  0
LINE
  8
LC-006-005-----0
  6
CONTINUOUS
  5
7A
 10
363.162429
 20
346.191866
 30
0.0
 11
365.723402
 21
348.752839
 31
0.0
  0
LINE
  8
LC-006-005-----0
  6
CONTINUOUS
  5
7B
 10
315.164544
 20
301.022408
 30
0.0
 11
317.267625
 21
303.125489
 31
0.0
  0
LINE
  8
LC-006-005-----0
  6
CONTINUOUS
  5
7C
 10
363.162429
 20
349.020293
 30
0.0
 11
365.698932
 21
351.556796
 31
0.0
  0
LINE
  8
LC-006-005-----0
  6
CONTINUOUS
  5
7D
 10
314.222298
 20
302.908589
 30
0.0
 11
316.461367
 21
305.147659
 31
0.0
  0
LINE
  8
LC-006-005-----0
  6
CONTINUOUS
  5
7E
 10
363.162429
 20
351.84872
 30
0.0
 11
365.674462
 21
354.360754
 31
0.0
  0
LINE
  8
LC-006-005-----0
  6
CONTINUOUS
  5
7F
 10
313.598393
 20
305.113112
 30
0.0
 11
316.163136
 21
307.677854
 31
0.0
  0
LINE
  8
LC-006-005-----0
  6
CONTINUOUS
  5
80
 10
363.162429
 20
354.677148
 30
0.0
 11
365.649993
 21
357.164711
 31
0.0
  0
LINE
  8
LC-006-005-----0
  6
CONTINUOUS
  5
81
 10
313.412429
 20
307.755575
 30
0.0
 11
316.163136
 21
310.506282
 31
0.0
  0
LINE
  8
LC-006-005-----0
  6
CONTINUOUS
  5
82
 10
363.162429
 20
357.505575
 30
0.0
 11
365.625523
 21
359.968669
 31
0.0
  0
LINE
  8
LC-006-005-----0
  6
CONTINUOUS
  5
83
 10
313.412429
 20
310.584002
 30
0.0
 11
316.163136
 21
313.334709
 31
0.0
  0
LINE
  8
LC-006-005-----0
  6
CONTINUOUS
  5
84
 10
363.162429
 20
360.334002
 30
0.0
 11
365.601053
 21
362.772626
 31
0.0
  0
LINE
  8
LC-006-005-----0
  6
CONTINUOUS
  5
85
 10
313.412429
 20
313.412429
 30
0.0
 11
316.163136
 21
316.163136
 31
0.0
  0
LINE
  8
LC-006-005-----0
  6
CONTINUOUS
  5
86
 10
363.162429
 20
363.162429
 30
0.0
 11
365.576583
 21
365.576583
 31
0.0
  0
LINE
  8
LC-006-005-----0
  6
CONTINUOUS
  5
87
 10
313.412429
 20
316.240856
 30
0.0
 11
316.163136
 21
318.991563
 31
0.0
  0
LINE
  8
LC-006-005-----0
  6
CONTINUOUS
  5
88
 10
363.162429
 20
365.990856
 30
0.0
 11
365.552113
 21
368.380541
 31
0.0
  0
LINE
  8
LC-006-005-----0
  6
CONTINUOUS
  5
89
 10
313.412429
 20
319.069283
 30
0.0
 11
316.163136
 21
321.81999
 31
0.0
  0
LINE
  8
LC-006-005-----0
  6
CONTINUOUS
  5
8A
 10
363.162429
 20
368.819283
 30
0.0
 11
365.527644
 21
371.184498
 31
0.0
  0
LINE
  8
LC-006-005-----0
  6
CONTINUOUS
  5
8B
 10
313.412429
 20
321.89771
 30
0.0
 11
316.163136
 21
324.648417
 31
0.0
  0
LINE
  8
LC-006-005-----0
  6
CONTINUOUS
  5
8C
 10
363.162429
 20
371.64771
 30
0.0
 11
364.960035
 21
373.445316
 31
0.0
  0
LINE
  8
LC-006-005-----0
  6
CONTINUOUS
  5
8D
 10
313.412429
 20
324.726137
 30
0.0
 11
316.163136
 21
327.476844
 31
0.0
  0
LINE
  8
LC-006-005-----0
  6
CONTINUOUS
  5
8E
 10
313.412429
 20
327.554565
 30
0.0
 11
316.163136
 21
330.305271
 31
0.0
  0
LINE
  8
LC-006-005-----0
  6
CONTINUOUS
  5
8F
 10
313.412429
 20
330.382992
 30
0.0
 11
316.163136
 21
333.133699
 31
0.0
  0
LINE
  8
LC-006-005-----0
  6
CONTINUOUS
  5
90
 10
313.412429
 20
333.211419
 30
0.0
 11
316.163136
 21
335.962126
 31
0.0
  0
LINE
  8
LC-006-005-----0
  6
CONTINUOUS
  5
91
 10
313.412429
 20
336.039846
 30
0.0
 11
316.163136
 21
338.790553
 31
0.0
  0
LINE
  8
LC-006-005-----0
  6
CONTINUOUS
  5
92
 10
313.412429
 20
338.868273
 30
0.0
 11
316.163136
 21
341.61898
 31
0.0
  0
LINE
  8
LC-006-005-----0
  6
CONTINUOUS
  5
93
 10
313.412429
 20
341.6967
 30
0.0
 11
316.163136
 21
344.447407
 31
0.0
  0
LINE
  8
LC-006-005-----0
  6
CONTINUOUS
  5
94
 10
313.412429
 20
344.525127
 30
0.0
 11
316.163136
 21
347.275834
 31
0.0
  0
LINE
  8
LC-006-005-----0
  6
CONTINUOUS
  5
95
 10
313.412429
 20
347.353554
 30
0.0
 11
316.163136
 21
350.104261
 31
0.0
  0
LINE
  8
LC-006-005-----0
  6
CONTINUOUS
  5
96
 10
313.412429
 20
350.181982
 30
0.0
 11
316.163136
 21
352.932688
 31
0.0
  0
LINE
  8
LC-006-005-----0
  6
CONTINUOUS
  5
97
 10
313.412429
 20
353.010409
 30
0.0
 11
316.163136
 21
355.761116
 31
0.0
  0
LINE
  8
LC-006-005-----0
  6
CONTINUOUS
  5
98
 10
313.412429
 20
355.838836
 30
0.0
 11
316.163136
 21
358.589543
 31
0.0
  0
LINE
  8
LC-006-005-----0
  6
CONTINUOUS
  5
99
 10
313.412429
 20
358.667263
 30
0.0
 11
316.163136
 21
361.41797
 31
0.0
  0
LINE
  8
LC-006-005-----0
  6
CONTINUOUS
  5
9A
 10
313.412429
 20
361.49569
 30
0.0
 11
316.163136
 21
364.246397
 31
0.0
  0
LINE
  8
LC-006-005-----0
  6
CONTINUOUS
  5
9B
 10
313.412429
 20
364.324117
 30
0.0
 11
316.163136
 21
367.074824
 31
0.0
  0
LINE
  8
LC-006-005-----0
  6
CONTINUOUS
  5
9C
 10
313.412429
 20
367.152544
 30
0.0
 11
316.163136
 21
369.903251
 31
0.0
  0
LINE
  8
LC-006-005-----0
  6
CONTINUOUS
  5
9D
 10
313.373298
 20
369.941841
 30
0.0
 11
316.163136
 21
372.731678
 31
0.0
  0
LINE
  8
LC-006-005-----0
  6
CONTINUOUS
  5
9E
 10
312.208449
 20
371.605418
 30
0.0
 11
315.613136
 21
375.010105
 31
0.0
  0
LINE
  8
LC-006-005-----0
  6
CONTINUOUS
  5
9F
 10
311.043599
 20
373.268996
 30
0.0
 11
315.613136
 21
377.838533
 31
0.0
  0
LINE
  8
LC-006-005-----0
  6
CONTINUOUS
  5
A0
 10
309.87875
 20
374.932573
 30
0.0
 11
316.161608
 21
381.215432
 31
0.0
  0
LINE
  8
LC-006-005-----0
  6
CONTINUOUS
  5
A1
 10
308.7139
 20
376.596151
 30
0.0
 11
314.213065
 21
382.095316
 31
0.0
  0
LINE
  8
LC-006-005-----0
  6
CONTINUOUS
  5
A2
 10
307.549051
 20
378.259729
 30
0.0
 11
311.384638
 21
382.095316
 31
0.0
  0
LINE
  8
LC-006-005-----0
  6
CONTINUOUS
  5
A3
 10
306.384201
 20
379.923306
 30
0.0
 11
308.556211
 21
382.095316
 31
0.0
  0
LINE
  8
LC-006-005-----0
  6
CONTINUOUS
  5
A4
 10
305.219351
 20
381.586884
 30
0.0
 11
306.914518
 21
383.28205
 31
0.0
  0
LINE
  8
LC-006-005-----0
  6
CONTINUOUS
  5
A5
 10
304.163136
 20
383.359095
 30
0.0
 11
306.914518
 21
386.110477
 31
0.0
  0
LINE
  8
LC-006-005-----0
  6
CONTINUOUS
  5
A6
 10
304.163136
 20
386.187522
 30
0.0
 11
306.914518
 21
388.938904
 31
0.0
  0
LINE
  8
LC-006-005-----0
  6
CONTINUOUS
  5
A7
 10
304.163136
 20
389.01595
 30
0.0
 11
306.914518
 21
391.767331
 31
0.0
  0
LINE
  8
LC-006-005-----0
  6
CONTINUOUS
  5
A8
 10
303.152324
 20
390.833564
 30
0.0
 11
306.914518
 21
394.595759
 31
0.0
  0
LINE
  8
LC-006-005-----0
  6
CONTINUOUS
  5
A9
 10
300.79243
 20
391.302098
 30
0.0
 11
303.085648
 21
393.595316
 31
0.0
  0
LINE
  8
LC-006-005-----0
  6
CONTINUOUS
  5
AA
 10
304.913136
 20
395.422804
 30
0.0
 11
306.914518
 21
397.424186
 31
0.0
  0
LINE
  8
LC-006-005-----0
  6
CONTINUOUS
  5
AB
 10
299.277342
 20
392.615437
 30
0.0
 11
301.830675
 21
395.16877
 31
0.0
  0
LINE
  8
LC-006-005-----0
  6
CONTINUOUS
  5
AC
 10
304.913136
 20
398.251231
 30
0.0
 11
306.260788
 21
399.598883
 31
0.0
  0
LINE
  8
LC-006-005-----0
  6
CONTINUOUS
  5
AD
 10
298.835307
 20
395.001829
 30
0.0
 11
301.689825
 21
397.856347
 31
0.0
  0
LINE
  8
LC-006-005-----0
  6
CONTINUOUS
  5
AE
 10
298.694457
 20
397.689406
 30
0.0
 11
301.548975
 21
400.543924
 31
0.0
  0
LINE
  8
LC-006-005-----0
  6
CONTINUOUS
  5
AF
 10
297.939629
 20
399.763006
 30
0.0
 11
300.911903
 21
402.735279
 31
0.0
  0
LINE
  8
LC-006-005-----0
  6
CONTINUOUS
  5
B0
 10
295.457555
 20
400.109359
 30
0.0
 11
298.268332
 21
402.920136
 31
0.0
  0
LINE
  8
LC-006-005-----0
  6
CONTINUOUS
  5
B1
 10
292.813984
 20
400.294215
 30
0.0
 11
295.624761
 21
403.104992
 31
0.0
  0
LINE
  8
LC-006-005-----0
  6
CONTINUOUS
  5
B2
 10
290.170413
 20
400.479071
 30
0.0
 11
292.981191
 21
403.289848
 31
0.0
  0
LINE
  8
LC-006-005-----0
  6
CONTINUOUS
  5
B3
 10
287.526843
 20
400.663928
 30
0.0
 11
290.33762
 21
403.474705
 31
0.0
  0
LINE
  8
LC-006-005-----0
  6
CONTINUOUS
  5
B4
 10
284.883272
 20
400.848784
 30
0.0
 11
287.694049
 21
403.659561
 31
0.0
  0
LINE
  8
LC-006-005-----0
  6
CONTINUOUS
  5
B5
 10
283.138581
 20
401.93252
 30
0.0
 11
285.2315
 21
404.025439
 31
0.0
  0
LINE
  8
LC-006-005-----0
  6
CONTINUOUS
  5
B6
 10
281.008182
 20
402.630549
 30
0.0
 11
283.765137
 21
405.387503
 31
0.0
  0
LINE
  8
LC-006-005-----0
  6
CONTINUOUS
  5
B7
 10
278.228279
 20
402.679072
 30
0.0
 11
281.177261
 21
405.628054
 31
0.0
  0
LINE
  8
LC-006-005-----0
  6
CONTINUOUS
  5
B8
 10
275.448375
 20
402.727596
 30
0.0
 11
278.397357
 21
405.676578
 31
0.0
  0
LINE
  8
LC-006-005-----0
  6
CONTINUOUS
  5
B9
 10
272.668471
 20
402.776119
 30
0.0
 11
275.617454
 21
405.725101
 31
0.0
  0
LINE
  8
LC-006-005-----0
  6
CONTINUOUS
  5
BA
 10
269.888567
 20
402.824642
 30
0.0
 11
272.83755
 21
405.773625
 31
0.0
  0
LINE
  8
LC-006-005-----0
  6
CONTINUOUS
  5
BB
 10
267.108664
 20
402.873166
 30
0.0
 11
270.057646
 21
405.822148
 31
0.0
  0
LINE
  8
LC-006-005-----0
  6
CONTINUOUS
  5
BC
 10
264.32876
 20
402.921689
 30
0.0
 11
267.277742
 21
405.870671
 31
0.0
  0
LINE
  8
LC-006-005-----0
  6
CONTINUOUS
  5
BD
 10
261.548856
 20
402.970213
 30
0.0
 11
264.497839
 21
405.919195
 31
0.0
  0
LINE
  8
LC-006-005-----0
  6
CONTINUOUS
  5
BE
 10
258.768953
 20
403.018736
 30
0.0
 11
261.717935
 21
405.967718
 31
0.0
  0
LINE
  8
LC-006-005-----0
  6
CONTINUOUS
  5
BF
 10
255.989049
 20
403.067259
 30
0.0
 11
258.938031
 21
406.016242
 31
0.0
  0
LINE
  8
LC-006-005-----0
  6
CONTINUOUS
  5
C0
 10
253.209145
 20
403.115783
 30
0.0
 11
256.158127
 21
406.064765
 31
0.0
  0
LINE
  8
LC-006-005-----0
  6
CONTINUOUS
  5
C1
 10
250.429241
 20
403.164306
 30
0.0
 11
253.378224
 21
406.113288
 31
0.0
  0
LINE
  8
LC-006-005-----0
  6
CONTINUOUS
  5
C2
 10
247.649338
 20
403.21283
 30
0.0
 11
250.59832
 21
406.161812
 31
0.0
  0
LINE
  8
LC-006-005-----0
  6
CONTINUOUS
  5
C3
 10
244.869434
 20
403.261353
 30
0.0
 11
247.818416
 21
406.210335
 31
0.0
  0
LINE
  8
LC-006-005-----0
  6
CONTINUOUS
  5
C4
 10
242.910686
 20
404.131032
 30
0.0
 11
245.038513
 21
406.258859
 31
0.0
  0
ENDBLK
  8
0
  5
C5
  0
BLOCK
  8
0
  5
C7
  2
*X2
 70
    65
 10
415.662553
 20
221.945473
 30
0.0
  3
*X2
  0
LINE
  8
LC-006-005-----0
  6
CONTINUOUS
  5
C8
 10
445.662429
 20
222.216686
 30
0.0
 11
448.029649
 21
224.583906
 31
0.0
  0
LINE
  8
LC-006-005-----0
  6
CONTINUOUS
  5
C9
 10
445.662429
 20
225.045113
 30
0.0
 11
448.662429
 21
228.045113
 31
0.0
  0
LINE
  8
LC-006-005-----0
  6
CONTINUOUS
  5
CA
 10
445.662429
 20
227.87354
 30
0.0
 11
448.662429
 21
230.87354
 31
0.0
  0
LINE
  8
LC-006-005-----0
  6
CONTINUOUS
  5
CB
 10
445.662429
 20
230.701967
 30
0.0
 11
448.662429
 21
233.701967
 31
0.0
  0
LINE
  8
LC-006-005-----0
  6
CONTINUOUS
  5
CC
 10
445.662429
 20
233.530395
 30
0.0
 11
448.662429
 21
236.530395
 31
0.0
  0
LINE
  8
LC-006-005-----0
  6
CONTINUOUS
  5
CD
 10
445.662429
 20
236.358822
 30
0.0
 11
448.662429
 21
239.358822
 31
0.0
  0
LINE
  8
LC-006-005-----0
  6
CONTINUOUS
  5
CE
 10
445.662429
 20
239.187249
 30
0.0
 11
448.662429
 21
242.187249
 31
0.0
  0
LINE
  8
LC-006-005-----0
  6
CONTINUOUS
  5
CF
 10
445.662429
 20
242.015676
 30
0.0
 11
448.662429
 21
245.015676
 31
0.0
  0
LINE
  8
LC-006-005-----0
  6
CONTINUOUS
  5
D0
 10
445.662429
 20
244.844103
 30
0.0
 11
448.662429
 21
247.844103
 31
0.0
  0
LINE
  8
LC-006-005-----0
  6
CONTINUOUS
  5
D1
 10
445.662429
 20
247.67253
 30
0.0
 11
448.662429
 21
250.67253
 31
0.0
  0
LINE
  8
LC-006-005-----0
  6
CONTINUOUS
  5
D2
 10
445.662429
 20
250.500957
 30
0.0
 11
448.662429
 21
253.500957
 31
0.0
  0
LINE
  8
LC-006-005-----0
  6
CONTINUOUS
  5
D3
 10
445.662429
 20
253.329384
 30
0.0
 11
448.662429
 21
256.329384
 31
0.0
  0
LINE
  8
LC-006-005-----0
  6
CONTINUOUS
  5
D4
 10
445.662429
 20
256.157812
 30
0.0
 11
448.662429
 21
259.157812
 31
0.0
  0
LINE
  8
LC-006-005-----0
  6
CONTINUOUS
  5
D5
 10
445.662429
 20
258.986239
 30
0.0
 11
448.662429
 21
261.986239
 31
0.0
  0
LINE
  8
LC-006-005-----0
  6
CONTINUOUS
  5
D6
 10
445.662429
 20
261.814666
 30
0.0
 11
448.662429
 21
264.814666
 31
0.0
  0
LINE
  8
LC-006-005-----0
  6
CONTINUOUS
  5
D7
 10
445.662429
 20
264.643093
 30
0.0
 11
448.662429
 21
267.643093
 31
0.0
  0
LINE
  8
LC-006-005-----0
  6
CONTINUOUS
  5
D8
 10
445.662429
 20
267.47152
 30
0.0
 11
448.662429
 21
270.47152
 31
0.0
  0
LINE
  8
LC-006-005-----0
  6
CONTINUOUS
  5
D9
 10
445.662429
 20
270.299947
 30
0.0
 11
448.662429
 21
273.299947
 31
0.0
  0
LINE
  8
LC-006-005-----0
  6
CONTINUOUS
  5
DA
 10
415.662554
 20
243.128499
 30
0.0
 11
418.662429
 21
246.128374
 31
0.0
  0
LINE
  8
LC-006-005-----0
  6
CONTINUOUS
  5
DB
 10
445.662429
 20
273.128374
 30
0.0
 11
448.662429
 21
276.128374
 31
0.0
  0
LINE
  8
LC-006-005-----0
  6
CONTINUOUS
  5
DC
 10
415.662555
 20
245.956928
 30
0.0
 11
418.662429
 21
248.956801
 31
0.0
  0
LINE
  8
LC-006-005-----0
  6
CONTINUOUS
  5
DD
 10
445.662429
 20
275.956801
 30
0.0
 11
448.662429
 21
278.956801
 31
0.0
  0
LINE
  8
LC-006-005-----0
  6
CONTINUOUS
  5
DE
 10
465.694546
 20
295.988918
 30
0.0
 11
473.368974
 21
303.663346
 31
0.0
  0
LINE
  8
LC-006-005-----0
  6
CONTINUOUS
  5
DF
 10
415.662557
 20
248.785357
 30
0.0
 11
418.662429
 21
251.785229
 31
0.0
  0
LINE
  8
LC-006-005-----0
  6
CONTINUOUS
  5
E0
 10
445.662429
 20
278.785229
 30
0.0
 11
448.662429
 21
281.785229
 31
0.0
  0
LINE
  8
LC-006-005-----0
  6
CONTINUOUS
  5
E1
 10
462.323771
 20
295.446571
 30
0.0
 11
466.363617
 21
299.486417
 31
0.0
  0
LINE
  8
LC-006-005-----0
  6
CONTINUOUS
  5
E2
 10
470.120621
 20
303.243421
 30
0.0
 11
473.911321
 21
307.034121
 31
0.0
  0
LINE
  8
LC-006-005-----0
  6
CONTINUOUS
  5
E3
 10
415.662559
 20
251.613786
 30
0.0
 11
418.662429
 21
254.613656
 31
0.0
  0
LINE
  8
LC-006-005-----0
  6
CONTINUOUS
  5
E4
 10
445.662429
 20
281.613656
 30
0.0
 11
448.662429
 21
284.613656
 31
0.0
  0
LINE
  8
LC-006-005-----0
  6
CONTINUOUS
  5
E5
 10
459.494238
 20
295.445465
 30
0.0
 11
462.500466
 21
298.451693
 31
0.0
  0
LINE
  8
LC-006-005-----0
  6
CONTINUOUS
  5
E6
 10
471.155345
 20
307.106572
 30
0.0
 11
473.912429
 21
309.863656
 31
0.0
  0
LINE
  8
LC-006-005-----0
  6
CONTINUOUS
  5
E7
 10
415.662561
 20
254.442215
 30
0.0
 11
418.662429
 21
257.442083
 31
0.0
  0
LINE
  8
LC-006-005-----0
  6
CONTINUOUS
  5
E8
 10
445.662429
 20
284.442083
 30
0.0
 11
448.662429
 21
287.442083
 31
0.0
  0
LINE
  8
LC-006-005-----0
  6
CONTINUOUS
  5
E9
 10
456.665813
 20
295.445467
 30
0.0
 11
459.665662
 21
298.445316
 31
0.0
  0
LINE
  8
LC-006-005-----0
  6
CONTINUOUS
  5
EA
 10
471.161722
 20
309.941376
 30
0.0
 11
473.912429
 21
312.692083
 31
0.0
  0
LINE
  8
LC-006-005-----0
  6
CONTINUOUS
  5
EB
 10
415.662563
 20
257.270644
 30
0.0
 11
418.662429
 21
260.27051
 31
0.0
  0
LINE
  8
LC-006-005-----0
  6
CONTINUOUS
  5
EC
 10
445.662429
 20
287.27051
 30
0.0
 11
448.662429
 21
290.27051
 31
0.0
  0
LINE
  8
LC-006-005-----0
  6
CONTINUOUS
  5
ED
 10
453.837388
 20
295.445469
 30
0.0
 11
456.837235
 21
298.445316
 31
0.0
  0
LINE
  8
LC-006-005-----0
  6
CONTINUOUS
  5
EE
 10
471.161722
 20
312.769803
 30
0.0
 11
473.912429
 21
315.52051
 31
0.0
  0
LINE
  8
LC-006-005-----0
  6
CONTINUOUS
  5
EF
 10
415.662565
 20
260.099073
 30
0.0
 11
418.662429
 21
263.098937
 31
0.0
  0
LINE
  8
LC-006-005-----0
  6
CONTINUOUS
  5
F0
 10
445.662429
 20
290.098937
 30
0.0
 11
448.662429
 21
293.098937
 31
0.0
  0
LINE
  8
LC-006-005-----0
  6
CONTINUOUS
  5
F1
 10
451.008962
 20
295.44547
 30
0.0
 11
454.008808
 21
298.445316
 31
0.0
  0
LINE
  8
LC-006-005-----0
  6
CONTINUOUS
  5
F2
 10
471.161722
 20
315.59823
 30
0.0
 11
473.912429
 21
318.348937
 31
0.0
  0
LINE
  8
LC-006-005-----0
  6
CONTINUOUS
  5
F3
 10
415.662567
 20
262.927502
 30
0.0
 11
418.662429
 21
265.927364
 31
0.0
  0
LINE
  8
LC-006-005-----0
  6
CONTINUOUS
  5
F4
 10
445.662429
 20
292.927364
 30
0.0
 11
451.180381
 21
298.445316
 31
0.0
  0
LINE
  8
LC-006-005-----0
  6
CONTINUOUS
  5
F5
 10
471.161722
 20
318.426657
 30
0.0
 11
473.912429
 21
321.177364
 31
0.0
  0
LINE
  8
LC-006-005-----0
  6
CONTINUOUS
  5
F6
 10
415.662568
 20
265.755931
 30
0.0
 11
418.662429
 21
268.755791
 31
0.0
  0
LINE
  8
LC-006-005-----0
  6
CONTINUOUS
  5
F7
 10
445.352112
 20
295.445474
 30
0.0
 11
448.351954
 21
298.445316
 31
0.0
  0
LINE
  8
LC-006-005-----0
  6
CONTINUOUS
  5
F8
 10
471.161722
 20
321.255084
 30
0.0
 11
473.912429
 21
324.005791
 31
0.0
  0
LINE
  8
LC-006-005-----0
  6
CONTINUOUS
  5
F9
 10
415.66257
 20
268.58436
 30
0.0
 11
418.662429
 21
271.584218
 31
0.0
  0
LINE
  8
LC-006-005-----0
  6
CONTINUOUS
  5
FA
 10
442.523687
 20
295.445476
 30
0.0
 11
445.523526
 21
298.445316
 31
0.0
  0
LINE
  8
LC-006-005-----0
  6
CONTINUOUS
  5
FB
 10
471.161722
 20
324.083512
 30
0.0
 11
473.912429
 21
326.834218
 31
0.0
  0
LINE
  8
LC-006-005-----0
  6
CONTINUOUS
  5
FC
 10
415.662572
 20
271.412789
 30
0.0
 11
418.662429
 21
274.412646
 31
0.0
  0
LINE
  8
LC-006-005-----0
  6
CONTINUOUS
  5
FD
 10
439.695261
 20
295.445478
 30
0.0
 11
442.695099
 21
298.445316
 31
0.0
  0
LINE
  8
LC-006-005-----0
  6
CONTINUOUS
  5
FE
 10
471.161722
 20
326.911939
 30
0.0
 11
473.912429
 21
329.662646
 31
0.0
  0
LINE
  8
LC-006-005-----0
  6
CONTINUOUS
  5
FF
 10
415.662574
 20
274.241218
 30
0.0
 11
418.662429
 21
277.241073
 31
0.0
  0
LINE
  8
LC-006-005-----0
  6
CONTINUOUS
  5
100
 10
436.866836
 20
295.44548
 30
0.0
 11
439.866672
 21
298.445316
 31
0.0
  0
LINE
  8
LC-006-005-----0
  6
CONTINUOUS
  5
101
 10
471.161722
 20
329.740366
 30
0.0
 11
473.912429
 21
332.491073
 31
0.0
  0
LINE
  8
LC-006-005-----0
  6
CONTINUOUS
  5
102
 10
415.662576
 20
277.069647
 30
0.0
 11
418.662429
 21
280.0695
 31
0.0
  0
LINE
  8
LC-006-005-----0
  6
CONTINUOUS
  5
103
 10
434.038411
 20
295.445482
 30
0.0
 11
437.038245
 21
298.445316
 31
0.0
  0
LINE
  8
LC-006-005-----0
  6
CONTINUOUS
  5
104
 10
471.161722
 20
332.568793
 30
0.0
 11
473.912429
 21
335.3195
 31
0.0
  0
LINE
  8
LC-006-005-----0
  6
CONTINUOUS
  5
105
 10
541.843466
 20
403.250537
 30
0.0
 11
544.421886
 21
405.828957
 31
0.0
  0
LINE
  8
LC-006-005-----0
  6
CONTINUOUS
  5
106
 10
415.662578
 20
279.898076
 30
0.0
 11
418.662429
 21
282.897927
 31
0.0
  0
LINE
  8
LC-006-005-----0
  6
CONTINUOUS
  5
107
 10
431.209985
 20
295.445483
 30
0.0
 11
434.209818
 21
298.445316
 31
0.0
  0
LINE
  8
LC-006-005-----0
  6
CONTINUOUS
  5
108
 10
471.161722
 20
335.39722
 30
0.0
 11
473.912429
 21
338.147927
 31
0.0
  0
LINE
  8
LC-006-005-----0
  6
CONTINUOUS
  5
109
 10
538.964791
 20
403.200289
 30
0.0
 11
542.018552
 21
406.25405
 31
0.0
  0
LINE
  8
LC-006-005-----0
  6
CONTINUOUS
  5
10A
 10
415.662579
 20
282.726505
 30
0.0
 11
418.662429
 21
285.726354
 31
0.0
  0
LINE
  8
LC-006-005-----0
  6
CONTINUOUS
  5
10B
 10
428.38156
 20
295.445485
 30
0.0
 11
431.381391
 21
298.445316
 31
0.0
  0
LINE
  8
LC-006-005-----0
  6
CONTINUOUS
  5
10C
 10
471.161722
 20
338.225647
 30
0.0
 11
473.912429
 21
340.976354
 31
0.0
  0
LINE
  8
LC-006-005-----0
  6
CONTINUOUS
  5
10D
 10
536.086116
 20
403.150042
 30
0.0
 11
539.139877
 21
406.203802
 31
0.0
  0
LINE
  8
LC-006-005-----0
  6
CONTINUOUS
  5
10E
 10
415.662581
 20
285.554934
 30
0.0
 11
418.662429
 21
288.554781
 31
0.0
  0
LINE
  8
LC-006-005-----0
  6
CONTINUOUS
  5
10F
 10
425.553135
 20
295.445487
 30
0.0
 11
428.552964
 21
298.445316
 31
0.0
  0
LINE
  8
LC-006-005-----0
  6
CONTINUOUS
  5
110
 10
471.161722
 20
341.054074
 30
0.0
 11
473.912429
 21
343.804781
 31
0.0
  0
LINE
  8
LC-006-005-----0
  6
CONTINUOUS
  5
111
 10
533.207442
 20
403.099794
 30
0.0
 11
536.261202
 21
406.153555
 31
0.0
  0
LINE
  8
LC-006-005-----0
  6
CONTINUOUS
  5
112
 10
415.662583
 20
288.383363
 30
0.0
 11
418.662429
 21
291.383208
 31
0.0
  0
LINE
  8
LC-006-005-----0
  6
CONTINUOUS
  5
113
 10
423.970516
 20
296.691295
 30
0.0
 11
425.971186
 21
298.691965
 31
0.0
  0
LINE
  8
LC-006-005-----0
  6
CONTINUOUS
  5
114
 10
471.161722
 20
343.882501
 30
0.0
 11
473.912429
 21
346.633208
 31
0.0
  0
LINE
  8
LC-006-005-----0
  6
CONTINUOUS
  5
115
 10
530.328767
 20
403.049547
 30
0.0
 11
533.382528
 21
406.103307
 31
0.0
  0
LINE
  8
LC-006-005-----0
  6
CONTINUOUS
  5
116
 10
415.662585
 20
291.211791
 30
0.0
 11
418.662429
 21
294.211635
 31
0.0
  0
LINE
  8
LC-006-005-----0
  6
CONTINUOUS
  5
117
 10
419.896284
 20
295.445491
 30
0.0
 11
421.718474
 21
297.267681
 31
0.0
  0
LINE
  8
LC-006-005-----0
  6
CONTINUOUS
  5
118
 10
422.310645
 20
297.859851
 30
0.0
 11
424.504644
 21
300.05385
 31
0.0
  0
LINE
  8
LC-006-005-----0
  6
CONTINUOUS
  5
119
 10
471.161722
 20
346.710929
 30
0.0
 11
473.912429
 21
349.461635
 31
0.0
  0
LINE
  8
LC-006-005-----0
  6
CONTINUOUS
  5
11A
 10
527.450093
 20
402.999299
 30
0.0
 11
530.503853
 21
406.05306
 31
0.0
  0
LINE
  8
LC-006-005-----0
  6
CONTINUOUS
  5
11B
 10
415.662587
 20
294.04022
 30
0.0
 11
424.162429
 21
302.540063
 31
0.0
  0
LINE
  8
LC-006-005-----0
  6
CONTINUOUS
  5
11C
 10
471.161722
 20
349.539356
 30
0.0
 11
473.912429
 21
352.290063
 31
0.0
  0
LINE
  8
LC-006-005-----0
  6
CONTINUOUS
  5
11D
 10
524.571418
 20
402.949052
 30
0.0
 11
527.625179
 21
406.002812
 31
0.0
  0
LINE
  8
LC-006-005-----0
  6
CONTINUOUS
  5
11E
 10
421.204313
 20
302.410374
 30
0.0
 11
424.162429
 21
305.36849
 31
0.0
  0
LINE
  8
LC-006-005-----0
  6
CONTINUOUS
  5
11F
 10
471.161722
 20
352.367783
 30
0.0
 11
473.912429
 21
355.11849
 31
0.0
  0
LINE
  8
LC-006-005-----0
  6
CONTINUOUS
  5
120
 10
521.692744
 20
402.898804
 30
0.0
 11
524.746504
 21
405.952565
 31
0.0
  0
LINE
  8
LC-006-005-----0
  6
CONTINUOUS
  5
121
 10
421.23451
 20
305.268998
 30
0.0
 11
424.162429
 21
308.196917
 31
0.0
  0
LINE
  8
LC-006-005-----0
  6
CONTINUOUS
  5
122
 10
471.161722
 20
355.19621
 30
0.0
 11
473.912429
 21
357.946917
 31
0.0
  0
LINE
  8
LC-006-005-----0
  6
CONTINUOUS
  5
123
 10
518.814069
 20
402.848557
 30
0.0
 11
521.86783
 21
405.902317
 31
0.0
  0
LINE
  8
LC-006-005-----0
  6
CONTINUOUS
  5
124
 10
421.264707
 20
308.127622
 30
0.0
 11
424.162429
 21
311.025344
 31
0.0
  0
LINE
  8
LC-006-005-----0
  6
CONTINUOUS
  5
125
 10
471.161722
 20
358.024637
 30
0.0
 11
473.912429
 21
360.775344
 31
0.0
  0
LINE
  8
LC-006-005-----0
  6
CONTINUOUS
  5
126
 10
515.935394
 20
402.798309
 30
0.0
 11
518.989155
 21
405.85207
 31
0.0
  0
LINE
  8
LC-006-005-----0
  6
CONTINUOUS
  5
127
 10
421.294904
 20
310.986246
 30
0.0
 11
424.162429
 21
313.853771
 31
0.0
  0
LINE
  8
LC-006-005-----0
  6
CONTINUOUS
  5
128
 10
471.161722
 20
360.853064
 30
0.0
 11
473.912429
 21
363.603771
 31
0.0
  0
LINE
  8
LC-006-005-----0
  6
CONTINUOUS
  5
129
 10
513.05672
 20
402.748062
 30
0.0
 11
516.11048
 21
405.801823
 31
0.0
  0
LINE
  8
LC-006-005-----0
  6
CONTINUOUS
  5
12A
 10
421.3251
 20
313.84487
 30
0.0
 11
424.162429
 21
316.682198
 31
0.0
  0
LINE
  8
LC-006-005-----0
  6
CONTINUOUS
  5
12B
 10
471.161722
 20
363.681491
 30
0.0
 11
473.912429
 21
366.432198
 31
0.0
  0
LINE
  8
LC-006-005-----0
  6
CONTINUOUS
  5
12C
 10
510.178045
 20
402.697815
 30
0.0
 11
513.231806
 21
405.751575
 31
0.0
  0
LINE
  8
LC-006-005-----0
  6
CONTINUOUS
  5
12D
 10
421.355297
 20
316.703493
 30
0.0
 11
424.162429
 21
319.510625
 31
0.0
  0
LINE
  8
LC-006-005-----0
  6
CONTINUOUS
  5
12E
 10
471.161722
 20
366.509918
 30
0.0
 11
473.912429
 21
369.260625
 31
0.0
  0
LINE
  8
LC-006-005-----0
  6
CONTINUOUS
  5
12F
 10
507.299371
 20
402.647567
 30
0.0
 11
510.353131
 21
405.701328
 31
0.0
  0
LINE
  8
LC-006-005-----0
  6
CONTINUOUS
  5
130
 10
421.385494
 20
319.562117
 30
0.0
 11
424.162429
 21
322.339052
 31
0.0
  0
LINE
  8
LC-006-005-----0
  6
CONTINUOUS
  5
131
 10
471.161722
 20
369.338346
 30
0.0
 11
479.083802
 21
377.260426
 31
0.0
  0
LINE
  8
LC-006-005-----0
  6
CONTINUOUS
  5
132
 10
502.688916
 20
400.865539
 30
0.0
 11
507.474457
 21
405.65108
 31
0.0
  0
LINE
  8
LC-006-005-----0
  6
CONTINUOUS
  5
133
 10
421.41569
 20
322.420741
 30
0.0
 11
424.162429
 21
325.16748
 31
0.0
  0
LINE
  8
LC-006-005-----0
  6
CONTINUOUS
  5
134
 10
471.161722
 20
372.166773
 30
0.0
 11
483.169436
 21
384.174487
 31
0.0
  0
LINE
  8
LC-006-005-----0
  6
CONTINUOUS
  5
135
 10
499.647836
 20
400.652887
 30
0.0
 11
504.595782
 21
405.600833
 31
0.0
  0
LINE
  8
LC-006-005-----0
  6
CONTINUOUS
  5
136
 10
421.445887
 20
325.279365
 30
0.0
 11
424.162429
 21
327.995907
 31
0.0
  0
LINE
  8
LC-006-005-----0
  6
CONTINUOUS
  5
137
 10
471.719436
 20
375.552914
 30
0.0
 11
478.261838
 21
382.095316
 31
0.0
  0
LINE
  8
LC-006-005-----0
  6
CONTINUOUS
  5
138
 10
480.419436
 20
384.252914
 30
0.0
 11
483.169436
 21
387.002914
 31
0.0
  0
LINE
  8
LC-006-005-----0
  6
CONTINUOUS
  5
139
 10
496.606756
 20
400.440234
 30
0.0
 11
499.840185
 21
403.673663
 31
0.0
  0
LINE
  8
LC-006-005-----0
  6
CONTINUOUS
  5
13A
 10
421.476084
 20
328.137989
 30
0.0
 11
424.162429
 21
330.824334
 31
0.0
  0
LINE
  8
LC-006-005-----0
  6
CONTINUOUS
  5
13B
 10
471.719436
 20
378.381341
 30
0.0
 11
475.433411
 21
382.095316
 31
0.0
  0
LINE
  8
LC-006-005-----0
  6
CONTINUOUS
  5
13C
 10
480.419436
 20
387.081341
 30
0.0
 11
483.442897
 21
390.104802
 31
0.0
  0
LINE
  8
LC-006-005-----0
  6
CONTINUOUS
  5
13D
 10
484.15995
 20
390.821855
 30
0.0
 11
488.505968
 21
395.167873
 31
0.0
  0
LINE
  8
LC-006-005-----0
  6
CONTINUOUS
  5
13E
 10
493.565676
 20
400.227581
 30
0.0
 11
496.799105
 21
403.46101
 31
0.0
  0
LINE
  8
LC-006-005-----0
  6
CONTINUOUS
  5
13F
 10
421.506281
 20
330.996613
 30
0.0
 11
424.162429
 21
333.652761
 31
0.0
  0
LINE
  8
LC-006-005-----0
  6
CONTINUOUS
  5
140
 10
470.719436
 20
380.209768
 30
0.0
 11
472.604984
 21
382.095316
 31
0.0
  0
LINE
  8
LC-006-005-----0
  6
CONTINUOUS
  5
141
 10
480.419436
 20
389.909768
 30
0.0
 11
484.108551
 21
393.598883
 31
0.0
  0
LINE
  8
LC-006-005-----0
  6
CONTINUOUS
  5
142
 10
485.492134
 20
394.982466
 30
0.0
 11
488.662397
 21
398.152729
 31
0.0
  0
LINE
  8
LC-006-005-----0
  6
CONTINUOUS
  5
143
 10
490.524596
 20
400.014928
 30
0.0
 11
493.758025
 21
403.248357
 31
0.0
  0
LINE
  8
LC-006-005-----0
  6
CONTINUOUS
  5
144
 10
421.536477
 20
333.855237
 30
0.0
 11
424.162429
 21
336.481188
 31
0.0
  0
LINE
  8
LC-006-005-----0
  6
CONTINUOUS
  5
145
 10
480.419436
 20
392.738196
 30
0.0
 11
482.418055
 21
394.736814
 31
0.0
  0
LINE
  8
LC-006-005-----0
  6
CONTINUOUS
  5
146
 10
485.648564
 20
397.967323
 30
0.0
 11
490.716945
 21
403.035704
 31
0.0
  0
LINE
  8
LC-006-005-----0
  6
CONTINUOUS
  5
147
 10
421.566674
 20
336.71386
 30
0.0
 11
424.162429
 21
339.309615
 31
0.0
  0
LINE
  8
LC-006-005-----0
  6
CONTINUOUS
  5
148
 10
480.419436
 20
395.566623
 30
0.0
 11
482.418055
 21
397.565241
 31
0.0
  0
LINE
  8
LC-006-005-----0
  6
CONTINUOUS
  5
149
 10
485.804993
 20
400.95218
 30
0.0
 11
487.675865
 21
402.823051
 31
0.0
  0
LINE
  8
LC-006-005-----0
  6
CONTINUOUS
  5
14A
 10
421.596871
 20
339.572484
 30
0.0
 11
424.162429
 21
342.138042
 31
0.0
  0
LINE
  8
LC-006-005-----0
  6
CONTINUOUS
  5
14B
 10
480.419436
 20
398.39505
 30
0.0
 11
481.619703
 21
399.595316
 31
0.0
  0
LINE
  8
LC-006-005-----0
  6
CONTINUOUS
  5
14C
 10
421.627068
 20
342.431108
 30
0.0
 11
424.162429
 21
344.966469
 31
0.0
  0
LINE
  8
LC-006-005-----0
  6
CONTINUOUS
  5
14D
 10
421.657264
 20
345.289732
 30
0.0
 11
424.162429
 21
347.794897
 31
0.0
  0
LINE
  8
LC-006-005-----0
  6
CONTINUOUS
  5
14E
 10
421.687461
 20
348.148356
 30
0.0
 11
424.162429
 21
350.623324
 31
0.0
  0
LINE
  8
LC-006-005-----0
  6
CONTINUOUS
  5
14F
 10
421.717658
 20
351.00698
 30
0.0
 11
424.162429
 21
353.451751
 31
0.0
  0
LINE
  8
LC-006-005-----0
  6
CONTINUOUS
  5
150
 10
421.747854
 20
353.865604
 30
0.0
 11
424.162429
 21
356.280178
 31
0.0
  0
LINE
  8
LC-006-005-----0
  6
CONTINUOUS
  5
151
 10
421.778051
 20
356.724227
 30
0.0
 11
424.162429
 21
359.108605
 31
0.0
  0
LINE
  8
LC-006-005-----0
  6
CONTINUOUS
  5
152
 10
421.808248
 20
359.582851
 30
0.0
 11
424.162429
 21
361.937032
 31
0.0
  0
LINE
  8
LC-006-005-----0
  6
CONTINUOUS
  5
153
 10
421.838445
 20
362.441475
 30
0.0
 11
424.162429
 21
364.765459
 31
0.0
  0
LINE
  8
LC-006-005-----0
  6
CONTINUOUS
  5
154
 10
421.868641
 20
365.300099
 30
0.0
 11
424.162429
 21
367.593886
 31
0.0
  0
LINE
  8
LC-006-005-----0
  6
CONTINUOUS
  5
155
 10
421.898838
 20
368.158723
 30
0.0
 11
424.162429
 21
370.422314
 31
0.0
  0
LINE
  8
LC-006-005-----0
  6
CONTINUOUS
  5
156
 10
421.929035
 20
371.017347
 30
0.0
 11
424.162429
 21
373.250741
 31
0.0
  0
LINE
  8
LC-006-005-----0
  6
CONTINUOUS
  5
157
 10
421.188793
 20
373.105532
 30
0.0
 11
421.502213
 21
373.418952
 31
0.0
  0
ENDBLK
  8
0
  5
158
  0
BLOCK
  8
0
  5
15A
  2
BLK2
 70
    64
 10
0.0
 20
0.0
 30
0.0
  3
BLK2
  0
ENDBLK
  8
0
  5
15B
  0
BLOCK
  8
0
  5
15D
  2
BLK3
 70
    64
 10
0.0
 20
0.0
 30
0.0
  3
BLK3
  0
ENDBLK
  8
0
  5
15E
  0
BLOCK
  8
0
  5
160
  2
*X5
 70
    65
 10
463.162429
 20
382.31522
 30
0.0
  3
*X5
  0
LINE
  8
LC-006-005-----0
  6
CONTINUOUS
  5
161
 10
469.996461
 20
382.31522
 30
0.0
 11
472.662429
 21
384.981188
 31
0.0
  0
LINE
  8
LC-006-005-----0
  6
CONTINUOUS
  5
162
 10
483.150582
 20
395.469342
 30
0.0
 11
484.648439
 21
396.967199
 31
0.0
  0
LINE
  8
LC-006-005-----0
  6
CONTINUOUS
  5
163
 10
467.168034
 20
382.31522
 30
0.0
 11
472.662429
 21
387.809615
 31
0.0
  0
LINE
  8
LC-006-005-----0
  6
CONTINUOUS
  5
164
 10
482.662214
 20
397.809401
 30
0.0
 11
485.119876
 21
400.267062
 31
0.0
  0
LINE
  8
LC-006-005-----0
  6
CONTINUOUS
  5
165
 10
464.339607
 20
382.31522
 30
0.0
 11
472.662429
 21
390.638042
 31
0.0
  0
LINE
  8
LC-006-005-----0
  6
CONTINUOUS
  5
166
 10
481.563991
 20
399.539604
 30
0.0
 11
484.258515
 21
402.234128
 31
0.0
  0
LINE
  8
LC-006-005-----0
  6
CONTINUOUS
  5
167
 10
463.162429
 20
383.966469
 30
0.0
 11
464.51118
 21
385.31522
 31
0.0
  0
LINE
  8
LC-006-005-----0
  6
CONTINUOUS
  5
168
 10
465.912429
 20
386.716469
 30
0.0
 11
472.662429
 21
393.466469
 31
0.0
  0
LINE
  8
LC-006-005-----0
  6
CONTINUOUS
  5
169
 10
478.522911
 20
399.326951
 30
0.0
 11
481.217435
 21
402.021475
 31
0.0
  0
LINE
  8
LC-006-005-----0
  6
CONTINUOUS
  5
16A
 10
465.912429
 20
389.544897
 30
0.0
 11
472.662429
 21
396.294897
 31
0.0
  0
LINE
  8
LC-006-005-----0
  6
CONTINUOUS
  5
16B
 10
475.48183
 20
399.114298
 30
0.0
 11
478.176355
 21
401.808822
 31
0.0
  0
LINE
  8
LC-006-005-----0
  6
CONTINUOUS
  5
16C
 10
465.912429
 20
392.373324
 30
0.0
 11
475.135274
 21
401.596169
 31
0.0
  0
LINE
  8
LC-006-005-----0
  6
CONTINUOUS
  5
16D
 10
465.912429
 20
395.201751
 30
0.0
 11
472.094194
 21
401.383516
 31
0.0
  0
LINE
  8
LC-006-005-----0
  6
CONTINUOUS
  5
16E
 10
465.912429
 20
398.030178
 30
0.0
 11
469.053114
 21
401.170863
 31
0.0
  0
ENDBLK
  8
0
  5
16F
  0
BLOCK
  8
0
  5
171
  2
*X6
 70
    65
 10
301.912429
 20
382.31522
 30
0.0
  3
*X6
  0
LINE
  8
LC-006-005-----0
  6
CONTINUOUS
  5
172
 10
322.91825
 20
382.31522
 30
0.0
 11
324.162429
 21
383.559399
 31
0.0
  0
LINE
  8
LC-006-005-----0
  6
CONTINUOUS
  5
173
 10
320.089823
 20
382.31522
 30
0.0
 11
323.089823
 21
385.31522
 31
0.0
  0
LINE
  8
LC-006-005-----0
  6
CONTINUOUS
  5
174
 10
317.261396
 20
382.31522
 30
0.0
 11
321.412429
 21
386.466253
 31
0.0
  0
LINE
  8
LC-006-005-----0
  6
CONTINUOUS
  5
175
 10
314.849962
 20
382.732213
 30
0.0
 11
321.412429
 21
389.29468
 31
0.0
  0
LINE
  8
LC-006-005-----0
  6
CONTINUOUS
  5
176
 10
314.662429
 20
385.373107
 30
0.0
 11
321.412429
 21
392.123107
 31
0.0
  0
LINE
  8
LC-006-005-----0
  6
CONTINUOUS
  5
177
 10
314.662429
 20
388.201534
 30
0.0
 11
321.412429
 21
394.951534
 31
0.0
  0
LINE
  8
LC-006-005-----0
  6
CONTINUOUS
  5
178
 10
314.662429
 20
391.029961
 30
0.0
 11
321.412429
 21
397.779961
 31
0.0
  0
LINE
  8
LC-006-005-----0
  6
CONTINUOUS
  5
179
 10
314.662429
 20
393.858388
 30
0.0
 11
321.23508
 21
400.431039
 31
0.0
  0
LINE
  8
LC-006-005-----0
  6
CONTINUOUS
  5
17A
 10
314.662429
 20
396.686816
 30
0.0
 11
319.089307
 21
401.113694
 31
0.0
  0
LINE
  8
LC-006-005-----0
  6
CONTINUOUS
  5
17B
 10
314.103422
 20
398.956236
 30
0.0
 11
316.445736
 21
401.29855
 31
0.0
  0
LINE
  8
LC-006-005-----0
  6
CONTINUOUS
  5
17C
 10
311.459851
 20
399.141092
 30
0.0
 11
313.802166
 21
401.483407
 31
0.0
  0
LINE
  8
LC-006-005-----0
  6
CONTINUOUS
  5
17D
 10
308.816281
 20
399.325949
 30
0.0
 11
311.158595
 21
401.668263
 31
0.0
  0
LINE
  8
LC-006-005-----0
  6
CONTINUOUS
  5
17E
 10
302.79551
 20
396.133605
 30
0.0
 11
304.662644
 21
398.000739
 31
0.0
  0
LINE
  8
LC-006-005-----0
  6
CONTINUOUS
  5
17F
 10
306.17271
 20
399.510805
 30
0.0
 11
308.515024
 21
401.853119
 31
0.0
  0
LINE
  8
LC-006-005-----0
  6
CONTINUOUS
  5
180
 10
302.441939
 20
398.608461
 30
0.0
 11
305.871454
 21
402.037976
 31
0.0
  0
LINE
  8
LC-006-005-----0
  6
CONTINUOUS
  5
181
 10
302.088368
 20
401.083317
 30
0.0
 11
303.227883
 21
402.222832
 31
0.0
  0
ENDBLK
  8
0
  5
182
  0
BLOCK
  8
0
  5
184
  2
*D7
 70
    65
 10
0.0
 20
0.0
 30
0.0
  3
*D7
  0
LINE
  8
LC-009-003-MTH-0
  6
CONTINUOUS
  5
186
 10
242.910686
 20
406.296
 30
0.0
 11
242.910686
 21
487.2
 31
0.0
  0
LINE
  8
LC-009-003-MTH-0
  6
CONTINUOUS
  5
187
 10
544.421886
 20
406.296
 30
0.0
 11
544.421886
 21
487.2
 31
0.0
  0
LINE
  8
LC-010-003-MTG-0
  6
CONTINUOUS
  5
189
 10
242.910686
 20
470.4
 30
0.0
 11
544.421886
 21
470.4
 31
0.0
  0
LINE
  8
LC-008-003-----0
  6
CONTINUOUS
  5
18B
 10
270.671142
 20
474.054733
 30
0.0
 11
242.910686
 21
470.4
 31
0.0
  0
LINE
  8
LC-008-003-----0
  6
CONTINUOUS
  5
18C
 10
242.910686
 20
470.4
 30
0.0
 11
270.671142
 21
466.745267
 31
0.0
  0
LINE
  8
LC-008-003-----0
  6
CONTINUOUS
  5
18D
 10
270.671142
 20
466.745267
 30
0.0
 11
270.671142
 21
474.054733
 31
0.0
  0
LINE
  8
LC-008-003-----0
  6
CONTINUOUS
  5
18E
 10
270.733424
 20
473.104503
 30
0.0
 11
250.190686
 21
470.4
 31
0.0
  0
LINE
  8
LC-008-003-----0
  6
CONTINUOUS
  5
18F
 10
250.190686
 20
470.4
 30
0.0
 11
270.733424
 21
467.695497
 31
0.0
  0
LINE
  8
LC-008-003-----0
  6
CONTINUOUS
  5
190
 10
270.795705
 20
472.154272
 30
0.0
 11
257.470686
 21
470.4
 31
0.0
  0
LINE
  8
LC-008-003-----0
  6
CONTINUOUS
  5
191
 10
257.470686
 20
470.4
 30
0.0
 11
270.795705
 21
468.645728
 31
0.0
  0
LINE
  8
LC-008-003-----0
  6
CONTINUOUS
  5
192
 10
270.857986
 20
471.204041
 30
0.0
 11
264.750686
 21
470.4
 31
0.0
  0
LINE
  8
LC-008-003-----0
  6
CONTINUOUS
  5
193
 10
264.750686
 20
470.4
 30
0.0
 11
270.857986
 21
469.595959
 31
0.0
  0
LINE
  8
LC-008-003-----0
  6
CONTINUOUS
  5
194
 10
516.66143
 20
466.745267
 30
0.0
 11
544.421886
 21
470.4
 31
0.0
  0
LINE
  8
LC-008-003-----0
  6
CONTINUOUS
  5
195
 10
544.421886
 20
470.4
 30
0.0
 11
516.66143
 21
474.054733
 31
0.0
  0
LINE
  8
LC-008-003-----0
  6
CONTINUOUS
  5
196
 10
516.66143
 20
474.054733
 30
0.0
 11
516.66143
 21
466.745267
 31
0.0
  0
LINE
  8
LC-008-003-----0
  6
CONTINUOUS
  5
197
 10
516.599149
 20
467.695497
 30
0.0
 11
537.141886
 21
470.4
 31
0.0
  0
LINE
  8
LC-008-003-----0
  6
CONTINUOUS
  5
198
 10
537.141886
 20
470.4
 30
0.0
 11
516.599149
 21
473.104503
 31
0.0
  0
LINE
  8
LC-008-003-----0
  6
CONTINUOUS
  5
199
 10
516.536867
 20
468.645728
 30
0.0
 11
529.861886
 21
470.4
 31
0.0
  0
LINE
  8
LC-008-003-----0
  6
CONTINUOUS
  5
19A
 10
529.861886
 20
470.4
 30
0.0
 11
516.536867
 21
472.154272
 31
0.0
  0
LINE
  8
LC-008-003-----0
  6
CONTINUOUS
  5
19B
 10
516.474586
 20
469.595959
 30
0.0
 11
522.581886
 21
470.4
 31
0.0
  0
LINE
  8
LC-008-003-----0
  6
CONTINUOUS
  5
19C
 10
522.581886
 20
470.4
 30
0.0
 11
516.474586
 21
471.204041
 31
0.0
  0
TEXT
  8
LC-008-003-----0
  6
CONTINUOUS
 62
     8
  5
19E
 10
359.916808
 20
478.227554
 30
0.0
 40
28.0
  1
Ø300
 41
0.9
 51
15.0
  7
LC-TXTSTYLE-150-400-0-0-D0
 72
     1
 11
398.014446
 21
478.227554
 31
0.0
  0
ENDBLK
  8
0
  5
19F
  0
BLOCK
  8
0
  5
1A1
  2
*D8
 70
    65
 10
0.0
 20
0.0
 30
0.0
  3
*D8
  0
LINE
  8
LC-009-003-MTH-0
  6
CONTINUOUS
  5
1A2
 10
298.769785
 20
396.25206
 30
0.0
 11
298.770222
 21
447.997475
 31
0.0
  0
LINE
  8
LC-009-003-MTH-0
  6
CONTINUOUS
  5
1A3
 10
488.562703
 20
396.250456
 30
0.0
 11
488.563141
 21
447.99587
 31
0.0
  0
LINE
  8
LC-010-003-MTG-0
  6
CONTINUOUS
  5
1A4
 10
298.77008
 20
431.197475
 30
0.0
 11
488.562999
 21
431.19587
 31
0.0
  0
LINE
  8
LC-008-003-----0
  6
CONTINUOUS
  5
1A5
 10
326.530567
 20
434.851973
 30
0.0
 11
298.77008
 21
431.197475
 31
0.0
  0
LINE
  8
LC-008-003-----0
  6
CONTINUOUS
  5
1A6
 10
298.77008
 20
431.197475
 30
0.0
 11
326.530505
 21
427.542506
 31
0.0
  0
LINE
  8
LC-008-003-----0
  6
CONTINUOUS
  5
1A7
 10
326.530505
 20
427.542506
 30
0.0
 11
326.530567
 21
434.851973
 31
0.0
  0
LINE
  8
LC-008-003-----0
  6
CONTINUOUS
  5
1A8
 10
326.592841
 20
433.901742
 30
0.0
 11
306.05008
 21
431.197413
 31
0.0
  0
LINE
  8
LC-008-003-----0
  6
CONTINUOUS
  5
1A9
 10
306.05008
 20
431.197413
 30
0.0
 11
326.592795
 21
428.492737
 31
0.0
  0
LINE
  8
LC-008-003-----0
  6
CONTINUOUS
  5
1AA
 10
326.655114
 20
432.951511
 30
0.0
 11
313.33008
 21
431.197351
 31
0.0
  0
LINE
  8
LC-008-003-----0
  6
CONTINUOUS
  5
1AB
 10
313.33008
 20
431.197351
 30
0.0
 11
326.655084
 21
429.442967
 31
0.0
  0
LINE
  8
LC-008-003-----0
  6
CONTINUOUS
  5
1AC
 10
326.717387
 20
432.00128
 30
0.0
 11
320.61008
 21
431.19729
 31
0.0
  0
LINE
  8
LC-008-003-----0
  6
CONTINUOUS
  5
1AD
 10
320.61008
 20
431.19729
 30
0.0
 11
326.717374
 21
430.393197
 31
0.0
  0
LINE
  8
LC-008-003-----0
  6
CONTINUOUS
  5
1AE
 10
460.802512
 20
427.541371
 30
0.0
 11
488.562999
 21
431.19587
 31
0.0
  0
LINE
  8
LC-008-003-----0
  6
CONTINUOUS
  5
1AF
 10
488.562999
 20
431.19587
 30
0.0
 11
460.802574
 21
434.850838
 31
0.0
  0
LINE
  8
LC-008-003-----0
  6
CONTINUOUS
  5
1B0
 10
460.802574
 20
434.850838
 30
0.0
 11
460.802512
 21
427.541371
 31
0.0
  0
LINE
  8
LC-008-003-----0
  6
CONTINUOUS
  5
1B1
 10
460.740238
 20
428.491603
 30
0.0
 11
481.282999
 21
431.195932
 31
0.0
  0
LINE
  8
LC-008-003-----0
  6
CONTINUOUS
  5
1B2
 10
481.282999
 20
431.195932
 30
0.0
 11
460.740284
 21
433.900608
 31
0.0
  0
LINE
  8
LC-008-003-----0
  6
CONTINUOUS
  5
1B3
 10
460.677965
 20
429.441834
 30
0.0
 11
474.002999
 21
431.195993
 31
0.0
  0
LINE
  8
LC-008-003-----0
  6
CONTINUOUS
  5
1B4
 10
474.002999
 20
431.195993
 30
0.0
 11
460.677995
 21
432.950378
 31
0.0
  0
LINE
  8
LC-008-003-----0
  6
CONTINUOUS
  5
1B5
 10
460.615692
 20
430.392065
 30
0.0
 11
466.722999
 21
431.196055
 31
0.0
  0
LINE
  8
LC-008-003-----0
  6
CONTINUOUS
  5
1B6
 10
466.722999
 20
431.196055
 30
0.0
 11
460.615705
 21
432.000148
 31
0.0
  0
TEXT
  8
LC-008-003-----0
  6
CONTINUOUS
 62
     8
  5
1B7
 10
359.916991
 20
439.024226
 30
0.0
 40
28.0
  1
Ø190
 50
360.0
 51
15.0
  7
LC-TXTSTYLE-150-400-0-0-D0
 72
     1
 11
398.014628
 21
439.024226
 31
0.0
  0
ENDBLK
  8
0
  5
1B8
  0
BLOCK
  8
0
  5
1BA
  2
*D9
 70
    65
 10
0.0
 20
0.0
 30
0.0
  3
*D9
  0
LINE
  8
LC-009-003-MTH-0
  6
CONTINUOUS
  5
1BB
 10
313.412429
 20
307.195316
 30
0.0
 11
313.412618
 21
100.800288
 31
0.0
  0
LINE
  8
LC-009-003-MTH-0
  6
CONTINUOUS
  5
1BC
 10
473.912429
 20
307.195463
 30
0.0
 11
473.912618
 21
100.800435
 31
0.0
  0
LINE
  8
LC-010-003-MTG-0
  6
CONTINUOUS
  5
1BD
 10
313.412603
 20
117.600288
 30
0.0
 11
473.912603
 21
117.600435
 31
0.0
  0
LINE
  8
LC-008-003-----0
  6
CONTINUOUS
  5
1BE
 10
341.173056
 20
121.255046
 30
0.0
 11
313.412603
 21
117.600288
 31
0.0
  0
LINE
  8
LC-008-003-----0
  6
CONTINUOUS
  5
1BF
 10
313.412603
 20
117.600288
 30
0.0
 11
341.173062
 21
113.94558
 31
0.0
  0
LINE
  8
LC-008-003-----0
  6
CONTINUOUS
  5
1C0
 10
341.173062
 20
113.94558
 30
0.0
 11
341.173056
 21
121.255046
 31
0.0
  0
LINE
  8
LC-008-003-----0
  6
CONTINUOUS
  5
1C1
 10
341.235338
 20
120.304816
 30
0.0
 11
320.692603
 21
117.600294
 31
0.0
  0
LINE
  8
LC-008-003-----0
  6
CONTINUOUS
  5
1C2
 10
320.692603
 20
117.600294
 30
0.0
 11
341.235343
 21
114.89581
 31
0.0
  0
LINE
  8
LC-008-003-----0
  6
CONTINUOUS
  5
1C3
 10
341.29762
 20
119.354585
 30
0.0
 11
327.972603
 21
117.600301
 31
0.0
  0
LINE
  8
LC-008-003-----0
  6
CONTINUOUS
  5
1C4
 10
327.972603
 20
117.600301
 30
0.0
 11
341.297623
 21
115.846041
 31
0.0
  0
LINE
  8
LC-008-003-----0
  6
CONTINUOUS
  5
1C5
 10
341.359903
 20
118.404355
 30
0.0
 11
335.252603
 21
117.600308
 31
0.0
  0
LINE
  8
LC-008-003-----0
  6
CONTINUOUS
  5
1C6
 10
335.252603
 20
117.600308
 30
0.0
 11
341.359904
 21
116.796272
 31
0.0
  0
LINE
  8
LC-008-003-----0
  6
CONTINUOUS
  5
1C7
 10
446.15215
 20
113.945676
 30
0.0
 11
473.912603
 21
117.600435
 31
0.0
  0
LINE
  8
LC-008-003-----0
  6
CONTINUOUS
  5
1C8
 10
473.912603
 20
117.600435
 30
0.0
 11
446.152143
 21
121.255143
 31
0.0
  0
LINE
  8
LC-008-003-----0
  6
CONTINUOUS
  5
1C9
 10
446.152143
 20
121.255143
 30
0.0
 11
446.15215
 21
113.945676
 31
0.0
  0
LINE
  8
LC-008-003-----0
  6
CONTINUOUS
  5
1CA
 10
446.089868
 20
114.895907
 30
0.0
 11
466.632603
 21
117.600428
 31
0.0
  0
LINE
  8
LC-008-003-----0
  6
CONTINUOUS
  5
1CB
 10
466.632603
 20
117.600428
 30
0.0
 11
446.089863
 21
120.304912
 31
0.0
  0
LINE
  8
LC-008-003-----0
  6
CONTINUOUS
  5
1CC
 10
446.027586
 20
115.846137
 30
0.0
 11
459.352603
 21
117.600422
 31
0.0
  0
LINE
  8
LC-008-003-----0
  6
CONTINUOUS
  5
1CD
 10
459.352603
 20
117.600422
 30
0.0
 11
446.027582
 21
119.354681
 31
0.0
  0
LINE
  8
LC-008-003-----0
  6
CONTINUOUS
  5
1CE
 10
445.965303
 20
116.796368
 30
0.0
 11
452.072603
 21
117.600415
 31
0.0
  0
LINE
  8
LC-008-003-----0
  6
CONTINUOUS
  5
1CF
 10
452.072603
 20
117.600415
 30
0.0
 11
445.965302
 21
118.404451
 31
0.0
  0
TEXT
  8
LC-008-003-----0
  6
CONTINUOUS
 62
     8
  5
1D0
 10
359.913133
 20
125.427915
 30
0.0
 40
28.0
  1
Ø160
 51
15.0
  7
LC-TXTSTYLE-150-400-0-0-D0
 72
     1
 11
398.010771
 21
125.427915
 31
0.0
  0
ENDBLK
  8
0
  5
1D1
  0
BLOCK
  8
0
  5
1D3
  2
*D10
 70
    65
 10
0.0
 20
0.0
 30
0.0
  3
*D10
  0
LINE
  8
LC-009-003-MTH-0
  6
CONTINUOUS
  5
1D4
 10
338.662429
 20
226.945544
 30
0.0
 11
338.662429
 21
140.0
 31
0.0
  0
LINE
  8
LC-009-003-MTH-0
  6
CONTINUOUS
  5
1D5
 10
448.662429
 20
226.945472
 30
0.0
 11
448.662429
 21
140.0
 31
0.0
  0
LINE
  8
LC-010-003-MTG-0
  6
CONTINUOUS
  5
1D6
 10
338.662429
 20
156.8
 30
0.0
 11
448.662429
 21
156.8
 31
0.0
  0
LINE
  8
LC-008-003-----0
  6
CONTINUOUS
  5
1D7
 10
366.422885
 20
160.454733
 30
0.0
 11
338.662429
 21
156.8
 31
0.0
  0
LINE
  8
LC-008-003-----0
  6
CONTINUOUS
  5
1D8
 10
338.662429
 20
156.8
 30
0.0
 11
366.422885
 21
153.145267
 31
0.0
  0
LINE
  8
LC-008-003-----0
  6
CONTINUOUS
  5
1D9
 10
366.422885
 20
153.145267
 30
0.0
 11
366.422885
 21
160.454733
 31
0.0
  0
LINE
  8
LC-008-003-----0
  6
CONTINUOUS
  5
1DA
 10
366.485166
 20
159.504503
 30
0.0
 11
345.942429
 21
156.8
 31
0.0
  0
LINE
  8
LC-008-003-----0
  6
CONTINUOUS
  5
1DB
 10
345.942429
 20
156.8
 30
0.0
 11
366.485166
 21
154.095497
 31
0.0
  0
LINE
  8
LC-008-003-----0
  6
CONTINUOUS
  5
1DC
 10
366.547448
 20
158.554272
 30
0.0
 11
353.222429
 21
156.8
 31
0.0
  0
LINE
  8
LC-008-003-----0
  6
CONTINUOUS
  5
1DD
 10
353.222429
 20
156.8
 30
0.0
 11
366.547448
 21
155.045728
 31
0.0
  0
LINE
  8
LC-008-003-----0
  6
CONTINUOUS
  5
1DE
 10
366.609729
 20
157.604041
 30
0.0
 11
360.502429
 21
156.8
 31
0.0
  0
LINE
  8
LC-008-003-----0
  6
CONTINUOUS
  5
1DF
 10
360.502429
 20
156.8
 30
0.0
 11
366.609729
 21
155.995959
 31
0.0
  0
LINE
  8
LC-008-003-----0
  6
CONTINUOUS
  5
1E0
 10
420.901973
 20
153.145267
 30
0.0
 11
448.662429
 21
156.8
 31
0.0
  0
LINE
  8
LC-008-003-----0
  6
CONTINUOUS
  5
1E1
 10
448.662429
 20
156.8
 30
0.0
 11
420.901973
 21
160.454733
 31
0.0
  0
LINE
  8
LC-008-003-----0
  6
CONTINUOUS
  5
1E2
 10
420.901973
 20
160.454733
 30
0.0
 11
420.901973
 21
153.145267
 31
0.0
  0
LINE
  8
LC-008-003-----0
  6
CONTINUOUS
  5
1E3
 10
420.839691
 20
154.095497
 30
0.0
 11
441.382429
 21
156.8
 31
0.0
  0
LINE
  8
LC-008-003-----0
  6
CONTINUOUS
  5
1E4
 10
441.382429
 20
156.8
 30
0.0
 11
420.839691
 21
159.504503
 31
0.0
  0
LINE
  8
LC-008-003-----0
  6
CONTINUOUS
  5
1E5
 10
420.77741
 20
155.045728
 30
0.0
 11
434.102429
 21
156.8
 31
0.0
  0
LINE
  8
LC-008-003-----0
  6
CONTINUOUS
  5
1E6
 10
434.102429
 20
156.8
 30
0.0
 11
420.77741
 21
158.554272
 31
0.0
  0
LINE
  8
LC-008-003-----0
  6
CONTINUOUS
  5
1E7
 10
420.715129
 20
155.995959
 30
0.0
 11
426.822429
 21
156.8
 31
0.0
  0
LINE
  8
LC-008-003-----0
  6
CONTINUOUS
  5
1E8
 10
426.822429
 20
156.8
 30
0.0
 11
420.715129
 21
157.604041
 31
0.0
  0
TEXT
  8
LC-008-003-----0
  6
CONTINUOUS
 62
     8
  5
1E9
 10
351.446809
 20
164.627554
 30
0.0
 40
28.0
  1
DN100
 51
15.0
  7
LC-TXTSTYLE-150-400-0-0-D0
 72
     1
 11
398.010589
 21
164.627554
 31
0.0
  0
ENDBLK
  8
0
  5
1EA
  0
BLOCK
  8
0
  5
1EC
  2
*D11
 70
    65
 10
0.0
 20
0.0
 30
0.0
  3
*D11
  0
LINE
  8
LC-009-003-MTH-0
  6
CONTINUOUS
  5
1ED
 10
325.162429
 20
295.445316
 30
0.0
 11
218.4
 21
295.445316
 31
0.0
  0
LINE
  8
LC-009-003-MTH-0
  6
CONTINUOUS
  5
1EE
 10
242.910686
 20
403.295543
 30
0.0
 11
218.4
 21
403.295543
 31
0.0
  0
LINE
  8
LC-010-003-MTG-0
  6
CONTINUOUS
  5
1EF
 10
235.2
 20
295.445316
 30
0.0
 11
235.2
 21
403.295543
 31
0.0
  0
LINE
  8
LC-008-003-----0
  6
CONTINUOUS
  5
1F0
 10
231.545267
 20
323.205772
 30
0.0
 11
235.2
 21
295.445316
 31
0.0
  0
LINE
  8
LC-008-003-----0
  6
CONTINUOUS
  5
1F1
 10
235.2
 20
295.445316
 30
0.0
 11
238.854733
 21
323.205772
 31
0.0
  0
LINE
  8
LC-008-003-----0
  6
CONTINUOUS
  5
1F2
 10
238.854733
 20
323.205772
 30
0.0
 11
231.545267
 21
323.205772
 31
0.0
  0
LINE
  8
LC-008-003-----0
  6
CONTINUOUS
  5
1F3
 10
232.495497
 20
323.268053
 30
0.0
 11
235.2
 21
302.725316
 31
0.0
  0
LINE
  8
LC-008-003-----0
  6
CONTINUOUS
  5
1F4
 10
235.2
 20
302.725316
 30
0.0
 11
237.904503
 21
323.268053
 31
0.0
  0
LINE
  8
LC-008-003-----0
  6
CONTINUOUS
  5
1F5
 10
233.445728
 20
323.330335
 30
0.0
 11
235.2
 21
310.005316
 31
0.0
  0
LINE
  8
LC-008-003-----0
  6
CONTINUOUS
  5
1F6
 10
235.2
 20
310.005316
 30
0.0
 11
236.954272
 21
323.330335
 31
0.0
  0
LINE
  8
LC-008-003-----0
  6
CONTINUOUS
  5
1F7
 10
234.395959
 20
323.392616
 30
0.0
 11
235.2
 21
317.285316
 31
0.0
  0
LINE
  8
LC-008-003-----0
  6
CONTINUOUS
  5
1F8
 10
235.2
 20
317.285316
 30
0.0
 11
236.004041
 21
323.392616
 31
0.0
  0
LINE
  8
LC-008-003-----0
  6
CONTINUOUS
  5
1F9
 10
238.854733
 20
375.535087
 30
0.0
 11
235.2
 21
403.295543
 31
0.0
  0
LINE
  8
LC-008-003-----0
  6
CONTINUOUS
  5
1FA
 10
235.2
 20
403.295543
 30
0.0
 11
231.545267
 21
375.535087
 31
0.0
  0
LINE
  8
LC-008-003-----0
  6
CONTINUOUS
  5
1FB
 10
231.545267
 20
375.535087
 30
0.0
 11
238.854733
 21
375.535087
 31
0.0
  0
LINE
  8
LC-008-003-----0
  6
CONTINUOUS
  5
1FC
 10
237.904503
 20
375.472805
 30
0.0
 11
235.2
 21
396.015543
 31
0.0
  0
LINE
  8
LC-008-003-----0
  6
CONTINUOUS
  5
1FD
 10
235.2
 20
396.015543
 30
0.0
 11
232.495497
 21
375.472805
 31
0.0
  0
LINE
  8
LC-008-003-----0
  6
CONTINUOUS
  5
1FE
 10
236.954272
 20
375.410524
 30
0.0
 11
235.2
 21
388.735543
 31
0.0
  0
LINE
  8
LC-008-003-----0
  6
CONTINUOUS
  5
1FF
 10
235.2
 20
388.735543
 30
0.0
 11
233.445728
 21
375.410524
 31
0.0
  0
LINE
  8
LC-008-003-----0
  6
CONTINUOUS
  5
200
 10
236.004041
 20
375.348243
 30
0.0
 11
235.2
 21
381.455543
 31
0.0
  0
LINE
  8
LC-008-003-----0
  6
CONTINUOUS
  5
201
 10
235.2
 20
381.455543
 30
0.0
 11
234.395959
 21
375.348243
 31
0.0
  0
TEXT
  8
LC-008-003-----0
  6
CONTINUOUS
 62
     8
  5
202
 10
227.372446
 20
323.95481
 30
0.0
 40
28.0
  1
110
 50
90.0
 51
15.0
  7
LC-TXTSTYLE-150-400-0-0-D0
 72
     1
 11
227.372446
 21
353.718589
 31
0.0
  0
ENDBLK
  8
0
  5
203
  0
BLOCK
  8
0
  5
205
  2
*D12
 70
    65
 10
0.0
 20
0.0
 30
0.0
  3
*D12
  0
LINE
  8
LC-009-003-MTH-0
  6
CONTINUOUS
  5
206
 10
352.166099
 20
323.945251
 30
0.0
 11
257.6
 21
323.945251
 31
0.0
  0
LINE
  8
LC-009-003-MTH-0
  6
CONTINUOUS
  5
207
 10
362.408381
 20
373.445253
 30
0.0
 11
257.6
 21
373.445253
 31
0.0
  0
LINE
  8
LC-008-003-----0
  6
CONTINUOUS
  5
208
 10
278.054733
 20
296.184795
 30
0.0
 11
274.4
 21
323.945251
 31
0.0
  0
LINE
  8
LC-008-003-----0
  6
CONTINUOUS
  5
209
 10
274.4
 20
323.945251
 30
0.0
 11
270.745267
 21
296.184795
 31
0.0
  0
LINE
  8
LC-008-003-----0
  6
CONTINUOUS
  5
20A
 10
270.745267
 20
296.184795
 30
0.0
 11
278.054733
 21
296.184795
 31
0.0
  0
LINE
  8
LC-008-003-----0
  6
CONTINUOUS
  5
20B
 10
277.104503
 20
296.122513
 30
0.0
 11
274.4
 21
316.665251
 31
0.0
  0
LINE
  8
LC-008-003-----0
  6
CONTINUOUS
  5
20C
 10
274.4
 20
316.665251
 30
0.0
 11
271.695497
 21
296.122513
 31
0.0
  0
LINE
  8
LC-008-003-----0
  6
CONTINUOUS
  5
20D
 10
276.154272
 20
296.060232
 30
0.0
 11
274.4
 21
309.385251
 31
0.0
  0
LINE
  8
LC-008-003-----0
  6
CONTINUOUS
  5
20E
 10
274.4
 20
309.385251
 30
0.0
 11
272.645728
 21
296.060232
 31
0.0
  0
LINE
  8
LC-008-003-----0
  6
CONTINUOUS
  5
20F
 10
275.204041
 20
295.99795
 30
0.0
 11
274.4
 21
302.105251
 31
0.0
  0
LINE
  8
LC-008-003-----0
  6
CONTINUOUS
  5
210
 10
274.4
 20
302.105251
 30
0.0
 11
273.595959
 21
295.99795
 31
0.0
  0
LINE
  8
LC-008-003-----0
  6
CONTINUOUS
  5
211
 10
270.745267
 20
401.20571
 30
0.0
 11
274.4
 21
373.445253
 31
0.0
  0
LINE
  8
LC-008-003-----0
  6
CONTINUOUS
  5
212
 10
274.4
 20
373.445253
 30
0.0
 11
278.054733
 21
401.20571
 31
0.0
  0
LINE
  8
LC-008-003-----0
  6
CONTINUOUS
  5
213
 10
278.054733
 20
401.20571
 30
0.0
 11
270.745267
 21
401.20571
 31
0.0
  0
LINE
  8
LC-008-003-----0
  6
CONTINUOUS
  5
214
 10
271.695497
 20
401.267991
 30
0.0
 11
274.4
 21
380.725253
 31
0.0
  0
LINE
  8
LC-008-003-----0
  6
CONTINUOUS
  5
215
 10
274.4
 20
380.725253
 30
0.0
 11
277.104503
 21
401.267991
 31
0.0
  0
LINE
  8
LC-008-003-----0
  6
CONTINUOUS
  5
216
 10
272.645728
 20
401.330272
 30
0.0
 11
274.4
 21
388.005253
 31
0.0
  0
LINE
  8
LC-008-003-----0
  6
CONTINUOUS
  5
217
 10
274.4
 20
388.005253
 30
0.0
 11
276.154272
 21
401.330272
 31
0.0
  0
LINE
  8
LC-008-003-----0
  6
CONTINUOUS
  5
218
 10
273.595959
 20
401.392554
 30
0.0
 11
274.4
 21
395.285253
 31
0.0
  0
LINE
  8
LC-008-003-----0
  6
CONTINUOUS
  5
219
 10
274.4
 20
395.285253
 30
0.0
 11
275.204041
 21
401.392554
 31
0.0
  0
LINE
  8
LC-010-003-MTG-0
  6
CONTINUOUS
  5
21A
 10
274.4
 20
284.745251
 30
0.0
 11
274.4
 21
412.645253
 31
0.0
  0
TEXT
  8
LC-008-003-----0
  6
CONTINUOUS
 62
     8
  5
21B
 10
266.572446
 20
336.640262
 30
0.0
 40
28.0
  1
50
 50
90.0
 51
15.0
  7
LC-TXTSTYLE-150-400-0-0-D0
 72
     1
 11
266.572446
 21
353.043412
 31
0.0
  0
ENDBLK
  8
0
  5
21C
  0
BLOCK
  8
0
  5
21E
  2
*X13
 70
    65
 10
352.161502
 20
323.945251
 30
0.0
  3
*X13
  0
LINE
  8
LC-006-005-----0
  6
CONTINUOUS
  5
21F
 10
434.254225
 20
323.945568
 30
0.0
 11
435.161672
 21
324.853015
 31
0.0
  0
LINE
  8
LC-006-005-----0
  6
CONTINUOUS
  5
220
 10
434.161831
 20
326.6816
 30
0.0
 11
435.161674
 21
327.681443
 31
0.0
  0
LINE
  8
LC-006-005-----0
  6
CONTINUOUS
  5
221
 10
434.161825
 20
329.510021
 30
0.0
 11
435.161676
 21
330.509872
 31
0.0
  0
LINE
  8
LC-006-005-----0
  6
CONTINUOUS
  5
222
 10
434.161819
 20
332.338443
 30
0.0
 11
435.161678
 21
333.338301
 31
0.0
  0
LINE
  8
LC-006-005-----0
  6
CONTINUOUS
  5
223
 10
434.161813
 20
335.166864
 30
0.0
 11
435.16168
 21
336.16673
 31
0.0
  0
LINE
  8
LC-006-005-----0
  6
CONTINUOUS
  5
224
 10
434.161807
 20
337.995285
 30
0.0
 11
435.161682
 21
338.995159
 31
0.0
  0
LINE
  8
LC-006-005-----0
  6
CONTINUOUS
  5
225
 10
434.161802
 20
340.823706
 30
0.0
 11
435.161683
 21
341.823588
 31
0.0
  0
LINE
  8
LC-006-005-----0
  6
CONTINUOUS
  5
226
 10
434.161796
 20
343.652128
 30
0.0
 11
435.161685
 21
344.652017
 31
0.0
  0
LINE
  8
LC-006-005-----0
  6
CONTINUOUS
  5
227
 10
434.16179
 20
346.480549
 30
0.0
 11
435.161687
 21
347.480446
 31
0.0
  0
LINE
  8
LC-006-005-----0
  6
CONTINUOUS
  5
228
 10
434.161784
 20
349.30897
 30
0.0
 11
435.161689
 21
350.308875
 31
0.0
  0
LINE
  8
LC-006-005-----0
  6
CONTINUOUS
  5
229
 10
434.161778
 20
352.137392
 30
0.0
 11
435.161691
 21
353.137304
 31
0.0
  0
LINE
  8
LC-006-005-----0
  6
CONTINUOUS
  5
22A
 10
434.161772
 20
354.965813
 30
0.0
 11
435.161693
 21
355.965733
 31
0.0
  0
LINE
  8
LC-006-005-----0
  6
CONTINUOUS
  5
22B
 10
434.161766
 20
357.794234
 30
0.0
 11
435.161695
 21
358.794162
 31
0.0
  0
LINE
  8
LC-006-005-----0
  6
CONTINUOUS
  5
22C
 10
434.161761
 20
360.622655
 30
0.0
 11
435.161696
 21
361.622591
 31
0.0
  0
LINE
  8
LC-006-005-----0
  6
CONTINUOUS
  5
22D
 10
434.161755
 20
363.451077
 30
0.0
 11
435.161698
 21
364.45102
 31
0.0
  0
LINE
  8
LC-006-005-----0
  6
CONTINUOUS
  5
22E
 10
434.161749
 20
366.279498
 30
0.0
 11
435.1617
 21
367.279449
 31
0.0
  0
LINE
  8
LC-006-005-----0
  6
CONTINUOUS
  5
22F
 10
434.161743
 20
369.107919
 30
0.0
 11
435.161702
 21
370.107878
 31
0.0
  0
LINE
  8
LC-006-005-----0
  6
CONTINUOUS
  5
230
 10
434.161737
 20
371.93634
 30
0.0
 11
435.161704
 21
372.936307
 31
0.0
  0
LINE
  8
LC-006-005-----0
  6
CONTINUOUS
  5
231
 10
434.161731
 20
374.764762
 30
0.0
 11
435.161706
 21
375.764736
 31
0.0
  0
LINE
  8
LC-006-005-----0
  6
CONTINUOUS
  5
232
 10
434.161725
 20
377.593183
 30
0.0
 11
435.161707
 21
378.593165
 31
0.0
  0
LINE
  8
LC-006-005-----0
  6
CONTINUOUS
  5
233
 10
434.16172
 20
380.421604
 30
0.0
 11
435.161709
 21
381.421594
 31
0.0
  0
LINE
  8
LC-006-005-----0
  6
CONTINUOUS
  5
234
 10
434.161714
 20
383.250025
 30
0.0
 11
435.157941
 21
384.246253
 31
0.0
  0
LINE
  8
LC-006-005-----0
  6
CONTINUOUS
  5
235
 10
433.971225
 20
385.887964
 30
0.0
 11
434.830128
 21
386.746867
 31
0.0
  0
LINE
  8
LC-006-005-----0
  6
CONTINUOUS
  5
236
 10
433.288047
 20
388.033213
 30
0.0
 11
434.110928
 21
388.856094
 31
0.0
  0
LINE
  8
LC-006-005-----0
  6
CONTINUOUS
  5
237
 10
432.250957
 20
389.82455
 30
0.0
 11
433.098866
 21
390.672459
 31
0.0
  0
LINE
  8
LC-006-005-----0
  6
CONTINUOUS
  5
238
 10
430.916865
 20
391.318885
 30
0.0
 11
431.835693
 21
392.237714
 31
0.0
  0
LINE
  8
LC-006-005-----0
  6
CONTINUOUS
  5
239
 10
429.296187
 20
392.526635
 30
0.0
 11
430.334973
 21
393.565421
 31
0.0
  0
LINE
  8
LC-006-005-----0
  6
CONTINUOUS
  5
23A
 10
427.360975
 20
393.419849
 30
0.0
 11
428.589066
 21
394.64794
 31
0.0
  0
LINE
  8
LC-006-005-----0
  6
CONTINUOUS
  5
23B
 10
425.021125
 20
393.908427
 30
0.0
 11
426.565316
 21
395.452617
 31
0.0
  0
LINE
  8
LC-006-005-----0
  6
CONTINUOUS
  5
23C
 10
352.229533
 20
323.945262
 30
0.0
 11
353.161669
 21
324.877398
 31
0.0
  0
LINE
  8
LC-006-005-----0
  6
CONTINUOUS
  5
23D
 10
393.729525
 20
365.445253
 30
0.0
 11
395.097533
 21
366.813262
 31
0.0
  0
LINE
  8
LC-006-005-----0
  6
CONTINUOUS
  5
23E
 10
422.229696
 20
393.945425
 30
0.0
 11
424.185909
 21
395.901637
 31
0.0
  0
LINE
  8
LC-006-005-----0
  6
CONTINUOUS
  5
23F
 10
352.161664
 20
326.70582
 30
0.0
 11
353.161661
 21
327.705817
 31
0.0
  0
LINE
  8
LC-006-005-----0
  6
CONTINUOUS
  5
240
 10
390.901098
 20
365.445253
 30
0.0
 11
395.098299
 21
369.642455
 31
0.0
  0
LINE
  8
LC-006-005-----0
  6
CONTINUOUS
  5
241
 10
419.401269
 20
393.945425
 30
0.0
 11
421.40127
 21
395.945426
 31
0.0
  0
LINE
  8
LC-006-005-----0
  6
CONTINUOUS
  5
242
 10
352.161656
 20
329.534239
 30
0.0
 11
353.161653
 21
330.534236
 31
0.0
  0
LINE
  8
LC-006-005-----0
  6
CONTINUOUS
  5
243
 10
388.07267
 20
365.445253
 30
0.0
 11
395.099065
 21
372.471648
 31
0.0
  0
LINE
  8
LC-006-005-----0
  6
CONTINUOUS
  5
244
 10
416.572842
 20
393.945425
 30
0.0
 11
418.572845
 21
395.945428
 31
0.0
  0
LINE
  8
LC-006-005-----0
  6
CONTINUOUS
  5
245
 10
352.161648
 20
332.362658
 30
0.0
 11
353.161645
 21
333.362655
 31
0.0
  0
LINE
  8
LC-006-005-----0
  6
CONTINUOUS
  5
246
 10
385.244243
 20
365.445253
 30
0.0
 11
395.099831
 21
375.300841
 31
0.0
  0
LINE
  8
LC-006-005-----0
  6
CONTINUOUS
  5
247
 10
413.744415
 20
393.945425
 30
0.0
 11
415.74442
 21
395.94543
 31
0.0
  0
LINE
  8
LC-006-005-----0
  6
CONTINUOUS
  5
248
 10
352.16164
 20
335.191077
 30
0.0
 11
353.161637
 21
336.191074
 31
0.0
  0
LINE
  8
LC-006-005-----0
  6
CONTINUOUS
  5
249
 10
382.415816
 20
365.445253
 30
0.0
 11
395.100596
 21
378.130034
 31
0.0
  0
LINE
  8
LC-006-005-----0
  6
CONTINUOUS
  5
24A
 10
410.915987
 20
393.945425
 30
0.0
 11
412.915995
 21
395.945432
 31
0.0
  0
LINE
  8
LC-006-005-----0
  6
CONTINUOUS
  5
24B
 10
352.161632
 20
338.019496
 30
0.0
 11
353.161629
 21
339.019493
 31
0.0
  0
LINE
  8
LC-006-005-----0
  6
CONTINUOUS
  5
24C
 10
379.587389
 20
365.445253
 30
0.0
 11
395.101362
 21
380.959227
 31
0.0
  0
LINE
  8
LC-006-005-----0
  6
CONTINUOUS
  5
24D
 10
408.08756
 20
393.945425
 30
0.0
 11
410.08757
 21
395.945434
 31
0.0
  0
LINE
  8
LC-006-005-----0
  6
CONTINUOUS
  5
24E
 10
352.161624
 20
340.847915
 30
0.0
 11
353.161621
 21
341.847913
 31
0.0
  0
LINE
  8
LC-006-005-----0
  6
CONTINUOUS
  5
24F
 10
376.758962
 20
365.445253
 30
0.0
 11
395.102128
 21
383.78842
 31
0.0
  0
LINE
  8
LC-006-005-----0
  6
CONTINUOUS
  5
250
 10
405.259133
 20
393.945425
 30
0.0
 11
407.4115
 21
396.097792
 31
0.0
  0
LINE
  8
LC-006-005-----0
  6
CONTINUOUS
  5
251
 10
352.161616
 20
343.676335
 30
0.0
 11
353.161613
 21
344.676332
 31
0.0
  0
LINE
  8
LC-006-005-----0
  6
CONTINUOUS
  5
252
 10
373.930535
 20
365.445253
 30
0.0
 11
395.102894
 21
386.617613
 31
0.0
  0
LINE
  8
LC-006-005-----0
  6
CONTINUOUS
  5
253
 10
402.430706
 20
393.945425
 30
0.0
 11
407.229811
 21
398.74453
 31
0.0
  0
LINE
  8
LC-006-005-----0
  6
CONTINUOUS
  5
254
 10
352.161608
 20
346.504754
 30
0.0
 11
353.161605
 21
347.504751
 31
0.0
  0
LINE
  8
LC-006-005-----0
  6
CONTINUOUS
  5
255
 10
371.102108
 20
365.445253
 30
0.0
 11
395.10366
 21
389.446805
 31
0.0
  0
LINE
  8
LC-006-005-----0
  6
CONTINUOUS
  5
256
 10
399.602279
 20
393.945425
 30
0.0
 11
401.602294
 21
395.94544
 31
0.0
  0
LINE
  8
LC-006-005-----0
  6
CONTINUOUS
  5
257
 10
403.354558
 20
397.697704
 30
0.0
 11
406.515939
 21
400.859085
 31
0.0
  0
LINE
  8
LC-006-005-----0
  6
CONTINUOUS
  5
258
 10
352.1616
 20
349.333173
 30
0.0
 11
353.161597
 21
350.33317
 31
0.0
  0
LINE
  8
LC-006-005-----0
  6
CONTINUOUS
  5
259
 10
368.273681
 20
365.445253
 30
0.0
 11
395.104425
 21
392.275998
 31
0.0
  0
LINE
  8
LC-006-005-----0
  6
CONTINUOUS
  5
25A
 10
396.773852
 20
393.945425
 30
0.0
 11
398.773869
 21
395.945442
 31
0.0
  0
LINE
  8
LC-006-005-----0
  6
CONTINUOUS
  5
25B
 10
402.561901
 20
399.733474
 30
0.0
 11
405.42
 21
402.591573
 31
0.0
  0
LINE
  8
LC-006-005-----0
  6
CONTINUOUS
  5
25C
 10
352.161592
 20
352.161592
 30
0.0
 11
353.161589
 21
353.161589
 31
0.0
  0
LINE
  8
LC-006-005-----0
  6
CONTINUOUS
  5
25D
 10
366.546528
 20
366.546528
 30
0.0
 11
395.945444
 21
395.945444
 31
0.0
  0
LINE
  8
LC-006-005-----0
  6
CONTINUOUS
  5
25E
 10
401.137066
 20
401.137066
 30
0.0
 11
403.999969
 21
403.999969
 31
0.0
  0
LINE
  8
LC-006-005-----0
  6
CONTINUOUS
  5
25F
 10
352.161584
 20
354.990011
 30
0.0
 11
353.161581
 21
355.990008
 31
0.0
  0
LINE
  8
LC-006-005-----0
  6
CONTINUOUS
  5
260
 10
365.948811
 20
368.777238
 30
0.0
 11
393.116826
 21
395.945253
 31
0.0
  0
LINE
  8
LC-006-005-----0
  6
CONTINUOUS
  5
261
 10
399.07289
 20
401.901317
 30
0.0
 11
402.254902
 21
405.083329
 31
0.0
  0
LINE
  8
LC-006-005-----0
  6
CONTINUOUS
  5
262
 10
352.161576
 20
357.81843
 30
0.0
 11
353.161573
 21
358.818427
 31
0.0
  0
LINE
  8
LC-006-005-----0
  6
CONTINUOUS
  5
263
 10
365.903791
 20
371.560645
 30
0.0
 11
390.288399
 21
395.945253
 31
0.0
  0
LINE
  8
LC-006-005-----0
  6
CONTINUOUS
  5
264
 10
396.288399
 20
401.945254
 30
0.0
 11
400.123977
 21
405.780831
 31
0.0
  0
LINE
  8
LC-006-005-----0
  6
CONTINUOUS
  5
265
 10
352.161568
 20
360.646849
 30
0.0
 11
353.161565
 21
361.646846
 31
0.0
  0
LINE
  8
LC-006-005-----0
  6
CONTINUOUS
  5
266
 10
364.959972
 20
373.445253
 30
0.0
 11
387.459972
 21
395.945253
 31
0.0
  0
LINE
  8
LC-006-005-----0
  6
CONTINUOUS
  5
267
 10
393.459972
 20
401.945253
 30
0.0
 11
397.459972
 21
405.945254
 31
0.0
  0
LINE
  8
LC-006-005-----0
  6
CONTINUOUS
  5
268
 10
352.16156
 20
363.475268
 30
0.0
 11
353.161557
 21
364.475265
 31
0.0
  0
LINE
  8
LC-006-005-----0
  6
CONTINUOUS
  5
269
 10
362.403861
 20
373.71757
 30
0.0
 11
384.631545
 21
395.945253
 31
0.0
  0
LINE
  8
LC-006-005-----0
  6
CONTINUOUS
  5
26A
 10
390.631545
 20
401.945253
 30
0.0
 11
394.631545
 21
405.945253
 31
0.0
  0
LINE
  8
LC-006-005-----0
  6
CONTINUOUS
  5
26B
 10
352.161552
 20
366.303687
 30
0.0
 11
353.161549
 21
367.303685
 31
0.0
  0
LINE
  8
LC-006-005-----0
  6
CONTINUOUS
  5
26C
 10
362.404627
 20
376.546763
 30
0.0
 11
384.076326
 21
398.218461
 31
0.0
  0
LINE
  8
LC-006-005-----0
  6
CONTINUOUS
  5
26D
 10
387.638295
 20
401.780431
 30
0.0
 11
391.803118
 21
405.945253
 31
0.0
  0
LINE
  8
LC-006-005-----0
  6
CONTINUOUS
  5
26E
 10
352.161544
 20
369.132107
 30
0.0
 11
353.161541
 21
370.132104
 31
0.0
  0
LINE
  8
LC-006-005-----0
  6
CONTINUOUS
  5
26F
 10
362.405393
 20
379.375955
 30
0.0
 11
378.974691
 21
395.945253
 31
0.0
  0
LINE
  8
LC-006-005-----0
  6
CONTINUOUS
  5
270
 10
379.911503
 20
396.882066
 30
0.0
 11
388.974691
 21
405.945253
 31
0.0
  0
LINE
  8
LC-006-005-----0
  6
CONTINUOUS
  5
271
 10
352.161536
 20
371.960526
 30
0.0
 11
353.161533
 21
372.960523
 31
0.0
  0
LINE
  8
LC-006-005-----0
  6
CONTINUOUS
  5
272
 10
362.406159
 20
382.205148
 30
0.0
 11
376.146264
 21
395.945253
 31
0.0
  0
LINE
  8
LC-006-005-----0
  6
CONTINUOUS
  5
273
 10
380.600966
 20
400.399956
 30
0.0
 11
385.456801
 21
405.255791
 31
0.0
  0
LINE
  8
LC-006-005-----0
  6
CONTINUOUS
  5
274
 10
352.161528
 20
374.788945
 30
0.0
 11
353.161525
 21
375.788942
 31
0.0
  0
LINE
  8
LC-006-005-----0
  6
CONTINUOUS
  5
275
 10
362.406924
 20
385.034341
 30
0.0
 11
373.317836
 21
395.945253
 31
0.0
  0
LINE
  8
LC-006-005-----0
  6
CONTINUOUS
  5
276
 10
352.16152
 20
377.617364
 30
0.0
 11
353.161517
 21
378.617361
 31
0.0
  0
LINE
  8
LC-006-005-----0
  6
CONTINUOUS
  5
277
 10
362.40769
 20
387.863534
 30
0.0
 11
370.489409
 21
395.945253
 31
0.0
  0
LINE
  8
LC-006-005-----0
  6
CONTINUOUS
  5
278
 10
352.161512
 20
380.445783
 30
0.0
 11
353.161509
 21
381.44578
 31
0.0
  0
LINE
  8
LC-006-005-----0
  6
CONTINUOUS
  5
279
 10
362.408456
 20
390.692727
 30
0.0
 11
367.660982
 21
395.945253
 31
0.0
  0
LINE
  8
LC-006-005-----0
  6
CONTINUOUS
  5
27A
 10
352.161504
 20
383.274202
 30
0.0
 11
353.167099
 21
384.279798
 31
0.0
  0
LINE
  8
LC-006-005-----0
  6
CONTINUOUS
  5
27B
 10
362.409222
 20
393.52192
 30
0.0
 11
364.832555
 21
395.945253
 31
0.0
  0
LINE
  8
LC-006-005-----0
  6
CONTINUOUS
  5
27C
 10
352.403906
 20
386.345031
 30
0.0
 11
353.990349
 21
387.931475
 31
0.0
  0
LINE
  8
LC-006-005-----0
  6
CONTINUOUS
  5
27D
 10
359.17528
 20
393.116406
 30
0.0
 11
361.761724
 21
395.70285
 31
0.0
  0
ENDBLK
  8
0
  5
27E
  0
ENDSEC
  0
SECTION
  2
ENTITIES
  0
VIEWPORT
  8
LC-000
  5
3A1
 67
     1
 68
     1
 10
420.0
 20
297.0
 30
0.0
 40
840.0
 41
594.0
 69
     1
1001
ACAD
1000
MVIEW
1002
{
1070
    16
1010
0.0
1020
0.0
1030
0.0
1010
0.0
1020
0.0
1030
1.0
1040
0.0
1040
594.0
1040
420.0
1040
297.0
1040
50.0
1040
0.0
1040
0.0
1070
     0
1070
   100
1070
     1
1070
     1
1070
     0
1070
     0
1070
     0
1070
     0
1040
0.0
1040
0.0
1040
0.0
1040
1.0
1040
1.0
1040
0.0
1040
0.0
1070
     0
1002
{
1002
}
1002
}
  0
VIEWPORT
  8
0
  5
3A2
 67
     1
 68
     1
 10
0.0
 20
0.0
 30
0.0
 40
0.0
 41
0.0
 69
     1
1001
ACAD
1000
MVIEW
1002
{
1070
    16
1010
0.0
1020
0.0
1030
0.0
1010
0.0
1020
0.0
1030
1.0
1040
0.0
1040
594.0
1040
0.0
1040
0.0
1040
50.0
1040
0.0
1040
0.0
1070
     0
1070
   100
1070
     0
1070
     1
1070
     0
1070
     0
1070
     0
1070
     0
1040
0.0
1040
0.0
1040
0.0
1040
0.5
1040
0.5
1040
0.5
1040
0.5
1070
     0
1002
{
1002
}
1002
}
  0
INSERT
  8
0
  5
280
  2
BLK1
 10
0.0
 20
0.0
 30
0.0
  0
INSERT
  8
0
  5
281
  2
*X1
 10
242.910686
 20
221.945542
 30
0.0
  0
INSERT
  8
0
  5
282
  2
*X2
 10
415.662553
 20
221.945473
 30
0.0
  0
INSERT
  8
0
  5
284
  2
BLK2
 10
0.0
 20
0.0
 30
0.0
  0
INSERT
  8
0
  5
285
  2
BLK3
 10
0.0
 20
0.0
 30
0.0
  0
INSERT
  8
0
  5
286
  2
*X5
 10
463.162429
 20
382.31522
 30
0.0
  0
INSERT
  8
0
  5
287
  2
*X6
 10
301.912429
 20
382.31522
 30
0.0
  0
DIMENSION
  8
0
  5
288
  2
*D7
 10
393.666286
 20
470.4
 30
0.0
 11
393.666286
 21
470.4
 31
0.0
  1
%%c300
 13
242.910686
 23
406.296
 33
0.0
 14
544.421886
 24
406.296
 34
0.0
  3
LC-DIM-L-0140-02-02
  0
DIMENSION
  8
0
  5
289
  2
*D8
 10
393.666539
 20
431.196672
 30
0.0
 11
393.666539
 21
431.196672
 31
0.0
 70
     1
  1
%%c190
 13
298.769785
 23
396.25206
 33
0.0
 14
488.562703
 24
396.250456
 34
0.0
  3
LC-DIM-L-0140-02-02
  0
DIMENSION
  8
0
  5
28A
  2
*D9
 10
393.662603
 20
117.600361
 30
0.0
 11
393.662603
 21
117.600361
 31
0.0
 70
     1
  1
%%c160
 13
313.412429
 23
307.195316
 33
0.0
 14
473.912429
 24
307.195463
 34
0.0
  3
LC-DIM-L-0140-02-02
  0
DIMENSION
  8
0
  5
28B
  2
*D10
 10
393.662429
 20
156.8
 30
0.0
 11
393.662429
 21
156.8
 31
0.0
  1
DN100
 13
338.662429
 23
226.945544
 33
0.0
 14
448.662429
 24
226.945472
 34
0.0
  3
LC-DIM-L-0140-02-02
  0
DIMENSION
  8
0
  5
28C
  2
*D11
 10
235.2
 20
349.370429
 30
0.0
 11
235.2
 21
349.370429
 31
0.0
  1
110
 13
242.910686
 23
403.295543
 33
0.0
 14
325.162429
 24
295.445316
 34
0.0
 50
90.0
  3
LC-DIM-L-0140-02-02
  0
DIMENSION
  8
0
  5
28D
  2
*D12
 10
274.4
 20
348.695252
 30
0.0
 11
274.4
 21
348.695252
 31
0.0
  1
50
 13
352.166099
 23
323.945251
 33
0.0
 14
362.408381
 24
373.445253
 34
0.0
 50
90.0
  3
LC-DIM-L-0140-02-02
  0
INSERT
  8
0
  5
28E
  2
*X13
 10
352.161502
 20
323.945251
 30
0.0
  0
LINE
  8
LC-001-002-----0
  6
CONTINUOUS
  5
290
 10
388.916097
 20
405.945253
 30
0.0
 11
393.666096
 21
405.945253
 31
0.0
  0
LINE
  8
LC-001-002-----0
  6
CONTINUOUS
  5
291
 10
379.916097
 20
396.945253
 30
0.0
 11
379.916097
 21
395.945253
 31
0.0
  0
LINE
  8
LC-001-002-----0
  6
CONTINUOUS
  5
292
 10
383.916097
 20
396.945253
 30
0.0
 11
383.916097
 21
395.945253
 31
0.0
  0
LINE
  8
LC-001-002-----0
  6
CONTINUOUS
  5
293
 10
403.416094
 20
396.945254
 30
0.0
 11
403.416093
 21
395.945439
 31
0.0
  0
LINE
  8
LC-001-002-----0
  6
CONTINUOUS
  5
294
 10
407.416094
 20
396.945255
 30
0.0
 11
407.416093
 21
395.945436
 31
0.0
  0
LINE
  8
LC-001-002-----0
  6
CONTINUOUS
  5
295
 10
352.166096
 20
383.945253
 30
0.0
 11
352.166099
 21
323.945251
 31
0.0
  0
LINE
  8
LC-001-002-----0
  6
CONTINUOUS
  5
296
 10
353.166096
 20
383.945253
 30
0.0
 11
353.166266
 21
323.945418
 31
0.0
  0
LINE
  8
LC-001-002-----0
  6
CONTINUOUS
  5
297
 10
353.166266
 20
323.945418
 30
0.0
 11
352.166099
 21
323.945251
 31
0.0
  0
ARC
  8
LC-001-002-----0
  6
CONTINUOUS
  5
298
 10
363.166096
 20
383.945253
 30
0.0
 40
10.0
 50
94.313709
 51
179.999848
  0
ARC
  8
LC-002-002-RND-0
  6
CONTINUOUS
  5
29A
 10
364.166096
 20
383.945253
 30
0.0
 40
12.0
 50
90.0
 51
180.0
  0
LINE
  8
LC-001-002-----0
  6
CONTINUOUS
  5
29B
 10
423.166314
 20
395.945425
 30
0.0
 11
407.416093
 21
395.945436
 31
0.0
  0
LINE
  8
LC-001-002-----0
  6
CONTINUOUS
  5
29C
 10
424.166313
 20
393.945425
 30
0.0
 11
395.104877
 21
393.945425
 31
0.0
  0
LINE
  8
LC-001-002-----0
  6
CONTINUOUS
  5
29D
 10
364.166096
 20
395.945253
 30
0.0
 11
379.916097
 21
395.945253
 31
0.0
  0
ARC
  8
LC-002-002-RND-0
  6
CONTINUOUS
  5
29E
 10
398.416094
 20
396.945254
 30
0.0
 40
9.0
 50
0.000006
 51
90.000006
  0
ARC
  8
LC-001-002-----0
  6
CONTINUOUS
  5
29F
 10
424.166306
 20
383.945425
 30
0.0
 40
10.0
 50
0.000096
 51
89.999963
  0
ARC
  8
LC-001-002-----0
  6
CONTINUOUS
  5
2A0
 10
423.166306
 20
383.945425
 30
0.0
 40
12.0
 50
0.000096
 51
89.999963
  0
LINE
  8
LC-001-002-----0
  6
CONTINUOUS
  5
2A1
 10
435.166305
 20
383.945417
 30
0.0
 11
435.166266
 21
323.945417
 31
0.0
  0
LINE
  8
LC-001-002-----0
  6
CONTINUOUS
  5
2A2
 10
434.166305
 20
383.945418
 30
0.0
 11
434.16643
 21
323.945583
 31
0.0
  0
LINE
  8
LC-001-002-----0
  6
CONTINUOUS
  5
2A3
 10
434.16643
 20
323.945583
 30
0.0
 11
435.166266
 21
323.945417
 31
0.0
  0
LINE
  8
LC-001-002-----0
  6
CONTINUOUS
  5
2A4
 10
362.408381
 20
373.445253
 30
0.0
 11
362.413933
 21
393.954275
 31
0.0
  0
LINE
  8
LC-001-002-----0
  6
CONTINUOUS
  5
2A5
 10
393.666098
 20
365.445253
 30
0.0
 11
366.846207
 21
365.445253
 31
0.0
  0
LINE
  8
LC-001-002-----0
  6
CONTINUOUS
  5
2A6
 10
365.908385
 20
368.945253
 30
0.0
 11
366.846207
 21
365.445253
 31
0.0
  0
LINE
  8
LC-001-002-----0
  6
CONTINUOUS
  5
2A7
 10
365.908385
 20
372.031041
 30
0.0
 11
365.908385
 21
368.945253
 31
0.0
  0
ARC
  8
LC-001-002-----0
  6
CONTINUOUS
  5
2A8
 10
365.658381
 20
372.738147
 30
0.0
 40
0.75
 50
289.471622
 51
70.528779
  0
LINE
  8
LC-001-002-----0
  6
CONTINUOUS
  5
2A9
 10
362.408381
 20
373.445253
 30
0.0
 11
365.908381
 21
373.445253
 31
0.0
  0
LINE
  8
LC-001-002-----0
  6
CONTINUOUS
  5
2AA
 10
398.416093
 20
401.945254
 30
0.0
 11
393.666095
 21
401.945253
 31
0.0
  0
LINE
  8
LC-001-002-----0
  6
CONTINUOUS
  5
2AB
 10
403.416094
 20
395.945254
 30
0.0
 11
403.416094
 21
395.945439
 31
0.0
  0
ARC
  8
LC-001-002-----0
  6
CONTINUOUS
  5
2AC
 10
398.416094
 20
396.945254
 30
0.0
 40
5.0
 50
0.000005
 51
90.000006
  0
ARC
  8
LC-002-002-RND-0
  6
CONTINUOUS
  5
2AD
 10
388.916097
 20
396.945253
 30
0.0
 40
9.0
 50
90.0
 51
180.000001
  0
LINE
  8
LC-001-002-----0
  6
CONTINUOUS
  5
2AE
 10
388.916097
 20
401.945253
 30
0.0
 11
393.666096
 21
401.945253
 31
0.0
  0
LINE
  8
LC-001-002-----0
  6
CONTINUOUS
  5
2AF
 10
398.416093
 20
405.945254
 30
0.0
 11
393.666095
 21
405.945253
 31
0.0
  0
LINE
  8
LC-001-002-----0
  6
CONTINUOUS
  5
2B0
 10
407.416094
 20
395.945255
 30
0.0
 11
407.416094
 21
395.945436
 31
0.0
  0
ARC
  8
LC-001-002-----0
  6
CONTINUOUS
  5
2B1
 10
388.916097
 20
396.945253
 30
0.0
 40
5.0
 50
90.0
 51
180.000001
  0
LINE
  8
LC-001-002-----0
  6
CONTINUOUS
  5
2B2
 10
353.166266
 20
323.945418
 30
0.0
 11
362.666099
 21
323.945418
 31
0.0
  0
LINE
  8
LC-001-002-----0
  6
CONTINUOUS
  5
2B3
 10
424.666275
 20
323.945418
 30
0.0
 11
434.16643
 21
323.945418
 31
0.0
  0
LINE
  8
LC-001-002-----0
  6
CONTINUOUS
  5
2B4
 10
242.910686
 20
406.296
 30
0.0
 11
283.566286
 21
405.586354
 31
0.0
  0
LINE
  8
LC-001-002-----0
  6
CONTINUOUS
  5
2B5
 10
242.910686
 20
403.295543
 30
0.0
 11
282.465999
 21
402.605102
 31
0.0
  0
LINE
  8
LC-001-002-----0
  6
CONTINUOUS
  5
2B6
 10
544.421886
 20
406.296
 30
0.0
 11
503.766286
 21
405.586354
 31
0.0
  0
LINE
  8
LC-001-002-----0
  6
CONTINUOUS
  5
2B7
 10
418.662429
 20
294.445491
 30
0.0
 11
418.662429
 21
245.945492
 31
0.0
  0
LINE
  8
LC-001-002-----0
  6
CONTINUOUS
  5
2B8
 10
418.662429
 20
245.945492
 30
0.0
 11
417.724607
 21
242.445492
 31
0.0
  0
LINE
  8
LC-001-002-----0
  6
CONTINUOUS
  5
2B9
 10
363.162429
 20
373.445316
 30
0.0
 11
365.662429
 21
373.445316
 31
0.0
  0
LINE
  8
LC-001-002-----0
  6
CONTINUOUS
  5
2BA
 10
421.662429
 20
373.445316
 30
0.0
 11
408.623817
 21
373.445316
 31
0.0
  0
LINE
  8
LC-001-002-----0
  6
CONTINUOUS
  5
2BB
 10
242.910686
 20
406.296
 30
0.0
 11
544.421886
 21
406.296
 31
0.0
  0
LINE
  8
LC-001-002-----0
  6
CONTINUOUS
  5
2BC
 10
485.896521
 20
402.698627
 30
0.0
 11
405.336982
 21
402.698627
 31
0.0
  0
LINE
  8
LC-001-002-----0
  6
CONTINUOUS
  5
2BD
 10
301.436051
 20
402.698627
 30
0.0
 11
381.995209
 21
402.698627
 31
0.0
  0
LINE
  8
LC-001-002-----0
  6
CONTINUOUS
  5
2BE
 10
340.002175
 20
221.945543
 30
0.0
 11
341.662429
 21
221.945542
 31
0.0
  0
LINE
  8
LC-001-002-----0
  6
CONTINUOUS
  5
2BF
 10
448.662429
 20
295.445472
 30
0.0
 11
448.662429
 21
226.945472
 31
0.0
  0
LINE
  8
LC-001-002-----0
  6
CONTINUOUS
  5
2C0
 10
445.662429
 20
295.445474
 30
0.0
 11
445.662429
 21
221.945472
 31
0.0
  0
LINE
  8
LC-001-002-----0
  6
CONTINUOUS
  5
2C1
 10
338.662429
 20
295.445472
 30
0.0
 11
338.662429
 21
226.945544
 31
0.0
  0
LINE
  8
LC-001-002-----0
  6
CONTINUOUS
  5
2C2
 10
341.662429
 20
295.445474
 30
0.0
 11
341.662429
 21
221.945472
 31
0.0
  0
LINE
  8
LC-001-002-----0
  6
CONTINUOUS
  5
2C3
 10
445.662429
 20
295.445474
 30
0.0
 11
420.66643
 21
295.44549
 31
0.0
  0
LINE
  8
LC-001-002-----0
  6
CONTINUOUS
  5
2C4
 10
338.662429
 20
295.445316
 30
0.0
 11
325.162429
 21
295.445316
 31
0.0
  0
ARC
  8
LC-002-002-RND-0
  6
CONTINUOUS
  5
2C5
 10
286.213062
 20
405.768005
 30
0.0
 40
2.0
 50
225.0
 51
266.000003
  0
LINE
  8
LC-001-002-----0
  6
CONTINUOUS
  5
2C6
 10
544.421886
 20
403.295543
 30
0.0
 11
504.866573
 21
402.605102
 31
0.0
  0
ARC
  8
LC-002-002-RND-0
  6
CONTINUOUS
  5
2C7
 10
501.119511
 20
405.768005
 30
0.0
 40
2.0
 50
273.999997
 51
315.0
  0
LINE
  8
LC-001-002-----0
  6
CONTINUOUS
  5
2C8
 10
480.418055
 20
393.098883
 30
0.0
 11
480.418055
 21
399.598883
 31
0.0
  0
LINE
  8
LC-001-002-----0
  6
CONTINUOUS
  5
2C9
 10
482.418055
 20
399.598883
 30
0.0
 11
480.419436
 21
399.598883
 31
0.0
  0
LINE
  8
LC-001-002-----0
  6
CONTINUOUS
  5
2CA
 10
482.418055
 20
393.598883
 30
0.0
 11
482.418055
 21
399.598883
 31
0.0
  0
LINE
  8
LC-001-002-----0
  6
CONTINUOUS
  5
2CB
 10
484.418055
 20
393.598883
 30
0.0
 11
482.418055
 21
393.598883
 31
0.0
  0
LINE
  8
LC-001-002-----0
  6
CONTINUOUS
  5
2CC
 10
471.719436
 20
381.295316
 30
0.0
 11
471.519436
 21
381.295316
 31
0.0
  0
LINE
  8
LC-001-002-----0
  6
CONTINUOUS
  5
2CD
 10
480.419436
 20
382.595316
 30
0.0
 11
480.419436
 21
399.595316
 31
0.0
  0
LINE
  8
LC-001-002-----0
  6
CONTINUOUS
  5
2CE
 10
480.418055
 20
393.379948
 30
0.0
 11
480.418055
 21
393.379948
 31
0.0
  0
LINE
  8
LC-001-002-----0
  6
CONTINUOUS
  5
2CF
 10
471.719436
 20
377.795316
 30
0.0
 11
471.719436
 21
379.295316
 31
0.0
  0
LINE
  8
LC-001-002-----0
  6
CONTINUOUS
  5
2D0
 10
471.719436
 20
374.345316
 30
0.0
 11
471.719436
 21
374.845316
 31
0.0
  0
LINE
  8
LC-001-002-----0
  6
CONTINUOUS
  5
2D1
 10
471.719436
 20
372.845316
 30
0.0
 11
471.719436
 21
375.795316
 31
0.0
  0
LINE
  8
LC-001-002-----0
  6
CONTINUOUS
  5
2D2
 10
471.719436
 20
372.845316
 30
0.0
 11
471.161722
 21
372.845316
 31
0.0
  0
LINE
  8
LC-001-002-----0
  6
CONTINUOUS
  5
2D3
 10
471.719436
 20
375.795316
 30
0.0
 11
471.519436
 21
375.795316
 31
0.0
  0
ARC
  8
LC-002-002-RND-0
  6
CONTINUOUS
  5
2D4
 10
471.519436
 20
380.495316
 30
0.0
 40
0.8
 50
90.0
 51
180.0
  0
ARC
  8
LC-002-002-RND-0
  6
CONTINUOUS
  5
2D5
 10
471.519436
 20
376.995316
 30
0.0
 40
0.8
 50
90.0
 51
180.0
  0
LINE
  8
LC-001-002-----0
  6
CONTINUOUS
  5
2D6
 10
470.719436
 20
376.595316
 30
0.0
 11
470.719436
 21
376.995316
 31
0.0
  0
LINE
  8
LC-001-002-----0
  6
CONTINUOUS
  5
2D7
 10
470.719436
 20
380.095316
 30
0.0
 11
470.719436
 21
380.495316
 31
0.0
  0
ARC
  8
LC-002-002-RND-0
  6
CONTINUOUS
  5
2D8
 10
471.519436
 20
376.595316
 30
0.0
 40
0.8
 50
180.0
 51
270.0
  0
ARC
  8
LC-002-002-RND-0
  6
CONTINUOUS
  5
2D9
 10
471.519436
 20
380.095316
 30
0.0
 40
0.8
 50
180.0
 51
270.0
  0
LINE
  8
LC-001-002-----0
  6
CONTINUOUS
  5
2DA
 10
471.719436
 20
379.295316
 30
0.0
 11
471.519436
 21
379.295316
 31
0.0
  0
ARC
  8
LC-002-002-RND-0
  6
CONTINUOUS
  5
2DB
 10
479.919436
 20
382.595316
 30
0.0
 40
0.5
 50
270.0
 51
0.0
  0
LINE
  8
LC-001-002-----0
  6
CONTINUOUS
  5
2DC
 10
501.259023
 20
403.772877
 30
0.0
 11
485.896521
 21
402.698627
 31
0.0
  0
ARC
  8
LC-002-002-RND-0
  6
CONTINUOUS
  5
2DD
 10
484.470472
 20
394.595316
 30
0.0
 40
1.0
 50
270.0
 51
357.0
  0
LINE
  8
LC-001-002-----0
  6
CONTINUOUS
  5
2DE
 10
485.896521
 20
402.698627
 30
0.0
 11
485.469101
 21
394.54298
 31
0.0
  0
LINE
  8
LC-001-002-----0
  6
CONTINUOUS
  5
2DF
 10
544.421886
 20
406.296
 30
0.0
 11
544.421886
 21
403.295543
 31
0.0
  0
LINE
  8
LC-001-002-----0
  6
CONTINUOUS
  5
2E0
 10
488.683878
 20
398.562603
 30
0.0
 11
488.441529
 21
393.938308
 31
0.0
  0
LINE
  8
LC-001-002-----0
  6
CONTINUOUS
  5
2E1
 10
504.866573
 20
402.605102
 30
0.0
 11
503.159948
 21
400.898477
 31
0.0
  0
LINE
  8
LC-001-002-----0
  6
CONTINUOUS
  5
2E2
 10
471.719436
 20
377.795316
 30
0.0
 11
471.519436
 21
377.795316
 31
0.0
  0
ARC
  8
LC-004-001-RND-0
  6
CONTINUOUS
  5
2E4
 10
490.15569
 20
398.485469
 30
0.0
 40
1.5
 50
93.999997
 51
177.0
  0
LINE
  8
LC-001-002-----0
  6
CONTINUOUS
  5
2E5
 10
483.169436
 20
383.095316
 30
0.0
 11
473.912429
 21
369.874939
 31
0.0
  0
LINE
  8
LC-001-002-----0
  6
CONTINUOUS
  5
2E6
 10
485.44564
 20
391.095316
 30
0.0
 11
485.169436
 21
391.095316
 31
0.0
  0
LINE
  8
LC-001-002-----0
  6
CONTINUOUS
  5
2E7
 10
306.914518
 20
382.632464
 30
0.0
 11
306.914518
 21
399.598883
 31
0.0
  0
LINE
  8
LC-005-001-----0
  6
CONTINUOUS
  5
2E9
 10
503.159948
 20
400.898477
 30
0.0
 11
490.051055
 21
399.981815
 31
0.0
  0
ARC
  8
LC-002-002-RND-0
  6
CONTINUOUS
  5
2EA
 10
485.44564
 20
394.095316
 30
0.0
 40
3.0
 50
270.0
 51
357.0
  0
LINE
  8
LC-001-002-----0
  6
CONTINUOUS
  5
2EB
 10
304.913136
 20
399.598883
 30
0.0
 11
306.914518
 21
399.598883
 31
0.0
  0
ARC
  8
LC-002-002-RND-0
  6
CONTINUOUS
  5
2EC
 10
485.169436
 20
389.095316
 30
0.0
 40
2.0
 50
90.0
 51
180.0
  0
LINE
  8
LC-001-002-----0
  6
CONTINUOUS
  5
2ED
 10
483.169436
 20
383.095316
 30
0.0
 11
483.169436
 21
389.095316
 31
0.0
  0
LINE
  8
LC-001-002-----0
  6
CONTINUOUS
  5
2EE
 10
471.719436
 20
374.345316
 30
0.0
 11
471.719436
 21
374.345316
 31
0.0
  0
LINE
  8
LC-001-002-----0
  6
CONTINUOUS
  5
2EF
 10
479.919436
 20
382.095316
 30
0.0
 11
472.519436
 21
382.095316
 31
0.0
  0
LINE
  8
LC-001-002-----0
  6
CONTINUOUS
  5
2F0
 10
480.419436
 20
383.595316
 30
0.0
 11
480.419436
 21
384.894698
 31
0.0
  0
LINE
  8
LC-001-002-----0
  6
CONTINUOUS
  5
2F1
 10
482.419436
 20
399.595316
 30
0.0
 11
480.419436
 21
399.595316
 31
0.0
  0
LINE
  8
LC-001-002-----0
  6
CONTINUOUS
  5
2F2
 10
471.719436
 20
374.095316
 30
0.0
 11
471.719436
 21
374.595316
 31
0.0
  0
LINE
  8
LC-001-002-----0
  6
CONTINUOUS
  5
2F3
 10
471.719436
 20
374.295316
 30
0.0
 11
471.719436
 21
374.795316
 31
0.0
  0
LINE
  8
LC-001-002-----0
  6
CONTINUOUS
  5
2F4
 10
503.766286
 20
405.586354
 30
0.0
 11
502.533724
 21
404.353792
 31
0.0
  0
LINE
  8
LC-001-002-----0
  6
CONTINUOUS
  5
2F5
 10
471.719436
 20
374.345316
 30
0.0
 11
471.719436
 21
374.345316
 31
0.0
  0
ARC
  8
LC-002-002-RND-0
  6
CONTINUOUS
  5
2F6
 10
472.519436
 20
381.295316
 30
0.0
 40
0.8
 50
90.0
 51
180.0
  0
LINE
  8
LC-001-002-----0
  6
CONTINUOUS
  5
2F7
 10
471.719436
 20
381.295316
 30
0.0
 11
471.719436
 21
381.295316
 31
0.0
  0
LINE
  8
LC-001-002-----0
  6
CONTINUOUS
  5
2F8
 10
316.163136
 20
307.445316
 30
0.0
 11
316.163136
 21
372.845316
 31
0.0
  0
LINE
  8
LC-001-002-----0
  6
CONTINUOUS
  5
2F9
 10
415.662578
 20
280.445494
 30
0.0
 11
415.662588
 21
295.445318
 31
0.0
  0
LINE
  8
LC-001-002-----0
  6
CONTINUOUS
  5
2FA
 10
371.662429
 20
280.445316
 30
0.0
 11
371.662429
 21
295.445316
 31
0.0
  0
LINE
  8
LC-001-002-----0
  6
CONTINUOUS
  5
2FB
 10
415.662553
 20
242.445494
 30
0.0
 11
415.662578
 21
280.445494
 31
0.0
  0
LINE
  8
LC-001-002-----0
  6
CONTINUOUS
  5
2FC
 10
417.724607
 20
242.445492
 30
0.0
 11
393.662429
 21
242.445508
 31
0.0
  0
LINE
  8
LC-001-002-----0
  6
CONTINUOUS
  5
2FD
 10
315.613136
 20
381.295316
 30
0.0
 11
315.813136
 21
381.295316
 31
0.0
  0
LINE
  8
LC-001-002-----0
  6
CONTINUOUS
  5
2FE
 10
306.914518
 20
393.379948
 30
0.0
 11
306.914518
 21
393.379948
 31
0.0
  0
LINE
  8
LC-001-002-----0
  6
CONTINUOUS
  5
2FF
 10
315.613136
 20
377.795316
 30
0.0
 11
315.613136
 21
379.295316
 31
0.0
  0
LINE
  8
LC-001-002-----0
  6
CONTINUOUS
  5
300
 10
315.613136
 20
374.345316
 30
0.0
 11
315.613136
 21
374.845316
 31
0.0
  0
LINE
  8
LC-001-002-----0
  6
CONTINUOUS
  5
301
 10
315.613136
 20
372.845316
 30
0.0
 11
315.613136
 21
375.795316
 31
0.0
  0
LINE
  8
LC-001-002-----0
  6
CONTINUOUS
  5
302
 10
315.613136
 20
372.845316
 30
0.0
 11
316.163136
 21
372.845316
 31
0.0
  0
LINE
  8
LC-001-002-----0
  6
CONTINUOUS
  5
303
 10
315.613136
 20
375.795316
 30
0.0
 11
315.813136
 21
375.795316
 31
0.0
  0
ARC
  8
LC-002-002-RND-0
  6
CONTINUOUS
  5
304
 10
315.813136
 20
380.495316
 30
0.0
 40
0.8
 50
0.0
 51
90.0
  0
ARC
  8
LC-002-002-RND-0
  6
CONTINUOUS
  5
305
 10
315.813136
 20
376.995316
 30
0.0
 40
0.8
 50
0.0
 51
90.0
  0
LINE
  8
LC-001-002-----0
  6
CONTINUOUS
  5
306
 10
316.613136
 20
376.595316
 30
0.0
 11
316.613136
 21
376.995316
 31
0.0
  0
LINE
  8
LC-001-002-----0
  6
CONTINUOUS
  5
307
 10
316.613136
 20
380.095316
 30
0.0
 11
316.613136
 21
380.495316
 31
0.0
  0
ARC
  8
LC-002-002-RND-0
  6
CONTINUOUS
  5
308
 10
315.813136
 20
376.595316
 30
0.0
 40
0.8
 50
270.0
 51
0.0
  0
ARC
  8
LC-002-002-RND-0
  6
CONTINUOUS
  5
309
 10
315.813136
 20
380.095316
 30
0.0
 40
0.8
 50
270.0
 51
0.0
  0
LINE
  8
LC-001-002-----0
  6
CONTINUOUS
  5
30A
 10
315.613136
 20
379.295316
 30
0.0
 11
315.813136
 21
379.295316
 31
0.0
  0
ARC
  8
LC-002-002-RND-0
  6
CONTINUOUS
  5
30B
 10
307.413136
 20
382.595316
 30
0.0
 40
0.5
 50
180.0
 51
270.0
  0
LINE
  8
LC-001-002-----0
  6
CONTINUOUS
  5
30C
 10
286.073549
 20
403.772877
 30
0.0
 11
301.436051
 21
402.698627
 31
0.0
  0
LINE
  8
LC-001-002-----0
  6
CONTINUOUS
  5
30D
 10
302.8621
 20
393.595316
 30
0.0
 11
304.913136
 21
393.595316
 31
0.0
  0
ARC
  8
LC-002-002-RND-0
  6
CONTINUOUS
  5
30E
 10
302.8621
 20
394.595316
 30
0.0
 40
1.0
 50
183.0
 51
270.0
  0
LINE
  8
LC-001-002-----0
  6
CONTINUOUS
  5
30F
 10
471.161722
 20
307.445316
 30
0.0
 11
471.161722
 21
372.845316
 31
0.0
  0
LINE
  8
LC-001-002-----0
  6
CONTINUOUS
  5
310
 10
304.913136
 20
393.595316
 30
0.0
 11
304.913136
 21
399.598883
 31
0.0
  0
LINE
  8
LC-001-002-----0
  6
CONTINUOUS
  5
311
 10
301.436051
 20
402.698627
 30
0.0
 11
301.863471
 21
394.54298
 31
0.0
  0
LINE
  8
LC-001-002-----0
  6
CONTINUOUS
  5
312
 10
242.910686
 20
406.296
 30
0.0
 11
242.910686
 21
403.295543
 31
0.0
  0
ARC
  8
LC-001-002-----0
  6
CONTINUOUS
  5
313
 10
365.662429
 20
372.945316
 30
0.0
 40
0.5
 50
270.000117
 51
89.999981
  0
LINE
  8
LC-001-002-----0
  6
CONTINUOUS
  5
314
 10
298.648526
 20
398.565812
 30
0.0
 11
298.891043
 21
393.938308
 31
0.0
  0
LINE
  8
LC-001-002-----0
  6
CONTINUOUS
  5
315
 10
282.465999
 20
402.605102
 30
0.0
 11
284.172625
 21
400.898477
 31
0.0
  0
LINE
  8
LC-001-002-----0
  6
CONTINUOUS
  5
316
 10
363.162429
 20
301.445316
 30
0.0
 11
363.162429
 21
373.445316
 31
0.0
  0
LINE
  8
LC-001-002-----0
  6
CONTINUOUS
  5
317
 10
371.662429
 20
242.445316
 30
0.0
 11
371.662429
 21
280.445316
 31
0.0
  0
LINE
  8
LC-001-002-----0
  6
CONTINUOUS
  5
318
 10
315.613136
 20
377.795316
 30
0.0
 11
315.813136
 21
377.795316
 31
0.0
  0
LINE
  8
LC-001-002-----0
  6
CONTINUOUS
  5
319
 10
369.504155
 20
242.445316
 30
0.0
 11
393.662429
 21
242.445316
 31
0.0
  0
ARC
  8
LC-002-002-RND-0
  6
CONTINUOUS
  5
31A
 10
325.163136
 20
307.445316
 30
0.0
 40
9.0
 50
180.0
 51
270.0
  0
ARC
  8
LC-002-002-RND-0
  6
CONTINUOUS
  5
31B
 10
462.161722
 20
307.445316
 30
0.0
 40
9.0
 50
270.0
 51
0.0
  0
LINE
  8
LC-001-002-----0
  6
CONTINUOUS
  5
31C
 10
304.163136
 20
383.095316
 30
0.0
 11
313.412429
 21
369.885956
 31
0.0
  0
LINE
  8
LC-001-002-----0
  6
CONTINUOUS
  5
31D
 10
301.886932
 20
391.095316
 30
0.0
 11
302.163136
 21
391.095316
 31
0.0
  0
LINE
  8
LC-005-001-----0
  6
CONTINUOUS
  5
31E
 10
284.172625
 20
400.898477
 30
0.0
 11
297.255216
 21
399.983654
 31
0.0
  0
ARC
  8
LC-002-002-RND-0
  6
CONTINUOUS
  5
31F
 10
301.886932
 20
394.095316
 30
0.0
 40
3.0
 50
183.0
 51
270.0
  0
ARC
  8
LC-002-002-RND-0
  6
CONTINUOUS
  5
320
 10
302.163136
 20
389.095316
 30
0.0
 40
2.0
 50
0.0
 51
90.0
  0
LINE
  8
LC-001-002-----0
  6
CONTINUOUS
  5
321
 10
304.163136
 20
383.095316
 30
0.0
 11
304.163136
 21
389.095316
 31
0.0
  0
LINE
  8
LC-001-002-----0
  6
CONTINUOUS
  5
322
 10
315.613136
 20
374.345316
 30
0.0
 11
315.613136
 21
374.345316
 31
0.0
  0
LINE
  8
LC-001-002-----0
  6
CONTINUOUS
  5
323
 10
307.413136
 20
382.095316
 30
0.0
 11
314.813136
 21
382.095316
 31
0.0
  0
LINE
  8
LC-001-002-----0
  6
CONTINUOUS
  5
324
 10
315.613136
 20
374.095316
 30
0.0
 11
315.613136
 21
374.595316
 31
0.0
  0
LINE
  8
LC-001-002-----0
  6
CONTINUOUS
  5
325
 10
315.613136
 20
374.295316
 30
0.0
 11
315.613136
 21
374.795316
 31
0.0
  0
LINE
  8
LC-001-002-----0
  6
CONTINUOUS
  5
326
 10
283.566286
 20
405.586354
 30
0.0
 11
284.798848
 21
404.353792
 31
0.0
  0
LINE
  8
LC-001-002-----0
  6
CONTINUOUS
  5
327
 10
315.613136
 20
374.345316
 30
0.0
 11
315.613136
 21
374.345316
 31
0.0
  0
ARC
  8
LC-002-002-RND-0
  6
CONTINUOUS
  5
328
 10
314.813136
 20
381.295316
 30
0.0
 40
0.8
 50
0.0
 51
90.0
  0
LINE
  8
LC-001-002-----0
  6
CONTINUOUS
  5
329
 10
315.613136
 20
381.295316
 30
0.0
 11
315.613136
 21
381.295316
 31
0.0
  0
LINE
  8
LC-001-002-----0
  6
CONTINUOUS
  5
32A
 10
462.162421
 20
295.445463
 30
0.0
 11
448.662429
 21
295.445472
 31
0.0
  0
ARC
  8
LC-002-002-RND-0
  6
CONTINUOUS
  5
32B
 10
427.162429
 20
301.445316
 30
0.0
 40
3.0
 50
180.0
 51
270.0
  0
LINE
  8
LC-001-002-----0
  6
CONTINUOUS
  5
32C
 10
366.142117
 20
300.772835
 30
0.0
 11
365.516641
 21
372.445316
 31
0.0
  0
ARC
  8
LC-002-002-RND-0
  6
CONTINUOUS
  5
32D
 10
360.162429
 20
301.445316
 30
0.0
 40
3.0
 50
270.0
 51
0.0
  0
LINE
  8
LC-001-002-----0
  6
CONTINUOUS
  5
32E
 10
325.163136
 20
298.445316
 30
0.0
 11
360.162429
 21
298.445316
 31
0.0
  0
LINE
  8
LC-001-002-----0
  6
CONTINUOUS
  5
32F
 10
424.162429
 20
301.445316
 30
0.0
 11
424.162429
 21
373.445316
 31
0.0
  0
LINE
  8
LC-001-002-----0
  6
CONTINUOUS
  5
330
 10
421.662428
 20
372.445316
 30
0.0
 11
421.944119
 21
372.445316
 31
0.0
  0
ARC
  8
LC-001-002-----0
  6
CONTINUOUS
  5
331
 10
421.662429
 20
372.945316
 30
0.0
 40
0.5
 50
90.000019
 51
269.999883
  0
LINE
  8
LC-001-002-----0
  6
CONTINUOUS
  5
332
 10
462.161722
 20
298.445316
 30
0.0
 11
427.162429
 21
298.445316
 31
0.0
  0
LINE
  8
LC-001-002-----0
  6
CONTINUOUS
  5
333
 10
368.66227
 20
298.445316
 30
0.0
 11
418.662588
 21
298.445316
 31
0.0
  0
LINE
  8
LC-001-002-----0
  6
CONTINUOUS
  5
334
 10
421.188558
 20
300.918909
 30
0.0
 11
421.944119
 21
372.445316
 31
0.0
  0
LINE
  8
LC-001-002-----0
  6
CONTINUOUS
  5
335
 10
424.162429
 20
373.445316
 30
0.0
 11
421.662429
 21
373.445316
 31
0.0
  0
LINE
  8
LC-001-002-----0
  6
CONTINUOUS
  5
336
 10
368.662429
 20
294.445316
 30
0.0
 11
368.662429
 21
245.945492
 31
0.0
  0
LINE
  8
LC-001-002-----0
  6
CONTINUOUS
  5
337
 10
368.662429
 20
245.945492
 30
0.0
 11
369.600251
 21
242.445492
 31
0.0
  0
ARC
  8
LC-002-002-RND-0
  6
CONTINUOUS
  5
338
 10
419.662429
 20
294.445491
 30
0.0
 40
1.0
 50
89.999963
 51
180.0
  0
ARC
  8
LC-002-002-RND-0
  6
CONTINUOUS
  5
339
 10
367.662429
 20
294.445316
 30
0.0
 40
1.0
 50
0.0
 51
90.0
  0
LINE
  8
LC-001-002-----0
  6
CONTINUOUS
  5
33A
 10
448.662429
 20
226.945472
 30
0.0
 11
447.322683
 21
221.945473
 31
0.0
  0
LINE
  8
LC-001-002-----0
  6
CONTINUOUS
  5
33B
 10
338.662429
 20
226.945544
 30
0.0
 11
340.002175
 21
221.945543
 31
0.0
  0
LINE
  8
LC-001-002-----0
  6
CONTINUOUS
  5
33C
 10
473.912429
 20
369.874939
 30
0.0
 11
473.912429
 21
307.195463
 31
0.0
  0
LINE
  8
LC-001-002-----0
  6
CONTINUOUS
  5
33D
 10
313.412429
 20
369.885956
 30
0.0
 11
313.412429
 21
307.195316
 31
0.0
  0
ARC
  8
LC-002-002-RND-0
  6
CONTINUOUS
  5
33E
 10
462.162429
 20
307.195463
 30
0.0
 40
11.75
 50
269.999963
 51
0.0
  0
ARC
  8
LC-002-002-RND-0
  6
CONTINUOUS
  5
33F
 10
325.162429
 20
307.195316
 30
0.0
 40
11.75
 50
180.0
 51
270.0
  0
LINE
  8
LC-001-002-----0
  6
CONTINUOUS
  5
340
 10
423.544132
 20
297.429813
 30
0.0
 11
424.689784
 21
295.445488
 31
0.0
  0
LINE
  8
LC-001-002-----0
  6
CONTINUOUS
  5
341
 10
421.812082
 20
297.429813
 30
0.0
 11
420.66643
 21
295.44549
 31
0.0
  0
ARC
  8
LC-002-002-RND-0
  6
CONTINUOUS
  5
342
 10
422.678107
 20
296.929813
 30
0.0
 40
1.0
 50
30.000037
 51
149.999963
  0
LINE
  8
LC-001-002-----0
  6
CONTINUOUS
  5
343
 10
363.780726
 20
297.429813
 30
0.0
 11
362.634974
 21
295.445316
 31
0.0
  0
LINE
  8
LC-001-002-----0
  6
CONTINUOUS
  5
344
 10
365.512776
 20
297.429813
 30
0.0
 11
366.658528
 21
295.445316
 31
0.0
  0
ARC
  8
LC-002-002-RND-0
  6
CONTINUOUS
  5
345
 10
364.646751
 20
296.929813
 30
0.0
 40
1.0
 50
30.000037
 51
149.999963
  0
LINE
  8
LC-001-002-----0
  6
CONTINUOUS
  5
346
 10
367.662429
 20
295.445316
 30
0.0
 11
366.658528
 21
295.445316
 31
0.0
  0
LINE
  8
LC-001-002-----0
  6
CONTINUOUS
  5
347
 10
472.519436
 20
382.095316
 30
0.0
 11
435.166304
 21
382.095316
 31
0.0
  0
LINE
  8
LC-001-002-----0
  6
CONTINUOUS
  5
348
 10
471.161722
 20
372.845316
 30
0.0
 11
435.166298
 21
372.845316
 31
0.0
  0
LINE
  8
LC-001-002-----0
  6
CONTINUOUS
  5
349
 10
418.662588
 20
298.445316
 30
0.0
 11
418.688698
 21
298.445316
 31
0.0
  0
ARC
  8
LC-002-002-RND-0
  6
CONTINUOUS
  5
34A
 10
418.662588
 20
295.445316
 30
0.0
 40
3.0
 50
90.0
 51
179.999963
  0
ARC
  8
LC-002-002-RND-0
  6
CONTINUOUS
  5
34B
 10
418.688698
 20
300.945316
 30
0.0
 40
2.5
 50
270.0
 51
359.394785
  0
ARC
  8
LC-002-002-RND-0
  6
CONTINUOUS
  5
34C
 10
368.63616
 20
300.945316
 30
0.0
 40
2.5
 50
180.605215
 51
270.0
  0
ARC
  8
LC-002-002-RND-0
  6
CONTINUOUS
  5
34D
 10
368.66227
 20
295.445316
 30
0.0
 40
3.0
 50
0.000037
 51
90.0
  0
LINE
  8
LC-001-002-----0
  6
CONTINUOUS
  5
34E
 10
420.66643
 20
295.44549
 30
0.0
 11
419.66243
 21
295.445491
 31
0.0
  0
LINE
  8
LC-001-002-----0
  6
CONTINUOUS
  5
34F
 10
366.658528
 20
295.445316
 30
0.0
 11
341.662429
 21
295.445316
 31
0.0
  0
LINE
  8
LC-001-002-----0
  6
CONTINUOUS
  5
350
 10
445.662429
 20
221.945474
 30
0.0
 11
447.322683
 21
221.945473
 31
0.0
  0
LINE
  8
LC-001-002-----0
  6
CONTINUOUS
  5
351
 10
341.662429
 20
221.945542
 30
0.0
 11
445.662429
 21
221.945474
 31
0.0
  0
LINE
  8
LC-001-002-----0
  6
CONTINUOUS
  5
352
 10
316.163136
 20
372.845316
 30
0.0
 11
352.166096
 21
372.845316
 31
0.0
  0
LINE
  8
LC-001-002-----0
  6
CONTINUOUS
  5
353
 10
314.813136
 20
382.095316
 30
0.0
 11
352.166096
 21
382.095316
 31
0.0
  0
ARC
  8
LC-004-001-RND-0
  6
CONTINUOUS
  5
354
 10
297.150582
 20
398.487308
 30
0.0
 40
1.5
 50
3.0
 51
86.000003
  0
LINE
  8
LC-001-002-----0
  6
DASHDOT
 62
     2
  5
356
 10
393.662429
 20
221.945508
 30
0.0
 11
393.662429
 21
395.945253
 31
0.0
  0
LINE
  8
LC-001-002-----0
  6
CONTINUOUS
  5
357
 10
485.412429
 20
402.314818
 30
0.0
 11
466.662429
 21
401.00369
 31
0.0
  0
LINE
  8
LC-001-002-----0
  6
CONTINUOUS
  5
358
 10
304.662644
 20
399.616399
 30
0.0
 11
314.662429
 21
398.917146
 31
0.0
  0
LINE
  8
LC-001-002-----0
  6
CONTINUOUS
  5
359
 10
462.909089
 20
382.31522
 30
0.0
 11
462.909089
 21
385.31522
 31
0.0
  0
LINE
  8
LC-001-002-----0
  6
CONTINUOUS
  5
35A
 10
457.249708
 20
382.31522
 30
0.0
 11
457.249708
 21
385.31522
 31
0.0
  0
LINE
  8
LC-001-002-----0
  6
CONTINUOUS
  5
35B
 10
450.430283
 20
382.31522
 30
0.0
 11
450.430283
 21
385.31522
 31
0.0
  0
LINE
  8
LC-001-002-----0
  6
CONTINUOUS
  5
35C
 10
456.48036
 20
401.00369
 30
0.0
 11
455.73036
 21
400.25369
 31
0.0
  0
LINE
  8
LC-001-002-----0
  6
CONTINUOUS
  5
35D
 10
455.73036
 20
400.25369
 30
0.0
 11
455.73036
 21
385.31522
 31
0.0
  0
LINE
  8
LC-001-002-----0
  6
CONTINUOUS
  5
35E
 10
301.912429
 20
402.314818
 30
0.0
 11
381.693371
 21
402.314818
 31
0.0
  0
LINE
  8
LC-001-002-----0
  6
CONTINUOUS
  5
35F
 10
455.73036
 20
400.25369
 30
0.0
 11
461.274667
 21
400.25369
 31
0.0
  0
LINE
  8
LC-001-002-----0
  6
CONTINUOUS
  5
360
 10
461.274667
 20
400.25369
 30
0.0
 11
461.274667
 21
385.31522
 31
0.0
  0
LINE
  8
LC-001-002-----0
  6
CONTINUOUS
  5
361
 10
466.662429
 20
401.00369
 30
0.0
 11
465.912429
 21
400.25369
 31
0.0
  0
LINE
  8
LC-001-002-----0
  6
CONTINUOUS
  5
362
 10
460.92879
 20
401.00369
 30
0.0
 11
461.274667
 21
400.25369
 31
0.0
  0
LINE
  8
LC-001-002-----0
  6
CONTINUOUS
  5
363
 10
437.972134
 20
382.31522
 30
0.0
 11
437.972134
 21
385.31522
 31
0.0
  0
LINE
  8
LC-001-002-----0
  6
CONTINUOUS
  5
364
 10
463.162429
 20
382.31522
 30
0.0
 11
463.162429
 21
385.31522
 31
0.0
  0
LINE
  8
LC-001-002-----0
  6
CONTINUOUS
  5
365
 10
465.912429
 20
385.31522
 30
0.0
 11
465.912429
 21
400.25369
 31
0.0
  0
LINE
  8
LC-001-002-----0
  6
CONTINUOUS
  5
366
 10
428.662429
 20
401.00369
 30
0.0
 11
427.912429
 21
400.25369
 31
0.0
  0
LINE
  8
LC-001-002-----0
  6
CONTINUOUS
  5
367
 10
427.912429
 20
400.25369
 30
0.0
 11
427.912429
 21
394.966964
 31
0.0
  0
LINE
  8
LC-001-002-----0
  6
CONTINUOUS
  5
368
 10
324.415769
 20
382.31522
 30
0.0
 11
324.415769
 21
385.31522
 31
0.0
  0
LINE
  8
LC-001-002-----0
  6
CONTINUOUS
  5
369
 10
330.07515
 20
382.31522
 30
0.0
 11
330.07515
 21
385.31522
 31
0.0
  0
LINE
  8
LC-001-002-----0
  6
CONTINUOUS
  5
36A
 10
434.230394
 20
401.00369
 30
0.0
 11
434.862777
 21
400.25369
 31
0.0
  0
LINE
  8
LC-001-002-----0
  6
CONTINUOUS
  5
36B
 10
434.862777
 20
400.25369
 30
0.0
 11
434.862777
 21
386.627319
 31
0.0
  0
LINE
  8
LC-001-002-----0
  6
CONTINUOUS
  5
36C
 10
434.862777
 20
400.25369
 30
0.0
 11
427.912429
 21
400.25369
 31
0.0
  0
LINE
  8
LC-001-002-----0
  6
CONTINUOUS
  5
36D
 10
336.894574
 20
382.31522
 30
0.0
 11
336.894574
 21
385.31522
 31
0.0
  0
LINE
  8
LC-001-002-----0
  6
CONTINUOUS
  5
36E
 10
330.844498
 20
401.00369
 30
0.0
 11
331.594498
 21
400.25369
 31
0.0
  0
LINE
  8
LC-001-002-----0
  6
CONTINUOUS
  5
36F
 10
331.594498
 20
400.25369
 30
0.0
 11
331.594498
 21
385.31522
 31
0.0
  0
LINE
  8
LC-001-002-----0
  6
CONTINUOUS
  5
370
 10
331.594498
 20
400.25369
 30
0.0
 11
326.050191
 21
400.25369
 31
0.0
  0
LINE
  8
LC-001-002-----0
  6
CONTINUOUS
  5
371
 10
326.050191
 20
400.25369
 30
0.0
 11
326.050191
 21
385.31522
 31
0.0
  0
LINE
  8
LC-001-002-----0
  6
CONTINUOUS
  5
372
 10
320.662429
 20
401.00369
 30
0.0
 11
321.412429
 21
400.25369
 31
0.0
  0
LINE
  8
LC-001-002-----0
  6
CONTINUOUS
  5
373
 10
326.396068
 20
401.00369
 30
0.0
 11
326.050191
 21
400.25369
 31
0.0
  0
LINE
  8
LC-001-002-----0
  6
CONTINUOUS
  5
374
 10
349.352724
 20
382.31522
 30
0.0
 11
349.352724
 21
385.31522
 31
0.0
  0
LINE
  8
LC-001-002-----0
  6
CONTINUOUS
  5
375
 10
324.162429
 20
382.31522
 30
0.0
 11
324.162429
 21
385.31522
 31
0.0
  0
LINE
  8
LC-001-002-----0
  6
CONTINUOUS
  5
376
 10
321.412429
 20
385.31522
 30
0.0
 11
321.412429
 21
400.25369
 31
0.0
  0
LINE
  8
LC-001-002-----0
  6
CONTINUOUS
  5
377
 10
358.662429
 20
401.00369
 30
0.0
 11
359.412429
 21
400.25369
 31
0.0
  0
LINE
  8
LC-001-002-----0
  6
CONTINUOUS
  5
378
 10
359.412429
 20
400.25369
 30
0.0
 11
359.412429
 21
394.963541
 31
0.0
  0
LINE
  8
LC-001-002-----0
  6
CONTINUOUS
  5
379
 10
353.094464
 20
401.00369
 30
0.0
 11
352.46208
 21
400.25369
 31
0.0
  0
LINE
  8
LC-001-002-----0
  6
CONTINUOUS
  5
37A
 10
352.46208
 20
400.25369
 30
0.0
 11
352.46208
 21
386.594032
 31
0.0
  0
LINE
  8
LC-001-002-----0
  6
CONTINUOUS
  5
37B
 10
352.46208
 20
400.25369
 30
0.0
 11
359.412429
 21
400.25369
 31
0.0
  0
ARC
  8
LC-002-002-RND-0
  6
CONTINUOUS
  5
37C
 10
471.662429
 20
383.31522
 30
0.0
 40
1.0
 50
270.0
 51
0.0
  0
LINE
  8
LC-001-002-----0
  6
CONTINUOUS
  5
37D
 10
301.912429
 20
402.314818
 30
0.0
 11
302.912429
 21
395.31522
 31
0.0
  0
LINE
  8
LC-001-002-----0
  6
CONTINUOUS
  5
37E
 10
304.085293
 20
395.31522
 30
0.0
 11
302.912429
 21
395.31522
 31
0.0
  0
LINE
  8
LC-001-002-----0
  6
CONTINUOUS
  5
37F
 10
304.662644
 20
396.31522
 30
0.0
 11
304.085293
 21
395.31522
 31
0.0
  0
LINE
  8
LC-001-002-----0
  6
CONTINUOUS
  5
380
 10
304.662644
 20
396.31522
 30
0.0
 11
304.662644
 21
399.616399
 31
0.0
  0
ARC
  8
LC-002-002-RND-0
  6
CONTINUOUS
  5
381
 10
315.662429
 20
383.31522
 30
0.0
 40
1.0
 50
180.0
 51
270.0
  0
LINE
  8
LC-001-002-----0
  6
CONTINUOUS
  5
382
 10
315.662429
 20
382.31522
 30
0.0
 11
352.166096
 21
382.31522
 31
0.0
  0
LINE
  8
LC-001-002-----0
  6
CONTINUOUS
  5
383
 10
482.662214
 20
396.31522
 30
0.0
 11
483.239565
 21
395.31522
 31
0.0
  0
LINE
  8
LC-001-002-----0
  6
CONTINUOUS
  5
384
 10
314.662429
 20
383.31522
 30
0.0
 11
314.662429
 21
398.917146
 31
0.0
  0
LINE
  8
LC-001-002-----0
  6
CONTINUOUS
  5
385
 10
482.662214
 20
396.31522
 30
0.0
 11
482.662214
 21
399.616399
 31
0.0
  0
LINE
  8
LC-001-002-----0
  6
CONTINUOUS
  5
386
 10
471.662429
 20
382.31522
 30
0.0
 11
463.162429
 21
382.31522
 31
0.0
  0
LINE
  8
LC-001-002-----0
  6
CONTINUOUS
  5
387
 10
472.662429
 20
383.31522
 30
0.0
 11
472.662429
 21
398.917146
 31
0.0
  0
LINE
  8
LC-001-002-----0
  6
CONTINUOUS
  5
388
 10
483.239565
 20
395.31522
 30
0.0
 11
484.412429
 21
395.31522
 31
0.0
  0
LINE
  8
LC-001-002-----0
  6
CONTINUOUS
  5
389
 10
463.162429
 20
382.31522
 30
0.0
 11
435.166304
 21
382.31522
 31
0.0
  0
LINE
  8
LC-001-002-----0
  6
CONTINUOUS
  5
38A
 10
463.162429
 20
385.31522
 30
0.0
 11
465.912429
 21
385.31522
 31
0.0
  0
LINE
  8
LC-001-002-----0
  6
CONTINUOUS
  5
38B
 10
450.430283
 20
385.31522
 30
0.0
 11
463.162429
 21
385.31522
 31
0.0
  0
LINE
  8
LC-001-002-----0
  6
CONTINUOUS
  5
38C
 10
435.166306
 20
385.31522
 30
0.0
 11
437.972134
 21
385.31522
 31
0.0
  0
LINE
  8
LC-001-002-----0
  6
CONTINUOUS
  5
38D
 10
352.244552
 20
385.31522
 30
0.0
 11
349.352724
 21
385.31522
 31
0.0
  0
LINE
  8
LC-001-002-----0
  6
CONTINUOUS
  5
38E
 10
482.662214
 20
399.616399
 30
0.0
 11
472.662429
 21
398.917146
 31
0.0
  0
LINE
  8
LC-001-002-----0
  6
CONTINUOUS
  5
38F
 10
336.894574
 20
385.31522
 30
0.0
 11
321.412429
 21
385.31522
 31
0.0
  0
LINE
  8
LC-001-002-----0
  6
CONTINUOUS
  5
390
 10
466.662429
 20
401.00369
 30
0.0
 11
406.449094
 21
401.00369
 31
0.0
  0
LINE
  8
LC-001-002-----0
  6
CONTINUOUS
  5
391
 10
485.412429
 20
402.314818
 30
0.0
 11
484.412429
 21
395.31522
 31
0.0
  0
LINE
  8
LC-001-002-----0
  6
CONTINUOUS
  5
392
 10
301.912429
 20
402.314818
 30
0.0
 11
320.662429
 21
401.00369
 31
0.0
  0
LINE
  8
LC-001-002-----0
  6
CONTINUOUS
  5
393
 10
380.883097
 20
401.00369
 30
0.0
 11
320.662429
 21
401.00369
 31
0.0
  0
LINE
  8
LC-001-002-----0
  6
CONTINUOUS
  5
394
 10
405.638821
 20
402.314818
 30
0.0
 11
485.412429
 21
402.314818
 31
0.0
  0
LINE
  8
LC-001-002-----0
  6
DASHDOT
 62
     2
  5
395
 10
393.662429
 20
395.945253
 30
0.0
 11
393.662429
 21
406.296
 31
0.0
  0
LINE
  8
LC-001-002-----0
  6
CONTINUOUS
  5
396
 10
410.373819
 20
373.445253
 30
0.0
 11
410.373819
 21
393.945425
 31
0.0
  0
ARC
  8
LC-001-002-----0
  6
CONTINUOUS
  5
397
 10
408.922511
 20
372.738147
 30
0.0
 40
0.767605
 50
112.900021
 51
247.099979
  0
LINE
  8
LC-001-002-----0
  6
CONTINUOUS
  5
398
 10
408.623817
 20
373.445253
 30
0.0
 11
410.373819
 21
373.445253
 31
0.0
  0
LINE
  8
LC-001-002-----0
  6
CONTINUOUS
  5
399
 10
408.623817
 20
368.945253
 30
0.0
 11
408.623817
 21
372.031041
 31
0.0
  0
LINE
  8
LC-001-002-----0
  6
CONTINUOUS
  5
39A
 10
408.154906
 20
365.445253
 30
0.0
 11
408.623817
 21
368.945253
 31
0.0
  0
LINE
  8
LC-001-002-----0
  6
CONTINUOUS
  5
39B
 10
393.666099
 20
365.445253
 30
0.0
 11
408.154906
 21
365.445253
 31
0.0
  0
LINE
  8
LC-001-002-----0
  6
CONTINUOUS
  5
39C
 10
408.623817
 20
372.031041
 30
0.0
 11
421.944119
 21
372.031041
 31
0.0
  0
LINE
  8
LC-001-002-----0
  6
CONTINUOUS
  5
39D
 10
383.916097
 20
395.945253
 30
0.0
 11
393.666096
 21
395.945253
 31
0.0
  0
LINE
  8
LC-001-002-----0
  6
CONTINUOUS
  5
39E
 10
403.416094
 20
395.945439
 30
0.0
 11
393.666096
 21
395.945445
 31
0.0
  0
LINE
  8
LC-001-002-----0
  6
CONTINUOUS
  5
39F
 10
395.097163
 20
365.445253
 30
0.0
 11
395.104877
 21
393.945425
 31
0.0
  0
ENDSEC
  0
EOF
