  0
SECTION
  2
HEADER
  9
$ACADVER
  1
AC1009
  9
$INSBASE
 10
0.0
 20
0.0
 30
0.0
  9
$EXTMIN
 10
-315.0
 20
-148.5
 30
0.0
  9
$EXTMAX
 10
525.0
 20
445.5
 30
0.0
  9
$LIMMIN
 10
-315.0
 20
-148.5
  9
$LIMMAX
 10
525.0
 20
445.5
  9
$ORTHOMODE
 70
     0
  9
$REGENMODE
 70
     1
  9
$FILLMODE
 70
     1
  9
$QTEXTMODE
 70
     0
  9
$MIRRTEXT
 70
     1
  9
$DRAGMODE
 70
     2
  9
$LTSCALE
 40
2.0
  9
$OSMODE
 70
     0
  9
$ATTMODE
 70
     1
  9
$TEXTSIZE
 40
0.2
  9
$TRACEWID
 40
0.05
  9
$TEXTSTYLE
  7
STANDARD
  9
$CLAYER
  8
0
  9
$CELTYPE
  6
BYLAYER
  9
$CECOLOR
 62
     7
  9
$DIMSCALE
 40
2.0
  9
$DIMASZ
 40
3.5
  9
$DIMEXO
 40
0.0625
  9
$DIMDLI
 40
0.38
  9
$DIMRND
 40
0.0
  9
$DIMDLE
 40
0.0
  9
$DIMEXE
 40
0.18
  9
$DIMTP
 40
0.0
  9
$DIMTM
 40
0.0
  9
$DIMTXT
 40
3.5
  9
$DIMCEN
 40
0.09
  9
$DIMTSZ
 40
0.0
  9
$DIMTOL
 70
     0
  9
$DIMLIM
 70
     0
  9
$DIMTIH
 70
     1
  9
$DIMTOH
 70
     1
  9
$DIMSE1
 70
     0
  9
$DIMSE2
 70
     0
  9
$DIMTAD
 70
     1
  9
$DIMZIN
 70
     0
  9
$DIMBLK
  1

  9
$DIMASO
 70
     1
  9
$DIMSHO
 70
     1
  9
$DIMPOST
  1

  9
$DIMAPOST
  1

  9
$DIMALT
 70
     0
  9
$DIMALTD
 70
     2
  9
$DIMALTF
 40
25.4
  9
$DIMLFAC
 40
1.0
  9
$DIMTOFL
 70
     0
  9
$DIMTVP
 40
0.0
  9
$DIMTIX
 70
     0
  9
$DIMSOXD
 70
     0
  9
$DIMSAH
 70
     0
  9
$DIMBLK1
  1

  9
$DIMBLK2
  1

  9
$DIMSTYLE
  2
STANDARD
  9
$DIMCLRD
 70
     0
  9
$DIMCLRE
 70
     0
  9
$DIMCLRT
 70
     0
  9
$DIMTFAC
 40
1.0
  9
$DIMGAP
 40
0.09
  9
$LUNITS
 70
     2
  9
$LUPREC
 70
     2
  9
$AXISMODE
 70
     0
  9
$AXISUNIT
 10
0.0
 20
0.0
  9
$SKETCHINC
 40
0.1
  9
$FILLETRAD
 40
0.0
  9
$AUNITS
 70
     0
  9
$AUPREC
 70
     0
  9
$MENU
  1
acad
  9
$ELEVATION
 40
0.0
  9
$PELEVATION
 40
0.0
  9
$THICKNESS
 40
0.0
  9
$LIMCHECK
 70
     0
  9
$BLIPMODE
 70
     1
  9
$CHAMFERA
 40
0.0
  9
$CHAMFERB
 40
0.0
  9
$SKPOLY
 70
     0
  9
$TDCREATE
 40
0.000000000
  9
$TDUPDATE
 40
0.000000000
  9
$TDINDWG
 40
0.0000000000
  9
$TDUSRTIMER
 40
0.0000000000
  9
$USRTIMER
 70
     1
  9
$ANGBASE
 50
0.0
  9
$ANGDIR
 70
     0
  9
$PDMODE
 70
     0
  9
$PDSIZE
 40
0.0
  9
$PLINEWID
 40
0.0
  9
$COORDS
 70
     0
  9
$SPLFRAME
 70
     0
  9
$SPLINETYPE
 70
     6
  9
$SPLINESEGS
 70
     8
  9
$ATTDIA
 70
     0
  9
$ATTREQ
 70
     1
  9
$HANDLING
 70
     1
  9
$HANDSEED
  5
146
  9
$SURFTAB1
 70
     6
  9
$SURFTAB2
 70
     6
  9
$SURFTYPE
 70
     6
  9
$SURFU
 70
     6
  9
$SURFV
 70
     6
  9
$UCSNAME
  2

  9
$UCSORG
 10
0.0
 20
0.0
 30
0.0
  9
$UCSXDIR
 10
1.0
 20
0.0
 30
0.0
  9
$UCSYDIR
 10
0.0
 20
1.0
 30
0.0
  9
$PUCSNAME
  2

  9
$PUCSORG
 10
0.0
 20
0.0
 30
0.0
  9
$PUCSXDIR
 10
1.0
 20
0.0
 30
0.0
  9
$PUCSYDIR
 10
0.0
 20
1.0
 30
0.0
  9
$USERI1
 70
     0
  9
$USERI2
 70
     0
  9
$USERI3
 70
     0
  9
$USERI4
 70
     0
  9
$USERI5
 70
     0
  9
$USERR1
 40
0.0
  9
$USERR2
 40
0.0
  9
$USERR3
 40
0.0
  9
$USERR4
 40
0.0
  9
$USERR5
 40
0.0
  9
$WORLDVIEW
 70
     1
  9
$SHADEDGE
 70
     3
  9
$SHADEDIF
 70
    70
  9
$TILEMODE
 70
     1
  9
$MAXACTVP
 70
    16
  9
$PINSBASE
 10
0.0
 20
0.0
 30
0.0
  9
$PLIMCHECK
 70
     0
  9
$PEXTMIN
 10
1.000000E+20
 20
1.000000E+20
 30
1.000000E+20
  9
$PEXTMAX
 10
-1.000000E+20
 20
-1.000000E+20
 30
-1.000000E+20
  9
$PLIMMIN
 10
-315.0
 20
-148.5
  9
$PLIMMAX
 10
525.0
 20
445.5
  9
$UNITMODE
 70
     0
  9
$VISRETAIN
 70
     0
  9
$PLINEGEN
 70
     1
  9
$PSLTSCALE
 70
     0
  9
$TREEDEPTH
 70
  3020
  9
$DWGCODEPAGE
  3
dos850
  0
ENDSEC
  0
SECTION
  2
TABLES
  0
TABLE
  2
VPORT
 70
     1
  0
VPORT
  2
*ACTIVE
 70
     0
 10
0.0
 20
0.0
 11
1.0
 21
1.0
 12
420.0
 22
297.0
 13
0.0
 23
0.0
 14
1.0
 24
1.0
 15
0.0
 25
0.0
 16
0.0
 26
0.0
 36
1.0
 17
-315.0
 27
-148.5
 37
0.0
 40
594.0
 41
1.604229
 42
50.0
 43
0.0
 44
0.0
 50
0.0
 51
0.0
 71
     0
 72
   100
 73
     1
 74
     1
 75
     0
 76
     0
 77
     0
 78
     0
  0
ENDTAB
  0
TABLE
  2
LTYPE
 70
     4
  0
LTYPE
  2
CONTINUOUS
 70
    64
  3
Solid line
 72
    65
 73
     0
 40
0.0
  0
LTYPE
  2
DASHED
 70
    64
  3
__ __ __ __ __
 72
    65
 73
     2
 40
6.25
 49
5.0
 49
-1.25
  0
LTYPE
  2
DASHDOT
 70
    64
  3
__ . __ . __ . __ . __
 72
    65
 73
     4
 40
7.5
 49
5.0
 49
-1.25
 49
0.0
 49
-1.25
  0
LTYPE
  2
CENTER
 70
    64
  3
__ . __ . __ . __ . __
 72
    65
 73
     4
 40
7.5
 49
5.0
 49
-1.25
 49
0.0
 49
-1.25
  0
ENDTAB
  0
TABLE
  2
LAYER
 70
    11
  0
LAYER
  2
0
 70
     0
 62
     7
  6
CONTINUOUS
  0
LAYER
  2
LC-INFO-1-2-MM-A3-0
 70
     1
 62
    -1
  6
CONTINUOUS
  0
LAYER
  2
LC-005-003-MTH-0
 70
     0
 62
     2
  6
CONTINUOUS
  0
LAYER
  2
LC-004-003-----0
 70
     0
 62
     2
  6
CONTINUOUS
  0
LAYER
  2
LC-006-003-MTG-0
 70
     0
 62
     2
  6
CONTINUOUS
  0
LAYER
  2
LC-008-005-----0
 70
     0
 62
     2
  6
CONTINUOUS
  0
LAYER
  2
LC-001-002-----0
 70
     0
 62
     1
  6
CONTINUOUS
  0
LAYER
  2
LC-003-000-----0
 70
     0
 62
     7
  6
CONTINUOUS
  0
LAYER
  2
LC-002-002-RND-0
 70
     0
 62
     1
  6
CONTINUOUS
  0
LAYER
  2
LC-007-006-MLN-0
 70
     0
 62
     2
  6
CENTER
  0
LAYER
  2
LC-000
 70
     0
 62
     7
  6
CONTINUOUS
  0
ENDTAB
  0
TABLE
  2
STYLE
 70
     6
  0
STYLE
  2
STANDARD
 70
     0
 40
0.0
 41
1.0
 50
0.0
 71
     0
 42
0.0
  3
txt
  4

  0
STYLE
  2
LC-STANDARD
 70
    64
 40
0.0
 41
1.0
 50
0.0
 71
     0
 42
3.5
  3
MONOTXT
  4

  0
STYLE
  2
LC-TXTSTYLE-150-400-0-0-D2
 70
    64
 40
0.0
 41
1.0
 50
15.0
 71
     0
 42
3.5
  3
MONOTXT
  4

  0
STYLE
  2
LC-TXTSTYLE-0-933-0-0-DIN3
 70
    64
 40
0.0
 41
1.0
 50
0.0
 71
     0
 42
3.5
  3
MONOTXT
  4

  0
STYLE
  2
LC-TXTSTYLE-150-400-0-0-D4
 70
    64
 40
0.0
 41
1.0
 50
15.0
 71
     0
 42
3.5
  3
LC-STANDARD
  4

  0
STYLE
  2
LC-TXTSTYLE-0-400-0-0-DIN5
 70
    64
 40
0.0
 41
1.0
 50
0.0
 71
     0
 42
3.5
  3
LC-STANDARD
  4

  0
ENDTAB
  0
TABLE
  2
VIEW
 70
     0
  0
ENDTAB
  0
TABLE
  2
UCS
 70
     0
  0
ENDTAB
  0
TABLE
  2
APPID
 70
     1
  0
APPID
  2
ACAD
 70
     0
  0
ENDTAB
  0
TABLE
  2
DIMSTYLE
 70
     4
  0
DIMSTYLE
  2
STANDARD
 70
     0
  3

  4

  5

  6

  7

 40
1.0
 41
0.18
 42
0.0625
 43
0.38
 44
0.18
 45
0.0
 46
0.0
 47
0.0
 48
0.0
 71
     0
 72
     0
 73
     1
 74
     1
 75
     0
 76
     0
 77
     0
 78
     0
140
0.18
141
0.09
142
0.0
143
25.4
144
1.0
145
0.0
146
1.0
147
0.09
170
     0
171
     2
172
     0
173
     0
174
     0
175
     0
176
     0
177
     0
178
     0
  0
DIMSTYLE
  2
LC-STANDARD
 70
     0
  3

  4

  5

  6

  7

 40
1.0
 41
3.5
 42
0.0
 43
7.5
 44
1.8
 45
0.0
 46
0.0
 47
0.0
 48
0.0
 71
     0
 72
     0
 73
     0
 74
     0
 75
     0
 76
     0
 77
     1
 78
     8
140
3.5
141
0.0
142
0.0
143
25.4
144
1.0
145
0.0
146
0.71
147
1.5
170
     0
171
     2
172
     1
173
     0
174
     0
175
     0
176
     0
177
     0
178
     3
  0
DIMSTYLE
  2
LC-DIM-L-0090-01-02
 70
     0
  3

  4

  5

  6

  7

 40
2.0
 41
3.5
 42
0.0
 43
7.5
 44
1.8
 45
0.0
 46
0.0
 47
0.0
 48
0.0
 71
     0
 72
     0
 73
     0
 74
     0
 75
     0
 76
     0
 77
     1
 78
     8
140
9.0
141
0.0
142
0.0
143
25.4
144
1.0
145
0.0
146
0.71
147
1.5
170
     0
171
     2
172
     0
173
     0
174
     0
175
     0
176
     2
177
     2
178
     6
  0
DIMSTYLE
  2
LC-DIM-L-0090-02-02
 70
     0
  3

  4

  5

  6

  7

 40
2.0
 41
3.5
 42
0.0
 43
7.5
 44
1.8
 45
0.0
 46
0.0
 47
0.0
 48
0.0
 71
     0
 72
     0
 73
     0
 74
     0
 75
     0
 76
     0
 77
     1
 78
     8
140
9.0
141
0.0
142
0.0
143
25.4
144
1.0
145
0.0
146
0.71
147
1.5
170
     0
171
     2
172
     0
173
     0
174
     0
175
     0
176
     2
177
     2
178
     6
  0
ENDTAB
  0
ENDSEC
  0
SECTION
  2
BLOCKS
  0
BLOCK
  8
0
  5
25
  2
BLK1
 70
    64
 10
0.0
 20
0.0
 30
0.0
  3
BLK1
  0
ENDBLK
  8
0
  5
26
  0
BLOCK
  8
0
  5
28
  2
*D1
 70
    65
 10
0.0
 20
0.0
 30
0.0
  3
*D1
  0
LINE
  8
LC-005-003-MTH-0
  6
CONTINUOUS
  5
2A
 10
181.841402
 20
185.356267
 30
0.0
 11
206.8
 21
185.356267
 31
0.0
  0
LINE
  8
LC-005-003-MTH-0
  6
CONTINUOUS
  5
2B
 10
186.591402
 20
195.356267
 30
0.0
 11
206.8
 21
195.356267
 31
0.0
  0
LINE
  8
LC-004-003-----0
  6
CONTINUOUS
  5
2D
 10
198.349471
 20
167.510259
 30
0.0
 11
196.0
 21
185.356267
 31
0.0
  0
LINE
  8
LC-004-003-----0
  6
CONTINUOUS
  5
2E
 10
196.0
 20
185.356267
 30
0.0
 11
193.650529
 21
167.510259
 31
0.0
  0
LINE
  8
LC-004-003-----0
  6
CONTINUOUS
  5
2F
 10
193.650529
 20
167.510259
 30
0.0
 11
198.349471
 21
167.510259
 31
0.0
  0
LINE
  8
LC-004-003-----0
  6
CONTINUOUS
  5
30
 10
197.738609
 20
167.470221
 30
0.0
 11
196.0
 21
180.676267
 31
0.0
  0
LINE
  8
LC-004-003-----0
  6
CONTINUOUS
  5
31
 10
196.0
 20
180.676267
 30
0.0
 11
194.261391
 21
167.470221
 31
0.0
  0
LINE
  8
LC-004-003-----0
  6
CONTINUOUS
  5
32
 10
197.127746
 20
167.430183
 30
0.0
 11
196.0
 21
175.996267
 31
0.0
  0
LINE
  8
LC-004-003-----0
  6
CONTINUOUS
  5
33
 10
196.0
 20
175.996267
 30
0.0
 11
194.872254
 21
167.430183
 31
0.0
  0
LINE
  8
LC-004-003-----0
  6
CONTINUOUS
  5
34
 10
196.516884
 20
167.390145
 30
0.0
 11
196.0
 21
171.316267
 31
0.0
  0
LINE
  8
LC-004-003-----0
  6
CONTINUOUS
  5
35
 10
196.0
 20
171.316267
 30
0.0
 11
195.483116
 21
167.390145
 31
0.0
  0
LINE
  8
LC-004-003-----0
  6
CONTINUOUS
  5
36
 10
193.650529
 20
213.202274
 30
0.0
 11
196.0
 21
195.356267
 31
0.0
  0
LINE
  8
LC-004-003-----0
  6
CONTINUOUS
  5
37
 10
196.0
 20
195.356267
 30
0.0
 11
198.349471
 21
213.202274
 31
0.0
  0
LINE
  8
LC-004-003-----0
  6
CONTINUOUS
  5
38
 10
198.349471
 20
213.202274
 30
0.0
 11
193.650529
 21
213.202274
 31
0.0
  0
LINE
  8
LC-004-003-----0
  6
CONTINUOUS
  5
39
 10
194.261391
 20
213.242312
 30
0.0
 11
196.0
 21
200.036267
 31
0.0
  0
LINE
  8
LC-004-003-----0
  6
CONTINUOUS
  5
3A
 10
196.0
 20
200.036267
 30
0.0
 11
197.738609
 21
213.242312
 31
0.0
  0
LINE
  8
LC-004-003-----0
  6
CONTINUOUS
  5
3B
 10
194.872254
 20
213.28235
 30
0.0
 11
196.0
 21
204.716267
 31
0.0
  0
LINE
  8
LC-004-003-----0
  6
CONTINUOUS
  5
3C
 10
196.0
 20
204.716267
 30
0.0
 11
197.127746
 21
213.28235
 31
0.0
  0
LINE
  8
LC-004-003-----0
  6
CONTINUOUS
  5
3D
 10
195.483116
 20
213.322388
 30
0.0
 11
196.0
 21
209.396267
 31
0.0
  0
LINE
  8
LC-004-003-----0
  6
CONTINUOUS
  5
3E
 10
196.0
 20
209.396267
 30
0.0
 11
196.516884
 21
213.322388
 31
0.0
  0
LINE
  8
LC-006-003-MTG-0
  6
CONTINUOUS
  5
40
 10
196.0
 20
160.156267
 30
0.0
 11
196.0
 21
253.358787
 31
0.0
  0
TEXT
  8
LC-004-003-----0
  6
CONTINUOUS
 62
     6
  5
42
 10
185.568001
 20
222.631513
 30
0.0
 40
18.0
  1
10
 50
90.0
 41
0.9
 51
15.0
  7
LC-TXTSTYLE-150-400-0-0-D0
  0
ENDBLK
  8
0
  5
43
  0
BLOCK
  8
0
  5
45
  2
*X2
 70
    65
 10
144.591402
 20
185.356267
 30
0.0
  3
*X2
  0
LINE
  8
LC-008-005-----0
  6
CONTINUOUS
  5
47
 10
185.356267
 20
185.356267
 30
0.0
 11
186.091402
 21
186.091402
 31
0.0
  0
LINE
  8
LC-008-005-----0
  6
CONTINUOUS
  5
48
 10
182.52784
 20
185.356267
 30
0.0
 11
185.27784
 21
188.106267
 31
0.0
  0
LINE
  8
LC-008-005-----0
  6
CONTINUOUS
  5
49
 10
181.841402
 20
187.498256
 30
0.0
 11
183.591402
 21
189.248256
 31
0.0
  0
LINE
  8
LC-008-005-----0
  6
CONTINUOUS
  5
4A
 10
186.699413
 20
192.356267
 30
0.0
 11
187.591402
 21
193.248256
 31
0.0
  0
LINE
  8
LC-008-005-----0
  6
CONTINUOUS
  5
4B
 10
181.841402
 20
190.326683
 30
0.0
 11
183.591402
 21
192.076683
 31
0.0
  0
LINE
  8
LC-008-005-----0
  6
CONTINUOUS
  5
4C
 10
183.870985
 20
192.356267
 30
0.0
 11
186.839675
 21
195.324957
 31
0.0
  0
LINE
  8
LC-008-005-----0
  6
CONTINUOUS
  5
4D
 10
180.542558
 20
191.856267
 30
0.0
 11
184.042558
 21
195.356267
 31
0.0
  0
LINE
  8
LC-008-005-----0
  6
CONTINUOUS
  5
4E
 10
174.96194
 20
189.104076
 30
0.0
 11
181.214131
 21
195.356267
 31
0.0
  0
LINE
  8
LC-008-005-----0
  6
CONTINUOUS
  5
4F
 10
170.119923
 20
187.090486
 30
0.0
 11
173.721033
 21
190.691596
 31
0.0
  0
LINE
  8
LC-008-005-----0
  6
CONTINUOUS
  5
50
 10
166.823028
 20
186.622018
 30
0.0
 11
169.115221
 21
188.91421
 31
0.0
  0
LINE
  8
LC-008-005-----0
  6
CONTINUOUS
  5
51
 10
164.096324
 20
186.723741
 30
0.0
 11
165.979269
 21
188.606686
 31
0.0
  0
LINE
  8
LC-008-005-----0
  6
CONTINUOUS
  5
52
 10
161.721633
 20
187.177477
 30
0.0
 11
163.394802
 21
188.850646
 31
0.0
  0
LINE
  8
LC-008-005-----0
  6
CONTINUOUS
  5
53
 10
159.607193
 20
187.891464
 30
0.0
 11
161.15688
 21
189.441151
 31
0.0
  0
LINE
  8
LC-008-005-----0
  6
CONTINUOUS
  5
54
 10
157.705723
 20
188.818421
 30
0.0
 11
159.180459
 21
190.293158
 31
0.0
  0
LINE
  8
LC-008-005-----0
  6
CONTINUOUS
  5
55
 10
155.991005
 20
189.932131
 30
0.0
 11
157.423268
 21
191.364394
 31
0.0
  0
LINE
  8
LC-008-005-----0
  6
CONTINUOUS
  5
56
 10
148.586714
 20
185.356267
 30
0.0
 11
150.341402
 21
187.110954
 31
0.0
  0
LINE
  8
LC-008-005-----0
  6
CONTINUOUS
  5
57
 10
154.44902
 20
191.218573
 30
0.0
 11
155.864005
 21
192.633557
 31
0.0
  0
LINE
  8
LC-008-005-----0
  6
CONTINUOUS
  5
58
 10
146.112981
 20
185.710961
 30
0.0
 11
148.508287
 21
188.106267
 31
0.0
  0
LINE
  8
LC-008-005-----0
  6
CONTINUOUS
  5
59
 10
148.591402
 20
188.189381
 30
0.0
 11
150.341402
 21
189.939381
 31
0.0
  0
LINE
  8
LC-008-005-----0
  6
CONTINUOUS
  5
5A
 10
152.258287
 20
191.856267
 30
0.0
 11
154.494506
 21
194.092486
 31
0.0
  0
LINE
  8
LC-008-005-----0
  6
CONTINUOUS
  5
5B
 10
148.591402
 20
191.017809
 30
0.0
 11
152.92986
 21
195.356267
 31
0.0
  0
LINE
  8
LC-008-005-----0
  6
CONTINUOUS
  5
5C
 10
147.101433
 20
192.356267
 30
0.0
 11
150.101433
 21
195.356267
 31
0.0
  0
LINE
  8
LC-008-005-----0
  6
CONTINUOUS
  5
5D
 10
144.591402
 20
192.674663
 30
0.0
 11
147.273006
 21
195.356267
 31
0.0
  0
ENDBLK
  8
0
  5
5E
  0
BLOCK
  8
0
  5
60
  2
*X3
 70
    65
 10
78.430953
 20
160.717792
 30
0.0
  3
*X3
  0
LINE
  8
LC-001-002-----0
  6
CONTINUOUS
 62
     4
  5
62
 10
80.545465
 20
161.155638
 30
0.0
 11
80.735331
 21
161.345504
 31
0.0
  0
LINE
  8
LC-001-002-----0
  6
CONTINUOUS
 62
     4
  5
63
 10
80.18876
 20
161.081776
 30
0.0
 11
80.634372
 21
161.527387
 31
0.0
  0
LINE
  8
LC-001-002-----0
  6
CONTINUOUS
 62
     4
  5
64
 10
79.832056
 20
161.007914
 30
0.0
 11
80.533412
 21
161.70927
 31
0.0
  0
LINE
  8
LC-001-002-----0
  6
CONTINUOUS
 62
     4
  5
65
 10
79.475351
 20
160.934053
 30
0.0
 11
80.432452
 21
161.891153
 31
0.0
  0
LINE
  8
LC-001-002-----0
  6
CONTINUOUS
 62
     4
  5
66
 10
79.118647
 20
160.860191
 30
0.0
 11
79.903617
 21
161.645161
 31
0.0
  0
LINE
  8
LC-001-002-----0
  6
CONTINUOUS
 62
     4
  5
67
 10
78.761943
 20
160.786329
 30
0.0
 11
79.139752
 21
161.164138
 31
0.0
  0
ENDBLK
  8
0
  5
68
  0
BLOCK
  8
0
  5
6A
  2
*X4
 70
    65
 10
91.372519
 20
160.717792
 30
0.0
  3
*X4
  0
LINE
  8
LC-001-002-----0
  6
CONTINUOUS
 62
     4
  5
6B
 10
93.695697
 20
160.72942
 30
0.0
 11
93.71026
 21
160.743983
 31
0.0
  0
LINE
  8
LC-001-002-----0
  6
CONTINUOUS
 62
     4
  5
6C
 10
93.461375
 20
160.77794
 30
0.0
 11
93.536707
 21
160.853273
 31
0.0
  0
LINE
  8
LC-001-002-----0
  6
CONTINUOUS
 62
     4
  5
6D
 10
93.227052
 20
160.826461
 30
0.0
 11
93.363154
 21
160.962563
 31
0.0
  0
LINE
  8
LC-001-002-----0
  6
CONTINUOUS
 62
     4
  5
6E
 10
92.99273
 20
160.874981
 30
0.0
 11
93.189602
 21
161.071853
 31
0.0
  0
LINE
  8
LC-001-002-----0
  6
CONTINUOUS
 62
     4
  5
6F
 10
92.758408
 20
160.923501
 30
0.0
 11
93.016049
 21
161.181143
 31
0.0
  0
LINE
  8
LC-001-002-----0
  6
CONTINUOUS
 62
     4
  5
70
 10
92.524085
 20
160.972022
 30
0.0
 11
92.842496
 21
161.290433
 31
0.0
  0
LINE
  8
LC-001-002-----0
  6
CONTINUOUS
 62
     4
  5
71
 10
92.289763
 20
161.020542
 30
0.0
 11
92.668943
 21
161.399723
 31
0.0
  0
LINE
  8
LC-001-002-----0
  6
CONTINUOUS
 62
     4
  5
72
 10
92.055441
 20
161.069063
 30
0.0
 11
92.495391
 21
161.509012
 31
0.0
  0
LINE
  8
LC-001-002-----0
  6
CONTINUOUS
 62
     4
  5
73
 10
91.821118
 20
161.117583
 30
0.0
 11
92.321838
 21
161.618302
 31
0.0
  0
LINE
  8
LC-001-002-----0
  6
CONTINUOUS
 62
     4
  5
74
 10
91.586796
 20
161.166103
 30
0.0
 11
92.148285
 21
161.727592
 31
0.0
  0
LINE
  8
LC-001-002-----0
  6
CONTINUOUS
 62
     4
  5
75
 10
91.402705
 20
161.264855
 30
0.0
 11
91.974732
 21
161.836882
 31
0.0
  0
LINE
  8
LC-001-002-----0
  6
CONTINUOUS
 62
     4
  5
76
 10
91.75558
 20
161.900573
 30
0.0
 11
91.80118
 21
161.946172
 31
0.0
  0
ENDBLK
  8
0
  5
77
  0
BLOCK
  8
0
  5
79
  2
BLK2
 70
    64
 10
0.0
 20
0.0
 30
0.0
  3
BLK2
  0
ENDBLK
  8
0
  5
7A
  0
BLOCK
  8
0
  5
7C
  2
BLK3
 70
    64
 10
0.0
 20
0.0
 30
0.0
  3
BLK3
  0
ENDBLK
  8
0
  5
7D
  0
BLOCK
  8
0
  5
7F
  2
*D7
 70
    65
 10
0.0
 20
0.0
 30
0.0
  3
*D7
  0
LINE
  8
LC-005-003-MTH-0
  6
CONTINUOUS
  5
80
 10
64.591402
 20
195.356267
 30
0.0
 11
64.591402
 21
226.8
 31
0.0
  0
LINE
  8
LC-005-003-MTH-0
  6
CONTINUOUS
  5
81
 10
107.591402
 20
195.356267
 30
0.0
 11
107.591402
 21
226.8
 31
0.0
  0
LINE
  8
LC-004-003-----0
  6
CONTINUOUS
  5
82
 10
46.745394
 20
213.650529
 30
0.0
 11
64.591402
 21
216.0
 31
0.0
  0
LINE
  8
LC-004-003-----0
  6
CONTINUOUS
  5
83
 10
64.591402
 20
216.0
 30
0.0
 11
46.745394
 21
218.349471
 31
0.0
  0
LINE
  8
LC-004-003-----0
  6
CONTINUOUS
  5
84
 10
46.745394
 20
218.349471
 30
0.0
 11
46.745394
 21
213.650529
 31
0.0
  0
LINE
  8
LC-004-003-----0
  6
CONTINUOUS
  5
85
 10
46.705356
 20
214.261391
 30
0.0
 11
59.911402
 21
216.0
 31
0.0
  0
LINE
  8
LC-004-003-----0
  6
CONTINUOUS
  5
86
 10
59.911402
 20
216.0
 30
0.0
 11
46.705356
 21
217.738609
 31
0.0
  0
LINE
  8
LC-004-003-----0
  6
CONTINUOUS
  5
87
 10
46.665318
 20
214.872254
 30
0.0
 11
55.231402
 21
216.0
 31
0.0
  0
LINE
  8
LC-004-003-----0
  6
CONTINUOUS
  5
88
 10
55.231402
 20
216.0
 30
0.0
 11
46.665318
 21
217.127746
 31
0.0
  0
LINE
  8
LC-004-003-----0
  6
CONTINUOUS
  5
89
 10
46.62528
 20
215.483116
 30
0.0
 11
50.551402
 21
216.0
 31
0.0
  0
LINE
  8
LC-004-003-----0
  6
CONTINUOUS
  5
8A
 10
50.551402
 20
216.0
 30
0.0
 11
46.62528
 21
216.516884
 31
0.0
  0
LINE
  8
LC-004-003-----0
  6
CONTINUOUS
  5
8B
 10
125.437409
 20
218.349471
 30
0.0
 11
107.591402
 21
216.0
 31
0.0
  0
LINE
  8
LC-004-003-----0
  6
CONTINUOUS
  5
8C
 10
107.591402
 20
216.0
 30
0.0
 11
125.437409
 21
213.650529
 31
0.0
  0
LINE
  8
LC-004-003-----0
  6
CONTINUOUS
  5
8D
 10
125.437409
 20
213.650529
 30
0.0
 11
125.437409
 21
218.349471
 31
0.0
  0
LINE
  8
LC-004-003-----0
  6
CONTINUOUS
  5
8E
 10
125.477447
 20
217.738609
 30
0.0
 11
112.271402
 21
216.0
 31
0.0
  0
LINE
  8
LC-004-003-----0
  6
CONTINUOUS
  5
8F
 10
112.271402
 20
216.0
 30
0.0
 11
125.477447
 21
214.261391
 31
0.0
  0
LINE
  8
LC-004-003-----0
  6
CONTINUOUS
  5
90
 10
125.517485
 20
217.127746
 30
0.0
 11
116.951402
 21
216.0
 31
0.0
  0
LINE
  8
LC-004-003-----0
  6
CONTINUOUS
  5
91
 10
116.951402
 20
216.0
 30
0.0
 11
125.517485
 21
214.872254
 31
0.0
  0
LINE
  8
LC-004-003-----0
  6
CONTINUOUS
  5
92
 10
125.557523
 20
216.516884
 30
0.0
 11
121.631402
 21
216.0
 31
0.0
  0
LINE
  8
LC-004-003-----0
  6
CONTINUOUS
  5
93
 10
121.631402
 20
216.0
 30
0.0
 11
125.557523
 21
215.483116
 31
0.0
  0
LINE
  8
LC-006-003-MTG-0
  6
CONTINUOUS
  5
94
 10
-9.611118
 20
216.0
 30
0.0
 11
132.791402
 21
216.0
 31
0.0
  0
TEXT
  8
LC-004-003-----0
  6
CONTINUOUS
 62
     6
  5
95
 10
8.465703
 20
226.431999
 30
0.0
 40
18.0
  1
Ø43
 51
15.0
  7
LC-TXTSTYLE-150-400-0-0-D0
 72
     2
 11
42.906647
 21
226.431999
 31
0.0
  0
ENDBLK
  8
0
  5
96
  0
BLOCK
  8
0
  5
98
  2
*X8
 70
    65
 10
64.091402
 20
190.856267
 30
0.0
  3
*X8
  0
LINE
  8
LC-008-005-----0
  6
CONTINUOUS
  5
99
 10
68.591402
 20
192.189579
 30
0.0
 11
68.424714
 21
192.356267
 31
0.0
  0
LINE
  8
LC-008-005-----0
  6
DASHED
  5
9B
 10
68.591402
 20
191.058208
 30
0.0
 11
67.293343
 21
192.356267
 31
0.0
  0
LINE
  8
LC-008-005-----0
  6
DASHED
  5
9C
 10
68.227658
 20
190.856267
 30
0.0
 11
66.727658
 21
192.356267
 31
0.0
  0
LINE
  8
LC-008-005-----0
  6
CONTINUOUS
  5
9D
 10
67.096287
 20
190.856267
 30
0.0
 11
65.596287
 21
192.356267
 31
0.0
  0
LINE
  8
LC-008-005-----0
  6
CONTINUOUS
  5
9E
 10
66.530602
 20
190.856267
 30
0.0
 11
65.030602
 21
192.356267
 31
0.0
  0
LINE
  8
LC-008-005-----0
  6
DASHED
  5
9F
 10
65.399231
 20
190.856267
 30
0.0
 11
64.091402
 21
192.164096
 31
0.0
  0
LINE
  8
LC-008-005-----0
  6
DASHED
  5
A0
 10
64.833545
 20
190.856267
 30
0.0
 11
64.091402
 21
191.59841
 31
0.0
  0
ENDBLK
  8
0
  5
A1
  0
BLOCK
  8
0
  5
A3
  2
BLK4
 70
    64
 10
0.0
 20
0.0
 30
0.0
  3
BLK4
  0
ENDBLK
  8
0
  5
A4
  0
BLOCK
  8
0
  5
A6
  2
BLK5
 70
    64
 10
0.0
 20
0.0
 30
0.0
  3
BLK5
  0
ENDBLK
  8
0
  5
A7
  0
BLOCK
  8
0
  5
A9
  2
*X11
 70
    65
 10
103.591402
 20
190.856267
 30
0.0
  3
*X11
  0
LINE
  8
LC-008-005-----0
  6
CONTINUOUS
  5
AA
 10
108.091402
 20
192.287559
 30
0.0
 11
108.022694
 21
192.356267
 31
0.0
  0
LINE
  8
LC-008-005-----0
  6
DASHED
  5
AB
 10
108.091402
 20
191.156188
 30
0.0
 11
106.891323
 21
192.356267
 31
0.0
  0
LINE
  8
LC-008-005-----0
  6
DASHED
  5
AC
 10
107.825638
 20
190.856267
 30
0.0
 11
106.325638
 21
192.356267
 31
0.0
  0
LINE
  8
LC-008-005-----0
  6
CONTINUOUS
  5
AD
 10
106.694267
 20
190.856267
 30
0.0
 11
105.194267
 21
192.356267
 31
0.0
  0
LINE
  8
LC-008-005-----0
  6
CONTINUOUS
  5
AE
 10
106.128581
 20
190.856267
 30
0.0
 11
104.628581
 21
192.356267
 31
0.0
  0
LINE
  8
LC-008-005-----0
  6
DASHED
  5
AF
 10
104.99721
 20
190.856267
 30
0.0
 11
103.591402
 21
192.262076
 31
0.0
  0
LINE
  8
LC-008-005-----0
  6
DASHED
  5
B0
 10
104.431525
 20
190.856267
 30
0.0
 11
103.591402
 21
191.69639
 31
0.0
  0
ENDBLK
  8
0
  5
B1
  0
BLOCK
  8
0
  5
B3
  2
BLK6
 70
    64
 10
0.0
 20
0.0
 30
0.0
  3
BLK6
  0
ENDBLK
  8
0
  5
B4
  0
BLOCK
  8
0
  5
B6
  2
*X13
 70
    65
 10
144.091402
 20
190.856267
 30
0.0
  3
*X13
  0
LINE
  8
LC-008-005-----0
  6
CONTINUOUS
  5
B7
 10
148.591402
 20
191.951224
 30
0.0
 11
148.186359
 21
192.356267
 31
0.0
  0
LINE
  8
LC-008-005-----0
  6
DASHED
  5
B8
 10
148.554988
 20
190.856267
 30
0.0
 11
147.054988
 21
192.356267
 31
0.0
  0
LINE
  8
LC-008-005-----0
  6
DASHED
  5
B9
 10
147.989303
 20
190.856267
 30
0.0
 11
146.489303
 21
192.356267
 31
0.0
  0
LINE
  8
LC-008-005-----0
  6
CONTINUOUS
  5
BA
 10
146.857932
 20
190.856267
 30
0.0
 11
145.357932
 21
192.356267
 31
0.0
  0
LINE
  8
LC-008-005-----0
  6
CONTINUOUS
  5
BB
 10
146.292246
 20
190.856267
 30
0.0
 11
144.792246
 21
192.356267
 31
0.0
  0
LINE
  8
LC-008-005-----0
  6
DASHED
  5
BC
 10
145.160876
 20
190.856267
 30
0.0
 11
144.091402
 21
191.925741
 31
0.0
  0
LINE
  8
LC-008-005-----0
  6
DASHED
  5
BD
 10
144.59519
 20
190.856267
 30
0.0
 11
144.091402
 21
191.360055
 31
0.0
  0
ENDBLK
  8
0
  5
BE
  0
BLOCK
  8
0
  5
C0
  2
BLK7
 70
    64
 10
0.0
 20
0.0
 30
0.0
  3
BLK7
  0
ENDBLK
  8
0
  5
C1
  0
BLOCK
  8
0
  5
C3
  2
*X15
 70
    65
 10
183.591402
 20
190.856267
 30
0.0
  3
*X15
  0
LINE
  8
LC-008-005-----0
  6
CONTINUOUS
  5
C4
 10
188.091402
 20
192.049204
 30
0.0
 11
187.784339
 21
192.356267
 31
0.0
  0
LINE
  8
LC-008-005-----0
  6
DASHED
  5
C5
 10
188.091402
 20
190.917833
 30
0.0
 11
186.652968
 21
192.356267
 31
0.0
  0
LINE
  8
LC-008-005-----0
  6
DASHED
  5
C6
 10
187.587282
 20
190.856267
 30
0.0
 11
186.087282
 21
192.356267
 31
0.0
  0
LINE
  8
LC-008-005-----0
  6
CONTINUOUS
  5
C7
 10
186.455912
 20
190.856267
 30
0.0
 11
184.955912
 21
192.356267
 31
0.0
  0
LINE
  8
LC-008-005-----0
  6
CONTINUOUS
  5
C8
 10
185.890226
 20
190.856267
 30
0.0
 11
184.390226
 21
192.356267
 31
0.0
  0
LINE
  8
LC-008-005-----0
  6
DASHED
  5
C9
 10
184.758855
 20
190.856267
 30
0.0
 11
183.591402
 21
192.02372
 31
0.0
  0
LINE
  8
LC-008-005-----0
  6
DASHED
  5
CA
 10
184.19317
 20
190.856267
 30
0.0
 11
183.591402
 21
191.458035
 31
0.0
  0
ENDBLK
  8
0
  5
CB
  0
BLOCK
  8
0
  5
CD
  2
BLK8
 70
    64
 10
0.0
 20
0.0
 30
0.0
  3
BLK8
  0
ENDBLK
  8
0
  5
CE
  0
ENDSEC
  0
SECTION
  2
ENTITIES
  0
VIEWPORT
  8
LC-000
  5
13B
 67
     1
 68
     1
 10
420.0
 20
297.0
 30
0.0
 40
840.0
 41
594.0
 69
     1
1001
ACAD
1000
MVIEW
1002
{
1070
    16
1010
0.0
1020
0.0
1030
0.0
1010
0.0
1020
0.0
1030
1.0
1040
0.0
1040
594.0
1040
420.0
1040
297.0
1040
50.0
1040
0.0
1040
0.0
1070
     0
1070
   100
1070
     1
1070
     1
1070
     0
1070
     0
1070
     0
1070
     0
1040
0.0
1040
0.0
1040
0.0
1040
1.0
1040
1.0
1040
0.0
1040
0.0
1070
     0
1002
{
1002
}
1002
}
  0
VIEWPORT
  8
0
  5
13C
 67
     1
 68
     1
 10
0.0
 20
0.0
 30
0.0
 40
0.0
 41
0.0
 69
     1
1001
ACAD
1000
MVIEW
1002
{
1070
    16
1010
0.0
1020
0.0
1030
0.0
1010
0.0
1020
0.0
1030
1.0
1040
0.0
1040
594.0
1040
0.0
1040
0.0
1040
50.0
1040
0.0
1040
0.0
1070
     0
1070
   100
1070
     0
1070
     1
1070
     0
1070
     0
1070
     0
1070
     0
1040
0.0
1040
0.0
1040
0.0
1040
0.5
1040
0.5
1040
0.5
1040
0.5
1070
     0
1002
{
1002
}
1002
}
  0
INSERT
  8
0
  5
D0
  2
BLK1
 10
0.0
 20
0.0
 30
0.0
  0
DIMENSION
  8
0
  5
D1
  2
*D1
 10
196.0
 20
190.356267
 30
0.0
 11
196.0
 21
190.356267
 31
0.0
 13
186.591402
 23
195.356267
 33
0.0
 14
181.841402
 24
185.356267
 34
0.0
 50
90.0
  3
LC-DIM-L-0090-01-02
  0
INSERT
  8
0
  5
D2
  2
*X2
 10
144.591402
 20
185.356267
 30
0.0
  0
INSERT
  8
0
  5
D3
  2
*X3
 10
78.430953
 20
160.717792
 30
0.0
  0
INSERT
  8
0
  5
D4
  2
*X4
 10
91.372519
 20
160.717792
 30
0.0
  0
INSERT
  8
0
  5
D5
  2
BLK2
 10
0.0
 20
0.0
 30
0.0
  0
INSERT
  8
0
  5
D6
  2
BLK3
 10
0.0
 20
0.0
 30
0.0
  0
DIMENSION
  8
0
  5
D7
  2
*D7
 10
56.856148
 20
216.0
 30
0.0
 11
56.856148
 21
216.0
 31
0.0
  1
%%c<>
 13
64.591402
 23
195.356267
 33
0.0
 14
107.591402
 24
195.356267
 34
0.0
  3
LC-DIM-L-0090-02-02
  0
INSERT
  8
0
  5
D8
  2
*X8
 10
64.091402
 20
190.856267
 30
0.0
  0
INSERT
  8
0
  5
D9
  2
BLK4
 10
0.0
 20
0.0
 30
0.0
  0
INSERT
  8
0
  5
DA
  2
BLK5
 10
0.0
 20
0.0
 30
0.0
  0
INSERT
  8
0
  5
DB
  2
*X11
 10
103.591402
 20
190.856267
 30
0.0
  0
INSERT
  8
0
  5
DC
  2
BLK6
 10
0.0
 20
0.0
 30
0.0
  0
INSERT
  8
0
  5
DD
  2
*X13
 10
144.091402
 20
190.856267
 30
0.0
  0
INSERT
  8
0
  5
DE
  2
BLK7
 10
0.0
 20
0.0
 30
0.0
  0
INSERT
  8
0
  5
DF
  2
*X15
 10
183.591402
 20
190.856267
 30
0.0
  0
INSERT
  8
0
  5
E0
  2
BLK8
 10
0.0
 20
0.0
 30
0.0
  0
LINE
  8
LC-001-002-----0
  6
CONTINUOUS
  5
E1
 10
186.591402
 20
195.356267
 30
0.0
 11
145.591402
 21
195.356267
 31
0.0
  0
LINE
  8
LC-001-002-----0
  6
CONTINUOUS
  5
E2
 10
187.591402
 20
194.356267
 30
0.0
 11
187.591402
 21
192.356267
 31
0.0
  0
LINE
  8
LC-001-002-----0
  6
CONTINUOUS
  5
E3
 10
144.591402
 20
194.356267
 30
0.0
 11
144.591402
 21
192.356267
 31
0.0
  0
LINE
  8
LC-001-002-----0
  6
CONTINUOUS
  5
E4
 10
187.591402
 20
192.356267
 30
0.0
 11
183.591402
 21
192.356267
 31
0.0
  0
LINE
  8
LC-001-002-----0
  6
CONTINUOUS
  5
E5
 10
183.591402
 20
188.106267
 30
0.0
 11
186.091402
 21
188.106267
 31
0.0
  0
LINE
  8
LC-001-002-----0
  6
CONTINUOUS
  5
E6
 10
186.091402
 20
189.856267
 30
0.0
 11
186.091402
 21
185.856267
 31
0.0
  0
ARC
  8
LC-002-002-RND-0
  6
CONTINUOUS
  5
E8
 10
145.591402
 20
194.356267
 30
0.0
 40
1.0
 50
90.0
 51
180.0
  0
LINE
  8
LC-001-002-----0
  6
CONTINUOUS
  5
E9
 10
148.591402
 20
192.356267
 30
0.0
 11
148.591402
 21
188.106267
 31
0.0
  0
LINE
  8
LC-001-002-----0
  6
CONTINUOUS
  5
EA
 10
150.341402
 20
191.856267
 30
0.0
 11
153.805739
 21
191.856267
 31
0.0
  0
LINE
  8
LC-001-002-----0
  6
CONTINUOUS
  5
EB
 10
148.591402
 20
192.356267
 30
0.0
 11
144.591402
 21
192.356267
 31
0.0
  0
LINE
  8
LC-001-002-----0
  6
CONTINUOUS
  5
EC
 10
148.591402
 20
188.106267
 30
0.0
 11
146.091402
 21
188.106267
 31
0.0
  0
LINE
  8
LC-001-002-----0
  6
CONTINUOUS
  5
ED
 10
183.591402
 20
192.356267
 30
0.0
 11
183.591402
 21
188.106267
 31
0.0
  0
LINE
  8
LC-001-002-----0
  6
CONTINUOUS
  5
EE
 10
146.091402
 20
188.106267
 30
0.0
 11
146.091402
 21
185.856267
 31
0.0
  0
LINE
  8
LC-001-002-----0
  6
CONTINUOUS
  5
EF
 10
150.341402
 20
191.856267
 30
0.0
 11
150.341402
 21
185.356267
 31
0.0
  0
ARC
  8
LC-002-002-RND-0
  6
CONTINUOUS
  5
F0
 10
186.591402
 20
194.356267
 30
0.0
 40
1.0
 50
0.0
 51
90.0
  0
ARC
  8
LC-002-002-RND-0
  6
CONTINUOUS
  5
F1
 10
146.591402
 20
185.856267
 30
0.0
 40
0.5
 50
180.0
 51
270.0
  0
LINE
  8
LC-001-002-----0
  6
CONTINUOUS
  5
F2
 10
146.591402
 20
185.356267
 30
0.0
 11
185.591402
 21
185.356267
 31
0.0
  0
ARC
  8
LC-002-002-RND-0
  6
CONTINUOUS
  5
F3
 10
185.591402
 20
185.856267
 30
0.0
 40
0.5
 50
270.0
 51
0.0
  0
ARC
  8
LC-001-002-----0
  6
CONTINUOUS
  5
F4
 10
166.091402
 20
203.606267
 30
0.0
 40
17.0
 50
223.723309
 51
316.276691
  0
LINE
  8
LC-001-002-----0
  6
CONTINUOUS
  5
F5
 10
183.591402
 20
189.856267
 30
0.0
 11
186.091402
 21
189.856267
 31
0.0
  0
LINE
  8
LC-001-002-----0
  6
CONTINUOUS
  5
F6
 10
181.841402
 20
191.856267
 30
0.0
 11
181.841402
 21
185.356267
 31
0.0
  0
LINE
  8
LC-007-006-MLN-0
  6
DASHDOT
  5
FA
 10
166.091402
 20
175.356267
 30
0.0
 11
166.091402
 21
204.159716
 31
0.0
  0
LINE
  8
LC-007-006-MLN-0
  6
DASHDOT
  5
FB
 10
86.091402
 20
175.979474
 30
0.0
 11
86.091402
 21
112.979474
 31
0.0
  0
LINE
  8
LC-007-006-MLN-0
  6
DASHDOT
  5
FC
 10
117.591402
 20
144.479474
 30
0.0
 11
54.591402
 21
144.479474
 31
0.0
  0
LINE
  8
LC-001-002-----0
  6
CONTINUOUS
  5
FD
 10
84.591402
 20
156.979474
 30
0.0
 11
84.591402
 21
131.979474
 31
0.0
  0
CIRCLE
  8
LC-001-002-----0
  6
CONTINUOUS
  5
FE
 10
86.091402
 20
144.479474
 30
0.0
 40
22.0
  0
LINE
  8
LC-001-002-----0
  6
CONTINUOUS
  5
FF
 10
87.591402
 20
156.979474
 30
0.0
 11
87.591402
 21
131.979474
 31
0.0
  0
LINE
  8
LC-001-002-----0
  6
CONTINUOUS
  5
100
 10
87.591402
 20
156.979474
 30
0.0
 11
84.591402
 21
156.979474
 31
0.0
  0
LINE
  8
LC-001-002-----0
  6
CONTINUOUS
  5
101
 10
87.591402
 20
131.979474
 30
0.0
 11
84.591402
 21
131.979474
 31
0.0
  0
TEXT
  8
LC-001-002-----0
  6
CONTINUOUS
 62
     5
  5
103
 10
74.139374
 20
155.318077
 30
0.0
 40
3.6
  1
A
 50
47.7
 41
0.8
  7
LC-TXTSTYLE-0-400-0-0-DIN0
 72
     1
 11
74.726962
 21
155.963827
 31
0.0
  0
TEXT
  8
LC-001-002-----0
  6
CONTINUOUS
 62
     5
  5
104
 10
75.693007
 20
156.820129
 30
0.0
 40
3.6
  1
U
 50
40.0
  7
LC-TXTSTYLE-0-400-0-0-DIN0
 72
     1
 11
76.318389
 21
157.344887
 31
0.0
  0
TEXT
  8
LC-001-002-----0
  6
CONTINUOUS
 62
     5
  5
105
 10
77.540203
 20
158.126329
 30
0.0
 40
3.6
  1
F
 50
35.2
  7
LC-TXTSTYLE-0-400-0-0-DIN0
 72
     1
 11
78.151711
 21
158.5577
 31
0.0
  0
TEXT
  8
LC-001-002-----0
  6
CONTINUOUS
 62
     5
  5
106
 10
93.461667
 20
158.877904
 30
0.0
 40
3.6
  1
Z
 50
330.0
  7
LC-TXTSTYLE-0-400-0-0-DIN0
 72
     1
 11
94.168671
 21
158.469715
 31
0.0
  0
LINE
  8
LC-001-002-----0
  6
CONTINUOUS
  5
107
 10
178.377064
 20
191.856267
 30
0.0
 11
181.841402
 21
191.856267
 31
0.0
  0
TEXT
  8
LC-001-002-----0
  6
CONTINUOUS
 62
     5
  5
108
 10
95.277986
 20
157.79271
 30
0.0
 40
3.6
  1
U
 50
322.5
  7
LC-TXTSTYLE-0-400-0-0-DIN0
 72
     1
 11
95.925662
 21
157.295731
 31
0.0
  0
LINE
  8
LC-001-002-----0
  6
CONTINUOUS
 62
     4
  5
109
 10
93.75185
 20
160.717792
 30
0.0
 11
91.786146
 21
161.955639
 31
0.0
  0
LINE
  8
LC-001-002-----0
  6
CONTINUOUS
 62
     4
  5
10A
 10
78.430953
 20
160.717792
 30
0.0
 11
80.810285
 21
161.210473
 31
0.0
  0
LINE
  8
LC-001-002-----0
  6
CONTINUOUS
 62
     4
  5
10B
 10
78.430953
 20
160.717792
 30
0.0
 11
80.396657
 21
161.955639
 31
0.0
  0
LINE
  8
LC-001-002-----0
  6
CONTINUOUS
 62
     4
  5
10C
 10
93.75185
 20
160.717792
 30
0.0
 11
91.372519
 21
161.210473
 31
0.0
  0
LINE
  8
LC-001-002-----0
  6
CONTINUOUS
 62
     4
  5
10D
 10
80.396657
 20
161.955639
 30
0.0
 11
80.810285
 21
161.210473
 31
0.0
  0
LINE
  8
LC-001-002-----0
  6
CONTINUOUS
 62
     4
  5
10E
 10
91.786146
 20
161.955639
 30
0.0
 11
91.372519
 21
161.210473
 31
0.0
  0
ARC
  8
LC-001-002-----0
  6
CONTINUOUS
  5
10F
 10
166.091402
 20
203.606267
 30
0.0
 40
15.0
 50
213.367013
 51
326.632987
  0
ARC
  8
LC-001-002-----0
  6
CONTINUOUS
 62
     4
  5
110
 10
86.091402
 20
144.479474
 30
0.0
 40
17.954539
 50
72.215438
 51
107.784562
  0
LINE
  8
LC-001-002-----0
  6
CONTINUOUS
  5
111
 10
64.591402
 20
195.356267
 30
0.0
 11
107.591402
 21
195.356267
 31
0.0
  0
LINE
  8
LC-001-002-----0
  6
CONTINUOUS
  5
112
 10
64.591402
 20
195.356267
 30
0.0
 11
64.591402
 21
192.356267
 31
0.0
  0
LINE
  8
LC-001-002-----0
  6
CONTINUOUS
  5
113
 10
107.591402
 20
195.356267
 30
0.0
 11
107.591402
 21
192.356267
 31
0.0
  0
LINE
  8
LC-001-002-----0
  6
CONTINUOUS
  5
114
 10
64.591402
 20
192.356267
 30
0.0
 11
107.591402
 21
192.356267
 31
0.0
  0
LINE
  8
LC-001-002-----0
  6
CONTINUOUS
  5
115
 10
106.091402
 20
188.106267
 30
0.0
 11
106.091402
 21
185.356267
 31
0.0
  0
LINE
  8
LC-001-002-----0
  6
CONTINUOUS
  5
116
 10
93.841402
 20
189.856267
 30
0.0
 11
93.841402
 21
185.356267
 31
0.0
  0
LINE
  8
LC-001-002-----0
  6
CONTINUOUS
  5
117
 10
92.341402
 20
188.106267
 30
0.0
 11
87.341402
 21
188.106267
 31
0.0
  0
LINE
  8
LC-001-002-----0
  6
CONTINUOUS
  5
118
 10
103.391402
 20
188.106267
 30
0.0
 11
106.091402
 21
188.106267
 31
0.0
  0
LINE
  8
LC-001-002-----0
  6
CONTINUOUS
  5
119
 10
93.841402
 20
189.856267
 30
0.0
 11
92.341402
 21
189.856267
 31
0.0
  0
LINE
  8
LC-001-002-----0
  6
CONTINUOUS
  5
11A
 10
103.591402
 20
192.356267
 30
0.0
 11
103.591402
 21
188.106267
 31
0.0
  0
LINE
  8
LC-001-002-----0
  6
CONTINUOUS
  5
11B
 10
78.341402
 20
186.356267
 30
0.0
 11
87.341402
 21
188.106267
 31
0.0
  0
LINE
  8
LC-001-002-----0
  6
CONTINUOUS
  5
11C
 10
68.591402
 20
192.356267
 30
0.0
 11
68.591402
 21
188.106267
 31
0.0
  0
LINE
  8
LC-001-002-----0
  6
CONTINUOUS
  5
11D
 10
66.091402
 20
188.106267
 30
0.0
 11
66.091402
 21
185.356267
 31
0.0
  0
LINE
  8
LC-001-002-----0
  6
CONTINUOUS
  5
11E
 10
101.781765
 20
186.356267
 30
0.0
 11
101.781765
 21
185.356267
 31
0.0
  0
LINE
  8
LC-001-002-----0
  6
CONTINUOUS
  5
11F
 10
104.528796
 20
186.356267
 30
0.0
 11
104.528796
 21
185.356267
 31
0.0
  0
LINE
  8
LC-001-002-----0
  6
CONTINUOUS
  5
120
 10
70.401038
 20
188.106267
 30
0.0
 11
70.401038
 21
185.356267
 31
0.0
  0
LINE
  8
LC-001-002-----0
  6
CONTINUOUS
  5
121
 10
106.091402
 20
185.356267
 30
0.0
 11
66.191402
 21
185.356267
 31
0.0
  0
LINE
  8
LC-001-002-----0
  6
CONTINUOUS
  5
122
 10
104.528796
 20
186.356267
 30
0.0
 11
106.091402
 21
188.106267
 31
0.0
  0
LINE
  8
LC-001-002-----0
  6
CONTINUOUS
  5
123
 10
70.401038
 20
188.106267
 30
0.0
 11
66.091402
 21
188.106267
 31
0.0
  0
LINE
  8
LC-001-002-----0
  6
CONTINUOUS
  5
124
 10
101.781765
 20
186.356267
 30
0.0
 11
104.528796
 21
186.356267
 31
0.0
  0
LINE
  8
LC-001-002-----0
  6
CONTINUOUS
  5
125
 10
67.654008
 20
188.106267
 30
0.0
 11
67.654008
 21
185.356267
 31
0.0
  0
LINE
  8
LC-007-006-MLN-0
  6
DASHDOT
  5
126
 10
86.091402
 20
178.106267
 30
0.0
 11
86.091402
 21
202.356267
 31
0.0
  0
LINE
  8
LC-001-002-----0
  6
CONTINUOUS
  5
127
 10
78.341402
 20
186.356267
 30
0.0
 11
78.341402
 21
185.356267
 31
0.0
  0
LINE
  8
LC-001-002-----0
  6
CONTINUOUS
  5
128
 10
101.781765
 20
186.356267
 30
0.0
 11
103.391402
 21
188.106267
 31
0.0
  0
LINE
  8
LC-001-002-----0
  6
CONTINUOUS
  5
129
 10
92.341402
 20
189.856267
 30
0.0
 11
92.341402
 21
188.106267
 31
0.0
  0
LINE
  8
LC-001-002-----0
  6
CONTINUOUS
  5
12A
 10
64.091402
 20
192.356267
 30
0.0
 11
68.591402
 21
192.356267
 31
0.0
  0
LINE
  8
LC-001-002-----0
  6
CONTINUOUS
  5
12B
 10
68.591402
 20
192.356267
 30
0.0
 11
68.591402
 21
190.856267
 31
0.0
  0
LINE
  8
LC-001-002-----0
  6
CONTINUOUS
  5
12C
 10
64.091402
 20
190.856267
 30
0.0
 11
68.591402
 21
190.856267
 31
0.0
  0
LINE
  8
LC-001-002-----0
  6
CONTINUOUS
  5
12D
 10
64.091402
 20
192.356267
 30
0.0
 11
64.091402
 21
190.856267
 31
0.0
  0
LINE
  8
LC-001-002-----0
  6
CONTINUOUS
  5
12E
 10
108.091402
 20
192.356267
 30
0.0
 11
103.591402
 21
192.356267
 31
0.0
  0
LINE
  8
LC-001-002-----0
  6
CONTINUOUS
  5
12F
 10
103.591402
 20
192.356267
 30
0.0
 11
103.591402
 21
190.856267
 31
0.0
  0
LINE
  8
LC-001-002-----0
  6
CONTINUOUS
  5
130
 10
108.091402
 20
190.856267
 30
0.0
 11
103.591402
 21
190.856267
 31
0.0
  0
LINE
  8
LC-001-002-----0
  6
CONTINUOUS
  5
131
 10
108.091402
 20
192.356267
 30
0.0
 11
108.091402
 21
190.856267
 31
0.0
  0
LINE
  8
LC-001-002-----0
  6
CONTINUOUS
  5
132
 10
144.091402
 20
192.356267
 30
0.0
 11
148.591402
 21
192.356267
 31
0.0
  0
LINE
  8
LC-001-002-----0
  6
CONTINUOUS
  5
133
 10
148.591402
 20
192.356267
 30
0.0
 11
148.591402
 21
190.856267
 31
0.0
  0
LINE
  8
LC-001-002-----0
  6
CONTINUOUS
  5
134
 10
144.091402
 20
190.856267
 30
0.0
 11
148.591402
 21
190.856267
 31
0.0
  0
LINE
  8
LC-001-002-----0
  6
CONTINUOUS
  5
135
 10
144.091402
 20
192.356267
 30
0.0
 11
144.091402
 21
190.856267
 31
0.0
  0
LINE
  8
LC-001-002-----0
  6
CONTINUOUS
  5
136
 10
188.091402
 20
192.356267
 30
0.0
 11
183.591402
 21
192.356267
 31
0.0
  0
LINE
  8
LC-001-002-----0
  6
CONTINUOUS
  5
137
 10
183.591402
 20
192.356267
 30
0.0
 11
183.591402
 21
190.856267
 31
0.0
  0
LINE
  8
LC-001-002-----0
  6
CONTINUOUS
  5
138
 10
188.091402
 20
190.856267
 30
0.0
 11
183.591402
 21
190.856267
 31
0.0
  0
LINE
  8
LC-001-002-----0
  6
CONTINUOUS
  5
139
 10
188.091402
 20
192.356267
 30
0.0
 11
188.091402
 21
190.856267
 31
0.0
  0
ENDSEC
  0
EOF
