  0
SECTION
  2
HEADER
  9
$ACADVER
  1
AC1009
  9
$INSBASE
 10
0.0
 20
0.0
 30
0.0
  9
$EXTMIN
 10
0.0
 20
0.0
 30
0.0
  9
$EXTMAX
 10
840.0
 20
594.0
 30
0.0
  9
$LIMMIN
 10
0.0
 20
0.0
  9
$LIMMAX
 10
840.0
 20
594.0
  9
$ORTHOMODE
 70
     0
  9
$REGENMODE
 70
     1
  9
$FILLMODE
 70
     1
  9
$QTEXTMODE
 70
     0
  9
$MIRRTEXT
 70
     1
  9
$DRAGMODE
 70
     2
  9
$LTSCALE
 40
2.0
  9
$OSMODE
 70
     0
  9
$ATTMODE
 70
     1
  9
$TEXTSIZE
 40
0.2
  9
$TRACEWID
 40
0.05
  9
$TEXTSTYLE
  7
STANDARD
  9
$CLAYER
  8
0
  9
$CELTYPE
  6
BYLAYER
  9
$CECOLOR
 62
     7
  9
$DIMSCALE
 40
2.0
  9
$DIMASZ
 40
3.5
  9
$DIMEXO
 40
0.0625
  9
$DIMDLI
 40
0.38
  9
$DIMRND
 40
0.0
  9
$DIMDLE
 40
0.0
  9
$DIMEXE
 40
0.18
  9
$DIMTP
 40
0.0
  9
$DIMTM
 40
0.0
  9
$DIMTXT
 40
3.5
  9
$DIMCEN
 40
0.09
  9
$DIMTSZ
 40
0.0
  9
$DIMTOL
 70
     0
  9
$DIMLIM
 70
     0
  9
$DIMTIH
 70
     1
  9
$DIMTOH
 70
     1
  9
$DIMSE1
 70
     0
  9
$DIMSE2
 70
     0
  9
$DIMTAD
 70
     1
  9
$DIMZIN
 70
     0
  9
$DIMBLK
  1

  9
$DIMASO
 70
     1
  9
$DIMSHO
 70
     1
  9
$DIMPOST
  1

  9
$DIMAPOST
  1

  9
$DIMALT
 70
     0
  9
$DIMALTD
 70
     2
  9
$DIMALTF
 40
25.4
  9
$DIMLFAC
 40
1.0
  9
$DIMTOFL
 70
     0
  9
$DIMTVP
 40
0.0
  9
$DIMTIX
 70
     0
  9
$DIMSOXD
 70
     0
  9
$DIMSAH
 70
     0
  9
$DIMBLK1
  1

  9
$DIMBLK2
  1

  9
$DIMSTYLE
  2
STANDARD
  9
$DIMCLRD
 70
     0
  9
$DIMCLRE
 70
     0
  9
$DIMCLRT
 70
     0
  9
$DIMTFAC
 40
1.0
  9
$DIMGAP
 40
0.09
  9
$LUNITS
 70
     2
  9
$LUPREC
 70
     2
  9
$AXISMODE
 70
     0
  9
$AXISUNIT
 10
0.0
 20
0.0
  9
$SKETCHINC
 40
0.1
  9
$FILLETRAD
 40
0.0
  9
$AUNITS
 70
     0
  9
$AUPREC
 70
     0
  9
$MENU
  1
acad
  9
$ELEVATION
 40
0.0
  9
$PELEVATION
 40
0.0
  9
$THICKNESS
 40
0.0
  9
$LIMCHECK
 70
     0
  9
$BLIPMODE
 70
     1
  9
$CHAMFERA
 40
0.0
  9
$CHAMFERB
 40
0.0
  9
$SKPOLY
 70
     0
  9
$TDCREATE
 40
0.000000000
  9
$TDUPDATE
 40
0.000000000
  9
$TDINDWG
 40
0.0000000000
  9
$TDUSRTIMER
 40
0.0000000000
  9
$USRTIMER
 70
     1
  9
$ANGBASE
 50
0.0
  9
$ANGDIR
 70
     0
  9
$PDMODE
 70
     0
  9
$PDSIZE
 40
0.0
  9
$PLINEWID
 40
0.0
  9
$COORDS
 70
     0
  9
$SPLFRAME
 70
     0
  9
$SPLINETYPE
 70
     6
  9
$SPLINESEGS
 70
     8
  9
$ATTDIA
 70
     0
  9
$ATTREQ
 70
     1
  9
$HANDLING
 70
     1
  9
$HANDSEED
  5
2EA
  9
$SURFTAB1
 70
     6
  9
$SURFTAB2
 70
     6
  9
$SURFTYPE
 70
     6
  9
$SURFU
 70
     6
  9
$SURFV
 70
     6
  9
$UCSNAME
  2

  9
$UCSORG
 10
0.0
 20
0.0
 30
0.0
  9
$UCSXDIR
 10
1.0
 20
0.0
 30
0.0
  9
$UCSYDIR
 10
0.0
 20
1.0
 30
0.0
  9
$PUCSNAME
  2

  9
$PUCSORG
 10
0.0
 20
0.0
 30
0.0
  9
$PUCSXDIR
 10
1.0
 20
0.0
 30
0.0
  9
$PUCSYDIR
 10
0.0
 20
1.0
 30
0.0
  9
$USERI1
 70
     0
  9
$USERI2
 70
     0
  9
$USERI3
 70
     0
  9
$USERI4
 70
     0
  9
$USERI5
 70
     0
  9
$USERR1
 40
0.0
  9
$USERR2
 40
0.0
  9
$USERR3
 40
0.0
  9
$USERR4
 40
0.0
  9
$USERR5
 40
0.0
  9
$WORLDVIEW
 70
     1
  9
$SHADEDGE
 70
     3
  9
$SHADEDIF
 70
    70
  9
$TILEMODE
 70
     1
  9
$MAXACTVP
 70
    16
  9
$PINSBASE
 10
0.0
 20
0.0
 30
0.0
  9
$PLIMCHECK
 70
     0
  9
$PEXTMIN
 10
1.000000E+20
 20
1.000000E+20
 30
1.000000E+20
  9
$PEXTMAX
 10
-1.000000E+20
 20
-1.000000E+20
 30
-1.000000E+20
  9
$PLIMMIN
 10
0.0
 20
0.0
  9
$PLIMMAX
 10
840.0
 20
594.0
  9
$UNITMODE
 70
     0
  9
$VISRETAIN
 70
     0
  9
$PLINEGEN
 70
     1
  9
$PSLTSCALE
 70
     0
  9
$TREEDEPTH
 70
  3020
  9
$DWGCODEPAGE
  3
dos850
  0
ENDSEC
  0
SECTION
  2
TABLES
  0
TABLE
  2
VPORT
 70
     1
  0
VPORT
  2
*ACTIVE
 70
     0
 10
0.0
 20
0.0
 11
1.0
 21
1.0
 12
420.0
 22
297.0
 13
0.0
 23
0.0
 14
1.0
 24
1.0
 15
0.0
 25
0.0
 16
0.0
 26
0.0
 36
1.0
 17
0.0
 27
0.0
 37
0.0
 40
594.0
 41
1.604229
 42
50.0
 43
0.0
 44
0.0
 50
0.0
 51
0.0
 71
     0
 72
   100
 73
     1
 74
     1
 75
     0
 76
     0
 77
     0
 78
     0
  0
ENDTAB
  0
TABLE
  2
LTYPE
 70
     2
  0
LTYPE
  2
CONTINUOUS
 70
    64
  3
Solid line
 72
    65
 73
     0
 40
0.0
  0
LTYPE
  2
DASHDOT
 70
    64
  3
__ . __ . __ . __ . __
 72
    65
 73
     4
 40
7.5
 49
5.0
 49
-1.25
 49
0.0
 49
-1.25
  0
ENDTAB
  0
TABLE
  2
LAYER
 70
    12
  0
LAYER
  2
0
 70
     0
 62
     7
  6
CONTINUOUS
  0
LAYER
  2
LC-INFO-1-2-MM-A3-0
 70
     1
 62
    -1
  6
CONTINUOUS
  0
LAYER
  2
LC-007-003-MTH-0
 70
     0
 62
     2
  6
CONTINUOUS
  0
LAYER
  2
LC-008-003-MTG-0
 70
     0
 62
     2
  6
CONTINUOUS
  0
LAYER
  2
LC-006-003-----0
 70
     0
 62
     2
  6
CONTINUOUS
  0
LAYER
  2
LC-005-005-----0
 70
     0
 62
     2
  6
CONTINUOUS
  0
LAYER
  2
LC-004-000-----0
 70
     0
 62
     7
  6
CONTINUOUS
  0
LAYER
  2
LC-010-000-----0
 70
     0
 62
     7
  6
CONTINUOUS
  0
LAYER
  2
LC-002-002-----0
 70
     0
 62
     1
  6
CONTINUOUS
  0
LAYER
  2
LC-003-001-----0
 70
     0
 62
     1
  6
CONTINUOUS
  0
LAYER
  2
LC-009-002-RND-0
 70
     0
 62
     1
  6
CONTINUOUS
  0
LAYER
  2
LC-000
 70
     0
 62
     7
  6
CONTINUOUS
  0
ENDTAB
  0
TABLE
  2
STYLE
 70
     5
  0
STYLE
  2
STANDARD
 70
     0
 40
0.0
 41
1.0
 50
0.0
 71
     0
 42
0.0
  3
txt
  4

  0
STYLE
  2
LC-STANDARD
 70
    64
 40
0.0
 41
1.0
 50
0.0
 71
     0
 42
3.5
  3
MONOTXT
  4

  0
STYLE
  2
LC-TXTSTYLE-0-400-0-0-DIN2
 70
    64
 40
0.0
 41
1.0
 50
0.0
 71
     0
 42
3.5
  3
MONOTXT
  4

  0
STYLE
  2
LC-TXTSTYLE-150-400-0-0-A3
 70
    64
 40
0.0
 41
1.0
 50
15.0
 71
     0
 42
3.5
  3
MONOTXT
  4

  0
STYLE
  2
LC-TXTSTYLE-150-400-0-0-D4
 70
    64
 40
0.0
 41
1.0
 50
15.0
 71
     0
 42
3.5
  3
LC-STANDARD
  4

  0
ENDTAB
  0
TABLE
  2
VIEW
 70
     0
  0
ENDTAB
  0
TABLE
  2
UCS
 70
     0
  0
ENDTAB
  0
TABLE
  2
APPID
 70
     1
  0
APPID
  2
ACAD
 70
     0
  0
ENDTAB
  0
TABLE
  2
DIMSTYLE
 70
     3
  0
DIMSTYLE
  2
STANDARD
 70
     0
  3

  4

  5

  6

  7

 40
1.0
 41
0.18
 42
0.0625
 43
0.38
 44
0.18
 45
0.0
 46
0.0
 47
0.0
 48
0.0
 71
     0
 72
     0
 73
     1
 74
     1
 75
     0
 76
     0
 77
     0
 78
     0
140
0.18
141
0.09
142
0.0
143
25.4
144
1.0
145
0.0
146
1.0
147
0.09
170
     0
171
     2
172
     0
173
     0
174
     0
175
     0
176
     0
177
     0
178
     0
  0
DIMSTYLE
  2
LC-STANDARD
 70
     0
  3

  4

  5

  6

  7

 40
1.0
 41
3.5
 42
0.0
 43
7.5
 44
1.8
 45
0.0
 46
0.0
 47
0.0
 48
0.0
 71
     0
 72
     0
 73
     0
 74
     0
 75
     0
 76
     0
 77
     1
 78
     8
140
3.5
141
0.0
142
0.0
143
25.4
144
1.0
145
0.0
146
0.71
147
1.5
170
     0
171
     2
172
     1
173
     0
174
     0
175
     0
176
     0
177
     0
178
     3
  0
DIMSTYLE
  2
LC-DIM-L-0140-02-02
 70
     0
  3

  4

  5

  6

  7

 40
2.0
 41
3.5
 42
0.0
 43
7.5
 44
1.8
 45
0.0
 46
0.0
 47
0.0
 48
0.0
 71
     0
 72
     0
 73
     0
 74
     0
 75
     0
 76
     0
 77
     1
 78
     8
140
14.0
141
0.0
142
0.0
143
25.4
144
1.0
145
0.0
146
0.71
147
1.5
170
     0
171
     2
172
     0
173
     0
174
     0
175
     0
176
     2
177
     2
178
     8
  0
ENDTAB
  0
ENDSEC
  0
SECTION
  2
BLOCKS
  0
BLOCK
  8
0
  5
24
  2
BLK1
 70
    64
 10
0.0
 20
0.0
 30
0.0
  3
BLK1
  0
ENDBLK
  8
0
  5
25
  0
BLOCK
  8
0
  5
27
  2
BLK2
 70
    64
 10
0.0
 20
0.0
 30
0.0
  3
BLK2
  0
ENDBLK
  8
0
  5
28
  0
BLOCK
  8
0
  5
2A
  2
*D2
 70
    65
 10
0.0
 20
0.0
 30
0.0
  3
*D2
  0
LINE
  8
LC-007-003-MTH-0
  6
CONTINUOUS
  5
2C
 10
183.568257
 20
408.550513
 30
0.0
 11
183.568257
 21
448.0
 31
0.0
  0
LINE
  8
LC-007-003-MTH-0
  6
CONTINUOUS
  5
2D
 10
485.071743
 20
408.550513
 30
0.0
 11
485.071743
 21
448.0
 31
0.0
  0
LINE
  8
LC-008-003-MTG-0
  6
CONTINUOUS
  5
2F
 10
183.568257
 20
431.2
 30
0.0
 11
485.071743
 21
431.2
 31
0.0
  0
LINE
  8
LC-006-003-----0
  6
CONTINUOUS
  5
31
 10
211.328713
 20
434.854733
 30
0.0
 11
183.568257
 21
431.2
 31
0.0
  0
LINE
  8
LC-006-003-----0
  6
CONTINUOUS
  5
32
 10
183.568257
 20
431.2
 30
0.0
 11
211.328713
 21
427.545267
 31
0.0
  0
LINE
  8
LC-006-003-----0
  6
CONTINUOUS
  5
33
 10
211.328713
 20
427.545267
 30
0.0
 11
211.328713
 21
434.854733
 31
0.0
  0
LINE
  8
LC-006-003-----0
  6
CONTINUOUS
  5
34
 10
211.390995
 20
433.904503
 30
0.0
 11
190.848257
 21
431.2
 31
0.0
  0
LINE
  8
LC-006-003-----0
  6
CONTINUOUS
  5
35
 10
190.848257
 20
431.2
 30
0.0
 11
211.390995
 21
428.495497
 31
0.0
  0
LINE
  8
LC-006-003-----0
  6
CONTINUOUS
  5
36
 10
211.453276
 20
432.954272
 30
0.0
 11
198.128257
 21
431.2
 31
0.0
  0
LINE
  8
LC-006-003-----0
  6
CONTINUOUS
  5
37
 10
198.128257
 20
431.2
 30
0.0
 11
211.453276
 21
429.445728
 31
0.0
  0
LINE
  8
LC-006-003-----0
  6
CONTINUOUS
  5
38
 10
211.515557
 20
432.004041
 30
0.0
 11
205.408257
 21
431.2
 31
0.0
  0
LINE
  8
LC-006-003-----0
  6
CONTINUOUS
  5
39
 10
205.408257
 20
431.2
 30
0.0
 11
211.515557
 21
430.395959
 31
0.0
  0
LINE
  8
LC-006-003-----0
  6
CONTINUOUS
  5
3A
 10
457.311287
 20
427.545267
 30
0.0
 11
485.071743
 21
431.2
 31
0.0
  0
LINE
  8
LC-006-003-----0
  6
CONTINUOUS
  5
3B
 10
485.071743
 20
431.2
 30
0.0
 11
457.311287
 21
434.854733
 31
0.0
  0
LINE
  8
LC-006-003-----0
  6
CONTINUOUS
  5
3C
 10
457.311287
 20
434.854733
 30
0.0
 11
457.311287
 21
427.545267
 31
0.0
  0
LINE
  8
LC-006-003-----0
  6
CONTINUOUS
  5
3D
 10
457.249005
 20
428.495497
 30
0.0
 11
477.791743
 21
431.2
 31
0.0
  0
LINE
  8
LC-006-003-----0
  6
CONTINUOUS
  5
3E
 10
477.791743
 20
431.2
 30
0.0
 11
457.249005
 21
433.904503
 31
0.0
  0
LINE
  8
LC-006-003-----0
  6
CONTINUOUS
  5
3F
 10
457.186724
 20
429.445728
 30
0.0
 11
470.511743
 21
431.2
 31
0.0
  0
LINE
  8
LC-006-003-----0
  6
CONTINUOUS
  5
40
 10
470.511743
 20
431.2
 30
0.0
 11
457.186724
 21
432.954272
 31
0.0
  0
LINE
  8
LC-006-003-----0
  6
CONTINUOUS
  5
41
 10
457.124443
 20
430.395959
 30
0.0
 11
463.231743
 21
431.2
 31
0.0
  0
LINE
  8
LC-006-003-----0
  6
CONTINUOUS
  5
42
 10
463.231743
 20
431.2
 30
0.0
 11
457.124443
 21
432.004041
 31
0.0
  0
TEXT
  8
LC-006-003-----0
  6
CONTINUOUS
 62
     8
  5
44
 10
300.570522
 20
439.027554
 30
0.0
 40
28.0
  1
Ø300
 41
0.9
 51
15.0
  7
LC-TXTSTYLE-150-400-0-0-D0
 72
     1
 11
338.66816
 21
439.027554
 31
0.0
  0
ENDBLK
  8
0
  5
45
  0
BLOCK
  8
0
  5
47
  2
*D3
 70
    65
 10
0.0
 20
0.0
 30
0.0
  3
*D3
  0
LINE
  8
LC-007-003-MTH-0
  6
CONTINUOUS
  5
48
 10
274.92
 20
186.463716
 30
0.0
 11
218.4
 21
186.463716
 31
0.0
  0
LINE
  8
LC-007-003-MTH-0
  6
CONTINUOUS
  5
49
 10
260.397699
 20
366.463716
 30
0.0
 11
218.4
 21
366.463716
 31
0.0
  0
LINE
  8
LC-008-003-MTG-0
  6
CONTINUOUS
  5
4A
 10
235.2
 20
186.463716
 30
0.0
 11
235.2
 21
366.463716
 31
0.0
  0
LINE
  8
LC-006-003-----0
  6
CONTINUOUS
  5
4B
 10
231.545267
 20
214.224172
 30
0.0
 11
235.2
 21
186.463716
 31
0.0
  0
LINE
  8
LC-006-003-----0
  6
CONTINUOUS
  5
4C
 10
235.2
 20
186.463716
 30
0.0
 11
238.854733
 21
214.224172
 31
0.0
  0
LINE
  8
LC-006-003-----0
  6
CONTINUOUS
  5
4D
 10
238.854733
 20
214.224172
 30
0.0
 11
231.545267
 21
214.224172
 31
0.0
  0
LINE
  8
LC-006-003-----0
  6
CONTINUOUS
  5
4E
 10
232.495497
 20
214.286454
 30
0.0
 11
235.2
 21
193.743716
 31
0.0
  0
LINE
  8
LC-006-003-----0
  6
CONTINUOUS
  5
4F
 10
235.2
 20
193.743716
 30
0.0
 11
237.904503
 21
214.286454
 31
0.0
  0
LINE
  8
LC-006-003-----0
  6
CONTINUOUS
  5
50
 10
233.445728
 20
214.348735
 30
0.0
 11
235.2
 21
201.023716
 31
0.0
  0
LINE
  8
LC-006-003-----0
  6
CONTINUOUS
  5
51
 10
235.2
 20
201.023716
 30
0.0
 11
236.954272
 21
214.348735
 31
0.0
  0
LINE
  8
LC-006-003-----0
  6
CONTINUOUS
  5
52
 10
234.395959
 20
214.411016
 30
0.0
 11
235.2
 21
208.303716
 31
0.0
  0
LINE
  8
LC-006-003-----0
  6
CONTINUOUS
  5
53
 10
235.2
 20
208.303716
 30
0.0
 11
236.004041
 21
214.411016
 31
0.0
  0
LINE
  8
LC-006-003-----0
  6
CONTINUOUS
  5
54
 10
238.854733
 20
338.70326
 30
0.0
 11
235.2
 21
366.463716
 31
0.0
  0
LINE
  8
LC-006-003-----0
  6
CONTINUOUS
  5
55
 10
235.2
 20
366.463716
 30
0.0
 11
231.545267
 21
338.70326
 31
0.0
  0
LINE
  8
LC-006-003-----0
  6
CONTINUOUS
  5
56
 10
231.545267
 20
338.70326
 30
0.0
 11
238.854733
 21
338.70326
 31
0.0
  0
LINE
  8
LC-006-003-----0
  6
CONTINUOUS
  5
57
 10
237.904503
 20
338.640979
 30
0.0
 11
235.2
 21
359.183716
 31
0.0
  0
LINE
  8
LC-006-003-----0
  6
CONTINUOUS
  5
58
 10
235.2
 20
359.183716
 30
0.0
 11
232.495497
 21
338.640979
 31
0.0
  0
LINE
  8
LC-006-003-----0
  6
CONTINUOUS
  5
59
 10
236.954272
 20
338.578697
 30
0.0
 11
235.2
 21
351.903716
 31
0.0
  0
LINE
  8
LC-006-003-----0
  6
CONTINUOUS
  5
5A
 10
235.2
 20
351.903716
 30
0.0
 11
233.445728
 21
338.578697
 31
0.0
  0
LINE
  8
LC-006-003-----0
  6
CONTINUOUS
  5
5B
 10
236.004041
 20
338.516416
 30
0.0
 11
235.2
 21
344.623716
 31
0.0
  0
LINE
  8
LC-006-003-----0
  6
CONTINUOUS
  5
5C
 10
235.2
 20
344.623716
 30
0.0
 11
234.395959
 21
338.516416
 31
0.0
  0
TEXT
  8
LC-006-003-----0
  6
CONTINUOUS
 62
     8
  5
5D
 10
227.372446
 20
251.048096
 30
0.0
 40
28.0
  1
180
 50
90.0
 51
15.0
  7
LC-TXTSTYLE-150-400-0-0-D0
 72
     1
 11
227.372446
 21
280.811876
 31
0.0
  0
ENDBLK
  8
0
  5
5E
  0
BLOCK
  8
0
  5
60
  2
*X4
 70
    65
 10
241.735545
 20
386.764914
 30
0.0
  3
*X4
  0
LINE
  8
LC-005-005-----0
  6
CONTINUOUS
  5
62
 10
250.3724
 20
400.165838
 30
0.0
 11
248.67598
 21
401.862259
 31
0.0
  0
LINE
  8
LC-005-005-----0
  6
CONTINUOUS
  5
63
 10
250.668276
 20
397.041536
 30
0.0
 11
245.494395
 21
402.215416
 31
0.0
  0
LINE
  8
LC-005-005-----0
  6
CONTINUOUS
  5
64
 10
248.851302
 20
396.030083
 30
0.0
 11
246.594397
 21
398.286987
 31
0.0
  0
LINE
  8
LC-005-005-----0
  6
CONTINUOUS
  5
65
 10
245.264052
 20
399.617332
 30
0.0
 11
242.453386
 21
402.427998
 31
0.0
  0
LINE
  8
LC-005-005-----0
  6
CONTINUOUS
  5
66
 10
252.804732
 20
389.248226
 30
0.0
 11
246.594514
 21
395.458444
 31
0.0
  0
LINE
  8
LC-005-005-----0
  6
CONTINUOUS
  5
67
 10
244.876927
 20
397.176031
 30
0.0
 11
241.735725
 21
400.317232
 31
0.0
  0
LINE
  8
LC-005-005-----0
  6
CONTINUOUS
  5
68
 10
249.197561
 20
390.02697
 30
0.0
 11
246.59463
 21
392.6299
 31
0.0
  0
LINE
  8
LC-005-005-----0
  6
CONTINUOUS
  5
69
 10
244.876927
 20
394.347604
 30
0.0
 11
241.735632
 21
397.488899
 31
0.0
  0
LINE
  8
LC-005-005-----0
  6
CONTINUOUS
  5
6A
 10
248.851507
 20
387.544596
 30
0.0
 11
246.594746
 21
389.801357
 31
0.0
  0
LINE
  8
LC-005-005-----0
  6
CONTINUOUS
  5
6B
 10
242.587135
 20
393.808968
 30
0.0
 11
241.759945
 21
394.636158
 31
0.0
  0
LINE
  8
LC-005-005-----0
  6
CONTINUOUS
  5
6C
 10
246.802762
 20
386.764914
 30
0.0
 11
246.594862
 21
386.972813
 31
0.0
  0
ENDBLK
  8
0
  5
6D
  0
BLOCK
  8
0
  5
6F
  2
*X5
 70
    65
 10
414.772028
 20
386.764914
 30
0.0
  3
*X5
  0
LINE
  8
LC-005-005-----0
  6
CONTINUOUS
  5
70
 10
426.904225
 20
401.824923
 30
0.0
 11
426.293666
 21
402.435482
 31
0.0
  0
LINE
  8
LC-005-005-----0
  6
CONTINUOUS
  5
71
 10
426.904319
 20
398.996402
 30
0.0
 11
423.650041
 21
402.250679
 31
0.0
  0
LINE
  8
LC-005-005-----0
  6
CONTINUOUS
  5
72
 10
426.904412
 20
396.167881
 30
0.0
 11
423.763073
 21
399.30922
 31
0.0
  0
LINE
  8
LC-005-005-----0
  6
CONTINUOUS
  5
73
 10
423.454961
 20
399.617332
 30
0.0
 11
421.006417
 21
402.065876
 31
0.0
  0
LINE
  8
LC-005-005-----0
  6
CONTINUOUS
  5
74
 10
426.332436
 20
393.91143
 30
0.0
 11
423.763073
 21
396.480793
 31
0.0
  0
LINE
  8
LC-005-005-----0
  6
CONTINUOUS
  5
75
 10
422.045599
 20
398.198267
 30
0.0
 11
419.141221
 21
401.102645
 31
0.0
  0
LINE
  8
LC-005-005-----0
  6
CONTINUOUS
  5
76
 10
423.776711
 20
393.638728
 30
0.0
 11
423.763073
 21
393.652366
 31
0.0
  0
LINE
  8
LC-005-005-----0
  6
CONTINUOUS
  5
77
 10
422.045483
 20
395.369956
 30
0.0
 11
417.776365
 21
399.639075
 31
0.0
  0
LINE
  8
LC-005-005-----0
  6
CONTINUOUS
  5
78
 10
422.045367
 20
392.541645
 30
0.0
 11
419.764317
 21
394.822695
 31
0.0
  0
LINE
  8
LC-005-005-----0
  6
CONTINUOUS
  5
79
 10
417.659214
 20
396.927798
 30
0.0
 11
416.411508
 21
398.175504
 31
0.0
  0
LINE
  8
LC-005-005-----0
  6
CONTINUOUS
  5
7A
 10
422.04525
 20
389.713335
 30
0.0
 11
418.432046
 21
393.326539
 31
0.0
  0
LINE
  8
LC-005-005-----0
  6
CONTINUOUS
  5
7B
 10
415.585507
 20
396.173078
 30
0.0
 11
415.046651
 21
396.711934
 31
0.0
  0
LINE
  8
LC-005-005-----0
  6
CONTINUOUS
  5
7C
 10
422.045134
 20
386.885024
 30
0.0
 11
419.788541
 21
389.141616
 31
0.0
  0
LINE
  8
LC-005-005-----0
  6
CONTINUOUS
  5
7D
 10
418.674271
 20
390.255886
 30
0.0
 11
417.067189
 21
391.862968
 31
0.0
  0
LINE
  8
LC-005-005-----0
  6
CONTINUOUS
  5
7E
 10
416.581805
 20
389.519926
 30
0.0
 11
415.702333
 21
390.399398
 31
0.0
  0
ENDBLK
  8
0
  5
7F
  0
BLOCK
  8
0
  5
81
  2
*D6
 70
    65
 10
0.0
 20
0.0
 30
0.0
  3
*D6
  0
LINE
  8
LC-007-003-MTH-0
  6
CONTINUOUS
  5
82
 10
263.159746
 20
186.463716
 30
0.0
 11
140.0
 21
186.463716
 31
0.0
  0
LINE
  8
LC-007-003-MTH-0
  6
CONTINUOUS
  5
83
 10
183.568257
 20
405.543187
 30
0.0
 11
140.0
 21
405.543187
 31
0.0
  0
LINE
  8
LC-008-003-MTG-0
  6
CONTINUOUS
  5
84
 10
156.8
 20
186.463716
 30
0.0
 11
156.8
 21
405.543187
 31
0.0
  0
LINE
  8
LC-006-003-----0
  6
CONTINUOUS
  5
85
 10
153.145267
 20
214.224172
 30
0.0
 11
156.8
 21
186.463716
 31
0.0
  0
LINE
  8
LC-006-003-----0
  6
CONTINUOUS
  5
86
 10
156.8
 20
186.463716
 30
0.0
 11
160.454733
 21
214.224172
 31
0.0
  0
LINE
  8
LC-006-003-----0
  6
CONTINUOUS
  5
87
 10
160.454733
 20
214.224172
 30
0.0
 11
153.145267
 21
214.224172
 31
0.0
  0
LINE
  8
LC-006-003-----0
  6
CONTINUOUS
  5
88
 10
154.095497
 20
214.286454
 30
0.0
 11
156.8
 21
193.743716
 31
0.0
  0
LINE
  8
LC-006-003-----0
  6
CONTINUOUS
  5
89
 10
156.8
 20
193.743716
 30
0.0
 11
159.504503
 21
214.286454
 31
0.0
  0
LINE
  8
LC-006-003-----0
  6
CONTINUOUS
  5
8A
 10
155.045728
 20
214.348735
 30
0.0
 11
156.8
 21
201.023716
 31
0.0
  0
LINE
  8
LC-006-003-----0
  6
CONTINUOUS
  5
8B
 10
156.8
 20
201.023716
 30
0.0
 11
158.554272
 21
214.348735
 31
0.0
  0
LINE
  8
LC-006-003-----0
  6
CONTINUOUS
  5
8C
 10
155.995959
 20
214.411016
 30
0.0
 11
156.8
 21
208.303716
 31
0.0
  0
LINE
  8
LC-006-003-----0
  6
CONTINUOUS
  5
8D
 10
156.8
 20
208.303716
 30
0.0
 11
157.604041
 21
214.411016
 31
0.0
  0
LINE
  8
LC-006-003-----0
  6
CONTINUOUS
  5
8E
 10
160.454733
 20
377.782731
 30
0.0
 11
156.8
 21
405.543187
 31
0.0
  0
LINE
  8
LC-006-003-----0
  6
CONTINUOUS
  5
8F
 10
156.8
 20
405.543187
 30
0.0
 11
153.145267
 21
377.782731
 31
0.0
  0
LINE
  8
LC-006-003-----0
  6
CONTINUOUS
  5
90
 10
153.145267
 20
377.782731
 30
0.0
 11
160.454733
 21
377.782731
 31
0.0
  0
LINE
  8
LC-006-003-----0
  6
CONTINUOUS
  5
91
 10
159.504503
 20
377.720449
 30
0.0
 11
156.8
 21
398.263187
 31
0.0
  0
LINE
  8
LC-006-003-----0
  6
CONTINUOUS
  5
92
 10
156.8
 20
398.263187
 30
0.0
 11
154.095497
 21
377.720449
 31
0.0
  0
LINE
  8
LC-006-003-----0
  6
CONTINUOUS
  5
93
 10
158.554272
 20
377.658168
 30
0.0
 11
156.8
 21
390.983187
 31
0.0
  0
LINE
  8
LC-006-003-----0
  6
CONTINUOUS
  5
94
 10
156.8
 20
390.983187
 30
0.0
 11
155.045728
 21
377.658168
 31
0.0
  0
LINE
  8
LC-006-003-----0
  6
CONTINUOUS
  5
95
 10
157.604041
 20
377.595886
 30
0.0
 11
156.8
 21
383.703187
 31
0.0
  0
LINE
  8
LC-006-003-----0
  6
CONTINUOUS
  5
96
 10
156.8
 20
383.703187
 30
0.0
 11
155.995959
 21
377.595886
 31
0.0
  0
TEXT
  8
LC-006-003-----0
  6
CONTINUOUS
 62
     8
  5
97
 10
148.972446
 20
270.587832
 30
0.0
 40
28.0
  1
220
 50
90.0
 51
15.0
  7
LC-TXTSTYLE-150-400-0-0-D0
 72
     1
 11
148.972446
 21
300.351611
 31
0.0
  0
ENDBLK
  8
0
  5
98
  0
BLOCK
  8
0
  5
9A
  2
*X7
 70
    65
 10
255.571677
 20
80.114432
 30
0.0
  3
*X7
  0
LINE
  8
LC-005-005-----0
  6
CONTINUOUS
  5
9B
 10
261.874764
 20
80.855428
 30
0.0
 11
262.820434
 21
81.801098
 31
0.0
  0
LINE
  8
LC-005-005-----0
  6
CONTINUOUS
  5
9C
 10
258.305735
 20
80.114826
 30
0.0
 11
261.920952
 21
83.730043
 31
0.0
  0
LINE
  8
LC-005-005-----0
  6
CONTINUOUS
  5
9D
 10
256.073058
 20
80.710576
 30
0.0
 11
261.02147
 21
85.658988
 31
0.0
  0
LINE
  8
LC-005-005-----0
  6
CONTINUOUS
  5
9E
 10
262.296152
 20
86.93367
 30
0.0
 11
263.088453
 21
87.725971
 31
0.0
  0
LINE
  8
LC-005-005-----0
  6
CONTINUOUS
  5
9F
 10
256.072559
 20
83.538505
 30
0.0
 11
260.122
 21
87.587946
 31
0.0
  0
LINE
  8
LC-005-005-----0
  6
CONTINUOUS
  5
A0
 10
260.857236
 20
88.323182
 30
0.0
 11
262.188971
 21
89.654916
 31
0.0
  0
LINE
  8
LC-005-005-----0
  6
CONTINUOUS
  5
A1
 10
256.002194
 20
86.296567
 30
0.0
 11
261.289489
 21
91.583861
 31
0.0
  0
LINE
  8
LC-005-005-----0
  6
CONTINUOUS
  5
A2
 10
262.467724
 20
92.762097
 30
0.0
 11
263.197574
 21
93.491946
 31
0.0
  0
LINE
  8
LC-005-005-----0
  6
CONTINUOUS
  5
A3
 10
255.571703
 20
88.694503
 30
0.0
 11
260.404409
 21
93.527209
 31
0.0
  0
LINE
  8
LC-005-005-----0
  6
CONTINUOUS
  5
A4
 10
260.985812
 20
94.108612
 30
0.0
 11
262.298092
 21
95.420892
 31
0.0
  0
LINE
  8
LC-005-005-----0
  6
CONTINUOUS
  5
A5
 10
256.333441
 20
92.284668
 30
0.0
 11
261.39861
 21
97.349837
 31
0.0
  0
LINE
  8
LC-005-005-----0
  6
CONTINUOUS
  5
A6
 10
255.591218
 20
94.370872
 30
0.0
 11
259.8354
 21
98.615054
 31
0.0
  0
ENDBLK
  8
0
  5
A7
  0
BLOCK
  8
0
  5
A9
  2
*X8
 70
    65
 10
399.068323
 20
80.114432
 30
0.0
  3
*X8
  0
LINE
  8
LC-005-005-----0
  6
CONTINUOUS
  5
AA
 10
411.040675
 20
80.114701
 30
0.0
 11
412.567106
 21
81.641132
 31
0.0
  0
LINE
  8
LC-005-005-----0
  6
CONTINUOUS
  5
AB
 10
408.566899
 20
80.469353
 30
0.0
 11
412.567605
 21
84.470059
 31
0.0
  0
LINE
  8
LC-005-005-----0
  6
CONTINUOUS
  5
AC
 10
405.499542
 20
80.230423
 30
0.0
 11
412.998838
 21
87.729719
 31
0.0
  0
LINE
  8
LC-005-005-----0
  6
CONTINUOUS
  5
AD
 10
407.198131
 20
84.757439
 30
0.0
 11
412.857856
 21
90.417164
 31
0.0
  0
LINE
  8
LC-005-005-----0
  6
CONTINUOUS
  5
AE
 10
407.984912
 20
88.372647
 30
0.0
 11
412.756765
 21
93.1445
 31
0.0
  0
LINE
  8
LC-005-005-----0
  6
CONTINUOUS
  5
AF
 10
406.461755
 20
89.677917
 30
0.0
 11
412.875797
 21
96.091959
 31
0.0
  0
LINE
  8
LC-005-005-----0
  6
CONTINUOUS
  5
B0
 10
407.997461
 20
94.04205
 30
0.0
 11
411.837509
 21
97.882098
 31
0.0
  0
LINE
  8
LC-005-005-----0
  6
CONTINUOUS
  5
B1
 10
406.161947
 20
95.034963
 30
0.0
 11
409.741873
 21
98.614889
 31
0.0
  0
ENDBLK
  8
0
  5
B2
  0
BLOCK
  8
0
  5
B4
  2
BLK3
 70
    64
 10
0.0
 20
0.0
 30
0.0
  3
BLK3
  0
ENDBLK
  8
0
  5
B5
  0
BLOCK
  8
0
  5
B7
  2
*X10
 70
    65
 10
255.82
 20
382.919256
 30
0.0
  3
*X10
  0
LINE
  8
LC-005-005-----0
  6
CONTINUOUS
  5
B8
 10
258.32
 20
400.70352
 30
0.0
 11
256.10462
 21
402.9189
 31
0.0
  0
LINE
  8
LC-005-005-----0
  6
CONTINUOUS
  5
B9
 10
258.32
 20
397.875093
 30
0.0
 11
255.82
 21
400.375093
 31
0.0
  0
LINE
  8
LC-005-005-----0
  6
CONTINUOUS
  5
BA
 10
258.32
 20
395.046666
 30
0.0
 11
255.82
 21
397.546666
 31
0.0
  0
LINE
  8
LC-005-005-----0
  6
CONTINUOUS
  5
BB
 10
265.82
 20
384.718239
 30
0.0
 11
265.118983
 21
385.419256
 31
0.0
  0
LINE
  8
LC-005-005-----0
  6
CONTINUOUS
  5
BC
 10
258.32
 20
392.218239
 30
0.0
 11
255.82
 21
394.718239
 31
0.0
  0
LINE
  8
LC-005-005-----0
  6
CONTINUOUS
  5
BD
 10
264.790556
 20
382.919256
 30
0.0
 11
262.290556
 21
385.419256
 31
0.0
  0
LINE
  8
LC-005-005-----0
  6
CONTINUOUS
  5
BE
 10
258.32
 20
389.389812
 30
0.0
 11
255.82
 21
391.889812
 31
0.0
  0
LINE
  8
LC-005-005-----0
  6
CONTINUOUS
  5
BF
 10
261.962129
 20
382.919256
 30
0.0
 11
259.462129
 21
385.419256
 31
0.0
  0
LINE
  8
LC-005-005-----0
  6
CONTINUOUS
  5
C0
 10
258.32
 20
386.561384
 30
0.0
 11
255.82
 21
389.061384
 31
0.0
  0
LINE
  8
LC-005-005-----0
  6
CONTINUOUS
  5
C1
 10
259.133702
 20
382.919256
 30
0.0
 11
255.82
 21
386.232957
 31
0.0
  0
ENDBLK
  8
0
  5
C2
  0
BLOCK
  8
0
  5
C4
  2
*X11
 70
    65
 10
402.82
 20
382.919256
 30
0.0
  3
*X11
  0
LINE
  8
LC-005-005-----0
  6
CONTINUOUS
  5
C5
 10
412.82
 20
401.767012
 30
0.0
 11
411.668112
 21
402.9189
 31
0.0
  0
LINE
  8
LC-005-005-----0
  6
CONTINUOUS
  5
C6
 10
412.82
 20
398.938585
 30
0.0
 11
410.32
 21
401.438585
 31
0.0
  0
LINE
  8
LC-005-005-----0
  6
CONTINUOUS
  5
C7
 10
412.82
 20
396.110158
 30
0.0
 11
410.32
 21
398.610158
 31
0.0
  0
LINE
  8
LC-005-005-----0
  6
CONTINUOUS
  5
C8
 10
412.82
 20
393.281731
 30
0.0
 11
410.32
 21
395.781731
 31
0.0
  0
LINE
  8
LC-005-005-----0
  6
CONTINUOUS
  5
C9
 10
412.82
 20
390.453303
 30
0.0
 11
410.32
 21
392.953303
 31
0.0
  0
LINE
  8
LC-005-005-----0
  6
CONTINUOUS
  5
CA
 10
412.82
 20
387.624876
 30
0.0
 11
410.32
 21
390.124876
 31
0.0
  0
LINE
  8
LC-005-005-----0
  6
CONTINUOUS
  5
CB
 10
412.258597
 20
385.357852
 30
0.0
 11
410.32
 21
387.296449
 31
0.0
  0
LINE
  8
LC-005-005-----0
  6
CONTINUOUS
  5
CC
 10
410.844383
 20
383.943639
 30
0.0
 11
409.368766
 21
385.419256
 31
0.0
  0
LINE
  8
LC-005-005-----0
  6
CONTINUOUS
  5
CD
 10
409.040339
 20
382.919256
 30
0.0
 11
406.540339
 21
385.419256
 31
0.0
  0
LINE
  8
LC-005-005-----0
  6
CONTINUOUS
  5
CE
 10
406.211912
 20
382.919256
 30
0.0
 11
403.711912
 21
385.419256
 31
0.0
  0
LINE
  8
LC-005-005-----0
  6
CONTINUOUS
  5
CF
 10
403.383485
 20
382.919256
 30
0.0
 11
402.82
 21
383.482741
 31
0.0
  0
ENDBLK
  8
0
  5
D0
  0
BLOCK
  8
0
  5
D2
  2
*X12
 70
    65
 10
403.72
 20
186.463716
 30
0.0
  3
*X12
  0
LINE
  8
LC-005-005-----0
  6
CONTINUOUS
  5
D3
 10
485.071743
 20
405.882801
 30
0.0
 11
482.578384
 21
408.37616
 31
0.0
  0
LINE
  8
LC-005-005-----0
  6
CONTINUOUS
  5
D4
 10
482.745591
 20
405.380527
 30
0.0
 11
479.934813
 21
408.191304
 31
0.0
  0
LINE
  8
LC-005-005-----0
  6
CONTINUOUS
  5
D5
 10
480.10202
 20
405.19567
 30
0.0
 11
477.291243
 21
408.006447
 31
0.0
  0
LINE
  8
LC-005-005-----0
  6
CONTINUOUS
  5
D6
 10
477.458449
 20
405.010814
 30
0.0
 11
474.647672
 21
407.821591
 31
0.0
  0
LINE
  8
LC-005-005-----0
  6
CONTINUOUS
  5
D7
 10
474.814878
 20
404.825958
 30
0.0
 11
472.004101
 21
407.636735
 31
0.0
  0
LINE
  8
LC-005-005-----0
  6
CONTINUOUS
  5
D8
 10
472.171307
 20
404.641101
 30
0.0
 11
469.36053
 21
407.451878
 31
0.0
  0
LINE
  8
LC-005-005-----0
  6
CONTINUOUS
  5
D9
 10
469.527737
 20
404.456245
 30
0.0
 11
466.716959
 21
407.267022
 31
0.0
  0
LINE
  8
LC-005-005-----0
  6
CONTINUOUS
  5
DA
 10
466.884166
 20
404.271389
 30
0.0
 11
464.073389
 21
407.082166
 31
0.0
  0
LINE
  8
LC-005-005-----0
  6
CONTINUOUS
  5
DB
 10
464.240595
 20
404.086532
 30
0.0
 11
461.429818
 21
406.897309
 31
0.0
  0
LINE
  8
LC-005-005-----0
  6
CONTINUOUS
  5
DC
 10
461.597024
 20
403.901676
 30
0.0
 11
458.786247
 21
406.712453
 31
0.0
  0
LINE
  8
LC-005-005-----0
  6
CONTINUOUS
  5
DD
 10
458.953453
 20
403.71682
 30
0.0
 11
456.142676
 21
406.527597
 31
0.0
  0
LINE
  8
LC-005-005-----0
  6
CONTINUOUS
  5
DE
 10
456.309883
 20
403.531963
 30
0.0
 11
453.499105
 21
406.34274
 31
0.0
  0
LINE
  8
LC-005-005-----0
  6
CONTINUOUS
  5
DF
 10
453.666312
 20
403.347107
 30
0.0
 11
450.855535
 21
406.157884
 31
0.0
  0
LINE
  8
LC-005-005-----0
  6
CONTINUOUS
  5
E0
 10
451.302382
 20
402.88261
 30
0.0
 11
448.211964
 21
405.973028
 31
0.0
  0
LINE
  8
LC-005-005-----0
  6
CONTINUOUS
  5
E1
 10
449.215052
 20
402.141513
 30
0.0
 11
445.568393
 21
405.788172
 31
0.0
  0
LINE
  8
LC-005-005-----0
  6
CONTINUOUS
  5
E2
 10
447.127721
 20
401.400416
 30
0.0
 11
443.607826
 21
404.920312
 31
0.0
  0
LINE
  8
LC-005-005-----0
  6
CONTINUOUS
  5
E3
 10
444.963766
 20
400.735945
 30
0.0
 11
441.575633
 21
404.124077
 31
0.0
  0
LINE
  8
LC-005-005-----0
  6
CONTINUOUS
  5
E4
 10
442.320195
 20
400.551088
 30
0.0
 11
439.374738
 21
403.496545
 31
0.0
  0
LINE
  8
LC-005-005-----0
  6
CONTINUOUS
  5
E5
 10
439.676624
 20
400.366232
 30
0.0
 11
436.865847
 21
403.177009
 31
0.0
  0
LINE
  8
LC-005-005-----0
  6
CONTINUOUS
  5
E6
 10
437.033053
 20
400.181376
 30
0.0
 11
434.222276
 21
402.992153
 31
0.0
  0
LINE
  8
LC-005-005-----0
  6
CONTINUOUS
  5
E7
 10
434.389482
 20
399.996519
 30
0.0
 11
431.578705
 21
402.807297
 31
0.0
  0
LINE
  8
LC-005-005-----0
  6
CONTINUOUS
  5
E8
 10
431.745912
 20
399.811663
 30
0.0
 11
428.935134
 21
402.62244
 31
0.0
  0
LINE
  8
LC-005-005-----0
  6
CONTINUOUS
  5
E9
 10
430.282409
 20
398.446739
 30
0.0
 11
426.904455
 21
401.824692
 31
0.0
  0
LINE
  8
LC-005-005-----0
  6
CONTINUOUS
  5
EA
 10
430.282345
 20
395.618376
 30
0.0
 11
426.904455
 21
398.996265
 31
0.0
  0
LINE
  8
LC-005-005-----0
  6
CONTINUOUS
  5
EB
 10
430.282281
 20
392.790013
 30
0.0
 11
426.904455
 21
396.167838
 31
0.0
  0
LINE
  8
LC-005-005-----0
  6
CONTINUOUS
  5
EC
 10
423.763073
 20
399.30922
 30
0.0
 11
423.454961
 21
399.617332
 31
0.0
  0
LINE
  8
LC-005-005-----0
  6
CONTINUOUS
  5
ED
 10
430.282217
 20
389.96165
 30
0.0
 11
426.332436
 21
393.91143
 31
0.0
  0
LINE
  8
LC-005-005-----0
  6
CONTINUOUS
  5
EE
 10
423.763073
 20
396.480793
 30
0.0
 11
422.045599
 21
398.198267
 31
0.0
  0
LINE
  8
LC-005-005-----0
  6
CONTINUOUS
  5
EF
 10
427.661774
 20
389.753665
 30
0.0
 11
423.776711
 21
393.638728
 31
0.0
  0
LINE
  8
LC-005-005-----0
  6
CONTINUOUS
  5
F0
 10
423.763073
 20
393.652366
 30
0.0
 11
422.045483
 21
395.369956
 31
0.0
  0
LINE
  8
LC-005-005-----0
  6
CONTINUOUS
  5
F1
 10
425.045285
 20
389.541727
 30
0.0
 11
422.045367
 21
392.541645
 31
0.0
  0
LINE
  8
LC-005-005-----0
  6
CONTINUOUS
  5
F2
 10
425.045169
 20
386.713416
 30
0.0
 11
422.04525
 21
389.713335
 31
0.0
  0
LINE
  8
LC-005-005-----0
  6
CONTINUOUS
  5
F3
 10
425.045053
 20
383.885105
 30
0.0
 11
422.045134
 21
386.885024
 31
0.0
  0
LINE
  8
LC-005-005-----0
  6
CONTINUOUS
  5
F4
 10
425.044936
 20
381.056794
 30
0.0
 11
422.045018
 21
384.056713
 31
0.0
  0
LINE
  8
LC-005-005-----0
  6
CONTINUOUS
  5
F5
 10
424.486406
 20
378.786897
 30
0.0
 11
421.486788
 21
381.786516
 31
0.0
  0
LINE
  8
LC-005-005-----0
  6
CONTINUOUS
  5
F6
 10
421.657979
 20
378.786897
 30
0.0
 11
418.658361
 21
381.786516
 31
0.0
  0
LINE
  8
LC-005-005-----0
  6
CONTINUOUS
  5
F7
 10
418.829552
 20
378.786897
 30
0.0
 11
415.829934
 21
381.786516
 31
0.0
  0
LINE
  8
LC-005-005-----0
  6
CONTINUOUS
  5
F8
 10
416.001125
 20
378.786897
 30
0.0
 11
413.001506
 21
381.786516
 31
0.0
  0
LINE
  8
LC-005-005-----0
  6
CONTINUOUS
  5
F9
 10
414.267329
 20
377.692265
 30
0.0
 11
410.514678
 21
381.444917
 31
0.0
  0
LINE
  8
LC-005-005-----0
  6
CONTINUOUS
  5
FA
 10
414.267316
 20
374.863852
 30
0.0
 11
411.472779
 21
377.658389
 31
0.0
  0
LINE
  8
LC-005-005-----0
  6
CONTINUOUS
  5
FB
 10
414.267302
 20
372.035439
 30
0.0
 11
411.472765
 21
374.829975
 31
0.0
  0
LINE
  8
LC-005-005-----0
  6
CONTINUOUS
  5
FC
 10
413.897564
 20
369.576749
 30
0.0
 11
411.472751
 21
372.001562
 31
0.0
  0
LINE
  8
LC-005-005-----0
  6
CONTINUOUS
  5
FD
 10
412.760012
 20
367.885874
 30
0.0
 11
410.73419
 21
369.911696
 31
0.0
  0
LINE
  8
LC-005-005-----0
  6
CONTINUOUS
  5
FE
 10
411.03198
 20
366.785479
 30
0.0
 11
408.366271
 21
369.451188
 31
0.0
  0
LINE
  8
LC-005-005-----0
  6
CONTINUOUS
  5
FF
 10
408.544396
 20
366.444636
 30
0.0
 11
406.204295
 21
368.784738
 31
0.0
  0
LINE
  8
LC-005-005-----0
  6
CONTINUOUS
  5
100
 10
406.960502
 20
365.200103
 30
0.0
 11
404.710115
 21
367.45049
 31
0.0
  0
LINE
  8
LC-005-005-----0
  6
CONTINUOUS
  5
101
 10
406.82
 20
362.512178
 30
0.0
 11
403.829199
 21
365.502979
 31
0.0
  0
LINE
  8
LC-005-005-----0
  6
CONTINUOUS
  5
102
 10
406.82
 20
359.683751
 30
0.0
 11
403.72
 21
362.783751
 31
0.0
  0
LINE
  8
LC-005-005-----0
  6
CONTINUOUS
  5
103
 10
406.82
 20
356.855324
 30
0.0
 11
403.72
 21
359.955324
 31
0.0
  0
LINE
  8
LC-005-005-----0
  6
CONTINUOUS
  5
104
 10
406.82
 20
354.026897
 30
0.0
 11
403.72
 21
357.126897
 31
0.0
  0
LINE
  8
LC-005-005-----0
  6
CONTINUOUS
  5
105
 10
406.82
 20
351.198469
 30
0.0
 11
403.72
 21
354.298469
 31
0.0
  0
LINE
  8
LC-005-005-----0
  6
CONTINUOUS
  5
106
 10
406.82
 20
348.370042
 30
0.0
 11
403.72
 21
351.470042
 31
0.0
  0
LINE
  8
LC-005-005-----0
  6
CONTINUOUS
  5
107
 10
406.82
 20
345.541615
 30
0.0
 11
403.72
 21
348.641615
 31
0.0
  0
LINE
  8
LC-005-005-----0
  6
CONTINUOUS
  5
108
 10
406.82
 20
342.713188
 30
0.0
 11
403.72
 21
345.813188
 31
0.0
  0
LINE
  8
LC-005-005-----0
  6
CONTINUOUS
  5
109
 10
406.82
 20
339.884761
 30
0.0
 11
403.72
 21
342.984761
 31
0.0
  0
LINE
  8
LC-005-005-----0
  6
CONTINUOUS
  5
10A
 10
406.82
 20
337.056334
 30
0.0
 11
403.72
 21
340.156334
 31
0.0
  0
LINE
  8
LC-005-005-----0
  6
CONTINUOUS
  5
10B
 10
406.82
 20
334.227907
 30
0.0
 11
403.72
 21
337.327907
 31
0.0
  0
LINE
  8
LC-005-005-----0
  6
CONTINUOUS
  5
10C
 10
406.82
 20
331.39948
 30
0.0
 11
403.72
 21
334.49948
 31
0.0
  0
LINE
  8
LC-005-005-----0
  6
CONTINUOUS
  5
10D
 10
406.82
 20
328.571052
 30
0.0
 11
403.72
 21
331.671052
 31
0.0
  0
LINE
  8
LC-005-005-----0
  6
CONTINUOUS
  5
10E
 10
406.82
 20
325.742625
 30
0.0
 11
403.72
 21
328.842625
 31
0.0
  0
LINE
  8
LC-005-005-----0
  6
CONTINUOUS
  5
10F
 10
406.82
 20
322.914198
 30
0.0
 11
403.72
 21
326.014198
 31
0.0
  0
LINE
  8
LC-005-005-----0
  6
CONTINUOUS
  5
110
 10
406.82
 20
320.085771
 30
0.0
 11
403.72
 21
323.185771
 31
0.0
  0
LINE
  8
LC-005-005-----0
  6
CONTINUOUS
  5
111
 10
406.82
 20
317.257344
 30
0.0
 11
403.72
 21
320.357344
 31
0.0
  0
LINE
  8
LC-005-005-----0
  6
CONTINUOUS
  5
112
 10
406.82
 20
314.428917
 30
0.0
 11
403.72
 21
317.528917
 31
0.0
  0
LINE
  8
LC-005-005-----0
  6
CONTINUOUS
  5
113
 10
406.82
 20
311.60049
 30
0.0
 11
403.72
 21
314.70049
 31
0.0
  0
LINE
  8
LC-005-005-----0
  6
CONTINUOUS
  5
114
 10
406.82
 20
308.772063
 30
0.0
 11
403.72
 21
311.872063
 31
0.0
  0
LINE
  8
LC-005-005-----0
  6
CONTINUOUS
  5
115
 10
406.82
 20
305.943635
 30
0.0
 11
403.72
 21
309.043635
 31
0.0
  0
LINE
  8
LC-005-005-----0
  6
CONTINUOUS
  5
116
 10
406.82
 20
303.115208
 30
0.0
 11
403.72
 21
306.215208
 31
0.0
  0
LINE
  8
LC-005-005-----0
  6
CONTINUOUS
  5
117
 10
406.82
 20
300.286781
 30
0.0
 11
403.72
 21
303.386781
 31
0.0
  0
LINE
  8
LC-005-005-----0
  6
CONTINUOUS
  5
118
 10
406.82
 20
297.458354
 30
0.0
 11
403.72
 21
300.558354
 31
0.0
  0
LINE
  8
LC-005-005-----0
  6
CONTINUOUS
  5
119
 10
406.82
 20
294.629927
 30
0.0
 11
403.72
 21
297.729927
 31
0.0
  0
LINE
  8
LC-005-005-----0
  6
CONTINUOUS
  5
11A
 10
406.82
 20
291.8015
 30
0.0
 11
403.72
 21
294.9015
 31
0.0
  0
LINE
  8
LC-005-005-----0
  6
CONTINUOUS
  5
11B
 10
406.82
 20
288.973073
 30
0.0
 11
403.72
 21
292.073073
 31
0.0
  0
LINE
  8
LC-005-005-----0
  6
CONTINUOUS
  5
11C
 10
406.82
 20
286.144646
 30
0.0
 11
403.72
 21
289.244646
 31
0.0
  0
LINE
  8
LC-005-005-----0
  6
CONTINUOUS
  5
11D
 10
406.82
 20
283.316218
 30
0.0
 11
403.72
 21
286.416218
 31
0.0
  0
LINE
  8
LC-005-005-----0
  6
CONTINUOUS
  5
11E
 10
406.82
 20
280.487791
 30
0.0
 11
403.72
 21
283.587791
 31
0.0
  0
LINE
  8
LC-005-005-----0
  6
CONTINUOUS
  5
11F
 10
406.82
 20
277.659364
 30
0.0
 11
403.72
 21
280.759364
 31
0.0
  0
LINE
  8
LC-005-005-----0
  6
CONTINUOUS
  5
120
 10
406.82
 20
274.830937
 30
0.0
 11
403.72
 21
277.930937
 31
0.0
  0
LINE
  8
LC-005-005-----0
  6
CONTINUOUS
  5
121
 10
406.82
 20
272.00251
 30
0.0
 11
403.72
 21
275.10251
 31
0.0
  0
LINE
  8
LC-005-005-----0
  6
CONTINUOUS
  5
122
 10
406.82
 20
269.174083
 30
0.0
 11
403.72
 21
272.274083
 31
0.0
  0
LINE
  8
LC-005-005-----0
  6
CONTINUOUS
  5
123
 10
406.82
 20
266.345656
 30
0.0
 11
403.72
 21
269.445656
 31
0.0
  0
LINE
  8
LC-005-005-----0
  6
CONTINUOUS
  5
124
 10
406.82
 20
263.517229
 30
0.0
 11
403.72
 21
266.617229
 31
0.0
  0
LINE
  8
LC-005-005-----0
  6
CONTINUOUS
  5
125
 10
406.82
 20
260.688801
 30
0.0
 11
403.72
 21
263.788801
 31
0.0
  0
LINE
  8
LC-005-005-----0
  6
CONTINUOUS
  5
126
 10
406.82
 20
257.860374
 30
0.0
 11
403.72
 21
260.960374
 31
0.0
  0
LINE
  8
LC-005-005-----0
  6
CONTINUOUS
  5
127
 10
406.82
 20
255.031947
 30
0.0
 11
403.72
 21
258.131947
 31
0.0
  0
LINE
  8
LC-005-005-----0
  6
CONTINUOUS
  5
128
 10
406.82
 20
252.20352
 30
0.0
 11
403.72
 21
255.30352
 31
0.0
  0
LINE
  8
LC-005-005-----0
  6
CONTINUOUS
  5
129
 10
406.82
 20
249.375093
 30
0.0
 11
403.72
 21
252.475093
 31
0.0
  0
LINE
  8
LC-005-005-----0
  6
CONTINUOUS
  5
12A
 10
406.82
 20
246.546666
 30
0.0
 11
403.72
 21
249.646666
 31
0.0
  0
LINE
  8
LC-005-005-----0
  6
CONTINUOUS
  5
12B
 10
406.82
 20
243.718239
 30
0.0
 11
403.72
 21
246.818239
 31
0.0
  0
LINE
  8
LC-005-005-----0
  6
CONTINUOUS
  5
12C
 10
406.82
 20
240.889812
 30
0.0
 11
403.72
 21
243.989812
 31
0.0
  0
LINE
  8
LC-005-005-----0
  6
CONTINUOUS
  5
12D
 10
406.82
 20
238.061384
 30
0.0
 11
403.72
 21
241.161384
 31
0.0
  0
LINE
  8
LC-005-005-----0
  6
CONTINUOUS
  5
12E
 10
406.82
 20
235.232957
 30
0.0
 11
403.72
 21
238.332957
 31
0.0
  0
LINE
  8
LC-005-005-----0
  6
CONTINUOUS
  5
12F
 10
406.82
 20
232.40453
 30
0.0
 11
403.72
 21
235.50453
 31
0.0
  0
LINE
  8
LC-005-005-----0
  6
CONTINUOUS
  5
130
 10
406.82
 20
229.576103
 30
0.0
 11
403.72
 21
232.676103
 31
0.0
  0
LINE
  8
LC-005-005-----0
  6
CONTINUOUS
  5
131
 10
406.82
 20
226.747676
 30
0.0
 11
403.72
 21
229.847676
 31
0.0
  0
LINE
  8
LC-005-005-----0
  6
CONTINUOUS
  5
132
 10
406.82
 20
223.919249
 30
0.0
 11
403.72
 21
227.019249
 31
0.0
  0
LINE
  8
LC-005-005-----0
  6
CONTINUOUS
  5
133
 10
406.82
 20
221.090822
 30
0.0
 11
403.72
 21
224.190822
 31
0.0
  0
LINE
  8
LC-005-005-----0
  6
CONTINUOUS
  5
134
 10
406.82
 20
218.262395
 30
0.0
 11
403.72
 21
221.362395
 31
0.0
  0
LINE
  8
LC-005-005-----0
  6
CONTINUOUS
  5
135
 10
406.82
 20
215.433967
 30
0.0
 11
403.72
 21
218.533967
 31
0.0
  0
LINE
  8
LC-005-005-----0
  6
CONTINUOUS
  5
136
 10
406.82
 20
212.60554
 30
0.0
 11
403.72
 21
215.70554
 31
0.0
  0
LINE
  8
LC-005-005-----0
  6
CONTINUOUS
  5
137
 10
406.82
 20
209.777113
 30
0.0
 11
403.72
 21
212.877113
 31
0.0
  0
LINE
  8
LC-005-005-----0
  6
CONTINUOUS
  5
138
 10
406.82
 20
206.948686
 30
0.0
 11
403.72
 21
210.048686
 31
0.0
  0
LINE
  8
LC-005-005-----0
  6
CONTINUOUS
  5
139
 10
406.82
 20
204.120259
 30
0.0
 11
403.72
 21
207.220259
 31
0.0
  0
LINE
  8
LC-005-005-----0
  6
CONTINUOUS
  5
13A
 10
406.82
 20
201.291832
 30
0.0
 11
403.72
 21
204.391832
 31
0.0
  0
LINE
  8
LC-005-005-----0
  6
CONTINUOUS
  5
13B
 10
406.82
 20
198.463405
 30
0.0
 11
403.72
 21
201.563405
 31
0.0
  0
LINE
  8
LC-005-005-----0
  6
CONTINUOUS
  5
13C
 10
406.82
 20
195.634978
 30
0.0
 11
403.72
 21
198.734978
 31
0.0
  0
LINE
  8
LC-005-005-----0
  6
CONTINUOUS
  5
13D
 10
406.82
 20
192.80655
 30
0.0
 11
403.72
 21
195.90655
 31
0.0
  0
LINE
  8
LC-005-005-----0
  6
CONTINUOUS
  5
13E
 10
406.506057
 20
190.292066
 30
0.0
 11
403.72
 21
193.078123
 31
0.0
  0
LINE
  8
LC-005-005-----0
  6
CONTINUOUS
  5
13F
 10
405.90834
 20
188.061356
 30
0.0
 11
403.72
 21
190.249696
 31
0.0
  0
LINE
  8
LC-005-005-----0
  6
CONTINUOUS
  5
140
 10
404.677553
 20
186.463716
 30
0.0
 11
403.72
 21
187.421269
 31
0.0
  0
ENDBLK
  8
0
  5
141
  0
BLOCK
  8
0
  5
143
  2
*X13
 70
    65
 10
183.568257
 20
186.463716
 30
0.0
  3
*X13
  0
LINE
  8
LC-005-005-----0
  6
CONTINUOUS
  5
144
 10
246.594397
 20
398.286987
 30
0.0
 11
245.264052
 21
399.617332
 31
0.0
  0
LINE
  8
LC-005-005-----0
  6
CONTINUOUS
  5
145
 10
246.594514
 20
395.458444
 30
0.0
 11
244.876927
 21
397.176031
 31
0.0
  0
LINE
  8
LC-005-005-----0
  6
CONTINUOUS
  5
146
 10
241.735545
 20
400.317413
 30
0.0
 11
239.40989
 21
402.643067
 31
0.0
  0
LINE
  8
LC-005-005-----0
  6
CONTINUOUS
  5
147
 10
258.370364
 20
380.854166
 30
0.0
 11
257.440305
 21
381.784225
 31
0.0
  0
LINE
  8
LC-005-005-----0
  6
CONTINUOUS
  5
148
 10
246.59463
 20
392.6299
 30
0.0
 11
244.876927
 21
394.347604
 31
0.0
  0
LINE
  8
LC-005-005-----0
  6
CONTINUOUS
  5
149
 10
241.735545
 20
397.488985
 30
0.0
 11
236.36881
 21
402.85572
 31
0.0
  0
LINE
  8
LC-005-005-----0
  6
CONTINUOUS
  5
14A
 10
257.167213
 20
379.22889
 30
0.0
 11
254.609587
 21
381.786516
 31
0.0
  0
LINE
  8
LC-005-005-----0
  6
CONTINUOUS
  5
14B
 10
246.594746
 20
389.801357
 30
0.0
 11
242.587135
 21
393.808968
 31
0.0
  0
LINE
  8
LC-005-005-----0
  6
CONTINUOUS
  5
14C
 10
241.759945
 20
394.636158
 30
0.0
 11
238.357601
 21
398.038502
 31
0.0
  0
LINE
  8
LC-005-005-----0
  6
CONTINUOUS
  5
14D
 10
236.561159
 20
399.834944
 30
0.0
 11
233.327731
 21
403.068373
 31
0.0
  0
LINE
  8
LC-005-005-----0
  6
CONTINUOUS
  5
14E
 10
257.167227
 20
376.400449
 30
0.0
 11
251.78116
 21
381.786516
 31
0.0
  0
LINE
  8
LC-005-005-----0
  6
CONTINUOUS
  5
14F
 10
246.594862
 20
386.972813
 30
0.0
 11
238.357665
 21
395.210011
 31
0.0
  0
LINE
  8
LC-005-005-----0
  6
CONTINUOUS
  5
150
 10
233.520079
 20
400.047597
 30
0.0
 11
230.284694
 21
403.282982
 31
0.0
  0
LINE
  8
LC-005-005-----0
  6
CONTINUOUS
  5
151
 10
264.647541
 20
366.091708
 30
0.0
 11
261.547992
 21
369.191257
 31
0.0
  0
LINE
  8
LC-005-005-----0
  6
CONTINUOUS
  5
152
 10
257.167241
 20
373.572008
 30
0.0
 11
254.372677
 21
376.366572
 31
0.0
  0
LINE
  8
LC-005-005-----0
  6
CONTINUOUS
  5
153
 10
251.952352
 20
378.786897
 30
0.0
 11
248.952733
 21
381.786516
 31
0.0
  0
LINE
  8
LC-005-005-----0
  6
CONTINUOUS
  5
154
 10
246.594979
 20
384.14427
 30
0.0
 11
243.594813
 21
387.144436
 31
0.0
  0
LINE
  8
LC-005-005-----0
  6
CONTINUOUS
  5
155
 10
240.985583
 20
389.753666
 30
0.0
 11
238.357729
 21
392.38152
 31
0.0
  0
LINE
  8
LC-005-005-----0
  6
CONTINUOUS
  5
156
 10
230.478999
 20
400.260249
 30
0.0
 11
226.36616
 21
404.373089
 31
0.0
  0
LINE
  8
LC-005-005-----0
  6
CONTINUOUS
  5
157
 10
264.92
 20
362.990822
 30
0.0
 11
258.194737
 21
369.716084
 31
0.0
  0
LINE
  8
LC-005-005-----0
  6
CONTINUOUS
  5
158
 10
257.419619
 20
370.491202
 30
0.0
 11
254.372691
 21
373.538131
 31
0.0
  0
LINE
  8
LC-005-005-----0
  6
CONTINUOUS
  5
159
 10
249.123925
 20
378.786897
 30
0.0
 11
243.59493
 21
384.315892
 31
0.0
  0
LINE
  8
LC-005-005-----0
  6
CONTINUOUS
  5
15A
 10
227.437919
 20
400.472902
 30
0.0
 11
222.051304
 21
405.859518
 31
0.0
  0
LINE
  8
LC-005-005-----0
  6
CONTINUOUS
  5
15B
 10
264.92
 20
360.162395
 30
0.0
 11
261.82
 21
363.262395
 31
0.0
  0
LINE
  8
LC-005-005-----0
  6
CONTINUOUS
  5
15C
 10
258.550637
 20
366.531758
 30
0.0
 11
254.440743
 21
370.641652
 31
0.0
  0
LINE
  8
LC-005-005-----0
  6
CONTINUOUS
  5
15D
 10
246.295498
 20
378.786897
 30
0.0
 11
243.595046
 21
381.487349
 31
0.0
  0
LINE
  8
LC-005-005-----0
  6
CONTINUOUS
  5
15E
 10
224.396839
 20
400.685555
 30
0.0
 11
219.010224
 21
406.072171
 31
0.0
  0
LINE
  8
LC-005-005-----0
  6
CONTINUOUS
  5
15F
 10
264.92
 20
357.333967
 30
0.0
 11
261.82
 21
360.433967
 31
0.0
  0
LINE
  8
LC-005-005-----0
  6
CONTINUOUS
  5
160
 10
220.490924
 20
401.763043
 30
0.0
 11
215.969144
 21
406.284824
 31
0.0
  0
LINE
  8
LC-005-005-----0
  6
CONTINUOUS
  5
161
 10
264.92
 20
354.50554
 30
0.0
 11
261.82
 21
357.60554
 31
0.0
  0
LINE
  8
LC-005-005-----0
  6
CONTINUOUS
  5
162
 10
216.161493
 20
403.264048
 30
0.0
 11
212.928064
 21
406.497477
 31
0.0
  0
LINE
  8
LC-005-005-----0
  6
CONTINUOUS
  5
163
 10
264.92
 20
351.677113
 30
0.0
 11
261.82
 21
354.777113
 31
0.0
  0
LINE
  8
LC-005-005-----0
  6
CONTINUOUS
  5
164
 10
213.120413
 20
403.476701
 30
0.0
 11
209.886984
 21
406.710129
 31
0.0
  0
LINE
  8
LC-005-005-----0
  6
CONTINUOUS
  5
165
 10
264.92
 20
348.848686
 30
0.0
 11
261.82
 21
351.948686
 31
0.0
  0
LINE
  8
LC-005-005-----0
  6
CONTINUOUS
  5
166
 10
210.079333
 20
403.689353
 30
0.0
 11
206.845904
 21
406.922782
 31
0.0
  0
LINE
  8
LC-005-005-----0
  6
CONTINUOUS
  5
167
 10
264.92
 20
346.020259
 30
0.0
 11
261.82
 21
349.120259
 31
0.0
  0
LINE
  8
LC-005-005-----0
  6
CONTINUOUS
  5
168
 10
207.038253
 20
403.902006
 30
0.0
 11
203.804824
 21
407.135435
 31
0.0
  0
LINE
  8
LC-005-005-----0
  6
CONTINUOUS
  5
169
 10
264.92
 20
343.191832
 30
0.0
 11
261.82
 21
346.291832
 31
0.0
  0
LINE
  8
LC-005-005-----0
  6
CONTINUOUS
  5
16A
 10
203.997173
 20
404.114659
 30
0.0
 11
200.763744
 21
407.348088
 31
0.0
  0
LINE
  8
LC-005-005-----0
  6
CONTINUOUS
  5
16B
 10
264.92
 20
340.363405
 30
0.0
 11
261.82
 21
343.463405
 31
0.0
  0
LINE
  8
LC-005-005-----0
  6
CONTINUOUS
  5
16C
 10
200.956093
 20
404.327312
 30
0.0
 11
197.722664
 21
407.560741
 31
0.0
  0
LINE
  8
LC-005-005-----0
  6
CONTINUOUS
  5
16D
 10
264.92
 20
337.534978
 30
0.0
 11
261.82
 21
340.634978
 31
0.0
  0
LINE
  8
LC-005-005-----0
  6
CONTINUOUS
  5
16E
 10
197.915013
 20
404.539965
 30
0.0
 11
194.681584
 21
407.773394
 31
0.0
  0
LINE
  8
LC-005-005-----0
  6
CONTINUOUS
  5
16F
 10
264.92
 20
334.70655
 30
0.0
 11
261.82
 21
337.80655
 31
0.0
  0
LINE
  8
LC-005-005-----0
  6
CONTINUOUS
  5
170
 10
194.873933
 20
404.752618
 30
0.0
 11
191.640504
 21
407.986046
 31
0.0
  0
LINE
  8
LC-005-005-----0
  6
CONTINUOUS
  5
171
 10
264.92
 20
331.878123
 30
0.0
 11
261.82
 21
334.978123
 31
0.0
  0
LINE
  8
LC-005-005-----0
  6
CONTINUOUS
  5
172
 10
191.832853
 20
404.96527
 30
0.0
 11
188.599424
 21
408.198699
 31
0.0
  0
LINE
  8
LC-005-005-----0
  6
CONTINUOUS
  5
173
 10
264.92
 20
329.049696
 30
0.0
 11
261.82
 21
332.149696
 31
0.0
  0
LINE
  8
LC-005-005-----0
  6
CONTINUOUS
  5
174
 10
188.791773
 20
405.177923
 30
0.0
 11
185.558344
 21
408.411352
 31
0.0
  0
LINE
  8
LC-005-005-----0
  6
CONTINUOUS
  5
175
 10
264.92
 20
326.221269
 30
0.0
 11
261.82
 21
329.321269
 31
0.0
  0
LINE
  8
LC-005-005-----0
  6
CONTINUOUS
  5
176
 10
185.750693
 20
405.390576
 30
0.0
 11
183.568257
 21
407.573012
 31
0.0
  0
LINE
  8
LC-005-005-----0
  6
CONTINUOUS
  5
177
 10
264.92
 20
323.392842
 30
0.0
 11
261.82
 21
326.492842
 31
0.0
  0
LINE
  8
LC-005-005-----0
  6
CONTINUOUS
  5
178
 10
264.92
 20
320.564415
 30
0.0
 11
261.82
 21
323.664415
 31
0.0
  0
LINE
  8
LC-005-005-----0
  6
CONTINUOUS
  5
179
 10
264.92
 20
317.735988
 30
0.0
 11
261.82
 21
320.835988
 31
0.0
  0
LINE
  8
LC-005-005-----0
  6
CONTINUOUS
  5
17A
 10
264.92
 20
314.907561
 30
0.0
 11
261.82
 21
318.007561
 31
0.0
  0
LINE
  8
LC-005-005-----0
  6
CONTINUOUS
  5
17B
 10
264.92
 20
312.079133
 30
0.0
 11
261.82
 21
315.179133
 31
0.0
  0
LINE
  8
LC-005-005-----0
  6
CONTINUOUS
  5
17C
 10
264.92
 20
309.250706
 30
0.0
 11
261.82
 21
312.350706
 31
0.0
  0
LINE
  8
LC-005-005-----0
  6
CONTINUOUS
  5
17D
 10
264.92
 20
306.422279
 30
0.0
 11
261.82
 21
309.522279
 31
0.0
  0
LINE
  8
LC-005-005-----0
  6
CONTINUOUS
  5
17E
 10
264.92
 20
303.593852
 30
0.0
 11
261.82
 21
306.693852
 31
0.0
  0
LINE
  8
LC-005-005-----0
  6
CONTINUOUS
  5
17F
 10
264.92
 20
300.765425
 30
0.0
 11
261.82
 21
303.865425
 31
0.0
  0
LINE
  8
LC-005-005-----0
  6
CONTINUOUS
  5
180
 10
264.92
 20
297.936998
 30
0.0
 11
261.82
 21
301.036998
 31
0.0
  0
LINE
  8
LC-005-005-----0
  6
CONTINUOUS
  5
181
 10
264.92
 20
295.108571
 30
0.0
 11
261.82
 21
298.208571
 31
0.0
  0
LINE
  8
LC-005-005-----0
  6
CONTINUOUS
  5
182
 10
264.92
 20
292.280144
 30
0.0
 11
261.82
 21
295.380144
 31
0.0
  0
LINE
  8
LC-005-005-----0
  6
CONTINUOUS
  5
183
 10
264.92
 20
289.451716
 30
0.0
 11
261.82
 21
292.551716
 31
0.0
  0
LINE
  8
LC-005-005-----0
  6
CONTINUOUS
  5
184
 10
264.92
 20
286.623289
 30
0.0
 11
261.82
 21
289.723289
 31
0.0
  0
LINE
  8
LC-005-005-----0
  6
CONTINUOUS
  5
185
 10
264.92
 20
283.794862
 30
0.0
 11
261.82
 21
286.894862
 31
0.0
  0
LINE
  8
LC-005-005-----0
  6
CONTINUOUS
  5
186
 10
264.92
 20
280.966435
 30
0.0
 11
261.82
 21
284.066435
 31
0.0
  0
LINE
  8
LC-005-005-----0
  6
CONTINUOUS
  5
187
 10
264.92
 20
278.138008
 30
0.0
 11
261.82
 21
281.238008
 31
0.0
  0
LINE
  8
LC-005-005-----0
  6
CONTINUOUS
  5
188
 10
264.92
 20
275.309581
 30
0.0
 11
261.82
 21
278.409581
 31
0.0
  0
LINE
  8
LC-005-005-----0
  6
CONTINUOUS
  5
189
 10
264.92
 20
272.481154
 30
0.0
 11
261.82
 21
275.581154
 31
0.0
  0
LINE
  8
LC-005-005-----0
  6
CONTINUOUS
  5
18A
 10
264.92
 20
269.652727
 30
0.0
 11
261.82
 21
272.752727
 31
0.0
  0
LINE
  8
LC-005-005-----0
  6
CONTINUOUS
  5
18B
 10
264.92
 20
266.824299
 30
0.0
 11
261.82
 21
269.924299
 31
0.0
  0
LINE
  8
LC-005-005-----0
  6
CONTINUOUS
  5
18C
 10
264.92
 20
263.995872
 30
0.0
 11
261.82
 21
267.095872
 31
0.0
  0
LINE
  8
LC-005-005-----0
  6
CONTINUOUS
  5
18D
 10
264.92
 20
261.167445
 30
0.0
 11
261.82
 21
264.267445
 31
0.0
  0
LINE
  8
LC-005-005-----0
  6
CONTINUOUS
  5
18E
 10
264.92
 20
258.339018
 30
0.0
 11
261.82
 21
261.439018
 31
0.0
  0
LINE
  8
LC-005-005-----0
  6
CONTINUOUS
  5
18F
 10
264.92
 20
255.510591
 30
0.0
 11
261.82
 21
258.610591
 31
0.0
  0
LINE
  8
LC-005-005-----0
  6
CONTINUOUS
  5
190
 10
264.92
 20
252.682164
 30
0.0
 11
261.82
 21
255.782164
 31
0.0
  0
LINE
  8
LC-005-005-----0
  6
CONTINUOUS
  5
191
 10
264.92
 20
249.853737
 30
0.0
 11
261.82
 21
252.953737
 31
0.0
  0
LINE
  8
LC-005-005-----0
  6
CONTINUOUS
  5
192
 10
264.92
 20
247.02531
 30
0.0
 11
261.82
 21
250.12531
 31
0.0
  0
LINE
  8
LC-005-005-----0
  6
CONTINUOUS
  5
193
 10
264.92
 20
244.196882
 30
0.0
 11
261.82
 21
247.296882
 31
0.0
  0
LINE
  8
LC-005-005-----0
  6
CONTINUOUS
  5
194
 10
264.92
 20
241.368455
 30
0.0
 11
261.82
 21
244.468455
 31
0.0
  0
LINE
  8
LC-005-005-----0
  6
CONTINUOUS
  5
195
 10
264.92
 20
238.540028
 30
0.0
 11
261.82
 21
241.640028
 31
0.0
  0
LINE
  8
LC-005-005-----0
  6
CONTINUOUS
  5
196
 10
264.92
 20
235.711601
 30
0.0
 11
261.82
 21
238.811601
 31
0.0
  0
LINE
  8
LC-005-005-----0
  6
CONTINUOUS
  5
197
 10
264.92
 20
232.883174
 30
0.0
 11
261.82
 21
235.983174
 31
0.0
  0
LINE
  8
LC-005-005-----0
  6
CONTINUOUS
  5
198
 10
264.92
 20
230.054747
 30
0.0
 11
261.82
 21
233.154747
 31
0.0
  0
LINE
  8
LC-005-005-----0
  6
CONTINUOUS
  5
199
 10
264.92
 20
227.22632
 30
0.0
 11
261.82
 21
230.32632
 31
0.0
  0
LINE
  8
LC-005-005-----0
  6
CONTINUOUS
  5
19A
 10
264.92
 20
224.397893
 30
0.0
 11
261.82
 21
227.497893
 31
0.0
  0
LINE
  8
LC-005-005-----0
  6
CONTINUOUS
  5
19B
 10
264.92
 20
221.569465
 30
0.0
 11
261.82
 21
224.669465
 31
0.0
  0
LINE
  8
LC-005-005-----0
  6
CONTINUOUS
  5
19C
 10
264.92
 20
218.741038
 30
0.0
 11
261.82
 21
221.841038
 31
0.0
  0
LINE
  8
LC-005-005-----0
  6
CONTINUOUS
  5
19D
 10
264.92
 20
215.912611
 30
0.0
 11
261.82
 21
219.012611
 31
0.0
  0
LINE
  8
LC-005-005-----0
  6
CONTINUOUS
  5
19E
 10
264.92
 20
213.084184
 30
0.0
 11
261.82
 21
216.184184
 31
0.0
  0
LINE
  8
LC-005-005-----0
  6
CONTINUOUS
  5
19F
 10
264.92
 20
210.255757
 30
0.0
 11
261.82
 21
213.355757
 31
0.0
  0
LINE
  8
LC-005-005-----0
  6
CONTINUOUS
  5
1A0
 10
264.92
 20
207.42733
 30
0.0
 11
261.82
 21
210.52733
 31
0.0
  0
LINE
  8
LC-005-005-----0
  6
CONTINUOUS
  5
1A1
 10
264.92
 20
204.598903
 30
0.0
 11
261.82
 21
207.698903
 31
0.0
  0
LINE
  8
LC-005-005-----0
  6
CONTINUOUS
  5
1A2
 10
264.92
 20
201.770476
 30
0.0
 11
261.82
 21
204.870476
 31
0.0
  0
LINE
  8
LC-005-005-----0
  6
CONTINUOUS
  5
1A3
 10
264.92
 20
198.942048
 30
0.0
 11
261.82
 21
202.042048
 31
0.0
  0
LINE
  8
LC-005-005-----0
  6
CONTINUOUS
  5
1A4
 10
264.92
 20
196.113621
 30
0.0
 11
261.82
 21
199.213621
 31
0.0
  0
LINE
  8
LC-005-005-----0
  6
CONTINUOUS
  5
1A5
 10
264.92
 20
193.285194
 30
0.0
 11
261.82
 21
196.385194
 31
0.0
  0
LINE
  8
LC-005-005-----0
  6
CONTINUOUS
  5
1A6
 10
264.92
 20
190.456767
 30
0.0
 11
261.82
 21
193.556767
 31
0.0
  0
LINE
  8
LC-005-005-----0
  6
CONTINUOUS
  5
1A7
 10
264.92
 20
187.62834
 30
0.0
 11
262.089166
 21
190.459174
 31
0.0
  0
LINE
  8
LC-005-005-----0
  6
CONTINUOUS
  5
1A8
 10
263.256197
 20
186.463716
 30
0.0
 11
263.124443
 21
186.59547
 31
0.0
  0
ENDBLK
  8
0
  5
1A9
  0
BLOCK
  8
0
  5
1AB
  2
*D14
 70
    65
 10
0.0
 20
0.0
 30
0.0
  3
*D14
  0
LINE
  8
LC-007-003-MTH-0
  6
CONTINUOUS
  5
1AC
 10
261.82
 20
191.463716
 30
0.0
 11
261.82
 21
100.8
 31
0.0
  0
LINE
  8
LC-007-003-MTH-0
  6
CONTINUOUS
  5
1AD
 10
406.82
 20
191.463716
 30
0.0
 11
406.82
 21
100.8
 31
0.0
  0
LINE
  8
LC-008-003-MTG-0
  6
CONTINUOUS
  5
1AE
 10
261.82
 20
117.6
 30
0.0
 11
406.82
 21
117.6
 31
0.0
  0
LINE
  8
LC-006-003-----0
  6
CONTINUOUS
  5
1AF
 10
289.580456
 20
121.254733
 30
0.0
 11
261.82
 21
117.6
 31
0.0
  0
LINE
  8
LC-006-003-----0
  6
CONTINUOUS
  5
1B0
 10
261.82
 20
117.6
 30
0.0
 11
289.580456
 21
113.945267
 31
0.0
  0
LINE
  8
LC-006-003-----0
  6
CONTINUOUS
  5
1B1
 10
289.580456
 20
113.945267
 30
0.0
 11
289.580456
 21
121.254733
 31
0.0
  0
LINE
  8
LC-006-003-----0
  6
CONTINUOUS
  5
1B2
 10
289.642738
 20
120.304503
 30
0.0
 11
269.1
 21
117.6
 31
0.0
  0
LINE
  8
LC-006-003-----0
  6
CONTINUOUS
  5
1B3
 10
269.1
 20
117.6
 30
0.0
 11
289.642738
 21
114.895497
 31
0.0
  0
LINE
  8
LC-006-003-----0
  6
CONTINUOUS
  5
1B4
 10
289.705019
 20
119.354272
 30
0.0
 11
276.38
 21
117.6
 31
0.0
  0
LINE
  8
LC-006-003-----0
  6
CONTINUOUS
  5
1B5
 10
276.38
 20
117.6
 30
0.0
 11
289.705019
 21
115.845728
 31
0.0
  0
LINE
  8
LC-006-003-----0
  6
CONTINUOUS
  5
1B6
 10
289.7673
 20
118.404041
 30
0.0
 11
283.66
 21
117.6
 31
0.0
  0
LINE
  8
LC-006-003-----0
  6
CONTINUOUS
  5
1B7
 10
283.66
 20
117.6
 30
0.0
 11
289.7673
 21
116.795959
 31
0.0
  0
LINE
  8
LC-006-003-----0
  6
CONTINUOUS
  5
1B8
 10
379.059544
 20
113.945267
 30
0.0
 11
406.82
 21
117.6
 31
0.0
  0
LINE
  8
LC-006-003-----0
  6
CONTINUOUS
  5
1B9
 10
406.82
 20
117.6
 30
0.0
 11
379.059544
 21
121.254733
 31
0.0
  0
LINE
  8
LC-006-003-----0
  6
CONTINUOUS
  5
1BA
 10
379.059544
 20
121.254733
 30
0.0
 11
379.059544
 21
113.945267
 31
0.0
  0
LINE
  8
LC-006-003-----0
  6
CONTINUOUS
  5
1BB
 10
378.997262
 20
114.895497
 30
0.0
 11
399.54
 21
117.6
 31
0.0
  0
LINE
  8
LC-006-003-----0
  6
CONTINUOUS
  5
1BC
 10
399.54
 20
117.6
 30
0.0
 11
378.997262
 21
120.304503
 31
0.0
  0
LINE
  8
LC-006-003-----0
  6
CONTINUOUS
  5
1BD
 10
378.934981
 20
115.845728
 30
0.0
 11
392.26
 21
117.6
 31
0.0
  0
LINE
  8
LC-006-003-----0
  6
CONTINUOUS
  5
1BE
 10
392.26
 20
117.6
 30
0.0
 11
378.934981
 21
119.354272
 31
0.0
  0
LINE
  8
LC-006-003-----0
  6
CONTINUOUS
  5
1BF
 10
378.8727
 20
116.795959
 30
0.0
 11
384.98
 21
117.6
 31
0.0
  0
LINE
  8
LC-006-003-----0
  6
CONTINUOUS
  5
1C0
 10
384.98
 20
117.6
 30
0.0
 11
378.8727
 21
118.404041
 31
0.0
  0
TEXT
  8
LC-006-003-----0
  6
CONTINUOUS
 62
     8
  5
1C1
 10
300.570522
 20
125.427554
 30
0.0
 40
28.0
  1
Ø145
 51
15.0
  7
LC-TXTSTYLE-150-400-0-0-D0
 72
     1
 11
338.66816
 21
125.427554
 31
0.0
  0
ENDBLK
  8
0
  5
1C2
  0
ENDSEC
  0
SECTION
  2
ENTITIES
  0
VIEWPORT
  8
LC-000
  5
2E3
 67
     1
 68
     1
 10
420.0
 20
297.0
 30
0.0
 40
840.0
 41
594.0
 69
     1
1001
ACAD
1000
MVIEW
1002
{
1070
    16
1010
0.0
1020
0.0
1030
0.0
1010
0.0
1020
0.0
1030
1.0
1040
0.0
1040
594.0
1040
420.0
1040
297.0
1040
50.0
1040
0.0
1040
0.0
1070
     0
1070
   100
1070
     1
1070
     1
1070
     0
1070
     0
1070
     0
1070
     0
1040
0.0
1040
0.0
1040
0.0
1040
1.0
1040
1.0
1040
0.0
1040
0.0
1070
     0
1002
{
1002
}
1002
}
  0
VIEWPORT
  8
0
  5
2E4
 67
     1
 68
     1
 10
0.0
 20
0.0
 30
0.0
 40
0.0
 41
0.0
 69
     1
1001
ACAD
1000
MVIEW
1002
{
1070
    16
1010
0.0
1020
0.0
1030
0.0
1010
0.0
1020
0.0
1030
1.0
1040
0.0
1040
594.0
1040
0.0
1040
0.0
1040
50.0
1040
0.0
1040
0.0
1070
     0
1070
   100
1070
     0
1070
     1
1070
     0
1070
     0
1070
     0
1070
     0
1040
0.0
1040
0.0
1040
0.0
1040
0.5
1040
0.5
1040
0.5
1040
0.5
1070
     0
1002
{
1002
}
1002
}
  0
INSERT
  8
0
  5
1C4
  2
BLK1
 10
0.0
 20
0.0
 30
0.0
  0
INSERT
  8
0
  5
1C5
  2
BLK2
 10
0.0
 20
0.0
 30
0.0
  0
DIMENSION
  8
0
  5
1C6
  2
*D2
 10
334.32
 20
431.2
 30
0.0
 11
334.32
 21
431.2
 31
0.0
  1
%%c300
 13
183.568257
 23
408.550513
 33
0.0
 14
485.071743
 24
408.550513
 34
0.0
  3
LC-DIM-L-0140-02-02
  0
DIMENSION
  8
0
  5
1C7
  2
*D3
 10
235.2
 20
276.463716
 30
0.0
 11
235.2
 21
276.463716
 31
0.0
 13
260.397699
 23
366.463716
 33
0.0
 14
274.92
 24
186.463716
 34
0.0
 50
90.0
  3
LC-DIM-L-0140-02-02
  0
INSERT
  8
0
  5
1C8
  2
*X4
 10
241.735545
 20
386.764914
 30
0.0
  0
INSERT
  8
0
  5
1C9
  2
*X5
 10
414.772028
 20
386.764914
 30
0.0
  0
DIMENSION
  8
0
  5
1CA
  2
*D6
 10
156.8
 20
296.003451
 30
0.0
 11
156.8
 21
296.003451
 31
0.0
  1
220
 13
183.568257
 23
405.543187
 33
0.0
 14
263.159746
 24
186.463716
 34
0.0
 50
90.0
  3
LC-DIM-L-0140-02-02
  0
INSERT
  8
0
  5
1CB
  2
*X7
 10
255.571677
 20
80.114432
 30
0.0
  0
INSERT
  8
0
  5
1CC
  2
*X8
 10
399.068323
 20
80.114432
 30
0.0
  0
INSERT
  8
0
  5
1CE
  2
BLK3
 10
0.0
 20
0.0
 30
0.0
  0
INSERT
  8
0
  5
1CF
  2
*X10
 10
255.82
 20
382.919256
 30
0.0
  0
INSERT
  8
0
  5
1D0
  2
*X11
 10
402.82
 20
382.919256
 30
0.0
  0
INSERT
  8
0
  5
1D1
  2
*X12
 10
403.72
 20
186.463716
 30
0.0
  0
INSERT
  8
0
  5
1D2
  2
*X13
 10
183.568257
 20
186.463716
 30
0.0
  0
DIMENSION
  8
0
  5
1D3
  2
*D14
 10
334.32
 20
117.6
 30
0.0
 11
334.32
 21
117.6
 31
0.0
  1
%%c<>
 13
261.82
 23
191.463716
 33
0.0
 14
406.82
 24
191.463716
 34
0.0
  3
LC-DIM-L-0140-02-02
  0
ARC
  8
LC-002-002-----0
  6
CONTINUOUS
  5
1D5
 10
234.566962
 20
426.264059
 30
0.0
 40
23.376649
 50
241.241457
 51
259.532639
  0
LINE
  8
LC-003-001-----0
  6
CONTINUOUS
  5
1D7
 10
223.32
 20
400.758593
 30
0.0
 11
238.357563
 21
399.707065
 31
0.0
  0
LINE
  8
LC-002-002-----0
  6
CONTINUOUS
  5
1D8
 10
216.288248
 20
403.255184
 30
0.0
 11
223.32
 21
400.758593
 31
0.0
  0
LINE
  8
LC-002-002-----0
  6
CONTINUOUS
  5
1D9
 10
183.568257
 20
405.543187
 30
0.0
 11
216.288248
 21
403.255184
 31
0.0
  0
LINE
  8
LC-002-002-----0
  6
CONTINUOUS
  5
1DA
 10
183.568257
 20
408.550513
 30
0.0
 11
183.568257
 21
405.543187
 31
0.0
  0
LINE
  8
LC-002-002-----0
  6
CONTINUOUS
  5
1DB
 10
485.071743
 20
408.550513
 30
0.0
 11
445.32
 21
405.770802
 31
0.0
  0
ARC
  8
LC-002-002-----0
  6
CONTINUOUS
  5
1DC
 10
434.073038
 20
426.264059
 30
0.0
 40
23.376649
 50
280.467361
 51
298.758543
  0
LINE
  8
LC-002-002-----0
  6
CONTINUOUS
  5
1DD
 10
452.351752
 20
403.255184
 30
0.0
 11
445.32
 21
400.758593
 31
0.0
  0
LINE
  8
LC-002-002-----0
  6
CONTINUOUS
  5
1DE
 10
485.071743
 20
405.543187
 30
0.0
 11
452.351752
 21
403.255184
 31
0.0
  0
LINE
  8
LC-002-002-----0
  6
CONTINUOUS
  5
1DF
 10
485.071743
 20
408.550513
 30
0.0
 11
485.071743
 21
405.543187
 31
0.0
  0
ARC
  8
LC-002-002-----0
  6
CONTINUOUS
  5
1E0
 10
408.82
 20
364.463716
 30
0.0
 40
2.0
 50
90.0
 51
180.0
  0
LINE
  8
LC-002-002-----0
  6
CONTINUOUS
  5
1E1
 10
263.159746
 20
186.463716
 30
0.0
 11
403.72
 21
186.463716
 31
0.0
  0
LINE
  8
LC-002-002-----0
  6
CONTINUOUS
  5
1E2
 10
403.72
 20
346.463716
 30
0.0
 11
403.72
 21
186.463716
 31
0.0
  0
LINE
  8
LC-002-002-----0
  6
CONTINUOUS
  5
1E3
 10
406.82
 20
364.463716
 30
0.0
 11
406.82
 21
191.463716
 31
0.0
  0
LINE
  8
LC-002-002-----0
  6
DASHDOT
 62
     2
  5
1E5
 10
334.32
 20
265.261852
 30
0.0
 11
334.32
 21
186.463716
 31
0.0
  0
LINE
  8
LC-002-002-----0
  6
CONTINUOUS
  5
1E6
 10
414.281626
 20
378.786897
 30
0.0
 11
425.045017
 21
378.786897
 31
0.0
  0
LINE
  8
LC-003-001-----0
  6
CONTINUOUS
  5
1E7
 10
445.282789
 20
400.758253
 30
0.0
 11
430.282288
 21
399.709317
 31
0.0
  0
LINE
  8
LC-002-002-----0
  6
CONTINUOUS
  5
1E8
 10
411.26735
 20
381.786516
 30
0.0
 11
422.044968
 21
381.786516
 31
0.0
  0
LINE
  8
LC-002-002-----0
  6
CONTINUOUS
  5
1E9
 10
430.282437
 20
399.707179
 30
0.0
 11
430.282212
 21
389.753606
 31
0.0
  0
LINE
  8
LC-002-002-----0
  6
CONTINUOUS
  5
1EA
 10
430.282212
 20
389.753606
 30
0.0
 11
425.045294
 21
389.753725
 31
0.0
  0
LINE
  8
LC-002-002-----0
  6
CONTINUOUS
  5
1EB
 10
425.045294
 20
389.753725
 30
0.0
 11
425.044843
 21
378.786897
 31
0.0
  0
LINE
  8
LC-002-002-----0
  6
CONTINUOUS
  5
1EC
 10
410.267345
 20
380.78652
 30
0.0
 11
410.267342
 21
380.28652
 31
0.0
  0
ARC
  8
LC-002-002-----0
  6
CONTINUOUS
  5
1ED
 10
408.72
 20
364.463716
 30
0.0
 40
5.0
 50
90.0
 51
180.0
  0
LINE
  8
LC-002-002-----0
  6
CONTINUOUS
  5
1EE
 10
403.72
 20
364.463716
 30
0.0
 11
403.72
 21
346.463716
 31
0.0
  0
LINE
  8
LC-002-002-----0
  6
CONTINUOUS
  5
1EF
 10
414.267335
 20
378.786897
 30
0.0
 11
414.267299
 21
371.463692
 31
0.0
  0
ARC
  8
LC-002-002-----0
  6
CONTINUOUS
  5
1F0
 10
409.267299
 20
371.463716
 30
0.0
 40
5.0
 50
270.0
 51
359.99972
  0
LINE
  8
LC-002-002-----0
  6
CONTINUOUS
  5
1F1
 10
254.358374
 20
378.786897
 30
0.0
 11
243.594983
 21
378.786897
 31
0.0
  0
LINE
  8
LC-002-002-----0
  6
CONTINUOUS
  5
1F2
 10
238.357563
 20
399.707179
 30
0.0
 11
238.357788
 21
389.753606
 31
0.0
  0
LINE
  8
LC-002-002-----0
  6
CONTINUOUS
  5
1F3
 10
238.357788
 20
389.753606
 30
0.0
 11
243.594706
 21
389.753725
 31
0.0
  0
LINE
  8
LC-002-002-----0
  6
CONTINUOUS
  5
1F4
 10
243.594706
 20
389.753725
 30
0.0
 11
243.595157
 21
378.786897
 31
0.0
  0
LINE
  8
LC-002-002-----0
  6
CONTINUOUS
  5
1F5
 10
246.594343
 20
399.617369
 30
0.0
 11
246.595076
 21
381.786897
 31
0.0
  0
LINE
  8
LC-002-002-----0
  6
CONTINUOUS
  5
1F6
 10
254.358374
 20
378.786897
 30
0.0
 11
243.594983
 21
378.786897
 31
0.0
  0
LINE
  8
LC-005-005-----0
  6
CONTINUOUS
  5
1F7
 10
183.568257
 20
408.428214
 30
0.0
 11
183.682563
 21
408.542519
 31
0.0
  0
LINE
  8
LC-002-002-----0
  6
CONTINUOUS
  5
1F8
 10
257.372655
 20
381.786516
 30
0.0
 11
246.595032
 21
381.786516
 31
0.0
  0
ARC
  8
LC-002-002-----0
  6
CONTINUOUS
  5
1F9
 10
257.372655
 20
380.786516
 30
0.0
 40
1.0
 50
0.00028
 51
90.00028
  0
LINE
  8
LC-002-002-----0
  6
CONTINUOUS
  5
1FA
 10
258.372655
 20
380.78652
 30
0.0
 11
258.372658
 21
380.28652
 31
0.0
  0
ARC
  8
LC-002-002-----0
  6
CONTINUOUS
  5
1FB
 10
257.372658
 20
380.286516
 30
0.0
 40
1.0
 50
270.00028
 51
0.00028
  0
LINE
  8
LC-002-002-----0
  6
CONTINUOUS
  5
1FC
 10
254.372665
 20
378.786897
 30
0.0
 11
254.372701
 21
371.463692
 31
0.0
  0
ARC
  8
LC-002-002-----0
  6
CONTINUOUS
  5
1FD
 10
259.372701
 20
371.463716
 30
0.0
 40
5.0
 50
180.00028
 51
270.0
  0
LINE
  8
LC-002-002-----0
  6
CONTINUOUS
  5
1FE
 10
408.82
 20
366.463716
 30
0.0
 11
409.267299
 21
366.463716
 31
0.0
  0
ARC
  8
LC-002-002-----0
  6
CONTINUOUS
  5
1FF
 10
411.267345
 20
380.786516
 30
0.0
 40
1.0
 50
89.99972
 51
179.99972
  0
ARC
  8
LC-002-002-----0
  6
CONTINUOUS
  5
200
 10
411.267342
 20
380.286516
 30
0.0
 40
1.0
 50
179.99972
 51
269.99972
  0
LINE
  8
LC-002-002-----0
  6
CONTINUOUS
  5
201
 10
261.82
 20
346.463716
 30
0.0
 11
261.82
 21
191.463716
 31
0.0
  0
LINE
  8
LC-002-002-----0
  6
CONTINUOUS
  5
202
 10
264.92
 20
346.463716
 30
0.0
 11
264.92
 21
186.463716
 31
0.0
  0
LINE
  8
LC-002-002-----0
  6
CONTINUOUS
  5
203
 10
261.82
 20
364.463716
 30
0.0
 11
261.82
 21
346.463716
 31
0.0
  0
LINE
  8
LC-002-002-----0
  6
CONTINUOUS
  5
204
 10
264.92
 20
364.463716
 30
0.0
 11
264.92
 21
346.463716
 31
0.0
  0
LINE
  8
LC-002-002-----0
  6
CONTINUOUS
  5
205
 10
261.82
 20
191.463716
 30
0.0
 11
263.159746
 21
186.463716
 31
0.0
  0
ARC
  8
LC-002-002-----0
  6
CONTINUOUS
  5
206
 10
259.92
 20
364.463716
 30
0.0
 40
5.0
 50
0.0
 51
90.0
  0
ARC
  8
LC-002-002-----0
  6
CONTINUOUS
  5
207
 10
259.82
 20
364.463716
 30
0.0
 40
2.0
 50
0.0
 51
90.0
  0
LINE
  8
LC-002-002-----0
  6
CONTINUOUS
  5
208
 10
259.372701
 20
366.463716
 30
0.0
 11
259.82
 21
366.463716
 31
0.0
  0
LINE
  8
LC-002-002-----0
  6
CONTINUOUS
  5
209
 10
183.568257
 20
408.550513
 30
0.0
 11
223.32
 21
405.770802
 31
0.0
  0
LINE
  8
LC-002-002-----0
  6
CONTINUOUS
  5
20A
 10
422.045657
 20
399.617369
 30
0.0
 11
422.044924
 21
381.786897
 31
0.0
  0
LINE
  8
LC-002-002-----0
  6
CONTINUOUS
  5
20B
 10
255.567213
 20
385.718888
 30
0.0
 11
255.567213
 21
399.307855
 31
0.0
  0
LINE
  8
LC-002-002-----0
  6
CONTINUOUS
  5
20C
 10
413.072787
 20
399.307855
 30
0.0
 11
413.072787
 21
385.718888
 31
0.0
  0
LINE
  8
LC-002-002-----0
  6
CONTINUOUS
  5
20D
 10
225.764598
 20
409.508246
 30
0.0
 11
442.87515
 21
409.508246
 31
0.0
  0
LINE
  8
LC-002-002-----0
  6
CONTINUOUS
  5
20E
 10
248.592465
 20
406.306788
 30
0.0
 11
420.047535
 21
406.306788
 31
0.0
  0
LINE
  8
LC-002-002-----0
  6
CONTINUOUS
 62
     2
  5
20F
 10
262.821677
 20
92.615251
 30
0.0
 11
405.318323
 21
92.615251
 31
0.0
  0
LINE
  8
LC-002-002-----0
  6
CONTINUOUS
 62
     2
  5
210
 10
262.821677
 20
86.615251
 30
0.0
 11
405.818323
 21
86.615251
 31
0.0
  0
LINE
  8
LC-002-002-----0
  6
CONTINUOUS
  5
211
 10
260.073163
 20
80.115138
 30
0.0
 11
256.073163
 21
80.114432
 31
0.0
  0
ARC
  8
LC-002-002-----0
  6
CONTINUOUS
  5
212
 10
262.821677
 20
80.615623
 30
0.0
 40
0.5
 50
225.0
 51
23.726263
  0
ARC
  8
LC-009-002-RND-0
  6
CONTINUOUS
  5
214
 10
260.572934
 20
81.415184
 30
0.0
 40
0.5
 50
90.010108
 51
180.010108
  0
ARC
  8
LC-009-002-RND-0
  6
CONTINUOUS
  5
215
 10
260.607896
 20
81.41519
 30
0.0
 40
0.5
 50
45.0
 51
90.010108
  0
ARC
  8
LC-002-002-----0
  6
CONTINUOUS
  5
216
 10
262.821677
 20
87.115251
 30
0.0
 40
0.5
 50
225.0
 51
23.726263
  0
LINE
  8
LC-002-002-----0
  6
CONTINUOUS
  5
217
 10
258.667498
 20
382.919256
 30
0.0
 11
258.367213
 21
382.919256
 31
0.0
  0
LINE
  8
LC-002-002-----0
  6
CONTINUOUS
  5
218
 10
410.272787
 20
382.218888
 30
0.0
 11
409.972506
 21
382.218888
 31
0.0
  0
ARC
  8
LC-002-002-----0
  6
CONTINUOUS
  5
219
 10
230.267715
 20
413.914144
 30
0.0
 40
6.3
 50
224.378071
 51
266.0
  0
LINE
  8
LC-002-002-----0
  6
CONTINUOUS
  5
21A
 10
442.87515
 20
409.507988
 30
0.0
 11
443.811776
 21
409.507988
 31
0.0
  0
ARC
  8
LC-002-002-----0
  6
CONTINUOUS
  5
21B
 10
230.267715
 20
413.914144
 30
0.0
 40
7.0
 50
219.006904
 51
266.0
  0
LINE
  8
LC-002-002-----0
  6
CONTINUOUS
  5
21C
 10
229.826033
 20
407.619065
 30
0.0
 11
249.531411
 21
406.241131
 31
0.0
  0
LINE
  8
LC-002-002-----0
  6
CONTINUOUS
  5
21D
 10
229.779419
 20
406.931196
 30
0.0
 11
249.27587
 21
405.567871
 31
0.0
  0
ARC
  8
LC-002-002-----0
  6
CONTINUOUS
  5
21E
 10
248.567213
 20
399.307855
 30
0.0
 40
7.0
 50
0.0
 51
82.082756
  0
ARC
  8
LC-002-002-----0
  6
CONTINUOUS
  5
21F
 10
248.567213
 20
399.307855
 30
0.0
 40
6.3
 50
0.0
 51
83.541399
  0
LINE
  8
LC-002-002-----0
  6
CONTINUOUS
  5
220
 10
254.867213
 20
399.307855
 30
0.0
 11
254.867213
 21
385.718888
 31
0.0
  0
ARC
  8
LC-002-002-----0
  6
CONTINUOUS
  5
221
 10
258.367213
 20
385.718888
 30
0.0
 40
2.8
 50
180.0
 51
270.0
  0
ARC
  8
LC-002-002-----0
  6
CONTINUOUS
  5
222
 10
258.367213
 20
385.718888
 30
0.0
 40
3.5
 50
180.0
 51
270.0
  0
ARC
  8
LC-002-002-----0
  6
CONTINUOUS
  5
223
 10
258.667493
 20
381.919256
 30
0.0
 40
1.0
 50
359.99972
 51
89.99972
  0
ARC
  8
LC-002-002-----0
  6
CONTINUOUS
  5
224
 10
258.667493
 20
381.919256
 30
0.0
 40
0.3
 50
359.99972
 51
89.99972
  0
LINE
  8
LC-002-002-----0
  6
CONTINUOUS
  5
225
 10
259.667213
 20
381.918888
 30
0.0
 11
259.667213
 21
378.218888
 31
0.0
  0
LINE
  8
LC-002-002-----0
  6
CONTINUOUS
  5
226
 10
258.967213
 20
381.918888
 30
0.0
 11
258.967213
 21
378.218888
 31
0.0
  0
ARC
  8
LC-002-002-----0
  6
CONTINUOUS
  5
227
 10
258.667735
 20
378.218888
 30
0.0
 40
0.3
 50
270.0
 51
0.0
  0
ARC
  8
LC-002-002-----0
  6
CONTINUOUS
  5
228
 10
258.667213
 20
376.418888
 30
0.0
 40
1.5
 50
90.0
 51
180.0
  0
ARC
  8
LC-002-002-----0
  6
CONTINUOUS
  5
229
 10
409.972265
 20
378.218888
 30
0.0
 40
0.3
 50
180.0
 51
270.0
  0
ARC
  8
LC-002-002-----0
  6
CONTINUOUS
  5
22A
 10
258.667213
 20
376.418888
 30
0.0
 40
1.5
 50
180.0
 51
270.0
  0
LINE
  8
LC-002-002-----0
  6
CONTINUOUS
  5
22B
 10
258.667213
 20
374.918888
 30
0.0
 11
261.632381
 21
374.918814
 31
0.0
  0
LINE
  8
LC-002-002-----0
  6
CONTINUOUS
  5
22C
 10
261.632381
 20
374.918814
 30
0.0
 11
261.632381
 21
375.618814
 31
0.0
  0
LINE
  8
LC-002-002-----0
  6
CONTINUOUS
  5
22D
 10
258.667213
 20
375.618888
 30
0.0
 11
261.632381
 21
375.618814
 31
0.0
  0
ARC
  8
LC-002-002-----0
  6
CONTINUOUS
  5
22E
 10
258.667213
 20
376.418888
 30
0.0
 40
0.8
 50
180.0
 51
270.0
  0
ARC
  8
LC-002-002-----0
  6
CONTINUOUS
  5
22F
 10
258.667213
 20
376.418888
 30
0.0
 40
0.8
 50
90.0
 51
180.0
  0
ARC
  8
LC-002-002-----0
  6
CONTINUOUS
  5
230
 10
258.667213
 20
378.218888
 30
0.0
 40
1.0
 50
270.0
 51
0.0
  0
ARC
  8
LC-002-002-----0
  6
CONTINUOUS
  5
231
 10
409.972507
 20
381.919256
 30
0.0
 40
1.0
 50
90.00028
 51
180.00028
  0
ARC
  8
LC-002-002-----0
  6
CONTINUOUS
  5
232
 10
409.972507
 20
381.919256
 30
0.0
 40
0.3
 50
90.00028
 51
180.00028
  0
ARC
  8
LC-002-002-----0
  6
CONTINUOUS
  5
233
 10
409.972787
 20
376.418888
 30
0.0
 40
1.5
 50
0.0
 51
90.0
  0
ARC
  8
LC-002-002-----0
  6
CONTINUOUS
  5
234
 10
409.972787
 20
376.418888
 30
0.0
 40
1.5
 50
270.0
 51
0.0
  0
LINE
  8
LC-002-002-----0
  6
CONTINUOUS
  5
235
 10
409.972787
 20
375.618888
 30
0.0
 11
406.57943
 21
375.588882
 31
0.0
  0
ARC
  8
LC-002-002-----0
  6
CONTINUOUS
  5
236
 10
409.972787
 20
376.418888
 30
0.0
 40
0.8
 50
0.0
 51
90.0
  0
ARC
  8
LC-002-002-----0
  6
CONTINUOUS
  5
237
 10
409.972787
 20
376.418888
 30
0.0
 40
0.8
 50
270.0
 51
0.0
  0
LINE
  8
LC-002-002-----0
  6
CONTINUOUS
  5
238
 10
409.972787
 20
374.918888
 30
0.0
 11
406.57943
 21
374.888882
 31
0.0
  0
LINE
  8
LC-002-002-----0
  6
CONTINUOUS
  5
239
 10
406.57943
 20
374.888882
 30
0.0
 11
406.57943
 21
375.588882
 31
0.0
  0
LINE
  8
LC-002-002-----0
  6
CONTINUOUS
  5
23A
 10
408.972787
 20
381.918888
 30
0.0
 11
408.972787
 21
378.218888
 31
0.0
  0
ARC
  8
LC-002-002-----0
  6
CONTINUOUS
  5
23B
 10
409.972787
 20
378.218888
 30
0.0
 40
1.0
 50
180.0
 51
270.0
  0
LINE
  8
LC-002-002-----0
  6
CONTINUOUS
  5
23C
 10
409.672787
 20
381.918888
 30
0.0
 11
409.672787
 21
378.218888
 31
0.0
  0
ARC
  8
LC-002-002-----0
  6
CONTINUOUS
  5
23D
 10
410.272787
 20
385.718888
 30
0.0
 40
3.5
 50
270.0
 51
0.0
  0
ARC
  8
LC-002-002-----0
  6
CONTINUOUS
  5
23E
 10
410.272787
 20
385.718888
 30
0.0
 40
2.8
 50
270.0
 51
0.0
  0
LINE
  8
LC-002-002-----0
  6
CONTINUOUS
  5
23F
 10
413.772787
 20
399.307855
 30
0.0
 11
413.772787
 21
385.718888
 31
0.0
  0
ARC
  8
LC-002-002-----0
  6
CONTINUOUS
  5
240
 10
420.072787
 20
399.307855
 30
0.0
 40
7.0
 50
97.917244
 51
180.0
  0
ARC
  8
LC-002-002-----0
  6
CONTINUOUS
  5
241
 10
420.072787
 20
399.307855
 30
0.0
 40
6.3
 50
96.458601
 51
180.0
  0
LINE
  8
LC-002-002-----0
  6
CONTINUOUS
  5
242
 10
438.860581
 20
406.931196
 30
0.0
 11
419.36413
 21
405.567871
 31
0.0
  0
LINE
  8
LC-002-002-----0
  6
CONTINUOUS
  5
243
 10
438.813967
 20
407.619065
 30
0.0
 11
419.108589
 21
406.241131
 31
0.0
  0
ARC
  8
LC-002-002-----0
  6
CONTINUOUS
  5
244
 10
438.372285
 20
413.914144
 30
0.0
 40
6.3
 50
274.0
 51
315.621929
  0
LINE
  8
LC-002-002-----0
  6
CONTINUOUS
  5
245
 10
224.828224
 20
409.508246
 30
0.0
 11
225.76485
 21
409.508246
 31
0.0
  0
ARC
  8
LC-002-002-----0
  6
CONTINUOUS
  5
246
 10
438.372285
 20
413.914144
 30
0.0
 40
7.0
 50
274.0
 51
320.993096
  0
LINE
  8
LC-002-002-----0
  6
CONTINUOUS
  5
247
 10
241.735797
 20
402.478162
 30
0.0
 11
247.671449
 21
402.063101
 31
0.0
  0
ARC
  8
LC-002-002-----0
  6
CONTINUOUS
  5
248
 10
247.390778
 20
398.049315
 30
0.0
 40
4.023715
 50
68.753688
 51
86.001164
  0
LINE
  8
LC-002-002-----0
  6
CONTINUOUS
  5
249
 10
253.788759
 20
396.502391
 30
0.0
 11
248.848884
 21
401.799543
 31
0.0
  0
ARC
  8
LC-002-002-----0
  6
CONTINUOUS
  5
24A
 10
253.57153
 20
396.302015
 30
0.0
 40
0.296443
 50
249.999864
 51
42.999864
  0
LINE
  8
LC-002-002-----0
  6
CONTINUOUS
  5
24B
 10
253.470575
 20
396.021647
 30
0.0
 11
250.177384
 21
397.220194
 31
0.0
  0
ARC
  8
LC-002-002-----0
  6
CONTINUOUS
  5
24C
 10
249.839438
 20
396.291638
 30
0.0
 40
0.988142
 50
70.001161
 51
180.001414
  0
LINE
  8
LC-002-002-----0
  6
CONTINUOUS
  5
24D
 10
248.851296
 20
396.291638
 30
0.0
 11
248.851326
 21
394.975899
 31
0.0
  0
LINE
  8
LC-002-002-----0
  6
CONTINUOUS
  5
24E
 10
253.788917
 20
389.486581
 30
0.0
 11
248.984063
 21
394.638947
 31
0.0
  0
ARC
  8
LC-002-002-----0
  6
CONTINUOUS
  5
24F
 10
253.57153
 20
389.286204
 30
0.0
 40
0.296443
 50
249.999864
 51
42.999864
  0
LINE
  8
LC-002-002-----0
  6
CONTINUOUS
  5
250
 10
253.470733
 20
389.005836
 30
0.0
 11
250.177543
 21
390.204384
 31
0.0
  0
ARC
  8
LC-002-002-----0
  6
CONTINUOUS
  5
251
 10
249.839597
 20
389.275827
 30
0.0
 40
0.988142
 50
70.001161
 51
180.001414
  0
LINE
  8
LC-002-002-----0
  6
CONTINUOUS
  5
252
 10
248.851469
 20
389.275805
 30
0.0
 11
248.851531
 21
386.763006
 31
0.0
  0
LINE
  8
LC-002-002-----0
  6
CONTINUOUS
  5
253
 10
241.735545
 20
402.474557
 30
0.0
 11
241.735545
 21
394.864417
 31
0.0
  0
ARC
  8
LC-009-002-RND-0
  6
CONTINUOUS
  5
254
 10
242.815395
 20
394.864417
 30
0.0
 40
1.07985
 50
180.0
 51
266.000003
  0
LINE
  8
LC-002-002-----0
  6
CONTINUOUS
  5
255
 10
242.740068
 20
393.787198
 30
0.0
 11
244.876927
 21
393.637774
 31
0.0
  0
LINE
  8
LC-002-002-----0
  6
CONTINUOUS
  5
256
 10
244.876927
 20
393.637774
 30
0.0
 11
244.876927
 21
399.617332
 31
0.0
  0
LINE
  8
LC-002-002-----0
  6
CONTINUOUS
  5
257
 10
246.59487
 20
399.617332
 30
0.0
 11
244.876927
 21
399.617332
 31
0.0
  0
LINE
  8
LC-002-002-----0
  6
CONTINUOUS
  5
258
 10
246.595398
 20
386.764914
 30
0.0
 11
248.851531
 21
386.764914
 31
0.0
  0
ARC
  8
LC-002-002-----0
  6
CONTINUOUS
  5
259
 10
249.345397
 20
394.97591
 30
0.0
 40
0.494071
 50
180.001297
 51
223.001161
  0
LINE
  8
LC-002-002-----0
  6
CONTINUOUS
  5
25A
 10
230.32
 20
403.276431
 30
0.0
 11
241.733705
 21
402.478308
 31
0.0
  0
LINE
  8
LC-002-002-----0
  6
CONTINUOUS
  5
25B
 10
426.904455
 20
402.474557
 30
0.0
 11
426.904455
 21
394.864417
 31
0.0
  0
ARC
  8
LC-009-002-RND-0
  6
CONTINUOUS
  5
25C
 10
425.824605
 20
394.864417
 30
0.0
 40
1.07985
 50
273.999997
 51
0.0
  0
LINE
  8
LC-002-002-----0
  6
CONTINUOUS
  5
25D
 10
425.899932
 20
393.787198
 30
0.0
 11
423.763073
 21
393.637774
 31
0.0
  0
LINE
  8
LC-002-002-----0
  6
CONTINUOUS
  5
25E
 10
423.763073
 20
393.637774
 30
0.0
 11
423.763073
 21
399.617332
 31
0.0
  0
LINE
  8
LC-002-002-----0
  6
CONTINUOUS
  5
25F
 10
422.04513
 20
399.617332
 30
0.0
 11
423.763073
 21
399.617332
 31
0.0
  0
LINE
  8
LC-002-002-----0
  6
CONTINUOUS
  5
260
 10
422.044602
 20
386.764914
 30
0.0
 11
419.788469
 21
386.764914
 31
0.0
  0
LINE
  8
LC-002-002-----0
  6
CONTINUOUS
  5
261
 10
419.788531
 20
389.275805
 30
0.0
 11
419.788469
 21
386.763006
 31
0.0
  0
ARC
  8
LC-002-002-----0
  6
CONTINUOUS
  5
262
 10
418.800403
 20
389.275827
 30
0.0
 40
0.988142
 50
359.998586
 51
109.998839
  0
LINE
  8
LC-002-002-----0
  6
CONTINUOUS
  5
263
 10
415.169267
 20
389.005836
 30
0.0
 11
418.462457
 21
390.204384
 31
0.0
  0
ARC
  8
LC-002-002-----0
  6
CONTINUOUS
  5
264
 10
415.06847
 20
389.286204
 30
0.0
 40
0.296443
 50
137.000136
 51
290.000136
  0
LINE
  8
LC-002-002-----0
  6
CONTINUOUS
  5
265
 10
414.851083
 20
389.486581
 30
0.0
 11
419.655937
 21
394.638947
 31
0.0
  0
ARC
  8
LC-002-002-----0
  6
CONTINUOUS
  5
266
 10
419.294603
 20
394.97591
 30
0.0
 40
0.494071
 50
316.998839
 51
359.998703
  0
LINE
  8
LC-002-002-----0
  6
CONTINUOUS
  5
267
 10
419.788704
 20
396.291638
 30
0.0
 11
419.788674
 21
394.975899
 31
0.0
  0
ARC
  8
LC-002-002-----0
  6
CONTINUOUS
  5
268
 10
418.800562
 20
396.291638
 30
0.0
 40
0.988142
 50
359.998586
 51
109.998839
  0
LINE
  8
LC-002-002-----0
  6
CONTINUOUS
  5
269
 10
415.169425
 20
396.021647
 30
0.0
 11
418.462616
 21
397.220194
 31
0.0
  0
ARC
  8
LC-002-002-----0
  6
CONTINUOUS
  5
26A
 10
415.06847
 20
396.302015
 30
0.0
 40
0.296443
 50
137.000136
 51
290.000136
  0
LINE
  8
LC-002-002-----0
  6
CONTINUOUS
  5
26B
 10
414.851241
 20
396.502391
 30
0.0
 11
419.791116
 21
401.799543
 31
0.0
  0
ARC
  8
LC-002-002-----0
  6
CONTINUOUS
  5
26C
 10
421.249222
 20
398.049315
 30
0.0
 40
4.023715
 50
93.998836
 51
111.246312
  0
LINE
  8
LC-002-002-----0
  6
CONTINUOUS
  5
26D
 10
438.282789
 20
403.276091
 30
0.0
 11
420.968475
 21
402.065358
 31
0.0
  0
LINE
  8
LC-002-002-----0
  6
DASHDOT
 62
     2
  5
26E
 10
334.32
 20
409.508246
 30
0.0
 11
334.32
 21
265.261852
 31
0.0
  0
LINE
  8
LC-002-002-----0
  6
CONTINUOUS
  5
26F
 10
411.267337
 20
379.286516
 30
0.0
 11
411.472787
 21
379.286516
 31
0.0
  0
LINE
  8
LC-002-002-----0
  6
CONTINUOUS
  5
270
 10
408.72
 20
369.463716
 30
0.0
 11
409.472749
 21
369.463716
 31
0.0
  0
ARC
  8
LC-009-002-RND-0
  6
CONTINUOUS
  5
271
 10
409.472749
 20
371.463716
 30
0.0
 40
2.0
 50
270.0
 51
359.99972
  0
LINE
  8
LC-002-002-----0
  6
CONTINUOUS
  5
272
 10
411.472787
 20
379.286516
 30
0.0
 11
411.472749
 21
371.463706
 31
0.0
  0
LINE
  8
LC-002-002-----0
  6
CONTINUOUS
  5
273
 10
408.72
 20
369.463716
 30
0.0
 11
259.167251
 21
369.463716
 31
0.0
  0
ARC
  8
LC-009-002-RND-0
  6
CONTINUOUS
  5
274
 10
259.167251
 20
371.463716
 30
0.0
 40
2.0
 50
180.00028
 51
270.0
  0
LINE
  8
LC-002-002-----0
  6
CONTINUOUS
  5
275
 10
257.167213
 20
379.286516
 30
0.0
 11
257.167251
 21
371.463706
 31
0.0
  0
LINE
  8
LC-002-002-----0
  6
CONTINUOUS
  5
276
 10
257.372663
 20
379.286516
 30
0.0
 11
257.167213
 21
379.286516
 31
0.0
  0
LINE
  8
LC-002-002-----0
  6
CONTINUOUS
  5
277
 10
260.961449
 20
81.768744
 30
0.0
 11
262.468124
 21
80.262069
 31
0.0
  0
LINE
  8
LC-002-002-----0
  6
CONTINUOUS
  5
278
 10
260.607808
 20
81.91519
 30
0.0
 11
260.572846
 21
81.915184
 31
0.0
  0
ARC
  8
LC-002-002-----0
  6
CONTINUOUS
  5
279
 10
262.821677
 20
93.115251
 30
0.0
 40
0.5
 50
225.0
 51
23.726263
  0
ARC
  8
LC-002-002-----0
  6
CONTINUOUS
  5
27A
 10
262.571677
 20
88.713568
 30
0.0
 40
7.0
 50
150.932725
 51
201.796223
  0
LINE
  8
LC-002-002-----0
  6
CONTINUOUS
  5
27B
 10
260.92024
 20
98.615246
 30
0.0
 11
257.700987
 21
98.614678
 31
0.0
  0
LINE
  8
LC-002-002-----0
  6
CONTINUOUS
  5
27C
 10
256.072105
 20
86.114422
 30
0.0
 11
256.073163
 21
80.11439
 31
0.0
  0
LINE
  8
LC-002-002-----0
  6
CONTINUOUS
  5
27D
 10
260.920282
 20
98.61515
 30
0.0
 11
407.825034
 21
98.61515
 31
0.0
  0
LINE
  8
LC-002-002-----0
  6
DASHDOT
 62
     2
  5
27E
 10
334.32
 20
98.61515
 30
0.0
 11
334.32
 21
80.115138
 31
0.0
  0
LINE
  8
LC-002-002-----0
  6
CONTINUOUS
  5
27F
 10
260.073163
 20
80.115138
 30
0.0
 11
408.566837
 21
80.115138
 31
0.0
  0
LINE
  8
LC-002-002-----0
  6
CONTINUOUS
  5
280
 10
263.279421
 20
87.316437
 30
0.0
 11
260.445371
 21
93.394077
 31
0.0
  0
ARC
  8
LC-002-002-----0
  6
CONTINUOUS
  5
281
 10
260.904737
 20
93.608283
 30
0.0
 40
0.506855
 50
45.0
 51
205.0
  0
LINE
  8
LC-002-002-----0
  6
CONTINUOUS
  5
282
 10
261.263138
 20
93.966684
 30
0.0
 11
262.468124
 21
92.761698
 31
0.0
  0
LINE
  8
LC-002-002-----0
  6
CONTINUOUS
  5
283
 10
263.279416
 20
93.316435
 30
0.0
 11
260.808549
 21
98.615226
 31
0.0
  0
ARC
  8
LC-002-002-----0
  6
CONTINUOUS
  5
284
 10
260.071677
 20
94.789782
 30
0.0
 40
4.5
 50
121.790849
 51
216.478736
  0
LINE
  8
LC-002-002-----0
  6
CONTINUOUS
  5
285
 10
408.566837
 20
80.115138
 30
0.0
 11
412.566837
 21
80.114432
 31
0.0
  0
LINE
  8
LC-002-002-----0
  6
CONTINUOUS
  5
286
 10
408.567066
 20
81.415096
 30
0.0
 11
408.566837
 21
80.115096
 31
0.0
  0
LINE
  8
LC-002-002-----0
  6
CONTINUOUS
  5
287
 10
405.360584
 20
80.816806
 30
0.0
 11
408.516213
 21
87.584075
 31
0.0
  0
LINE
  8
LC-002-002-----0
  6
CONTINUOUS
  5
288
 10
405.360579
 20
87.316437
 30
0.0
 11
408.194629
 21
93.394077
 31
0.0
  0
ARC
  8
LC-002-002-----0
  6
CONTINUOUS
  5
289
 10
405.818323
 20
80.615623
 30
0.0
 40
0.5
 50
156.273737
 51
315.0
  0
ARC
  8
LC-009-002-RND-0
  6
CONTINUOUS
  5
28A
 10
408.067066
 20
81.415184
 30
0.0
 40
0.5
 50
359.989892
 51
89.989892
  0
ARC
  8
LC-002-002-----0
  6
CONTINUOUS
  5
28B
 10
408.013372
 20
87.818554
 30
0.0
 40
0.554824
 50
335.0
 51
135.0
  0
ARC
  8
LC-009-002-RND-0
  6
CONTINUOUS
  5
28C
 10
408.032104
 20
81.41519
 30
0.0
 40
0.5
 50
89.989892
 51
135.0
  0
ARC
  8
LC-002-002-----0
  6
CONTINUOUS
  5
28D
 10
408.568323
 20
94.789782
 30
0.0
 40
4.5
 50
323.521264
 51
58.209151
  0
LINE
  8
LC-002-002-----0
  6
CONTINUOUS
  5
28E
 10
407.621052
 20
88.210874
 30
0.0
 11
406.171876
 21
86.761698
 31
0.0
  0
ARC
  8
LC-002-002-----0
  6
CONTINUOUS
  5
28F
 10
405.818323
 20
87.115251
 30
0.0
 40
0.5
 50
156.273737
 51
315.0
  0
LINE
  8
LC-002-002-----0
  6
CONTINUOUS
  5
290
 10
407.678551
 20
81.768744
 30
0.0
 11
406.171876
 21
80.262069
 31
0.0
  0
ARC
  8
LC-002-002-----0
  6
CONTINUOUS
  5
291
 10
407.735263
 20
93.608283
 30
0.0
 40
0.506855
 50
335.0
 51
135.0
  0
LINE
  8
LC-002-002-----0
  6
CONTINUOUS
  5
292
 10
408.032192
 20
81.91519
 30
0.0
 11
408.067154
 21
81.915184
 31
0.0
  0
ARC
  8
LC-002-002-----0
  6
CONTINUOUS
  5
293
 10
405.818323
 20
93.115251
 30
0.0
 40
0.5
 50
156.273737
 51
315.0
  0
LINE
  8
LC-002-002-----0
  6
CONTINUOUS
  5
294
 10
405.360584
 20
93.316435
 30
0.0
 11
407.831451
 21
98.615226
 31
0.0
  0
LINE
  8
LC-002-002-----0
  6
CONTINUOUS
  5
295
 10
407.376862
 20
93.966684
 30
0.0
 11
406.171876
 21
92.761698
 31
0.0
  0
ARC
  8
LC-002-002-----0
  6
CONTINUOUS
  5
296
 10
406.068323
 20
88.713568
 30
0.0
 40
7.0
 50
338.203777
 51
29.067275
  0
LINE
  8
LC-002-002-----0
  6
CONTINUOUS
  5
297
 10
407.71976
 20
98.615246
 30
0.0
 11
410.939013
 21
98.614678
 31
0.0
  0
LINE
  8
LC-002-002-----0
  6
CONTINUOUS
  5
298
 10
412.567895
 20
86.114422
 30
0.0
 11
412.566837
 21
80.11439
 31
0.0
  0
LINE
  8
LC-002-002-----0
  6
CONTINUOUS
  5
299
 10
261.018948
 20
88.210874
 30
0.0
 11
262.468124
 21
86.761698
 31
0.0
  0
LINE
  8
LC-002-002-----0
  6
CONTINUOUS
  5
29A
 10
260.072934
 20
81.415184
 30
0.0
 11
260.073163
 21
80.115096
 31
0.0
  0
ARC
  8
LC-002-002-----0
  6
CONTINUOUS
  5
29B
 10
260.626628
 20
87.818554
 30
0.0
 40
0.554824
 50
45.0
 51
205.0
  0
LINE
  8
LC-002-002-----0
  6
CONTINUOUS
  5
29C
 10
263.279416
 20
80.816806
 30
0.0
 11
260.123787
 21
87.584075
 31
0.0
  0
LINE
  8
LC-002-002-----0
  6
CONTINUOUS
  5
29D
 10
258.667494
 20
382.219256
 30
0.0
 11
258.367213
 21
382.219256
 31
0.0
  0
LINE
  8
LC-002-002-----0
  6
CONTINUOUS
  5
29E
 10
336.82
 20
401.9189
 30
0.0
 11
334.32
 21
401.9189
 31
0.0
  0
LINE
  8
LC-002-002-----0
  6
CONTINUOUS
  5
29F
 10
341.82
 20
382.919256
 30
0.0
 11
341.82
 21
385.419256
 31
0.0
  0
LINE
  8
LC-002-002-----0
  6
CONTINUOUS
  5
2A0
 10
412.82
 20
385.919256
 30
0.0
 11
409.82
 21
382.919256
 31
0.0
  0
LINE
  8
LC-002-002-----0
  6
CONTINUOUS
  5
2A1
 10
402.82
 20
382.919256
 30
0.0
 11
402.82
 21
385.419256
 31
0.0
  0
ARC
  8
LC-002-002-----0
  6
CONTINUOUS
  5
2A2
 10
397.819502
 20
399.9189
 30
0.0
 40
2.0
 50
90.0
 51
180.0
  0
LINE
  8
LC-002-002-----0
  6
CONTINUOUS
  5
2A3
 10
410.32
 20
401.9189
 30
0.0
 11
408.82
 21
401.9189
 31
0.0
  0
LINE
  8
LC-002-002-----0
  6
CONTINUOUS
  5
2A4
 10
410.32
 20
385.419256
 30
0.0
 11
410.32
 21
402.9189
 31
0.0
  0
ARC
  8
LC-009-002-RND-0
  6
CONTINUOUS
  5
2A5
 10
408.82
 20
399.9189
 30
0.0
 40
2.0
 50
90.0
 51
180.0
  0
LINE
  8
LC-002-002-----0
  6
CONTINUOUS
  5
2A6
 10
401.352311
 20
401.9189
 30
0.0
 11
397.819502
 21
401.9189
 31
0.0
  0
LINE
  8
LC-002-002-----0
  6
CONTINUOUS
  5
2A7
 10
401.352311
 20
385.419256
 30
0.0
 11
401.352311
 21
401.9189
 31
0.0
  0
LINE
  8
LC-002-002-----0
  6
CONTINUOUS
  5
2A8
 10
336.82
 20
385.419256
 30
0.0
 11
336.82
 21
401.9189
 31
0.0
  0
LINE
  8
LC-002-002-----0
  6
CONTINUOUS
  5
2A9
 10
398.319502
 20
385.419256
 30
0.0
 11
398.319502
 21
399.9189
 31
0.0
  0
LINE
  8
LC-002-002-----0
  6
CONTINUOUS
  5
2AA
 10
395.819502
 20
385.419256
 30
0.0
 11
395.819502
 21
399.9189
 31
0.0
  0
ARC
  8
LC-002-002-----0
  6
CONTINUOUS
  5
2AB
 10
400.319502
 20
399.9189
 30
0.0
 40
2.0
 50
90.0
 51
180.0
  0
LINE
  8
LC-002-002-----0
  6
CONTINUOUS
  5
2AC
 10
397.39274
 20
382.919256
 30
0.0
 11
397.39274
 21
385.419256
 31
0.0
  0
LINE
  8
LC-002-002-----0
  6
CONTINUOUS
  5
2AD
 10
389.89274
 20
382.919256
 30
0.0
 11
389.89274
 21
385.419256
 31
0.0
  0
LINE
  8
LC-002-002-----0
  6
CONTINUOUS
  5
2AE
 10
372.713505
 20
385.419256
 30
0.0
 11
372.713505
 21
399.9189
 31
0.0
  0
LINE
  8
LC-002-002-----0
  6
CONTINUOUS
  5
2AF
 10
375.065191
 20
382.919256
 30
0.0
 11
375.065191
 21
385.419256
 31
0.0
  0
LINE
  8
LC-002-002-----0
  6
CONTINUOUS
  5
2B0
 10
368.383378
 20
385.419256
 30
0.0
 11
368.383378
 21
399.9189
 31
0.0
  0
LINE
  8
LC-002-002-----0
  6
CONTINUOUS
  5
2B1
 10
374.464499
 20
401.9189
 30
0.0
 11
370.383378
 21
401.9189
 31
0.0
  0
ARC
  8
LC-002-002-----0
  6
CONTINUOUS
  5
2B2
 10
370.383378
 20
399.9189
 30
0.0
 40
2.0
 50
90.0
 51
180.0
  0
ARC
  8
LC-002-002-----0
  6
CONTINUOUS
  5
2B3
 10
374.713505
 20
399.9189
 30
0.0
 40
2.0
 50
97.096995
 51
180.0
  0
LINE
  8
LC-002-002-----0
  6
CONTINUOUS
  5
2B4
 10
374.464499
 20
385.419256
 30
0.0
 11
374.464499
 21
401.9189
 31
0.0
  0
LINE
  8
LC-002-002-----0
  6
CONTINUOUS
  5
2B5
 10
378.629705
 20
382.919256
 30
0.0
 11
378.629705
 21
385.419256
 31
0.0
  0
LINE
  8
LC-002-002-----0
  6
CONTINUOUS
  5
2B6
 10
362.074809
 20
382.919256
 30
0.0
 11
362.074809
 21
385.419256
 31
0.0
  0
LINE
  8
LC-002-002-----0
  6
CONTINUOUS
  5
2B7
 10
362.074809
 20
385.419256
 30
0.0
 11
378.629705
 21
385.419256
 31
0.0
  0
LINE
  8
LC-002-002-----0
  6
CONTINUOUS
  5
2B8
 10
389.89274
 20
385.419256
 30
0.0
 11
410.272787
 21
385.419256
 31
0.0
  0
LINE
  8
LC-002-002-----0
  6
CONTINUOUS
  5
2B9
 10
331.82
 20
401.9189
 30
0.0
 11
334.32
 21
401.9189
 31
0.0
  0
LINE
  8
LC-002-002-----0
  6
CONTINUOUS
  5
2BA
 10
326.82
 20
382.919256
 30
0.0
 11
326.82
 21
385.419256
 31
0.0
  0
LINE
  8
LC-002-002-----0
  6
CONTINUOUS
  5
2BB
 10
255.82
 20
385.919256
 30
0.0
 11
258.82
 21
382.919256
 31
0.0
  0
LINE
  8
LC-002-002-----0
  6
CONTINUOUS
  5
2BC
 10
265.82
 20
382.919256
 30
0.0
 11
265.82
 21
385.419256
 31
0.0
  0
ARC
  8
LC-002-002-----0
  6
CONTINUOUS
  5
2BD
 10
270.820498
 20
399.9189
 30
0.0
 40
2.0
 50
0.0
 51
90.0
  0
LINE
  8
LC-002-002-----0
  6
CONTINUOUS
  5
2BE
 10
258.32
 20
401.9189
 30
0.0
 11
259.82
 21
401.9189
 31
0.0
  0
LINE
  8
LC-002-002-----0
  6
CONTINUOUS
  5
2BF
 10
258.32
 20
385.419256
 30
0.0
 11
258.32
 21
402.9189
 31
0.0
  0
ARC
  8
LC-009-002-RND-0
  6
CONTINUOUS
  5
2C0
 10
259.82
 20
399.9189
 30
0.0
 40
2.0
 50
0.0
 51
90.0
  0
LINE
  8
LC-002-002-----0
  6
CONTINUOUS
  5
2C1
 10
267.287689
 20
401.9189
 30
0.0
 11
270.820498
 21
401.9189
 31
0.0
  0
LINE
  8
LC-002-002-----0
  6
CONTINUOUS
  5
2C2
 10
267.287689
 20
385.419256
 30
0.0
 11
267.287689
 21
401.9189
 31
0.0
  0
LINE
  8
LC-002-002-----0
  6
CONTINUOUS
  5
2C3
 10
331.82
 20
385.419256
 30
0.0
 11
331.82
 21
401.9189
 31
0.0
  0
LINE
  8
LC-002-002-----0
  6
CONTINUOUS
  5
2C4
 10
270.320498
 20
385.419256
 30
0.0
 11
270.320498
 21
399.9189
 31
0.0
  0
LINE
  8
LC-002-002-----0
  6
CONTINUOUS
  5
2C5
 10
272.820498
 20
385.419256
 30
0.0
 11
272.820498
 21
399.9189
 31
0.0
  0
ARC
  8
LC-002-002-----0
  6
CONTINUOUS
  5
2C6
 10
268.320498
 20
399.9189
 30
0.0
 40
2.0
 50
0.0
 51
90.0
  0
LINE
  8
LC-002-002-----0
  6
CONTINUOUS
  5
2C7
 10
271.24726
 20
382.919256
 30
0.0
 11
271.24726
 21
385.419256
 31
0.0
  0
LINE
  8
LC-002-002-----0
  6
CONTINUOUS
  5
2C8
 10
278.74726
 20
382.919256
 30
0.0
 11
278.74726
 21
385.419256
 31
0.0
  0
LINE
  8
LC-002-002-----0
  6
CONTINUOUS
  5
2C9
 10
295.926495
 20
385.419256
 30
0.0
 11
295.926495
 21
399.9189
 31
0.0
  0
LINE
  8
LC-002-002-----0
  6
CONTINUOUS
  5
2CA
 10
293.574809
 20
382.919256
 30
0.0
 11
293.574809
 21
385.419256
 31
0.0
  0
LINE
  8
LC-002-002-----0
  6
CONTINUOUS
  5
2CB
 10
300.256622
 20
385.419256
 30
0.0
 11
300.256622
 21
399.9189
 31
0.0
  0
LINE
  8
LC-002-002-----0
  6
CONTINUOUS
  5
2CC
 10
294.175501
 20
401.9189
 30
0.0
 11
298.256622
 21
401.9189
 31
0.0
  0
ARC
  8
LC-002-002-----0
  6
CONTINUOUS
  5
2CD
 10
298.256622
 20
399.9189
 30
0.0
 40
2.0
 50
0.0
 51
90.0
  0
ARC
  8
LC-002-002-----0
  6
CONTINUOUS
  5
2CE
 10
293.926495
 20
399.9189
 30
0.0
 40
2.0
 50
0.0
 51
82.903005
  0
LINE
  8
LC-002-002-----0
  6
CONTINUOUS
  5
2CF
 10
294.175501
 20
385.419256
 30
0.0
 11
294.175501
 21
401.9189
 31
0.0
  0
LINE
  8
LC-002-002-----0
  6
CONTINUOUS
  5
2D0
 10
290.010295
 20
382.919256
 30
0.0
 11
290.010295
 21
385.419256
 31
0.0
  0
LINE
  8
LC-002-002-----0
  6
CONTINUOUS
  5
2D1
 10
306.565191
 20
382.919256
 30
0.0
 11
306.565191
 21
385.419256
 31
0.0
  0
LINE
  8
LC-002-002-----0
  6
CONTINUOUS
  5
2D2
 10
306.565191
 20
385.419256
 30
0.0
 11
290.010295
 21
385.419256
 31
0.0
  0
LINE
  8
LC-002-002-----0
  6
CONTINUOUS
  5
2D3
 10
278.74726
 20
385.419256
 30
0.0
 11
258.367213
 21
385.419256
 31
0.0
  0
LINE
  8
LC-002-002-----0
  6
CONTINUOUS
  5
2D4
 10
334.920692
 20
385.419256
 30
0.0
 11
326.82
 21
385.419256
 31
0.0
  0
LINE
  8
LC-002-002-----0
  6
CONTINUOUS
  5
2D5
 10
261.82
 20
399.9189
 30
0.0
 11
261.82
 21
385.419256
 31
0.0
  0
LINE
  8
LC-002-002-----0
  6
CONTINUOUS
  5
2D6
 10
255.82
 20
402.9189
 30
0.0
 11
255.82
 21
385.919256
 31
0.0
  0
LINE
  8
LC-002-002-----0
  6
CONTINUOUS
  5
2D7
 10
264.07
 20
382.919256
 30
0.0
 11
334.32
 21
382.919256
 31
0.0
  0
LINE
  8
LC-002-002-----0
  6
CONTINUOUS
  5
2D8
 10
255.82
 20
402.9189
 30
0.0
 11
334.32
 21
402.9189
 31
0.0
  0
LINE
  8
LC-002-002-----0
  6
CONTINUOUS
  5
2D9
 10
264.07
 20
382.919256
 30
0.0
 11
258.82
 21
382.919256
 31
0.0
  0
LINE
  8
LC-002-002-----0
  6
CONTINUOUS
  5
2DA
 10
333.719308
 20
385.419256
 30
0.0
 11
341.82
 21
385.419256
 31
0.0
  0
LINE
  8
LC-002-002-----0
  6
CONTINUOUS
  5
2DB
 10
406.82
 20
399.9189
 30
0.0
 11
406.82
 21
385.419256
 31
0.0
  0
LINE
  8
LC-002-002-----0
  6
CONTINUOUS
  5
2DC
 10
412.82
 20
402.9189
 30
0.0
 11
412.82
 21
385.919256
 31
0.0
  0
LINE
  8
LC-002-002-----0
  6
CONTINUOUS
  5
2DD
 10
404.57
 20
382.919256
 30
0.0
 11
334.32
 21
382.919256
 31
0.0
  0
LINE
  8
LC-002-002-----0
  6
CONTINUOUS
  5
2DE
 10
412.82
 20
402.9189
 30
0.0
 11
334.32
 21
402.9189
 31
0.0
  0
LINE
  8
LC-002-002-----0
  6
CONTINUOUS
  5
2DF
 10
404.57
 20
382.919256
 30
0.0
 11
409.82
 21
382.919256
 31
0.0
  0
LINE
  8
LC-002-002-----0
  6
CONTINUOUS
  5
2E0
 10
406.82
 20
191.463716
 30
0.0
 11
405.480254
 21
186.463716
 31
0.0
  0
LINE
  8
LC-002-002-----0
  6
CONTINUOUS
  5
2E1
 10
403.72
 20
186.463716
 30
0.0
 11
405.480254
 21
186.463716
 31
0.0
  0
ENDSEC
  0
EOF
