  0
SECTION
  2
HEADER
  9
$ACADVER
  1
AC1009
  9
$INSBASE
 10
-121.662367
 20
75.871162
 30
0.0
  9
$EXTMIN
 10
-121.662367
 20
75.871162
 30
0.0
  9
$EXTMAX
 10
718.337633
 20
669.871162
 30
0.0
  9
$LIMMIN
 10
-121.662367
 20
75.871162
  9
$LIMMAX
 10
718.337633
 20
669.871162
  9
$ORTHOMODE
 70
     0
  9
$REGENMODE
 70
     1
  9
$FILLMODE
 70
     1
  9
$QTEXTMODE
 70
     0
  9
$MIRRTEXT
 70
     1
  9
$DRAGMODE
 70
     2
  9
$LTSCALE
 40
2.0
  9
$OSMODE
 70
     0
  9
$ATTMODE
 70
     1
  9
$TEXTSIZE
 40
0.2
  9
$TRACEWID
 40
0.05
  9
$TEXTSTYLE
  7
STANDARD
  9
$CLAYER
  8
0
  9
$CELTYPE
  6
BYLAYER
  9
$CECOLOR
 62
     7
  9
$DIMSCALE
 40
2.0
  9
$DIMASZ
 40
3.5
  9
$DIMEXO
 40
0.0625
  9
$DIMDLI
 40
0.38
  9
$DIMRND
 40
0.0
  9
$DIMDLE
 40
0.0
  9
$DIMEXE
 40
0.18
  9
$DIMTP
 40
0.0
  9
$DIMTM
 40
0.0
  9
$DIMTXT
 40
3.5
  9
$DIMCEN
 40
0.09
  9
$DIMTSZ
 40
0.0
  9
$DIMTOL
 70
     0
  9
$DIMLIM
 70
     0
  9
$DIMTIH
 70
     1
  9
$DIMTOH
 70
     1
  9
$DIMSE1
 70
     0
  9
$DIMSE2
 70
     0
  9
$DIMTAD
 70
     1
  9
$DIMZIN
 70
     0
  9
$DIMBLK
  1

  9
$DIMASO
 70
     1
  9
$DIMSHO
 70
     1
  9
$DIMPOST
  1

  9
$DIMAPOST
  1

  9
$DIMALT
 70
     0
  9
$DIMALTD
 70
     2
  9
$DIMALTF
 40
25.4
  9
$DIMLFAC
 40
1.0
  9
$DIMTOFL
 70
     0
  9
$DIMTVP
 40
0.0
  9
$DIMTIX
 70
     0
  9
$DIMSOXD
 70
     0
  9
$DIMSAH
 70
     0
  9
$DIMBLK1
  1

  9
$DIMBLK2
  1

  9
$DIMSTYLE
  2
STANDARD
  9
$DIMCLRD
 70
     0
  9
$DIMCLRE
 70
     0
  9
$DIMCLRT
 70
     0
  9
$DIMTFAC
 40
1.0
  9
$DIMGAP
 40
0.09
  9
$LUNITS
 70
     2
  9
$LUPREC
 70
     2
  9
$AXISMODE
 70
     0
  9
$AXISUNIT
 10
0.0
 20
0.0
  9
$SKETCHINC
 40
0.1
  9
$FILLETRAD
 40
0.0
  9
$AUNITS
 70
     0
  9
$AUPREC
 70
     0
  9
$MENU
  1
acad
  9
$ELEVATION
 40
0.0
  9
$PELEVATION
 40
0.0
  9
$THICKNESS
 40
0.0
  9
$LIMCHECK
 70
     0
  9
$BLIPMODE
 70
     1
  9
$CHAMFERA
 40
0.0
  9
$CHAMFERB
 40
0.0
  9
$SKPOLY
 70
     0
  9
$TDCREATE
 40
0.000000000
  9
$TDUPDATE
 40
0.000000000
  9
$TDINDWG
 40
0.0000000000
  9
$TDUSRTIMER
 40
0.0000000000
  9
$USRTIMER
 70
     1
  9
$ANGBASE
 50
0.0
  9
$ANGDIR
 70
     0
  9
$PDMODE
 70
     0
  9
$PDSIZE
 40
0.0
  9
$PLINEWID
 40
0.0
  9
$COORDS
 70
     0
  9
$SPLFRAME
 70
     0
  9
$SPLINETYPE
 70
     6
  9
$SPLINESEGS
 70
     8
  9
$ATTDIA
 70
     0
  9
$ATTREQ
 70
     1
  9
$HANDLING
 70
     1
  9
$HANDSEED
  5
8A5
  9
$SURFTAB1
 70
     6
  9
$SURFTAB2
 70
     6
  9
$SURFTYPE
 70
     6
  9
$SURFU
 70
     6
  9
$SURFV
 70
     6
  9
$UCSNAME
  2

  9
$UCSORG
 10
0.0
 20
0.0
 30
0.0
  9
$UCSXDIR
 10
1.0
 20
0.0
 30
0.0
  9
$UCSYDIR
 10
0.0
 20
1.0
 30
0.0
  9
$PUCSNAME
  2

  9
$PUCSORG
 10
0.0
 20
0.0
 30
0.0
  9
$PUCSXDIR
 10
1.0
 20
0.0
 30
0.0
  9
$PUCSYDIR
 10
0.0
 20
1.0
 30
0.0
  9
$USERI1
 70
     0
  9
$USERI2
 70
     0
  9
$USERI3
 70
     0
  9
$USERI4
 70
     0
  9
$USERI5
 70
     0
  9
$USERR1
 40
0.0
  9
$USERR2
 40
0.0
  9
$USERR3
 40
0.0
  9
$USERR4
 40
0.0
  9
$USERR5
 40
0.0
  9
$WORLDVIEW
 70
     1
  9
$SHADEDGE
 70
     3
  9
$SHADEDIF
 70
    70
  9
$TILEMODE
 70
     1
  9
$MAXACTVP
 70
    16
  9
$PINSBASE
 10
0.0
 20
0.0
 30
0.0
  9
$PLIMCHECK
 70
     0
  9
$PEXTMIN
 10
1.000000E+20
 20
1.000000E+20
 30
1.000000E+20
  9
$PEXTMAX
 10
-1.000000E+20
 20
-1.000000E+20
 30
-1.000000E+20
  9
$PLIMMIN
 10
-121.662367
 20
75.871162
  9
$PLIMMAX
 10
718.337633
 20
669.871162
  9
$UNITMODE
 70
     0
  9
$VISRETAIN
 70
     0
  9
$PLINEGEN
 70
     1
  9
$PSLTSCALE
 70
     0
  9
$TREEDEPTH
 70
  3020
  9
$DWGCODEPAGE
  3
dos850
  0
ENDSEC
  0
SECTION
  2
TABLES
  0
TABLE
  2
VPORT
 70
     1
  0
VPORT
  2
*ACTIVE
 70
     0
 10
0.0
 20
0.0
 11
1.0
 21
1.0
 12
420.0
 22
297.0
 13
0.0
 23
0.0
 14
1.0
 24
1.0
 15
0.0
 25
0.0
 16
0.0
 26
0.0
 36
1.0
 17
-121.662367
 27
75.871162
 37
0.0
 40
594.0
 41
1.604229
 42
50.0
 43
0.0
 44
0.0
 50
0.0
 51
0.0
 71
     0
 72
   100
 73
     1
 74
     1
 75
     0
 76
     0
 77
     0
 78
     0
  0
ENDTAB
  0
TABLE
  2
LTYPE
 70
     3
  0
LTYPE
  2
CONTINUOUS
 70
    64
  3
Solid line
 72
    65
 73
     0
 40
0.0
  0
LTYPE
  2
DASHED
 70
    64
  3
__ __ __ __ __
 72
    65
 73
     2
 40
6.25
 49
5.0
 49
-1.25
  0
LTYPE
  2
DASHDOT
 70
    64
  3
__ . __ . __ . __ . __
 72
    65
 73
     4
 40
7.5
 49
5.0
 49
-1.25
 49
0.0
 49
-1.25
  0
ENDTAB
  0
TABLE
  2
LAYER
 70
    17
  0
LAYER
  2
0
 70
     0
 62
     7
  6
CONTINUOUS
  0
LAYER
  2
LC-INFO-1-2-MM-A3-0
 70
     1
 62
    -1
  6
CONTINUOUS
  0
LAYER
  2
LC-007-003-MTH-0
 70
     0
 62
     2
  6
CONTINUOUS
  0
LAYER
  2
LC-008-003-MTG-0
 70
     0
 62
     2
  6
CONTINUOUS
  0
LAYER
  2
LC-006-003-----0
 70
     0
 62
     2
  6
CONTINUOUS
  0
LAYER
  2
LC-009-005-----0
 70
     0
 62
     2
  6
CONTINUOUS
  0
LAYER
  2
LC-010-000-----0
 70
     0
 62
     7
  6
CONTINUOUS
  0
LAYER
  2
LC-001-000-----0
 70
     0
 62
     7
  6
CONTINUOUS
  0
LAYER
  2
LC-002-002-----0
 70
     0
 62
     1
  6
CONTINUOUS
  0
LAYER
  2
LC-003-207-----0
 70
     0
 62
     1
  6
CONTINUOUS
  0
LAYER
  2
LC-004-207-RND-0
 70
     0
 62
     1
  6
CONTINUOUS
  0
LAYER
  2
LC-005-002-RND-0
 70
     0
 62
     1
  6
CONTINUOUS
  0
LAYER
  2
LC-012-209-----0
 70
     0
 62
     1
  6
CONTINUOUS
  0
LAYER
  2
LC-013-208-----0
 70
     0
 62
     1
  6
CONTINUOUS
  0
LAYER
  2
LC-014-205-----0
 70
     0
 62
     1
  6
CONTINUOUS
  0
LAYER
  2
LC-015-205-RND-0
 70
     0
 62
     1
  6
CONTINUOUS
  0
LAYER
  2
LC-000
 70
     0
 62
     7
  6
CONTINUOUS
  0
ENDTAB
  0
TABLE
  2
STYLE
 70
     5
  0
STYLE
  2
STANDARD
 70
     0
 40
0.0
 41
1.0
 50
0.0
 71
     0
 42
0.0
  3
txt
  4

  0
STYLE
  2
LC-STANDARD
 70
    64
 40
0.0
 41
1.0
 50
0.0
 71
     0
 42
3.5
  3
MONOTXT
  4

  0
STYLE
  2
LC-TXTSTYLE-150-400-0-0-A2
 70
    64
 40
0.0
 41
1.0
 50
15.0
 71
     0
 42
3.5
  3
MONOTXT
  4

  0
STYLE
  2
LC-TXTSTYLE-0-400-0-0-DIN3
 70
    64
 40
0.0
 41
1.0
 50
0.0
 71
     0
 42
3.5
  3
MONOTXT
  4

  0
STYLE
  2
LC-TXTSTYLE-150-400-0-0-D4
 70
    64
 40
0.0
 41
1.0
 50
15.0
 71
     0
 42
3.5
  3
LC-STANDARD
  4

  0
ENDTAB
  0
TABLE
  2
VIEW
 70
     0
  0
ENDTAB
  0
TABLE
  2
UCS
 70
     0
  0
ENDTAB
  0
TABLE
  2
APPID
 70
     1
  0
APPID
  2
ACAD
 70
     0
  0
ENDTAB
  0
TABLE
  2
DIMSTYLE
 70
     4
  0
DIMSTYLE
  2
STANDARD
 70
     0
  3

  4

  5

  6

  7

 40
1.0
 41
0.18
 42
0.0625
 43
0.38
 44
0.18
 45
0.0
 46
0.0
 47
0.0
 48
0.0
 71
     0
 72
     0
 73
     1
 74
     1
 75
     0
 76
     0
 77
     0
 78
     0
140
0.18
141
0.09
142
0.0
143
25.4
144
1.0
145
0.0
146
1.0
147
0.09
170
     0
171
     2
172
     0
173
     0
174
     0
175
     0
176
     0
177
     0
178
     0
  0
DIMSTYLE
  2
LC-STANDARD
 70
     0
  3

  4

  5

  6

  7

 40
1.0
 41
3.5
 42
0.0
 43
7.5
 44
1.8
 45
0.0
 46
0.0
 47
0.0
 48
0.0
 71
     0
 72
     0
 73
     0
 74
     0
 75
     0
 76
     0
 77
     1
 78
     8
140
3.5
141
0.0
142
0.0
143
25.4
144
1.0
145
0.0
146
0.71
147
1.5
170
     0
171
     2
172
     1
173
     0
174
     0
175
     0
176
     0
177
     0
178
     3
  0
DIMSTYLE
  2
LC-DIM-L-0140-02-02
 70
     0
  3

  4

  5

  6

  7

 40
2.0
 41
3.5
 42
0.0
 43
7.5
 44
1.8
 45
0.0
 46
0.0
 47
0.0
 48
0.0
 71
     0
 72
     0
 73
     0
 74
     0
 75
     0
 76
     0
 77
     1
 78
     8
140
14.0
141
0.0
142
0.0
143
25.4
144
1.0
145
0.0
146
0.71
147
1.5
170
     0
171
     2
172
     0
173
     0
174
     0
175
     0
176
     2
177
     2
178
     8
  0
DIMSTYLE
  2
LC-DIM-W-0140-02-02
 70
     0
  3

  4

  5

  6

  7

 40
2.0
 41
3.5
 42
0.0
 43
7.5
 44
1.8
 45
0.0
 46
0.0
 47
0.0
 48
0.0
 71
     0
 72
     0
 73
     0
 74
     0
 75
     0
 76
     0
 77
     1
 78
     8
140
14.0
141
0.0
142
0.0
143
25.4
144
1.0
145
0.0
146
0.71
147
1.5
170
     0
171
     2
172
     0
173
     0
174
     0
175
     0
176
     2
177
     2
178
     8
  0
ENDTAB
  0
ENDSEC
  0
SECTION
  2
BLOCKS
  0
BLOCK
  8
0
  5
25
  2
*D0
 70
    65
 10
0.0
 20
0.0
 30
0.0
  3
*D0
  0
LINE
  8
LC-007-003-MTH-0
  6
CONTINUOUS
  5
27
 10
152.560914
 20
357.276134
 30
0.0
 11
22.4
 21
357.276134
 31
0.0
  0
LINE
  8
LC-007-003-MTH-0
  6
CONTINUOUS
  5
28
 10
66.060914
 20
468.959407
 30
0.0
 11
22.4
 21
468.959407
 31
0.0
  0
LINE
  8
LC-008-003-MTG-0
  6
CONTINUOUS
  5
2A
 10
39.2
 20
357.276134
 30
0.0
 11
39.2
 21
468.959407
 31
0.0
  0
LINE
  8
LC-006-003-----0
  6
CONTINUOUS
  5
2C
 10
35.545267
 20
385.036591
 30
0.0
 11
39.2
 21
357.276134
 31
0.0
  0
LINE
  8
LC-006-003-----0
  6
CONTINUOUS
  5
2D
 10
39.2
 20
357.276134
 30
0.0
 11
42.854733
 21
385.036591
 31
0.0
  0
LINE
  8
LC-006-003-----0
  6
CONTINUOUS
  5
2E
 10
42.854733
 20
385.036591
 30
0.0
 11
35.545267
 21
385.036591
 31
0.0
  0
LINE
  8
LC-006-003-----0
  6
CONTINUOUS
  5
2F
 10
36.495497
 20
385.098872
 30
0.0
 11
39.2
 21
364.556134
 31
0.0
  0
LINE
  8
LC-006-003-----0
  6
CONTINUOUS
  5
30
 10
39.2
 20
364.556134
 30
0.0
 11
41.904503
 21
385.098872
 31
0.0
  0
LINE
  8
LC-006-003-----0
  6
CONTINUOUS
  5
31
 10
37.445728
 20
385.161153
 30
0.0
 11
39.2
 21
371.836134
 31
0.0
  0
LINE
  8
LC-006-003-----0
  6
CONTINUOUS
  5
32
 10
39.2
 20
371.836134
 30
0.0
 11
40.954272
 21
385.161153
 31
0.0
  0
LINE
  8
LC-006-003-----0
  6
CONTINUOUS
  5
33
 10
38.395959
 20
385.223435
 30
0.0
 11
39.2
 21
379.116134
 31
0.0
  0
LINE
  8
LC-006-003-----0
  6
CONTINUOUS
  5
34
 10
39.2
 20
379.116134
 30
0.0
 11
40.004041
 21
385.223435
 31
0.0
  0
LINE
  8
LC-006-003-----0
  6
CONTINUOUS
  5
35
 10
42.854733
 20
441.198951
 30
0.0
 11
39.2
 21
468.959407
 31
0.0
  0
LINE
  8
LC-006-003-----0
  6
CONTINUOUS
  5
36
 10
39.2
 20
468.959407
 30
0.0
 11
35.545267
 21
441.198951
 31
0.0
  0
LINE
  8
LC-006-003-----0
  6
CONTINUOUS
  5
37
 10
35.545267
 20
441.198951
 30
0.0
 11
42.854733
 21
441.198951
 31
0.0
  0
LINE
  8
LC-006-003-----0
  6
CONTINUOUS
  5
38
 10
41.904503
 20
441.13667
 30
0.0
 11
39.2
 21
461.679407
 31
0.0
  0
LINE
  8
LC-006-003-----0
  6
CONTINUOUS
  5
39
 10
39.2
 20
461.679407
 30
0.0
 11
36.495497
 21
441.13667
 31
0.0
  0
LINE
  8
LC-006-003-----0
  6
CONTINUOUS
  5
3A
 10
40.954272
 20
441.074388
 30
0.0
 11
39.2
 21
454.399407
 31
0.0
  0
LINE
  8
LC-006-003-----0
  6
CONTINUOUS
  5
3B
 10
39.2
 20
454.399407
 30
0.0
 11
37.445728
 21
441.074388
 31
0.0
  0
LINE
  8
LC-006-003-----0
  6
CONTINUOUS
  5
3C
 10
40.004041
 20
441.012107
 30
0.0
 11
39.2
 21
447.119407
 31
0.0
  0
LINE
  8
LC-006-003-----0
  6
CONTINUOUS
  5
3D
 10
39.2
 20
447.119407
 30
0.0
 11
38.395959
 21
441.012107
 31
0.0
  0
TEXT
  8
LC-006-003-----0
  6
CONTINUOUS
 62
     8
  5
3F
 10
31.372446
 20
387.702151
 30
0.0
 40
28.0
  1
110
 50
90.0
 41
0.9
 51
15.0
  7
LC-TXTSTYLE-150-400-0-0-D0
 72
     1
 11
31.372446
 21
417.465931
 31
0.0
  0
ENDBLK
  8
0
  5
40
  0
BLOCK
  8
0
  5
42
  2
*D1
 70
    65
 10
0.0
 20
0.0
 30
0.0
  3
*D1
  0
LINE
  8
LC-007-003-MTH-0
  6
CONTINUOUS
  5
43
 10
217.060914
 20
360.276134
 30
0.0
 11
217.060914
 21
296.8
 31
0.0
  0
LINE
  8
LC-007-003-MTH-0
  6
CONTINUOUS
  5
44
 10
451.759187
 20
380.928145
 30
0.0
 11
451.759187
 21
296.8
 31
0.0
  0
LINE
  8
LC-008-003-MTG-0
  6
CONTINUOUS
  5
45
 10
217.060914
 20
313.6
 30
0.0
 11
451.759187
 21
313.6
 31
0.0
  0
LINE
  8
LC-006-003-----0
  6
CONTINUOUS
  5
46
 10
244.82137
 20
317.254733
 30
0.0
 11
217.060914
 21
313.6
 31
0.0
  0
LINE
  8
LC-006-003-----0
  6
CONTINUOUS
  5
47
 10
217.060914
 20
313.6
 30
0.0
 11
244.82137
 21
309.945267
 31
0.0
  0
LINE
  8
LC-006-003-----0
  6
CONTINUOUS
  5
48
 10
244.82137
 20
309.945267
 30
0.0
 11
244.82137
 21
317.254733
 31
0.0
  0
LINE
  8
LC-006-003-----0
  6
CONTINUOUS
  5
49
 10
244.883652
 20
316.304503
 30
0.0
 11
224.340914
 21
313.6
 31
0.0
  0
LINE
  8
LC-006-003-----0
  6
CONTINUOUS
  5
4A
 10
224.340914
 20
313.6
 30
0.0
 11
244.883652
 21
310.895497
 31
0.0
  0
LINE
  8
LC-006-003-----0
  6
CONTINUOUS
  5
4B
 10
244.945933
 20
315.354272
 30
0.0
 11
231.620914
 21
313.6
 31
0.0
  0
LINE
  8
LC-006-003-----0
  6
CONTINUOUS
  5
4C
 10
231.620914
 20
313.6
 30
0.0
 11
244.945933
 21
311.845728
 31
0.0
  0
LINE
  8
LC-006-003-----0
  6
CONTINUOUS
  5
4D
 10
245.008215
 20
314.404041
 30
0.0
 11
238.900914
 21
313.6
 31
0.0
  0
LINE
  8
LC-006-003-----0
  6
CONTINUOUS
  5
4E
 10
238.900914
 20
313.6
 30
0.0
 11
245.008215
 21
312.795959
 31
0.0
  0
LINE
  8
LC-006-003-----0
  6
CONTINUOUS
  5
4F
 10
423.99873
 20
309.945267
 30
0.0
 11
451.759187
 21
313.6
 31
0.0
  0
LINE
  8
LC-006-003-----0
  6
CONTINUOUS
  5
50
 10
451.759187
 20
313.6
 30
0.0
 11
423.99873
 21
317.254733
 31
0.0
  0
LINE
  8
LC-006-003-----0
  6
CONTINUOUS
  5
51
 10
423.99873
 20
317.254733
 30
0.0
 11
423.99873
 21
309.945267
 31
0.0
  0
LINE
  8
LC-006-003-----0
  6
CONTINUOUS
  5
52
 10
423.936449
 20
310.895497
 30
0.0
 11
444.479187
 21
313.6
 31
0.0
  0
LINE
  8
LC-006-003-----0
  6
CONTINUOUS
  5
53
 10
444.479187
 20
313.6
 30
0.0
 11
423.936449
 21
316.304503
 31
0.0
  0
LINE
  8
LC-006-003-----0
  6
CONTINUOUS
  5
54
 10
423.874168
 20
311.845728
 30
0.0
 11
437.199187
 21
313.6
 31
0.0
  0
LINE
  8
LC-006-003-----0
  6
CONTINUOUS
  5
55
 10
437.199187
 20
313.6
 30
0.0
 11
423.874168
 21
315.354272
 31
0.0
  0
LINE
  8
LC-006-003-----0
  6
CONTINUOUS
  5
56
 10
423.811886
 20
312.795959
 30
0.0
 11
429.919187
 21
313.6
 31
0.0
  0
LINE
  8
LC-006-003-----0
  6
CONTINUOUS
  5
57
 10
429.919187
 20
313.6
 30
0.0
 11
423.811886
 21
314.404041
 31
0.0
  0
TEXT
  8
LC-006-003-----0
  6
CONTINUOUS
 62
     8
  5
58
 10
264.461455
 20
321.427554
 30
0.0
 40
28.0
  1
235
 51
15.0
  7
LC-TXTSTYLE-150-400-0-0-D0
 72
     1
 11
294.225234
 21
321.427554
 31
0.0
  0
ENDBLK
  8
0
  5
59
  0
BLOCK
  8
0
  5
5B
  2
*X2
 70
    65
 10
322.624303
 20
369.770141
 30
0.0
  3
*X2
  0
LINE
  8
LC-009-005-----0
  6
CONTINUOUS
  5
5D
 10
326.624038
 20
425.737577
 30
0.0
 11
324.59174
 21
427.769876
 31
0.0
  0
LINE
  8
LC-009-005-----0
  6
DASHED
  5
5F
 10
325.540731
 20
423.992457
 30
0.0
 11
322.846619
 21
426.686569
 31
0.0
  0
LINE
  8
LC-009-005-----0
  6
DASHED
  5
60
 10
324.326545
 20
423.79243
 30
0.0
 11
322.646592
 21
425.472382
 31
0.0
  0
LINE
  8
LC-009-005-----0
  6
DASHED
  5
61
 10
326.609642
 20
372.011857
 30
0.0
 11
324.86602
 21
373.75548
 31
0.0
  0
LINE
  8
LC-009-005-----0
  6
DASHED
  5
62
 10
326.38528
 20
370.822006
 30
0.0
 11
323.676168
 21
373.531118
 31
0.0
  0
LINE
  8
LC-009-005-----0
  6
CONTINUOUS
  5
63
 10
324.608657
 20
369.770202
 30
0.0
 11
322.624364
 21
371.754495
 31
0.0
  0
ENDBLK
  8
0
  5
64
  0
BLOCK
  8
0
  5
66
  2
*X3
 70
    65
 10
278.54094
 20
369.26204
 30
0.0
  3
*X3
  0
LINE
  8
LC-009-005-----0
  6
CONTINUOUS
  5
67
 10
333.373574
 20
421.054815
 30
0.0
 11
333.622035
 21
421.303276
 31
0.0
  0
LINE
  8
LC-009-005-----0
  6
CONTINUOUS
  5
68
 10
330.545147
 20
421.054815
 30
0.0
 11
332.634683
 21
423.144351
 31
0.0
  0
LINE
  8
LC-009-005-----0
  6
CONTINUOUS
  5
69
 10
327.71672
 20
421.054815
 30
0.0
 11
330.90087
 21
424.238965
 31
0.0
  0
LINE
  8
LC-009-005-----0
  6
CONTINUOUS
  5
6A
 10
324.888293
 20
421.054815
 30
0.0
 11
329.060898
 21
425.22742
 31
0.0
  0
LINE
  8
LC-009-005-----0
  6
CONTINUOUS
  5
6B
 10
322.059866
 20
421.054815
 30
0.0
 11
324.759406
 21
423.754355
 31
0.0
  0
LINE
  8
LC-009-005-----0
  6
CONTINUOUS
  5
6C
 10
326.624303
 20
425.619252
 30
0.0
 11
327.107709
 21
426.102659
 31
0.0
  0
LINE
  8
LC-009-005-----0
  6
CONTINUOUS
  5
6D
 10
319.231439
 20
421.054815
 30
0.0
 11
322.125761
 21
423.949137
 31
0.0
  0
LINE
  8
LC-009-005-----0
  6
CONTINUOUS
  5
6E
 10
367.067148
 20
468.890524
 30
0.0
 11
368.060914
 21
469.884291
 31
0.0
  0
LINE
  8
LC-009-005-----0
  6
CONTINUOUS
  5
6F
 10
316.403012
 20
421.054815
 30
0.0
 11
322.125761
 21
426.777564
 31
0.0
  0
LINE
  8
LC-009-005-----0
  6
CONTINUOUS
  5
70
 10
364.028068
 20
468.679872
 30
0.0
 11
367.259233
 21
471.911037
 31
0.0
  0
LINE
  8
LC-009-005-----0
  6
CONTINUOUS
  5
71
 10
313.574584
 20
421.054815
 30
0.0
 11
320.448814
 21
427.929044
 31
0.0
  0
LINE
  8
LC-009-005-----0
  6
CONTINUOUS
  5
72
 10
360.988988
 20
468.469219
 30
0.0
 11
364.220153
 21
471.700384
 31
0.0
  0
LINE
  8
LC-009-005-----0
  6
CONTINUOUS
  5
73
 10
310.746157
 20
421.054815
 30
0.0
 11
317.894341
 21
428.202999
 31
0.0
  0
LINE
  8
LC-009-005-----0
  6
CONTINUOUS
  5
74
 10
357.949908
 20
468.258566
 30
0.0
 11
361.181073
 21
471.489731
 31
0.0
  0
LINE
  8
LC-009-005-----0
  6
CONTINUOUS
  5
75
 10
307.91773
 20
421.054815
 30
0.0
 11
315.110662
 21
428.247747
 31
0.0
  0
LINE
  8
LC-009-005-----0
  6
CONTINUOUS
  5
76
 10
354.910828
 20
468.047913
 30
0.0
 11
358.141993
 21
471.279078
 31
0.0
  0
LINE
  8
LC-009-005-----0
  6
CONTINUOUS
  5
77
 10
305.089303
 20
421.054815
 30
0.0
 11
312.023324
 21
427.988836
 31
0.0
  0
LINE
  8
LC-009-005-----0
  6
CONTINUOUS
  5
78
 10
351.871748
 20
467.83726
 30
0.0
 11
355.102913
 21
471.068425
 31
0.0
  0
LINE
  8
LC-009-005-----0
  6
CONTINUOUS
  5
79
 10
302.260876
 20
421.054815
 30
0.0
 11
308.488014
 21
427.281954
 31
0.0
  0
LINE
  8
LC-009-005-----0
  6
CONTINUOUS
  5
7A
 10
348.832668
 20
467.626607
 30
0.0
 11
352.063833
 21
470.857772
 31
0.0
  0
LINE
  8
LC-009-005-----0
  6
CONTINUOUS
  5
7B
 10
299.432449
 20
421.054815
 30
0.0
 11
304.136263
 21
425.75863
 31
0.0
  0
LINE
  8
LC-009-005-----0
  6
CONTINUOUS
  5
7C
 10
345.793588
 20
467.415954
 30
0.0
 11
349.024753
 21
470.647119
 31
0.0
  0
LINE
  8
LC-009-005-----0
  6
CONTINUOUS
  5
7D
 10
296.604022
 20
421.054815
 30
0.0
 11
299.303147
 21
423.75394
 31
0.0
  0
LINE
  8
LC-009-005-----0
  6
CONTINUOUS
  5
7E
 10
342.754507
 20
467.205301
 30
0.0
 11
345.985673
 21
470.436466
 31
0.0
  0
LINE
  8
LC-009-005-----0
  6
CONTINUOUS
  5
7F
 10
293.775595
 20
421.054815
 30
0.0
 11
296.47472
 21
423.75394
 31
0.0
  0
LINE
  8
LC-009-005-----0
  6
CONTINUOUS
  5
80
 10
339.715427
 20
466.994648
 30
0.0
 11
342.946593
 21
470.225813
 31
0.0
  0
LINE
  8
LC-009-005-----0
  6
CONTINUOUS
  5
81
 10
290.947167
 20
421.054815
 30
0.0
 11
293.646293
 21
423.75394
 31
0.0
  0
LINE
  8
LC-009-005-----0
  6
CONTINUOUS
  5
82
 10
336.676347
 20
466.783995
 30
0.0
 11
339.907513
 21
470.01516
 31
0.0
  0
LINE
  8
LC-009-005-----0
  6
CONTINUOUS
  5
83
 10
288.11874
 20
421.054815
 30
0.0
 11
290.817866
 21
423.75394
 31
0.0
  0
LINE
  8
LC-009-005-----0
  6
CONTINUOUS
  5
84
 10
332.724441
 20
465.660516
 30
0.0
 11
336.868433
 21
469.804508
 31
0.0
  0
LINE
  8
LC-009-005-----0
  6
CONTINUOUS
  5
85
 10
285.290313
 20
421.054815
 30
0.0
 11
287.989438
 21
423.75394
 31
0.0
  0
LINE
  8
LC-009-005-----0
  6
CONTINUOUS
  5
86
 10
297.699495
 20
433.463997
 30
0.0
 11
301.771369
 21
437.535871
 31
0.0
  0
LINE
  8
LC-009-005-----0
  6
CONTINUOUS
  5
87
 10
328.540742
 20
464.305244
 30
0.0
 11
333.829353
 21
469.593855
 31
0.0
  0
LINE
  8
LC-009-005-----0
  6
CONTINUOUS
  5
88
 10
282.461886
 20
421.054815
 30
0.0
 11
285.161011
 21
423.75394
 31
0.0
  0
LINE
  8
LC-009-005-----0
  6
CONTINUOUS
  5
89
 10
294.871068
 20
433.463997
 30
0.0
 11
304.237341
 21
442.83027
 31
0.0
  0
LINE
  8
LC-009-005-----0
  6
CONTINUOUS
  5
8A
 10
325.368615
 20
463.961544
 30
0.0
 11
330.790273
 21
469.383202
 31
0.0
  0
LINE
  8
LC-009-005-----0
  6
CONTINUOUS
  5
8B
 10
279.633459
 20
421.054815
 30
0.0
 11
282.332584
 21
423.75394
 31
0.0
  0
LINE
  8
LC-009-005-----0
  6
CONTINUOUS
  5
8C
 10
282.819341
 20
424.240697
 30
0.0
 11
284.284214
 21
425.705571
 31
0.0
  0
LINE
  8
LC-009-005-----0
  6
CONTINUOUS
  5
8D
 10
292.042641
 20
433.463997
 30
0.0
 11
306.060914
 21
447.482271
 31
0.0
  0
LINE
  8
LC-009-005-----0
  6
CONTINUOUS
  5
8E
 10
322.327535
 20
463.748892
 30
0.0
 11
327.046167
 21
468.467523
 31
0.0
  0
LINE
  8
LC-009-005-----0
  6
CONTINUOUS
  5
8F
 10
278.540941
 20
422.790725
 30
0.0
 11
284.560914
 21
428.810698
 31
0.0
  0
LINE
  8
LC-009-005-----0
  6
CONTINUOUS
  5
90
 10
289.214214
 20
433.463997
 30
0.0
 11
292.218565
 21
436.468348
 31
0.0
  0
LINE
  8
LC-009-005-----0
  6
CONTINUOUS
  5
91
 10
294.619589
 20
438.869372
 30
0.0
 11
300.912756
 21
445.162539
 31
0.0
  0
LINE
  8
LC-009-005-----0
  6
CONTINUOUS
  5
92
 10
303.810207
 20
448.059991
 30
0.0
 11
306.060914
 21
450.310698
 31
0.0
  0
LINE
  8
LC-009-005-----0
  6
CONTINUOUS
  5
93
 10
310.234605
 20
454.484389
 30
0.0
 11
310.865934
 21
455.115717
 31
0.0
  0
LINE
  8
LC-009-005-----0
  6
CONTINUOUS
  5
94
 10
319.286455
 20
463.536239
 30
0.0
 11
322.732783
 21
466.982567
 31
0.0
  0
LINE
  8
LC-009-005-----0
  6
CONTINUOUS
  5
95
 10
278.54094
 20
425.61915
 30
0.0
 11
279.194376
 21
426.272586
 31
0.0
  0
LINE
  8
LC-009-005-----0
  6
CONTINUOUS
  5
96
 10
281.239909
 20
428.318119
 30
0.0
 11
289.390138
 21
436.468348
 31
0.0
  0
LINE
  8
LC-009-005-----0
  6
CONTINUOUS
  5
97
 10
294.917443
 20
441.995653
 30
0.0
 11
298.084328
 21
445.162539
 31
0.0
  0
LINE
  8
LC-009-005-----0
  6
CONTINUOUS
  5
98
 10
303.810207
 20
450.888418
 30
0.0
 11
306.066471
 21
453.144682
 31
0.0
  0
LINE
  8
LC-009-005-----0
  6
CONTINUOUS
  5
99
 10
306.955641
 20
454.033851
 30
0.0
 11
312.310914
 21
459.389125
 31
0.0
  0
LINE
  8
LC-009-005-----0
  6
CONTINUOUS
  5
9A
 10
316.245375
 20
463.323586
 30
0.0
 11
319.509902
 21
466.588112
 31
0.0
  0
LINE
  8
LC-009-005-----0
  6
CONTINUOUS
  5
9B
 10
281.239909
 20
431.146546
 30
0.0
 11
286.561711
 21
436.468348
 31
0.0
  0
LINE
  8
LC-009-005-----0
  6
CONTINUOUS
  5
9C
 10
293.990309
 20
443.896947
 30
0.0
 11
294.383861
 21
444.290498
 31
0.0
  0
LINE
  8
LC-009-005-----0
  6
CONTINUOUS
  5
9D
 10
303.810207
 20
453.716845
 30
0.0
 11
307.172251
 21
457.078889
 31
0.0
  0
LINE
  8
LC-009-005-----0
  6
CONTINUOUS
  5
9E
 10
308.908826
 20
458.815463
 30
0.0
 11
311.310914
 21
461.217552
 31
0.0
  0
LINE
  8
LC-009-005-----0
  6
CONTINUOUS
  5
9F
 10
313.204295
 20
463.110933
 30
0.0
 11
316.459828
 21
466.366465
 31
0.0
  0
LINE
  8
LC-009-005-----0
  6
CONTINUOUS
  5
A0
 10
281.239909
 20
433.974973
 30
0.0
 11
283.733284
 21
436.468348
 31
0.0
  0
LINE
  8
LC-009-005-----0
  6
CONTINUOUS
  5
A1
 10
303.810207
 20
456.545272
 30
0.0
 11
305.810207
 21
458.545272
 31
0.0
  0
LINE
  8
LC-009-005-----0
  6
CONTINUOUS
  5
A2
 10
308.908826
 20
461.64389
 30
0.0
 11
313.409753
 21
466.144818
 31
0.0
  0
LINE
  8
LC-009-005-----0
  6
CONTINUOUS
  5
A3
 10
303.810207
 20
459.373699
 30
0.0
 11
305.810207
 21
461.373699
 31
0.0
  0
LINE
  8
LC-009-005-----0
  6
CONTINUOUS
  5
A4
 10
308.908826
 20
464.472317
 30
0.0
 11
310.359679
 21
465.923171
 31
0.0
  0
LINE
  8
LC-009-005-----0
  6
CONTINUOUS
  5
A5
 10
304.310207
 20
462.702126
 30
0.0
 11
304.871473
 21
463.263392
 31
0.0
  0
ENDBLK
  8
0
  5
A6
  0
BLOCK
  8
0
  5
A8
  2
BLK1
 70
    64
 10
0.0
 20
0.0
 30
0.0
  3
BLK1
  0
ENDBLK
  8
0
  5
A9
  0
BLOCK
  8
0
  5
AB
  2
BLK2
 70
    64
 10
0.0
 20
0.0
 30
0.0
  3
BLK2
  0
ENDBLK
  8
0
  5
AC
  0
BLOCK
  8
0
  5
AE
  2
*D6
 70
    65
 10
0.0
 20
0.0
 30
0.0
  3
*D6
  0
LINE
  8
LC-007-003-MTH-0
  6
CONTINUOUS
  5
AF
 10
66.060914
 20
471.966605
 30
0.0
 11
66.060914
 21
565.6
 31
0.0
  0
LINE
  8
LC-007-003-MTH-0
  6
CONTINUOUS
  5
B0
 10
368.060914
 20
471.966605
 30
0.0
 11
368.060914
 21
565.6
 31
0.0
  0
LINE
  8
LC-008-003-MTG-0
  6
CONTINUOUS
  5
B1
 10
66.060914
 20
548.8
 30
0.0
 11
368.060914
 21
548.8
 31
0.0
  0
LINE
  8
LC-006-003-----0
  6
CONTINUOUS
  5
B2
 10
93.82137
 20
552.454733
 30
0.0
 11
66.060914
 21
548.8
 31
0.0
  0
LINE
  8
LC-006-003-----0
  6
CONTINUOUS
  5
B3
 10
66.060914
 20
548.8
 30
0.0
 11
93.82137
 21
545.145267
 31
0.0
  0
LINE
  8
LC-006-003-----0
  6
CONTINUOUS
  5
B4
 10
93.82137
 20
545.145267
 30
0.0
 11
93.82137
 21
552.454733
 31
0.0
  0
LINE
  8
LC-006-003-----0
  6
CONTINUOUS
  5
B5
 10
93.883652
 20
551.504503
 30
0.0
 11
73.340914
 21
548.8
 31
0.0
  0
LINE
  8
LC-006-003-----0
  6
CONTINUOUS
  5
B6
 10
73.340914
 20
548.8
 30
0.0
 11
93.883652
 21
546.095497
 31
0.0
  0
LINE
  8
LC-006-003-----0
  6
CONTINUOUS
  5
B7
 10
93.945933
 20
550.554272
 30
0.0
 11
80.620914
 21
548.8
 31
0.0
  0
LINE
  8
LC-006-003-----0
  6
CONTINUOUS
  5
B8
 10
80.620914
 20
548.8
 30
0.0
 11
93.945933
 21
547.045728
 31
0.0
  0
LINE
  8
LC-006-003-----0
  6
CONTINUOUS
  5
B9
 10
94.008215
 20
549.604041
 30
0.0
 11
87.900914
 21
548.8
 31
0.0
  0
LINE
  8
LC-006-003-----0
  6
CONTINUOUS
  5
BA
 10
87.900914
 20
548.8
 30
0.0
 11
94.008215
 21
547.995959
 31
0.0
  0
LINE
  8
LC-006-003-----0
  6
CONTINUOUS
  5
BB
 10
340.300458
 20
545.145267
 30
0.0
 11
368.060914
 21
548.8
 31
0.0
  0
LINE
  8
LC-006-003-----0
  6
CONTINUOUS
  5
BC
 10
368.060914
 20
548.8
 30
0.0
 11
340.300458
 21
552.454733
 31
0.0
  0
LINE
  8
LC-006-003-----0
  6
CONTINUOUS
  5
BD
 10
340.300458
 20
552.454733
 30
0.0
 11
340.300458
 21
545.145267
 31
0.0
  0
LINE
  8
LC-006-003-----0
  6
CONTINUOUS
  5
BE
 10
340.238177
 20
546.095497
 30
0.0
 11
360.780914
 21
548.8
 31
0.0
  0
LINE
  8
LC-006-003-----0
  6
CONTINUOUS
  5
BF
 10
360.780914
 20
548.8
 30
0.0
 11
340.238177
 21
551.504503
 31
0.0
  0
LINE
  8
LC-006-003-----0
  6
CONTINUOUS
  5
C0
 10
340.175895
 20
547.045728
 30
0.0
 11
353.500914
 21
548.8
 31
0.0
  0
LINE
  8
LC-006-003-----0
  6
CONTINUOUS
  5
C1
 10
353.500914
 20
548.8
 30
0.0
 11
340.175895
 21
550.554272
 31
0.0
  0
LINE
  8
LC-006-003-----0
  6
CONTINUOUS
  5
C2
 10
340.113614
 20
547.995959
 30
0.0
 11
346.220914
 21
548.8
 31
0.0
  0
LINE
  8
LC-006-003-----0
  6
CONTINUOUS
  5
C3
 10
346.220914
 20
548.8
 30
0.0
 11
340.113614
 21
549.604041
 31
0.0
  0
TEXT
  8
LC-006-003-----0
  6
CONTINUOUS
 62
     8
  5
C4
 10
183.311437
 20
556.627554
 30
0.0
 40
28.0
  1
Ø300
 51
15.0
  7
LC-TXTSTYLE-150-400-0-0-D0
 72
     1
 11
221.409074
 21
556.627554
 31
0.0
  0
ENDBLK
  8
0
  5
C5
  0
BLOCK
  8
0
  5
C7
  2
BLK3
 70
    64
 10
0.0
 20
0.0
 30
0.0
  3
BLK3
  0
ENDBLK
  8
0
  5
C8
  0
BLOCK
  8
0
  5
CA
  2
*D8
 70
    65
 10
0.0
 20
0.0
 30
0.0
  3
*D8
  0
LINE
  8
LC-007-003-MTH-0
  6
CONTINUOUS
  5
CB
 10
385.222484
 20
398.76204
 30
0.0
 11
496.8
 21
398.76204
 31
0.0
  0
LINE
  8
LC-007-003-MTH-0
  6
CONTINUOUS
  5
CC
 10
368.060914
 20
468.959407
 30
0.0
 11
496.8
 21
468.959407
 31
0.0
  0
LINE
  8
LC-008-003-MTG-0
  6
CONTINUOUS
  5
CD
 10
480.0
 20
398.76204
 30
0.0
 11
480.0
 21
468.959407
 31
0.0
  0
LINE
  8
LC-006-003-----0
  6
CONTINUOUS
  5
CE
 10
476.345267
 20
426.522497
 30
0.0
 11
480.0
 21
398.76204
 31
0.0
  0
LINE
  8
LC-006-003-----0
  6
CONTINUOUS
  5
CF
 10
480.0
 20
398.76204
 30
0.0
 11
483.654733
 21
426.522497
 31
0.0
  0
LINE
  8
LC-006-003-----0
  6
CONTINUOUS
  5
D0
 10
483.654733
 20
426.522497
 30
0.0
 11
476.345267
 21
426.522497
 31
0.0
  0
LINE
  8
LC-006-003-----0
  6
CONTINUOUS
  5
D1
 10
477.295497
 20
426.584778
 30
0.0
 11
480.0
 21
406.04204
 31
0.0
  0
LINE
  8
LC-006-003-----0
  6
CONTINUOUS
  5
D2
 10
480.0
 20
406.04204
 30
0.0
 11
482.704503
 21
426.584778
 31
0.0
  0
LINE
  8
LC-006-003-----0
  6
CONTINUOUS
  5
D3
 10
478.245728
 20
426.647059
 30
0.0
 11
480.0
 21
413.32204
 31
0.0
  0
LINE
  8
LC-006-003-----0
  6
CONTINUOUS
  5
D4
 10
480.0
 20
413.32204
 30
0.0
 11
481.754272
 21
426.647059
 31
0.0
  0
LINE
  8
LC-006-003-----0
  6
CONTINUOUS
  5
D5
 10
479.195959
 20
426.709341
 30
0.0
 11
480.0
 21
420.60204
 31
0.0
  0
LINE
  8
LC-006-003-----0
  6
CONTINUOUS
  5
D6
 10
480.0
 20
420.60204
 30
0.0
 11
480.804041
 21
426.709341
 31
0.0
  0
LINE
  8
LC-006-003-----0
  6
CONTINUOUS
  5
D7
 10
483.654733
 20
441.198951
 30
0.0
 11
480.0
 21
468.959407
 31
0.0
  0
LINE
  8
LC-006-003-----0
  6
CONTINUOUS
  5
D8
 10
480.0
 20
468.959407
 30
0.0
 11
476.345267
 21
441.198951
 31
0.0
  0
LINE
  8
LC-006-003-----0
  6
CONTINUOUS
  5
D9
 10
476.345267
 20
441.198951
 30
0.0
 11
483.654733
 21
441.198951
 31
0.0
  0
LINE
  8
LC-006-003-----0
  6
CONTINUOUS
  5
DA
 10
482.704503
 20
441.13667
 30
0.0
 11
480.0
 21
461.679407
 31
0.0
  0
LINE
  8
LC-006-003-----0
  6
CONTINUOUS
  5
DB
 10
480.0
 20
461.679407
 30
0.0
 11
477.295497
 21
441.13667
 31
0.0
  0
LINE
  8
LC-006-003-----0
  6
CONTINUOUS
  5
DC
 10
481.754272
 20
441.074388
 30
0.0
 11
480.0
 21
454.399407
 31
0.0
  0
LINE
  8
LC-006-003-----0
  6
CONTINUOUS
  5
DD
 10
480.0
 20
454.399407
 30
0.0
 11
478.245728
 21
441.074388
 31
0.0
  0
LINE
  8
LC-006-003-----0
  6
CONTINUOUS
  5
DE
 10
480.804041
 20
441.012107
 30
0.0
 11
480.0
 21
447.119407
 31
0.0
  0
LINE
  8
LC-006-003-----0
  6
CONTINUOUS
  5
DF
 10
480.0
 20
447.119407
 30
0.0
 11
479.195959
 21
441.012107
 31
0.0
  0
TEXT
  8
LC-006-003-----0
  6
CONTINUOUS
 62
     8
  5
E0
 10
472.172446
 20
427.669779
 30
0.0
 40
28.0
  1
70
 50
90.0
 51
15.0
  7
LC-TXTSTYLE-150-400-0-0-D0
 72
     1
 11
472.172446
 21
446.123322
 31
0.0
  0
ENDBLK
  8
0
  5
E1
  0
BLOCK
  8
0
  5
E3
  2
*X9
 70
    65
 10
322.958873
 20
365.86204
 30
0.0
  3
*X9
  0
LINE
  8
LC-009-005-----0
  6
CONTINUOUS
  5
E4
 10
457.29728
 20
403.557165
 30
0.0
 11
457.976544
 21
404.236428
 31
0.0
  0
LINE
  8
LC-009-005-----0
  6
CONTINUOUS
  5
E5
 10
455.033322
 20
404.121633
 30
0.0
 11
456.211786
 21
405.300098
 31
0.0
  0
LINE
  8
LC-009-005-----0
  6
CONTINUOUS
  5
E6
 10
452.769363
 20
404.686102
 30
0.0
 11
454.354463
 21
406.271202
 31
0.0
  0
LINE
  8
LC-009-005-----0
  6
CONTINUOUS
  5
E7
 10
450.505404
 20
405.25057
 30
0.0
 11
452.123753
 21
406.868919
 31
0.0
  0
LINE
  8
LC-009-005-----0
  6
CONTINUOUS
  5
E8
 10
460.734284
 20
415.47945
 30
0.0
 11
461.082372
 21
415.827538
 31
0.0
  0
LINE
  8
LC-009-005-----0
  6
CONTINUOUS
  5
E9
 10
448.241445
 20
405.815038
 30
0.0
 11
449.893043
 21
407.466636
 31
0.0
  0
LINE
  8
LC-009-005-----0
  6
CONTINUOUS
  5
EA
 10
458.470325
 20
416.043918
 30
0.0
 11
459.671168
 21
417.244761
 31
0.0
  0
LINE
  8
LC-009-005-----0
  6
CONTINUOUS
  5
EB
 10
445.977486
 20
406.379507
 30
0.0
 11
447.662333
 21
408.064353
 31
0.0
  0
LINE
  8
LC-009-005-----0
  6
CONTINUOUS
  5
EC
 10
456.206366
 20
416.608387
 30
0.0
 11
457.878017
 21
418.280038
 31
0.0
  0
LINE
  8
LC-009-005-----0
  6
CONTINUOUS
  5
ED
 10
443.713528
 20
406.943975
 30
0.0
 11
445.431622
 21
408.66207
 31
0.0
  0
LINE
  8
LC-009-005-----0
  6
CONTINUOUS
  5
EE
 10
453.942408
 20
417.172855
 30
0.0
 11
455.678655
 21
418.909102
 31
0.0
  0
LINE
  8
LC-009-005-----0
  6
CONTINUOUS
  5
EF
 10
441.449569
 20
407.508443
 30
0.0
 11
443.200912
 21
409.259787
 31
0.0
  0
LINE
  8
LC-009-005-----0
  6
CONTINUOUS
  5
F0
 10
451.678449
 20
417.737323
 30
0.0
 11
453.447944
 21
419.506819
 31
0.0
  0
LINE
  8
LC-009-005-----0
  6
CONTINUOUS
  5
F1
 10
439.18561
 20
408.072912
 30
0.0
 11
440.970202
 21
409.857504
 31
0.0
  0
LINE
  8
LC-009-005-----0
  6
CONTINUOUS
  5
F2
 10
449.41449
 20
418.301792
 30
0.0
 11
451.217234
 21
420.104536
 31
0.0
  0
LINE
  8
LC-009-005-----0
  6
CONTINUOUS
  5
F3
 10
436.921651
 20
408.63738
 30
0.0
 11
438.739492
 21
410.455221
 31
0.0
  0
LINE
  8
LC-009-005-----0
  6
CONTINUOUS
  5
F4
 10
447.150531
 20
418.86626
 30
0.0
 11
448.986524
 21
420.702253
 31
0.0
  0
LINE
  8
LC-009-005-----0
  6
CONTINUOUS
  5
F5
 10
434.657692
 20
409.201848
 30
0.0
 11
436.508782
 21
411.052938
 31
0.0
  0
LINE
  8
LC-009-005-----0
  6
CONTINUOUS
  5
F6
 10
444.886572
 20
419.430728
 30
0.0
 11
446.755814
 21
421.29997
 31
0.0
  0
LINE
  8
LC-009-005-----0
  6
CONTINUOUS
  5
F7
 10
432.393734
 20
409.766317
 30
0.0
 11
434.278072
 21
411.650655
 31
0.0
  0
LINE
  8
LC-009-005-----0
  6
CONTINUOUS
  5
F8
 10
442.622614
 20
419.995197
 30
0.0
 11
444.525104
 21
421.897687
 31
0.0
  0
LINE
  8
LC-009-005-----0
  6
CONTINUOUS
  5
F9
 10
430.129775
 20
410.330785
 30
0.0
 11
432.047362
 21
412.248372
 31
0.0
  0
LINE
  8
LC-009-005-----0
  6
CONTINUOUS
  5
FA
 10
440.358655
 20
420.559665
 30
0.0
 11
442.294394
 21
422.495404
 31
0.0
  0
LINE
  8
LC-009-005-----0
  6
CONTINUOUS
  5
FB
 10
427.865816
 20
410.895253
 30
0.0
 11
429.816651
 21
412.846089
 31
0.0
  0
LINE
  8
LC-009-005-----0
  6
CONTINUOUS
  5
FC
 10
438.094696
 20
421.124133
 30
0.0
 11
440.063684
 21
423.093121
 31
0.0
  0
LINE
  8
LC-009-005-----0
  6
CONTINUOUS
  5
FD
 10
425.601857
 20
411.459722
 30
0.0
 11
427.585941
 21
413.443806
 31
0.0
  0
LINE
  8
LC-009-005-----0
  6
CONTINUOUS
  5
FE
 10
435.830737
 20
421.688601
 30
0.0
 11
437.832973
 21
423.690838
 31
0.0
  0
LINE
  8
LC-009-005-----0
  6
CONTINUOUS
  5
FF
 10
423.337899
 20
412.02419
 30
0.0
 11
425.355231
 21
414.041523
 31
0.0
  0
LINE
  8
LC-009-005-----0
  6
CONTINUOUS
  5
100
 10
433.566778
 20
422.25307
 30
0.0
 11
435.602263
 21
424.288555
 31
0.0
  0
LINE
  8
LC-009-005-----0
  6
CONTINUOUS
  5
101
 10
421.07394
 20
412.588658
 30
0.0
 11
423.124521
 21
414.63924
 31
0.0
  0
LINE
  8
LC-009-005-----0
  6
CONTINUOUS
  5
102
 10
431.30282
 20
422.817538
 30
0.0
 11
433.371553
 21
424.886272
 31
0.0
  0
LINE
  8
LC-009-005-----0
  6
CONTINUOUS
  5
103
 10
418.809981
 20
413.153127
 30
0.0
 11
420.893811
 21
415.236957
 31
0.0
  0
LINE
  8
LC-009-005-----0
  6
CONTINUOUS
  5
104
 10
429.038861
 20
423.382006
 30
0.0
 11
431.140843
 21
425.483989
 31
0.0
  0
LINE
  8
LC-009-005-----0
  6
CONTINUOUS
  5
105
 10
416.546022
 20
413.717595
 30
0.0
 11
418.663101
 21
415.834674
 31
0.0
  0
LINE
  8
LC-009-005-----0
  6
CONTINUOUS
  5
106
 10
426.774902
 20
423.946475
 30
0.0
 11
428.910133
 21
426.081706
 31
0.0
  0
LINE
  8
LC-009-005-----0
  6
CONTINUOUS
  5
107
 10
414.282063
 20
414.282063
 30
0.0
 11
416.432391
 21
416.432391
 31
0.0
  0
LINE
  8
LC-009-005-----0
  6
CONTINUOUS
  5
108
 10
424.510943
 20
424.510943
 30
0.0
 11
426.679423
 21
426.679423
 31
0.0
  0
LINE
  8
LC-009-005-----0
  6
CONTINUOUS
  5
109
 10
412.018105
 20
414.846532
 30
0.0
 11
414.20168
 21
417.030108
 31
0.0
  0
LINE
  8
LC-009-005-----0
  6
CONTINUOUS
  5
10A
 10
422.246984
 20
425.075411
 30
0.0
 11
424.448713
 21
427.27714
 31
0.0
  0
LINE
  8
LC-009-005-----0
  6
CONTINUOUS
  5
10B
 10
409.754146
 20
415.411
 30
0.0
 11
411.97097
 21
417.627825
 31
0.0
  0
LINE
  8
LC-009-005-----0
  6
CONTINUOUS
  5
10C
 10
419.983026
 20
425.63988
 30
0.0
 11
422.218002
 21
427.874857
 31
0.0
  0
LINE
  8
LC-009-005-----0
  6
CONTINUOUS
  5
10D
 10
407.490187
 20
415.975468
 30
0.0
 11
409.74026
 21
418.225542
 31
0.0
  0
LINE
  8
LC-009-005-----0
  6
CONTINUOUS
  5
10E
 10
417.719067
 20
426.204348
 30
0.0
 11
419.987292
 21
428.472574
 31
0.0
  0
LINE
  8
LC-009-005-----0
  6
CONTINUOUS
  5
10F
 10
405.226228
 20
416.539937
 30
0.0
 11
407.50955
 21
418.823259
 31
0.0
  0
LINE
  8
LC-009-005-----0
  6
CONTINUOUS
  5
110
 10
415.455108
 20
426.768816
 30
0.0
 11
417.756582
 21
429.070291
 31
0.0
  0
LINE
  8
LC-009-005-----0
  6
CONTINUOUS
  5
111
 10
402.962269
 20
417.104405
 30
0.0
 11
405.27884
 21
419.420976
 31
0.0
  0
LINE
  8
LC-009-005-----0
  6
CONTINUOUS
  5
112
 10
413.191149
 20
427.333285
 30
0.0
 11
415.525872
 21
429.668008
 31
0.0
  0
LINE
  8
LC-009-005-----0
  6
CONTINUOUS
  5
113
 10
400.698311
 20
417.668873
 30
0.0
 11
403.04813
 21
420.018692
 31
0.0
  0
LINE
  8
LC-009-005-----0
  6
CONTINUOUS
  5
114
 10
410.92719
 20
427.897753
 30
0.0
 11
413.295162
 21
430.265725
 31
0.0
  0
LINE
  8
LC-009-005-----0
  6
CONTINUOUS
  5
115
 10
398.434352
 20
418.233342
 30
0.0
 11
400.81742
 21
420.616409
 31
0.0
  0
LINE
  8
LC-009-005-----0
  6
CONTINUOUS
  5
116
 10
408.663232
 20
428.462221
 30
0.0
 11
411.064452
 21
430.863442
 31
0.0
  0
LINE
  8
LC-009-005-----0
  6
CONTINUOUS
  5
117
 10
396.170393
 20
418.79781
 30
0.0
 11
398.586709
 21
421.214126
 31
0.0
  0
LINE
  8
LC-009-005-----0
  6
CONTINUOUS
  5
118
 10
403.64186
 20
426.269277
 30
0.0
 11
408.833742
 21
431.461159
 31
0.0
  0
LINE
  8
LC-009-005-----0
  6
CONTINUOUS
  5
119
 10
393.906434
 20
419.362278
 30
0.0
 11
396.355999
 21
421.811843
 31
0.0
  0
LINE
  8
LC-009-005-----0
  6
CONTINUOUS
  5
11A
 10
396.94973
 20
422.405574
 30
0.0
 11
404.818036
 21
430.27388
 31
0.0
  0
LINE
  8
LC-009-005-----0
  6
CONTINUOUS
  5
11B
 10
391.642475
 20
419.926747
 30
0.0
 11
398.125906
 21
426.410177
 31
0.0
  0
LINE
  8
LC-009-005-----0
  6
CONTINUOUS
  5
11C
 10
389.378517
 20
420.491215
 30
0.0
 11
392.649342
 21
423.76204
 31
0.0
  0
LINE
  8
LC-009-005-----0
  6
CONTINUOUS
  5
11D
 10
387.114558
 20
421.055683
 30
0.0
 11
389.820915
 21
423.76204
 31
0.0
  0
LINE
  8
LC-009-005-----0
  6
CONTINUOUS
  5
11E
 10
384.662488
 20
421.43204
 30
0.0
 11
386.992488
 21
423.76204
 31
0.0
  0
LINE
  8
LC-009-005-----0
  6
CONTINUOUS
  5
11F
 10
381.834061
 20
421.43204
 30
0.0
 11
384.164061
 21
423.76204
 31
0.0
  0
LINE
  8
LC-009-005-----0
  6
CONTINUOUS
  5
120
 10
379.005634
 20
421.43204
 30
0.0
 11
381.335634
 21
423.76204
 31
0.0
  0
LINE
  8
LC-009-005-----0
  6
CONTINUOUS
  5
121
 10
376.177206
 20
421.43204
 30
0.0
 11
378.507206
 21
423.76204
 31
0.0
  0
LINE
  8
LC-009-005-----0
  6
CONTINUOUS
  5
122
 10
374.010737
 20
422.093998
 30
0.0
 11
376.559162
 21
424.642423
 31
0.0
  0
LINE
  8
LC-009-005-----0
  6
CONTINUOUS
  5
123
 10
372.366479
 20
423.278167
 30
0.0
 11
374.942999
 21
425.854687
 31
0.0
  0
LINE
  8
LC-009-005-----0
  6
CONTINUOUS
  5
124
 10
370.620496
 20
424.360611
 30
0.0
 11
373.237098
 21
426.977213
 31
0.0
  0
LINE
  8
LC-009-005-----0
  6
CONTINUOUS
  5
125
 10
368.767646
 20
425.336188
 30
0.0
 11
371.43794
 21
428.006482
 31
0.0
  0
LINE
  8
LC-009-005-----0
  6
CONTINUOUS
  5
126
 10
366.800583
 20
426.197553
 30
0.0
 11
369.540591
 21
428.937561
 31
0.0
  0
LINE
  8
LC-009-005-----0
  6
CONTINUOUS
  5
127
 10
364.709049
 20
426.934446
 30
0.0
 11
367.538353
 21
429.76375
 31
0.0
  0
LINE
  8
LC-009-005-----0
  6
CONTINUOUS
  5
128
 10
362.478716
 20
427.53254
 30
0.0
 11
365.422218
 21
430.476042
 31
0.0
  0
LINE
  8
LC-009-005-----0
  6
CONTINUOUS
  5
129
 10
360.089211
 20
427.971462
 30
0.0
 11
363.180022
 21
431.062273
 31
0.0
  0
LINE
  8
LC-009-005-----0
  6
CONTINUOUS
  5
12A
 10
357.510527
 20
428.221205
 30
0.0
 11
360.795064
 21
431.505742
 31
0.0
  0
LINE
  8
LC-009-005-----0
  6
CONTINUOUS
  5
12B
 10
354.695887
 20
428.234992
 30
0.0
 11
358.222935
 21
431.76204
 31
0.0
  0
LINE
  8
LC-009-005-----0
  6
CONTINUOUS
  5
12C
 10
351.56553
 20
427.933063
 30
0.0
 11
355.394508
 21
431.76204
 31
0.0
  0
LINE
  8
LC-009-005-----0
  6
CONTINUOUS
  5
12D
 10
348.491127
 20
427.687086
 30
0.0
 11
352.566081
 21
431.76204
 31
0.0
  0
LINE
  8
LC-009-005-----0
  6
CONTINUOUS
  5
12E
 10
348.099533
 20
430.123919
 30
0.0
 11
349.737654
 21
431.76204
 31
0.0
  0
ENDBLK
  8
0
  5
12F
  0
BLOCK
  8
0
  5
131
  2
*X10
 70
    65
 10
322.958873
 20
345.716584
 30
0.0
  3
*X10
  0
LINE
  8
LC-009-005-----0
  6
CONTINUOUS
  5
132
 10
441.883106
 20
345.716584
 30
0.0
 11
442.447401
 21
346.280879
 31
0.0
  0
LINE
  8
LC-009-005-----0
  6
CONTINUOUS
  5
133
 10
439.054679
 20
345.716584
 30
0.0
 11
440.554814
 21
347.216719
 31
0.0
  0
LINE
  8
LC-009-005-----0
  6
CONTINUOUS
  5
134
 10
436.661604
 20
346.151936
 30
0.0
 11
438.356689
 21
347.847021
 31
0.0
  0
LINE
  8
LC-009-005-----0
  6
CONTINUOUS
  5
135
 10
434.430894
 20
346.749653
 30
0.0
 11
436.158564
 21
348.477323
 31
0.0
  0
LINE
  8
LC-009-005-----0
  6
CONTINUOUS
  5
136
 10
445.471898
 20
357.790657
 30
0.0
 11
445.553229
 21
357.871989
 31
0.0
  0
LINE
  8
LC-009-005-----0
  6
CONTINUOUS
  5
137
 10
432.200184
 20
347.34737
 30
0.0
 11
433.960439
 21
349.107625
 31
0.0
  0
LINE
  8
LC-009-005-----0
  6
CONTINUOUS
  5
138
 10
442.643471
 20
357.790657
 30
0.0
 11
443.985209
 21
359.132395
 31
0.0
  0
LINE
  8
LC-009-005-----0
  6
CONTINUOUS
  5
139
 10
429.969474
 20
347.945087
 30
0.0
 11
431.762314
 21
349.737927
 31
0.0
  0
LINE
  8
LC-009-005-----0
  6
CONTINUOUS
  5
13A
 10
440.216506
 20
358.192119
 30
0.0
 11
441.787084
 21
359.762697
 31
0.0
  0
LINE
  8
LC-009-005-----0
  6
CONTINUOUS
  5
13B
 10
427.738764
 20
348.542804
 30
0.0
 11
429.564189
 21
350.36823
 31
0.0
  0
LINE
  8
LC-009-005-----0
  6
CONTINUOUS
  5
13C
 10
437.985796
 20
358.789836
 30
0.0
 11
439.588959
 21
360.392999
 31
0.0
  0
LINE
  8
LC-009-005-----0
  6
CONTINUOUS
  5
13D
 10
425.508054
 20
349.140521
 30
0.0
 11
427.366064
 21
350.998532
 31
0.0
  0
LINE
  8
LC-009-005-----0
  6
CONTINUOUS
  5
13E
 10
435.755086
 20
359.387553
 30
0.0
 11
437.390834
 21
361.023302
 31
0.0
  0
LINE
  8
LC-009-005-----0
  6
CONTINUOUS
  5
13F
 10
423.277344
 20
349.738238
 30
0.0
 11
425.167939
 21
351.628834
 31
0.0
  0
LINE
  8
LC-009-005-----0
  6
CONTINUOUS
  5
140
 10
433.524376
 20
359.98527
 30
0.0
 11
435.192709
 21
361.653604
 31
0.0
  0
LINE
  8
LC-009-005-----0
  6
CONTINUOUS
  5
141
 10
421.046633
 20
350.335955
 30
0.0
 11
422.969814
 21
352.259136
 31
0.0
  0
LINE
  8
LC-009-005-----0
  6
CONTINUOUS
  5
142
 10
431.293665
 20
360.582987
 30
0.0
 11
432.994584
 21
362.283906
 31
0.0
  0
LINE
  8
LC-009-005-----0
  6
CONTINUOUS
  5
143
 10
418.815923
 20
350.933672
 30
0.0
 11
420.771689
 21
352.889438
 31
0.0
  0
LINE
  8
LC-009-005-----0
  6
CONTINUOUS
  5
144
 10
429.062955
 20
361.180704
 30
0.0
 11
430.796459
 21
362.914208
 31
0.0
  0
LINE
  8
LC-009-005-----0
  6
CONTINUOUS
  5
145
 10
416.585213
 20
351.531389
 30
0.0
 11
418.573564
 21
353.519741
 31
0.0
  0
LINE
  8
LC-009-005-----0
  6
CONTINUOUS
  5
146
 10
426.832245
 20
361.778421
 30
0.0
 11
428.598334
 21
363.54451
 31
0.0
  0
LINE
  8
LC-009-005-----0
  6
CONTINUOUS
  5
147
 10
414.354503
 20
352.129106
 30
0.0
 11
416.375439
 21
354.150043
 31
0.0
  0
LINE
  8
LC-009-005-----0
  6
CONTINUOUS
  5
148
 10
424.601535
 20
362.376138
 30
0.0
 11
426.400209
 21
364.174813
 31
0.0
  0
LINE
  8
LC-009-005-----0
  6
CONTINUOUS
  5
149
 10
412.123793
 20
352.726823
 30
0.0
 11
414.177314
 21
354.780345
 31
0.0
  0
LINE
  8
LC-009-005-----0
  6
CONTINUOUS
  5
14A
 10
422.370825
 20
362.973855
 30
0.0
 11
424.202084
 21
364.805115
 31
0.0
  0
LINE
  8
LC-009-005-----0
  6
CONTINUOUS
  5
14B
 10
409.893083
 20
353.32454
 30
0.0
 11
411.97919
 21
355.410647
 31
0.0
  0
LINE
  8
LC-009-005-----0
  6
CONTINUOUS
  5
14C
 10
420.140115
 20
363.571572
 30
0.0
 11
422.003959
 21
365.435417
 31
0.0
  0
LINE
  8
LC-009-005-----0
  6
CONTINUOUS
  5
14D
 10
407.662373
 20
353.922257
 30
0.0
 11
409.781065
 21
356.040949
 31
0.0
  0
LINE
  8
LC-009-005-----0
  6
CONTINUOUS
  5
14E
 10
417.909405
 20
364.169289
 30
0.0
 11
419.805834
 21
366.065719
 31
0.0
  0
LINE
  8
LC-009-005-----0
  6
CONTINUOUS
  5
14F
 10
405.431662
 20
354.519974
 30
0.0
 11
407.58294
 21
356.671251
 31
0.0
  0
LINE
  8
LC-009-005-----0
  6
CONTINUOUS
  5
150
 10
415.678694
 20
364.767006
 30
0.0
 11
417.60771
 21
366.696021
 31
0.0
  0
LINE
  8
LC-009-005-----0
  6
CONTINUOUS
  5
151
 10
403.200952
 20
355.117691
 30
0.0
 11
405.384815
 21
357.301554
 31
0.0
  0
LINE
  8
LC-009-005-----0
  6
CONTINUOUS
  5
152
 10
413.447984
 20
365.364723
 30
0.0
 11
415.409585
 21
367.326323
 31
0.0
  0
LINE
  8
LC-009-005-----0
  6
CONTINUOUS
  5
153
 10
400.970242
 20
355.715408
 30
0.0
 11
403.18669
 21
357.931856
 31
0.0
  0
LINE
  8
LC-009-005-----0
  6
CONTINUOUS
  5
154
 10
411.217274
 20
365.96244
 30
0.0
 11
413.21146
 21
367.956626
 31
0.0
  0
LINE
  8
LC-009-005-----0
  6
CONTINUOUS
  5
155
 10
398.739532
 20
356.313125
 30
0.0
 11
400.988565
 21
358.562158
 31
0.0
  0
LINE
  8
LC-009-005-----0
  6
CONTINUOUS
  5
156
 10
408.986564
 20
366.560157
 30
0.0
 11
411.013335
 21
368.586928
 31
0.0
  0
LINE
  8
LC-009-005-----0
  6
CONTINUOUS
  5
157
 10
396.508822
 20
356.910842
 30
0.0
 11
398.79044
 21
359.19246
 31
0.0
  0
LINE
  8
LC-009-005-----0
  6
CONTINUOUS
  5
158
 10
406.755854
 20
367.157874
 30
0.0
 11
408.81521
 21
369.21723
 31
0.0
  0
LINE
  8
LC-009-005-----0
  6
CONTINUOUS
  5
159
 10
394.278112
 20
357.508559
 30
0.0
 11
396.592315
 21
359.822762
 31
0.0
  0
LINE
  8
LC-009-005-----0
  6
CONTINUOUS
  5
15A
 10
404.525144
 20
367.755591
 30
0.0
 11
406.617085
 21
369.847532
 31
0.0
  0
LINE
  8
LC-009-005-----0
  6
CONTINUOUS
  5
15B
 10
392.047402
 20
358.106276
 30
0.0
 11
394.39419
 21
360.453065
 31
0.0
  0
LINE
  8
LC-009-005-----0
  6
CONTINUOUS
  5
15C
 10
402.294434
 20
368.353308
 30
0.0
 11
404.41896
 21
370.477834
 31
0.0
  0
LINE
  8
LC-009-005-----0
  6
CONTINUOUS
  5
15D
 10
389.816691
 20
358.703993
 30
0.0
 11
392.196065
 21
361.083367
 31
0.0
  0
LINE
  8
LC-009-005-----0
  6
CONTINUOUS
  5
15E
 10
400.063723
 20
368.951025
 30
0.0
 11
402.220835
 21
371.108137
 31
0.0
  0
LINE
  8
LC-009-005-----0
  6
CONTINUOUS
  5
15F
 10
387.825182
 20
359.540911
 30
0.0
 11
389.99794
 21
361.713669
 31
0.0
  0
LINE
  8
LC-009-005-----0
  6
CONTINUOUS
  5
160
 10
397.833013
 20
369.548742
 30
0.0
 11
400.02271
 21
371.738439
 31
0.0
  0
LINE
  8
LC-009-005-----0
  6
CONTINUOUS
  5
161
 10
386.789906
 20
361.334062
 30
0.0
 11
388.898213
 21
363.442368
 31
0.0
  0
LINE
  8
LC-009-005-----0
  6
CONTINUOUS
  5
162
 10
395.602303
 20
370.146459
 30
0.0
 11
397.824585
 21
372.368741
 31
0.0
  0
LINE
  8
LC-009-005-----0
  6
CONTINUOUS
  5
163
 10
385.75463
 20
363.127213
 30
0.0
 11
387.862936
 21
365.235519
 31
0.0
  0
LINE
  8
LC-009-005-----0
  6
CONTINUOUS
  5
164
 10
393.371593
 20
370.744176
 30
0.0
 11
395.62646
 21
372.999043
 31
0.0
  0
LINE
  8
LC-009-005-----0
  6
CONTINUOUS
  5
165
 10
384.719354
 20
364.920364
 30
0.0
 11
386.82766
 21
367.02867
 31
0.0
  0
LINE
  8
LC-009-005-----0
  6
CONTINUOUS
  5
166
 10
391.140883
 20
371.341893
 30
0.0
 11
393.428335
 21
373.629345
 31
0.0
  0
LINE
  8
LC-009-005-----0
  6
CONTINUOUS
  5
167
 10
383.684078
 20
366.713515
 30
0.0
 11
385.792384
 21
368.821821
 31
0.0
  0
LINE
  8
LC-009-005-----0
  6
CONTINUOUS
  5
168
 10
388.910173
 20
371.93961
 30
0.0
 11
391.23021
 21
374.259648
 31
0.0
  0
LINE
  8
LC-009-005-----0
  6
CONTINUOUS
  5
169
 10
382.648802
 20
368.506666
 30
0.0
 11
384.757108
 21
370.614972
 31
0.0
  0
LINE
  8
LC-009-005-----0
  6
CONTINUOUS
  5
16A
 10
386.679463
 20
372.537327
 30
0.0
 11
389.032085
 21
374.88995
 31
0.0
  0
LINE
  8
LC-009-005-----0
  6
CONTINUOUS
  5
16B
 10
381.613525
 20
370.299817
 30
0.0
 11
383.721832
 21
372.408123
 31
0.0
  0
LINE
  8
LC-009-005-----0
  6
CONTINUOUS
  5
16C
 10
384.448752
 20
373.135044
 30
0.0
 11
386.83396
 21
375.520252
 31
0.0
  0
LINE
  8
LC-009-005-----0
  6
CONTINUOUS
  5
16D
 10
380.578249
 20
372.092968
 30
0.0
 11
384.577322
 21
376.09204
 31
0.0
  0
LINE
  8
LC-009-005-----0
  6
CONTINUOUS
  5
16E
 10
379.418895
 20
373.76204
 30
0.0
 11
381.748895
 21
376.09204
 31
0.0
  0
LINE
  8
LC-009-005-----0
  6
CONTINUOUS
  5
16F
 10
373.604272
 20
370.775845
 30
0.0
 11
378.920468
 21
376.09204
 31
0.0
  0
LINE
  8
LC-009-005-----0
  6
CONTINUOUS
  5
170
 10
367.897175
 20
367.897175
 30
0.0
 11
376.09204
 21
376.09204
 31
0.0
  0
LINE
  8
LC-009-005-----0
  6
CONTINUOUS
  5
171
 10
363.771835
 20
366.600262
 30
0.0
 11
369.977153
 21
372.80558
 31
0.0
  0
LINE
  8
LC-009-005-----0
  6
CONTINUOUS
  5
172
 10
360.290741
 20
365.947595
 30
0.0
 11
365.036617
 21
370.693471
 31
0.0
  0
LINE
  8
LC-009-005-----0
  6
CONTINUOUS
  5
173
 10
357.276759
 20
365.76204
 30
0.0
 11
361.256295
 21
369.741577
 31
0.0
  0
LINE
  8
LC-009-005-----0
  6
CONTINUOUS
  5
174
 10
354.448332
 20
365.76204
 30
0.0
 11
358.020456
 21
369.334165
 31
0.0
  0
LINE
  8
LC-009-005-----0
  6
CONTINUOUS
  5
175
 10
351.619905
 20
365.76204
 30
0.0
 11
355.131509
 21
369.273645
 31
0.0
  0
LINE
  8
LC-009-005-----0
  6
CONTINUOUS
  5
176
 10
348.791478
 20
365.76204
 30
0.0
 11
352.495489
 21
369.466051
 31
0.0
  0
LINE
  8
LC-009-005-----0
  6
CONTINUOUS
  5
177
 10
348.099533
 20
367.898522
 30
0.0
 11
350.059038
 21
369.858028
 31
0.0
  0
ENDBLK
  8
0
  5
178
  0
BLOCK
  8
0
  5
17A
  2
*D11
 70
    65
 10
0.0
 20
0.0
 30
0.0
  3
*D11
  0
TEXT
  8
LC-006-003-----0
  6
CONTINUOUS
 62
     8
  5
17B
 10
473.63447
 20
226.562274
 30
0.0
 40
28.0
  1
 55Ý
 50
43.5
 51
15.0
  7
LC-TXTSTYLE-150-400-0-0-D0
 72
     1
 11
499.398397
 21
251.011328
 31
0.0
  0
ARC
  8
LC-008-003-MTG-0
  6
CONTINUOUS
  5
17C
 10
353.255893
 20
398.76204
 30
0.0
 40
224.0
 50
304.995629
 51
360.0
  0
LINE
  8
LC-006-003-----0
  6
CONTINUOUS
  5
17D
 10
501.148138
 20
235.42811
 30
0.0
 11
481.723017
 21
215.262182
 31
0.0
  0
LINE
  8
LC-006-003-----0
  6
CONTINUOUS
  5
17E
 10
481.723017
 20
215.262182
 30
0.0
 11
505.70557
 21
229.713382
 31
0.0
  0
LINE
  8
LC-006-003-----0
  6
CONTINUOUS
  5
17F
 10
505.70557
 20
229.713382
 30
0.0
 11
501.148138
 21
235.42811
 31
0.0
  0
LINE
  8
LC-006-003-----0
  6
CONTINUOUS
  5
180
 10
501.789298
 20
234.724028
 30
0.0
 11
487.414708
 21
219.801241
 31
0.0
  0
LINE
  8
LC-006-003-----0
  6
CONTINUOUS
  5
181
 10
487.414708
 20
219.801241
 30
0.0
 11
505.161797
 21
230.495129
 31
0.0
  0
LINE
  8
LC-006-003-----0
  6
CONTINUOUS
  5
182
 10
502.430457
 20
234.019945
 30
0.0
 11
493.106399
 21
224.3403
 31
0.0
  0
LINE
  8
LC-006-003-----0
  6
CONTINUOUS
  5
183
 10
493.106399
 20
224.3403
 30
0.0
 11
504.618024
 21
231.276876
 31
0.0
  0
LINE
  8
LC-006-003-----0
  6
CONTINUOUS
  5
184
 10
503.071616
 20
233.315863
 30
0.0
 11
498.798089
 21
228.879359
 31
0.0
  0
LINE
  8
LC-006-003-----0
  6
CONTINUOUS
  5
185
 10
498.798089
 20
228.879359
 30
0.0
 11
504.074251
 21
232.058623
 31
0.0
  0
LINE
  8
LC-006-003-----0
  6
CONTINUOUS
  5
186
 10
579.171859
 20
370.82767
 30
0.0
 11
577.255893
 21
398.76204
 31
0.0
  0
LINE
  8
LC-006-003-----0
  6
CONTINUOUS
  5
187
 10
577.255893
 20
398.76204
 30
0.0
 11
571.876627
 21
371.283622
 31
0.0
  0
LINE
  8
LC-006-003-----0
  6
CONTINUOUS
  5
188
 10
571.876627
 20
371.283622
 30
0.0
 11
579.171859
 21
370.82767
 31
0.0
  0
LINE
  8
LC-006-003-----0
  6
CONTINUOUS
  5
189
 10
578.219594
 20
370.824783
 30
0.0
 11
576.801779
 21
391.496218
 31
0.0
  0
LINE
  8
LC-006-003-----0
  6
CONTINUOUS
  5
18A
 10
576.801779
 20
391.496218
 30
0.0
 11
572.821122
 21
371.162188
 31
0.0
  0
LINE
  8
LC-006-003-----0
  6
CONTINUOUS
  5
18B
 10
577.267329
 20
370.821897
 30
0.0
 11
576.347665
 21
384.230395
 31
0.0
  0
LINE
  8
LC-006-003-----0
  6
CONTINUOUS
  5
18C
 10
576.347665
 20
384.230395
 30
0.0
 11
573.765618
 21
371.040754
 31
0.0
  0
LINE
  8
LC-006-003-----0
  6
CONTINUOUS
  5
18D
 10
576.315064
 20
370.819011
 30
0.0
 11
575.893551
 21
376.964572
 31
0.0
  0
LINE
  8
LC-006-003-----0
  6
CONTINUOUS
  5
18E
 10
575.893551
 20
376.964572
 30
0.0
 11
574.710113
 21
370.91932
 31
0.0
  0
LINE
  8
LC-007-003-MTH-0
  6
CONTINUOUS
  5
18F
 10
415.504767
 20
309.847
 30
0.0
 11
484.017073
 21
211.985399
 31
0.0
  0
LINE
  8
LC-007-003-MTH-0
  6
CONTINUOUS
  5
190
 10
554.087336
 20
398.76204
 30
0.0
 11
581.255893
 21
398.76204
 31
0.0
  0
ENDBLK
  8
0
  5
191
  0
BLOCK
  8
0
  5
193
  2
*D12
 70
    65
 10
0.0
 20
0.0
 30
0.0
  3
*D12
  0
LINE
  8
LC-007-003-MTH-0
  6
CONTINUOUS
  5
194
 10
438.286362
 20
345.716584
 30
0.0
 11
548.523535
 21
316.178622
 31
0.0
  0
LINE
  8
LC-007-003-MTH-0
  6
CONTINUOUS
  5
195
 10
457.749554
 20
418.354206
 30
0.0
 11
567.986728
 21
388.816244
 31
0.0
  0
LINE
  8
LC-006-003-----0
  6
CONTINUOUS
  5
196
 10
528.641248
 20
292.766326
 30
0.0
 11
532.295981
 21
320.526782
 31
0.0
  0
LINE
  8
LC-006-003-----0
  6
CONTINUOUS
  5
197
 10
532.295981
 20
320.526782
 30
0.0
 11
521.580845
 21
294.658155
 31
0.0
  0
LINE
  8
LC-006-003-----0
  6
CONTINUOUS
  5
198
 10
521.580845
 20
294.658155
 30
0.0
 11
528.641248
 21
292.766326
 31
0.0
  0
LINE
  8
LC-006-003-----0
  6
CONTINUOUS
  5
199
 10
527.707276
 20
292.952105
 30
0.0
 11
530.411779
 21
313.494842
 31
0.0
  0
LINE
  8
LC-006-003-----0
  6
CONTINUOUS
  5
19A
 10
530.411779
 20
313.494842
 30
0.0
 11
522.482578
 21
294.352058
 31
0.0
  0
LINE
  8
LC-006-003-----0
  6
CONTINUOUS
  5
19B
 10
526.773304
 20
293.137883
 30
0.0
 11
528.527576
 21
306.462902
 31
0.0
  0
LINE
  8
LC-006-003-----0
  6
CONTINUOUS
  5
19C
 10
528.527576
 20
306.462902
 30
0.0
 11
523.384311
 21
294.045961
 31
0.0
  0
LINE
  8
LC-006-003-----0
  6
CONTINUOUS
  5
19D
 10
525.839332
 20
293.323662
 30
0.0
 11
526.643374
 21
299.430962
 31
0.0
  0
LINE
  8
LC-006-003-----0
  6
CONTINUOUS
  5
19E
 10
526.643374
 20
299.430962
 30
0.0
 11
524.286044
 21
293.739864
 31
0.0
  0
LINE
  8
LC-006-003-----0
  6
CONTINUOUS
  5
19F
 10
555.413907
 20
420.924861
 30
0.0
 11
551.759174
 21
393.164404
 31
0.0
  0
LINE
  8
LC-006-003-----0
  6
CONTINUOUS
  5
1A0
 10
551.759174
 20
393.164404
 30
0.0
 11
562.47431
 21
419.033031
 31
0.0
  0
LINE
  8
LC-006-003-----0
  6
CONTINUOUS
  5
1A1
 10
562.47431
 20
419.033031
 30
0.0
 11
555.413907
 21
420.924861
 31
0.0
  0
LINE
  8
LC-006-003-----0
  6
CONTINUOUS
  5
1A2
 10
556.347879
 20
420.739082
 30
0.0
 11
553.643376
 21
400.196344
 31
0.0
  0
LINE
  8
LC-006-003-----0
  6
CONTINUOUS
  5
1A3
 10
553.643376
 20
400.196344
 30
0.0
 11
561.572577
 21
419.339128
 31
0.0
  0
LINE
  8
LC-006-003-----0
  6
CONTINUOUS
  5
1A4
 10
557.281851
 20
420.553303
 30
0.0
 11
555.527579
 21
407.228284
 31
0.0
  0
LINE
  8
LC-006-003-----0
  6
CONTINUOUS
  5
1A5
 10
555.527579
 20
407.228284
 30
0.0
 11
560.670844
 21
419.645225
 31
0.0
  0
LINE
  8
LC-006-003-----0
  6
CONTINUOUS
  5
1A6
 10
558.215823
 20
420.367525
 30
0.0
 11
557.411782
 21
414.260224
 31
0.0
  0
LINE
  8
LC-006-003-----0
  6
CONTINUOUS
  5
1A7
 10
557.411782
 20
414.260224
 30
0.0
 11
559.769112
 21
419.951322
 31
0.0
  0
LINE
  8
LC-008-003-MTG-0
  6
CONTINUOUS
  5
1A8
 10
522.150275
 20
282.66249
 30
0.0
 11
585.139092
 21
517.739955
 31
0.0
  0
TEXT
  8
LC-006-003-----0
  6
CONTINUOUS
 62
     8
  5
1A9
 10
555.179553
 20
436.17278
 30
0.0
 40
28.0
  1
DN70
 50
75.0
 51
15.0
  7
LC-TXTSTYLE-150-400-0-0-D0
  0
ENDBLK
  8
0
  5
1AA
  0
BLOCK
  8
0
  5
1AC
  2
*D13
 70
    65
 10
0.0
 20
0.0
 30
0.0
  3
*D13
  0
LINE
  8
LC-007-003-MTH-0
  6
CONTINUOUS
  5
1AD
 10
441.714785
 20
357.790657
 30
0.0
 11
513.907422
 21
338.446698
 31
0.0
  0
LINE
  8
LC-007-003-MTH-0
  6
CONTINUOUS
  5
1AE
 10
454.681619
 20
406.183541
 30
0.0
 11
526.874256
 21
386.839582
 31
0.0
  0
LINE
  8
LC-006-003-----0
  6
CONTINUOUS
  5
1AF
 10
494.025135
 20
315.034402
 30
0.0
 11
497.679868
 21
342.794858
 31
0.0
  0
LINE
  8
LC-006-003-----0
  6
CONTINUOUS
  5
1B0
 10
497.679868
 20
342.794858
 30
0.0
 11
486.964732
 21
316.926231
 31
0.0
  0
LINE
  8
LC-006-003-----0
  6
CONTINUOUS
  5
1B1
 10
486.964732
 20
316.926231
 30
0.0
 11
494.025135
 21
315.034402
 31
0.0
  0
LINE
  8
LC-006-003-----0
  6
CONTINUOUS
  5
1B2
 10
493.091163
 20
315.22018
 30
0.0
 11
495.795665
 21
335.762918
 31
0.0
  0
LINE
  8
LC-006-003-----0
  6
CONTINUOUS
  5
1B3
 10
495.795665
 20
335.762918
 30
0.0
 11
487.866465
 21
316.620134
 31
0.0
  0
LINE
  8
LC-006-003-----0
  6
CONTINUOUS
  5
1B4
 10
492.157191
 20
315.405959
 30
0.0
 11
493.911463
 21
328.730978
 31
0.0
  0
LINE
  8
LC-006-003-----0
  6
CONTINUOUS
  5
1B5
 10
493.911463
 20
328.730978
 30
0.0
 11
488.768197
 21
316.314037
 31
0.0
  0
LINE
  8
LC-006-003-----0
  6
CONTINUOUS
  5
1B6
 10
491.223219
 20
315.591738
 30
0.0
 11
492.02726
 21
321.699038
 31
0.0
  0
LINE
  8
LC-006-003-----0
  6
CONTINUOUS
  5
1B7
 10
492.02726
 20
321.699038
 30
0.0
 11
489.66993
 21
316.00794
 31
0.0
  0
LINE
  8
LC-006-003-----0
  6
CONTINUOUS
  5
1B8
 10
514.301436
 20
418.948198
 30
0.0
 11
510.646702
 21
391.187742
 31
0.0
  0
LINE
  8
LC-006-003-----0
  6
CONTINUOUS
  5
1B9
 10
510.646702
 20
391.187742
 30
0.0
 11
521.361838
 21
417.056369
 31
0.0
  0
LINE
  8
LC-006-003-----0
  6
CONTINUOUS
  5
1BA
 10
521.361838
 20
417.056369
 30
0.0
 11
514.301436
 21
418.948198
 31
0.0
  0
LINE
  8
LC-006-003-----0
  6
CONTINUOUS
  5
1BB
 10
515.235408
 20
418.762419
 30
0.0
 11
512.530905
 21
398.219682
 31
0.0
  0
LINE
  8
LC-006-003-----0
  6
CONTINUOUS
  5
1BC
 10
512.530905
 20
398.219682
 30
0.0
 11
520.460106
 21
417.362466
 31
0.0
  0
LINE
  8
LC-006-003-----0
  6
CONTINUOUS
  5
1BD
 10
516.16938
 20
418.576641
 30
0.0
 11
514.415108
 21
405.251622
 31
0.0
  0
LINE
  8
LC-006-003-----0
  6
CONTINUOUS
  5
1BE
 10
514.415108
 20
405.251622
 30
0.0
 11
519.558373
 21
417.668563
 31
0.0
  0
LINE
  8
LC-006-003-----0
  6
CONTINUOUS
  5
1BF
 10
517.103352
 20
418.390862
 30
0.0
 11
516.29931
 21
412.283562
 31
0.0
  0
LINE
  8
LC-006-003-----0
  6
CONTINUOUS
  5
1C0
 10
516.29931
 20
412.283562
 30
0.0
 11
518.65664
 21
417.97466
 31
0.0
  0
LINE
  8
LC-008-003-MTG-0
  6
CONTINUOUS
  5
1C1
 10
487.534162
 20
304.930566
 30
0.0
 11
548.973482
 21
534.225231
 31
0.0
  0
TEXT
  8
LC-006-003-----0
  6
CONTINUOUS
 62
     8
  5
1C2
 10
519.013943
 20
452.658056
 30
0.0
 40
28.0
  1
DN50
 50
75.0
 51
15.0
  7
LC-TXTSTYLE-150-400-0-0-D0
  0
ENDBLK
  8
0
  5
1C3
  0
BLOCK
  8
0
  5
1C5
  2
*X14
 70
    65
 10
283.028873
 20
365.76204
 30
0.0
  3
*X14
  0
LINE
  8
LC-009-005-----0
  6
CONTINUOUS
  5
1C6
 10
373.557737
 20
421.230285
 30
0.0
 11
370.180224
 21
424.607798
 31
0.0
  0
LINE
  8
LC-009-005-----0
  6
CONTINUOUS
  5
1C7
 10
370.897555
 20
421.06204
 30
0.0
 11
366.557737
 21
425.401858
 31
0.0
  0
LINE
  8
LC-009-005-----0
  6
CONTINUOUS
  5
1C8
 10
368.069127
 20
421.06204
 30
0.0
 11
365.368581
 21
423.762587
 31
0.0
  0
LINE
  8
LC-009-005-----0
  6
CONTINUOUS
  5
1C9
 10
362.057737
 20
427.073431
 30
0.0
 11
361.369569
 21
427.761599
 31
0.0
  0
LINE
  8
LC-009-005-----0
  6
CONTINUOUS
  5
1CA
 10
365.2407
 20
421.06204
 30
0.0
 11
362.540704
 21
423.762037
 31
0.0
  0
LINE
  8
LC-009-005-----0
  6
CONTINUOUS
  5
1CB
 10
362.057737
 20
424.245004
 30
0.0
 11
358.119965
 21
428.182776
 31
0.0
  0
LINE
  8
LC-009-005-----0
  6
CONTINUOUS
  5
1CC
 10
362.412273
 20
421.06204
 30
0.0
 11
355.22149
 21
428.252823
 31
0.0
  0
LINE
  8
LC-009-005-----0
  6
CONTINUOUS
  5
1CD
 10
359.583846
 20
421.06204
 30
0.0
 11
352.578198
 21
428.067689
 31
0.0
  0
LINE
  8
LC-009-005-----0
  6
CONTINUOUS
  5
1CE
 10
356.755419
 20
421.06204
 30
0.0
 11
350.135837
 21
427.681623
 31
0.0
  0
LINE
  8
LC-009-005-----0
  6
CONTINUOUS
  5
1CF
 10
353.926992
 20
421.06204
 30
0.0
 11
347.860384
 21
427.128649
 31
0.0
  0
LINE
  8
LC-009-005-----0
  6
CONTINUOUS
  5
1D0
 10
351.098565
 20
421.06204
 30
0.0
 11
345.729067
 21
426.431538
 31
0.0
  0
LINE
  8
LC-009-005-----0
  6
CONTINUOUS
  5
1D1
 10
348.270138
 20
421.06204
 30
0.0
 11
343.726012
 21
425.606166
 31
0.0
  0
LINE
  8
LC-009-005-----0
  6
CONTINUOUS
  5
1D2
 10
345.44171
 20
421.06204
 30
0.0
 11
341.83989
 21
424.663861
 31
0.0
  0
LINE
  8
LC-009-005-----0
  6
CONTINUOUS
  5
1D3
 10
342.613283
 20
421.06204
 30
0.0
 11
339.913283
 21
423.76204
 31
0.0
  0
LINE
  8
LC-009-005-----0
  6
CONTINUOUS
  5
1D4
 10
339.784856
 20
421.06204
 30
0.0
 11
335.287036
 21
425.559861
 31
0.0
  0
LINE
  8
LC-009-005-----0
  6
CONTINUOUS
  5
1D5
 10
336.956429
 20
421.06204
 30
0.0
 11
328.848073
 21
429.170397
 31
0.0
  0
LINE
  8
LC-009-005-----0
  6
CONTINUOUS
  5
1D6
 10
331.022422
 20
424.167621
 30
0.0
 11
324.546075
 21
430.643968
 31
0.0
  0
LINE
  8
LC-009-005-----0
  6
CONTINUOUS
  5
1D7
 10
325.745839
 20
426.615776
 30
0.0
 11
320.971876
 21
431.389739
 31
0.0
  0
LINE
  8
LC-009-005-----0
  6
CONTINUOUS
  5
1D8
 10
321.851478
 20
427.68171
 30
0.0
 11
317.81978
 21
431.713408
 31
0.0
  0
LINE
  8
LC-009-005-----0
  6
CONTINUOUS
  5
1D9
 10
318.550709
 20
428.154052
 30
0.0
 11
314.942721
 21
431.76204
 31
0.0
  0
LINE
  8
LC-009-005-----0
  6
CONTINUOUS
  5
1DA
 10
315.617166
 20
428.259167
 30
0.0
 11
312.114293
 21
431.76204
 31
0.0
  0
LINE
  8
LC-009-005-----0
  6
CONTINUOUS
  5
1DB
 10
312.947262
 20
428.100644
 30
0.0
 11
309.285866
 21
431.76204
 31
0.0
  0
LINE
  8
LC-009-005-----0
  6
CONTINUOUS
  5
1DC
 10
310.48336
 20
427.73612
 30
0.0
 11
308.169533
 21
430.049947
 31
0.0
  0
ENDBLK
  8
0
  5
1DD
  0
BLOCK
  8
0
  5
1DF
  2
*X15
 70
    65
 10
283.028873
 20
365.76204
 30
0.0
  3
*X15
  0
LINE
  8
LC-009-005-----0
  6
CONTINUOUS
  5
1E0
 10
373.557737
 20
375.975451
 30
0.0
 11
373.071148
 21
376.46204
 31
0.0
  0
LINE
  8
LC-009-005-----0
  6
CONTINUOUS
  5
1E1
 10
372.42176
 20
374.283001
 30
0.0
 11
370.242721
 21
376.46204
 31
0.0
  0
LINE
  8
LC-009-005-----0
  6
CONTINUOUS
  5
1E2
 10
370.679169
 20
373.197164
 30
0.0
 11
367.414293
 21
376.46204
 31
0.0
  0
LINE
  8
LC-009-005-----0
  6
CONTINUOUS
  5
1E3
 10
368.829912
 20
372.217995
 30
0.0
 11
364.585866
 21
376.46204
 31
0.0
  0
LINE
  8
LC-009-005-----0
  6
CONTINUOUS
  5
1E4
 10
366.866723
 20
371.352757
 30
0.0
 11
366.557737
 21
371.661743
 31
0.0
  0
LINE
  8
LC-009-005-----0
  6
CONTINUOUS
  5
1E5
 10
364.457808
 20
373.761671
 30
0.0
 11
361.757439
 21
376.46204
 31
0.0
  0
LINE
  8
LC-009-005-----0
  6
CONTINUOUS
  5
1E6
 10
362.057737
 20
373.333316
 30
0.0
 11
358.929012
 21
376.46204
 31
0.0
  0
LINE
  8
LC-009-005-----0
  6
CONTINUOUS
  5
1E7
 10
362.057737
 20
370.504888
 30
0.0
 11
356.100585
 21
376.46204
 31
0.0
  0
LINE
  8
LC-009-005-----0
  6
CONTINUOUS
  5
1E8
 10
360.170036
 20
369.564162
 30
0.0
 11
353.272158
 21
376.46204
 31
0.0
  0
LINE
  8
LC-009-005-----0
  6
CONTINUOUS
  5
1E9
 10
357.598149
 20
369.307622
 30
0.0
 11
350.443731
 21
376.46204
 31
0.0
  0
LINE
  8
LC-009-005-----0
  6
CONTINUOUS
  5
1EA
 10
354.792226
 20
369.285118
 30
0.0
 11
347.615304
 21
376.46204
 31
0.0
  0
LINE
  8
LC-009-005-----0
  6
CONTINUOUS
  5
1EB
 10
351.674034
 20
369.574883
 30
0.0
 11
344.786876
 21
376.46204
 31
0.0
  0
LINE
  8
LC-009-005-----0
  6
CONTINUOUS
  5
1EC
 10
348.089459
 20
370.331031
 30
0.0
 11
341.958449
 21
376.46204
 31
0.0
  0
LINE
  8
LC-009-005-----0
  6
CONTINUOUS
  5
1ED
 10
343.630348
 20
371.961715
 30
0.0
 11
339.130022
 21
376.46204
 31
0.0
  0
LINE
  8
LC-009-005-----0
  6
CONTINUOUS
  5
1EE
 10
339.001595
 20
373.76204
 30
0.0
 11
336.301595
 21
376.46204
 31
0.0
  0
LINE
  8
LC-009-005-----0
  6
CONTINUOUS
  5
1EF
 10
336.808897
 20
373.126311
 30
0.0
 11
334.3189
 21
375.616308
 31
0.0
  0
LINE
  8
LC-009-005-----0
  6
CONTINUOUS
  5
1F0
 10
335.202856
 20
371.903925
 30
0.0
 11
332.689576
 21
374.417205
 31
0.0
  0
LINE
  8
LC-009-005-----0
  6
CONTINUOUS
  5
1F1
 10
333.507402
 20
370.770952
 30
0.0
 11
330.959137
 21
373.319217
 31
0.0
  0
LINE
  8
LC-009-005-----0
  6
CONTINUOUS
  5
1F2
 10
331.719161
 20
369.730766
 30
0.0
 11
329.12273
 21
372.327197
 31
0.0
  0
LINE
  8
LC-009-005-----0
  6
CONTINUOUS
  5
1F3
 10
329.833376
 20
368.788123
 30
0.0
 11
327.173376
 21
371.448124
 31
0.0
  0
LINE
  8
LC-009-005-----0
  6
CONTINUOUS
  5
1F4
 10
327.843575
 20
367.949497
 30
0.0
 11
325.101315
 21
370.691757
 31
0.0
  0
LINE
  8
LC-009-005-----0
  6
CONTINUOUS
  5
1F5
 10
325.741051
 20
367.223594
 30
0.0
 11
322.89293
 21
370.071716
 31
0.0
  0
LINE
  8
LC-009-005-----0
  6
CONTINUOUS
  5
1F6
 10
323.51406
 20
366.622159
 30
0.0
 11
320.528929
 21
369.60729
 31
0.0
  0
LINE
  8
LC-009-005-----0
  6
CONTINUOUS
  5
1F7
 10
321.146514
 20
366.161277
 30
0.0
 11
317.981085
 21
369.326707
 31
0.0
  0
LINE
  8
LC-009-005-----0
  6
CONTINUOUS
  5
1F8
 10
318.615773
 20
365.863591
 30
0.0
 11
315.20584
 21
369.273524
 31
0.0
  0
LINE
  8
LC-009-005-----0
  6
CONTINUOUS
  5
1F9
 10
315.888897
 20
365.76204
 30
0.0
 11
312.130131
 21
369.520806
 31
0.0
  0
LINE
  8
LC-009-005-----0
  6
CONTINUOUS
  5
1FA
 10
313.06047
 20
365.76204
 30
0.0
 11
308.836297
 21
369.986213
 31
0.0
  0
LINE
  8
LC-009-005-----0
  6
CONTINUOUS
  5
1FB
 10
310.232042
 20
365.76204
 30
0.0
 11
308.169533
 21
367.82455
 31
0.0
  0
ENDBLK
  8
0
  5
1FC
  0
BLOCK
  8
0
  5
1FE
  2
*X16
 70
    65
 10
362.195747
 20
423.762233
 30
0.0
  3
*X16
  0
LINE
  8
LC-009-005-----0
  6
CONTINUOUS
  5
1FF
 10
366.195746
 20
425.763849
 30
0.0
 11
364.197362
 21
427.762233
 31
0.0
  0
ENDBLK
  8
0
  5
200
  0
BLOCK
  8
0
  5
202
  2
BLK4
 70
    64
 10
0.0
 20
0.0
 30
0.0
  3
BLK4
  0
ENDBLK
  8
0
  5
203
  0
BLOCK
  8
0
  5
205
  2
*X18
 70
    65
 10
362.195747
 20
369.762233
 30
0.0
  3
*X18
  0
LINE
  8
LC-009-005-----0
  6
DASHED
  5
206
 10
365.297797
 20
370.093256
 30
0.0
 11
362.526769
 21
372.864283
 31
0.0
  0
ENDBLK
  8
0
  5
207
  0
BLOCK
  8
0
  5
209
  2
BLK5
 70
    64
 10
0.0
 20
0.0
 30
0.0
  3
BLK5
  0
ENDBLK
  8
0
  5
20A
  0
BLOCK
  8
0
  5
20C
  2
BLK6
 70
    64
 10
0.0
 20
0.0
 30
0.0
  3
BLK6
  0
ENDBLK
  8
0
  5
20D
  0
BLOCK
  8
0
  5
20F
  2
*X21
 70
    65
 10
202.89036
 20
376.245012
 30
0.0
  3
*X21
  0
LINE
  8
LC-009-005-----0
  6
CONTINUOUS
  5
210
 10
203.710958
 20
376.245012
 30
0.0
 11
205.042171
 21
377.576225
 31
0.0
  0
LINE
  8
LC-009-005-----0
  6
CONTINUOUS
  5
211
 10
203.127606
 20
378.490088
 30
0.0
 11
205.376379
 21
380.738861
 31
0.0
  0
LINE
  8
LC-009-005-----0
  6
CONTINUOUS
  5
212
 10
203.461814
 20
381.652723
 30
0.0
 11
205.710587
 21
383.901496
 31
0.0
  0
LINE
  8
LC-009-005-----0
  6
CONTINUOUS
  5
213
 10
203.796022
 20
384.815358
 30
0.0
 11
206.044795
 21
387.064131
 31
0.0
  0
LINE
  8
LC-009-005-----0
  6
CONTINUOUS
  5
214
 10
204.13023
 20
387.977994
 30
0.0
 11
206.379003
 21
390.226766
 31
0.0
  0
LINE
  8
LC-009-005-----0
  6
CONTINUOUS
  5
215
 10
204.464439
 20
391.140629
 30
0.0
 11
206.713211
 21
393.389401
 31
0.0
  0
LINE
  8
LC-009-005-----0
  6
CONTINUOUS
  5
216
 10
204.798647
 20
394.303264
 30
0.0
 11
207.047419
 21
396.552037
 31
0.0
  0
LINE
  8
LC-009-005-----0
  6
CONTINUOUS
  5
217
 10
205.132855
 20
397.465899
 30
0.0
 11
207.381627
 21
399.714672
 31
0.0
  0
LINE
  8
LC-009-005-----0
  6
CONTINUOUS
  5
218
 10
205.467063
 20
400.628535
 30
0.0
 11
207.715836
 21
402.877307
 31
0.0
  0
LINE
  8
LC-009-005-----0
  6
CONTINUOUS
  5
219
 10
205.801271
 20
403.79117
 30
0.0
 11
208.050044
 21
406.039942
 31
0.0
  0
LINE
  8
LC-009-005-----0
  6
CONTINUOUS
  5
21A
 10
206.135479
 20
406.953805
 30
0.0
 11
208.384252
 21
409.202578
 31
0.0
  0
LINE
  8
LC-009-005-----0
  6
CONTINUOUS
  5
21B
 10
206.469687
 20
410.11644
 30
0.0
 11
208.71846
 21
412.365213
 31
0.0
  0
LINE
  8
LC-009-005-----0
  6
CONTINUOUS
  5
21C
 10
206.803895
 20
413.279075
 30
0.0
 11
209.052668
 21
415.527848
 31
0.0
  0
LINE
  8
LC-009-005-----0
  6
CONTINUOUS
  5
21D
 10
207.138103
 20
416.441711
 30
0.0
 11
209.386876
 21
418.690483
 31
0.0
  0
LINE
  8
LC-009-005-----0
  6
CONTINUOUS
  5
21E
 10
207.472312
 20
419.604346
 30
0.0
 11
209.721084
 21
421.853119
 31
0.0
  0
LINE
  8
LC-009-005-----0
  6
CONTINUOUS
  5
21F
 10
207.80652
 20
422.766981
 30
0.0
 11
210.055292
 21
425.015754
 31
0.0
  0
LINE
  8
LC-009-005-----0
  6
CONTINUOUS
  5
220
 10
210.473931
 20
425.434392
 30
0.0
 11
212.563
 21
427.523461
 31
0.0
  0
LINE
  8
LC-009-005-----0
  6
CONTINUOUS
  5
221
 10
208.140728
 20
425.929616
 30
0.0
 11
212.563
 21
430.351888
 31
0.0
  0
LINE
  8
LC-009-005-----0
  6
CONTINUOUS
  5
222
 10
208.474936
 20
429.092252
 30
0.0
 11
212.563
 21
433.180315
 31
0.0
  0
LINE
  8
LC-009-005-----0
  6
CONTINUOUS
  5
223
 10
208.809144
 20
432.254887
 30
0.0
 11
212.563
 21
436.008742
 31
0.0
  0
LINE
  8
LC-009-005-----0
  6
CONTINUOUS
  5
224
 10
209.143352
 20
435.417522
 30
0.0
 11
212.563
 21
438.83717
 31
0.0
  0
LINE
  8
LC-009-005-----0
  6
CONTINUOUS
  5
225
 10
209.47756
 20
438.580157
 30
0.0
 11
212.563
 21
441.665597
 31
0.0
  0
LINE
  8
LC-009-005-----0
  6
CONTINUOUS
  5
226
 10
209.811768
 20
441.742793
 30
0.0
 11
212.563
 21
444.494024
 31
0.0
  0
LINE
  8
LC-009-005-----0
  6
CONTINUOUS
  5
227
 10
210.145977
 20
444.905428
 30
0.0
 11
212.563
 21
447.322451
 31
0.0
  0
LINE
  8
LC-009-005-----0
  6
CONTINUOUS
  5
228
 10
216.354437
 20
451.113888
 30
0.0
 11
217.04019
 21
451.799641
 31
0.0
  0
LINE
  8
LC-009-005-----0
  6
CONTINUOUS
  5
229
 10
210.480185
 20
448.068063
 30
0.0
 11
215.529503
 21
453.117382
 31
0.0
  0
ENDBLK
  8
0
  5
22A
  0
BLOCK
  8
0
  5
22C
  2
*X22
 70
    65
 10
153.260835
 20
376.245012
 30
0.0
  3
*X22
  0
LINE
  8
LC-009-005-----0
  6
CONTINUOUS
  5
22D
 10
156.06066
 20
376.677976
 30
0.0
 11
157.060653
 21
377.677968
 31
0.0
  0
LINE
  8
LC-009-005-----0
  6
CONTINUOUS
  5
22E
 10
156.060662
 20
379.506405
 30
0.0
 11
157.060654
 21
380.506397
 31
0.0
  0
LINE
  8
LC-009-005-----0
  6
CONTINUOUS
  5
22F
 10
156.060664
 20
382.334833
 30
0.0
 11
157.060656
 21
383.334826
 31
0.0
  0
LINE
  8
LC-009-005-----0
  6
CONTINUOUS
  5
230
 10
156.060665
 20
385.163262
 30
0.0
 11
157.060658
 21
386.163255
 31
0.0
  0
LINE
  8
LC-009-005-----0
  6
CONTINUOUS
  5
231
 10
156.060667
 20
387.991691
 30
0.0
 11
157.06066
 21
388.991684
 31
0.0
  0
LINE
  8
LC-009-005-----0
  6
CONTINUOUS
  5
232
 10
156.060669
 20
390.82012
 30
0.0
 11
157.060662
 21
391.820113
 31
0.0
  0
LINE
  8
LC-009-005-----0
  6
CONTINUOUS
  5
233
 10
156.060671
 20
393.648549
 30
0.0
 11
157.060665
 21
394.648543
 31
0.0
  0
LINE
  8
LC-009-005-----0
  6
CONTINUOUS
  5
234
 10
156.060673
 20
396.476978
 30
0.0
 11
157.060667
 21
397.476973
 31
0.0
  0
LINE
  8
LC-009-005-----0
  6
CONTINUOUS
  5
235
 10
156.060675
 20
399.305407
 30
0.0
 11
157.06067
 21
400.305402
 31
0.0
  0
LINE
  8
LC-009-005-----0
  6
CONTINUOUS
  5
236
 10
156.060676
 20
402.133836
 30
0.0
 11
157.060672
 21
403.133832
 31
0.0
  0
LINE
  8
LC-009-005-----0
  6
CONTINUOUS
  5
237
 10
156.060678
 20
404.962265
 30
0.0
 11
157.060675
 21
405.962262
 31
0.0
  0
LINE
  8
LC-009-005-----0
  6
CONTINUOUS
  5
238
 10
156.06068
 20
407.790694
 30
0.0
 11
157.060677
 21
408.790691
 31
0.0
  0
LINE
  8
LC-009-005-----0
  6
CONTINUOUS
  5
239
 10
156.060682
 20
410.619123
 30
0.0
 11
157.060679
 21
411.619121
 31
0.0
  0
LINE
  8
LC-009-005-----0
  6
CONTINUOUS
  5
23A
 10
156.060684
 20
413.447552
 30
0.0
 11
157.060682
 21
414.44755
 31
0.0
  0
LINE
  8
LC-009-005-----0
  6
CONTINUOUS
  5
23B
 10
156.060686
 20
416.275981
 30
0.0
 11
157.060684
 21
417.27598
 31
0.0
  0
LINE
  8
LC-009-005-----0
  6
CONTINUOUS
  5
23C
 10
156.060688
 20
419.10441
 30
0.0
 11
157.060687
 21
420.10441
 31
0.0
  0
LINE
  8
LC-009-005-----0
  6
CONTINUOUS
  5
23D
 10
156.060689
 20
421.932839
 30
0.0
 11
157.060689
 21
422.932839
 31
0.0
  0
LINE
  8
LC-009-005-----0
  6
CONTINUOUS
  5
23E
 10
156.060691
 20
424.761268
 30
0.0
 11
157.060692
 21
425.761269
 31
0.0
  0
LINE
  8
LC-009-005-----0
  6
CONTINUOUS
  5
23F
 10
157.573728
 20
426.274304
 30
0.0
 11
160.375233
 21
429.07581
 31
0.0
  0
LINE
  8
LC-009-005-----0
  6
CONTINUOUS
  5
240
 10
154.743938
 20
426.272942
 30
0.0
 11
155.94547
 21
427.474474
 31
0.0
  0
LINE
  8
LC-009-005-----0
  6
CONTINUOUS
  5
241
 10
158.361138
 20
429.890142
 30
0.0
 11
160.369583
 21
431.898587
 31
0.0
  0
LINE
  8
LC-009-005-----0
  6
CONTINUOUS
  5
242
 10
158.360846
 20
432.718277
 30
0.0
 11
160.363933
 21
434.721364
 31
0.0
  0
LINE
  8
LC-009-005-----0
  6
CONTINUOUS
  5
243
 10
157.887884
 20
435.073742
 30
0.0
 11
159.088616
 21
436.274474
 31
0.0
  0
LINE
  8
LC-009-005-----0
  6
CONTINUOUS
  5
244
 10
155.060189
 20
435.074474
 30
0.0
 11
156.260189
 21
436.274474
 31
0.0
  0
LINE
  8
LC-009-005-----0
  6
CONTINUOUS
  5
245
 10
153.260836
 20
436.103548
 30
0.0
 11
153.431762
 21
436.274474
 31
0.0
  0
ENDBLK
  8
0
  5
246
  0
BLOCK
  8
0
  5
248
  2
*X23
 70
    65
 10
216.658536
 20
453.117382
 30
0.0
  3
*X23
  0
LINE
  8
LC-009-005-----0
  6
CONTINUOUS
  5
249
 10
216.658536
 20
453.39585
 30
0.0
 11
216.937004
 21
453.117382
 31
0.0
  0
LINE
  8
LC-009-005-----0
  6
CONTINUOUS
  5
24A
 10
216.658536
 20
453.678693
 30
0.0
 11
217.219847
 21
453.117382
 31
0.0
  0
LINE
  8
LC-009-005-----0
  6
CONTINUOUS
  5
24B
 10
216.658536
 20
453.961536
 30
0.0
 11
217.502689
 21
453.117382
 31
0.0
  0
LINE
  8
LC-009-005-----0
  6
CONTINUOUS
  5
24C
 10
216.658536
 20
454.244378
 30
0.0
 11
217.785532
 21
453.117382
 31
0.0
  0
LINE
  8
LC-009-005-----0
  6
CONTINUOUS
  5
24D
 10
216.878375
 20
454.307382
 30
0.0
 11
218.068375
 21
453.117382
 31
0.0
  0
LINE
  8
LC-009-005-----0
  6
CONTINUOUS
  5
24E
 10
217.161218
 20
454.307382
 30
0.0
 11
218.351218
 21
453.117382
 31
0.0
  0
LINE
  8
LC-009-005-----0
  6
CONTINUOUS
  5
24F
 10
217.44406
 20
454.307382
 30
0.0
 11
218.63406
 21
453.117382
 31
0.0
  0
LINE
  8
LC-009-005-----0
  6
CONTINUOUS
  5
250
 10
217.726903
 20
454.307382
 30
0.0
 11
218.916903
 21
453.117382
 31
0.0
  0
LINE
  8
LC-009-005-----0
  6
CONTINUOUS
  5
251
 10
218.009746
 20
454.307382
 30
0.0
 11
219.199746
 21
453.117382
 31
0.0
  0
LINE
  8
LC-009-005-----0
  6
CONTINUOUS
  5
252
 10
218.292588
 20
454.307382
 30
0.0
 11
219.482588
 21
453.117382
 31
0.0
  0
LINE
  8
LC-009-005-----0
  6
CONTINUOUS
  5
253
 10
218.575431
 20
454.307382
 30
0.0
 11
219.765431
 21
453.117382
 31
0.0
  0
LINE
  8
LC-009-005-----0
  6
CONTINUOUS
  5
254
 10
218.858274
 20
454.307382
 30
0.0
 11
220.048274
 21
453.117382
 31
0.0
  0
LINE
  8
LC-009-005-----0
  6
CONTINUOUS
  5
255
 10
219.141117
 20
454.307382
 30
0.0
 11
220.331117
 21
453.117382
 31
0.0
  0
LINE
  8
LC-009-005-----0
  6
CONTINUOUS
  5
256
 10
219.423959
 20
454.307382
 30
0.0
 11
220.613959
 21
453.117382
 31
0.0
  0
LINE
  8
LC-009-005-----0
  6
CONTINUOUS
  5
257
 10
219.706802
 20
454.307382
 30
0.0
 11
220.808536
 21
453.205648
 31
0.0
  0
LINE
  8
LC-009-005-----0
  6
CONTINUOUS
  5
258
 10
219.989645
 20
454.307382
 30
0.0
 11
220.808536
 21
453.488491
 31
0.0
  0
LINE
  8
LC-009-005-----0
  6
CONTINUOUS
  5
259
 10
220.272487
 20
454.307382
 30
0.0
 11
220.808536
 21
453.771334
 31
0.0
  0
LINE
  8
LC-009-005-----0
  6
CONTINUOUS
  5
25A
 10
220.55533
 20
454.307382
 30
0.0
 11
220.808536
 21
454.054176
 31
0.0
  0
ENDBLK
  8
0
  5
25B
  0
BLOCK
  8
0
  5
25D
  2
*X24
 70
    65
 10
255.508536
 20
453.117382
 30
0.0
  3
*X24
  0
LINE
  8
LC-009-005-----0
  6
CONTINUOUS
  5
25E
 10
255.508536
 20
453.295302
 30
0.0
 11
255.686456
 21
453.117382
 31
0.0
  0
LINE
  8
LC-009-005-----0
  6
CONTINUOUS
  5
25F
 10
255.508536
 20
453.578145
 30
0.0
 11
255.969298
 21
453.117382
 31
0.0
  0
LINE
  8
LC-009-005-----0
  6
CONTINUOUS
  5
260
 10
255.508536
 20
453.860987
 30
0.0
 11
256.252141
 21
453.117382
 31
0.0
  0
LINE
  8
LC-009-005-----0
  6
CONTINUOUS
  5
261
 10
255.508536
 20
454.14383
 30
0.0
 11
256.534984
 21
453.117382
 31
0.0
  0
LINE
  8
LC-009-005-----0
  6
CONTINUOUS
  5
262
 10
255.627826
 20
454.307382
 30
0.0
 11
256.817826
 21
453.117382
 31
0.0
  0
LINE
  8
LC-009-005-----0
  6
CONTINUOUS
  5
263
 10
255.910669
 20
454.307382
 30
0.0
 11
257.100669
 21
453.117382
 31
0.0
  0
LINE
  8
LC-009-005-----0
  6
CONTINUOUS
  5
264
 10
256.193512
 20
454.307382
 30
0.0
 11
257.383512
 21
453.117382
 31
0.0
  0
LINE
  8
LC-009-005-----0
  6
CONTINUOUS
  5
265
 10
256.476355
 20
454.307382
 30
0.0
 11
257.666355
 21
453.117382
 31
0.0
  0
LINE
  8
LC-009-005-----0
  6
CONTINUOUS
  5
266
 10
256.759197
 20
454.307382
 30
0.0
 11
257.949197
 21
453.117382
 31
0.0
  0
LINE
  8
LC-009-005-----0
  6
CONTINUOUS
  5
267
 10
257.04204
 20
454.307382
 30
0.0
 11
258.23204
 21
453.117382
 31
0.0
  0
LINE
  8
LC-009-005-----0
  6
CONTINUOUS
  5
268
 10
257.324883
 20
454.307382
 30
0.0
 11
258.514883
 21
453.117382
 31
0.0
  0
LINE
  8
LC-009-005-----0
  6
CONTINUOUS
  5
269
 10
257.607725
 20
454.307382
 30
0.0
 11
258.797725
 21
453.117382
 31
0.0
  0
LINE
  8
LC-009-005-----0
  6
CONTINUOUS
  5
26A
 10
257.890568
 20
454.307382
 30
0.0
 11
259.080568
 21
453.117382
 31
0.0
  0
LINE
  8
LC-009-005-----0
  6
CONTINUOUS
  5
26B
 10
258.173411
 20
454.307382
 30
0.0
 11
259.363411
 21
453.117382
 31
0.0
  0
LINE
  8
LC-009-005-----0
  6
CONTINUOUS
  5
26C
 10
258.456254
 20
454.307382
 30
0.0
 11
259.646254
 21
453.117382
 31
0.0
  0
LINE
  8
LC-009-005-----0
  6
CONTINUOUS
  5
26D
 10
258.739096
 20
454.307382
 30
0.0
 11
259.658536
 21
453.387943
 31
0.0
  0
LINE
  8
LC-009-005-----0
  6
CONTINUOUS
  5
26E
 10
259.021939
 20
454.307382
 30
0.0
 11
259.658536
 21
453.670785
 31
0.0
  0
LINE
  8
LC-009-005-----0
  6
CONTINUOUS
  5
26F
 10
259.304782
 20
454.307382
 30
0.0
 11
259.658536
 21
453.953628
 31
0.0
  0
LINE
  8
LC-009-005-----0
  6
CONTINUOUS
  5
270
 10
259.587624
 20
454.307382
 30
0.0
 11
259.658536
 21
454.236471
 31
0.0
  0
ENDBLK
  8
0
  5
271
  0
BLOCK
  8
0
  5
273
  2
*X25
 70
    65
 10
190.198536
 20
447.807382
 30
0.0
  3
*X25
  0
LINE
  8
LC-009-005-----0
  6
CONTINUOUS
  5
274
 10
218.258536
 20
449.250266
 30
0.0
 11
219.70142
 21
447.807382
 31
0.0
  0
LINE
  8
LC-009-005-----0
  6
CONTINUOUS
  5
275
 10
219.225937
 20
451.111292
 30
0.0
 11
222.529847
 21
447.807382
 31
0.0
  0
LINE
  8
LC-009-005-----0
  6
CONTINUOUS
  5
276
 10
216.658536
 20
456.50712
 30
0.0
 11
218.858274
 21
454.307382
 31
0.0
  0
LINE
  8
LC-009-005-----0
  6
CONTINUOUS
  5
277
 10
220.808536
 20
452.35712
 30
0.0
 11
222.808536
 21
450.35712
 31
0.0
  0
LINE
  8
LC-009-005-----0
  6
CONTINUOUS
  5
278
 10
218.686701
 20
457.307382
 30
0.0
 11
222.808536
 21
453.185547
 31
0.0
  0
LINE
  8
LC-009-005-----0
  6
CONTINUOUS
  5
279
 10
221.515128
 20
457.307382
 30
0.0
 11
224.016893
 21
454.805617
 31
0.0
  0
LINE
  8
LC-009-005-----0
  6
CONTINUOUS
  5
27A
 10
225.083514
 20
456.567423
 30
0.0
 11
227.858574
 21
453.792363
 31
0.0
  0
LINE
  8
LC-009-005-----0
  6
CONTINUOUS
  5
27B
 10
228.860567
 20
455.618797
 30
0.0
 11
231.315354
 21
453.16401
 31
0.0
  0
LINE
  8
LC-009-005-----0
  6
CONTINUOUS
  5
27C
 10
232.259073
 20
455.048719
 30
0.0
 11
234.494321
 21
452.81347
 31
0.0
  0
LINE
  8
LC-009-005-----0
  6
CONTINUOUS
  5
27D
 10
235.383838
 20
454.75238
 30
0.0
 11
237.45781
 21
452.678409
 31
0.0
  0
ENDBLK
  8
0
  5
27E
  0
BLOCK
  8
0
  5
280
  2
*X26
 70
    65
 10
190.198536
 20
447.807382
 30
0.0
  3
*X26
  0
LINE
  8
LC-009-005-----0
  6
CONTINUOUS
  5
281
 10
238.295885
 20
454.668761
 30
0.0
 11
240.24591
 21
452.718736
 31
0.0
  0
LINE
  8
LC-009-005-----0
  6
CONTINUOUS
  5
282
 10
241.034459
 20
454.758614
 30
0.0
 11
242.886199
 21
452.906873
 31
0.0
  0
LINE
  8
LC-009-005-----0
  6
CONTINUOUS
  5
283
 10
243.626546
 20
454.994954
 30
0.0
 11
245.398582
 21
453.222918
 31
0.0
  0
LINE
  8
LC-009-005-----0
  6
CONTINUOUS
  5
284
 10
246.09161
 20
455.358317
 30
0.0
 11
247.797946
 21
453.651981
 31
0.0
  0
LINE
  8
LC-009-005-----0
  6
CONTINUOUS
  5
285
 10
253.508536
 20
447.941391
 30
0.0
 11
253.642545
 21
447.807382
 31
0.0
  0
LINE
  8
LC-009-005-----0
  6
CONTINUOUS
  5
286
 10
248.444194
 20
455.83416
 30
0.0
 11
250.095736
 21
454.182618
 31
0.0
  0
LINE
  8
LC-009-005-----0
  6
CONTINUOUS
  5
287
 10
253.508536
 20
450.769819
 30
0.0
 11
256.470972
 21
447.807382
 31
0.0
  0
LINE
  8
LC-009-005-----0
  6
CONTINUOUS
  5
288
 10
250.695458
 20
456.411323
 30
0.0
 11
252.300931
 21
454.80585
 31
0.0
  0
LINE
  8
LC-009-005-----0
  6
CONTINUOUS
  5
289
 10
253.508536
 20
453.598246
 30
0.0
 11
255.508536
 21
451.598246
 31
0.0
  0
LINE
  8
LC-009-005-----0
  6
CONTINUOUS
  5
28A
 10
255.995489
 20
451.111292
 30
0.0
 11
258.058536
 21
449.048246
 31
0.0
  0
LINE
  8
LC-009-005-----0
  6
CONTINUOUS
  5
28B
 10
252.85414
 20
457.081068
 30
0.0
 11
255.627826
 21
454.307382
 31
0.0
  0
LINE
  8
LC-009-005-----0
  6
CONTINUOUS
  5
28C
 10
255.456254
 20
457.307382
 30
0.0
 11
258.456254
 21
454.307382
 31
0.0
  0
LINE
  8
LC-009-005-----0
  6
CONTINUOUS
  5
28D
 10
258.284681
 20
457.307382
 30
0.0
 11
259.658536
 21
455.933527
 31
0.0
  0
ENDBLK
  8
0
  5
28E
  0
BLOCK
  8
0
  5
290
  2
*X27
 70
    65
 10
255.508536
 20
426.270158
 30
0.0
  3
*X27
  0
LINE
  8
LC-009-005-----0
  6
CONTINUOUS
  5
291
 10
279.191948
 20
426.270158
 30
0.0
 11
280.395022
 21
427.473232
 31
0.0
  0
LINE
  8
LC-009-005-----0
  6
CONTINUOUS
  5
292
 10
276.367554
 20
426.274191
 30
0.0
 11
277.567758
 21
427.474395
 31
0.0
  0
LINE
  8
LC-009-005-----0
  6
CONTINUOUS
  5
293
 10
274.38586
 20
427.120925
 30
0.0
 11
275.760973
 21
428.496037
 31
0.0
  0
LINE
  8
LC-009-005-----0
  6
CONTINUOUS
  5
294
 10
273.76088
 20
429.324372
 30
0.0
 11
275.760984
 21
431.324476
 31
0.0
  0
LINE
  8
LC-009-005-----0
  6
CONTINUOUS
  5
295
 10
279.510901
 20
435.074393
 30
0.0
 11
280.710908
 21
436.2744
 31
0.0
  0
LINE
  8
LC-009-005-----0
  6
CONTINUOUS
  5
296
 10
273.760703
 20
432.152622
 30
0.0
 11
275.760996
 21
434.152915
 31
0.0
  0
LINE
  8
LC-009-005-----0
  6
CONTINUOUS
  5
297
 10
276.682477
 20
435.074396
 30
0.0
 11
277.882481
 21
436.2744
 31
0.0
  0
LINE
  8
LC-009-005-----0
  6
CONTINUOUS
  5
298
 10
273.760703
 20
434.981049
 30
0.0
 11
277.013466
 21
438.233812
 31
0.0
  0
LINE
  8
LC-009-005-----0
  6
CONTINUOUS
  5
299
 10
273.760704
 20
437.809477
 30
0.0
 11
276.758714
 21
440.807487
 31
0.0
  0
LINE
  8
LC-009-005-----0
  6
CONTINUOUS
  5
29A
 10
273.760705
 20
440.637905
 30
0.0
 11
276.503962
 21
443.381162
 31
0.0
  0
LINE
  8
LC-009-005-----0
  6
CONTINUOUS
  5
29B
 10
273.760705
 20
443.466333
 30
0.0
 11
276.206366
 21
445.911994
 31
0.0
  0
LINE
  8
LC-009-005-----0
  6
CONTINUOUS
  5
29C
 10
273.493351
 20
446.027405
 30
0.0
 11
275.493371
 21
448.027426
 31
0.0
  0
LINE
  8
LC-009-005-----0
  6
CONTINUOUS
  5
29D
 10
272.603661
 20
447.966143
 30
0.0
 11
274.39811
 21
449.760591
 31
0.0
  0
LINE
  8
LC-009-005-----0
  6
CONTINUOUS
  5
29E
 10
271.272427
 20
449.463336
 30
0.0
 11
272.978706
 21
451.169615
 31
0.0
  0
LINE
  8
LC-009-005-----0
  6
CONTINUOUS
  5
29F
 10
269.52362
 20
450.542956
 30
0.0
 11
271.234319
 21
452.253655
 31
0.0
  0
LINE
  8
LC-009-005-----0
  6
CONTINUOUS
  5
2A0
 10
267.246642
 20
451.094405
 30
0.0
 11
269.104283
 21
452.952046
 31
0.0
  0
LINE
  8
LC-009-005-----0
  6
CONTINUOUS
  5
2A1
 10
264.435102
 20
451.111292
 30
0.0
 11
266.441192
 21
453.117382
 31
0.0
  0
LINE
  8
LC-009-005-----0
  6
CONTINUOUS
  5
2A2
 10
261.606675
 20
451.111292
 30
0.0
 11
263.612765
 21
453.117382
 31
0.0
  0
LINE
  8
LC-009-005-----0
  6
CONTINUOUS
  5
2A3
 10
258.778248
 20
451.111292
 30
0.0
 11
260.784337
 21
453.117382
 31
0.0
  0
LINE
  8
LC-009-005-----0
  6
CONTINUOUS
  5
2A4
 10
255.94982
 20
451.111292
 30
0.0
 11
257.95591
 21
453.117382
 31
0.0
  0
ENDBLK
  8
0
  5
2A5
  0
BLOCK
  8
0
  5
2A7
  2
*X28
 70
    65
 10
275.740962
 20
427.474314
 30
0.0
  3
*X28
  0
LINE
  8
LC-009-005-----0
  6
CONTINUOUS
  5
2A8
 10
275.756064
 20
429.936504
 30
0.0
 11
278.203152
 21
427.489416
 31
0.0
  0
LINE
  8
LC-009-005-----0
  6
CONTINUOUS
  5
2A9
 10
275.740962
 20
431.365819
 30
0.0
 11
279.457149
 21
427.649633
 31
0.0
  0
LINE
  8
LC-009-005-----0
  6
CONTINUOUS
  5
2AA
 10
275.773688
 20
432.747307
 30
0.0
 11
280.335937
 21
428.185058
 31
0.0
  0
LINE
  8
LC-009-005-----0
  6
CONTINUOUS
  5
2AB
 10
276.156827
 20
433.778382
 30
0.0
 11
280.947328
 21
428.987881
 31
0.0
  0
LINE
  8
LC-009-005-----0
  6
CONTINUOUS
  5
2AC
 10
276.831919
 20
434.517503
 30
0.0
 11
281.238618
 21
430.110804
 31
0.0
  0
LINE
  8
LC-009-005-----0
  6
CONTINUOUS
  5
2AD
 10
277.782221
 20
434.981415
 30
0.0
 11
281.240962
 21
431.522674
 31
0.0
  0
LINE
  8
LC-009-005-----0
  6
CONTINUOUS
  5
2AE
 10
279.195251
 20
434.982598
 30
0.0
 11
281.149246
 21
433.028603
 31
0.0
  0
ENDBLK
  8
0
  5
2AF
  0
BLOCK
  8
0
  5
2B1
  2
*D29
 70
    65
 10
0.0
 20
0.0
 30
0.0
  3
*D29
  0
LINE
  8
LC-007-003-MTH-0
  6
CONTINUOUS
  5
2B2
 10
66.060914
 20
468.959407
 30
0.0
 11
66.060914
 21
257.6
 31
0.0
  0
LINE
  8
LC-007-003-MTH-0
  6
CONTINUOUS
  5
2B3
 10
451.767527
 20
381.064065
 30
0.0
 11
451.767527
 21
257.6
 31
0.0
  0
LINE
  8
LC-008-003-MTG-0
  6
CONTINUOUS
  5
2B4
 10
66.060914
 20
274.4
 30
0.0
 11
451.767527
 21
274.4
 31
0.0
  0
LINE
  8
LC-006-003-----0
  6
CONTINUOUS
  5
2B5
 10
93.82137
 20
278.054733
 30
0.0
 11
66.060914
 21
274.4
 31
0.0
  0
LINE
  8
LC-006-003-----0
  6
CONTINUOUS
  5
2B6
 10
66.060914
 20
274.4
 30
0.0
 11
93.82137
 21
270.745267
 31
0.0
  0
LINE
  8
LC-006-003-----0
  6
CONTINUOUS
  5
2B7
 10
93.82137
 20
270.745267
 30
0.0
 11
93.82137
 21
278.054733
 31
0.0
  0
LINE
  8
LC-006-003-----0
  6
CONTINUOUS
  5
2B8
 10
93.883652
 20
277.104503
 30
0.0
 11
73.340914
 21
274.4
 31
0.0
  0
LINE
  8
LC-006-003-----0
  6
CONTINUOUS
  5
2B9
 10
73.340914
 20
274.4
 30
0.0
 11
93.883652
 21
271.695497
 31
0.0
  0
LINE
  8
LC-006-003-----0
  6
CONTINUOUS
  5
2BA
 10
93.945933
 20
276.154272
 30
0.0
 11
80.620914
 21
274.4
 31
0.0
  0
LINE
  8
LC-006-003-----0
  6
CONTINUOUS
  5
2BB
 10
80.620914
 20
274.4
 30
0.0
 11
93.945933
 21
272.645728
 31
0.0
  0
LINE
  8
LC-006-003-----0
  6
CONTINUOUS
  5
2BC
 10
94.008215
 20
275.204041
 30
0.0
 11
87.900914
 21
274.4
 31
0.0
  0
LINE
  8
LC-006-003-----0
  6
CONTINUOUS
  5
2BD
 10
87.900914
 20
274.4
 30
0.0
 11
94.008215
 21
273.595959
 31
0.0
  0
LINE
  8
LC-006-003-----0
  6
CONTINUOUS
  5
2BE
 10
424.007071
 20
270.745267
 30
0.0
 11
451.767527
 21
274.4
 31
0.0
  0
LINE
  8
LC-006-003-----0
  6
CONTINUOUS
  5
2BF
 10
451.767527
 20
274.4
 30
0.0
 11
424.007071
 21
278.054733
 31
0.0
  0
LINE
  8
LC-006-003-----0
  6
CONTINUOUS
  5
2C0
 10
424.007071
 20
278.054733
 30
0.0
 11
424.007071
 21
270.745267
 31
0.0
  0
LINE
  8
LC-006-003-----0
  6
CONTINUOUS
  5
2C1
 10
423.94479
 20
271.695497
 30
0.0
 11
444.487527
 21
274.4
 31
0.0
  0
LINE
  8
LC-006-003-----0
  6
CONTINUOUS
  5
2C2
 10
444.487527
 20
274.4
 30
0.0
 11
423.94479
 21
277.104503
 31
0.0
  0
LINE
  8
LC-006-003-----0
  6
CONTINUOUS
  5
2C3
 10
423.882509
 20
272.645728
 30
0.0
 11
437.207527
 21
274.4
 31
0.0
  0
LINE
  8
LC-006-003-----0
  6
CONTINUOUS
  5
2C4
 10
437.207527
 20
274.4
 30
0.0
 11
423.882509
 21
276.154272
 31
0.0
  0
LINE
  8
LC-006-003-----0
  6
CONTINUOUS
  5
2C5
 10
423.820227
 20
273.595959
 30
0.0
 11
429.927527
 21
274.4
 31
0.0
  0
LINE
  8
LC-006-003-----0
  6
CONTINUOUS
  5
2C6
 10
429.927527
 20
274.4
 30
0.0
 11
423.820227
 21
275.204041
 31
0.0
  0
TEXT
  8
LC-006-003-----0
  6
CONTINUOUS
 62
     8
  5
2C7
 10
233.498601
 20
282.227554
 30
0.0
 40
28.0
  1
385
 51
15.0
  7
LC-TXTSTYLE-150-400-0-0-D0
 72
     1
 11
263.262381
 21
282.227554
 31
0.0
  0
ENDBLK
  8
0
  5
2C8
  0
BLOCK
  8
0
  5
2CA
  2
BLK7
 70
    64
 10
0.0
 20
0.0
 30
0.0
  3
BLK7
  0
ENDBLK
  8
0
  5
2CB
  0
BLOCK
  8
0
  5
2CD
  2
*X31
 70
    65
 10
107.699022
 20
440.756122
 30
0.0
  3
*X31
  0
LINE
  8
LC-009-005-----0
  6
CONTINUOUS
  5
2CE
 10
143.771274
 20
440.756122
 30
0.0
 11
144.09852
 21
441.083368
 31
0.0
  0
LINE
  8
LC-009-005-----0
  6
CONTINUOUS
  5
2CF
 10
140.977582
 20
440.790858
 30
0.0
 11
141.642846
 21
441.456122
 31
0.0
  0
LINE
  8
LC-009-005-----0
  6
CONTINUOUS
  5
2D0
 10
139.811527
 20
442.453229
 30
0.0
 11
141.101413
 21
443.743115
 31
0.0
  0
LINE
  8
LC-009-005-----0
  6
CONTINUOUS
  5
2D1
 10
141.59852
 20
444.240222
 30
0.0
 11
142.29852
 21
444.940222
 31
0.0
  0
LINE
  8
LC-009-005-----0
  6
CONTINUOUS
  5
2D2
 10
141.187746
 20
446.657875
 30
0.0
 11
141.768948
 21
447.239077
 31
0.0
  0
LINE
  8
LC-009-005-----0
  6
CONTINUOUS
  5
2D3
 10
139.119005
 20
447.417561
 30
0.0
 11
139.617974
 21
447.916531
 31
0.0
  0
LINE
  8
LC-009-005-----0
  6
CONTINUOUS
  5
2D4
 10
137.964403
 20
449.091386
 30
0.0
 11
138.541338
 21
449.668322
 31
0.0
  0
LINE
  8
LC-009-005-----0
  6
CONTINUOUS
  5
2D5
 10
137.79852
 20
451.753931
 30
0.0
 11
138.49852
 21
452.453931
 31
0.0
  0
LINE
  8
LC-009-005-----0
  6
CONTINUOUS
  5
2D6
 10
137.79852
 20
454.582358
 30
0.0
 11
138.49852
 21
455.282358
 31
0.0
  0
LINE
  8
LC-009-005-----0
  6
CONTINUOUS
  5
2D7
 10
137.79852
 20
457.410785
 30
0.0
 11
138.49852
 21
458.110785
 31
0.0
  0
LINE
  8
LC-009-005-----0
  6
CONTINUOUS
  5
2D8
 10
137.79852
 20
460.239212
 30
0.0
 11
138.49852
 21
460.939212
 31
0.0
  0
LINE
  8
LC-009-005-----0
  6
CONTINUOUS
  5
2D9
 10
137.79852
 20
463.067639
 30
0.0
 11
138.49852
 21
463.767639
 31
0.0
  0
LINE
  8
LC-009-005-----0
  6
CONTINUOUS
  5
2DA
 10
137.53836
 20
465.635906
 30
0.0
 11
138.090629
 21
466.188176
 31
0.0
  0
LINE
  8
LC-009-005-----0
  6
CONTINUOUS
  5
2DB
 10
136.606211
 20
467.532185
 30
0.0
 11
137.102414
 21
468.028388
 31
0.0
  0
LINE
  8
LC-009-005-----0
  6
CONTINUOUS
  5
2DC
 10
135.192875
 20
468.947276
 30
0.0
 11
135.687461
 21
469.441862
 31
0.0
  0
LINE
  8
LC-009-005-----0
  6
CONTINUOUS
  5
2DD
 10
133.298675
 20
469.881503
 30
0.0
 11
133.845559
 21
470.428387
 31
0.0
  0
LINE
  8
LC-009-005-----0
  6
CONTINUOUS
  5
2DE
 10
130.797326
 20
470.208581
 30
0.0
 11
131.443286
 21
470.854541
 31
0.0
  0
LINE
  8
LC-009-005-----0
  6
CONTINUOUS
  5
2DF
 10
128.153756
 20
470.393438
 30
0.0
 11
128.799715
 21
471.039397
 31
0.0
  0
LINE
  8
LC-009-005-----0
  6
CONTINUOUS
  5
2E0
 10
125.510185
 20
470.578294
 30
0.0
 11
126.156144
 21
471.224254
 31
0.0
  0
LINE
  8
LC-009-005-----0
  6
CONTINUOUS
  5
2E1
 10
122.866615
 20
470.763151
 30
0.0
 11
123.512574
 21
471.40911
 31
0.0
  0
LINE
  8
LC-009-005-----0
  6
CONTINUOUS
  5
2E2
 10
120.223044
 20
470.948007
 30
0.0
 11
120.869003
 21
471.593967
 31
0.0
  0
LINE
  8
LC-009-005-----0
  6
CONTINUOUS
  5
2E3
 10
117.579473
 20
471.132864
 30
0.0
 11
118.225433
 21
471.778823
 31
0.0
  0
LINE
  8
LC-009-005-----0
  6
CONTINUOUS
  5
2E4
 10
114.935903
 20
471.31772
 30
0.0
 11
115.581862
 21
471.96368
 31
0.0
  0
LINE
  8
LC-009-005-----0
  6
CONTINUOUS
  5
2E5
 10
112.496627
 20
471.706872
 30
0.0
 11
113.058483
 21
472.268728
 31
0.0
  0
LINE
  8
LC-009-005-----0
  6
CONTINUOUS
  5
2E6
 10
110.622319
 20
472.660991
 30
0.0
 11
111.124767
 21
473.163439
 31
0.0
  0
ENDBLK
  8
0
  5
2E7
  0
BLOCK
  8
0
  5
2E9
  2
*X32
 70
    65
 10
-32.748693
 20
471.966605
 30
0.0
  3
*X32
  0
LINE
  8
LC-009-005-----0
  6
CONTINUOUS
  5
2EA
 10
-23.008142
 20
471.966605
 30
0.0
 11
-22.748693
 21
472.226054
 31
0.0
  0
LINE
  8
LC-009-005-----0
  6
CONTINUOUS
  5
2EB
 10
-23.573827
 20
471.966605
 30
0.0
 11
-22.748693
 21
472.791739
 31
0.0
  0
LINE
  8
LC-009-005-----0
  6
CONTINUOUS
  5
2EC
 10
-24.139512
 20
471.966605
 30
0.0
 11
-22.748693
 21
473.357425
 31
0.0
  0
LINE
  8
LC-009-005-----0
  6
CONTINUOUS
  5
2ED
 10
-24.705198
 20
471.966605
 30
0.0
 11
-22.748693
 21
473.92311
 31
0.0
  0
LINE
  8
LC-009-005-----0
  6
CONTINUOUS
  5
2EE
 10
-25.270883
 20
471.966605
 30
0.0
 11
-22.748693
 21
474.488796
 31
0.0
  0
LINE
  8
LC-009-005-----0
  6
CONTINUOUS
  5
2EF
 10
-25.836569
 20
471.966605
 30
0.0
 11
-22.748693
 21
475.054481
 31
0.0
  0
LINE
  8
LC-009-005-----0
  6
CONTINUOUS
  5
2F0
 10
-26.402254
 20
471.966605
 30
0.0
 11
-22.748693
 21
475.620166
 31
0.0
  0
LINE
  8
LC-009-005-----0
  6
CONTINUOUS
  5
2F1
 10
-26.96794
 20
471.966605
 30
0.0
 11
-22.748693
 21
476.185852
 31
0.0
  0
LINE
  8
LC-009-005-----0
  6
CONTINUOUS
  5
2F2
 10
-27.533625
 20
471.966605
 30
0.0
 11
-22.833625
 21
476.666605
 31
0.0
  0
LINE
  8
LC-009-005-----0
  6
CONTINUOUS
  5
2F3
 10
-28.09931
 20
471.966605
 30
0.0
 11
-23.39931
 21
476.666605
 31
0.0
  0
LINE
  8
LC-009-005-----0
  6
CONTINUOUS
  5
2F4
 10
-28.664996
 20
471.966605
 30
0.0
 11
-23.964996
 21
476.666605
 31
0.0
  0
LINE
  8
LC-009-005-----0
  6
CONTINUOUS
  5
2F5
 10
-29.230681
 20
471.966605
 30
0.0
 11
-24.530681
 21
476.666605
 31
0.0
  0
LINE
  8
LC-009-005-----0
  6
CONTINUOUS
  5
2F6
 10
-29.796367
 20
471.966605
 30
0.0
 11
-25.096367
 21
476.666605
 31
0.0
  0
LINE
  8
LC-009-005-----0
  6
CONTINUOUS
  5
2F7
 10
-30.362052
 20
471.966605
 30
0.0
 11
-25.662052
 21
476.666605
 31
0.0
  0
LINE
  8
LC-009-005-----0
  6
CONTINUOUS
  5
2F8
 10
-30.927738
 20
471.966605
 30
0.0
 11
-26.227738
 21
476.666605
 31
0.0
  0
LINE
  8
LC-009-005-----0
  6
CONTINUOUS
  5
2F9
 10
-31.493423
 20
471.966605
 30
0.0
 11
-26.793423
 21
476.666605
 31
0.0
  0
LINE
  8
LC-009-005-----0
  6
CONTINUOUS
  5
2FA
 10
-32.059108
 20
471.966605
 30
0.0
 11
-27.359108
 21
476.666605
 31
0.0
  0
LINE
  8
LC-009-005-----0
  6
CONTINUOUS
  5
2FB
 10
-32.624794
 20
471.966605
 30
0.0
 11
-27.924794
 21
476.666605
 31
0.0
  0
LINE
  8
LC-009-005-----0
  6
CONTINUOUS
  5
2FC
 10
-32.748693
 20
472.408391
 30
0.0
 11
-28.490479
 21
476.666605
 31
0.0
  0
LINE
  8
LC-009-005-----0
  6
CONTINUOUS
  5
2FD
 10
-32.748693
 20
472.974077
 30
0.0
 11
-29.056165
 21
476.666605
 31
0.0
  0
LINE
  8
LC-009-005-----0
  6
CONTINUOUS
  5
2FE
 10
-32.748693
 20
473.539762
 30
0.0
 11
-29.62185
 21
476.666605
 31
0.0
  0
LINE
  8
LC-009-005-----0
  6
CONTINUOUS
  5
2FF
 10
-32.748693
 20
474.105448
 30
0.0
 11
-30.187536
 21
476.666605
 31
0.0
  0
LINE
  8
LC-009-005-----0
  6
CONTINUOUS
  5
300
 10
-32.748693
 20
474.671133
 30
0.0
 11
-30.753221
 21
476.666605
 31
0.0
  0
LINE
  8
LC-009-005-----0
  6
CONTINUOUS
  5
301
 10
-32.748693
 20
475.236819
 30
0.0
 11
-31.318906
 21
476.666605
 31
0.0
  0
LINE
  8
LC-009-005-----0
  6
CONTINUOUS
  5
302
 10
-32.748693
 20
475.802504
 30
0.0
 11
-31.884592
 21
476.666605
 31
0.0
  0
LINE
  8
LC-009-005-----0
  6
CONTINUOUS
  5
303
 10
-32.748693
 20
476.368189
 30
0.0
 11
-32.450277
 21
476.666605
 31
0.0
  0
ENDBLK
  8
0
  5
304
  0
BLOCK
  8
0
  5
306
  2
*X33
 70
    65
 10
-12.748693
 20
471.966605
 30
0.0
  3
*X33
  0
LINE
  8
LC-009-005-----0
  6
CONTINUOUS
  5
307
 10
-3.209152
 20
471.966605
 30
0.0
 11
-2.748693
 21
472.427064
 31
0.0
  0
LINE
  8
LC-009-005-----0
  6
CONTINUOUS
  5
308
 10
-3.774837
 20
471.966605
 30
0.0
 11
-2.748693
 21
472.992749
 31
0.0
  0
LINE
  8
LC-009-005-----0
  6
CONTINUOUS
  5
309
 10
-4.340523
 20
471.966605
 30
0.0
 11
-2.748693
 21
473.558435
 31
0.0
  0
LINE
  8
LC-009-005-----0
  6
CONTINUOUS
  5
30A
 10
-4.906208
 20
471.966605
 30
0.0
 11
-2.748693
 21
474.12412
 31
0.0
  0
LINE
  8
LC-009-005-----0
  6
CONTINUOUS
  5
30B
 10
-5.471893
 20
471.966605
 30
0.0
 11
-2.748693
 21
474.689806
 31
0.0
  0
LINE
  8
LC-009-005-----0
  6
CONTINUOUS
  5
30C
 10
-6.037579
 20
471.966605
 30
0.0
 11
-2.748693
 21
475.255491
 31
0.0
  0
LINE
  8
LC-009-005-----0
  6
CONTINUOUS
  5
30D
 10
-6.603264
 20
471.966605
 30
0.0
 11
-2.748693
 21
475.821177
 31
0.0
  0
LINE
  8
LC-009-005-----0
  6
CONTINUOUS
  5
30E
 10
-7.16895
 20
471.966605
 30
0.0
 11
-2.748693
 21
476.386862
 31
0.0
  0
LINE
  8
LC-009-005-----0
  6
CONTINUOUS
  5
30F
 10
-7.734635
 20
471.966605
 30
0.0
 11
-3.034635
 21
476.666605
 31
0.0
  0
LINE
  8
LC-009-005-----0
  6
CONTINUOUS
  5
310
 10
-8.300321
 20
471.966605
 30
0.0
 11
-3.600321
 21
476.666605
 31
0.0
  0
LINE
  8
LC-009-005-----0
  6
CONTINUOUS
  5
311
 10
-8.866006
 20
471.966605
 30
0.0
 11
-4.166006
 21
476.666605
 31
0.0
  0
LINE
  8
LC-009-005-----0
  6
CONTINUOUS
  5
312
 10
-9.431691
 20
471.966605
 30
0.0
 11
-4.731691
 21
476.666605
 31
0.0
  0
LINE
  8
LC-009-005-----0
  6
CONTINUOUS
  5
313
 10
-9.997377
 20
471.966605
 30
0.0
 11
-5.297377
 21
476.666605
 31
0.0
  0
LINE
  8
LC-009-005-----0
  6
CONTINUOUS
  5
314
 10
-10.563062
 20
471.966605
 30
0.0
 11
-5.863062
 21
476.666605
 31
0.0
  0
LINE
  8
LC-009-005-----0
  6
CONTINUOUS
  5
315
 10
-11.128748
 20
471.966605
 30
0.0
 11
-6.428748
 21
476.666605
 31
0.0
  0
LINE
  8
LC-009-005-----0
  6
CONTINUOUS
  5
316
 10
-11.694433
 20
471.966605
 30
0.0
 11
-6.994433
 21
476.666605
 31
0.0
  0
LINE
  8
LC-009-005-----0
  6
CONTINUOUS
  5
317
 10
-12.260119
 20
471.966605
 30
0.0
 11
-7.560119
 21
476.666605
 31
0.0
  0
LINE
  8
LC-009-005-----0
  6
CONTINUOUS
  5
318
 10
-12.748693
 20
472.043716
 30
0.0
 11
-8.125804
 21
476.666605
 31
0.0
  0
LINE
  8
LC-009-005-----0
  6
CONTINUOUS
  5
319
 10
-12.748693
 20
472.609402
 30
0.0
 11
-8.691489
 21
476.666605
 31
0.0
  0
LINE
  8
LC-009-005-----0
  6
CONTINUOUS
  5
31A
 10
-12.748693
 20
473.175087
 30
0.0
 11
-9.257175
 21
476.666605
 31
0.0
  0
LINE
  8
LC-009-005-----0
  6
CONTINUOUS
  5
31B
 10
-12.748693
 20
473.740772
 30
0.0
 11
-9.82286
 21
476.666605
 31
0.0
  0
LINE
  8
LC-009-005-----0
  6
CONTINUOUS
  5
31C
 10
-12.748693
 20
474.306458
 30
0.0
 11
-10.388546
 21
476.666605
 31
0.0
  0
LINE
  8
LC-009-005-----0
  6
CONTINUOUS
  5
31D
 10
-12.748693
 20
474.872143
 30
0.0
 11
-10.954231
 21
476.666605
 31
0.0
  0
LINE
  8
LC-009-005-----0
  6
CONTINUOUS
  5
31E
 10
-12.748693
 20
475.437829
 30
0.0
 11
-11.519917
 21
476.666605
 31
0.0
  0
LINE
  8
LC-009-005-----0
  6
CONTINUOUS
  5
31F
 10
-12.748693
 20
476.003514
 30
0.0
 11
-12.085602
 21
476.666605
 31
0.0
  0
LINE
  8
LC-009-005-----0
  6
CONTINUOUS
  5
320
 10
-12.748693
 20
476.5692
 30
0.0
 11
-12.651287
 21
476.666605
 31
0.0
  0
ENDBLK
  8
0
  5
321
  0
BLOCK
  8
0
  5
323
  2
*X34
 70
    65
 10
7.251307
 20
471.966605
 30
0.0
  3
*X34
  0
LINE
  8
LC-009-005-----0
  6
CONTINUOUS
  5
324
 10
17.155524
 20
471.966605
 30
0.0
 11
17.251307
 21
472.062389
 31
0.0
  0
LINE
  8
LC-009-005-----0
  6
CONTINUOUS
  5
325
 10
16.589838
 20
471.966605
 30
0.0
 11
17.251307
 21
472.628074
 31
0.0
  0
LINE
  8
LC-009-005-----0
  6
CONTINUOUS
  5
326
 10
16.024153
 20
471.966605
 30
0.0
 11
17.251307
 21
473.19376
 31
0.0
  0
LINE
  8
LC-009-005-----0
  6
CONTINUOUS
  5
327
 10
15.458467
 20
471.966605
 30
0.0
 11
17.251307
 21
473.759445
 31
0.0
  0
LINE
  8
LC-009-005-----0
  6
CONTINUOUS
  5
328
 10
14.892782
 20
471.966605
 30
0.0
 11
17.251307
 21
474.32513
 31
0.0
  0
LINE
  8
LC-009-005-----0
  6
CONTINUOUS
  5
329
 10
14.327096
 20
471.966605
 30
0.0
 11
17.251307
 21
474.890816
 31
0.0
  0
LINE
  8
LC-009-005-----0
  6
CONTINUOUS
  5
32A
 10
13.761411
 20
471.966605
 30
0.0
 11
17.251307
 21
475.456501
 31
0.0
  0
LINE
  8
LC-009-005-----0
  6
CONTINUOUS
  5
32B
 10
13.195726
 20
471.966605
 30
0.0
 11
17.251307
 21
476.022187
 31
0.0
  0
LINE
  8
LC-009-005-----0
  6
CONTINUOUS
  5
32C
 10
12.63004
 20
471.966605
 30
0.0
 11
17.251307
 21
476.587872
 31
0.0
  0
LINE
  8
LC-009-005-----0
  6
CONTINUOUS
  5
32D
 10
12.064355
 20
471.966605
 30
0.0
 11
16.764355
 21
476.666605
 31
0.0
  0
LINE
  8
LC-009-005-----0
  6
CONTINUOUS
  5
32E
 10
11.498669
 20
471.966605
 30
0.0
 11
16.198669
 21
476.666605
 31
0.0
  0
LINE
  8
LC-009-005-----0
  6
CONTINUOUS
  5
32F
 10
10.932984
 20
471.966605
 30
0.0
 11
15.632984
 21
476.666605
 31
0.0
  0
LINE
  8
LC-009-005-----0
  6
CONTINUOUS
  5
330
 10
10.367298
 20
471.966605
 30
0.0
 11
15.067298
 21
476.666605
 31
0.0
  0
LINE
  8
LC-009-005-----0
  6
CONTINUOUS
  5
331
 10
9.801613
 20
471.966605
 30
0.0
 11
14.501613
 21
476.666605
 31
0.0
  0
LINE
  8
LC-009-005-----0
  6
CONTINUOUS
  5
332
 10
9.235928
 20
471.966605
 30
0.0
 11
13.935928
 21
476.666605
 31
0.0
  0
LINE
  8
LC-009-005-----0
  6
CONTINUOUS
  5
333
 10
8.670242
 20
471.966605
 30
0.0
 11
13.370242
 21
476.666605
 31
0.0
  0
LINE
  8
LC-009-005-----0
  6
CONTINUOUS
  5
334
 10
8.104557
 20
471.966605
 30
0.0
 11
12.804557
 21
476.666605
 31
0.0
  0
LINE
  8
LC-009-005-----0
  6
CONTINUOUS
  5
335
 10
7.538871
 20
471.966605
 30
0.0
 11
12.238871
 21
476.666605
 31
0.0
  0
LINE
  8
LC-009-005-----0
  6
CONTINUOUS
  5
336
 10
7.251307
 20
472.244726
 30
0.0
 11
11.673186
 21
476.666605
 31
0.0
  0
LINE
  8
LC-009-005-----0
  6
CONTINUOUS
  5
337
 10
7.251307
 20
472.810412
 30
0.0
 11
11.1075
 21
476.666605
 31
0.0
  0
LINE
  8
LC-009-005-----0
  6
CONTINUOUS
  5
338
 10
7.251307
 20
473.376097
 30
0.0
 11
10.541815
 21
476.666605
 31
0.0
  0
LINE
  8
LC-009-005-----0
  6
CONTINUOUS
  5
339
 10
7.251307
 20
473.941783
 30
0.0
 11
9.97613
 21
476.666605
 31
0.0
  0
LINE
  8
LC-009-005-----0
  6
CONTINUOUS
  5
33A
 10
7.251307
 20
474.507468
 30
0.0
 11
9.410444
 21
476.666605
 31
0.0
  0
LINE
  8
LC-009-005-----0
  6
CONTINUOUS
  5
33B
 10
7.251307
 20
475.073153
 30
0.0
 11
8.844759
 21
476.666605
 31
0.0
  0
LINE
  8
LC-009-005-----0
  6
CONTINUOUS
  5
33C
 10
7.251307
 20
475.638839
 30
0.0
 11
8.279073
 21
476.666605
 31
0.0
  0
LINE
  8
LC-009-005-----0
  6
CONTINUOUS
  5
33D
 10
7.251307
 20
476.204524
 30
0.0
 11
7.713388
 21
476.666605
 31
0.0
  0
ENDBLK
  8
0
  5
33E
  0
BLOCK
  8
0
  5
340
  2
*X35
 70
    65
 10
27.251307
 20
471.966605
 30
0.0
  3
*X35
  0
LINE
  8
LC-009-005-----0
  6
CONTINUOUS
  5
341
 10
36.954513
 20
471.966605
 30
0.0
 11
37.251307
 21
472.263399
 31
0.0
  0
LINE
  8
LC-009-005-----0
  6
CONTINUOUS
  5
342
 10
36.388828
 20
471.966605
 30
0.0
 11
37.251307
 21
472.829084
 31
0.0
  0
LINE
  8
LC-009-005-----0
  6
CONTINUOUS
  5
343
 10
35.823143
 20
471.966605
 30
0.0
 11
37.251307
 21
473.39477
 31
0.0
  0
LINE
  8
LC-009-005-----0
  6
CONTINUOUS
  5
344
 10
35.257457
 20
471.966605
 30
0.0
 11
37.251307
 21
473.960455
 31
0.0
  0
LINE
  8
LC-009-005-----0
  6
CONTINUOUS
  5
345
 10
34.691772
 20
471.966605
 30
0.0
 11
37.251307
 21
474.526141
 31
0.0
  0
LINE
  8
LC-009-005-----0
  6
CONTINUOUS
  5
346
 10
34.126086
 20
471.966605
 30
0.0
 11
37.251307
 21
475.091826
 31
0.0
  0
LINE
  8
LC-009-005-----0
  6
CONTINUOUS
  5
347
 10
33.560401
 20
471.966605
 30
0.0
 11
37.251307
 21
475.657511
 31
0.0
  0
LINE
  8
LC-009-005-----0
  6
CONTINUOUS
  5
348
 10
32.994715
 20
471.966605
 30
0.0
 11
37.251307
 21
476.223197
 31
0.0
  0
LINE
  8
LC-009-005-----0
  6
CONTINUOUS
  5
349
 10
32.42903
 20
471.966605
 30
0.0
 11
37.12903
 21
476.666605
 31
0.0
  0
LINE
  8
LC-009-005-----0
  6
CONTINUOUS
  5
34A
 10
31.863345
 20
471.966605
 30
0.0
 11
36.563345
 21
476.666605
 31
0.0
  0
LINE
  8
LC-009-005-----0
  6
CONTINUOUS
  5
34B
 10
31.297659
 20
471.966605
 30
0.0
 11
35.997659
 21
476.666605
 31
0.0
  0
LINE
  8
LC-009-005-----0
  6
CONTINUOUS
  5
34C
 10
30.731974
 20
471.966605
 30
0.0
 11
35.431974
 21
476.666605
 31
0.0
  0
LINE
  8
LC-009-005-----0
  6
CONTINUOUS
  5
34D
 10
30.166288
 20
471.966605
 30
0.0
 11
34.866288
 21
476.666605
 31
0.0
  0
LINE
  8
LC-009-005-----0
  6
CONTINUOUS
  5
34E
 10
29.600603
 20
471.966605
 30
0.0
 11
34.300603
 21
476.666605
 31
0.0
  0
LINE
  8
LC-009-005-----0
  6
CONTINUOUS
  5
34F
 10
29.034917
 20
471.966605
 30
0.0
 11
33.734917
 21
476.666605
 31
0.0
  0
LINE
  8
LC-009-005-----0
  6
CONTINUOUS
  5
350
 10
28.469232
 20
471.966605
 30
0.0
 11
33.169232
 21
476.666605
 31
0.0
  0
LINE
  8
LC-009-005-----0
  6
CONTINUOUS
  5
351
 10
27.903547
 20
471.966605
 30
0.0
 11
32.603547
 21
476.666605
 31
0.0
  0
LINE
  8
LC-009-005-----0
  6
CONTINUOUS
  5
352
 10
27.337861
 20
471.966605
 30
0.0
 11
32.037861
 21
476.666605
 31
0.0
  0
LINE
  8
LC-009-005-----0
  6
CONTINUOUS
  5
353
 10
27.251307
 20
472.445736
 30
0.0
 11
31.472176
 21
476.666605
 31
0.0
  0
LINE
  8
LC-009-005-----0
  6
CONTINUOUS
  5
354
 10
27.251307
 20
473.011422
 30
0.0
 11
30.90649
 21
476.666605
 31
0.0
  0
LINE
  8
LC-009-005-----0
  6
CONTINUOUS
  5
355
 10
27.251307
 20
473.577107
 30
0.0
 11
30.340805
 21
476.666605
 31
0.0
  0
LINE
  8
LC-009-005-----0
  6
CONTINUOUS
  5
356
 10
27.251307
 20
474.142793
 30
0.0
 11
29.77512
 21
476.666605
 31
0.0
  0
LINE
  8
LC-009-005-----0
  6
CONTINUOUS
  5
357
 10
27.251307
 20
474.708478
 30
0.0
 11
29.209434
 21
476.666605
 31
0.0
  0
LINE
  8
LC-009-005-----0
  6
CONTINUOUS
  5
358
 10
27.251307
 20
475.274164
 30
0.0
 11
28.643749
 21
476.666605
 31
0.0
  0
LINE
  8
LC-009-005-----0
  6
CONTINUOUS
  5
359
 10
27.251307
 20
475.839849
 30
0.0
 11
28.078063
 21
476.666605
 31
0.0
  0
LINE
  8
LC-009-005-----0
  6
CONTINUOUS
  5
35A
 10
27.251307
 20
476.405534
 30
0.0
 11
27.512378
 21
476.666605
 31
0.0
  0
ENDBLK
  8
0
  5
35B
  0
BLOCK
  8
0
  5
35D
  2
*X36
 70
    65
 10
47.251307
 20
471.966605
 30
0.0
  3
*X36
  0
LINE
  8
LC-009-005-----0
  6
CONTINUOUS
  5
35E
 10
56.753503
 20
471.966605
 30
0.0
 11
57.251307
 21
472.464409
 31
0.0
  0
LINE
  8
LC-009-005-----0
  6
CONTINUOUS
  5
35F
 10
56.187818
 20
471.966605
 30
0.0
 11
57.251307
 21
473.030094
 31
0.0
  0
LINE
  8
LC-009-005-----0
  6
CONTINUOUS
  5
360
 10
55.622132
 20
471.966605
 30
0.0
 11
57.251307
 21
473.59578
 31
0.0
  0
LINE
  8
LC-009-005-----0
  6
CONTINUOUS
  5
361
 10
55.056447
 20
471.966605
 30
0.0
 11
57.251307
 21
474.161465
 31
0.0
  0
LINE
  8
LC-009-005-----0
  6
CONTINUOUS
  5
362
 10
54.490762
 20
471.966605
 30
0.0
 11
57.251307
 21
474.727151
 31
0.0
  0
LINE
  8
LC-009-005-----0
  6
CONTINUOUS
  5
363
 10
53.925076
 20
471.966605
 30
0.0
 11
57.251307
 21
475.292836
 31
0.0
  0
LINE
  8
LC-009-005-----0
  6
CONTINUOUS
  5
364
 10
53.359391
 20
471.966605
 30
0.0
 11
57.251307
 21
475.858521
 31
0.0
  0
LINE
  8
LC-009-005-----0
  6
CONTINUOUS
  5
365
 10
52.793705
 20
471.966605
 30
0.0
 11
57.251307
 21
476.424207
 31
0.0
  0
LINE
  8
LC-009-005-----0
  6
CONTINUOUS
  5
366
 10
52.22802
 20
471.966605
 30
0.0
 11
56.92802
 21
476.666605
 31
0.0
  0
LINE
  8
LC-009-005-----0
  6
CONTINUOUS
  5
367
 10
51.662334
 20
471.966605
 30
0.0
 11
56.362334
 21
476.666605
 31
0.0
  0
LINE
  8
LC-009-005-----0
  6
CONTINUOUS
  5
368
 10
51.096649
 20
471.966605
 30
0.0
 11
55.796649
 21
476.666605
 31
0.0
  0
LINE
  8
LC-009-005-----0
  6
CONTINUOUS
  5
369
 10
50.530964
 20
471.966605
 30
0.0
 11
55.230964
 21
476.666605
 31
0.0
  0
LINE
  8
LC-009-005-----0
  6
CONTINUOUS
  5
36A
 10
49.965278
 20
471.966605
 30
0.0
 11
54.665278
 21
476.666605
 31
0.0
  0
LINE
  8
LC-009-005-----0
  6
CONTINUOUS
  5
36B
 10
49.399593
 20
471.966605
 30
0.0
 11
54.099593
 21
476.666605
 31
0.0
  0
LINE
  8
LC-009-005-----0
  6
CONTINUOUS
  5
36C
 10
48.833907
 20
471.966605
 30
0.0
 11
53.533907
 21
476.666605
 31
0.0
  0
LINE
  8
LC-009-005-----0
  6
CONTINUOUS
  5
36D
 10
48.268222
 20
471.966605
 30
0.0
 11
52.968222
 21
476.666605
 31
0.0
  0
LINE
  8
LC-009-005-----0
  6
CONTINUOUS
  5
36E
 10
47.702537
 20
471.966605
 30
0.0
 11
52.402537
 21
476.666605
 31
0.0
  0
LINE
  8
LC-009-005-----0
  6
CONTINUOUS
  5
36F
 10
47.251307
 20
472.081061
 30
0.0
 11
51.836851
 21
476.666605
 31
0.0
  0
LINE
  8
LC-009-005-----0
  6
CONTINUOUS
  5
370
 10
47.251307
 20
472.646747
 30
0.0
 11
51.271166
 21
476.666605
 31
0.0
  0
LINE
  8
LC-009-005-----0
  6
CONTINUOUS
  5
371
 10
47.251307
 20
473.212432
 30
0.0
 11
50.70548
 21
476.666605
 31
0.0
  0
LINE
  8
LC-009-005-----0
  6
CONTINUOUS
  5
372
 10
47.251307
 20
473.778117
 30
0.0
 11
50.139795
 21
476.666605
 31
0.0
  0
LINE
  8
LC-009-005-----0
  6
CONTINUOUS
  5
373
 10
47.251307
 20
474.343803
 30
0.0
 11
49.574109
 21
476.666605
 31
0.0
  0
LINE
  8
LC-009-005-----0
  6
CONTINUOUS
  5
374
 10
47.251307
 20
474.909488
 30
0.0
 11
49.008424
 21
476.666605
 31
0.0
  0
LINE
  8
LC-009-005-----0
  6
CONTINUOUS
  5
375
 10
47.251307
 20
475.475174
 30
0.0
 11
48.442739
 21
476.666605
 31
0.0
  0
LINE
  8
LC-009-005-----0
  6
CONTINUOUS
  5
376
 10
47.251307
 20
476.040859
 30
0.0
 11
47.877053
 21
476.666605
 31
0.0
  0
LINE
  8
LC-009-005-----0
  6
CONTINUOUS
  5
377
 10
47.251307
 20
476.606545
 30
0.0
 11
47.311368
 21
476.666605
 31
0.0
  0
ENDBLK
  8
0
  5
378
  0
BLOCK
  8
0
  5
37A
  2
*X37
 70
    65
 10
67.251307
 20
471.191093
 30
0.0
  3
*X37
  0
LINE
  8
LC-009-005-----0
  6
CONTINUOUS
  5
37B
 10
76.930446
 20
471.213187
 30
0.0
 11
77.251307
 21
471.534048
 31
0.0
  0
LINE
  8
LC-009-005-----0
  6
CONTINUOUS
  5
37C
 10
76.401429
 20
471.249856
 30
0.0
 11
77.251307
 21
472.099734
 31
0.0
  0
LINE
  8
LC-009-005-----0
  6
CONTINUOUS
  5
37D
 10
75.872412
 20
471.286524
 30
0.0
 11
77.251307
 21
472.665419
 31
0.0
  0
LINE
  8
LC-009-005-----0
  6
CONTINUOUS
  5
37E
 10
75.343395
 20
471.323193
 30
0.0
 11
77.251307
 21
473.231104
 31
0.0
  0
LINE
  8
LC-009-005-----0
  6
CONTINUOUS
  5
37F
 10
74.814379
 20
471.359861
 30
0.0
 11
77.251307
 21
473.79679
 31
0.0
  0
LINE
  8
LC-009-005-----0
  6
CONTINUOUS
  5
380
 10
74.285362
 20
471.39653
 30
0.0
 11
77.251307
 21
474.362475
 31
0.0
  0
LINE
  8
LC-009-005-----0
  6
CONTINUOUS
  5
381
 10
73.756345
 20
471.433199
 30
0.0
 11
77.251307
 21
474.928161
 31
0.0
  0
LINE
  8
LC-009-005-----0
  6
CONTINUOUS
  5
382
 10
73.227328
 20
471.469867
 30
0.0
 11
77.251307
 21
475.493846
 31
0.0
  0
LINE
  8
LC-009-005-----0
  6
CONTINUOUS
  5
383
 10
72.698311
 20
471.506536
 30
0.0
 11
77.104196
 21
475.912421
 31
0.0
  0
LINE
  8
LC-009-005-----0
  6
CONTINUOUS
  5
384
 10
72.169295
 20
471.543205
 30
0.0
 11
76.575179
 21
475.949089
 31
0.0
  0
LINE
  8
LC-009-005-----0
  6
CONTINUOUS
  5
385
 10
71.640278
 20
471.579873
 30
0.0
 11
76.046162
 21
475.985758
 31
0.0
  0
LINE
  8
LC-009-005-----0
  6
CONTINUOUS
  5
386
 10
71.111261
 20
471.616542
 30
0.0
 11
75.517146
 21
476.022426
 31
0.0
  0
LINE
  8
LC-009-005-----0
  6
CONTINUOUS
  5
387
 10
70.582244
 20
471.653211
 30
0.0
 11
74.988129
 21
476.059095
 31
0.0
  0
LINE
  8
LC-009-005-----0
  6
CONTINUOUS
  5
388
 10
70.053228
 20
471.689879
 30
0.0
 11
74.459112
 21
476.095764
 31
0.0
  0
LINE
  8
LC-009-005-----0
  6
CONTINUOUS
  5
389
 10
69.524211
 20
471.726548
 30
0.0
 11
73.930095
 21
476.132432
 31
0.0
  0
LINE
  8
LC-009-005-----0
  6
CONTINUOUS
  5
38A
 10
68.995194
 20
471.763217
 30
0.0
 11
73.401078
 21
476.169101
 31
0.0
  0
LINE
  8
LC-009-005-----0
  6
CONTINUOUS
  5
38B
 10
68.466177
 20
471.799885
 30
0.0
 11
72.872062
 21
476.20577
 31
0.0
  0
LINE
  8
LC-009-005-----0
  6
CONTINUOUS
  5
38C
 10
67.93716
 20
471.836554
 30
0.0
 11
72.343045
 21
476.242438
 31
0.0
  0
LINE
  8
LC-009-005-----0
  6
CONTINUOUS
  5
38D
 10
67.408144
 20
471.873222
 30
0.0
 11
71.814028
 21
476.279107
 31
0.0
  0
LINE
  8
LC-009-005-----0
  6
CONTINUOUS
  5
38E
 10
67.251307
 20
472.282071
 30
0.0
 11
71.285011
 21
476.315776
 31
0.0
  0
LINE
  8
LC-009-005-----0
  6
CONTINUOUS
  5
38F
 10
67.251307
 20
472.847757
 30
0.0
 11
70.755995
 21
476.352444
 31
0.0
  0
LINE
  8
LC-009-005-----0
  6
CONTINUOUS
  5
390
 10
67.251307
 20
473.413442
 30
0.0
 11
70.226978
 21
476.389113
 31
0.0
  0
LINE
  8
LC-009-005-----0
  6
CONTINUOUS
  5
391
 10
67.251307
 20
473.979128
 30
0.0
 11
69.697961
 21
476.425782
 31
0.0
  0
LINE
  8
LC-009-005-----0
  6
CONTINUOUS
  5
392
 10
67.251307
 20
474.544813
 30
0.0
 11
69.168944
 21
476.46245
 31
0.0
  0
LINE
  8
LC-009-005-----0
  6
CONTINUOUS
  5
393
 10
67.251307
 20
475.110498
 30
0.0
 11
68.639927
 21
476.499119
 31
0.0
  0
LINE
  8
LC-009-005-----0
  6
CONTINUOUS
  5
394
 10
67.251307
 20
475.676184
 30
0.0
 11
68.110911
 21
476.535787
 31
0.0
  0
LINE
  8
LC-009-005-----0
  6
CONTINUOUS
  5
395
 10
67.251307
 20
476.241869
 30
0.0
 11
67.581894
 21
476.572456
 31
0.0
  0
ENDBLK
  8
0
  5
396
  0
BLOCK
  8
0
  5
398
  2
*X38
 70
    65
 10
87.251307
 20
469.804799
 30
0.0
  3
*X38
  0
LINE
  8
LC-009-005-----0
  6
CONTINUOUS
  5
399
 10
97.033083
 20
469.819778
 30
0.0
 11
97.251307
 21
470.038002
 31
0.0
  0
LINE
  8
LC-009-005-----0
  6
CONTINUOUS
  5
39A
 10
96.504067
 20
469.856447
 30
0.0
 11
97.251307
 21
470.603687
 31
0.0
  0
LINE
  8
LC-009-005-----0
  6
CONTINUOUS
  5
39B
 10
95.97505
 20
469.893116
 30
0.0
 11
97.251307
 21
471.169373
 31
0.0
  0
LINE
  8
LC-009-005-----0
  6
CONTINUOUS
  5
39C
 10
95.446033
 20
469.929784
 30
0.0
 11
97.251307
 21
471.735058
 31
0.0
  0
LINE
  8
LC-009-005-----0
  6
CONTINUOUS
  5
39D
 10
94.917016
 20
469.966453
 30
0.0
 11
97.251307
 21
472.300744
 31
0.0
  0
LINE
  8
LC-009-005-----0
  6
CONTINUOUS
  5
39E
 10
94.387999
 20
470.003122
 30
0.0
 11
97.251307
 21
472.866429
 31
0.0
  0
LINE
  8
LC-009-005-----0
  6
CONTINUOUS
  5
39F
 10
93.858983
 20
470.03979
 30
0.0
 11
97.251307
 21
473.432115
 31
0.0
  0
LINE
  8
LC-009-005-----0
  6
CONTINUOUS
  5
3A0
 10
93.329966
 20
470.076459
 30
0.0
 11
97.251307
 21
473.9978
 31
0.0
  0
LINE
  8
LC-009-005-----0
  6
CONTINUOUS
  5
3A1
 10
92.800949
 20
470.113128
 30
0.0
 11
97.206834
 21
474.519012
 31
0.0
  0
LINE
  8
LC-009-005-----0
  6
CONTINUOUS
  5
3A2
 10
92.271932
 20
470.149796
 30
0.0
 11
96.677817
 21
474.555681
 31
0.0
  0
LINE
  8
LC-009-005-----0
  6
CONTINUOUS
  5
3A3
 10
91.742916
 20
470.186465
 30
0.0
 11
96.1488
 21
474.592349
 31
0.0
  0
LINE
  8
LC-009-005-----0
  6
CONTINUOUS
  5
3A4
 10
91.213899
 20
470.223134
 30
0.0
 11
95.619783
 21
474.629018
 31
0.0
  0
LINE
  8
LC-009-005-----0
  6
CONTINUOUS
  5
3A5
 10
90.684882
 20
470.259802
 30
0.0
 11
95.090767
 21
474.665687
 31
0.0
  0
LINE
  8
LC-009-005-----0
  6
CONTINUOUS
  5
3A6
 10
90.155865
 20
470.296471
 30
0.0
 11
94.56175
 21
474.702355
 31
0.0
  0
LINE
  8
LC-009-005-----0
  6
CONTINUOUS
  5
3A7
 10
89.626848
 20
470.333139
 30
0.0
 11
94.032733
 21
474.739024
 31
0.0
  0
LINE
  8
LC-009-005-----0
  6
CONTINUOUS
  5
3A8
 10
89.097832
 20
470.369808
 30
0.0
 11
93.503716
 21
474.775693
 31
0.0
  0
LINE
  8
LC-009-005-----0
  6
CONTINUOUS
  5
3A9
 10
88.568815
 20
470.406477
 30
0.0
 11
92.974699
 21
474.812361
 31
0.0
  0
LINE
  8
LC-009-005-----0
  6
CONTINUOUS
  5
3AA
 10
88.039798
 20
470.443145
 30
0.0
 11
92.445683
 21
474.84903
 31
0.0
  0
LINE
  8
LC-009-005-----0
  6
CONTINUOUS
  5
3AB
 10
87.510781
 20
470.479814
 30
0.0
 11
91.916666
 21
474.885699
 31
0.0
  0
LINE
  8
LC-009-005-----0
  6
CONTINUOUS
  5
3AC
 10
87.251307
 20
470.786025
 30
0.0
 11
91.387649
 21
474.922367
 31
0.0
  0
LINE
  8
LC-009-005-----0
  6
CONTINUOUS
  5
3AD
 10
87.251307
 20
471.351711
 30
0.0
 11
90.858632
 21
474.959036
 31
0.0
  0
LINE
  8
LC-009-005-----0
  6
CONTINUOUS
  5
3AE
 10
87.251307
 20
471.917396
 30
0.0
 11
90.329616
 21
474.995704
 31
0.0
  0
LINE
  8
LC-009-005-----0
  6
CONTINUOUS
  5
3AF
 10
87.251307
 20
472.483081
 30
0.0
 11
89.800599
 21
475.032373
 31
0.0
  0
LINE
  8
LC-009-005-----0
  6
CONTINUOUS
  5
3B0
 10
87.251307
 20
473.048767
 30
0.0
 11
89.271582
 21
475.069042
 31
0.0
  0
LINE
  8
LC-009-005-----0
  6
CONTINUOUS
  5
3B1
 10
87.251307
 20
473.614452
 30
0.0
 11
88.742565
 21
475.10571
 31
0.0
  0
LINE
  8
LC-009-005-----0
  6
CONTINUOUS
  5
3B2
 10
87.251307
 20
474.180138
 30
0.0
 11
88.213548
 21
475.142379
 31
0.0
  0
LINE
  8
LC-009-005-----0
  6
CONTINUOUS
  5
3B3
 10
87.251307
 20
474.745823
 30
0.0
 11
87.684532
 21
475.179048
 31
0.0
  0
ENDBLK
  8
0
  5
3B4
  0
BLOCK
  8
0
  5
3B6
  2
*X39
 70
    65
 10
93.439085
 20
466.34715
 30
0.0
  3
*X39
  0
LINE
  8
LC-009-005-----0
  6
CONTINUOUS
  5
3B7
 10
116.833108
 20
466.4267
 30
0.0
 11
117.251307
 21
466.8449
 31
0.0
  0
LINE
  8
LC-009-005-----0
  6
CONTINUOUS
  5
3B8
 10
116.305745
 20
466.465023
 30
0.0
 11
117.251307
 21
467.410585
 31
0.0
  0
LINE
  8
LC-009-005-----0
  6
CONTINUOUS
  5
3B9
 10
115.778383
 20
466.503346
 30
0.0
 11
117.251307
 21
467.97627
 31
0.0
  0
LINE
  8
LC-009-005-----0
  6
CONTINUOUS
  5
3BA
 10
115.251021
 20
466.54167
 30
0.0
 11
117.251307
 21
468.541956
 31
0.0
  0
LINE
  8
LC-009-005-----0
  6
CONTINUOUS
  5
3BB
 10
114.723658
 20
466.579993
 30
0.0
 11
117.251307
 21
469.107641
 31
0.0
  0
LINE
  8
LC-009-005-----0
  6
CONTINUOUS
  5
3BC
 10
114.196296
 20
466.618316
 30
0.0
 11
117.251307
 21
469.673327
 31
0.0
  0
LINE
  8
LC-009-005-----0
  6
CONTINUOUS
  5
3BD
 10
113.668934
 20
466.656639
 30
0.0
 11
117.251307
 21
470.239012
 31
0.0
  0
LINE
  8
LC-009-005-----0
  6
CONTINUOUS
  5
3BE
 10
113.141571
 20
466.694962
 30
0.0
 11
117.251307
 21
470.804698
 31
0.0
  0
LINE
  8
LC-009-005-----0
  6
CONTINUOUS
  5
3BF
 10
112.614209
 20
466.733285
 30
0.0
 11
117.005635
 21
471.124711
 31
0.0
  0
LINE
  8
LC-009-005-----0
  6
CONTINUOUS
  5
3C0
 10
112.133354
 20
466.818115
 30
0.0
 11
116.478272
 21
471.163034
 31
0.0
  0
LINE
  8
LC-009-005-----0
  6
CONTINUOUS
  5
3C1
 10
111.667591
 20
466.918038
 30
0.0
 11
115.95091
 21
471.201357
 31
0.0
  0
LINE
  8
LC-009-005-----0
  6
CONTINUOUS
  5
3C2
 10
111.209852
 20
467.025984
 30
0.0
 11
115.423548
 21
471.23968
 31
0.0
  0
LINE
  8
LC-009-005-----0
  6
CONTINUOUS
  5
3C3
 10
110.759842
 20
467.14166
 30
0.0
 11
114.896185
 21
471.278003
 31
0.0
  0
LINE
  8
LC-009-005-----0
  6
CONTINUOUS
  5
3C4
 10
110.317294
 20
467.264797
 30
0.0
 11
114.368823
 21
471.316326
 31
0.0
  0
LINE
  8
LC-009-005-----0
  6
CONTINUOUS
  5
3C5
 10
109.881962
 20
467.39515
 30
0.0
 11
113.841461
 21
471.354649
 31
0.0
  0
LINE
  8
LC-009-005-----0
  6
CONTINUOUS
  5
3C6
 10
109.453623
 20
467.532497
 30
0.0
 11
113.314098
 21
471.392972
 31
0.0
  0
LINE
  8
LC-009-005-----0
  6
CONTINUOUS
  5
3C7
 10
109.032072
 20
467.676632
 30
0.0
 11
112.831175
 21
471.475735
 31
0.0
  0
LINE
  8
LC-009-005-----0
  6
CONTINUOUS
  5
3C8
 10
108.617122
 20
467.827367
 30
0.0
 11
112.371635
 21
471.581879
 31
0.0
  0
LINE
  8
LC-009-005-----0
  6
CONTINUOUS
  5
3C9
 10
108.2086
 20
467.98453
 30
0.0
 11
111.921808
 21
471.697738
 31
0.0
  0
LINE
  8
LC-009-005-----0
  6
CONTINUOUS
  5
3CA
 10
107.806346
 20
468.147962
 30
0.0
 11
111.481276
 21
471.822891
 31
0.0
  0
LINE
  8
LC-009-005-----0
  6
CONTINUOUS
  5
3CB
 10
107.410216
 20
468.317517
 30
0.0
 11
111.049664
 21
471.956965
 31
0.0
  0
LINE
  8
LC-009-005-----0
  6
CONTINUOUS
  5
3CC
 10
107.251307
 20
468.724294
 30
0.0
 11
110.626638
 21
472.099624
 31
0.0
  0
LINE
  8
LC-009-005-----0
  6
CONTINUOUS
  5
3CD
 10
107.251307
 20
469.289979
 30
0.0
 11
110.211897
 21
472.250569
 31
0.0
  0
LINE
  8
LC-009-005-----0
  6
CONTINUOUS
  5
3CE
 10
107.251307
 20
469.855664
 30
0.0
 11
109.805172
 21
472.409529
 31
0.0
  0
LINE
  8
LC-009-005-----0
  6
CONTINUOUS
  5
3CF
 10
107.251307
 20
470.42135
 30
0.0
 11
109.406218
 21
472.576261
 31
0.0
  0
LINE
  8
LC-009-005-----0
  6
CONTINUOUS
  5
3D0
 10
107.251307
 20
470.987035
 30
0.0
 11
109.014819
 21
472.750547
 31
0.0
  0
LINE
  8
LC-009-005-----0
  6
CONTINUOUS
  5
3D1
 10
107.251307
 20
471.552721
 30
0.0
 11
108.630776
 21
472.93219
 31
0.0
  0
LINE
  8
LC-009-005-----0
  6
CONTINUOUS
  5
3D2
 10
107.251307
 20
472.118406
 30
0.0
 11
108.253912
 21
473.121011
 31
0.0
  0
LINE
  8
LC-009-005-----0
  6
CONTINUOUS
  5
3D3
 10
107.251307
 20
472.684092
 30
0.0
 11
107.884066
 21
473.316851
 31
0.0
  0
LINE
  8
LC-009-005-----0
  6
CONTINUOUS
  5
3D4
 10
107.251307
 20
473.249777
 30
0.0
 11
107.521095
 21
473.519565
 31
0.0
  0
ENDBLK
  8
0
  5
3D5
  0
BLOCK
  8
0
  5
3D7
  2
BLK8
 70
    64
 10
0.0
 20
0.0
 30
0.0
  3
BLK8
  0
ENDBLK
  8
0
  5
3D8
  0
BLOCK
  8
0
  5
3DA
  2
*X41
 70
    65
 10
285.560914
 20
447.356789
 30
0.0
  3
*X41
  0
LINE
  8
LC-009-005-----0
  6
CONTINUOUS
  5
3DB
 10
291.793297
 20
447.356789
 30
0.0
 11
295.560914
 21
451.124406
 31
0.0
  0
LINE
  8
LC-009-005-----0
  6
CONTINUOUS
  5
3DC
 10
288.96487
 20
447.356789
 30
0.0
 11
291.46487
 21
449.856789
 31
0.0
  0
LINE
  8
LC-009-005-----0
  6
CONTINUOUS
  5
3DD
 10
293.060914
 20
451.452833
 30
0.0
 11
295.560914
 21
453.952833
 31
0.0
  0
LINE
  8
LC-009-005-----0
  6
CONTINUOUS
  5
3DE
 10
286.136443
 20
447.356789
 30
0.0
 11
288.636443
 21
449.856789
 31
0.0
  0
LINE
  8
LC-009-005-----0
  6
CONTINUOUS
  5
3DF
 10
293.060914
 20
454.28126
 30
0.0
 11
295.560914
 21
456.78126
 31
0.0
  0
LINE
  8
LC-009-005-----0
  6
CONTINUOUS
  5
3E0
 10
285.560914
 20
449.609688
 30
0.0
 11
285.808016
 21
449.856789
 31
0.0
  0
LINE
  8
LC-009-005-----0
  6
CONTINUOUS
  5
3E1
 10
293.060914
 20
457.109688
 30
0.0
 11
295.560914
 21
459.609688
 31
0.0
  0
LINE
  8
LC-009-005-----0
  6
CONTINUOUS
  5
3E2
 10
293.060914
 20
459.938115
 30
0.0
 11
295.560914
 21
462.438115
 31
0.0
  0
LINE
  8
LC-009-005-----0
  6
CONTINUOUS
  5
3E3
 10
293.060914
 20
462.766542
 30
0.0
 11
295.560914
 21
465.266542
 31
0.0
  0
LINE
  8
LC-009-005-----0
  6
CONTINUOUS
  5
3E4
 10
293.060914
 20
465.594969
 30
0.0
 11
294.822379
 21
467.356433
 31
0.0
  0
ENDBLK
  8
0
  5
3E5
  0
BLOCK
  8
0
  5
3E7
  2
*X42
 70
    65
 10
138.560914
 20
447.356789
 30
0.0
  3
*X42
  0
LINE
  8
LC-009-005-----0
  6
CONTINUOUS
  5
3E8
 10
147.543514
 20
447.356789
 30
0.0
 11
148.560914
 21
448.37419
 31
0.0
  0
LINE
  8
LC-009-005-----0
  6
CONTINUOUS
  5
3E9
 10
144.715086
 20
447.356789
 30
0.0
 11
147.215086
 21
449.856789
 31
0.0
  0
LINE
  8
LC-009-005-----0
  6
CONTINUOUS
  5
3EA
 10
141.886659
 20
447.356789
 30
0.0
 11
144.386659
 21
449.856789
 31
0.0
  0
LINE
  8
LC-009-005-----0
  6
CONTINUOUS
  5
3EB
 10
140.309573
 20
448.60813
 30
0.0
 11
141.558232
 21
449.856789
 31
0.0
  0
LINE
  8
LC-009-005-----0
  6
CONTINUOUS
  5
3EC
 10
138.89536
 20
450.022343
 30
0.0
 11
141.060914
 21
452.187898
 31
0.0
  0
LINE
  8
LC-009-005-----0
  6
CONTINUOUS
  5
3ED
 10
138.560914
 20
452.516325
 30
0.0
 11
141.060914
 21
455.016325
 31
0.0
  0
LINE
  8
LC-009-005-----0
  6
CONTINUOUS
  5
3EE
 10
138.560914
 20
455.344752
 30
0.0
 11
141.060914
 21
457.844752
 31
0.0
  0
LINE
  8
LC-009-005-----0
  6
CONTINUOUS
  5
3EF
 10
138.560914
 20
458.173179
 30
0.0
 11
141.060914
 21
460.673179
 31
0.0
  0
LINE
  8
LC-009-005-----0
  6
CONTINUOUS
  5
3F0
 10
138.560914
 20
461.001607
 30
0.0
 11
141.060914
 21
463.501607
 31
0.0
  0
LINE
  8
LC-009-005-----0
  6
CONTINUOUS
  5
3F1
 10
138.560914
 20
463.830034
 30
0.0
 11
141.060914
 21
466.330034
 31
0.0
  0
LINE
  8
LC-009-005-----0
  6
CONTINUOUS
  5
3F2
 10
138.560914
 20
466.658461
 30
0.0
 11
139.258887
 21
467.356433
 31
0.0
  0
ENDBLK
  8
0
  5
3F3
  0
BLOCK
  8
0
  5
3F5
  2
*X43
 70
    65
 10
456.870522
 20
471.966605
 30
0.0
  3
*X43
  0
LINE
  8
LC-009-005-----0
  6
CONTINUOUS
  5
3F6
 10
466.309751
 20
471.966605
 30
0.0
 11
466.870522
 21
472.527376
 31
0.0
  0
LINE
  8
LC-009-005-----0
  6
CONTINUOUS
  5
3F7
 10
465.744066
 20
471.966605
 30
0.0
 11
466.870522
 21
473.093061
 31
0.0
  0
LINE
  8
LC-009-005-----0
  6
CONTINUOUS
  5
3F8
 10
465.17838
 20
471.966605
 30
0.0
 11
466.870522
 21
473.658747
 31
0.0
  0
LINE
  8
LC-009-005-----0
  6
CONTINUOUS
  5
3F9
 10
464.612695
 20
471.966605
 30
0.0
 11
466.870522
 21
474.224432
 31
0.0
  0
LINE
  8
LC-009-005-----0
  6
CONTINUOUS
  5
3FA
 10
464.047009
 20
471.966605
 30
0.0
 11
466.870522
 21
474.790118
 31
0.0
  0
LINE
  8
LC-009-005-----0
  6
CONTINUOUS
  5
3FB
 10
463.481324
 20
471.966605
 30
0.0
 11
466.870522
 21
475.355803
 31
0.0
  0
LINE
  8
LC-009-005-----0
  6
CONTINUOUS
  5
3FC
 10
462.915638
 20
471.966605
 30
0.0
 11
466.870522
 21
475.921489
 31
0.0
  0
LINE
  8
LC-009-005-----0
  6
CONTINUOUS
  5
3FD
 10
462.349953
 20
471.966605
 30
0.0
 11
466.870522
 21
476.487174
 31
0.0
  0
LINE
  8
LC-009-005-----0
  6
CONTINUOUS
  5
3FE
 10
461.784268
 20
471.966605
 30
0.0
 11
466.484268
 21
476.666605
 31
0.0
  0
LINE
  8
LC-009-005-----0
  6
CONTINUOUS
  5
3FF
 10
461.218582
 20
471.966605
 30
0.0
 11
465.918582
 21
476.666605
 31
0.0
  0
LINE
  8
LC-009-005-----0
  6
CONTINUOUS
  5
400
 10
460.652897
 20
471.966605
 30
0.0
 11
465.352897
 21
476.666605
 31
0.0
  0
LINE
  8
LC-009-005-----0
  6
CONTINUOUS
  5
401
 10
460.087211
 20
471.966605
 30
0.0
 11
464.787211
 21
476.666605
 31
0.0
  0
LINE
  8
LC-009-005-----0
  6
CONTINUOUS
  5
402
 10
459.521526
 20
471.966605
 30
0.0
 11
464.221526
 21
476.666605
 31
0.0
  0
LINE
  8
LC-009-005-----0
  6
CONTINUOUS
  5
403
 10
458.95584
 20
471.966605
 30
0.0
 11
463.65584
 21
476.666605
 31
0.0
  0
LINE
  8
LC-009-005-----0
  6
CONTINUOUS
  5
404
 10
458.390155
 20
471.966605
 30
0.0
 11
463.090155
 21
476.666605
 31
0.0
  0
LINE
  8
LC-009-005-----0
  6
CONTINUOUS
  5
405
 10
457.82447
 20
471.966605
 30
0.0
 11
462.52447
 21
476.666605
 31
0.0
  0
LINE
  8
LC-009-005-----0
  6
CONTINUOUS
  5
406
 10
457.258784
 20
471.966605
 30
0.0
 11
461.958784
 21
476.666605
 31
0.0
  0
LINE
  8
LC-009-005-----0
  6
CONTINUOUS
  5
407
 10
456.870522
 20
472.144028
 30
0.0
 11
461.393099
 21
476.666605
 31
0.0
  0
LINE
  8
LC-009-005-----0
  6
CONTINUOUS
  5
408
 10
456.870522
 20
472.709714
 30
0.0
 11
460.827413
 21
476.666605
 31
0.0
  0
LINE
  8
LC-009-005-----0
  6
CONTINUOUS
  5
409
 10
456.870522
 20
473.275399
 30
0.0
 11
460.261728
 21
476.666605
 31
0.0
  0
LINE
  8
LC-009-005-----0
  6
CONTINUOUS
  5
40A
 10
456.870522
 20
473.841084
 30
0.0
 11
459.696042
 21
476.666605
 31
0.0
  0
LINE
  8
LC-009-005-----0
  6
CONTINUOUS
  5
40B
 10
456.870522
 20
474.40677
 30
0.0
 11
459.130357
 21
476.666605
 31
0.0
  0
LINE
  8
LC-009-005-----0
  6
CONTINUOUS
  5
40C
 10
456.870522
 20
474.972455
 30
0.0
 11
458.564672
 21
476.666605
 31
0.0
  0
LINE
  8
LC-009-005-----0
  6
CONTINUOUS
  5
40D
 10
456.870522
 20
475.538141
 30
0.0
 11
457.998986
 21
476.666605
 31
0.0
  0
LINE
  8
LC-009-005-----0
  6
CONTINUOUS
  5
40E
 10
456.870522
 20
476.103826
 30
0.0
 11
457.433301
 21
476.666605
 31
0.0
  0
ENDBLK
  8
0
  5
40F
  0
BLOCK
  8
0
  5
411
  2
*X44
 70
    65
 10
436.870522
 20
471.966605
 30
0.0
  3
*X44
  0
LINE
  8
LC-009-005-----0
  6
CONTINUOUS
  5
412
 10
446.510761
 20
471.966605
 30
0.0
 11
446.870522
 21
472.326366
 31
0.0
  0
LINE
  8
LC-009-005-----0
  6
CONTINUOUS
  5
413
 10
445.945076
 20
471.966605
 30
0.0
 11
446.870522
 21
472.892051
 31
0.0
  0
LINE
  8
LC-009-005-----0
  6
CONTINUOUS
  5
414
 10
445.37939
 20
471.966605
 30
0.0
 11
446.870522
 21
473.457737
 31
0.0
  0
LINE
  8
LC-009-005-----0
  6
CONTINUOUS
  5
415
 10
444.813705
 20
471.966605
 30
0.0
 11
446.870522
 21
474.023422
 31
0.0
  0
LINE
  8
LC-009-005-----0
  6
CONTINUOUS
  5
416
 10
444.248019
 20
471.966605
 30
0.0
 11
446.870522
 21
474.589108
 31
0.0
  0
LINE
  8
LC-009-005-----0
  6
CONTINUOUS
  5
417
 10
443.682334
 20
471.966605
 30
0.0
 11
446.870522
 21
475.154793
 31
0.0
  0
LINE
  8
LC-009-005-----0
  6
CONTINUOUS
  5
418
 10
443.116649
 20
471.966605
 30
0.0
 11
446.870522
 21
475.720478
 31
0.0
  0
LINE
  8
LC-009-005-----0
  6
CONTINUOUS
  5
419
 10
442.550963
 20
471.966605
 30
0.0
 11
446.870522
 21
476.286164
 31
0.0
  0
LINE
  8
LC-009-005-----0
  6
CONTINUOUS
  5
41A
 10
441.985278
 20
471.966605
 30
0.0
 11
446.685278
 21
476.666605
 31
0.0
  0
LINE
  8
LC-009-005-----0
  6
CONTINUOUS
  5
41B
 10
441.419592
 20
471.966605
 30
0.0
 11
446.119592
 21
476.666605
 31
0.0
  0
LINE
  8
LC-009-005-----0
  6
CONTINUOUS
  5
41C
 10
440.853907
 20
471.966605
 30
0.0
 11
445.553907
 21
476.666605
 31
0.0
  0
LINE
  8
LC-009-005-----0
  6
CONTINUOUS
  5
41D
 10
440.288221
 20
471.966605
 30
0.0
 11
444.988221
 21
476.666605
 31
0.0
  0
LINE
  8
LC-009-005-----0
  6
CONTINUOUS
  5
41E
 10
439.722536
 20
471.966605
 30
0.0
 11
444.422536
 21
476.666605
 31
0.0
  0
LINE
  8
LC-009-005-----0
  6
CONTINUOUS
  5
41F
 10
439.156851
 20
471.966605
 30
0.0
 11
443.856851
 21
476.666605
 31
0.0
  0
LINE
  8
LC-009-005-----0
  6
CONTINUOUS
  5
420
 10
438.591165
 20
471.966605
 30
0.0
 11
443.291165
 21
476.666605
 31
0.0
  0
LINE
  8
LC-009-005-----0
  6
CONTINUOUS
  5
421
 10
438.02548
 20
471.966605
 30
0.0
 11
442.72548
 21
476.666605
 31
0.0
  0
LINE
  8
LC-009-005-----0
  6
CONTINUOUS
  5
422
 10
437.459794
 20
471.966605
 30
0.0
 11
442.159794
 21
476.666605
 31
0.0
  0
LINE
  8
LC-009-005-----0
  6
CONTINUOUS
  5
423
 10
436.894109
 20
471.966605
 30
0.0
 11
441.594109
 21
476.666605
 31
0.0
  0
LINE
  8
LC-009-005-----0
  6
CONTINUOUS
  5
424
 10
436.870522
 20
472.508703
 30
0.0
 11
441.028423
 21
476.666605
 31
0.0
  0
LINE
  8
LC-009-005-----0
  6
CONTINUOUS
  5
425
 10
436.870522
 20
473.074389
 30
0.0
 11
440.462738
 21
476.666605
 31
0.0
  0
LINE
  8
LC-009-005-----0
  6
CONTINUOUS
  5
426
 10
436.870522
 20
473.640074
 30
0.0
 11
439.897053
 21
476.666605
 31
0.0
  0
LINE
  8
LC-009-005-----0
  6
CONTINUOUS
  5
427
 10
436.870522
 20
474.20576
 30
0.0
 11
439.331367
 21
476.666605
 31
0.0
  0
LINE
  8
LC-009-005-----0
  6
CONTINUOUS
  5
428
 10
436.870522
 20
474.771445
 30
0.0
 11
438.765682
 21
476.666605
 31
0.0
  0
LINE
  8
LC-009-005-----0
  6
CONTINUOUS
  5
429
 10
436.870522
 20
475.337131
 30
0.0
 11
438.199996
 21
476.666605
 31
0.0
  0
LINE
  8
LC-009-005-----0
  6
CONTINUOUS
  5
42A
 10
436.870522
 20
475.902816
 30
0.0
 11
437.634311
 21
476.666605
 31
0.0
  0
LINE
  8
LC-009-005-----0
  6
CONTINUOUS
  5
42B
 10
436.870522
 20
476.468501
 30
0.0
 11
437.068625
 21
476.666605
 31
0.0
  0
ENDBLK
  8
0
  5
42C
  0
BLOCK
  8
0
  5
42E
  2
*X45
 70
    65
 10
416.870522
 20
471.966605
 30
0.0
  3
*X45
  0
LINE
  8
LC-009-005-----0
  6
CONTINUOUS
  5
42F
 10
426.711771
 20
471.966605
 30
0.0
 11
426.870522
 21
472.125356
 31
0.0
  0
LINE
  8
LC-009-005-----0
  6
CONTINUOUS
  5
430
 10
426.146086
 20
471.966605
 30
0.0
 11
426.870522
 21
472.691041
 31
0.0
  0
LINE
  8
LC-009-005-----0
  6
CONTINUOUS
  5
431
 10
425.5804
 20
471.966605
 30
0.0
 11
426.870522
 21
473.256727
 31
0.0
  0
LINE
  8
LC-009-005-----0
  6
CONTINUOUS
  5
432
 10
425.014715
 20
471.966605
 30
0.0
 11
426.870522
 21
473.822412
 31
0.0
  0
LINE
  8
LC-009-005-----0
  6
CONTINUOUS
  5
433
 10
424.44903
 20
471.966605
 30
0.0
 11
426.870522
 21
474.388097
 31
0.0
  0
LINE
  8
LC-009-005-----0
  6
CONTINUOUS
  5
434
 10
423.883344
 20
471.966605
 30
0.0
 11
426.870522
 21
474.953783
 31
0.0
  0
LINE
  8
LC-009-005-----0
  6
CONTINUOUS
  5
435
 10
423.317659
 20
471.966605
 30
0.0
 11
426.870522
 21
475.519468
 31
0.0
  0
LINE
  8
LC-009-005-----0
  6
CONTINUOUS
  5
436
 10
422.751973
 20
471.966605
 30
0.0
 11
426.870522
 21
476.085154
 31
0.0
  0
LINE
  8
LC-009-005-----0
  6
CONTINUOUS
  5
437
 10
422.186288
 20
471.966605
 30
0.0
 11
426.870522
 21
476.650839
 31
0.0
  0
LINE
  8
LC-009-005-----0
  6
CONTINUOUS
  5
438
 10
421.620602
 20
471.966605
 30
0.0
 11
426.320602
 21
476.666605
 31
0.0
  0
LINE
  8
LC-009-005-----0
  6
CONTINUOUS
  5
439
 10
421.054917
 20
471.966605
 30
0.0
 11
425.754917
 21
476.666605
 31
0.0
  0
LINE
  8
LC-009-005-----0
  6
CONTINUOUS
  5
43A
 10
420.489232
 20
471.966605
 30
0.0
 11
425.189232
 21
476.666605
 31
0.0
  0
LINE
  8
LC-009-005-----0
  6
CONTINUOUS
  5
43B
 10
419.923546
 20
471.966605
 30
0.0
 11
424.623546
 21
476.666605
 31
0.0
  0
LINE
  8
LC-009-005-----0
  6
CONTINUOUS
  5
43C
 10
419.357861
 20
471.966605
 30
0.0
 11
424.057861
 21
476.666605
 31
0.0
  0
LINE
  8
LC-009-005-----0
  6
CONTINUOUS
  5
43D
 10
418.792175
 20
471.966605
 30
0.0
 11
423.492175
 21
476.666605
 31
0.0
  0
LINE
  8
LC-009-005-----0
  6
CONTINUOUS
  5
43E
 10
418.22649
 20
471.966605
 30
0.0
 11
422.92649
 21
476.666605
 31
0.0
  0
LINE
  8
LC-009-005-----0
  6
CONTINUOUS
  5
43F
 10
417.660804
 20
471.966605
 30
0.0
 11
422.360804
 21
476.666605
 31
0.0
  0
LINE
  8
LC-009-005-----0
  6
CONTINUOUS
  5
440
 10
417.095119
 20
471.966605
 30
0.0
 11
421.795119
 21
476.666605
 31
0.0
  0
LINE
  8
LC-009-005-----0
  6
CONTINUOUS
  5
441
 10
416.870522
 20
472.307693
 30
0.0
 11
421.229434
 21
476.666605
 31
0.0
  0
LINE
  8
LC-009-005-----0
  6
CONTINUOUS
  5
442
 10
416.870522
 20
472.873379
 30
0.0
 11
420.663748
 21
476.666605
 31
0.0
  0
LINE
  8
LC-009-005-----0
  6
CONTINUOUS
  5
443
 10
416.870522
 20
473.439064
 30
0.0
 11
420.098063
 21
476.666605
 31
0.0
  0
LINE
  8
LC-009-005-----0
  6
CONTINUOUS
  5
444
 10
416.870522
 20
474.00475
 30
0.0
 11
419.532377
 21
476.666605
 31
0.0
  0
LINE
  8
LC-009-005-----0
  6
CONTINUOUS
  5
445
 10
416.870522
 20
474.570435
 30
0.0
 11
418.966692
 21
476.666605
 31
0.0
  0
LINE
  8
LC-009-005-----0
  6
CONTINUOUS
  5
446
 10
416.870522
 20
475.13612
 30
0.0
 11
418.401006
 21
476.666605
 31
0.0
  0
LINE
  8
LC-009-005-----0
  6
CONTINUOUS
  5
447
 10
416.870522
 20
475.701806
 30
0.0
 11
417.835321
 21
476.666605
 31
0.0
  0
LINE
  8
LC-009-005-----0
  6
CONTINUOUS
  5
448
 10
416.870522
 20
476.267491
 30
0.0
 11
417.269636
 21
476.666605
 31
0.0
  0
ENDBLK
  8
0
  5
449
  0
BLOCK
  8
0
  5
44B
  2
*X46
 70
    65
 10
396.870522
 20
471.966605
 30
0.0
  3
*X46
  0
LINE
  8
LC-009-005-----0
  6
CONTINUOUS
  5
44C
 10
406.347096
 20
471.966605
 30
0.0
 11
406.870522
 21
472.490031
 31
0.0
  0
LINE
  8
LC-009-005-----0
  6
CONTINUOUS
  5
44D
 10
405.781411
 20
471.966605
 30
0.0
 11
406.870522
 21
473.055716
 31
0.0
  0
LINE
  8
LC-009-005-----0
  6
CONTINUOUS
  5
44E
 10
405.215725
 20
471.966605
 30
0.0
 11
406.870522
 21
473.621402
 31
0.0
  0
LINE
  8
LC-009-005-----0
  6
CONTINUOUS
  5
44F
 10
404.65004
 20
471.966605
 30
0.0
 11
406.870522
 21
474.187087
 31
0.0
  0
LINE
  8
LC-009-005-----0
  6
CONTINUOUS
  5
450
 10
404.084354
 20
471.966605
 30
0.0
 11
406.870522
 21
474.752773
 31
0.0
  0
LINE
  8
LC-009-005-----0
  6
CONTINUOUS
  5
451
 10
403.518669
 20
471.966605
 30
0.0
 11
406.870522
 21
475.318458
 31
0.0
  0
LINE
  8
LC-009-005-----0
  6
CONTINUOUS
  5
452
 10
402.952983
 20
471.966605
 30
0.0
 11
406.870522
 21
475.884144
 31
0.0
  0
LINE
  8
LC-009-005-----0
  6
CONTINUOUS
  5
453
 10
402.387298
 20
471.966605
 30
0.0
 11
406.870522
 21
476.449829
 31
0.0
  0
LINE
  8
LC-009-005-----0
  6
CONTINUOUS
  5
454
 10
401.821613
 20
471.966605
 30
0.0
 11
406.521613
 21
476.666605
 31
0.0
  0
LINE
  8
LC-009-005-----0
  6
CONTINUOUS
  5
455
 10
401.255927
 20
471.966605
 30
0.0
 11
405.955927
 21
476.666605
 31
0.0
  0
LINE
  8
LC-009-005-----0
  6
CONTINUOUS
  5
456
 10
400.690242
 20
471.966605
 30
0.0
 11
405.390242
 21
476.666605
 31
0.0
  0
LINE
  8
LC-009-005-----0
  6
CONTINUOUS
  5
457
 10
400.124556
 20
471.966605
 30
0.0
 11
404.824556
 21
476.666605
 31
0.0
  0
LINE
  8
LC-009-005-----0
  6
CONTINUOUS
  5
458
 10
399.558871
 20
471.966605
 30
0.0
 11
404.258871
 21
476.666605
 31
0.0
  0
LINE
  8
LC-009-005-----0
  6
CONTINUOUS
  5
459
 10
398.993185
 20
471.966605
 30
0.0
 11
403.693185
 21
476.666605
 31
0.0
  0
LINE
  8
LC-009-005-----0
  6
CONTINUOUS
  5
45A
 10
398.4275
 20
471.966605
 30
0.0
 11
403.1275
 21
476.666605
 31
0.0
  0
LINE
  8
LC-009-005-----0
  6
CONTINUOUS
  5
45B
 10
397.861815
 20
471.966605
 30
0.0
 11
402.561815
 21
476.666605
 31
0.0
  0
LINE
  8
LC-009-005-----0
  6
CONTINUOUS
  5
45C
 10
397.296129
 20
471.966605
 30
0.0
 11
401.996129
 21
476.666605
 31
0.0
  0
LINE
  8
LC-009-005-----0
  6
CONTINUOUS
  5
45D
 10
396.870522
 20
472.106683
 30
0.0
 11
401.430444
 21
476.666605
 31
0.0
  0
LINE
  8
LC-009-005-----0
  6
CONTINUOUS
  5
45E
 10
396.870522
 20
472.672369
 30
0.0
 11
400.864758
 21
476.666605
 31
0.0
  0
LINE
  8
LC-009-005-----0
  6
CONTINUOUS
  5
45F
 10
396.870522
 20
473.238054
 30
0.0
 11
400.299073
 21
476.666605
 31
0.0
  0
LINE
  8
LC-009-005-----0
  6
CONTINUOUS
  5
460
 10
396.870522
 20
473.803739
 30
0.0
 11
399.733387
 21
476.666605
 31
0.0
  0
LINE
  8
LC-009-005-----0
  6
CONTINUOUS
  5
461
 10
396.870522
 20
474.369425
 30
0.0
 11
399.167702
 21
476.666605
 31
0.0
  0
LINE
  8
LC-009-005-----0
  6
CONTINUOUS
  5
462
 10
396.870522
 20
474.93511
 30
0.0
 11
398.602017
 21
476.666605
 31
0.0
  0
LINE
  8
LC-009-005-----0
  6
CONTINUOUS
  5
463
 10
396.870522
 20
475.500796
 30
0.0
 11
398.036331
 21
476.666605
 31
0.0
  0
LINE
  8
LC-009-005-----0
  6
CONTINUOUS
  5
464
 10
396.870522
 20
476.066481
 30
0.0
 11
397.470646
 21
476.666605
 31
0.0
  0
LINE
  8
LC-009-005-----0
  6
CONTINUOUS
  5
465
 10
396.870522
 20
476.632167
 30
0.0
 11
396.90496
 21
476.666605
 31
0.0
  0
ENDBLK
  8
0
  5
466
  0
BLOCK
  8
0
  5
468
  2
*X47
 70
    65
 10
376.870522
 20
471.966605
 30
0.0
  3
*X47
  0
LINE
  8
LC-009-005-----0
  6
CONTINUOUS
  5
469
 10
386.548106
 20
471.966605
 30
0.0
 11
386.870522
 21
472.289021
 31
0.0
  0
LINE
  8
LC-009-005-----0
  6
CONTINUOUS
  5
46A
 10
385.982421
 20
471.966605
 30
0.0
 11
386.870522
 21
472.854706
 31
0.0
  0
LINE
  8
LC-009-005-----0
  6
CONTINUOUS
  5
46B
 10
385.416735
 20
471.966605
 30
0.0
 11
386.870522
 21
473.420392
 31
0.0
  0
LINE
  8
LC-009-005-----0
  6
CONTINUOUS
  5
46C
 10
384.85105
 20
471.966605
 30
0.0
 11
386.870522
 21
473.986077
 31
0.0
  0
LINE
  8
LC-009-005-----0
  6
CONTINUOUS
  5
46D
 10
384.285364
 20
471.966605
 30
0.0
 11
386.870522
 21
474.551763
 31
0.0
  0
LINE
  8
LC-009-005-----0
  6
CONTINUOUS
  5
46E
 10
383.719679
 20
471.966605
 30
0.0
 11
386.870522
 21
475.117448
 31
0.0
  0
LINE
  8
LC-009-005-----0
  6
CONTINUOUS
  5
46F
 10
383.153994
 20
471.966605
 30
0.0
 11
386.870522
 21
475.683133
 31
0.0
  0
LINE
  8
LC-009-005-----0
  6
CONTINUOUS
  5
470
 10
382.588308
 20
471.966605
 30
0.0
 11
386.870522
 21
476.248819
 31
0.0
  0
LINE
  8
LC-009-005-----0
  6
CONTINUOUS
  5
471
 10
382.022623
 20
471.966605
 30
0.0
 11
386.722623
 21
476.666605
 31
0.0
  0
LINE
  8
LC-009-005-----0
  6
CONTINUOUS
  5
472
 10
381.456937
 20
471.966605
 30
0.0
 11
386.156937
 21
476.666605
 31
0.0
  0
LINE
  8
LC-009-005-----0
  6
CONTINUOUS
  5
473
 10
380.891252
 20
471.966605
 30
0.0
 11
385.591252
 21
476.666605
 31
0.0
  0
LINE
  8
LC-009-005-----0
  6
CONTINUOUS
  5
474
 10
380.325566
 20
471.966605
 30
0.0
 11
385.025566
 21
476.666605
 31
0.0
  0
LINE
  8
LC-009-005-----0
  6
CONTINUOUS
  5
475
 10
379.759881
 20
471.966605
 30
0.0
 11
384.459881
 21
476.666605
 31
0.0
  0
LINE
  8
LC-009-005-----0
  6
CONTINUOUS
  5
476
 10
379.194196
 20
471.966605
 30
0.0
 11
383.894196
 21
476.666605
 31
0.0
  0
LINE
  8
LC-009-005-----0
  6
CONTINUOUS
  5
477
 10
378.62851
 20
471.966605
 30
0.0
 11
383.32851
 21
476.666605
 31
0.0
  0
LINE
  8
LC-009-005-----0
  6
CONTINUOUS
  5
478
 10
378.062825
 20
471.966605
 30
0.0
 11
382.762825
 21
476.666605
 31
0.0
  0
LINE
  8
LC-009-005-----0
  6
CONTINUOUS
  5
479
 10
377.497139
 20
471.966605
 30
0.0
 11
382.197139
 21
476.666605
 31
0.0
  0
LINE
  8
LC-009-005-----0
  6
CONTINUOUS
  5
47A
 10
376.931454
 20
471.966605
 30
0.0
 11
381.631454
 21
476.666605
 31
0.0
  0
LINE
  8
LC-009-005-----0
  6
CONTINUOUS
  5
47B
 10
376.870522
 20
472.471359
 30
0.0
 11
381.065768
 21
476.666605
 31
0.0
  0
LINE
  8
LC-009-005-----0
  6
CONTINUOUS
  5
47C
 10
376.870522
 20
473.037044
 30
0.0
 11
380.500083
 21
476.666605
 31
0.0
  0
LINE
  8
LC-009-005-----0
  6
CONTINUOUS
  5
47D
 10
376.870522
 20
473.602729
 30
0.0
 11
379.934398
 21
476.666605
 31
0.0
  0
LINE
  8
LC-009-005-----0
  6
CONTINUOUS
  5
47E
 10
376.870522
 20
474.168415
 30
0.0
 11
379.368712
 21
476.666605
 31
0.0
  0
LINE
  8
LC-009-005-----0
  6
CONTINUOUS
  5
47F
 10
376.870522
 20
474.7341
 30
0.0
 11
378.803027
 21
476.666605
 31
0.0
  0
LINE
  8
LC-009-005-----0
  6
CONTINUOUS
  5
480
 10
376.870522
 20
475.299786
 30
0.0
 11
378.237341
 21
476.666605
 31
0.0
  0
LINE
  8
LC-009-005-----0
  6
CONTINUOUS
  5
481
 10
376.870522
 20
475.865471
 30
0.0
 11
377.671656
 21
476.666605
 31
0.0
  0
LINE
  8
LC-009-005-----0
  6
CONTINUOUS
  5
482
 10
376.870522
 20
476.431156
 30
0.0
 11
377.10597
 21
476.666605
 31
0.0
  0
ENDBLK
  8
0
  5
483
  0
BLOCK
  8
0
  5
485
  2
*X48
 70
    65
 10
356.870522
 20
471.191093
 30
0.0
  3
*X48
  0
LINE
  8
LC-009-005-----0
  6
CONTINUOUS
  5
486
 10
366.651417
 20
471.868906
 30
0.0
 11
366.870522
 21
472.088011
 31
0.0
  0
LINE
  8
LC-009-005-----0
  6
CONTINUOUS
  5
487
 10
366.043601
 20
471.826776
 30
0.0
 11
366.870522
 21
472.653696
 31
0.0
  0
LINE
  8
LC-009-005-----0
  6
CONTINUOUS
  5
488
 10
365.435785
 20
471.784645
 30
0.0
 11
366.870522
 21
473.219382
 31
0.0
  0
LINE
  8
LC-009-005-----0
  6
CONTINUOUS
  5
489
 10
364.827969
 20
471.742515
 30
0.0
 11
366.870522
 21
473.785067
 31
0.0
  0
LINE
  8
LC-009-005-----0
  6
CONTINUOUS
  5
48A
 10
364.220153
 20
471.700384
 30
0.0
 11
366.870522
 21
474.350752
 31
0.0
  0
LINE
  8
LC-009-005-----0
  6
CONTINUOUS
  5
48B
 10
363.612337
 20
471.658253
 30
0.0
 11
366.870522
 21
474.916438
 31
0.0
  0
LINE
  8
LC-009-005-----0
  6
CONTINUOUS
  5
48C
 10
363.004521
 20
471.616123
 30
0.0
 11
366.870522
 21
475.482123
 31
0.0
  0
LINE
  8
LC-009-005-----0
  6
CONTINUOUS
  5
48D
 10
362.396705
 20
471.573992
 30
0.0
 11
366.870522
 21
476.047809
 31
0.0
  0
LINE
  8
LC-009-005-----0
  6
CONTINUOUS
  5
48E
 10
361.788889
 20
471.531862
 30
0.0
 11
366.851048
 21
476.594021
 31
0.0
  0
LINE
  8
LC-009-005-----0
  6
CONTINUOUS
  5
48F
 10
361.181073
 20
471.489731
 30
0.0
 11
366.243232
 21
476.55189
 31
0.0
  0
LINE
  8
LC-009-005-----0
  6
CONTINUOUS
  5
490
 10
360.573257
 20
471.4476
 30
0.0
 11
365.635416
 21
476.50976
 31
0.0
  0
LINE
  8
LC-009-005-----0
  6
CONTINUOUS
  5
491
 10
359.965441
 20
471.40547
 30
0.0
 11
365.0276
 21
476.467629
 31
0.0
  0
LINE
  8
LC-009-005-----0
  6
CONTINUOUS
  5
492
 10
359.357625
 20
471.363339
 30
0.0
 11
364.419784
 21
476.425498
 31
0.0
  0
LINE
  8
LC-009-005-----0
  6
CONTINUOUS
  5
493
 10
358.749809
 20
471.321209
 30
0.0
 11
363.811968
 21
476.383368
 31
0.0
  0
LINE
  8
LC-009-005-----0
  6
CONTINUOUS
  5
494
 10
358.141993
 20
471.279078
 30
0.0
 11
363.204152
 21
476.341237
 31
0.0
  0
LINE
  8
LC-009-005-----0
  6
CONTINUOUS
  5
495
 10
357.534177
 20
471.236948
 30
0.0
 11
362.596336
 21
476.299107
 31
0.0
  0
LINE
  8
LC-009-005-----0
  6
CONTINUOUS
  5
496
 10
356.926361
 20
471.194817
 30
0.0
 11
361.98852
 21
476.256976
 31
0.0
  0
LINE
  8
LC-009-005-----0
  6
CONTINUOUS
  5
497
 10
356.870522
 20
471.704663
 30
0.0
 11
361.380704
 21
476.214846
 31
0.0
  0
LINE
  8
LC-009-005-----0
  6
CONTINUOUS
  5
498
 10
356.870522
 20
472.270348
 30
0.0
 11
360.772888
 21
476.172715
 31
0.0
  0
LINE
  8
LC-009-005-----0
  6
CONTINUOUS
  5
499
 10
356.870522
 20
472.836034
 30
0.0
 11
360.165072
 21
476.130584
 31
0.0
  0
LINE
  8
LC-009-005-----0
  6
CONTINUOUS
  5
49A
 10
356.870522
 20
473.401719
 30
0.0
 11
359.557256
 21
476.088454
 31
0.0
  0
LINE
  8
LC-009-005-----0
  6
CONTINUOUS
  5
49B
 10
356.870522
 20
473.967405
 30
0.0
 11
358.94944
 21
476.046323
 31
0.0
  0
LINE
  8
LC-009-005-----0
  6
CONTINUOUS
  5
49C
 10
356.870522
 20
474.53309
 30
0.0
 11
358.341624
 21
476.004193
 31
0.0
  0
LINE
  8
LC-009-005-----0
  6
CONTINUOUS
  5
49D
 10
356.870522
 20
475.098776
 30
0.0
 11
357.733808
 21
475.962062
 31
0.0
  0
LINE
  8
LC-009-005-----0
  6
CONTINUOUS
  5
49E
 10
356.870522
 20
475.664461
 30
0.0
 11
357.125992
 21
475.919931
 31
0.0
  0
ENDBLK
  8
0
  5
49F
  0
BLOCK
  8
0
  5
4A1
  2
*X49
 70
    65
 10
336.870522
 20
469.804799
 30
0.0
  3
*X49
  0
LINE
  8
LC-009-005-----0
  6
CONTINUOUS
  5
4A2
 10
346.593489
 20
470.478597
 30
0.0
 11
346.870522
 21
470.75563
 31
0.0
  0
LINE
  8
LC-009-005-----0
  6
CONTINUOUS
  5
4A3
 10
345.985673
 20
470.436466
 30
0.0
 11
346.870522
 21
471.321315
 31
0.0
  0
LINE
  8
LC-009-005-----0
  6
CONTINUOUS
  5
4A4
 10
345.377857
 20
470.394336
 30
0.0
 11
346.870522
 21
471.887001
 31
0.0
  0
LINE
  8
LC-009-005-----0
  6
CONTINUOUS
  5
4A5
 10
344.770041
 20
470.352205
 30
0.0
 11
346.870522
 21
472.452686
 31
0.0
  0
LINE
  8
LC-009-005-----0
  6
CONTINUOUS
  5
4A6
 10
344.162225
 20
470.310075
 30
0.0
 11
346.870522
 21
473.018371
 31
0.0
  0
LINE
  8
LC-009-005-----0
  6
CONTINUOUS
  5
4A7
 10
343.554409
 20
470.267944
 30
0.0
 11
346.870522
 21
473.584057
 31
0.0
  0
LINE
  8
LC-009-005-----0
  6
CONTINUOUS
  5
4A8
 10
342.946593
 20
470.225813
 30
0.0
 11
346.870522
 21
474.149742
 31
0.0
  0
LINE
  8
LC-009-005-----0
  6
CONTINUOUS
  5
4A9
 10
342.338777
 20
470.183683
 30
0.0
 11
346.870522
 21
474.715428
 31
0.0
  0
LINE
  8
LC-009-005-----0
  6
CONTINUOUS
  5
4AA
 10
341.730961
 20
470.141552
 30
0.0
 11
346.79312
 21
475.203711
 31
0.0
  0
LINE
  8
LC-009-005-----0
  6
CONTINUOUS
  5
4AB
 10
341.123145
 20
470.099422
 30
0.0
 11
346.185304
 21
475.161581
 31
0.0
  0
LINE
  8
LC-009-005-----0
  6
CONTINUOUS
  5
4AC
 10
340.515329
 20
470.057291
 30
0.0
 11
345.577488
 21
475.11945
 31
0.0
  0
LINE
  8
LC-009-005-----0
  6
CONTINUOUS
  5
4AD
 10
339.907513
 20
470.01516
 30
0.0
 11
344.969672
 21
475.07732
 31
0.0
  0
LINE
  8
LC-009-005-----0
  6
CONTINUOUS
  5
4AE
 10
339.299697
 20
469.97303
 30
0.0
 11
344.361856
 21
475.035189
 31
0.0
  0
LINE
  8
LC-009-005-----0
  6
CONTINUOUS
  5
4AF
 10
338.691881
 20
469.930899
 30
0.0
 11
343.75404
 21
474.993058
 31
0.0
  0
LINE
  8
LC-009-005-----0
  6
CONTINUOUS
  5
4B0
 10
338.084065
 20
469.888769
 30
0.0
 11
343.146224
 21
474.950928
 31
0.0
  0
LINE
  8
LC-009-005-----0
  6
CONTINUOUS
  5
4B1
 10
337.476249
 20
469.846638
 30
0.0
 11
342.538408
 21
474.908797
 31
0.0
  0
LINE
  8
LC-009-005-----0
  6
CONTINUOUS
  5
4B2
 10
336.870522
 20
470.372282
 30
0.0
 11
341.322776
 21
474.824536
 31
0.0
  0
LINE
  8
LC-009-005-----0
  6
CONTINUOUS
  5
4B3
 10
336.870522
 20
470.937967
 30
0.0
 11
340.71496
 21
474.782406
 31
0.0
  0
LINE
  8
LC-009-005-----0
  6
CONTINUOUS
  5
4B4
 10
336.870522
 20
471.503653
 30
0.0
 11
340.107144
 21
474.740275
 31
0.0
  0
LINE
  8
LC-009-005-----0
  6
CONTINUOUS
  5
4B5
 10
336.870522
 20
472.069338
 30
0.0
 11
339.499328
 21
474.698144
 31
0.0
  0
LINE
  8
LC-009-005-----0
  6
CONTINUOUS
  5
4B6
 10
336.870522
 20
472.635024
 30
0.0
 11
338.891512
 21
474.656014
 31
0.0
  0
LINE
  8
LC-009-005-----0
  6
CONTINUOUS
  5
4B7
 10
336.870522
 20
473.200709
 30
0.0
 11
338.283696
 21
474.613883
 31
0.0
  0
LINE
  8
LC-009-005-----0
  6
CONTINUOUS
  5
4B8
 10
336.870522
 20
473.766395
 30
0.0
 11
337.67588
 21
474.571753
 31
0.0
  0
LINE
  8
LC-009-005-----0
  6
CONTINUOUS
  5
4B9
 10
336.870522
 20
474.33208
 30
0.0
 11
337.068064
 21
474.529622
 31
0.0
  0
ENDBLK
  8
0
  5
4BA
  0
BLOCK
  8
0
  5
4BC
  2
*X50
 70
    65
 10
293.959736
 20
466.34715
 30
0.0
  3
*X50
  0
LINE
  8
LC-009-005-----0
  6
CONTINUOUS
  5
4BD
 10
326.053485
 20
468.040527
 30
0.0
 11
326.870522
 21
468.857563
 31
0.0
  0
LINE
  8
LC-009-005-----0
  6
CONTINUOUS
  5
4BE
 10
325.142614
 20
467.695341
 30
0.0
 11
326.870522
 21
469.423249
 31
0.0
  0
LINE
  8
LC-009-005-----0
  6
CONTINUOUS
  5
4BF
 10
324.29341
 20
467.411823
 30
0.0
 11
326.870522
 21
469.988934
 31
0.0
  0
LINE
  8
LC-009-005-----0
  6
CONTINUOUS
  5
4C0
 10
323.493055
 20
467.177153
 30
0.0
 11
326.870522
 21
470.55462
 31
0.0
  0
LINE
  8
LC-009-005-----0
  6
CONTINUOUS
  5
4C1
 10
322.732783
 20
466.982567
 30
0.0
 11
326.870522
 21
471.120305
 31
0.0
  0
LINE
  8
LC-009-005-----0
  6
CONTINUOUS
  5
4C2
 10
322.006285
 20
466.821754
 30
0.0
 11
326.870522
 21
471.68599
 31
0.0
  0
LINE
  8
LC-009-005-----0
  6
CONTINUOUS
  5
4C3
 10
321.339946
 20
466.7211
 30
0.0
 11
326.870522
 21
472.251676
 31
0.0
  0
LINE
  8
LC-009-005-----0
  6
CONTINUOUS
  5
4C4
 10
320.729931
 20
466.676771
 30
0.0
 11
326.870522
 21
472.817361
 31
0.0
  0
LINE
  8
LC-009-005-----0
  6
CONTINUOUS
  5
4C5
 10
320.119916
 20
466.632441
 30
0.0
 11
326.870522
 21
473.383047
 31
0.0
  0
LINE
  8
LC-009-005-----0
  6
CONTINUOUS
  5
4C6
 10
319.509902
 20
466.588112
 30
0.0
 11
326.239687
 21
473.317898
 31
0.0
  0
LINE
  8
LC-009-005-----0
  6
CONTINUOUS
  5
4C7
 10
318.899887
 20
466.543783
 30
0.0
 11
325.106347
 21
472.750243
 31
0.0
  0
LINE
  8
LC-009-005-----0
  6
CONTINUOUS
  5
4C8
 10
318.289872
 20
466.499453
 30
0.0
 11
324.122823
 21
472.332404
 31
0.0
  0
LINE
  8
LC-009-005-----0
  6
CONTINUOUS
  5
4C9
 10
317.679857
 20
466.455124
 30
0.0
 11
323.235419
 21
472.010686
 31
0.0
  0
LINE
  8
LC-009-005-----0
  6
CONTINUOUS
  5
4CA
 10
317.069842
 20
466.410794
 30
0.0
 11
322.416956
 21
471.757908
 31
0.0
  0
LINE
  8
LC-009-005-----0
  6
CONTINUOUS
  5
4CB
 10
316.870522
 20
466.777159
 30
0.0
 11
321.651384
 21
471.558022
 31
0.0
  0
LINE
  8
LC-009-005-----0
  6
CONTINUOUS
  5
4CC
 10
316.870522
 20
467.342845
 30
0.0
 11
320.929498
 21
471.401821
 31
0.0
  0
LINE
  8
LC-009-005-----0
  6
CONTINUOUS
  5
4CD
 10
316.870522
 20
467.90853
 30
0.0
 11
320.319483
 21
471.357492
 31
0.0
  0
LINE
  8
LC-009-005-----0
  6
CONTINUOUS
  5
4CE
 10
316.870522
 20
468.474216
 30
0.0
 11
319.709468
 21
471.313162
 31
0.0
  0
LINE
  8
LC-009-005-----0
  6
CONTINUOUS
  5
4CF
 10
316.870522
 20
469.039901
 30
0.0
 11
319.099453
 21
471.268833
 31
0.0
  0
LINE
  8
LC-009-005-----0
  6
CONTINUOUS
  5
4D0
 10
316.870522
 20
469.605586
 30
0.0
 11
318.489439
 21
471.224503
 31
0.0
  0
LINE
  8
LC-009-005-----0
  6
CONTINUOUS
  5
4D1
 10
316.870522
 20
470.171272
 30
0.0
 11
317.879424
 21
471.180174
 31
0.0
  0
LINE
  8
LC-009-005-----0
  6
CONTINUOUS
  5
4D2
 10
316.870522
 20
470.736957
 30
0.0
 11
317.269409
 21
471.135845
 31
0.0
  0
ENDBLK
  8
0
  5
4D3
  0
BLOCK
  8
0
  5
4D5
  2
*X51
 70
    65
 10
289.323309
 20
440.756122
 30
0.0
  3
*X51
  0
LINE
  8
LC-009-005-----0
  6
CONTINUOUS
  5
4D6
 10
290.849484
 20
440.756122
 30
0.0
 11
291.549484
 21
441.456122
 31
0.0
  0
LINE
  8
LC-009-005-----0
  6
CONTINUOUS
  5
4D7
 10
293.100082
 20
443.006719
 30
0.0
 11
293.620259
 21
443.526897
 31
0.0
  0
LINE
  8
LC-009-005-----0
  6
CONTINUOUS
  5
4D8
 10
321.896329
 20
471.802967
 30
0.0
 11
324.038842
 21
473.94548
 31
0.0
  0
LINE
  8
LC-009-005-----0
  6
CONTINUOUS
  5
4D9
 10
291.823309
 20
444.558373
 30
0.0
 11
292.523309
 21
445.258373
 31
0.0
  0
LINE
  8
LC-009-005-----0
  6
CONTINUOUS
  5
4DA
 10
294.205571
 20
446.940635
 30
0.0
 11
296.038795
 21
448.77386
 31
0.0
  0
LINE
  8
LC-009-005-----0
  6
CONTINUOUS
  5
4DB
 10
318.537299
 20
471.272364
 30
0.0
 11
319.28039
 21
472.015455
 31
0.0
  0
LINE
  8
LC-009-005-----0
  6
CONTINUOUS
  5
4DC
 10
295.623309
 20
451.186801
 30
0.0
 11
296.323309
 21
451.886801
 31
0.0
  0
LINE
  8
LC-009-005-----0
  6
CONTINUOUS
  5
4DD
 10
315.496219
 20
471.059711
 30
0.0
 11
316.23931
 21
471.802802
 31
0.0
  0
LINE
  8
LC-009-005-----0
  6
CONTINUOUS
  5
4DE
 10
295.623309
 20
454.015228
 30
0.0
 11
296.323309
 21
454.715228
 31
0.0
  0
LINE
  8
LC-009-005-----0
  6
CONTINUOUS
  5
4DF
 10
312.455139
 20
470.847058
 30
0.0
 11
313.19823
 21
471.590149
 31
0.0
  0
LINE
  8
LC-009-005-----0
  6
CONTINUOUS
  5
4E0
 10
295.623309
 20
456.843655
 30
0.0
 11
296.323309
 21
457.543655
 31
0.0
  0
LINE
  8
LC-009-005-----0
  6
CONTINUOUS
  5
4E1
 10
309.414059
 20
470.634405
 30
0.0
 11
310.15715
 21
471.377496
 31
0.0
  0
LINE
  8
LC-009-005-----0
  6
CONTINUOUS
  5
4E2
 10
295.623309
 20
459.672082
 30
0.0
 11
296.323309
 21
460.372082
 31
0.0
  0
LINE
  8
LC-009-005-----0
  6
CONTINUOUS
  5
4E3
 10
306.372978
 20
470.421752
 30
0.0
 11
307.11607
 21
471.164843
 31
0.0
  0
LINE
  8
LC-009-005-----0
  6
CONTINUOUS
  5
4E4
 10
295.623309
 20
462.500509
 30
0.0
 11
296.323309
 21
463.200509
 31
0.0
  0
LINE
  8
LC-009-005-----0
  6
CONTINUOUS
  5
4E5
 10
303.331898
 20
470.209099
 30
0.0
 11
304.074989
 21
470.95219
 31
0.0
  0
LINE
  8
LC-009-005-----0
  6
CONTINUOUS
  5
4E6
 10
295.834521
 20
465.540148
 30
0.0
 11
297.021819
 21
466.727446
 31
0.0
  0
LINE
  8
LC-009-005-----0
  6
CONTINUOUS
  5
4E7
 10
299.740028
 20
469.445655
 30
0.0
 11
300.916746
 21
470.622373
 31
0.0
  0
ENDBLK
  8
0
  5
4E8
  0
BLOCK
  8
0
  5
4EA
  2
BLK9
 70
    64
 10
0.0
 20
0.0
 30
0.0
  3
BLK9
  0
ENDBLK
  8
0
  5
4EB
  0
BLOCK
  8
0
  5
4ED
  2
*D53
 70
    65
 10
0.0
 20
0.0
 30
0.0
  3
*D53
  0
LINE
  8
LC-007-003-MTH-0
  6
CONTINUOUS
  5
4EE
 10
157.060652
 20
376.245012
 30
0.0
 11
100.8
 21
376.245012
 31
0.0
  0
LINE
  8
LC-007-003-MTH-0
  6
CONTINUOUS
  5
4EF
 10
212.563
 20
426.272586
 30
0.0
 11
100.8
 21
426.272586
 31
0.0
  0
LINE
  8
LC-006-003-----0
  6
CONTINUOUS
  5
4F0
 10
121.254733
 20
348.484556
 30
0.0
 11
117.6
 21
376.245012
 31
0.0
  0
LINE
  8
LC-006-003-----0
  6
CONTINUOUS
  5
4F1
 10
117.6
 20
376.245012
 30
0.0
 11
113.945267
 21
348.484556
 31
0.0
  0
LINE
  8
LC-006-003-----0
  6
CONTINUOUS
  5
4F2
 10
113.945267
 20
348.484556
 30
0.0
 11
121.254733
 21
348.484556
 31
0.0
  0
LINE
  8
LC-006-003-----0
  6
CONTINUOUS
  5
4F3
 10
120.304503
 20
348.422275
 30
0.0
 11
117.6
 21
368.965012
 31
0.0
  0
LINE
  8
LC-006-003-----0
  6
CONTINUOUS
  5
4F4
 10
117.6
 20
368.965012
 30
0.0
 11
114.895497
 21
348.422275
 31
0.0
  0
LINE
  8
LC-006-003-----0
  6
CONTINUOUS
  5
4F5
 10
119.354272
 20
348.359993
 30
0.0
 11
117.6
 21
361.685012
 31
0.0
  0
LINE
  8
LC-006-003-----0
  6
CONTINUOUS
  5
4F6
 10
117.6
 20
361.685012
 30
0.0
 11
115.845728
 21
348.359993
 31
0.0
  0
LINE
  8
LC-006-003-----0
  6
CONTINUOUS
  5
4F7
 10
118.404041
 20
348.297712
 30
0.0
 11
117.6
 21
354.405012
 31
0.0
  0
LINE
  8
LC-006-003-----0
  6
CONTINUOUS
  5
4F8
 10
117.6
 20
354.405012
 30
0.0
 11
116.795959
 21
348.297712
 31
0.0
  0
LINE
  8
LC-006-003-----0
  6
CONTINUOUS
  5
4F9
 10
113.945267
 20
454.033042
 30
0.0
 11
117.6
 21
426.272586
 31
0.0
  0
LINE
  8
LC-006-003-----0
  6
CONTINUOUS
  5
4FA
 10
117.6
 20
426.272586
 30
0.0
 11
121.254733
 21
454.033042
 31
0.0
  0
LINE
  8
LC-006-003-----0
  6
CONTINUOUS
  5
4FB
 10
121.254733
 20
454.033042
 30
0.0
 11
113.945267
 21
454.033042
 31
0.0
  0
LINE
  8
LC-006-003-----0
  6
CONTINUOUS
  5
4FC
 10
114.895497
 20
454.095324
 30
0.0
 11
117.6
 21
433.552586
 31
0.0
  0
LINE
  8
LC-006-003-----0
  6
CONTINUOUS
  5
4FD
 10
117.6
 20
433.552586
 30
0.0
 11
120.304503
 21
454.095324
 31
0.0
  0
LINE
  8
LC-006-003-----0
  6
CONTINUOUS
  5
4FE
 10
115.845728
 20
454.157605
 30
0.0
 11
117.6
 21
440.832586
 31
0.0
  0
LINE
  8
LC-006-003-----0
  6
CONTINUOUS
  5
4FF
 10
117.6
 20
440.832586
 30
0.0
 11
119.354272
 21
454.157605
 31
0.0
  0
LINE
  8
LC-006-003-----0
  6
CONTINUOUS
  5
500
 10
116.795959
 20
454.219886
 30
0.0
 11
117.6
 21
448.112586
 31
0.0
  0
LINE
  8
LC-006-003-----0
  6
CONTINUOUS
  5
501
 10
117.6
 20
448.112586
 30
0.0
 11
118.404041
 21
454.219886
 31
0.0
  0
LINE
  8
LC-008-003-MTG-0
  6
CONTINUOUS
  5
502
 10
117.6
 20
337.045012
 30
0.0
 11
117.6
 21
465.472586
 31
0.0
  0
TEXT
  8
LC-006-003-----0
  6
CONTINUOUS
 62
     8
  5
503
 10
109.772446
 20
389.20381
 30
0.0
 40
28.0
  1
50
 50
90.0
 51
15.0
  7
LC-TXTSTYLE-150-400-0-0-D0
 72
     1
 11
109.772446
 21
405.606959
 31
0.0
  0
ENDBLK
  8
0
  5
504
  0
BLOCK
  8
0
  5
506
  2
*X54
 70
    65
 10
152.880867
 20
427.474314
 30
0.0
  3
*X54
  0
LINE
  8
LC-009-005-----0
  6
CONTINUOUS
  5
507
 10
152.925585
 20
429.730403
 30
0.0
 11
155.136956
 21
427.519031
 31
0.0
  0
LINE
  8
LC-009-005-----0
  6
CONTINUOUS
  5
508
 10
152.880867
 20
431.189334
 30
0.0
 11
156.466009
 21
427.604192
 31
0.0
  0
LINE
  8
LC-009-005-----0
  6
CONTINUOUS
  5
509
 10
152.893792
 20
432.590623
 30
0.0
 11
157.381171
 21
428.103244
 31
0.0
  0
LINE
  8
LC-009-005-----0
  6
CONTINUOUS
  5
50A
 10
153.231181
 20
433.667447
 30
0.0
 11
158.025838
 21
428.872791
 31
0.0
  0
LINE
  8
LC-009-005-----0
  6
CONTINUOUS
  5
50B
 10
153.873394
 20
434.439447
 30
0.0
 11
158.366756
 21
429.946086
 31
0.0
  0
LINE
  8
LC-009-005-----0
  6
CONTINUOUS
  5
50C
 10
154.785803
 20
434.941252
 30
0.0
 11
158.380867
 21
431.346189
 31
0.0
  0
LINE
  8
LC-009-005-----0
  6
CONTINUOUS
  5
50D
 10
156.108806
 20
435.032463
 30
0.0
 11
158.339017
 21
432.802252
 31
0.0
  0
ENDBLK
  8
0
  5
50E
  0
BLOCK
  8
0
  5
510
  2
*D55
 70
    65
 10
0.0
 20
0.0
 30
0.0
  3
*D55
  0
LINE
  8
LC-007-003-MTH-0
  6
CONTINUOUS
  5
511
 10
121.810914
 20
459.539408
 30
0.0
 11
121.810914
 21
526.4
 31
0.0
  0
LINE
  8
LC-007-003-MTH-0
  6
CONTINUOUS
  5
512
 10
312.310914
 20
458.539408
 30
0.0
 11
312.310914
 21
526.4
 31
0.0
  0
LINE
  8
LC-008-003-MTG-0
  6
CONTINUOUS
  5
513
 10
121.810914
 20
509.6
 30
0.0
 11
312.310914
 21
509.6
 31
0.0
  0
LINE
  8
LC-006-003-----0
  6
CONTINUOUS
  5
514
 10
149.57137
 20
513.254733
 30
0.0
 11
121.810914
 21
509.6
 31
0.0
  0
LINE
  8
LC-006-003-----0
  6
CONTINUOUS
  5
515
 10
121.810914
 20
509.6
 30
0.0
 11
149.57137
 21
505.945267
 31
0.0
  0
LINE
  8
LC-006-003-----0
  6
CONTINUOUS
  5
516
 10
149.57137
 20
505.945267
 30
0.0
 11
149.57137
 21
513.254733
 31
0.0
  0
LINE
  8
LC-006-003-----0
  6
CONTINUOUS
  5
517
 10
149.633652
 20
512.304503
 30
0.0
 11
129.090914
 21
509.6
 31
0.0
  0
LINE
  8
LC-006-003-----0
  6
CONTINUOUS
  5
518
 10
129.090914
 20
509.6
 30
0.0
 11
149.633652
 21
506.895497
 31
0.0
  0
LINE
  8
LC-006-003-----0
  6
CONTINUOUS
  5
519
 10
149.695933
 20
511.354272
 30
0.0
 11
136.370914
 21
509.6
 31
0.0
  0
LINE
  8
LC-006-003-----0
  6
CONTINUOUS
  5
51A
 10
136.370914
 20
509.6
 30
0.0
 11
149.695933
 21
507.845728
 31
0.0
  0
LINE
  8
LC-006-003-----0
  6
CONTINUOUS
  5
51B
 10
149.758215
 20
510.404041
 30
0.0
 11
143.650914
 21
509.6
 31
0.0
  0
LINE
  8
LC-006-003-----0
  6
CONTINUOUS
  5
51C
 10
143.650914
 20
509.6
 30
0.0
 11
149.758215
 21
508.795959
 31
0.0
  0
LINE
  8
LC-006-003-----0
  6
CONTINUOUS
  5
51D
 10
284.550458
 20
505.945267
 30
0.0
 11
312.310914
 21
509.6
 31
0.0
  0
LINE
  8
LC-006-003-----0
  6
CONTINUOUS
  5
51E
 10
312.310914
 20
509.6
 30
0.0
 11
284.550458
 21
513.254733
 31
0.0
  0
LINE
  8
LC-006-003-----0
  6
CONTINUOUS
  5
51F
 10
284.550458
 20
513.254733
 30
0.0
 11
284.550458
 21
505.945267
 31
0.0
  0
LINE
  8
LC-006-003-----0
  6
CONTINUOUS
  5
520
 10
284.488177
 20
506.895497
 30
0.0
 11
305.030914
 21
509.6
 31
0.0
  0
LINE
  8
LC-006-003-----0
  6
CONTINUOUS
  5
521
 10
305.030914
 20
509.6
 30
0.0
 11
284.488177
 21
512.304503
 31
0.0
  0
LINE
  8
LC-006-003-----0
  6
CONTINUOUS
  5
522
 10
284.425895
 20
507.845728
 30
0.0
 11
297.750914
 21
509.6
 31
0.0
  0
LINE
  8
LC-006-003-----0
  6
CONTINUOUS
  5
523
 10
297.750914
 20
509.6
 30
0.0
 11
284.425895
 21
511.354272
 31
0.0
  0
LINE
  8
LC-006-003-----0
  6
CONTINUOUS
  5
524
 10
284.363614
 20
508.795959
 30
0.0
 11
290.470914
 21
509.6
 31
0.0
  0
LINE
  8
LC-006-003-----0
  6
CONTINUOUS
  5
525
 10
290.470914
 20
509.6
 30
0.0
 11
284.363614
 21
510.404041
 31
0.0
  0
TEXT
  8
LC-006-003-----0
  6
CONTINUOUS
 62
     8
  5
526
 10
183.311437
 20
517.427554
 30
0.0
 40
28.0
  1
Ø190
 51
15.0
  7
LC-TXTSTYLE-150-400-0-0-D0
 72
     1
 11
221.409074
 21
517.427554
 31
0.0
  0
ENDBLK
  8
0
  5
527
  0
BLOCK
  8
0
  5
529
  2
*D56
 70
    65
 10
0.0
 20
0.0
 30
0.0
  3
*D56
  0
LINE
  8
LC-007-003-MTH-0
  6
CONTINUOUS
  5
52A
 10
-32.748693
 20
476.666605
 30
0.0
 11
-32.748693
 21
604.8
 31
0.0
  0
LINE
  8
LC-007-003-MTH-0
  6
CONTINUOUS
  5
52B
 10
466.870522
 20
476.666605
 30
0.0
 11
466.870522
 21
604.8
 31
0.0
  0
LINE
  8
LC-008-003-MTG-0
  6
CONTINUOUS
  5
52C
 10
-32.748693
 20
588.0
 30
0.0
 11
466.870522
 21
588.0
 31
0.0
  0
LINE
  8
LC-006-003-----0
  6
CONTINUOUS
  5
52D
 10
-4.988237
 20
591.654733
 30
0.0
 11
-32.748693
 21
588.0
 31
0.0
  0
LINE
  8
LC-006-003-----0
  6
CONTINUOUS
  5
52E
 10
-32.748693
 20
588.0
 30
0.0
 11
-4.988237
 21
584.345267
 31
0.0
  0
LINE
  8
LC-006-003-----0
  6
CONTINUOUS
  5
52F
 10
-4.988237
 20
584.345267
 30
0.0
 11
-4.988237
 21
591.654733
 31
0.0
  0
LINE
  8
LC-006-003-----0
  6
CONTINUOUS
  5
530
 10
-4.925955
 20
590.704503
 30
0.0
 11
-25.468693
 21
588.0
 31
0.0
  0
LINE
  8
LC-006-003-----0
  6
CONTINUOUS
  5
531
 10
-25.468693
 20
588.0
 30
0.0
 11
-4.925955
 21
585.295497
 31
0.0
  0
LINE
  8
LC-006-003-----0
  6
CONTINUOUS
  5
532
 10
-4.863674
 20
589.754272
 30
0.0
 11
-18.188693
 21
588.0
 31
0.0
  0
LINE
  8
LC-006-003-----0
  6
CONTINUOUS
  5
533
 10
-18.188693
 20
588.0
 30
0.0
 11
-4.863674
 21
586.245728
 31
0.0
  0
LINE
  8
LC-006-003-----0
  6
CONTINUOUS
  5
534
 10
-4.801393
 20
588.804041
 30
0.0
 11
-10.908693
 21
588.0
 31
0.0
  0
LINE
  8
LC-006-003-----0
  6
CONTINUOUS
  5
535
 10
-10.908693
 20
588.0
 30
0.0
 11
-4.801393
 21
587.195959
 31
0.0
  0
LINE
  8
LC-006-003-----0
  6
CONTINUOUS
  5
536
 10
439.110066
 20
584.345267
 30
0.0
 11
466.870522
 21
588.0
 31
0.0
  0
LINE
  8
LC-006-003-----0
  6
CONTINUOUS
  5
537
 10
466.870522
 20
588.0
 30
0.0
 11
439.110066
 21
591.654733
 31
0.0
  0
LINE
  8
LC-006-003-----0
  6
CONTINUOUS
  5
538
 10
439.110066
 20
591.654733
 30
0.0
 11
439.110066
 21
584.345267
 31
0.0
  0
LINE
  8
LC-006-003-----0
  6
CONTINUOUS
  5
539
 10
439.047784
 20
585.295497
 30
0.0
 11
459.590522
 21
588.0
 31
0.0
  0
LINE
  8
LC-006-003-----0
  6
CONTINUOUS
  5
53A
 10
459.590522
 20
588.0
 30
0.0
 11
439.047784
 21
590.704503
 31
0.0
  0
LINE
  8
LC-006-003-----0
  6
CONTINUOUS
  5
53B
 10
438.985503
 20
586.245728
 30
0.0
 11
452.310522
 21
588.0
 31
0.0
  0
LINE
  8
LC-006-003-----0
  6
CONTINUOUS
  5
53C
 10
452.310522
 20
588.0
 30
0.0
 11
438.985503
 21
589.754272
 31
0.0
  0
LINE
  8
LC-006-003-----0
  6
CONTINUOUS
  5
53D
 10
438.923221
 20
587.195959
 30
0.0
 11
445.030522
 21
588.0
 31
0.0
  0
LINE
  8
LC-006-003-----0
  6
CONTINUOUS
  5
53E
 10
445.030522
 20
588.0
 30
0.0
 11
438.923221
 21
588.804041
 31
0.0
  0
TEXT
  8
LC-006-003-----0
  6
CONTINUOUS
 62
     8
  5
53F
 10
183.311437
 20
595.827554
 30
0.0
 40
28.0
  1
Ø500
 51
15.0
  7
LC-TXTSTYLE-150-400-0-0-D0
 72
     1
 11
221.409074
 21
595.827554
 31
0.0
  0
ENDBLK
  8
0
  5
540
  0
BLOCK
  8
0
  5
542
  2
*X57
 70
    65
 10
296.819162
 20
450.236753
 30
0.0
  3
*X57
  0
LINE
  8
LC-009-005-----0
  6
CONTINUOUS
  5
543
 10
303.158542
 20
450.236753
 30
0.0
 11
304.092264
 21
451.170475
 31
0.0
  0
LINE
  8
LC-009-005-----0
  6
CONTINUOUS
  5
544
 10
301.835649
 20
451.742287
 30
0.0
 11
304.092264
 21
453.998902
 31
0.0
  0
LINE
  8
LC-009-005-----0
  6
CONTINUOUS
  5
545
 10
307.30769
 20
457.214327
 30
0.0
 11
308.951589
 21
458.858227
 31
0.0
  0
LINE
  8
LC-009-005-----0
  6
CONTINUOUS
  5
546
 10
300.990367
 20
453.725432
 30
0.0
 11
304.092264
 21
456.827329
 31
0.0
  0
LINE
  8
LC-009-005-----0
  6
CONTINUOUS
  5
547
 10
305.810207
 20
458.545272
 30
0.0
 11
308.951589
 21
461.686654
 31
0.0
  0
LINE
  8
LC-009-005-----0
  6
CONTINUOUS
  5
548
 10
296.949212
 20
452.512703
 30
0.0
 11
304.092264
 21
459.655756
 31
0.0
  0
LINE
  8
LC-009-005-----0
  6
CONTINUOUS
  5
549
 10
305.810207
 20
461.373699
 30
0.0
 11
308.951589
 21
464.515081
 31
0.0
  0
LINE
  8
LC-009-005-----0
  6
CONTINUOUS
  5
54A
 10
301.757396
 20
460.149315
 30
0.0
 11
304.092264
 21
462.484183
 31
0.0
  0
LINE
  8
LC-009-005-----0
  6
CONTINUOUS
  5
54B
 10
304.697252
 20
463.089171
 30
0.0
 11
307.453366
 21
465.845285
 31
0.0
  0
LINE
  8
LC-009-005-----0
  6
CONTINUOUS
  5
54C
 10
298.877711
 20
460.098058
 30
0.0
 11
304.412357
 21
465.632703
 31
0.0
  0
ENDBLK
  8
0
  5
54D
  0
BLOCK
  8
0
  5
54F
  2
BLK10
 70
    64
 10
0.0
 20
0.0
 30
0.0
  3
BLK10
  0
ENDBLK
  8
0
  5
550
  0
BLOCK
  8
0
  5
552
  2
*X59
 70
    65
 10
125.170239
 20
450.236753
 30
0.0
  3
*X59
  0
LINE
  8
LC-009-005-----0
  6
CONTINUOUS
  5
553
 10
136.017131
 20
452.800969
 30
0.0
 11
136.717403
 21
453.501241
 31
0.0
  0
LINE
  8
LC-009-005-----0
  6
CONTINUOUS
  5
554
 10
130.624488
 20
450.236753
 30
0.0
 11
132.286175
 21
451.89844
 31
0.0
  0
LINE
  8
LC-009-005-----0
  6
CONTINUOUS
  5
555
 10
133.943424
 20
453.555689
 30
0.0
 11
135.352546
 21
454.964811
 31
0.0
  0
LINE
  8
LC-009-005-----0
  6
CONTINUOUS
  5
556
 10
130.029564
 20
452.470257
 30
0.0
 11
133.987689
 21
456.428382
 31
0.0
  0
LINE
  8
LC-009-005-----0
  6
CONTINUOUS
  5
557
 10
137.038479
 20
459.479171
 30
0.0
 11
137.300907
 21
459.741599
 31
0.0
  0
LINE
  8
LC-009-005-----0
  6
CONTINUOUS
  5
558
 10
130.029564
 20
455.298684
 30
0.0
 11
132.622833
 21
457.891952
 31
0.0
  0
LINE
  8
LC-009-005-----0
  6
CONTINUOUS
  5
559
 10
134.939722
 20
460.208841
 30
0.0
 11
136.008228
 21
461.277347
 31
0.0
  0
LINE
  8
LC-009-005-----0
  6
CONTINUOUS
  5
55A
 10
130.029564
 20
458.127111
 30
0.0
 11
134.643371
 21
462.740918
 31
0.0
  0
LINE
  8
LC-009-005-----0
  6
CONTINUOUS
  5
55B
 10
126.322717
 20
457.248691
 30
0.0
 11
128.311621
 21
459.237595
 31
0.0
  0
LINE
  8
LC-009-005-----0
  6
CONTINUOUS
  5
55C
 10
130.029564
 20
460.955538
 30
0.0
 11
133.278514
 21
464.204488
 31
0.0
  0
LINE
  8
LC-009-005-----0
  6
CONTINUOUS
  5
55D
 10
125.170239
 20
458.92464
 30
0.0
 11
128.311621
 21
462.066022
 31
0.0
  0
LINE
  8
LC-009-005-----0
  6
CONTINUOUS
  5
55E
 10
129.334771
 20
463.089171
 30
0.0
 11
131.695322
 21
465.449722
 31
0.0
  0
LINE
  8
LC-009-005-----0
  6
CONTINUOUS
  5
55F
 10
125.170239
 20
461.753067
 30
0.0
 11
129.092972
 21
465.675799
 31
0.0
  0
LINE
  8
LC-009-005-----0
  6
CONTINUOUS
  5
560
 10
125.170239
 20
464.581494
 30
0.0
 11
126.449347
 21
465.860602
 31
0.0
  0
ENDBLK
  8
0
  5
561
  0
BLOCK
  8
0
  5
563
  2
BLK11
 70
    64
 10
0.0
 20
0.0
 30
0.0
  3
BLK11
  0
ENDBLK
  8
0
  5
564
  0
ENDSEC
  0
SECTION
  2
ENTITIES
  0
VIEWPORT
  8
LC-000
  5
896
 67
     1
 68
     1
 10
420.0
 20
297.0
 30
0.0
 40
840.0
 41
594.0
 69
     1
1001
ACAD
1000
MVIEW
1002
{
1070
    16
1010
0.0
1020
0.0
1030
0.0
1010
0.0
1020
0.0
1030
1.0
1040
0.0
1040
594.0
1040
420.0
1040
297.0
1040
50.0
1040
0.0
1040
0.0
1070
     0
1070
   100
1070
     1
1070
     1
1070
     0
1070
     0
1070
     0
1070
     0
1040
0.0
1040
0.0
1040
0.0
1040
1.0
1040
1.0
1040
0.0
1040
0.0
1070
     0
1002
{
1002
}
1002
}
  0
VIEWPORT
  8
0
  5
897
 67
     1
 68
     1
 10
0.0
 20
0.0
 30
0.0
 40
0.0
 41
0.0
 69
     1
1001
ACAD
1000
MVIEW
1002
{
1070
    16
1010
0.0
1020
0.0
1030
0.0
1010
0.0
1020
0.0
1030
1.0
1040
0.0
1040
594.0
1040
0.0
1040
0.0
1040
50.0
1040
0.0
1040
0.0
1070
     0
1070
   100
1070
     0
1070
     1
1070
     0
1070
     0
1070
     0
1070
     0
1040
0.0
1040
0.0
1040
0.0
1040
0.5
1040
0.5
1040
0.5
1040
0.5
1070
     0
1002
{
1002
}
1002
}
  0
DIMENSION
  8
0
  5
565
  2
*D0
 10
39.2
 20
413.117771
 30
0.0
 11
39.2
 21
413.117771
 31
0.0
  1
110
 13
66.060914
 23
468.959407
 33
0.0
 14
152.560914
 24
357.276134
 34
0.0
 50
90.0
  3
LC-DIM-L-0140-02-02
  0
DIMENSION
  8
0
  5
566
  2
*D1
 10
289.877075
 20
313.6
 30
0.0
 11
289.877075
 21
313.6
 31
0.0
  1
235
 13
217.060914
 23
360.276134
 33
0.0
 14
451.759187
 24
380.928145
 34
0.0
  3
LC-DIM-L-0140-02-02
  0
INSERT
  8
0
  5
567
  2
*X2
 10
322.624303
 20
369.770141
 30
0.0
  0
INSERT
  8
0
  5
568
  2
*X3
 10
278.54094
 20
369.26204
 30
0.0
  0
INSERT
  8
0
  5
56A
  2
BLK1
 10
0.0
 20
0.0
 30
0.0
  0
INSERT
  8
0
  5
56C
  2
BLK2
 10
0.0
 20
0.0
 30
0.0
  0
DIMENSION
  8
0
  5
56D
  2
*D6
 10
217.060914
 20
548.8
 30
0.0
 11
217.060914
 21
548.8
 31
0.0
  1
%%c300
 13
66.060914
 23
471.966605
 33
0.0
 14
368.060914
 24
471.966605
 34
0.0
  3
LC-DIM-L-0140-02-02
  0
INSERT
  8
0
  5
56E
  2
BLK3
 10
0.0
 20
0.0
 30
0.0
  0
DIMENSION
  8
0
  5
56F
  2
*D8
 10
480.0
 20
441.775162
 30
0.0
 11
480.0
 21
441.775162
 31
0.0
  1
70
 13
368.060914
 23
468.959407
 33
0.0
 14
385.222484
 24
398.76204
 34
0.0
 50
90.0
  3
LC-DIM-L-0140-02-02
  0
INSERT
  8
0
  5
570
  2
*X9
 10
322.958873
 20
365.86204
 30
0.0
  0
INSERT
  8
0
  5
571
  2
*X10
 10
322.958873
 20
345.716584
 30
0.0
  0
DIMENSION
  8
0
  5
572
  2
*D11
 10
551.942374
 20
295.322773
 30
0.0
 11
507.414664
 21
236.2472
 31
0.0
 70
   133
 13
415.504767
 23
309.847
 33
0.0
 14
554.087336
 24
398.76204
 34
0.0
 15
353.255893
 25
398.76204
 35
0.0
  3
LC-DIM-W-0140-02-02
  0
DIMENSION
  8
0
  5
573
  2
*D12
 10
564.824643
 20
441.925399
 30
0.0
 11
564.824643
 21
441.925399
 31
0.0
 70
     1
  1
DN70
 13
457.749554
 23
418.354206
 33
0.0
 14
438.286362
 24
345.716584
 34
0.0
  3
LC-DIM-L-0140-02-02
  0
DIMENSION
  8
0
  5
574
  2
*D13
 10
535.906989
 20
485.460417
 30
0.0
 11
535.906989
 21
485.460417
 31
0.0
 70
     1
  1
DN50
 13
454.681619
 23
406.183541
 33
0.0
 14
441.714785
 24
357.790657
 34
0.0
  3
LC-DIM-L-0140-02-02
  0
INSERT
  8
0
  5
575
  2
*X14
 10
283.028873
 20
365.76204
 30
0.0
  0
INSERT
  8
0
  5
576
  2
*X15
 10
283.028873
 20
365.76204
 30
0.0
  0
INSERT
  8
0
  5
577
  2
*X16
 10
362.195747
 20
423.762233
 30
0.0
  0
INSERT
  8
0
  5
578
  2
BLK4
 10
0.0
 20
0.0
 30
0.0
  0
INSERT
  8
0
  5
579
  2
*X18
 10
362.195747
 20
369.762233
 30
0.0
  0
INSERT
  8
0
  5
57A
  2
BLK5
 10
0.0
 20
0.0
 30
0.0
  0
INSERT
  8
0
  5
57B
  2
BLK6
 10
0.0
 20
0.0
 30
0.0
  0
INSERT
  8
0
  5
57C
  2
*X21
 10
202.89036
 20
376.245012
 30
0.0
  0
INSERT
  8
0
  5
57D
  2
*X22
 10
153.260835
 20
376.245012
 30
0.0
  0
INSERT
  8
0
  5
57E
  2
*X23
 10
216.658536
 20
453.117382
 30
0.0
  0
INSERT
  8
0
  5
57F
  2
*X24
 10
255.508536
 20
453.117382
 30
0.0
  0
INSERT
  8
0
  5
580
  2
*X25
 10
190.198536
 20
447.807382
 30
0.0
  0
INSERT
  8
0
  5
581
  2
*X26
 10
190.198536
 20
447.807382
 30
0.0
  0
INSERT
  8
0
  5
582
  2
*X27
 10
255.508536
 20
426.270158
 30
0.0
  0
INSERT
  8
0
  5
583
  2
*X28
 10
275.740962
 20
427.474314
 30
0.0
  0
DIMENSION
  8
0
  5
584
  2
*D29
 10
258.914221
 20
274.4
 30
0.0
 11
258.914221
 21
274.4
 31
0.0
  1
385
 13
66.060914
 23
468.959407
 33
0.0
 14
451.767527
 24
381.064065
 34
0.0
  3
LC-DIM-L-0140-02-02
  0
INSERT
  8
0
  5
585
  2
BLK7
 10
0.0
 20
0.0
 30
0.0
  0
INSERT
  8
0
  5
586
  2
*X31
 10
107.699022
 20
440.756122
 30
0.0
  0
INSERT
  8
0
  5
587
  2
*X32
 10
-32.748693
 20
471.966605
 30
0.0
  0
INSERT
  8
0
  5
588
  2
*X33
 10
-12.748693
 20
471.966605
 30
0.0
  0
INSERT
  8
0
  5
589
  2
*X34
 10
7.251307
 20
471.966605
 30
0.0
  0
INSERT
  8
0
  5
58A
  2
*X35
 10
27.251307
 20
471.966605
 30
0.0
  0
INSERT
  8
0
  5
58B
  2
*X36
 10
47.251307
 20
471.966605
 30
0.0
  0
INSERT
  8
0
  5
58C
  2
*X37
 10
67.251307
 20
471.191093
 30
0.0
  0
INSERT
  8
0
  5
58D
  2
*X38
 10
87.251307
 20
469.804799
 30
0.0
  0
INSERT
  8
0
  5
58E
  2
*X39
 10
93.439085
 20
466.34715
 30
0.0
  0
INSERT
  8
0
  5
58F
  2
BLK8
 10
0.0
 20
0.0
 30
0.0
  0
INSERT
  8
0
  5
590
  2
*X41
 10
285.560914
 20
447.356789
 30
0.0
  0
INSERT
  8
0
  5
591
  2
*X42
 10
138.560914
 20
447.356789
 30
0.0
  0
INSERT
  8
0
  5
592
  2
*X43
 10
456.870522
 20
471.966605
 30
0.0
  0
INSERT
  8
0
  5
593
  2
*X44
 10
436.870522
 20
471.966605
 30
0.0
  0
INSERT
  8
0
  5
594
  2
*X45
 10
416.870522
 20
471.966605
 30
0.0
  0
INSERT
  8
0
  5
595
  2
*X46
 10
396.870522
 20
471.966605
 30
0.0
  0
INSERT
  8
0
  5
596
  2
*X47
 10
376.870522
 20
471.966605
 30
0.0
  0
INSERT
  8
0
  5
597
  2
*X48
 10
356.870522
 20
471.191093
 30
0.0
  0
INSERT
  8
0
  5
598
  2
*X49
 10
336.870522
 20
469.804799
 30
0.0
  0
INSERT
  8
0
  5
599
  2
*X50
 10
293.959736
 20
466.34715
 30
0.0
  0
INSERT
  8
0
  5
59A
  2
*X51
 10
289.323309
 20
440.756122
 30
0.0
  0
INSERT
  8
0
  5
59B
  2
BLK9
 10
0.0
 20
0.0
 30
0.0
  0
DIMENSION
  8
0
  5
59C
  2
*D53
 10
117.6
 20
401.258799
 30
0.0
 11
117.6
 21
401.258799
 31
0.0
  1
50
 13
212.563
 23
426.272586
 33
0.0
 14
157.060652
 24
376.245012
 34
0.0
 50
90.0
  3
LC-DIM-L-0140-02-02
  0
INSERT
  8
0
  5
59D
  2
*X54
 10
152.880867
 20
427.474314
 30
0.0
  0
DIMENSION
  8
0
  5
59E
  2
*D55
 10
217.060914
 20
509.6
 30
0.0
 11
217.060914
 21
509.6
 31
0.0
  1
%%c190
 13
121.810914
 23
459.539408
 33
0.0
 14
312.310914
 24
458.539408
 34
0.0
  3
LC-DIM-L-0140-02-02
  0
DIMENSION
  8
0
  5
59F
  2
*D56
 10
217.060914
 20
588.0
 30
0.0
 11
217.060914
 21
588.0
 31
0.0
  1
%%c500
 13
-32.748693
 23
476.666605
 33
0.0
 14
466.870522
 24
476.666605
 34
0.0
  3
LC-DIM-L-0140-02-02
  0
INSERT
  8
0
  5
5A0
  2
*X57
 10
296.819162
 20
450.236753
 30
0.0
  0
INSERT
  8
0
  5
5A1
  2
BLK10
 10
0.0
 20
0.0
 30
0.0
  0
INSERT
  8
0
  5
5A2
  2
*X59
 10
125.170239
 20
450.236753
 30
0.0
  0
INSERT
  8
0
  5
5A3
  2
BLK11
 10
0.0
 20
0.0
 30
0.0
  0
LINE
  8
LC-002-002-----0
  6
CONTINUOUS
  5
5A5
 10
188.800309
 20
360.276134
 30
0.0
 11
188.800309
 21
377.156326
 31
0.0
  0
LINE
  8
LC-002-002-----0
  6
CONTINUOUS
  5
5A6
 10
186.800309
 20
365.276134
 30
0.0
 11
186.800309
 21
377.156326
 31
0.0
  0
LINE
  8
LC-003-207-----0
  6
CONTINUOUS
  5
5A8
 10
188.800309
 20
360.276134
 30
0.0
 11
259.560914
 21
360.276134
 31
0.0
  0
ARC
  8
LC-004-207-RND-0
  6
CONTINUOUS
  5
5AA
 10
181.800309
 20
365.276134
 30
0.0
 40
5.0
 50
270.0
 51
0.0
  0
LINE
  8
LC-002-002-----0
  6
CONTINUOUS
  5
5AB
 10
261.560914
 20
374.493822
 30
0.0
 11
261.560914
 21
357.276134
 31
0.0
  0
LINE
  8
LC-002-002-----0
  6
CONTINUOUS
  5
5AC
 10
177.060914
 20
360.276134
 30
0.0
 11
177.060914
 21
377.156326
 31
0.0
  0
LINE
  8
LC-002-002-----0
  6
CONTINUOUS
  5
5AD
 10
278.540942
 20
376.469266
 30
0.0
 11
261.560914
 21
376.995155
 31
0.0
  0
LINE
  8
LC-002-002-----0
  6
CONTINUOUS
  5
5AE
 10
281.560914
 20
423.963997
 30
0.0
 11
281.560914
 21
423.75394
 31
0.0
  0
LINE
  8
LC-002-002-----0
  6
CONTINUOUS
  5
5AF
 10
155.560914
 20
380.278118
 30
0.0
 11
156.060662
 21
380.261799
 31
0.0
  0
ARC
  8
LC-002-002-----0
  6
CONTINUOUS
  5
5B0
 10
276.560914
 20
372.028298
 30
0.0
 40
2.0
 50
0.0
 51
88.226057
  0
LINE
  8
LC-002-002-----0
  6
CONTINUOUS
  5
5B1
 10
156.06066
 20
377.761274
 30
0.0
 11
155.560914
 21
377.776752
 31
0.0
  0
ARC
  8
LC-005-002-RND-0
  6
CONTINUOUS
  5
5B3
 10
297.96267
 20
436.463997
 30
0.0
 40
3.0
 50
270.0
 51
335.025313
  0
LINE
  8
LC-002-002-----0
  6
CONTINUOUS
  5
5B4
 10
276.622827
 20
374.027339
 30
0.0
 11
261.560914
 21
374.493822
 31
0.0
  0
LINE
  8
LC-002-002-----0
  6
CONTINUOUS
  5
5B5
 10
278.560914
 20
426.272586
 30
0.0
 11
278.560914
 21
421.054815
 31
0.0
  0
LINE
  8
LC-002-002-----0
  6
CONTINUOUS
  5
5B6
 10
155.560914
 20
426.272586
 30
0.0
 11
155.560914
 21
380.278118
 31
0.0
  0
LINE
  8
LC-002-002-----0
  6
CONTINUOUS
  5
5B7
 10
152.560914
 20
423.963997
 30
0.0
 11
152.560914
 21
357.276134
 31
0.0
  0
LINE
  8
LC-002-002-----0
  6
CONTINUOUS
  5
5B8
 10
155.560914
 20
377.776752
 30
0.0
 11
155.560914
 21
360.276134
 31
0.0
  0
LINE
  8
LC-002-002-----0
  6
CONTINUOUS
  5
5B9
 10
177.060914
 20
377.188302
 30
0.0
 11
188.800309
 21
377.188302
 31
0.0
  0
ARC
  8
LC-005-002-RND-0
  6
CONTINUOUS
  5
5BA
 10
122.310914
 20
462.512278
 30
0.0
 40
0.5
 50
0.0
 51
86.000003
  0
ARC
  8
LC-005-002-RND-0
  6
CONTINUOUS
  5
5BB
 10
152.560914
 20
426.963997
 30
0.0
 40
3.0
 50
180.0
 51
270.0
  0
LINE
  8
LC-002-002-----0
  6
CONTINUOUS
  5
5BC
 10
278.54094
 20
426.272586
 30
0.0
 11
281.239898
 21
426.272586
 31
0.0
  0
LINE
  8
LC-002-002-----0
  6
CONTINUOUS
  5
5BD
 10
151.382397
 20
436.468348
 30
0.0
 11
141.203738
 21
436.468348
 31
0.0
  0
ARC
  8
LC-005-002-RND-0
  6
CONTINUOUS
  5
5BE
 10
141.203738
 20
438.457704
 30
0.0
 40
1.999352
 50
180.0
 51
270.0
  0
LINE
  8
LC-002-002-----0
  6
CONTINUOUS
  5
5BF
 10
139.204386
 20
442.363365
 30
0.0
 11
139.204386
 21
440.863365
 31
0.0
  0
LINE
  8
LC-002-002-----0
  6
CONTINUOUS
  5
5C0
 10
136.155075
 20
433.463997
 30
0.0
 11
146.060914
 21
433.463997
 31
0.0
  0
ARC
  8
LC-005-002-RND-0
  6
CONTINUOUS
  5
5C1
 10
136.155075
 20
436.463025
 30
0.0
 40
2.999028
 50
202.352488
 51
270.0
  0
LINE
  8
LC-002-002-----0
  6
CONTINUOUS
  5
5C2
 10
128.060914
 20
446.745451
 30
0.0
 11
133.49725
 21
435.073732
 31
0.0
  0
LINE
  8
LC-002-002-----0
  6
CONTINUOUS
  5
5C3
 10
128.311621
 20
463.089171
 30
0.0
 11
129.811621
 21
462.980167
 31
0.0
  0
LINE
  8
LC-002-002-----0
  6
CONTINUOUS
  5
5C4
 10
153.181814
 20
426.272586
 30
0.0
 11
155.580889
 21
426.272586
 31
0.0
  0
LINE
  8
LC-002-002-----0
  6
CONTINUOUS
  5
5C5
 10
152.881911
 20
426.572489
 30
0.0
 11
152.881911
 21
428.35215
 31
0.0
  0
LINE
  8
LC-002-002-----0
  6
CONTINUOUS
  5
5C6
 10
66.060914
 20
471.966605
 30
0.0
 11
66.060914
 21
468.959407
 31
0.0
  0
LINE
  8
LC-002-002-----0
  6
CONTINUOUS
  5
5C7
 10
281.239909
 20
428.352144
 30
0.0
 11
281.239909
 21
426.272586
 31
0.0
  0
LINE
  8
LC-002-002-----0
  6
CONTINUOUS
  5
5C8
 10
294.717443
 20
444.363365
 30
0.0
 11
294.917443
 21
444.363365
 31
0.0
  0
LINE
  8
LC-002-002-----0
  6
CONTINUOUS
  5
5C9
 10
300.35549
 20
423.75394
 30
0.0
 11
281.560914
 21
423.75394
 31
0.0
  0
ARC
  8
LC-002-002-----0
  6
CONTINUOUS
  5
5CA
 10
153.181814
 20
426.572489
 30
0.0
 40
0.299903
 50
180.0
 51
270.0
  0
LINE
  8
LC-002-002-----0
  6
CONTINUOUS
  5
5CB
 10
294.717443
 20
442.363365
 30
0.0
 11
294.917443
 21
442.363365
 31
0.0
  0
ARC
  8
LC-002-002-----0
  6
CONTINUOUS
  5
5CC
 10
151.382397
 20
434.968834
 30
0.0
 40
1.499514
 50
0.0
 51
90.0
  0
LINE
  8
LC-002-002-----0
  6
DASHDOT
 62
     2
  5
5CE
 10
217.060914
 20
473.94548
 30
0.0
 11
217.060914
 21
357.276134
 31
0.0
  0
LINE
  8
LC-002-002-----0
  6
CONTINUOUS
  5
5CF
 10
152.881911
 20
434.193022
 30
0.0
 11
152.881911
 21
434.968834
 31
0.0
  0
LINE
  8
LC-002-002-----0
  6
CONTINUOUS
  5
5D0
 10
322.125761
 20
423.753843
 30
0.0
 11
326.624303
 21
423.754717
 31
0.0
  0
LINE
  8
LC-002-002-----0
  6
CONTINUOUS
  5
5D1
 10
333.622035
 20
422.441793
 30
0.0
 11
333.622035
 21
421.054815
 31
0.0
  0
LINE
  8
LC-002-002-----0
  6
CONTINUOUS
  5
5D2
 10
326.624303
 20
426.293602
 30
0.0
 11
326.624303
 21
423.754717
 31
0.0
  0
LINE
  8
LC-002-002-----0
  6
CONTINUOUS
  5
5D3
 10
322.125761
 20
427.62513
 30
0.0
 11
322.125761
 21
423.753843
 31
0.0
  0
LINE
  8
LC-002-002-----0
  6
CONTINUOUS
  5
5D4
 10
333.622035
 20
421.054815
 30
0.0
 11
278.540942
 21
421.054815
 31
0.0
  0
LINE
  8
LC-002-002-----0
  6
CONTINUOUS
  5
5D5
 10
122.810914
 20
456.807357
 30
0.0
 11
122.810914
 21
456.539408
 31
0.0
  0
ARC
  8
LC-002-002-----0
  6
CONTINUOUS
  5
5D6
 10
295.901663
 20
400.783715
 30
0.0
 40
26.689176
 50
130.577646
 51
245.647084
  0
LINE
  8
LC-002-002-----0
  6
CONTINUOUS
  5
5D7
 10
300.35549
 20
373.77014
 30
0.0
 11
283.560914
 21
373.77014
 31
0.0
  0
LINE
  8
LC-002-002-----0
  6
CONTINUOUS
  5
5D8
 10
333.622035
 20
376.469266
 30
0.0
 11
278.540942
 21
376.469266
 31
0.0
  0
ARC
  8
LC-005-002-RND-0
  6
CONTINUOUS
  5
5D9
 10
139.404386
 20
443.163365
 30
0.0
 40
0.8
 50
270.0
 51
0.0
  0
LINE
  8
LC-002-002-----0
  6
CONTINUOUS
  5
5DA
 10
149.560914
 20
429.963997
 30
0.0
 11
149.560914
 21
426.963997
 31
0.0
  0
LINE
  8
LC-002-002-----0
  6
CONTINUOUS
  5
5DB
 10
106.060914
 20
464.149808
 30
0.0
 11
122.345793
 21
463.01106
 31
0.0
  0
ARC
  8
LC-005-002-RND-0
  6
CONTINUOUS
  5
5DC
 10
125.310914
 20
456.539408
 30
0.0
 40
2.5
 50
180.0
 51
270.0
  0
ARC
  8
LC-005-002-RND-0
  6
CONTINUOUS
  5
5DD
 10
311.810914
 20
462.512278
 30
0.0
 40
0.5
 50
93.999997
 51
180.0
  0
LINE
  8
LC-002-002-----0
  6
CONTINUOUS
  5
5DE
 10
122.810914
 20
462.512278
 30
0.0
 11
122.810914
 21
460.539408
 31
0.0
  0
LINE
  8
LC-002-002-----0
  6
CONTINUOUS
  5
5DF
 10
125.310914
 20
454.039408
 30
0.0
 11
127.060914
 21
454.039408
 31
0.0
  0
ARC
  8
LC-002-002-----0
  6
CONTINUOUS
  5
5E0
 10
116.800589
 20
489.708654
 30
0.0
 40
23.361504
 50
241.241457
 51
244.207797
  0
LINE
  8
LC-002-002-----0
  6
CONTINUOUS
  5
5E1
 10
66.594475
 20
471.929622
 30
0.0
 11
77.249193
 21
471.191093
 31
0.0
  0
LINE
  8
LC-002-002-----0
  6
CONTINUOUS
  5
5E2
 10
125.213003
 20
465.817739
 30
0.0
 11
117.251307
 21
466.39631
 31
0.0
  0
LINE
  8
LC-002-002-----0
  6
CONTINUOUS
  5
5E3
 10
66.060914
 20
468.959407
 30
0.0
 11
98.060914
 21
466.741336
 31
0.0
  0
LINE
  8
LC-002-002-----0
  6
CONTINUOUS
  5
5E4
 10
368.060914
 20
468.959407
 30
0.0
 11
336.060914
 21
466.741336
 31
0.0
  0
LINE
  8
LC-002-002-----0
  6
CONTINUOUS
  5
5E5
 10
368.060914
 20
471.966605
 30
0.0
 11
328.560914
 21
469.228674
 31
0.0
  0
LINE
  8
LC-002-002-----0
  6
CONTINUOUS
  5
5E6
 10
368.060914
 20
471.966605
 30
0.0
 11
368.060914
 21
468.959407
 31
0.0
  0
ARC
  8
LC-002-002-----0
  6
CONTINUOUS
  5
5E7
 10
317.32124
 20
489.708654
 30
0.0
 40
23.361504
 50
280.502157
 51
298.758543
  0
LINE
  8
LC-002-002-----0
  6
CONTINUOUS
  5
5E8
 10
308.908826
 20
465.817739
 30
0.0
 11
321.5794
 21
466.738501
 31
0.0
  0
LINE
  8
LC-002-002-----0
  6
CONTINUOUS
  5
5E9
 10
336.060914
 20
466.741336
 30
0.0
 11
328.060914
 21
464.149808
 31
0.0
  0
LINE
  8
LC-002-002-----0
  6
CONTINUOUS
  5
5EA
 10
328.060914
 20
464.149808
 30
0.0
 11
311.776036
 21
463.01106
 31
0.0
  0
LINE
  8
LC-002-002-----0
  6
CONTINUOUS
  5
5EB
 10
308.908826
 20
465.817739
 30
0.0
 11
308.908826
 21
458.132837
 31
0.0
  0
LINE
  8
LC-002-002-----0
  6
CONTINUOUS
  5
5EC
 10
305.810207
 20
456.983645
 30
0.0
 11
305.810207
 21
463.089171
 31
0.0
  0
LINE
  8
LC-002-002-----0
  6
CONTINUOUS
  5
5ED
 10
129.811621
 20
462.980167
 30
0.0
 11
129.811621
 21
461.763392
 31
0.0
  0
LINE
  8
LC-002-002-----0
  6
CONTINUOUS
  5
5EE
 10
333.622035
 20
422.441793
 30
0.0
 11
333.622035
 21
375.082288
 31
0.0
  0
LINE
  8
LC-002-002-----0
  6
CONTINUOUS
  5
5EF
 10
322.125761
 20
369.89895
 30
0.0
 11
322.125761
 21
373.770238
 31
0.0
  0
LINE
  8
LC-002-002-----0
  6
CONTINUOUS
  5
5F0
 10
322.125761
 20
373.770238
 30
0.0
 11
326.624303
 21
373.769363
 31
0.0
  0
LINE
  8
LC-002-002-----0
  6
CONTINUOUS
  5
5F1
 10
326.624303
 20
371.230479
 30
0.0
 11
326.624303
 21
373.769363
 31
0.0
  0
ARC
  8
LC-005-002-RND-0
  6
CONTINUOUS
  5
5F2
 10
126.213003
 20
458.132837
 30
0.0
 40
1.0
 50
180.0
 51
266.0
  0
LINE
  8
LC-002-002-----0
  6
CONTINUOUS
  5
5F3
 10
281.239909
 20
434.963511
 30
0.0
 11
281.239909
 21
434.193028
 31
0.0
  0
LINE
  8
LC-002-002-----0
  6
CONTINUOUS
  5
5F4
 10
129.811621
 20
461.763392
 30
0.0
 11
130.311621
 21
460.897366
 31
0.0
  0
LINE
  8
LC-002-002-----0
  6
CONTINUOUS
  5
5F5
 10
304.310207
 20
462.980167
 30
0.0
 11
305.810207
 21
463.089171
 31
0.0
  0
LINE
  8
LC-002-002-----0
  6
CONTINUOUS
  5
5F6
 10
303.810207
 20
460.897366
 30
0.0
 11
303.810207
 21
446.662539
 31
0.0
  0
LINE
  8
LC-002-002-----0
  6
DASHDOT
 62
     2
  5
5F7
 10
365.98551
 20
380.579312
 30
0.0
 11
316.028873
 21
398.76204
 31
0.0
  0
LINE
  8
LC-002-002-----0
  6
CONTINUOUS
  5
5F8
 10
294.717443
 20
440.863365
 30
0.0
 11
294.917443
 21
440.863365
 31
0.0
  0
LINE
  8
LC-002-002-----0
  6
CONTINUOUS
  5
5F9
 10
294.717443
 20
438.863365
 30
0.0
 11
294.917443
 21
438.863365
 31
0.0
  0
ARC
  8
LC-002-002-----0
  6
CONTINUOUS
  5
5FA
 10
355.958873
 20
398.76204
 30
0.0
 40
29.5
 50
290.030652
 51
309.782896
  0
ARC
  8
LC-005-002-RND-0
  6
CONTINUOUS
  5
5FB
 10
302.310207
 20
446.662539
 30
0.0
 40
1.5
 50
270.0
 51
0.0
  0
LINE
  8
LC-002-002-----0
  6
CONTINUOUS
  5
5FC
 10
322.125761
 20
423.753843
 30
0.0
 11
326.624303
 21
423.754717
 31
0.0
  0
ARC
  8
LC-002-002-----0
  6
CONTINUOUS
  5
5FD
 10
316.028873
 20
398.76204
 30
0.0
 40
29.5
 50
290.875532
 51
310.89311
  0
ARC
  8
LC-002-002-----0
  6
CONTINUOUS
  5
5FE
 10
355.958873
 20
398.76204
 30
0.0
 40
29.5
 50
76.100548
 51
103.4332
  0
LINE
  8
LC-002-002-----0
  6
DASHDOT
 62
     2
  5
5FF
 10
385.222484
 20
398.76204
 30
0.0
 11
451.759187
 21
380.928145
 31
0.0
  0
CIRCLE
  8
LC-002-002-----0
  6
CONTINUOUS
  5
600
 10
324.624303
 20
425.770141
 30
0.0
 40
2.0
  0
CIRCLE
  8
LC-002-002-----0
  6
CONTINUOUS
  5
601
 10
324.624303
 20
371.770141
 30
0.0
 40
2.0
  0
ARC
  8
LC-002-002-----0
  6
CONTINUOUS
  5
602
 10
316.028873
 20
398.76204
 30
0.0
 40
29.5
 50
75.57891
 51
102.996787
  0
LINE
  8
LC-002-002-----0
  6
CONTINUOUS
  5
603
 10
326.624303
 20
373.685604
 30
0.0
 11
326.624303
 21
371.770141
 31
0.0
  0
CIRCLE
  8
LC-002-002-----0
  6
CONTINUOUS
  5
604
 10
364.195747
 20
425.762233
 30
0.0
 40
2.0
  0
LINE
  8
LC-009-005-----0
  6
CONTINUOUS
  5
605
 10
152.560914
 20
376.006657
 30
0.0
 11
156.792168
 21
380.237911
 31
0.0
  0
LINE
  8
LC-009-005-----0
  6
CONTINUOUS
  5
606
 10
152.560914
 20
378.835084
 30
0.0
 11
155.560914
 21
381.835084
 31
0.0
  0
LINE
  8
LC-009-005-----0
  6
CONTINUOUS
  5
607
 10
152.531439
 20
381.634037
 30
0.0
 11
155.560914
 21
384.663511
 31
0.0
  0
LINE
  8
LC-009-005-----0
  6
CONTINUOUS
  5
608
 10
152.560914
 20
384.491939
 30
0.0
 11
155.560914
 21
387.491939
 31
0.0
  0
CIRCLE
  8
LC-002-002-----0
  6
CONTINUOUS
  5
609
 10
364.195747
 20
371.762233
 30
0.0
 40
2.0
  0
LINE
  8
LC-009-005-----0
  6
CONTINUOUS
  5
60A
 10
152.560914
 20
387.320366
 30
0.0
 11
155.560914
 21
390.320366
 31
0.0
  0
LINE
  8
LC-009-005-----0
  6
CONTINUOUS
  5
60B
 10
330.800221
 20
373.226628
 30
0.0
 11
333.622035
 21
376.048442
 31
0.0
  0
LINE
  8
LC-009-005-----0
  6
CONTINUOUS
  5
60C
 10
152.560914
 20
390.148793
 30
0.0
 11
155.560914
 21
393.148793
 31
0.0
  0
LINE
  8
LC-009-005-----0
  6
CONTINUOUS
  5
60D
 10
152.560914
 20
392.97722
 30
0.0
 11
155.560914
 21
395.97722
 31
0.0
  0
LINE
  8
LC-009-005-----0
  6
CONTINUOUS
  5
60E
 10
152.560914
 20
395.805647
 30
0.0
 11
155.560914
 21
398.805647
 31
0.0
  0
LINE
  8
LC-009-005-----0
  6
CONTINUOUS
  5
60F
 10
152.560914
 20
398.634074
 30
0.0
 11
155.560914
 21
401.634074
 31
0.0
  0
LINE
  8
LC-009-005-----0
  6
CONTINUOUS
  5
610
 10
152.560914
 20
401.462501
 30
0.0
 11
155.560914
 21
404.462501
 31
0.0
  0
LINE
  8
LC-009-005-----0
  6
CONTINUOUS
  5
611
 10
152.560914
 20
404.290928
 30
0.0
 11
155.560914
 21
407.290928
 31
0.0
  0
LINE
  8
LC-009-005-----0
  6
CONTINUOUS
  5
612
 10
152.560914
 20
407.119356
 30
0.0
 11
155.560914
 21
410.119356
 31
0.0
  0
LINE
  8
LC-009-005-----0
  6
CONTINUOUS
  5
613
 10
152.560914
 20
409.947783
 30
0.0
 11
155.560914
 21
412.947783
 31
0.0
  0
LINE
  8
LC-009-005-----0
  6
CONTINUOUS
  5
614
 10
152.560914
 20
412.77621
 30
0.0
 11
155.560914
 21
415.77621
 31
0.0
  0
LINE
  8
LC-009-005-----0
  6
CONTINUOUS
  5
615
 10
152.560914
 20
415.604637
 30
0.0
 11
155.560914
 21
418.604637
 31
0.0
  0
LINE
  8
LC-009-005-----0
  6
CONTINUOUS
  5
616
 10
152.560914
 20
418.433064
 30
0.0
 11
155.560914
 21
421.433064
 31
0.0
  0
LINE
  8
LC-009-005-----0
  6
CONTINUOUS
  5
617
 10
152.560914
 20
421.261491
 30
0.0
 11
155.560914
 21
424.261491
 31
0.0
  0
LINE
  8
LC-009-005-----0
  6
CONTINUOUS
  5
618
 10
152.437531
 20
423.966535
 30
0.0
 11
154.743582
 21
426.272586
 31
0.0
  0
LINE
  8
LC-009-005-----0
  6
CONTINUOUS
  5
619
 10
150.462543
 20
424.819974
 30
0.0
 11
152.881911
 21
427.239343
 31
0.0
  0
LINE
  8
LC-009-005-----0
  6
CONTINUOUS
  5
61A
 10
149.568265
 20
426.754123
 30
0.0
 11
152.881911
 21
430.06777
 31
0.0
  0
LINE
  8
LC-009-005-----0
  6
CONTINUOUS
  5
61B
 10
149.560914
 20
429.5752
 30
0.0
 11
152.881911
 21
432.896197
 31
0.0
  0
LINE
  8
LC-009-005-----0
  6
CONTINUOUS
  5
61C
 10
148.341099
 20
431.183812
 30
0.0
 11
152.74723
 21
435.589942
 31
0.0
  0
LINE
  8
LC-009-005-----0
  6
CONTINUOUS
  5
61D
 10
146.926886
 20
432.598025
 30
0.0
 11
150.797209
 21
436.468348
 31
0.0
  0
LINE
  8
LC-009-005-----0
  6
CONTINUOUS
  5
61E
 10
144.96443
 20
433.463997
 30
0.0
 11
147.968782
 21
436.468348
 31
0.0
  0
LINE
  8
LC-009-005-----0
  6
CONTINUOUS
  5
61F
 10
142.136003
 20
433.463997
 30
0.0
 11
145.140354
 21
436.468348
 31
0.0
  0
LINE
  8
LC-009-005-----0
  6
CONTINUOUS
  5
620
 10
139.307576
 20
433.463997
 30
0.0
 11
142.311927
 21
436.468348
 31
0.0
  0
LINE
  8
LC-009-005-----0
  6
CONTINUOUS
  5
621
 10
136.479149
 20
433.463997
 30
0.0
 11
139.930959
 21
436.915808
 31
0.0
  0
LINE
  8
LC-009-005-----0
  6
CONTINUOUS
  5
622
 10
134.296253
 20
434.109528
 30
0.0
 11
140.204386
 21
440.017661
 31
0.0
  0
LINE
  8
LC-009-005-----0
  6
CONTINUOUS
  5
623
 10
133.158761
 20
435.800463
 30
0.0
 11
139.204386
 21
441.846088
 31
0.0
  0
LINE
  8
LC-009-005-----0
  6
CONTINUOUS
  5
624
 10
139.874012
 20
442.515714
 30
0.0
 11
140.052037
 21
442.693739
 31
0.0
  0
LINE
  8
LC-009-005-----0
  6
CONTINUOUS
  5
625
 10
132.259986
 20
437.730116
 30
0.0
 11
139.158749
 21
444.628878
 31
0.0
  0
LINE
  8
LC-009-005-----0
  6
CONTINUOUS
  5
626
 10
131.361212
 20
439.659769
 30
0.0
 11
136.863982
 21
445.162539
 31
0.0
  0
LINE
  8
LC-009-005-----0
  6
CONTINUOUS
  5
627
 10
130.462438
 20
441.589422
 30
0.0
 11
134.035555
 21
445.162539
 31
0.0
  0
LINE
  8
LC-002-002-----0
  6
CONTINUOUS
  5
628
 10
407.495529
 20
431.819732
 30
0.0
 11
457.749554
 21
418.354206
 31
0.0
  0
LINE
  8
LC-002-002-----0
  6
CONTINUOUS
  5
629
 10
348.099533
 20
365.76204
 30
0.0
 11
358.525973
 21
365.76204
 31
0.0
  0
LINE
  8
LC-002-002-----0
  6
CONTINUOUS
  5
62A
 10
374.835343
 20
421.43204
 30
0.0
 11
374.835343
 21
376.09204
 31
0.0
  0
LINE
  8
LC-002-002-----0
  6
CONTINUOUS
  5
62B
 10
388.032337
 20
359.182109
 30
0.0
 11
438.286362
 21
345.716584
 31
0.0
  0
LINE
  8
LC-002-002-----0
  6
CONTINUOUS
  5
62C
 10
396.059134
 20
421.891388
 30
0.0
 11
454.681619
 21
406.183541
 31
0.0
  0
LINE
  8
LC-002-002-----0
  6
CONTINUOUS
  5
62D
 10
383.0923
 20
373.498504
 30
0.0
 11
441.714785
 21
357.790657
 31
0.0
  0
LINE
  8
LC-002-002-----0
  6
CONTINUOUS
  5
62E
 10
348.099533
 20
365.76204
 30
0.0
 11
348.099533
 21
369.043369
 31
0.0
  0
LINE
  8
LC-012-209-----0
  6
CONTINUOUS
  5
630
 10
374.835343
 20
421.43204
 30
0.0
 11
385.605071
 21
421.43204
 31
0.0
  0
LINE
  8
LC-012-209-----0
  6
CONTINUOUS
  5
631
 10
374.835343
 20
376.09204
 30
0.0
 11
384.839897
 21
376.09204
 31
0.0
  0
LINE
  8
LC-012-209-----0
  6
CONTINUOUS
  5
632
 10
379.61461
 20
373.76204
 30
0.0
 11
377.61505
 21
373.76204
 31
0.0
  0
LINE
  8
LC-012-209-----0
  6
CONTINUOUS
  5
633
 10
389.876108
 20
361.748604
 30
0.0
 11
383.0923
 21
373.498504
 31
0.0
  0
LINE
  8
LC-012-209-----0
  6
CONTINUOUS
  5
634
 10
438.286362
 20
345.716584
 30
0.0
 11
442.296199
 21
345.716584
 31
0.0
  0
ARC
  8
LC-012-209-----0
  6
CONTINUOUS
  5
635
 10
355.958873
 20
398.66204
 30
0.0
 40
33.0
 50
274.461598
 51
311.014567
  0
LINE
  8
LC-002-002-----0
  6
CONTINUOUS
  5
636
 10
385.605071
 20
421.43204
 30
0.0
 11
384.839897
 21
376.09204
 31
0.0
  0
LINE
  8
LC-012-209-----0
  6
CONTINUOUS
  5
637
 10
457.749554
 20
418.354206
 30
0.0
 11
461.222175
 21
416.349288
 31
0.0
  0
LINE
  8
LC-012-209-----0
  6
CONTINUOUS
  5
638
 10
407.495529
 20
431.819732
 30
0.0
 11
393.539199
 21
423.76204
 31
0.0
  0
LINE
  8
LC-012-209-----0
  6
CONTINUOUS
  5
639
 10
388.032337
 20
359.182109
 30
0.0
 11
379.61461
 21
373.76204
 31
0.0
  0
LINE
  8
LC-012-209-----0
  6
CONTINUOUS
  5
63A
 10
460.973145
 20
415.419895
 30
0.0
 11
407.809035
 21
428.675197
 31
0.0
  0
LINE
  8
LC-012-209-----0
  6
CONTINUOUS
  5
63B
 10
454.681619
 20
406.183541
 30
0.0
 11
457.986936
 21
404.275215
 31
0.0
  0
LINE
  8
LC-012-209-----0
  6
CONTINUOUS
  5
63C
 10
441.714785
 20
357.790657
 30
0.0
 11
445.531437
 21
357.790657
 31
0.0
  0
LINE
  8
LC-012-209-----0
  6
CONTINUOUS
  5
63D
 10
445.754977
 20
358.624922
 30
0.0
 11
384.839897
 21
376.09204
 31
0.0
  0
LINE
  8
LC-012-209-----0
  6
CONTINUOUS
  5
63E
 10
393.539199
 20
423.76204
 30
0.0
 11
377.61505
 21
423.76204
 31
0.0
  0
LINE
  8
LC-012-209-----0
  6
CONTINUOUS
  5
63F
 10
442.545229
 20
346.645976
 30
0.0
 11
389.848432
 21
361.75654
 31
0.0
  0
LINE
  8
LC-012-209-----0
  6
CONTINUOUS
  5
640
 10
457.763396
 20
403.44095
 30
0.0
 11
385.605071
 21
421.43204
 31
0.0
  0
LINE
  8
LC-012-209-----0
  6
CONTINUOUS
  5
641
 10
442.31288
 20
345.778841
 30
0.0
 11
461.222175
 21
416.349288
 31
0.0
  0
LINE
  8
LC-012-209-----0
  6
CONTINUOUS
  5
642
 10
407.809035
 20
428.675197
 30
0.0
 11
396.059134
 21
421.891388
 31
0.0
  0
LINE
  8
LC-002-002-----0
  6
CONTINUOUS
  5
643
 10
407.809035
 20
428.675197
 30
0.0
 11
405.313048
 21
419.360046
 31
0.0
  0
LINE
  8
LC-002-002-----0
  6
CONTINUOUS
  5
644
 10
392.372095
 20
371.063754
 30
0.0
 11
389.876108
 21
361.748604
 31
0.0
  0
LINE
  8
LC-002-002-----0
  6
CONTINUOUS
  5
645
 10
348.099533
 20
431.76204
 30
0.0
 11
358.525973
 21
431.76204
 31
0.0
  0
ARC
  8
LC-012-209-----0
  6
CONTINUOUS
  5
646
 10
355.958873
 20
398.86204
 30
0.0
 40
33.0
 50
48.985433
 51
85.538402
  0
LINE
  8
LC-002-002-----0
  6
CONTINUOUS
  5
647
 10
348.099533
 20
431.76204
 30
0.0
 11
348.099533
 21
428.480712
 31
0.0
  0
ARC
  8
LC-002-002-----0
  6
CONTINUOUS
  5
648
 10
355.958873
 20
398.76204
 30
0.0
 40
29.5
 50
50.217104
 51
69.968993
  0
ARC
  8
LC-002-002-----0
  6
CONTINUOUS
  5
649
 10
355.958873
 20
398.76204
 30
0.0
 40
29.5
 50
256.5668
 51
283.900263
  0
ARC
  8
LC-005-002-RND-0
  6
CONTINUOUS
  5
64A
 10
349.099533
 20
428.480712
 30
0.0
 40
1.0
 50
180.0
 51
282.996787
  0
ARC
  8
LC-005-002-RND-0
  6
CONTINUOUS
  5
64B
 10
349.099533
 20
369.043369
 30
0.0
 40
1.0
 50
77.003213
 51
180.0
  0
LINE
  8
LC-009-005-----0
  6
CONTINUOUS
  5
64C
 10
129.563664
 20
443.519074
 30
0.0
 11
131.297857
 21
445.253267
 31
0.0
  0
LINE
  8
LC-009-005-----0
  6
CONTINUOUS
  5
64D
 10
128.664889
 20
445.448727
 30
0.0
 11
130.311621
 21
447.095459
 31
0.0
  0
ARC
  8
LC-002-002-----0
  6
DASHED
 62
     2
  5
64E
 10
353.580876
 20
385.087811
 30
0.0
 40
29.5
 50
250.030652
 51
269.782896
  0
LINE
  8
LC-002-002-----0
  6
CONTINUOUS
 62
     2
  5
64F
 10
385.222484
 20
398.76204
 30
0.0
 11
554.087336
 21
398.76204
 31
0.0
  0
ARC
  8
LC-002-002-----0
  6
DASHED
 62
     2
  5
650
 10
316.028873
 20
398.76204
 30
0.0
 40
29.5
 50
270.875532
 51
290.89311
  0
ARC
  8
LC-005-002-RND-0
  6
DASHED
 62
     2
  5
651
 10
353.5508
 20
385.105176
 30
0.0
 40
29.5
 50
49.968993
 51
83.4332
  0
LINE
  8
LC-002-002-----0
  6
DASHDOT
 62
     2
  5
652
 10
365.98551
 20
380.579312
 30
0.0
 11
415.504767
 21
309.847
 31
0.0
  0
ARC
  8
LC-005-002-RND-0
  6
DASHED
 62
     2
  5
653
 10
316.028873
 20
398.76204
 30
0.0
 40
29.5
 50
49.113355
 51
82.996787
  0
LINE
  8
LC-009-005-----0
  6
CONTINUOUS
  5
654
 10
128.060914
 20
447.673179
 30
0.0
 11
130.311621
 21
449.923886
 31
0.0
  0
LINE
  8
LC-005-002-RND-0
  6
DASHED
 62
     2
  5
655
 10
414.309319
 20
377.284348
 30
0.0
 11
444.150663
 21
334.666493
 31
0.0
  0
LINE
  8
LC-009-005-----0
  6
CONTINUOUS
  5
656
 10
128.060914
 20
450.501607
 30
0.0
 11
130.311621
 21
452.752313
 31
0.0
  0
LINE
  8
LC-002-002-----0
  6
CONTINUOUS
  5
657
 10
308.169533
 20
431.76204
 30
0.0
 11
308.169533
 21
428.580712
 31
0.0
  0
LINE
  8
LC-013-208-----0
  6
CONTINUOUS
  5
659
 10
337.569533
 20
423.76204
 30
0.0
 11
340.298414
 21
423.76204
 31
0.0
  0
LINE
  8
LC-013-208-----0
  6
CONTINUOUS
  5
65A
 10
362.057737
 20
427.624713
 30
0.0
 11
362.057737
 21
423.761943
 31
0.0
  0
LINE
  8
LC-013-208-----0
  6
CONTINUOUS
  5
65B
 10
362.057737
 20
423.761943
 30
0.0
 11
366.557737
 21
423.762818
 31
0.0
  0
LINE
  8
LC-013-208-----0
  6
CONTINUOUS
  5
65C
 10
366.557737
 20
426.29228
 30
0.0
 11
366.557737
 21
423.762818
 31
0.0
  0
LINE
  8
LC-013-208-----0
  6
CONTINUOUS
  5
65D
 10
373.557737
 20
422.437555
 30
0.0
 11
373.557737
 21
421.06204
 31
0.0
  0
LINE
  8
LC-013-208-----0
  6
CONTINUOUS
  5
65E
 10
373.557737
 20
421.06204
 30
0.0
 11
335.341046
 21
421.06204
 31
0.0
  0
LINE
  8
LC-002-002-----0
  6
CONTINUOUS
  5
65F
 10
308.169533
 20
365.76204
 30
0.0
 11
316.028873
 21
365.76204
 31
0.0
  0
LINE
  8
LC-002-002-----0
  6
CONTINUOUS
  5
660
 10
308.169533
 20
431.76204
 30
0.0
 11
316.028873
 21
431.76204
 31
0.0
  0
ARC
  8
LC-002-002-----0
  6
CONTINUOUS
  5
661
 10
316.028873
 20
398.76204
 30
0.0
 40
33.0
 50
270.0
 51
310.749054
  0
LINE
  8
LC-002-002-----0
  6
CONTINUOUS
  5
662
 10
308.169533
 20
365.76204
 30
0.0
 11
308.169533
 21
368.943369
 31
0.0
  0
LINE
  8
LC-002-002-----0
  6
CONTINUOUS
  5
663
 10
373.557737
 20
422.437555
 30
0.0
 11
373.557737
 21
398.76204
 31
0.0
  0
ARC
  8
LC-002-002-----0
  6
CONTINUOUS
  5
664
 10
316.028873
 20
398.76204
 30
0.0
 40
29.5
 50
257.003213
 51
284.452077
  0
LINE
  8
LC-013-208-----0
  6
CONTINUOUS
  5
665
 10
337.569533
 20
373.76204
 30
0.0
 11
340.298414
 21
373.76204
 31
0.0
  0
ARC
  8
LC-002-002-----0
  6
CONTINUOUS
  5
666
 10
355.958873
 20
398.76204
 30
0.0
 40
29.5
 50
78.068557
 51
122.063786
  0
LINE
  8
LC-013-208-----0
  6
CONTINUOUS
  5
667
 10
373.557737
 20
376.46204
 30
0.0
 11
335.341046
 21
376.46204
 31
0.0
  0
LINE
  8
LC-009-005-----0
  6
CONTINUOUS
  5
668
 10
128.027318
 20
453.296437
 30
0.0
 11
130.311621
 21
455.580741
 31
0.0
  0
ARC
  8
LC-002-002-----0
  6
CONTINUOUS
  5
669
 10
355.958873
 20
398.76204
 30
0.0
 40
29.5
 50
237.936214
 51
281.931443
  0
LINE
  8
LC-013-208-----0
  6
CONTINUOUS
  5
66A
 10
362.057737
 20
369.899368
 30
0.0
 11
362.057737
 21
373.762138
 31
0.0
  0
LINE
  8
LC-013-208-----0
  6
CONTINUOUS
  5
66B
 10
362.057737
 20
373.762138
 30
0.0
 11
366.557737
 21
373.761263
 31
0.0
  0
LINE
  8
LC-013-208-----0
  6
CONTINUOUS
  5
66C
 10
366.557737
 20
371.231801
 30
0.0
 11
366.557737
 21
373.761263
 31
0.0
  0
ARC
  8
LC-002-002-----0
  6
CONTINUOUS
  5
66D
 10
355.958873
 20
398.76204
 30
0.0
 40
29.5
 50
53.375247
 51
68.943799
  0
ARC
  8
LC-002-002-----0
  6
CONTINUOUS
  5
66E
 10
355.958873
 20
398.76204
 30
0.0
 40
29.5
 50
291.056201
 51
306.624753
  0
ARC
  8
LC-002-002-----0
  6
CONTINUOUS
  5
66F
 10
316.028873
 20
398.76204
 30
0.0
 40
33.0
 50
49.250946
 51
90.0
  0
LINE
  8
LC-002-002-----0
  6
CONTINUOUS
  5
670
 10
373.557737
 20
375.086526
 30
0.0
 11
373.557737
 21
398.76204
 31
0.0
  0
LINE
  8
LC-009-005-----0
  6
CONTINUOUS
  5
671
 10
125.941861
 20
454.039408
 30
0.0
 11
130.311621
 21
458.409168
 31
0.0
  0
ARC
  8
LC-005-002-RND-0
  6
CONTINUOUS
  5
672
 10
309.169533
 20
428.480712
 30
0.0
 40
1.0
 50
180.0
 51
282.996787
  0
ARC
  8
LC-005-002-RND-0
  6
CONTINUOUS
  5
673
 10
309.169533
 20
369.043369
 30
0.0
 40
1.0
 50
77.003213
 51
180.0
  0
ARC
  8
LC-002-002-----0
  6
CONTINUOUS
  5
674
 10
316.028873
 20
398.76204
 30
0.0
 40
29.5
 50
49.10689
 51
69.113355
  0
LINE
  8
LC-002-002-----0
  6
CONTINUOUS
  5
675
 10
335.341046
 20
376.46204
 30
0.0
 11
335.341046
 21
421.06204
 31
0.0
  0
LINE
  8
LC-002-002-----0
  6
DASHED
 62
     2
  5
676
 10
326.348281
 20
364.860232
 30
0.0
 11
334.335398
 21
358.158245
 31
0.0
  0
LINE
  8
LC-005-002-RND-0
  6
DASHED
 62
     2
  5
677
 10
382.613086
 20
390.320478
 30
0.0
 11
353.469096
 21
355.588023
 31
0.0
  0
LINE
  8
LC-002-002-----0
  6
DASHED
 62
     2
  5
678
 10
352.709086
 20
334.1514
 30
0.0
 11
382.550429
 21
291.533545
 31
0.0
  0
LINE
  8
LC-005-002-RND-0
  6
DASHED
 62
     2
  5
679
 10
399.166716
 20
377.029969
 30
0.0
 11
433.977336
 21
327.315253
 31
0.0
  0
LINE
  8
LC-002-002-----0
  6
DASHED
 62
     2
  5
67A
 10
358.127199
 20
348.293789
 30
0.0
 11
392.937818
 21
298.579073
 31
0.0
  0
LINE
  8
LC-002-002-----0
  6
DASHED
 62
     2
  5
67B
 10
326.348281
 20
364.860232
 30
0.0
 11
328.457478
 21
367.373875
 31
0.0
  0
LINE
  8
LC-005-002-RND-0
  6
DASHED
 62
     2
  5
67C
 10
382.613086
 20
390.320478
 30
0.0
 11
390.863177
 21
383.39783
 31
0.0
  0
LINE
  8
LC-012-209-----0
  6
DASHED
 62
     2
  5
67D
 10
353.469096
 20
355.588023
 30
0.0
 11
361.133029
 21
349.15722
 31
0.0
  0
LINE
  8
LC-012-209-----0
  6
DASHED
 62
     2
  5
67E
 10
355.632532
 20
350.731086
 30
0.0
 11
354.10078
 21
352.016378
 31
0.0
  0
LINE
  8
LC-012-209-----0
  6
DASHED
 62
     2
  5
67F
 10
355.771207
 20
334.932295
 30
0.0
 11
358.127199
 21
348.293789
 31
0.0
  0
LINE
  8
LC-012-209-----0
  6
DASHED
 62
     2
  5
680
 10
382.550429
 20
291.533545
 30
0.0
 11
385.622143
 21
288.956071
 31
0.0
  0
ARC
  8
LC-012-209-----0
  6
DASHED
 62
     2
  5
681
 10
353.516598
 20
385.011207
 30
0.0
 40
33.0
 50
234.461598
 51
271.014567
  0
LINE
  8
LC-005-002-RND-0
  6
DASHED
 62
     2
  5
682
 10
390.863177
 20
383.39783
 30
0.0
 11
361.133029
 21
349.15722
 31
0.0
  0
LINE
  8
LC-012-209-----0
  6
DASHED
 62
     2
  5
683
 10
444.150663
 20
334.666493
 30
0.0
 11
445.522108
 21
330.898479
 31
0.0
  0
LINE
  8
LC-005-002-RND-0
  6
DASHED
 62
     2
  5
684
 10
414.309319
 20
377.284348
 30
0.0
 11
398.438766
 21
380.082755
 31
0.0
  0
LINE
  8
LC-012-209-----0
  6
DASHED
 62
     2
  5
685
 10
352.709086
 20
334.1514
 30
0.0
 11
355.632532
 21
350.731086
 31
0.0
  0
LINE
  8
LC-005-002-RND-0
  6
DASHED
 62
     2
  5
686
 10
444.733938
 20
330.346596
 30
0.0
 11
412.528211
 21
374.673977
 31
0.0
  0
LINE
  8
LC-012-209-----0
  6
DASHED
 62
     2
  5
687
 10
433.977336
 20
327.315253
 30
0.0
 11
435.282707
 21
323.728773
 31
0.0
  0
LINE
  8
LC-012-209-----0
  6
DASHED
 62
     2
  5
688
 10
392.937818
 20
298.579073
 30
0.0
 11
395.861543
 21
296.125777
 31
0.0
  0
LINE
  8
LC-012-209-----0
  6
DASHED
 62
     2
  5
689
 10
396.569041
 20
296.621172
 30
0.0
 11
361.133029
 21
349.15722
 31
0.0
  0
LINE
  8
LC-005-002-RND-0
  6
DASHED
 62
     2
  5
68A
 10
398.438766
 20
380.082755
 30
0.0
 11
386.240161
 21
390.3186
 31
0.0
  0
LINE
  8
LC-012-209-----0
  6
DASHED
 62
     2
  5
68B
 10
386.410312
 20
289.507954
 30
0.0
 11
355.755107
 21
334.956164
 31
0.0
  0
LINE
  8
LC-005-002-RND-0
  6
DASHED
 62
     2
  5
68C
 10
434.57521
 20
323.233378
 30
0.0
 11
390.863177
 21
383.39783
 31
0.0
  0
LINE
  8
LC-012-209-----0
  6
DASHED
 62
     2
  5
68D
 10
385.67494
 20
288.99304
 30
0.0
 11
445.522108
 21
330.898479
 31
0.0
  0
LINE
  8
LC-005-002-RND-0
  6
DASHED
 62
     2
  5
68E
 10
412.528211
 20
374.673977
 30
0.0
 11
399.166716
 21
377.029969
 31
0.0
  0
LINE
  8
LC-005-002-RND-0
  6
DASHED
 62
     2
  5
68F
 10
412.528211
 20
374.673977
 30
0.0
 11
404.62851
 21
369.142547
 31
0.0
  0
LINE
  8
LC-002-002-----0
  6
DASHED
 62
     2
  5
690
 10
363.670908
 20
340.463725
 30
0.0
 11
355.771207
 21
334.932295
 31
0.0
  0
LINE
  8
LC-005-002-RND-0
  6
DASHED
 62
     2
  5
691
 10
368.772263
 20
415.419165
 30
0.0
 11
376.75938
 21
408.717178
 31
0.0
  0
ARC
  8
LC-005-002-RND-0
  6
DASHED
 62
     2
  5
692
 10
353.645155
 20
385.164416
 30
0.0
 40
33.0
 50
8.985433
 51
45.538402
  0
LINE
  8
LC-005-002-RND-0
  6
DASHED
 62
     2
  5
693
 10
368.772263
 20
415.419165
 30
0.0
 11
366.663066
 21
412.905521
 31
0.0
  0
ARC
  8
LC-005-002-RND-0
  6
DASHED
 62
     2
  5
694
 10
353.580876
 20
385.087811
 30
0.0
 40
29.5
 50
10.217104
 51
29.968993
  0
ARC
  8
LC-002-002-----0
  6
DASHED
 62
     2
  5
695
 10
353.5508
 20
385.105176
 30
0.0
 40
29.5
 50
236.5668
 51
270.030652
  0
ARC
  8
LC-005-002-RND-0
  6
DASHED
 62
     2
  5
696
 10
367.42911
 20
412.262734
 30
0.0
 40
1.0
 50
140.0
 51
242.996787
  0
ARC
  8
LC-005-002-RND-0
  6
DASHED
 62
     2
  5
697
 10
329.223523
 20
366.731087
 30
0.0
 40
1.0
 50
37.003213
 51
140.0
  0
LINE
  8
LC-009-005-----0
  6
CONTINUOUS
  5
698
 10
123.700891
 20
454.626864
 30
0.0
 11
126.204982
 21
457.130956
 31
0.0
  0
LINE
  8
LC-009-005-----0
  6
CONTINUOUS
  5
699
 10
128.311621
 20
459.237595
 30
0.0
 11
130.187089
 21
461.113063
 31
0.0
  0
LINE
  8
LC-005-002-RND-0
  6
DASHED
 62
     2
  5
69A
 10
319.930174
 20
432.45995
 30
0.0
 11
318.842095
 21
429.470479
 31
0.0
  0
LINE
  8
LC-009-005-----0
  6
CONTINUOUS
  5
69B
 10
122.810914
 20
456.565315
 30
0.0
 11
125.213003
 21
458.967404
 31
0.0
  0
LINE
  8
LC-005-002-RND-0
  6
DASHED
 62
     2
  5
69C
 10
344.820975
 20
414.887017
 30
0.0
 11
347.385285
 21
413.953684
 31
0.0
  0
LINE
  8
LC-005-002-RND-0
  6
DASHED
 62
     2
  5
69D
 10
378.185825
 20
401.333717
 30
0.0
 11
377.715371
 21
400.041156
 31
0.0
  0
LINE
  8
LC-005-002-RND-0
  6
DASHED
 62
     2
  5
69E
 10
377.715371
 20
400.041156
 30
0.0
 11
341.803428
 21
413.112034
 31
0.0
  0
LINE
  8
LC-002-002-----0
  6
DASHED
 62
     2
  5
69F
 10
297.356844
 20
370.440237
 30
0.0
 11
304.742209
 21
367.752184
 31
0.0
  0
LINE
  8
LC-005-002-RND-0
  6
DASHED
 62
     2
  5
6A0
 10
319.930174
 20
432.45995
 30
0.0
 11
327.315538
 21
429.771897
 31
0.0
  0
ARC
  8
LC-002-002-----0
  6
DASHED
 62
     2
  5
6A1
 10
316.028873
 20
398.76204
 30
0.0
 40
33.0
 50
250.0
 51
290.749054
  0
LINE
  8
LC-002-002-----0
  6
DASHED
 62
     2
  5
6A2
 10
297.356844
 20
370.440237
 30
0.0
 11
298.444922
 21
373.429708
 31
0.0
  0
LINE
  8
LC-005-002-RND-0
  6
DASHED
 62
     2
  5
6A3
 10
378.185825
 20
401.333717
 30
0.0
 11
370.088322
 21
379.08601
 31
0.0
  0
ARC
  8
LC-002-002-----0
  6
DASHED
 62
     2
  5
6A4
 10
316.028873
 20
398.76204
 30
0.0
 40
29.5
 50
237.003213
 51
271.049054
  0
LINE
  8
LC-013-208-----0
  6
DASHED
 62
     2
  5
6A5
 10
327.719968
 20
367.902386
 30
0.0
 11
330.284278
 21
366.969053
 31
0.0
  0
ARC
  8
LC-005-002-RND-0
  6
DASHED
 62
     2
  5
6A6
 10
353.5508
 20
385.105176
 30
0.0
 40
29.5
 50
58.068557
 51
102.063786
  0
LINE
  8
LC-013-208-----0
  6
DASHED
 62
     2
  5
6A7
 10
362.461273
 20
358.130865
 30
0.0
 11
326.54933
 21
371.201743
 31
0.0
  0
ARC
  8
LC-002-002-----0
  6
DASHED
 62
     2
  5
6A8
 10
353.5508
 20
385.105176
 30
0.0
 40
29.5
 50
217.936214
 51
261.931443
  0
ARC
  8
LC-005-002-RND-0
  6
DASHED
 62
     2
  5
6A9
 10
353.5508
 20
385.105176
 30
0.0
 40
29.5
 50
33.375247
 51
48.943799
  0
ARC
  8
LC-002-002-----0
  6
DASHED
 62
     2
  5
6AA
 10
353.5508
 20
385.105176
 30
0.0
 40
29.5
 50
271.056201
 51
286.624753
  0
ARC
  8
LC-005-002-RND-0
  6
DASHED
 62
     2
  5
6AB
 10
316.028873
 20
398.76204
 30
0.0
 40
33.0
 50
29.250946
 51
70.0
  0
LINE
  8
LC-002-002-----0
  6
DASHED
 62
     2
  5
6AC
 10
361.990819
 20
356.838304
 30
0.0
 11
370.088322
 21
379.08601
 31
0.0
  0
ARC
  8
LC-005-002-RND-0
  6
DASHED
 62
     2
  5
6AD
 10
319.747586
 20
429.03449
 30
0.0
 40
1.0
 50
160.0
 51
262.996787
  0
ARC
  8
LC-005-002-RND-0
  6
DASHED
 62
     2
  5
6AE
 10
299.418817
 20
373.181657
 30
0.0
 40
1.0
 50
57.003213
 51
160.0
  0
ARC
  8
LC-005-002-RND-0
  6
DASHED
 62
     2
  5
6AF
 10
316.028873
 20
398.76204
 30
0.0
 40
29.5
 50
29.10689
 51
49.113355
  0
LINE
  8
LC-005-002-RND-0
  6
DASHED
 62
     2
  5
6B0
 10
326.54933
 20
371.201743
 30
0.0
 11
341.803428
 21
413.112034
 31
0.0
  0
ARC
  8
LC-002-002-----0
  6
DASHED
 62
     2
  5
6B1
 10
316.028873
 20
398.76204
 30
0.0
 40
29.5
 50
271.049054
 51
286.610955
  0
ARC
  8
LC-005-002-RND-0
  6
DASHED
 62
     2
  5
6B2
 10
316.028873
 20
398.76204
 30
0.0
 40
29.5
 50
33.389045
 51
48.950946
  0
LINE
  8
LC-009-005-----0
  6
DASHED
  5
6B3
 10
311.492964
 20
369.612846
 30
0.0
 11
311.992366
 21
369.845721
 31
0.0
  0
LINE
  8
LC-009-005-----0
  6
CONTINUOUS
  5
6B4
 10
128.311621
 20
462.066022
 30
0.0
 11
129.265456
 21
463.019857
 31
0.0
  0
LINE
  8
LC-009-005-----0
  6
CONTINUOUS
  5
6B5
 10
121.864232
 20
458.44706
 30
0.0
 11
125.213003
 21
461.795831
 31
0.0
  0
LINE
  8
LC-009-005-----0
  6
CONTINUOUS
  5
6B6
 10
122.810914
 20
462.222169
 30
0.0
 11
125.213003
 21
464.624258
 31
0.0
  0
LINE
  8
LC-009-005-----0
  6
CONTINUOUS
  5
6B7
 10
120.874276
 20
463.113958
 30
0.0
 11
123.688818
 21
465.9285
 31
0.0
  0
LINE
  8
LC-009-005-----0
  6
CONTINUOUS
  5
6B8
 10
118.230705
 20
463.298814
 30
0.0
 11
121.052006
 21
466.120116
 31
0.0
  0
LINE
  8
LC-009-005-----0
  6
CONTINUOUS
  5
6B9
 10
115.587134
 20
463.483671
 30
0.0
 11
118.415195
 21
466.311731
 31
0.0
  0
LINE
  8
LC-009-005-----0
  6
CONTINUOUS
  5
6BA
 10
112.943563
 20
463.668527
 30
0.0
 11
115.778383
 21
466.503346
 31
0.0
  0
LINE
  8
LC-009-005-----0
  6
CONTINUOUS
  5
6BB
 10
110.299993
 20
463.853383
 30
0.0
 11
113.141571
 21
466.694962
 31
0.0
  0
LINE
  8
LC-009-005-----0
  6
CONTINUOUS
  5
6BC
 10
107.656422
 20
464.03824
 30
0.0
 11
110.759842
 21
467.14166
 31
0.0
  0
LINE
  8
LC-009-005-----0
  6
CONTINUOUS
  5
6BD
 10
105.213935
 20
464.42418
 30
0.0
 11
108.617122
 21
467.827367
 31
0.0
  0
LINE
  8
LC-009-005-----0
  6
CONTINUOUS
  5
6BE
 10
103.077565
 20
465.116237
 30
0.0
 11
106.635798
 21
468.67447
 31
0.0
  0
LINE
  8
LC-009-005-----0
  6
CONTINUOUS
  5
6BF
 10
100.941196
 20
465.808295
 30
0.0
 11
104.439318
 21
469.306417
 31
0.0
  0
LINE
  8
LC-009-005-----0
  6
CONTINUOUS
  5
6C0
 10
98.804827
 20
466.500353
 30
0.0
 11
101.794234
 21
469.489761
 31
0.0
  0
LINE
  8
LC-009-005-----0
  6
CONTINUOUS
  5
6C1
 10
96.336884
 20
466.860837
 30
0.0
 11
99.149151
 21
469.673104
 31
0.0
  0
LINE
  8
LC-009-005-----0
  6
CONTINUOUS
  5
6C2
 10
93.6918
 20
467.04418
 30
0.0
 11
96.504067
 21
469.856447
 31
0.0
  0
LINE
  8
LC-009-005-----0
  6
CONTINUOUS
  5
6C3
 10
91.046716
 20
467.227524
 30
0.0
 11
93.858983
 21
470.03979
 31
0.0
  0
LINE
  8
LC-009-005-----0
  6
CONTINUOUS
  5
6C4
 10
88.401632
 20
467.410867
 30
0.0
 11
91.213899
 21
470.223134
 31
0.0
  0
LINE
  8
LC-009-005-----0
  6
CONTINUOUS
  5
6C5
 10
85.756548
 20
467.59421
 30
0.0
 11
88.568815
 21
470.406477
 31
0.0
  0
LINE
  8
LC-009-005-----0
  6
CONTINUOUS
  5
6C6
 10
83.111464
 20
467.777553
 30
0.0
 11
85.923731
 21
470.58982
 31
0.0
  0
LINE
  8
LC-009-005-----0
  6
CONTINUOUS
  5
6C7
 10
80.46638
 20
467.960896
 30
0.0
 11
83.278647
 21
470.773163
 31
0.0
  0
LINE
  8
LC-009-005-----0
  6
CONTINUOUS
  5
6C8
 10
77.821296
 20
468.14424
 30
0.0
 11
80.633563
 21
470.956506
 31
0.0
  0
LINE
  8
LC-009-005-----0
  6
CONTINUOUS
  5
6C9
 10
75.176213
 20
468.327583
 30
0.0
 11
77.988479
 21
471.13985
 31
0.0
  0
LINE
  8
LC-002-002-----0
  6
CONTINUOUS
  5
6CA
 10
128.311621
 20
456.983645
 30
0.0
 11
128.311621
 21
463.089171
 31
0.0
  0
LINE
  8
LC-002-002-----0
  6
CONTINUOUS
  5
6CB
 10
302.310207
 20
445.162539
 30
0.0
 11
295.717443
 21
445.162539
 31
0.0
  0
LINE
  8
LC-002-002-----0
  6
CONTINUOUS
  5
6CC
 10
306.060914
 20
446.745451
 30
0.0
 11
300.682153
 21
435.197343
 31
0.0
  0
ARC
  8
LC-005-002-RND-0
  6
CONTINUOUS
  5
6CD
 10
139.404386
 20
443.563365
 30
0.0
 40
0.8
 50
0.0
 51
90.0
  0
LINE
  8
LC-002-002-----0
  6
CONTINUOUS
  5
6CE
 10
140.204386
 20
443.163365
 30
0.0
 11
140.204386
 21
443.563365
 31
0.0
  0
ARC
  8
LC-005-002-RND-0
  6
CONTINUOUS
  5
6CF
 10
139.404386
 20
440.063365
 30
0.0
 40
0.8
 50
0.0
 51
90.0
  0
LINE
  8
LC-002-002-----0
  6
CONTINUOUS
  5
6D0
 10
140.204386
 20
439.663365
 30
0.0
 11
140.204386
 21
440.063365
 31
0.0
  0
ARC
  8
LC-005-002-RND-0
  6
CONTINUOUS
  5
6D1
 10
139.404386
 20
439.663365
 30
0.0
 40
0.8
 50
270.0
 51
0.0
  0
LINE
  8
LC-002-002-----0
  6
CONTINUOUS
  5
6D2
 10
139.204386
 20
440.863365
 30
0.0
 11
139.404386
 21
440.863365
 31
0.0
  0
LINE
  8
LC-002-002-----0
  6
CONTINUOUS
  5
6D3
 10
139.204386
 20
438.863365
 30
0.0
 11
139.404386
 21
438.863365
 31
0.0
  0
LINE
  8
LC-002-002-----0
  6
CONTINUOUS
  5
6D4
 10
139.204386
 20
438.863365
 30
0.0
 11
139.204386
 21
438.457704
 31
0.0
  0
LINE
  8
LC-002-002-----0
  6
CONTINUOUS
  5
6D5
 10
306.060914
 20
453.039408
 30
0.0
 11
306.060914
 21
446.745451
 31
0.0
  0
LINE
  8
LC-002-002-----0
  6
CONTINUOUS
  5
6D6
 10
308.810914
 20
454.039408
 30
0.0
 11
307.060914
 21
454.039408
 31
0.0
  0
ARC
  8
LC-005-002-RND-0
  6
CONTINUOUS
  5
6D7
 10
308.810914
 20
456.539408
 30
0.0
 40
2.5
 50
270.0
 51
0.0
  0
ARC
  8
LC-005-002-RND-0
  6
CONTINUOUS
  5
6D8
 10
307.060914
 20
453.039408
 30
0.0
 40
1.0
 50
90.0
 51
180.0
  0
ARC
  8
LC-005-002-RND-0
  6
CONTINUOUS
  5
6D9
 10
127.060914
 20
453.039408
 30
0.0
 40
1.0
 50
0.0
 51
90.0
  0
LINE
  8
LC-002-002-----0
  6
CONTINUOUS
  5
6DA
 10
312.310914
 20
458.539408
 30
0.0
 11
311.310914
 21
456.807357
 31
0.0
  0
LINE
  8
LC-002-002-----0
  6
CONTINUOUS
  5
6DB
 10
312.310914
 20
459.539408
 30
0.0
 11
312.310914
 21
458.539408
 31
0.0
  0
LINE
  8
LC-002-002-----0
  6
CONTINUOUS
  5
6DC
 10
311.310914
 20
462.512278
 30
0.0
 11
311.310914
 21
460.539408
 31
0.0
  0
LINE
  8
LC-002-002-----0
  6
CONTINUOUS
  5
6DD
 10
125.213003
 20
465.817739
 30
0.0
 11
125.213003
 21
458.132837
 31
0.0
  0
LINE
  8
LC-002-002-----0
  6
CONTINUOUS
  5
6DE
 10
130.311621
 20
460.897366
 30
0.0
 11
130.311621
 21
446.662539
 31
0.0
  0
LINE
  8
LC-002-002-----0
  6
CONTINUOUS
  5
6DF
 10
131.811621
 20
445.162539
 30
0.0
 11
138.404386
 21
445.162539
 31
0.0
  0
ARC
  8
LC-005-002-RND-0
  6
CONTINUOUS
  5
6E0
 10
131.811621
 20
446.662539
 30
0.0
 40
1.5
 50
180.0
 51
270.0
  0
LINE
  8
LC-002-002-----0
  6
CONTINUOUS
  5
6E1
 10
128.311621
 20
456.983645
 30
0.0
 11
126.143247
 21
457.135273
 31
0.0
  0
ARC
  8
LC-005-002-RND-0
  6
CONTINUOUS
  5
6E2
 10
138.404386
 20
444.362539
 30
0.0
 40
0.8
 50
0.059159
 51
90.0
  0
LINE
  8
LC-002-002-----0
  6
CONTINUOUS
  5
6E3
 10
139.404386
 20
444.363365
 30
0.0
 11
139.204386
 21
444.363365
 31
0.0
  0
LINE
  8
LC-002-002-----0
  6
CONTINUOUS
  5
6E4
 10
139.404386
 20
442.363365
 30
0.0
 11
139.204386
 21
442.363365
 31
0.0
  0
LINE
  8
LC-002-002-----0
  6
CONTINUOUS
  5
6E5
 10
311.310914
 20
460.539408
 30
0.0
 11
312.310914
 21
459.539408
 31
0.0
  0
LINE
  8
LC-002-002-----0
  6
CONTINUOUS
  5
6E6
 10
305.810207
 20
456.983645
 30
0.0
 11
307.978582
 21
457.135273
 31
0.0
  0
LINE
  8
LC-002-002-----0
  6
CONTINUOUS
  5
6E7
 10
297.96267
 20
433.463997
 30
0.0
 11
288.060914
 21
433.463997
 31
0.0
  0
ARC
  8
LC-002-002-----0
  6
CONTINUOUS
  5
6E8
 10
282.739431
 20
434.968834
 30
0.0
 40
1.499514
 50
90.0
 51
180.0
  0
LINE
  8
LC-002-002-----0
  6
CONTINUOUS
  5
6E9
 10
282.739431
 20
436.468348
 30
0.0
 11
292.918091
 21
436.468348
 31
0.0
  0
LINE
  8
LC-002-002-----0
  6
CONTINUOUS
  5
6EA
 10
288.060914
 20
433.463997
 30
0.0
 11
284.560914
 21
429.963997
 31
0.0
  0
LINE
  8
LC-002-002-----0
  6
CONTINUOUS
  5
6EB
 10
284.560914
 20
429.963997
 30
0.0
 11
284.560914
 21
426.963997
 31
0.0
  0
ARC
  8
LC-005-002-RND-0
  6
CONTINUOUS
  5
6EC
 10
281.560914
 20
426.963997
 30
0.0
 40
3.0
 50
270.0
 51
0.0
  0
ARC
  8
LC-002-002-----0
  6
CONTINUOUS
  5
6ED
 10
316.028873
 20
398.76204
 30
0.0
 40
29.5
 50
78.07248
 51
122.093408
  0
ARC
  8
LC-002-002-----0
  6
CONTINUOUS
  5
6EE
 10
316.028873
 20
398.76204
 30
0.0
 40
29.5
 50
291.049054
 51
306.610955
  0
ARC
  8
LC-002-002-----0
  6
CONTINUOUS
  5
6EF
 10
316.028873
 20
398.76204
 30
0.0
 40
29.5
 50
237.906592
 51
281.92752
  0
ARC
  8
LC-002-002-----0
  6
CONTINUOUS
  5
6F0
 10
316.028873
 20
398.76204
 30
0.0
 40
29.5
 50
53.389045
 51
68.950946
  0
LINE
  8
LC-009-005-----0
  6
CONTINUOUS
  5
6F1
 10
72.531129
 20
468.510926
 30
0.0
 11
75.343395
 21
471.323193
 31
0.0
  0
ARC
  8
LC-005-002-RND-0
  6
CONTINUOUS
  5
6F2
 10
307.908826
 20
458.132837
 30
0.0
 40
1.0
 50
274.0
 51
0.0
  0
LINE
  8
LC-009-005-----0
  6
CONTINUOUS
  5
6F3
 10
69.886045
 20
468.694269
 30
0.0
 11
72.698311
 21
471.506536
 31
0.0
  0
LINE
  8
LC-002-002-----0
  6
CONTINUOUS
  5
6F4
 10
261.560914
 20
426.272586
 30
0.0
 11
261.560914
 21
376.995155
 31
0.0
  0
LINE
  8
LC-002-002-----0
  6
CONTINUOUS
  5
6F5
 10
278.560914
 20
372.028298
 30
0.0
 11
278.560914
 21
357.276134
 31
0.0
  0
LINE
  8
LC-002-002-----0
  6
CONTINUOUS
  5
6F6
 10
281.560914
 20
371.77014
 30
0.0
 11
281.560914
 21
358.276134
 31
0.0
  0
LINE
  8
LC-002-002-----0
  6
CONTINUOUS
  5
6F7
 10
259.560914
 20
426.272586
 30
0.0
 11
259.560914
 21
360.276134
 31
0.0
  0
LINE
  8
LC-002-002-----0
  6
CONTINUOUS
  5
6F8
 10
311.310914
 20
456.807357
 30
0.0
 11
311.310914
 21
456.539408
 31
0.0
  0
ARC
  8
LC-005-002-RND-0
  6
CONTINUOUS
  5
6F9
 10
283.560914
 20
371.77014
 30
0.0
 40
2.0
 50
90.0
 51
180.0
  0
LINE
  8
LC-003-207-----0
  6
CONTINUOUS
  5
6FA
 10
261.560914
 20
357.276134
 30
0.0
 11
280.560914
 21
357.276134
 31
0.0
  0
LINE
  8
LC-002-002-----0
  6
CONTINUOUS
  5
6FB
 10
98.060914
 20
466.741336
 30
0.0
 11
106.060914
 21
464.149808
 31
0.0
  0
LINE
  8
LC-002-002-----0
  6
CONTINUOUS
  5
6FC
 10
128.060914
 20
453.039408
 30
0.0
 11
128.060914
 21
446.745451
 31
0.0
  0
LINE
  8
LC-002-002-----0
  6
CONTINUOUS
  5
6FD
 10
121.810914
 20
459.539408
 30
0.0
 11
121.810914
 21
458.539408
 31
0.0
  0
LINE
  8
LC-002-002-----0
  6
CONTINUOUS
  5
6FE
 10
122.810914
 20
460.539408
 30
0.0
 11
121.810914
 21
459.539408
 31
0.0
  0
LINE
  8
LC-002-002-----0
  6
CONTINUOUS
  5
6FF
 10
304.310207
 20
462.980167
 30
0.0
 11
304.310207
 21
461.763392
 31
0.0
  0
LINE
  8
LC-002-002-----0
  6
CONTINUOUS
  5
700
 10
146.060914
 20
433.463997
 30
0.0
 11
149.560914
 21
429.963997
 31
0.0
  0
LINE
  8
LC-002-002-----0
  6
CONTINUOUS
  5
701
 10
121.810914
 20
458.539408
 30
0.0
 11
122.810914
 21
456.807357
 31
0.0
  0
LINE
  8
LC-002-002-----0
  6
CONTINUOUS
  5
702
 10
304.310207
 20
461.763392
 30
0.0
 11
303.810207
 21
460.897366
 31
0.0
  0
ARC
  8
LC-005-002-RND-0
  6
CONTINUOUS
  5
703
 10
292.918091
 20
438.457704
 30
0.0
 40
1.999352
 50
270.0
 51
0.0
  0
LINE
  8
LC-002-002-----0
  6
CONTINUOUS
  5
704
 10
294.917443
 20
438.863365
 30
0.0
 11
294.917443
 21
438.457704
 31
0.0
  0
ARC
  8
LC-005-002-RND-0
  6
CONTINUOUS
  5
705
 10
294.717443
 20
439.663365
 30
0.0
 40
0.8
 50
180.0
 51
270.0
  0
LINE
  8
LC-002-002-----0
  6
CONTINUOUS
  5
706
 10
293.917443
 20
439.663365
 30
0.0
 11
293.917443
 21
440.063365
 31
0.0
  0
ARC
  8
LC-005-002-RND-0
  6
CONTINUOUS
  5
707
 10
294.717443
 20
440.063365
 30
0.0
 40
0.8
 50
90.0
 51
180.0
  0
LINE
  8
LC-002-002-----0
  6
CONTINUOUS
  5
708
 10
294.917443
 20
442.363365
 30
0.0
 11
294.917443
 21
440.863365
 31
0.0
  0
ARC
  8
LC-005-002-RND-0
  6
CONTINUOUS
  5
709
 10
294.717443
 20
443.163365
 30
0.0
 40
0.8
 50
180.0
 51
270.0
  0
LINE
  8
LC-002-002-----0
  6
CONTINUOUS
  5
70A
 10
293.917443
 20
443.163365
 30
0.0
 11
293.917443
 21
443.563365
 31
0.0
  0
ARC
  8
LC-005-002-RND-0
  6
CONTINUOUS
  5
70B
 10
294.717443
 20
443.563365
 30
0.0
 40
0.8
 50
90.0
 51
180.0
  0
ARC
  8
LC-005-002-RND-0
  6
CONTINUOUS
  5
70C
 10
295.717443
 20
444.362539
 30
0.0
 40
0.8
 50
90.0
 51
179.940841
  0
ARC
  8
LC-004-207-RND-0
  6
CONTINUOUS
  5
70D
 10
280.560914
 20
358.276134
 30
0.0
 40
1.0
 50
270.0
 51
0.0
  0
LINE
  8
LC-009-005-----0
  6
CONTINUOUS
  5
70E
 10
67.240961
 20
468.877612
 30
0.0
 11
70.053228
 21
471.689879
 31
0.0
  0
LINE
  8
LC-009-005-----0
  6
CONTINUOUS
  5
70F
 10
66.060914
 20
470.525993
 30
0.0
 11
67.408144
 21
471.873222
 31
0.0
  0
LINE
  8
LC-009-005-----0
  6
CONTINUOUS
  5
710
 10
326.624303
 20
371.879137
 30
0.0
 11
331.214432
 21
376.469266
 31
0.0
  0
LINE
  8
LC-003-207-----0
  6
CONTINUOUS
  5
711
 10
152.560914
 20
357.276134
 30
0.0
 11
261.560914
 21
357.276134
 31
0.0
  0
LINE
  8
LC-003-207-----0
  6
CONTINUOUS
  5
712
 10
155.560914
 20
360.276134
 30
0.0
 11
181.800309
 21
360.276134
 31
0.0
  0
LINE
  8
LC-009-005-----0
  6
CONTINUOUS
  5
713
 10
152.560914
 20
370.349803
 30
0.0
 11
155.560914
 21
373.349803
 31
0.0
  0
LINE
  8
LC-009-005-----0
  6
CONTINUOUS
  5
714
 10
152.560914
 20
373.17823
 30
0.0
 11
155.560914
 21
376.17823
 31
0.0
  0
LINE
  8
LC-009-005-----0
  6
CONTINUOUS
  5
715
 10
321.736124
 20
369.819385
 30
0.0
 11
322.125761
 21
370.209022
 31
0.0
  0
LINE
  8
LC-002-002-----0
  6
CONTINUOUS
  5
716
 10
280.560914
 20
426.272586
 30
0.0
 11
274.560914
 21
426.272586
 31
0.0
  0
LINE
  8
LC-002-002-----0
  6
CONTINUOUS
  5
717
 10
274.560914
 20
426.272586
 30
0.0
 11
212.563
 21
426.272586
 31
0.0
  0
LINE
  8
LC-009-005-----0
  6
CONTINUOUS
  5
718
 10
325.686285
 20
373.769546
 30
0.0
 11
328.386005
 21
376.469266
 31
0.0
  0
LINE
  8
LC-009-005-----0
  6
CONTINUOUS
  5
719
 10
318.449862
 20
369.36155
 30
0.0
 11
322.125761
 21
373.037449
 31
0.0
  0
LINE
  8
LC-009-005-----0
  6
CONTINUOUS
  5
71A
 10
322.858407
 20
373.770095
 30
0.0
 11
325.557577
 21
376.469266
 31
0.0
  0
LINE
  8
LC-009-005-----0
  6
CONTINUOUS
  5
71B
 10
315.526208
 20
369.266323
 30
0.0
 11
322.72915
 21
376.469266
 31
0.0
  0
LINE
  8
LC-009-005-----0
  6
CONTINUOUS
  5
71C
 10
312.863783
 20
369.432325
 30
0.0
 11
319.900723
 21
376.469266
 31
0.0
  0
LINE
  8
LC-009-005-----0
  6
CONTINUOUS
  5
71D
 10
310.40592
 20
369.80289
 30
0.0
 11
317.072296
 21
376.469266
 31
0.0
  0
LINE
  8
LC-009-005-----0
  6
CONTINUOUS
  5
71E
 10
308.117329
 20
370.342725
 30
0.0
 11
314.243869
 21
376.469266
 31
0.0
  0
LINE
  8
LC-009-005-----0
  6
CONTINUOUS
  5
71F
 10
305.974493
 20
371.028317
 30
0.0
 11
311.415442
 21
376.469266
 31
0.0
  0
LINE
  8
LC-009-005-----0
  6
CONTINUOUS
  5
720
 10
303.961061
 20
371.843312
 30
0.0
 11
308.587015
 21
376.469266
 31
0.0
  0
LINE
  8
LC-009-005-----0
  6
CONTINUOUS
  5
721
 10
302.065385
 20
372.776063
 30
0.0
 11
305.758588
 21
376.469266
 31
0.0
  0
LINE
  8
LC-009-005-----0
  6
CONTINUOUS
  5
722
 10
300.231035
 20
373.77014
 30
0.0
 11
302.93016
 21
376.469266
 31
0.0
  0
LINE
  8
LC-009-005-----0
  6
CONTINUOUS
  5
723
 10
281.020435
 20
357.387967
 30
0.0
 11
281.449081
 21
357.816614
 31
0.0
  0
LINE
  8
LC-009-005-----0
  6
CONTINUOUS
  5
724
 10
297.402608
 20
373.77014
 30
0.0
 11
300.101733
 21
376.469266
 31
0.0
  0
LINE
  8
LC-009-005-----0
  6
CONTINUOUS
  5
725
 10
278.560914
 20
357.756874
 30
0.0
 11
281.560914
 21
360.756874
 31
0.0
  0
LINE
  8
LC-009-005-----0
  6
CONTINUOUS
  5
726
 10
294.574181
 20
373.77014
 30
0.0
 11
297.273306
 21
376.469266
 31
0.0
  0
LINE
  8
LC-009-005-----0
  6
CONTINUOUS
  5
727
 10
278.560914
 20
360.585301
 30
0.0
 11
281.560914
 21
363.585301
 31
0.0
  0
LINE
  8
LC-009-005-----0
  6
CONTINUOUS
  5
728
 10
291.745754
 20
373.77014
 30
0.0
 11
294.444879
 21
376.469266
 31
0.0
  0
LINE
  8
LC-009-005-----0
  6
CONTINUOUS
  5
729
 10
278.560914
 20
363.413728
 30
0.0
 11
281.560914
 21
366.413728
 31
0.0
  0
LINE
  8
LC-009-005-----0
  6
CONTINUOUS
  5
72A
 10
288.917327
 20
373.77014
 30
0.0
 11
291.616452
 21
376.469266
 31
0.0
  0
LINE
  8
LC-009-005-----0
  6
CONTINUOUS
  5
72B
 10
278.560914
 20
366.242155
 30
0.0
 11
281.560914
 21
369.242155
 31
0.0
  0
LINE
  8
LC-009-005-----0
  6
CONTINUOUS
  5
72C
 10
286.0889
 20
373.77014
 30
0.0
 11
288.788025
 21
376.469266
 31
0.0
  0
LINE
  8
LC-009-005-----0
  6
CONTINUOUS
  5
72D
 10
278.560914
 20
369.070582
 30
0.0
 11
281.587898
 21
372.097566
 31
0.0
  0
LINE
  8
LC-009-005-----0
  6
CONTINUOUS
  5
72E
 10
283.233488
 20
373.743156
 30
0.0
 11
285.959598
 21
376.469266
 31
0.0
  0
LINE
  8
LC-009-005-----0
  6
CONTINUOUS
  5
72F
 10
278.560914
 20
371.899009
 30
0.0
 11
283.131171
 21
376.469266
 31
0.0
  0
LINE
  8
LC-009-005-----0
  6
CONTINUOUS
  5
730
 10
261.109612
 20
357.276134
 30
0.0
 11
261.560914
 21
357.727437
 31
0.0
  0
LINE
  8
LC-009-005-----0
  6
CONTINUOUS
  5
731
 10
277.581674
 20
373.748196
 30
0.0
 11
280.302743
 21
376.469266
 31
0.0
  0
LINE
  8
LC-009-005-----0
  6
CONTINUOUS
  5
732
 10
258.281185
 20
357.276134
 30
0.0
 11
261.560914
 21
360.555864
 31
0.0
  0
LINE
  8
LC-009-005-----0
  6
CONTINUOUS
  5
733
 10
275.080167
 20
374.075117
 30
0.0
 11
277.506358
 21
376.501308
 31
0.0
  0
LINE
  8
LC-009-005-----0
  6
CONTINUOUS
  5
734
 10
255.452758
 20
357.276134
 30
0.0
 11
258.452758
 21
360.276134
 31
0.0
  0
LINE
  8
LC-009-005-----0
  6
CONTINUOUS
  5
735
 10
259.560914
 20
361.384291
 30
0.0
 11
261.560914
 21
363.384291
 31
0.0
  0
LINE
  8
LC-009-005-----0
  6
CONTINUOUS
  5
736
 10
272.336708
 20
374.160085
 30
0.0
 11
274.762899
 21
376.586276
 31
0.0
  0
LINE
  8
LC-009-005-----0
  6
CONTINUOUS
  5
737
 10
252.624331
 20
357.276134
 30
0.0
 11
255.624331
 21
360.276134
 31
0.0
  0
LINE
  8
LC-009-005-----0
  6
CONTINUOUS
  5
738
 10
259.560914
 20
364.212718
 30
0.0
 11
261.560914
 21
366.212718
 31
0.0
  0
LINE
  8
LC-009-005-----0
  6
CONTINUOUS
  5
739
 10
269.593249
 20
374.245052
 30
0.0
 11
272.01944
 21
376.671243
 31
0.0
  0
LINE
  8
LC-009-005-----0
  6
CONTINUOUS
  5
73A
 10
249.795904
 20
357.276134
 30
0.0
 11
252.795904
 21
360.276134
 31
0.0
  0
LINE
  8
LC-009-005-----0
  6
CONTINUOUS
  5
73B
 10
259.560914
 20
367.041145
 30
0.0
 11
261.560914
 21
369.041145
 31
0.0
  0
LINE
  8
LC-009-005-----0
  6
CONTINUOUS
  5
73C
 10
266.849789
 20
374.33002
 30
0.0
 11
269.27598
 21
376.756211
 31
0.0
  0
LINE
  8
LC-009-005-----0
  6
CONTINUOUS
  5
73D
 10
246.967477
 20
357.276134
 30
0.0
 11
249.967477
 21
360.276134
 31
0.0
  0
LINE
  8
LC-009-005-----0
  6
CONTINUOUS
  5
73E
 10
259.560914
 20
369.869572
 30
0.0
 11
261.560914
 21
371.869572
 31
0.0
  0
LINE
  8
LC-009-005-----0
  6
CONTINUOUS
  5
73F
 10
264.10633
 20
374.414988
 30
0.0
 11
266.532521
 21
376.841179
 31
0.0
  0
LINE
  8
LC-009-005-----0
  6
CONTINUOUS
  5
740
 10
244.139049
 20
357.276134
 30
0.0
 11
247.139049
 21
360.276134
 31
0.0
  0
LINE
  8
LC-009-005-----0
  6
CONTINUOUS
  5
741
 10
259.560914
 20
372.697999
 30
0.0
 11
263.789062
 21
376.926147
 31
0.0
  0
LINE
  8
LC-009-005-----0
  6
CONTINUOUS
  5
742
 10
241.310622
 20
357.276134
 30
0.0
 11
244.310622
 21
360.276134
 31
0.0
  0
LINE
  8
LC-009-005-----0
  6
CONTINUOUS
  5
743
 10
259.560914
 20
375.526426
 30
0.0
 11
261.560914
 21
377.526426
 31
0.0
  0
LINE
  8
LC-009-005-----0
  6
CONTINUOUS
  5
744
 10
238.482195
 20
357.276134
 30
0.0
 11
241.482195
 21
360.276134
 31
0.0
  0
LINE
  8
LC-009-005-----0
  6
CONTINUOUS
  5
745
 10
259.560914
 20
378.354854
 30
0.0
 11
261.560914
 21
380.354854
 31
0.0
  0
LINE
  8
LC-009-005-----0
  6
CONTINUOUS
  5
746
 10
235.653768
 20
357.276134
 30
0.0
 11
238.653768
 21
360.276134
 31
0.0
  0
LINE
  8
LC-009-005-----0
  6
CONTINUOUS
  5
747
 10
259.560914
 20
381.183281
 30
0.0
 11
261.560914
 21
383.183281
 31
0.0
  0
LINE
  8
LC-009-005-----0
  6
CONTINUOUS
  5
748
 10
232.825341
 20
357.276134
 30
0.0
 11
235.825341
 21
360.276134
 31
0.0
  0
LINE
  8
LC-009-005-----0
  6
CONTINUOUS
  5
749
 10
259.560914
 20
384.011708
 30
0.0
 11
261.560914
 21
386.011708
 31
0.0
  0
LINE
  8
LC-009-005-----0
  6
CONTINUOUS
  5
74A
 10
229.996914
 20
357.276134
 30
0.0
 11
232.996914
 21
360.276134
 31
0.0
  0
LINE
  8
LC-009-005-----0
  6
CONTINUOUS
  5
74B
 10
259.560914
 20
386.840135
 30
0.0
 11
261.560914
 21
388.840135
 31
0.0
  0
LINE
  8
LC-009-005-----0
  6
CONTINUOUS
  5
74C
 10
227.168487
 20
357.276134
 30
0.0
 11
230.168487
 21
360.276134
 31
0.0
  0
LINE
  8
LC-009-005-----0
  6
CONTINUOUS
  5
74D
 10
259.560914
 20
389.668562
 30
0.0
 11
261.560914
 21
391.668562
 31
0.0
  0
LINE
  8
LC-009-005-----0
  6
CONTINUOUS
  5
74E
 10
224.34006
 20
357.276134
 30
0.0
 11
227.34006
 21
360.276134
 31
0.0
  0
LINE
  8
LC-009-005-----0
  6
CONTINUOUS
  5
74F
 10
259.560914
 20
392.496989
 30
0.0
 11
261.560914
 21
394.496989
 31
0.0
  0
LINE
  8
LC-009-005-----0
  6
CONTINUOUS
  5
750
 10
221.511632
 20
357.276134
 30
0.0
 11
224.511632
 21
360.276134
 31
0.0
  0
LINE
  8
LC-009-005-----0
  6
CONTINUOUS
  5
751
 10
259.560914
 20
395.325416
 30
0.0
 11
261.560914
 21
397.325416
 31
0.0
  0
LINE
  8
LC-009-005-----0
  6
CONTINUOUS
  5
752
 10
218.683205
 20
357.276134
 30
0.0
 11
221.683205
 21
360.276134
 31
0.0
  0
LINE
  8
LC-009-005-----0
  6
CONTINUOUS
  5
753
 10
259.560914
 20
398.153843
 30
0.0
 11
261.560914
 21
400.153843
 31
0.0
  0
LINE
  8
LC-009-005-----0
  6
CONTINUOUS
  5
754
 10
215.854778
 20
357.276134
 30
0.0
 11
218.854778
 21
360.276134
 31
0.0
  0
LINE
  8
LC-009-005-----0
  6
CONTINUOUS
  5
755
 10
259.560914
 20
400.982271
 30
0.0
 11
261.560914
 21
402.982271
 31
0.0
  0
LINE
  8
LC-009-005-----0
  6
CONTINUOUS
  5
756
 10
213.026351
 20
357.276134
 30
0.0
 11
216.026351
 21
360.276134
 31
0.0
  0
LINE
  8
LC-009-005-----0
  6
CONTINUOUS
  5
757
 10
259.560914
 20
403.810698
 30
0.0
 11
261.560914
 21
405.810698
 31
0.0
  0
LINE
  8
LC-009-005-----0
  6
CONTINUOUS
  5
758
 10
210.197924
 20
357.276134
 30
0.0
 11
213.197924
 21
360.276134
 31
0.0
  0
LINE
  8
LC-009-005-----0
  6
CONTINUOUS
  5
759
 10
259.560914
 20
406.639125
 30
0.0
 11
261.560914
 21
408.639125
 31
0.0
  0
LINE
  8
LC-009-005-----0
  6
CONTINUOUS
  5
75A
 10
207.369497
 20
357.276134
 30
0.0
 11
210.369497
 21
360.276134
 31
0.0
  0
LINE
  8
LC-009-005-----0
  6
CONTINUOUS
  5
75B
 10
259.560914
 20
409.467552
 30
0.0
 11
261.560914
 21
411.467552
 31
0.0
  0
LINE
  8
LC-009-005-----0
  6
CONTINUOUS
  5
75C
 10
204.54107
 20
357.276134
 30
0.0
 11
207.54107
 21
360.276134
 31
0.0
  0
LINE
  8
LC-009-005-----0
  6
CONTINUOUS
  5
75D
 10
259.560914
 20
412.295979
 30
0.0
 11
261.560914
 21
414.295979
 31
0.0
  0
LINE
  8
LC-009-005-----0
  6
CONTINUOUS
  5
75E
 10
201.712643
 20
357.276134
 30
0.0
 11
204.712643
 21
360.276134
 31
0.0
  0
LINE
  8
LC-009-005-----0
  6
CONTINUOUS
  5
75F
 10
259.560914
 20
415.124406
 30
0.0
 11
261.560914
 21
417.124406
 31
0.0
  0
LINE
  8
LC-009-005-----0
  6
CONTINUOUS
  5
760
 10
198.884215
 20
357.276134
 30
0.0
 11
201.884215
 21
360.276134
 31
0.0
  0
LINE
  8
LC-009-005-----0
  6
CONTINUOUS
  5
761
 10
259.560914
 20
417.952833
 30
0.0
 11
261.560914
 21
419.952833
 31
0.0
  0
LINE
  8
LC-009-005-----0
  6
CONTINUOUS
  5
762
 10
196.055788
 20
357.276134
 30
0.0
 11
199.055788
 21
360.276134
 31
0.0
  0
LINE
  8
LC-009-005-----0
  6
CONTINUOUS
  5
763
 10
259.560914
 20
420.78126
 30
0.0
 11
261.560914
 21
422.78126
 31
0.0
  0
LINE
  8
LC-009-005-----0
  6
CONTINUOUS
  5
764
 10
193.227361
 20
357.276134
 30
0.0
 11
196.227361
 21
360.276134
 31
0.0
  0
LINE
  8
LC-009-005-----0
  6
CONTINUOUS
  5
765
 10
259.560914
 20
423.609688
 30
0.0
 11
261.560914
 21
425.609688
 31
0.0
  0
LINE
  8
LC-009-005-----0
  6
CONTINUOUS
  5
766
 10
190.398934
 20
357.276134
 30
0.0
 11
193.398934
 21
360.276134
 31
0.0
  0
LINE
  8
LC-009-005-----0
  6
CONTINUOUS
  5
767
 10
187.570507
 20
357.276134
 30
0.0
 11
190.570507
 21
360.276134
 31
0.0
  0
LINE
  8
LC-009-005-----0
  6
CONTINUOUS
  5
768
 10
184.74208
 20
357.276134
 30
0.0
 11
188.800309
 21
361.334363
 31
0.0
  0
LINE
  8
LC-009-005-----0
  6
CONTINUOUS
  5
769
 10
181.913653
 20
357.276134
 30
0.0
 11
188.800309
 21
364.162791
 31
0.0
  0
LINE
  8
LC-009-005-----0
  6
CONTINUOUS
  5
76A
 10
179.085226
 20
357.276134
 30
0.0
 11
182.09385
 21
360.284758
 31
0.0
  0
LINE
  8
LC-009-005-----0
  6
CONTINUOUS
  5
76B
 10
186.791685
 20
364.982594
 30
0.0
 11
188.800309
 21
366.991218
 31
0.0
  0
LINE
  8
LC-009-005-----0
  6
CONTINUOUS
  5
76C
 10
176.256798
 20
357.276134
 30
0.0
 11
179.256798
 21
360.276134
 31
0.0
  0
LINE
  8
LC-009-005-----0
  6
CONTINUOUS
  5
76D
 10
186.800309
 20
367.819645
 30
0.0
 11
188.800309
 21
369.819645
 31
0.0
  0
LINE
  8
LC-009-005-----0
  6
CONTINUOUS
  5
76E
 10
173.428371
 20
357.276134
 30
0.0
 11
176.428371
 21
360.276134
 31
0.0
  0
LINE
  8
LC-009-005-----0
  6
CONTINUOUS
  5
76F
 10
186.800309
 20
370.648072
 30
0.0
 11
188.800309
 21
372.648072
 31
0.0
  0
LINE
  8
LC-009-005-----0
  6
CONTINUOUS
  5
770
 10
170.599944
 20
357.276134
 30
0.0
 11
173.599944
 21
360.276134
 31
0.0
  0
LINE
  8
LC-009-005-----0
  6
CONTINUOUS
  5
771
 10
186.800309
 20
373.476499
 30
0.0
 11
188.800309
 21
375.476499
 31
0.0
  0
LINE
  8
LC-009-005-----0
  6
CONTINUOUS
  5
772
 10
167.771517
 20
357.276134
 30
0.0
 11
170.771517
 21
360.276134
 31
0.0
  0
LINE
  8
LC-009-005-----0
  6
CONTINUOUS
  5
773
 10
186.800309
 20
376.304926
 30
0.0
 11
187.683685
 21
377.188302
 31
0.0
  0
LINE
  8
LC-009-005-----0
  6
CONTINUOUS
  5
774
 10
164.94309
 20
357.276134
 30
0.0
 11
167.94309
 21
360.276134
 31
0.0
  0
LINE
  8
LC-009-005-----0
  6
CONTINUOUS
  5
775
 10
162.114663
 20
357.276134
 30
0.0
 11
165.114663
 21
360.276134
 31
0.0
  0
LINE
  8
LC-009-005-----0
  6
CONTINUOUS
  5
776
 10
159.286236
 20
357.276134
 30
0.0
 11
162.286236
 21
360.276134
 31
0.0
  0
LINE
  8
LC-009-005-----0
  6
CONTINUOUS
  5
777
 10
156.457809
 20
357.276134
 30
0.0
 11
159.457809
 21
360.276134
 31
0.0
  0
LINE
  8
LC-009-005-----0
  6
CONTINUOUS
  5
778
 10
153.629381
 20
357.276134
 30
0.0
 11
156.629381
 21
360.276134
 31
0.0
  0
LINE
  8
LC-009-005-----0
  6
CONTINUOUS
  5
779
 10
152.560914
 20
359.036094
 30
0.0
 11
155.560914
 21
362.036094
 31
0.0
  0
LINE
  8
LC-009-005-----0
  6
CONTINUOUS
  5
77A
 10
152.560914
 20
361.864522
 30
0.0
 11
155.560914
 21
364.864522
 31
0.0
  0
LINE
  8
LC-009-005-----0
  6
CONTINUOUS
  5
77B
 10
152.560914
 20
364.692949
 30
0.0
 11
155.560914
 21
367.692949
 31
0.0
  0
LINE
  8
LC-009-005-----0
  6
CONTINUOUS
  5
77C
 10
152.560914
 20
367.521376
 30
0.0
 11
155.560914
 21
370.521376
 31
0.0
  0
LINE
  8
LC-014-205-----0
  6
CONTINUOUS
  5
77E
 10
160.360835
 20
436.274474
 30
0.0
 11
209.23391
 21
436.274474
 31
0.0
  0
LINE
  8
LC-014-205-----0
  6
CONTINUOUS
  5
77F
 10
153.260835
 20
436.274474
 30
0.0
 11
160.360835
 21
436.274474
 31
0.0
  0
LINE
  8
LC-014-205-----0
  6
CONTINUOUS
  5
780
 10
160.360857
 20
428.774481
 30
0.0
 11
160.360835
 21
436.269206
 31
0.0
  0
LINE
  8
LC-014-205-----0
  6
CONTINUOUS
  5
781
 10
156.06066
 20
376.245012
 30
0.0
 11
177.060914
 21
376.245012
 31
0.0
  0
LINE
  8
LC-014-205-----0
  6
CONTINUOUS
  5
782
 10
157.060652
 20
376.245012
 30
0.0
 11
157.060661
 21
390.580085
 31
0.0
  0
LINE
  8
LC-014-205-----0
  6
CONTINUOUS
  5
783
 10
157.060669
 20
390.580085
 30
0.0
 11
157.060692
 21
425.774475
 31
0.0
  0
LINE
  8
LC-002-002-----0
  6
CONTINUOUS
  5
784
 10
210.587917
 20
449.08754
 30
0.0
 11
209.23391
 21
436.274474
 31
0.0
  0
LINE
  8
LC-002-002-----0
  6
CONTINUOUS
  5
785
 10
212.563
 20
448.614641
 30
0.0
 11
212.563
 21
425.434392
 31
0.0
  0
ARC
  8
LC-015-205-RND-0
  6
CONTINUOUS
  5
787
 10
215.063
 20
448.614641
 30
0.0
 40
2.5
 50
92.0
 51
180.0
  0
ARC
  8
LC-015-205-RND-0
  6
CONTINUOUS
  5
788
 10
215.063
 20
448.614641
 30
0.0
 40
4.5
 50
88.0
 51
173.967717
  0
LINE
  8
LC-002-002-----0
  6
CONTINUOUS
  5
789
 10
255.508536
 20
451.111292
 30
0.0
 11
266.760705
 21
451.111292
 31
0.0
  0
LINE
  8
LC-002-002-----0
  6
DASHDOT
 62
     2
  5
78A
 10
238.158536
 20
457.24391
 30
0.0
 11
238.158536
 21
447.807382
 31
0.0
  0
ARC
  8
LC-005-002-RND-0
  6
CONTINUOUS
  5
78B
 10
266.760705
 20
444.111292
 30
0.0
 40
7.0
 50
359.999987
 51
90.0
  0
LINE
  8
LC-002-002-----0
  6
CONTINUOUS
  5
78C
 10
215.220047
 20
453.117382
 30
0.0
 11
220.608536
 21
453.117382
 31
0.0
  0
LINE
  8
LC-002-002-----0
  6
CONTINUOUS
  5
78D
 10
220.608536
 20
453.117382
 30
0.0
 11
220.808536
 21
453.117382
 31
0.0
  0
LINE
  8
LC-014-205-----0
  6
CONTINUOUS
  5
78E
 10
273.760702
 20
430.368885
 30
0.0
 11
273.760705
 21
444.11129
 31
0.0
  0
LINE
  8
LC-002-002-----0
  6
CONTINUOUS
  5
78F
 10
280.861005
 20
436.2744
 30
0.0
 11
280.861005
 21
435.574389
 31
0.0
  0
ARC
  8
LC-005-002-RND-0
  6
CONTINUOUS
  5
790
 10
267.387105
 20
444.117382
 30
0.0
 40
9.0
 50
5.652944
 51
90.0
  0
LINE
  8
LC-014-205-----0
  6
CONTINUOUS
  5
791
 10
276.343336
 20
445.003904
 30
0.0
 11
277.207409
 21
436.274474
 31
0.0
  0
ARC
  8
LC-014-205-----0
  6
CONTINUOUS
  5
792
 10
276.260974
 20
428.774391
 30
0.0
 40
2.5
 50
179.999761
 51
270.0
  0
ARC
  8
LC-014-205-----0
  6
CONTINUOUS
  5
793
 10
280.360993
 20
426.974392
 30
0.0
 40
0.5
 50
359.999925
 51
89.999925
  0
LINE
  8
LC-014-205-----0
  6
CONTINUOUS
  5
794
 10
273.760974
 20
428.774401
 30
0.0
 11
273.761005
 21
436.269132
 31
0.0
  0
ARC
  8
LC-014-205-----0
  6
CONTINUOUS
  5
795
 10
276.26097
 20
427.974397
 30
0.0
 40
0.5
 50
179.999761
 51
269.999925
  0
LINE
  8
LC-014-205-----0
  6
CONTINUOUS
  5
796
 10
280.360993
 20
427.474392
 30
0.0
 11
276.26097
 21
427.474397
 31
0.0
  0
ARC
  8
LC-014-205-----0
  6
CONTINUOUS
  5
797
 10
276.260998
 20
434.574397
 30
0.0
 40
0.5
 50
89.999925
 51
179.999761
  0
ARC
  8
LC-014-205-----0
  6
CONTINUOUS
  5
798
 10
280.361002
 20
435.574392
 30
0.0
 40
0.5
 50
269.999925
 51
359.999761
  0
LINE
  8
LC-014-205-----0
  6
CONTINUOUS
  5
799
 10
280.361001
 20
435.074392
 30
0.0
 11
276.260999
 21
435.074397
 31
0.0
  0
LINE
  8
LC-014-205-----0
  6
CONTINUOUS
  5
79A
 10
277.207409
 20
436.2744
 30
0.0
 11
280.861005
 21
436.2744
 31
0.0
  0
LINE
  8
LC-002-002-----0
  6
CONTINUOUS
  5
79B
 10
215.045656
 20
451.111292
 30
0.0
 11
220.808536
 21
451.111292
 31
0.0
  0
LINE
  8
LC-002-002-----0
  6
CONTINUOUS
  5
79C
 10
220.808536
 20
451.111292
 30
0.0
 11
218.258536
 21
451.111292
 31
0.0
  0
ARC
  8
LC-014-205-----0
  6
CONTINUOUS
  5
79D
 10
157.860857
 20
428.774474
 30
0.0
 40
2.5
 50
270.0
 51
0.000164
  0
ARC
  8
LC-014-205-----0
  6
CONTINUOUS
  5
79E
 10
157.860859
 20
427.974474
 30
0.0
 40
0.5
 50
270.0
 51
0.000164
  0
ARC
  8
LC-014-205-----0
  6
CONTINUOUS
  5
79F
 10
157.560692
 20
425.774474
 30
0.0
 40
0.5
 50
90.0
 51
179.999963
  0
LINE
  8
LC-014-205-----0
  6
CONTINUOUS
  5
7A0
 10
157.560692
 20
426.274474
 30
0.0
 11
157.860857
 21
426.274474
 31
0.0
  0
LINE
  8
LC-014-205-----0
  6
CONTINUOUS
  5
7A1
 10
153.760835
 20
427.474474
 30
0.0
 11
157.860859
 21
427.474474
 31
0.0
  0
ARC
  8
LC-014-205-----0
  6
CONTINUOUS
  5
7A2
 10
157.86084
 20
434.574474
 30
0.0
 40
0.5
 50
0.000164
 51
90.0
  0
LINE
  8
LC-014-205-----0
  6
CONTINUOUS
  5
7A3
 10
153.760837
 20
435.074474
 30
0.0
 11
157.86084
 21
435.074474
 31
0.0
  0
ARC
  8
LC-014-205-----0
  6
CONTINUOUS
  5
7A4
 10
153.760835
 20
426.974474
 30
0.0
 40
0.5
 50
90.0
 51
180.0
  0
ARC
  8
LC-014-205-----0
  6
CONTINUOUS
  5
7A5
 10
153.760837
 20
435.574474
 30
0.0
 40
0.5
 50
180.000164
 51
270.0
  0
LINE
  8
LC-014-205-----0
  6
CONTINUOUS
  5
7A6
 10
156.06066
 20
376.245012
 30
0.0
 11
156.060692
 21
425.774474
 31
0.0
  0
ARC
  8
LC-014-205-----0
  6
CONTINUOUS
  5
7A7
 10
155.560692
 20
425.774474
 30
0.0
 40
0.5
 50
359.999963
 51
85.018931
  0
LINE
  8
LC-014-205-----0
  6
CONTINUOUS
  5
7A8
 10
153.260835
 20
426.270158
 30
0.0
 11
153.260835
 21
426.974474
 31
0.0
  0
LINE
  8
LC-014-205-----0
  6
CONTINUOUS
  5
7A9
 10
153.260837
 20
435.574473
 30
0.0
 11
153.260835
 21
436.269206
 31
0.0
  0
LINE
  8
LC-002-002-----0
  6
CONTINUOUS
  5
7AA
 10
210.099532
 20
425.434392
 30
0.0
 11
204.901496
 21
376.245012
 31
0.0
  0
LINE
  8
LC-014-205-----0
  6
CONTINUOUS
  5
7AB
 10
280.860992
 20
426.274391
 30
0.0
 11
280.860993
 21
426.974391
 31
0.0
  0
LINE
  8
LC-002-002-----0
  6
CONTINUOUS
  5
7AC
 10
210.099532
 20
425.434392
 30
0.0
 11
212.563
 21
425.434392
 31
0.0
  0
LINE
  8
LC-014-205-----0
  6
CONTINUOUS
  5
7AD
 10
158.360859
 20
427.974476
 30
0.0
 11
158.360853
 21
430.224474
 31
0.0
  0
LINE
  8
LC-002-002-----0
  6
CONTINUOUS
  5
7AE
 10
255.508536
 20
453.117382
 30
0.0
 11
267.387105
 21
453.117382
 31
0.0
  0
LINE
  8
LC-014-205-----0
  6
CONTINUOUS
  5
7AF
 10
158.360847
 20
432.324482
 30
0.0
 11
158.36084
 21
434.574476
 31
0.0
  0
LINE
  8
LC-002-002-----0
  6
DASHDOT
 62
     2
  5
7B0
 10
238.158536
 20
457.24391
 30
0.0
 11
238.158536
 21
447.807382
 31
0.0
  0
LINE
  8
LC-002-002-----0
  6
CONTINUOUS
  5
7B1
 10
215.220047
 20
453.117382
 30
0.0
 11
220.608536
 21
453.117382
 31
0.0
  0
LINE
  8
LC-002-002-----0
  6
CONTINUOUS
  5
7B2
 10
220.608536
 20
453.117382
 30
0.0
 11
220.808536
 21
453.117382
 31
0.0
  0
LINE
  8
LC-002-002-----0
  6
CONTINUOUS
  5
7B3
 10
215.045656
 20
451.111292
 30
0.0
 11
220.808536
 21
451.111292
 31
0.0
  0
LINE
  8
LC-002-002-----0
  6
CONTINUOUS
  5
7B4
 10
220.808536
 20
451.111292
 30
0.0
 11
218.258536
 21
451.111292
 31
0.0
  0
LINE
  8
LC-002-002-----0
  6
CONTINUOUS
  5
7B5
 10
216.658536
 20
457.307382
 30
0.0
 11
259.658536
 21
457.307382
 31
0.0
  0
LINE
  8
LC-002-002-----0
  6
CONTINUOUS
  5
7B6
 10
216.658536
 20
457.307382
 30
0.0
 11
216.658536
 21
453.114641
 31
0.0
  0
LINE
  8
LC-002-002-----0
  6
CONTINUOUS
  5
7B7
 10
259.658536
 20
457.307382
 30
0.0
 11
259.658536
 21
453.117382
 31
0.0
  0
LINE
  8
LC-002-002-----0
  6
CONTINUOUS
  5
7B8
 10
255.508536
 20
454.307382
 30
0.0
 11
255.508536
 21
451.107382
 31
0.0
  0
LINE
  8
LC-002-002-----0
  6
CONTINUOUS
  5
7B9
 10
220.808536
 20
454.307382
 30
0.0
 11
220.808536
 21
451.107382
 31
0.0
  0
LINE
  8
LC-002-002-----0
  6
CONTINUOUS
  5
7BA
 10
258.058536
 20
451.107382
 30
0.0
 11
258.058536
 21
447.807382
 31
0.0
  0
LINE
  8
LC-002-002-----0
  6
CONTINUOUS
  5
7BB
 10
258.058536
 20
447.807382
 30
0.0
 11
218.258536
 21
447.807382
 31
0.0
  0
LINE
  8
LC-002-002-----0
  6
CONTINUOUS
  5
7BC
 10
218.258536
 20
451.107382
 30
0.0
 11
218.258536
 21
447.807382
 31
0.0
  0
LINE
  8
LC-002-002-----0
  6
CONTINUOUS
  5
7BD
 10
216.658536
 20
454.307382
 30
0.0
 11
220.808536
 21
454.307382
 31
0.0
  0
LINE
  8
LC-002-002-----0
  6
CONTINUOUS
  5
7BE
 10
255.508536
 20
454.307382
 30
0.0
 11
259.658536
 21
454.307382
 31
0.0
  0
LINE
  8
LC-002-002-----0
  6
CONTINUOUS
  5
7BF
 10
253.508536
 20
455.19609
 30
0.0
 11
253.508536
 21
447.807382
 31
0.0
  0
LINE
  8
LC-002-002-----0
  6
CONTINUOUS
  5
7C0
 10
222.808536
 20
455.19609
 30
0.0
 11
222.808536
 21
447.807382
 31
0.0
  0
ARC
  8
LC-002-002-----0
  6
CONTINUOUS
  5
7C1
 10
238.158536
 20
500.63329
 30
0.0
 40
45.964734
 50
250.491197
 51
289.440613
  0
ARC
  8
LC-002-002-----0
  6
CONTINUOUS
  5
7C2
 10
238.158536
 20
500.63329
 30
0.0
 40
47.96
 50
251.333544
 51
288.666456
  0
ARC
  8
LC-002-002-----0
  6
CONTINUOUS
  5
7C3
 10
155.611187
 20
432.324474
 30
0.0
 40
2.75
 50
0.000164
 51
176.699173
  0
ARC
  8
LC-002-002-----0
  6
CONTINUOUS
  5
7C4
 10
155.611187
 20
430.224474
 30
0.0
 40
2.75
 50
180.0
 51
0.0
  0
LINE
  8
LC-002-002-----0
  6
CONTINUOUS
  5
7C5
 10
152.861187
 20
432.483078
 30
0.0
 11
152.861187
 21
430.247647
 31
0.0
  0
LINE
  8
LC-002-002-----0
  6
CONTINUOUS
  5
7C6
 10
158.361187
 20
432.324482
 30
0.0
 11
158.361187
 21
430.224474
 31
0.0
  0
ARC
  8
LC-002-002-----0
  6
CONTINUOUS
  5
7C7
 10
278.490962
 20
432.324314
 30
0.0
 40
2.75
 50
352.068577
 51
179.999761
  0
ARC
  8
LC-002-002-----0
  6
CONTINUOUS
  5
7C8
 10
278.49097
 20
430.224394
 30
0.0
 40
2.75
 50
180.0
 51
0.0
  0
LINE
  8
LC-002-002-----0
  6
CONTINUOUS
  5
7C9
 10
155.604105
 20
426.272586
 30
0.0
 11
153.260835
 21
426.270158
 31
0.0
  0
LINE
  8
LC-002-002-----0
  6
CONTINUOUS
  5
7CA
 10
275.760998
 20
434.574399
 30
0.0
 11
275.76097
 21
427.974399
 31
0.0
  0
LINE
  8
LC-002-002-----0
  6
CONTINUOUS
  5
7CB
 10
281.214655
 20
431.944847
 30
0.0
 11
281.24097
 21
430.224394
 31
0.0
  0
LINE
  8
LC-002-002-----0
  6
CONTINUOUS
  5
7CC
 10
276.260974
 20
426.274391
 30
0.0
 11
280.860992
 21
426.274391
 31
0.0
  0
LINE
  8
LC-002-002-----0
  6
CONTINUOUS
  5
7CD
 10
152.881911
 20
434.193022
 30
0.0
 11
152.881911
 21
428.35215
 31
0.0
  0
LINE
  8
LC-002-002-----0
  6
CONTINUOUS
  5
7CE
 10
281.239909
 20
434.193028
 30
0.0
 11
281.239909
 21
428.352144
 31
0.0
  0
LINE
  8
LC-002-002-----0
  6
CONTINUOUS
  5
7CF
 10
209.23391
 20
436.274474
 30
0.0
 11
202.91257
 21
376.45519
 31
0.0
  0
LINE
  8
LC-002-002-----0
  6
CONTINUOUS
  5
7D0
 10
-32.748693
 20
476.666605
 30
0.0
 11
-32.748693
 21
471.966605
 31
0.0
  0
LINE
  8
LC-002-002-----0
  6
CONTINUOUS
  5
7D1
 10
-22.748693
 20
476.666605
 30
0.0
 11
-22.748693
 21
471.966605
 31
0.0
  0
LINE
  8
LC-002-002-----0
  6
CONTINUOUS
  5
7D2
 10
-12.748693
 20
476.666605
 30
0.0
 11
-12.748693
 21
471.966605
 31
0.0
  0
LINE
  8
LC-002-002-----0
  6
CONTINUOUS
  5
7D3
 10
-2.748693
 20
476.666605
 30
0.0
 11
-2.748693
 21
471.966605
 31
0.0
  0
LINE
  8
LC-002-002-----0
  6
CONTINUOUS
  5
7D4
 10
7.251307
 20
476.666605
 30
0.0
 11
7.251307
 21
471.966605
 31
0.0
  0
LINE
  8
LC-002-002-----0
  6
CONTINUOUS
  5
7D5
 10
17.251307
 20
476.666605
 30
0.0
 11
17.251307
 21
471.966605
 31
0.0
  0
LINE
  8
LC-002-002-----0
  6
CONTINUOUS
  5
7D6
 10
27.251307
 20
476.666605
 30
0.0
 11
27.251307
 21
471.966605
 31
0.0
  0
LINE
  8
LC-002-002-----0
  6
CONTINUOUS
  5
7D7
 10
37.251307
 20
476.666605
 30
0.0
 11
37.251307
 21
471.966605
 31
0.0
  0
LINE
  8
LC-002-002-----0
  6
CONTINUOUS
  5
7D8
 10
47.251307
 20
476.666605
 30
0.0
 11
47.251307
 21
471.966605
 31
0.0
  0
LINE
  8
LC-002-002-----0
  6
CONTINUOUS
  5
7D9
 10
57.251307
 20
476.666605
 30
0.0
 11
57.251307
 21
471.966605
 31
0.0
  0
LINE
  8
LC-002-002-----0
  6
CONTINUOUS
  5
7DA
 10
66.597038
 20
471.966605
 30
0.0
 11
-32.748693
 21
471.966605
 31
0.0
  0
LINE
  8
LC-002-002-----0
  6
CONTINUOUS
  5
7DB
 10
67.251307
 20
476.595371
 30
0.0
 11
67.251307
 21
471.920854
 31
0.0
  0
LINE
  8
LC-002-002-----0
  6
CONTINUOUS
  5
7DC
 10
77.251307
 20
475.902224
 30
0.0
 11
77.251307
 21
471.221587
 31
0.0
  0
LINE
  8
LC-002-002-----0
  6
CONTINUOUS
  5
7DD
 10
87.251307
 20
475.209077
 30
0.0
 11
87.251307
 21
470.522319
 31
0.0
  0
LINE
  8
LC-002-002-----0
  6
CONTINUOUS
  5
7DE
 10
97.251307
 20
474.515929
 30
0.0
 11
97.251307
 21
469.823052
 31
0.0
  0
LINE
  8
LC-002-002-----0
  6
CONTINUOUS
  5
7DF
 10
117.251307
 20
471.106858
 30
0.0
 11
117.251307
 21
466.39631
 31
0.0
  0
LINE
  8
LC-002-002-----0
  6
CONTINUOUS
  5
7E0
 10
109.259531
 20
473.94548
 30
0.0
 11
324.862298
 21
473.94548
 31
0.0
  0
ARC
  8
LC-002-002-----0
  6
CONTINUOUS
  5
7E1
 10
114.699022
 20
478.351378
 30
0.0
 40
7.0
 50
219.006904
 51
266.0
  0
ARC
  8
LC-002-002-----0
  6
CONTINUOUS
  5
7E2
 10
114.699022
 20
478.351378
 30
0.0
 40
6.3
 50
224.378071
 51
266.0
  0
LINE
  8
LC-002-002-----0
  6
CONTINUOUS
  5
7E3
 10
114.210726
 20
471.36843
 30
0.0
 11
131.937986
 21
470.128819
 31
0.0
  0
LINE
  8
LC-002-002-----0
  6
CONTINUOUS
  5
7E4
 10
114.25734
 20
472.056299
 30
0.0
 11
131.986815
 21
470.816533
 31
0.0
  0
ARC
  8
LC-005-002-RND-0
  6
CONTINUOUS
  5
7E5
 10
131.49852
 20
463.833585
 30
0.0
 40
7.0
 50
0.0
 51
86.0
  0
ARC
  8
LC-005-002-RND-0
  6
CONTINUOUS
  5
7E6
 10
131.49852
 20
463.844165
 30
0.0
 40
6.3
 50
0.0
 51
86.0
  0
LINE
  8
LC-002-002-----0
  6
CONTINUOUS
  5
7E7
 10
137.79852
 20
463.844165
 30
0.0
 11
137.79852
 21
450.156122
 31
0.0
  0
ARC
  8
LC-002-002-----0
  6
CONTINUOUS
  5
7E8
 10
141.29852
 20
450.156122
 30
0.0
 40
3.5
 50
180.0
 51
270.0
  0
ARC
  8
LC-002-002-----0
  6
CONTINUOUS
  5
7E9
 10
141.29852
 20
450.156122
 30
0.0
 40
2.8
 50
180.0
 51
270.0
  0
ARC
  8
LC-002-002-----0
  6
CONTINUOUS
  5
7EA
 10
141.2988
 20
446.35649
 30
0.0
 40
1.0
 50
359.99972
 51
89.99972
  0
ARC
  8
LC-002-002-----0
  6
CONTINUOUS
  5
7EB
 10
141.2988
 20
446.35649
 30
0.0
 40
0.3
 50
359.99972
 51
89.99972
  0
LINE
  8
LC-002-002-----0
  6
CONTINUOUS
  5
7EC
 10
141.59852
 20
446.356122
 30
0.0
 11
141.59852
 21
444.056122
 31
0.0
  0
LINE
  8
LC-002-002-----0
  6
CONTINUOUS
  5
7ED
 10
142.29852
 20
446.356122
 30
0.0
 11
142.29852
 21
444.056122
 31
0.0
  0
ARC
  8
LC-002-002-----0
  6
CONTINUOUS
  5
7EE
 10
141.299042
 20
444.056122
 30
0.0
 40
0.3
 50
270.0
 51
0.0
  0
ARC
  8
LC-002-002-----0
  6
CONTINUOUS
  5
7EF
 10
141.29852
 20
444.056122
 30
0.0
 40
1.0
 50
270.0
 51
0.0
  0
ARC
  8
LC-002-002-----0
  6
CONTINUOUS
  5
7F0
 10
141.29852
 20
442.256122
 30
0.0
 40
1.5
 50
90.0
 51
180.0
  0
ARC
  8
LC-002-002-----0
  6
CONTINUOUS
  5
7F1
 10
141.29852
 20
442.256122
 30
0.0
 40
0.8
 50
90.0
 51
180.0
  0
ARC
  8
LC-002-002-----0
  6
CONTINUOUS
  5
7F2
 10
141.29852
 20
442.256122
 30
0.0
 40
1.5
 50
180.0
 51
270.0
  0
ARC
  8
LC-002-002-----0
  6
CONTINUOUS
  5
7F3
 10
141.29852
 20
442.256122
 30
0.0
 40
0.8
 50
180.0
 51
270.0
  0
LINE
  8
LC-002-002-----0
  6
CONTINUOUS
  5
7F4
 10
141.29852
 20
441.456122
 30
0.0
 11
144.09852
 21
441.456122
 31
0.0
  0
LINE
  8
LC-002-002-----0
  6
CONTINUOUS
  5
7F5
 10
141.29852
 20
440.756122
 30
0.0
 11
144.09852
 21
440.756122
 31
0.0
  0
LINE
  8
LC-002-002-----0
  6
CONTINUOUS
  5
7F6
 10
144.09852
 20
440.756122
 30
0.0
 11
144.09852
 21
441.456122
 31
0.0
  0
LINE
  8
LC-002-002-----0
  6
CONTINUOUS
  5
7F7
 10
125.214526
 20
470.528176
 30
0.0
 11
117.251307
 21
471.106858
 31
0.0
  0
LINE
  8
LC-002-002-----0
  6
CONTINUOUS
  5
7F8
 10
125.213003
 20
465.817739
 30
0.0
 11
125.213003
 21
470.528176
 31
0.0
  0
LINE
  8
LC-002-002-----0
  6
CONTINUOUS
  5
7F9
 10
107.251307
 20
473.677222
 30
0.0
 11
107.251307
 21
468.387982
 31
0.0
  0
ARC
  8
LC-002-002-----0
  6
CONTINUOUS
  5
7FA
 10
116.800589
 20
489.708654
 30
0.0
 40
23.361504
 50
244.207797
 51
259.497843
  0
LINE
  8
LC-002-002-----0
  6
CONTINUOUS
  5
7FB
 10
117.251307
 20
471.106858
 30
0.0
 11
113.184457
 21
471.402393
 31
0.0
  0
LINE
  8
LC-002-002-----0
  6
CONTINUOUS
  5
7FC
 10
117.251307
 20
466.39631
 30
0.0
 11
112.542428
 21
466.738501
 31
0.0
  0
LINE
  8
LC-002-002-----0
  6
CONTINUOUS
  5
7FD
 10
66.223609
 20
476.666605
 30
0.0
 11
-32.748693
 21
476.666605
 31
0.0
  0
LINE
  8
LC-002-002-----0
  6
CONTINUOUS
  5
7FE
 10
66.223609
 20
476.666605
 30
0.0
 11
77.251307
 21
475.902224
 31
0.0
  0
ARC
  8
LC-002-002-----0
  6
CONTINUOUS
  5
7FF
 10
116.800589
 20
489.708654
 30
0.0
 40
18.66
 50
238.247327
 51
258.82592
  0
LINE
  8
LC-002-002-----0
  6
CONTINUOUS
  5
800
 10
77.251307
 20
475.902224
 30
0.0
 11
106.980697
 21
473.84154
 31
0.0
  0
LINE
  8
LC-002-002-----0
  6
CONTINUOUS
  5
801
 10
77.249193
 20
471.191093
 30
0.0
 11
105.560914
 21
469.228674
 31
0.0
  0
LINE
  8
LC-002-002-----0
  6
CONTINUOUS
  5
802
 10
295.560914
 20
450.356789
 30
0.0
 11
292.560914
 21
447.356789
 31
0.0
  0
LINE
  8
LC-002-002-----0
  6
CONTINUOUS
  5
803
 10
285.560914
 20
447.356789
 30
0.0
 11
285.560914
 21
449.856789
 31
0.0
  0
LINE
  8
LC-002-002-----0
  6
CONTINUOUS
  5
804
 10
293.060914
 20
466.356433
 30
0.0
 11
291.560914
 21
466.356433
 31
0.0
  0
LINE
  8
LC-002-002-----0
  6
CONTINUOUS
  5
805
 10
293.060914
 20
449.856789
 30
0.0
 11
293.060914
 21
467.356433
 31
0.0
  0
ARC
  8
LC-005-002-RND-0
  6
CONTINUOUS
  5
806
 10
291.560914
 20
464.356433
 30
0.0
 40
2.0
 50
90.0
 51
180.0
  0
LINE
  8
LC-002-002-----0
  6
CONTINUOUS
  5
807
 10
280.133655
 20
447.356789
 30
0.0
 11
280.133655
 21
449.856789
 31
0.0
  0
LINE
  8
LC-002-002-----0
  6
CONTINUOUS
  5
808
 10
274.31958
 20
449.856789
 30
0.0
 11
293.060914
 21
449.856789
 31
0.0
  0
LINE
  8
LC-002-002-----0
  6
CONTINUOUS
  5
809
 10
138.560914
 20
450.356789
 30
0.0
 11
141.560914
 21
447.356789
 31
0.0
  0
LINE
  8
LC-002-002-----0
  6
CONTINUOUS
  5
80A
 10
148.560914
 20
447.356789
 30
0.0
 11
148.560914
 21
449.856789
 31
0.0
  0
LINE
  8
LC-002-002-----0
  6
CONTINUOUS
  5
80B
 10
141.060914
 20
466.356433
 30
0.0
 11
142.560914
 21
466.356433
 31
0.0
  0
LINE
  8
LC-002-002-----0
  6
CONTINUOUS
  5
80C
 10
141.060914
 20
466.356433
 30
0.0
 11
141.060914
 21
467.356433
 31
0.0
  0
ARC
  8
LC-005-002-RND-0
  6
CONTINUOUS
  5
80D
 10
142.560914
 20
464.356433
 30
0.0
 40
2.0
 50
0.0
 51
90.0
  0
LINE
  8
LC-002-002-----0
  6
CONTINUOUS
  5
80E
 10
153.988174
 20
447.356789
 30
0.0
 11
153.988174
 21
449.856789
 31
0.0
  0
LINE
  8
LC-002-002-----0
  6
CONTINUOUS
  5
80F
 10
161.488174
 20
447.356789
 30
0.0
 11
161.488174
 21
449.856789
 31
0.0
  0
LINE
  8
LC-002-002-----0
  6
CONTINUOUS
  5
810
 10
176.315724
 20
447.356789
 30
0.0
 11
176.315724
 21
449.856789
 31
0.0
  0
LINE
  8
LC-002-002-----0
  6
CONTINUOUS
  5
811
 10
172.751209
 20
447.356789
 30
0.0
 11
172.751209
 21
449.856789
 31
0.0
  0
LINE
  8
LC-002-002-----0
  6
CONTINUOUS
  5
812
 10
189.306105
 20
447.356789
 30
0.0
 11
189.306105
 21
449.856789
 31
0.0
  0
LINE
  8
LC-002-002-----0
  6
CONTINUOUS
  5
813
 10
189.306105
 20
449.856789
 30
0.0
 11
172.751209
 21
449.856789
 31
0.0
  0
LINE
  8
LC-002-002-----0
  6
CONTINUOUS
  5
814
 10
161.488174
 20
449.856789
 30
0.0
 11
141.29852
 21
449.856789
 31
0.0
  0
LINE
  8
LC-002-002-----0
  6
CONTINUOUS
  5
815
 10
144.560914
 20
464.356433
 30
0.0
 11
144.560914
 21
449.856789
 31
0.0
  0
LINE
  8
LC-002-002-----0
  6
CONTINUOUS
  5
816
 10
138.560914
 20
467.356433
 30
0.0
 11
138.560914
 21
450.356789
 31
0.0
  0
LINE
  8
LC-002-002-----0
  6
CONTINUOUS
  5
817
 10
146.810914
 20
447.356789
 30
0.0
 11
210.30534
 21
447.356789
 31
0.0
  0
LINE
  8
LC-002-002-----0
  6
CONTINUOUS
  5
818
 10
138.560914
 20
467.356433
 30
0.0
 11
217.060914
 21
467.356433
 31
0.0
  0
LINE
  8
LC-002-002-----0
  6
CONTINUOUS
  5
819
 10
146.810914
 20
447.356789
 30
0.0
 11
141.560914
 21
447.356789
 31
0.0
  0
LINE
  8
LC-002-002-----0
  6
CONTINUOUS
  5
81A
 10
289.560914
 20
464.356433
 30
0.0
 11
289.560914
 21
449.856789
 31
0.0
  0
LINE
  8
LC-002-002-----0
  6
CONTINUOUS
  5
81B
 10
295.560914
 20
467.356433
 30
0.0
 11
295.560914
 21
450.356789
 31
0.0
  0
LINE
  8
LC-002-002-----0
  6
CONTINUOUS
  5
81C
 10
287.310914
 20
447.356789
 30
0.0
 11
275.783905
 21
447.356789
 31
0.0
  0
LINE
  8
LC-002-002-----0
  6
CONTINUOUS
  5
81D
 10
295.560914
 20
467.356433
 30
0.0
 11
217.060914
 21
467.356433
 31
0.0
  0
LINE
  8
LC-002-002-----0
  6
CONTINUOUS
  5
81E
 10
287.310914
 20
447.356789
 30
0.0
 11
292.560914
 21
447.356789
 31
0.0
  0
LINE
  8
LC-002-002-----0
  6
CONTINUOUS
  5
81F
 10
138.49852
 20
463.833585
 30
0.0
 11
138.49852
 21
450.156122
 31
0.0
  0
LINE
  8
LC-002-002-----0
  6
CONTINUOUS
  5
820
 10
141.060914
 20
449.856789
 30
0.0
 11
141.060914
 21
467.356433
 31
0.0
  0
LINE
  8
LC-002-002-----0
  6
CONTINUOUS
  5
821
 10
466.870522
 20
476.666605
 30
0.0
 11
466.870522
 21
471.966605
 31
0.0
  0
LINE
  8
LC-002-002-----0
  6
CONTINUOUS
  5
822
 10
456.870522
 20
476.666605
 30
0.0
 11
456.870522
 21
471.966605
 31
0.0
  0
LINE
  8
LC-002-002-----0
  6
CONTINUOUS
  5
823
 10
446.870522
 20
476.666605
 30
0.0
 11
446.870522
 21
471.966605
 31
0.0
  0
LINE
  8
LC-002-002-----0
  6
CONTINUOUS
  5
824
 10
436.870522
 20
476.666605
 30
0.0
 11
436.870522
 21
471.966605
 31
0.0
  0
LINE
  8
LC-002-002-----0
  6
CONTINUOUS
  5
825
 10
426.870522
 20
476.666605
 30
0.0
 11
426.870522
 21
471.966605
 31
0.0
  0
LINE
  8
LC-002-002-----0
  6
CONTINUOUS
  5
826
 10
416.870522
 20
476.666605
 30
0.0
 11
416.870522
 21
471.966605
 31
0.0
  0
LINE
  8
LC-002-002-----0
  6
CONTINUOUS
  5
827
 10
406.870522
 20
476.666605
 30
0.0
 11
406.870522
 21
471.966605
 31
0.0
  0
LINE
  8
LC-002-002-----0
  6
CONTINUOUS
  5
828
 10
396.870522
 20
476.666605
 30
0.0
 11
396.870522
 21
471.966605
 31
0.0
  0
LINE
  8
LC-002-002-----0
  6
CONTINUOUS
  5
829
 10
386.870522
 20
476.666605
 30
0.0
 11
386.870522
 21
471.966605
 31
0.0
  0
LINE
  8
LC-002-002-----0
  6
CONTINUOUS
  5
82A
 10
376.870522
 20
476.666605
 30
0.0
 11
376.870522
 21
471.966605
 31
0.0
  0
LINE
  8
LC-002-002-----0
  6
CONTINUOUS
  5
82B
 10
367.52479
 20
471.966605
 30
0.0
 11
466.870522
 21
471.966605
 31
0.0
  0
LINE
  8
LC-002-002-----0
  6
CONTINUOUS
  5
82C
 10
367.89822
 20
476.666605
 30
0.0
 11
466.870522
 21
476.666605
 31
0.0
  0
LINE
  8
LC-002-002-----0
  6
CONTINUOUS
  5
82D
 10
366.870522
 20
476.595371
 30
0.0
 11
366.870522
 21
471.920854
 31
0.0
  0
LINE
  8
LC-002-002-----0
  6
CONTINUOUS
  5
82E
 10
356.870522
 20
475.902224
 30
0.0
 11
356.870522
 21
471.221587
 31
0.0
  0
LINE
  8
LC-002-002-----0
  6
CONTINUOUS
  5
82F
 10
346.870522
 20
475.209077
 30
0.0
 11
346.870522
 21
470.522319
 31
0.0
  0
LINE
  8
LC-002-002-----0
  6
CONTINUOUS
  5
830
 10
356.870522
 20
475.902224
 30
0.0
 11
327.141132
 21
473.84154
 31
0.0
  0
LINE
  8
LC-002-002-----0
  6
CONTINUOUS
  5
831
 10
336.870522
 20
474.515929
 30
0.0
 11
336.870522
 21
469.823052
 31
0.0
  0
LINE
  8
LC-002-002-----0
  6
CONTINUOUS
  5
832
 10
326.870522
 20
473.677222
 30
0.0
 11
326.870522
 21
468.387982
 31
0.0
  0
LINE
  8
LC-002-002-----0
  6
CONTINUOUS
  5
833
 10
316.870522
 20
471.106858
 30
0.0
 11
316.870522
 21
466.39631
 31
0.0
  0
ARC
  8
LC-002-002-----0
  6
CONTINUOUS
  5
834
 10
317.32124
 20
489.708654
 30
0.0
 40
18.66
 50
281.17408
 51
301.752673
  0
LINE
  8
LC-002-002-----0
  6
CONTINUOUS
  5
835
 10
308.907303
 20
470.528176
 30
0.0
 11
316.870522
 21
471.106858
 31
0.0
  0
LINE
  8
LC-002-002-----0
  6
CONTINUOUS
  5
836
 10
308.908826
 20
465.817739
 30
0.0
 11
308.908826
 21
470.528176
 31
0.0
  0
ARC
  8
LC-002-002-----0
  6
CONTINUOUS
  5
837
 10
319.422807
 20
478.351378
 30
0.0
 40
6.3
 50
274.0
 51
315.621929
  0
ARC
  8
LC-002-002-----0
  6
CONTINUOUS
  5
838
 10
319.422807
 20
478.351378
 30
0.0
 40
7.0
 50
274.0
 51
320.993096
  0
LINE
  8
LC-002-002-----0
  6
CONTINUOUS
  5
839
 10
319.864489
 20
472.056299
 30
0.0
 11
302.135013
 21
470.816533
 31
0.0
  0
LINE
  8
LC-002-002-----0
  6
CONTINUOUS
  5
83A
 10
319.911102
 20
471.36843
 30
0.0
 11
302.183843
 21
470.128819
 31
0.0
  0
ARC
  8
LC-005-002-RND-0
  6
CONTINUOUS
  5
83B
 10
302.623309
 20
463.833585
 30
0.0
 40
7.0
 50
94.0
 51
180.0
  0
ARC
  8
LC-005-002-RND-0
  6
CONTINUOUS
  5
83C
 10
302.623309
 20
463.844165
 30
0.0
 40
6.3
 50
94.0
 51
180.0
  0
LINE
  8
LC-002-002-----0
  6
CONTINUOUS
  5
83D
 10
296.323309
 20
463.844165
 30
0.0
 11
296.323309
 21
450.156122
 31
0.0
  0
LINE
  8
LC-002-002-----0
  6
CONTINUOUS
  5
83E
 10
295.623309
 20
463.833585
 30
0.0
 11
295.623309
 21
450.156122
 31
0.0
  0
ARC
  8
LC-002-002-----0
  6
CONTINUOUS
  5
83F
 10
292.823309
 20
450.156122
 30
0.0
 40
2.8
 50
270.0
 51
0.0
  0
ARC
  8
LC-002-002-----0
  6
CONTINUOUS
  5
840
 10
292.823309
 20
450.156122
 30
0.0
 40
3.5
 50
270.0
 51
0.0
  0
ARC
  8
LC-002-002-----0
  6
CONTINUOUS
  5
841
 10
292.823029
 20
446.35649
 30
0.0
 40
1.0
 50
90.00028
 51
180.00028
  0
ARC
  8
LC-002-002-----0
  6
CONTINUOUS
  5
842
 10
292.823029
 20
446.35649
 30
0.0
 40
0.3
 50
90.00028
 51
180.00028
  0
LINE
  8
LC-002-002-----0
  6
CONTINUOUS
  5
843
 10
291.823309
 20
446.356122
 30
0.0
 11
291.823309
 21
444.056122
 31
0.0
  0
LINE
  8
LC-002-002-----0
  6
CONTINUOUS
  5
844
 10
292.523309
 20
446.356122
 30
0.0
 11
292.523309
 21
444.056122
 31
0.0
  0
ARC
  8
LC-002-002-----0
  6
CONTINUOUS
  5
845
 10
292.823309
 20
444.056122
 30
0.0
 40
1.0
 50
180.0
 51
270.0
  0
ARC
  8
LC-002-002-----0
  6
CONTINUOUS
  5
846
 10
292.822786
 20
444.056122
 30
0.0
 40
0.3
 50
180.0
 51
270.0
  0
ARC
  8
LC-002-002-----0
  6
CONTINUOUS
  5
847
 10
292.823309
 20
442.256122
 30
0.0
 40
1.5
 50
0.0
 51
90.0
  0
ARC
  8
LC-002-002-----0
  6
CONTINUOUS
  5
848
 10
292.823309
 20
442.256122
 30
0.0
 40
1.5
 50
270.0
 51
0.0
  0
ARC
  8
LC-002-002-----0
  6
CONTINUOUS
  5
849
 10
292.823309
 20
442.256122
 30
0.0
 40
0.8
 50
0.0
 51
90.0
  0
ARC
  8
LC-002-002-----0
  6
CONTINUOUS
  5
84A
 10
292.823309
 20
442.256122
 30
0.0
 40
0.8
 50
270.0
 51
0.0
  0
LINE
  8
LC-002-002-----0
  6
CONTINUOUS
  5
84B
 10
292.823309
 20
441.456122
 30
0.0
 11
290.023309
 21
441.456122
 31
0.0
  0
LINE
  8
LC-002-002-----0
  6
CONTINUOUS
  5
84C
 10
292.823309
 20
440.756122
 30
0.0
 11
290.023309
 21
440.756122
 31
0.0
  0
LINE
  8
LC-002-002-----0
  6
CONTINUOUS
  5
84D
 10
290.023309
 20
440.756122
 30
0.0
 11
290.023309
 21
441.456122
 31
0.0
  0
LINE
  8
LC-002-002-----0
  6
CONTINUOUS
  5
84E
 10
219.560914
 20
466.356433
 30
0.0
 11
217.060914
 21
466.356433
 31
0.0
  0
ARC
  8
LC-002-002-----0
  6
CONTINUOUS
  5
84F
 10
280.560416
 20
464.356433
 30
0.0
 40
2.0
 50
90.0
 51
180.0
  0
LINE
  8
LC-002-002-----0
  6
CONTINUOUS
  5
850
 10
284.093226
 20
466.356433
 30
0.0
 11
280.560416
 21
466.356433
 31
0.0
  0
LINE
  8
LC-002-002-----0
  6
CONTINUOUS
  5
851
 10
284.093226
 20
449.856789
 30
0.0
 11
284.093226
 21
466.356433
 31
0.0
  0
LINE
  8
LC-002-002-----0
  6
CONTINUOUS
  5
852
 10
219.560914
 20
457.307382
 30
0.0
 11
219.560914
 21
466.356433
 31
0.0
  0
LINE
  8
LC-002-002-----0
  6
CONTINUOUS
  5
853
 10
281.060416
 20
449.856789
 30
0.0
 11
281.060416
 21
464.356433
 31
0.0
  0
LINE
  8
LC-002-002-----0
  6
CONTINUOUS
  5
854
 10
278.560416
 20
449.856789
 30
0.0
 11
278.560416
 21
464.356433
 31
0.0
  0
ARC
  8
LC-002-002-----0
  6
CONTINUOUS
  5
855
 10
283.060416
 20
464.356433
 30
0.0
 40
2.0
 50
90.0
 51
180.0
  0
LINE
  8
LC-002-002-----0
  6
CONTINUOUS
  5
856
 10
255.45442
 20
457.307382
 30
0.0
 11
255.45442
 21
464.356433
 31
0.0
  0
LINE
  8
LC-002-002-----0
  6
CONTINUOUS
  5
857
 10
251.124293
 20
457.307382
 30
0.0
 11
251.124293
 21
464.356433
 31
0.0
  0
LINE
  8
LC-002-002-----0
  6
CONTINUOUS
  5
858
 10
257.205413
 20
466.356433
 30
0.0
 11
253.124293
 21
466.356433
 31
0.0
  0
ARC
  8
LC-002-002-----0
  6
CONTINUOUS
  5
859
 10
253.124293
 20
464.356433
 30
0.0
 40
2.0
 50
90.0
 51
180.0
  0
ARC
  8
LC-002-002-----0
  6
CONTINUOUS
  5
85A
 10
257.45442
 20
464.356433
 30
0.0
 40
2.0
 50
97.096995
 51
180.0
  0
LINE
  8
LC-002-002-----0
  6
CONTINUOUS
  5
85B
 10
257.205413
 20
457.307382
 30
0.0
 11
257.205413
 21
466.356433
 31
0.0
  0
LINE
  8
LC-002-002-----0
  6
CONTINUOUS
  5
85C
 10
214.560914
 20
466.356433
 30
0.0
 11
217.060914
 21
466.356433
 31
0.0
  0
ARC
  8
LC-002-002-----0
  6
CONTINUOUS
  5
85D
 10
153.561412
 20
464.356433
 30
0.0
 40
2.0
 50
0.0
 51
90.0
  0
LINE
  8
LC-002-002-----0
  6
CONTINUOUS
  5
85E
 10
150.028603
 20
466.356433
 30
0.0
 11
153.561412
 21
466.356433
 31
0.0
  0
LINE
  8
LC-002-002-----0
  6
CONTINUOUS
  5
85F
 10
150.028603
 20
449.856789
 30
0.0
 11
150.028603
 21
466.356433
 31
0.0
  0
LINE
  8
LC-002-002-----0
  6
CONTINUOUS
  5
860
 10
214.560914
 20
453.086543
 30
0.0
 11
214.560914
 21
466.356433
 31
0.0
  0
LINE
  8
LC-002-002-----0
  6
CONTINUOUS
  5
861
 10
153.061412
 20
449.856789
 30
0.0
 11
153.061412
 21
464.356433
 31
0.0
  0
LINE
  8
LC-002-002-----0
  6
CONTINUOUS
  5
862
 10
155.561412
 20
449.856789
 30
0.0
 11
155.561412
 21
464.356433
 31
0.0
  0
ARC
  8
LC-002-002-----0
  6
CONTINUOUS
  5
863
 10
151.061412
 20
464.356433
 30
0.0
 40
2.0
 50
0.0
 51
90.0
  0
LINE
  8
LC-002-002-----0
  6
CONTINUOUS
  5
864
 10
178.667409
 20
449.856789
 30
0.0
 11
178.667409
 21
464.356433
 31
0.0
  0
LINE
  8
LC-002-002-----0
  6
CONTINUOUS
  5
865
 10
182.997536
 20
449.856789
 30
0.0
 11
182.997536
 21
464.356433
 31
0.0
  0
LINE
  8
LC-002-002-----0
  6
CONTINUOUS
  5
866
 10
176.916416
 20
466.356433
 30
0.0
 11
180.997536
 21
466.356433
 31
0.0
  0
ARC
  8
LC-002-002-----0
  6
CONTINUOUS
  5
867
 10
180.997536
 20
464.356433
 30
0.0
 40
2.0
 50
0.0
 51
90.0
  0
ARC
  8
LC-002-002-----0
  6
CONTINUOUS
  5
868
 10
176.667409
 20
464.356433
 30
0.0
 40
2.0
 50
0.0
 51
82.903005
  0
LINE
  8
LC-002-002-----0
  6
CONTINUOUS
  5
869
 10
176.916416
 20
449.856789
 30
0.0
 11
176.916416
 21
466.356433
 31
0.0
  0
LINE
  8
LC-002-002-----0
  6
CONTINUOUS
  5
86A
 10
155.604105
 20
427.215876
 30
0.0
 11
155.604105
 21
426.272586
 31
0.0
  0
LINE
  8
LC-014-205-----0
  6
CONTINUOUS
  5
86B
 10
188.800309
 20
376.245012
 30
0.0
 11
204.901496
 21
376.245012
 31
0.0
  0
LINE
  8
LC-002-002-----0
  6
DASHDOT
 62
     2
  5
86C
 10
269.212487
 20
398.76204
 30
0.0
 11
385.222484
 21
398.76204
 31
0.0
  0
LINE
  8
LC-002-002-----0
  6
CONTINUOUS
  5
86D
 10
308.951337
 20
465.950001
 30
0.0
 11
303.015685
 21
465.53494
 31
0.0
  0
LINE
  8
LC-002-002-----0
  6
CONTINUOUS
  5
86E
 10
304.092264
 20
463.089171
 30
0.0
 11
304.092264
 21
450.236753
 31
0.0
  0
LINE
  8
LC-002-002-----0
  6
CONTINUOUS
  5
86F
 10
304.092264
 20
463.089171
 30
0.0
 11
305.810207
 21
463.089171
 31
0.0
  0
LINE
  8
LC-002-002-----0
  6
CONTINUOUS
  5
870
 10
308.951589
 20
465.946396
 30
0.0
 11
308.951589
 21
458.323423
 31
0.0
  0
ARC
  8
LC-005-002-RND-0
  6
CONTINUOUS
  5
871
 10
307.871739
 20
458.336256
 30
0.0
 40
1.07985
 50
273.999997
 51
0.0
  0
LINE
  8
LC-002-002-----0
  6
CONTINUOUS
  5
872
 10
307.947066
 20
457.259037
 30
0.0
 11
305.810207
 21
457.109613
 31
0.0
  0
LINE
  8
LC-002-002-----0
  6
CONTINUOUS
  5
873
 10
305.810207
 20
457.109613
 30
0.0
 11
305.810207
 21
463.089171
 31
0.0
  0
ARC
  8
LC-002-002-----0
  6
CONTINUOUS
  5
874
 10
303.296356
 20
461.521154
 30
0.0
 40
4.023715
 50
93.998836
 51
111.246312
  0
LINE
  8
LC-002-002-----0
  6
CONTINUOUS
  5
875
 10
296.898375
 20
459.974231
 30
0.0
 11
301.83825
 21
465.271382
 31
0.0
  0
ARC
  8
LC-002-002-----0
  6
CONTINUOUS
  5
876
 10
297.115604
 20
459.773854
 30
0.0
 40
0.296443
 50
137.000136
 51
290.000136
  0
LINE
  8
LC-002-002-----0
  6
CONTINUOUS
  5
877
 10
297.216559
 20
459.493486
 30
0.0
 11
300.50975
 21
460.692034
 31
0.0
  0
ARC
  8
LC-002-002-----0
  6
CONTINUOUS
  5
878
 10
300.847696
 20
459.763477
 30
0.0
 40
0.988142
 50
359.998586
 51
109.998839
  0
LINE
  8
LC-002-002-----0
  6
CONTINUOUS
  5
879
 10
301.835838
 20
459.763477
 30
0.0
 11
301.835808
 21
458.447738
 31
0.0
  0
ARC
  8
LC-002-002-----0
  6
CONTINUOUS
  5
87A
 10
301.341737
 20
458.447749
 30
0.0
 40
0.494071
 50
316.998839
 51
359.998703
  0
LINE
  8
LC-002-002-----0
  6
CONTINUOUS
  5
87B
 10
296.898217
 20
452.95842
 30
0.0
 11
301.703071
 21
458.110786
 31
0.0
  0
ARC
  8
LC-002-002-----0
  6
CONTINUOUS
  5
87C
 10
297.115604
 20
452.758043
 30
0.0
 40
0.296443
 50
137.000136
 51
290.000136
  0
LINE
  8
LC-002-002-----0
  6
CONTINUOUS
  5
87D
 10
297.216401
 20
452.477675
 30
0.0
 11
300.509592
 21
453.676223
 31
0.0
  0
ARC
  8
LC-002-002-----0
  6
CONTINUOUS
  5
87E
 10
300.847537
 20
452.747666
 30
0.0
 40
0.988142
 50
359.998586
 51
109.998839
  0
LINE
  8
LC-002-002-----0
  6
CONTINUOUS
  5
87F
 10
301.835665
 20
452.747644
 30
0.0
 11
301.835603
 21
450.234845
 31
0.0
  0
LINE
  8
LC-002-002-----0
  6
CONTINUOUS
  5
880
 10
304.091736
 20
450.236753
 30
0.0
 11
301.835603
 21
450.236753
 31
0.0
  0
LINE
  8
LC-002-002-----0
  6
CONTINUOUS
  5
881
 10
125.170491
 20
465.950001
 30
0.0
 11
131.106144
 21
465.53494
 31
0.0
  0
LINE
  8
LC-002-002-----0
  6
CONTINUOUS
  5
882
 10
130.029564
 20
463.089171
 30
0.0
 11
130.029564
 21
450.236753
 31
0.0
  0
LINE
  8
LC-002-002-----0
  6
CONTINUOUS
  5
883
 10
130.029564
 20
463.089171
 30
0.0
 11
128.311621
 21
463.089171
 31
0.0
  0
LINE
  8
LC-002-002-----0
  6
CONTINUOUS
  5
884
 10
125.170239
 20
465.946396
 30
0.0
 11
125.170239
 21
458.323423
 31
0.0
  0
ARC
  8
LC-005-002-RND-0
  6
CONTINUOUS
  5
885
 10
126.250089
 20
458.336256
 30
0.0
 40
1.07985
 50
180.0
 51
266.000003
  0
LINE
  8
LC-002-002-----0
  6
CONTINUOUS
  5
886
 10
126.174763
 20
457.259037
 30
0.0
 11
128.311621
 21
457.109613
 31
0.0
  0
LINE
  8
LC-002-002-----0
  6
CONTINUOUS
  5
887
 10
128.311621
 20
457.109613
 30
0.0
 11
128.311621
 21
463.089171
 31
0.0
  0
ARC
  8
LC-002-002-----0
  6
CONTINUOUS
  5
888
 10
130.825473
 20
461.521154
 30
0.0
 40
4.023715
 50
68.753688
 51
86.001164
  0
LINE
  8
LC-002-002-----0
  6
CONTINUOUS
  5
889
 10
137.223453
 20
459.974231
 30
0.0
 11
132.283579
 21
465.271382
 31
0.0
  0
ARC
  8
LC-002-002-----0
  6
CONTINUOUS
  5
88A
 10
137.006224
 20
459.773854
 30
0.0
 40
0.296443
 50
249.999864
 51
42.999864
  0
LINE
  8
LC-002-002-----0
  6
CONTINUOUS
  5
88B
 10
136.905269
 20
459.493486
 30
0.0
 11
133.612078
 21
460.692034
 31
0.0
  0
ARC
  8
LC-002-002-----0
  6
CONTINUOUS
  5
88C
 10
133.274133
 20
459.763477
 30
0.0
 40
0.988142
 50
70.001161
 51
180.001414
  0
LINE
  8
LC-002-002-----0
  6
CONTINUOUS
  5
88D
 10
132.285991
 20
459.763477
 30
0.0
 11
132.286021
 21
458.447738
 31
0.0
  0
ARC
  8
LC-002-002-----0
  6
CONTINUOUS
  5
88E
 10
132.780092
 20
458.447749
 30
0.0
 40
0.494071
 50
180.001297
 51
223.001161
  0
LINE
  8
LC-002-002-----0
  6
CONTINUOUS
  5
88F
 10
137.223612
 20
452.95842
 30
0.0
 11
132.418758
 21
458.110786
 31
0.0
  0
ARC
  8
LC-002-002-----0
  6
CONTINUOUS
  5
890
 10
137.006224
 20
452.758043
 30
0.0
 40
0.296443
 50
249.999864
 51
42.999864
  0
LINE
  8
LC-002-002-----0
  6
CONTINUOUS
  5
891
 10
136.905428
 20
452.477675
 30
0.0
 11
133.612237
 21
453.676223
 31
0.0
  0
ARC
  8
LC-002-002-----0
  6
CONTINUOUS
  5
892
 10
133.274291
 20
452.747666
 30
0.0
 40
0.988142
 50
70.001161
 51
180.001414
  0
LINE
  8
LC-002-002-----0
  6
CONTINUOUS
  5
893
 10
132.286163
 20
452.747644
 30
0.0
 11
132.286225
 21
450.234845
 31
0.0
  0
LINE
  8
LC-002-002-----0
  6
CONTINUOUS
  5
894
 10
130.030093
 20
450.236753
 30
0.0
 11
132.286225
 21
450.236753
 31
0.0
  0
ENDSEC
  0
EOF
