  0
SECTION
  2
HEADER
  9
$ACADVER
  1
AC1009
  9
$DWGCODEPAGE
  3
ansi_1252
  9
$INSBASE
 10
0.0
 20
0.0
 30
0.0
  9
$EXTMIN
 10
0.0
 20
0.0
 30
0.0
  9
$EXTMAX
 10
420.0
 20
297.0
 30
0.0
  9
$LIMMIN
 10
0.0
 20
0.0
  9
$LIMMAX
 10
420.0
 20
297.0
  9
$ORTHOMODE
 70
     0
  9
$REGENMODE
 70
     1
  9
$FILLMODE
 70
     1
  9
$QTEXTMODE
 70
     0
  9
$MIRRTEXT
 70
     1
  9
$DRAGMODE
 70
     2
  9
$LTSCALE
 40
1.0
  9
$OSMODE
 70
    37
  9
$ATTMODE
 70
     1
  9
$TEXTSIZE
 40
3.5
  9
$TRACEWID
 40
1.0
  9
$TEXTSTYLE
  7
STANDARD
  9
$CLAYER
  8
0
  9
$CELTYPE
  6
BYLAYER
  9
$CECOLOR
 62
   256
  9
$DIMSCALE
 40
1.0
  9
$DIMASZ
 40
4.0
  9
$DIMEXO
 40
1.0
  9
$DIMDLI
 40
3.75
  9
$DIMRND
 40
0.0
  9
$DIMDLE
 40
0.0
  9
$DIMEXE
 40
1.0
  9
$DIMTP
 40
0.0
  9
$DIMTM
 40
0.0
  9
$DIMTXT
 40
9.8777777778
  9
$DIMCEN
 40
2.5
  9
$DIMTSZ
 40
0.0
  9
$DIMTOL
 70
     0
  9
$DIMLIM
 70
     0
  9
$DIMTIH
 70
     1
  9
$DIMTOH
 70
     1
  9
$DIMSE1
 70
     0
  9
$DIMSE2
 70
     0
  9
$DIMTAD
 70
     1
  9
$DIMZIN
 70
     0
  9
$DIMBLK
  1

  9
$DIMASO
 70
     1
  9
$DIMSHO
 70
     1
  9
$DIMPOST
  1

  9
$DIMAPOST
  1

  9
$DIMALT
 70
     0
  9
$DIMALTD
 70
     3
  9
$DIMALTF
 40
0.0393700787
  9
$DIMLFAC
 40
2.0
  9
$DIMTOFL
 70
     1
  9
$DIMTVP
 40
0.0
  9
$DIMTIX
 70
     0
  9
$DIMSOXD
 70
     0
  9
$DIMSAH
 70
     0
  9
$DIMBLK1
  1

  9
$DIMBLK2
  1

  9
$DIMSTYLE
  2
ISO-25
  9
$DIMCLRD
 70
     0
  9
$DIMCLRE
 70
     0
  9
$DIMCLRT
 70
     0
  9
$DIMTFAC
 40
1.0
  9
$DIMGAP
 40
1.524
  9
$LUNITS
 70
     2
  9
$LUPREC
 70
     2
  9
$SKETCHINC
 40
1.0
  9
$FILLETRAD
 40
10.0
  9
$AUNITS
 70
     0
  9
$AUPREC
 70
     2
  9
$MENU
  1
.
  9
$ELEVATION
 40
0.0
  9
$PELEVATION
 40
0.0
  9
$THICKNESS
 40
0.0
  9
$LIMCHECK
 70
     0
  9
$CHAMFERA
 40
0.0
  9
$CHAMFERB
 40
0.0
  9
$SKPOLY
 70
     0
  9
$TDCREATE
 40
2460123.345937014
  9
$TDUPDATE
 40
2460123.345937639
  9
$TDINDWG
 40
0.0000000116
  9
$TDUSRTIMER
 40
0.0000000116
  9
$USRTIMER
 70
     1
  9
$ANGBASE
 50
0.0
  9
$ANGDIR
 70
     0
  9
$PDMODE
 70
     0
  9
$PDSIZE
 40
-1.0
  9
$PLINEWID
 40
0.0
  9
$COORDS
 70
     1
  9
$SPLFRAME
 70
     0
  9
$SPLINETYPE
 70
     6
  9
$SPLINESEGS
 70
     8
  9
$ATTDIA
 70
     0
  9
$ATTREQ
 70
     1
  9
$HANDLING
 70
     1
  9
$HANDSEED
  5
349
  9
$SURFTAB1
 70
     6
  9
$SURFTAB2
 70
     6
  9
$SURFTYPE
 70
     6
  9
$SURFU
 70
     6
  9
$SURFV
 70
     6
  9
$UCSNAME
  2

  9
$UCSORG
 10
0.0
 20
0.0
 30
0.0
  9
$UCSXDIR
 10
1.0
 20
0.0
 30
0.0
  9
$UCSYDIR
 10
0.0
 20
1.0
 30
0.0
  9
$PUCSNAME
  2

  9
$PUCSORG
 10
0.0
 20
0.0
 30
0.0
  9
$PUCSXDIR
 10
1.0
 20
0.0
 30
0.0
  9
$PUCSYDIR
 10
0.0
 20
1.0
 30
0.0
  9
$USERI1
 70
     0
  9
$USERI2
 70
     0
  9
$USERI3
 70
     0
  9
$USERI4
 70
     0
  9
$USERI5
 70
     0
  9
$USERR1
 40
0.0
  9
$USERR2
 40
0.0
  9
$USERR3
 40
0.0
  9
$USERR4
 40
0.0
  9
$USERR5
 40
0.0
  9
$WORLDVIEW
 70
     1
  9
$SHADEDGE
 70
     3
  9
$SHADEDIF
 70
    70
  9
$TILEMODE
 70
     1
  9
$MAXACTVP
 70
    64
  9
$PLIMCHECK
 70
     0
  9
$PEXTMIN
 10
1.0000000000E+20
 20
1.0000000000E+20
 30
1.0000000000E+20
  9
$PEXTMAX
 10
-1.0000000000E+20
 20
-1.0000000000E+20
 30
-1.0000000000E+20
  9
$PLIMMIN
 10
0.0
 20
0.0
  9
$PLIMMAX
 10
420.0
 20
297.0
  9
$UNITMODE
 70
     0
  9
$VISRETAIN
 70
     1
  9
$PLINEGEN
 70
     0
  9
$PSLTSCALE
 70
     1
  0
ENDSEC
  0
SECTION
  2
TABLES
  0
TABLE
  2
VPORT
 70
     1
  0
VPORT
  2
*ACTIVE
 70
     0
 10
0.0
 20
0.0
 11
1.0
 21
1.0
 12
210.0
 22
148.5
 13
0.0
 23
0.0
 14
10.0
 24
10.0
 15
10.0
 25
10.0
 16
0.0
 26
0.0
 36
1.0
 17
0.0
 27
0.0
 37
0.0
 40
297.0
 41
1.4141414141
 42
50.0
 43
0.0
 44
0.0
 50
0.0
 51
0.0
 71
     0
 72
  2000
 73
     1
 74
     3
 75
     0
 76
     0
 77
     0
 78
     0
  0
ENDTAB
  0
TABLE
  2
LTYPE
 70
     6
  0
LTYPE
  2
CONTINUOUS
 70
     0
  3
Solid line
 72
    65
 73
     0
 40
0.0
  0
LTYPE
  2
HIDDEN
 70
     0
  3
Hidden __ __ __ __ __ __ __ __ __ __ __ __ __ __
 72
    65
 73
     2
 40
1.905
 49
1.27
 49
-0.635
  0
LTYPE
  2
PHANTOM
 70
     0
  3
Phantom ______  __  __  ______  __  __  ______
 72
    65
 73
     6
 40
12.7
 49
6.35
 49
-1.27
 49
1.27
 49
-1.27
 49
1.27
 49
-1.27
  0
LTYPE
  2
CENTER
 70
     0
  3
Center ____ _ ____ _ ____ _ ____ _ ____ _ ____
 72
    65
 73
     4
 40
10.16
 49
6.35
 49
-1.27
 49
1.27
 49
-1.27
  0
LTYPE
  2
CENTERX2
 70
     0
  3
Center (2x) ________  __  ________  __  _____
 72
    65
 73
     4
 40
20.32
 49
12.7
 49
-2.54
 49
2.54
 49
-2.54
  0
LTYPE
  2
DOT2
 70
     0
  3
Dot (.5x) ........................................
 72
    65
 73
     2
 40
0.635
 49
0.0
 49
-0.635
  0
ENDTAB
  0
TABLE
  2
LAYER
 70
     7
  0
LAYER
  2
0
 70
     0
 62
     7
  6
CONTINUOUS
  0
LAYER
  2
FORMAT
 70
     0
 62
     7
  6
CONTINUOUS
  0
LAYER
  2
RED
 70
     0
 62
     1
  6
CONTINUOUS
  0
LAYER
  2
GREEN
 70
     0
 62
   114
  6
CONTINUOUS
  0
LAYER
  2
BLUE
 70
     0
 62
     5
  6
CONTINUOUS
  0
LAYER
  2
BLATTFORMAT
 70
     0
 62
     7
  6
CONTINUOUS
  0
LAYER
  2
BEMAßUNG
 70
     0
 62
     7
  6
CONTINUOUS
  0
ENDTAB
  0
TABLE
  2
STYLE
 70
     1
  0
STYLE
  2
STANDARD
 70
     0
 40
0.0
 41
1.0
 50
0.0
 71
     0
 42
3.5
  3
txt
  4

  0
ENDTAB
  0
TABLE
  2
VIEW
 70
     0
  0
ENDTAB
  0
TABLE
  2
UCS
 70
     0
  0
ENDTAB
  0
TABLE
  2
APPID
 70
     1
  0
APPID
  2
ACAD
 70
     0
  0
ENDTAB
  0
TABLE
  2
DIMSTYLE
 70
     3
  0
DIMSTYLE
  2
ISO-25
 70
     0
  3

  4

  5

  6

  7

 40
1.0
 41
2.5
 42
0.625
 43
3.75
 44
1.25
 45
0.0
 46
0.0
 47
0.0
 48
0.0
140
2.5
141
2.5
142
0.0
143
0.0393700787
144
1.0
145
0.0
146
1.0
147
0.625
 71
     0
 72
     0
 73
     0
 74
     0
 75
     0
 76
     0
 77
     1
 78
     8
170
     0
171
     3
172
     1
173
     0
174
     0
175
     0
176
     0
177
     0
178
     0
  0
DIMSTYLE
  2
SLDDIMSTYLE0
 70
     0
  3

  4

  5

  6

  7

 40
1.0
 41
4.0
 42
0.0625
 43
0.38
 44
0.0
 45
0.000000001
 46
0.0
 47
0.0
 48
0.0
140
7.1912923177
141
0.09
142
0.0
143
25.4
144
1.0
145
0.0
146
1.0
147
1.7978230794
 71
     0
 72
     0
 73
     0
 74
     0
 75
     0
 76
     0
 77
     1
 78
    12
170
     0
171
     2
172
     0
173
     1
174
     0
175
     0
176
     0
177
     0
178
     0
  0
DIMSTYLE
  2
SLDDIMSTYLE1
 70
     0
  3

  4

  5

  6

  7

 40
1.0
 41
4.0
 42
0.0625
 43
0.38
 44
0.0
 45
0.000000001
 46
0.0
 47
0.0
 48
0.0
140
7.1912923177
141
0.09
142
0.0
143
25.4
144
1.0
145
0.0
146
1.0
147
1.7978230794
 71
     0
 72
     0
 73
     0
 74
     0
 75
     0
 76
     0
 77
     1
 78
    12
170
     0
171
     2
172
     1
173
     1
174
     0
175
     0
176
     0
177
     0
178
     0
  0
ENDTAB
  0
ENDSEC
  0
SECTION
  2
BLOCKS
  0
BLOCK
  8
0
  2
$MODEL_SPACE
 70
     0
 10
0.0
 20
0.0
 30
0.0
  3
$MODEL_SPACE
  1

  0
ENDBLK
  5
21
  8
0
  0
BLOCK
 67
     1
  8
0
  2
$PAPER_SPACE
 70
     0
 10
0.0
 20
0.0
 30
0.0
  3
$PAPER_SPACE
  1

  0
ENDBLK
  5
1D
 67
     1
  8
0
  0
BLOCK
  8
0
  2
_D
 70
     0
 10
0.0
 20
0.0
 30
0.0
  3
_D
  1

  0
SOLID
  5
2DE
  8
BEMAßUNG
 10
91.9761627704
 20
210.2249001596
 30
0.0
 11
95.9761627704
 21
209.3249001596
 31
0.0
 12
95.9761627704
 22
211.1249001596
 32
0.0
 13
95.9761627704
 23
211.1249001596
 33
0.0
  0
SOLID
  5
2DF
  8
BEMAßUNG
 10
314.1849916281
 20
210.2249001596
 30
0.0
 11
310.1849916281
 21
211.1249001596
 31
0.0
 12
310.1849916281
 22
209.3249001596
 32
0.0
 13
310.1849916281
 23
209.3249001596
 33
0.0
  0
LINE
  5
2E0
  8
BEMAßUNG
 10
91.9761627704
 20
195.757454545
 30
0.0
 11
91.9761627704
 21
211.2249001596
 31
0.0
  0
LINE
  5
2E1
  8
BEMAßUNG
 10
314.1849916281
 20
195.757454545
 30
0.0
 11
314.1849916281
 21
211.2249001596
 31
0.0
  0
LINE
  5
2E2
  8
BEMAßUNG
 10
91.9761627704
 20
210.2249001596
 30
0.0
 11
314.1849916281
 21
210.2249001596
 31
0.0
  0
TEXT
  5
2E3
  8
BEMAßUNG
 10
196.613865529
 20
212.8419684516
 30
9.1249141668
 40
7.4083333333
  1
222
 41
0.7
 11
196.613865529
 21
210.2249001596
 31
9.1249141668
 73
     1
  0
ENDBLK
  5
2DD
  8
0
  0
BLOCK
  8
0
  2
_D_1
 70
     0
 10
0.0
 20
0.0
 30
0.0
  3
_D_1
  1

  0
SOLID
  5
2E9
  8
BEMAßUNG
 10
342.2305771993
 20
200.2249001596
 30
0.0
 11
343.1305771993
 21
204.2249001596
 31
0.0
 12
341.3305771993
 22
204.2249001596
 32
0.0
 13
341.3305771993
 23
204.2249001596
 33
0.0
  0
SOLID
  5
2EA
  8
BEMAßUNG
 10
342.2305771993
 20
197.0249001596
 30
0.0
 11
341.3305771993
 21
193.0249001596
 31
0.0
 12
343.1305771993
 22
193.0249001596
 32
0.0
 13
343.1305771993
 23
193.0249001596
 33
0.0
  0
LINE
  5
2EB
  8
BEMAßUNG
 10
220.7364215129
 20
200.2249001596
 30
0.0
 11
343.2305771993
 21
200.2249001596
 31
0.0
  0
LINE
  5
2EC
  8
BEMAßUNG
 10
310.1262314498
 20
197.0249001596
 30
0.0
 11
343.2305771993
 21
197.0249001596
 31
0.0
  0
LINE
  5
2ED
  8
BEMAßUNG
 10
342.2305771993
 20
200.2249001596
 30
0.0
 11
342.2305771993
 21
212.9687273386
 31
0.0
  0
LINE
  5
2EE
  8
BEMAßUNG
 10
342.2305771993
 20
200.2249001596
 30
0.0
 11
342.2305771993
 21
197.0249001596
 31
0.0
  0
LINE
  5
2EF
  8
BEMAßUNG
 10
342.2305771993
 20
197.0249001596
 30
0.0
 11
342.2305771993
 21
185.0249001596
 31
0.0
  0
TEXT
  5
2F0
  8
BEMAßUNG
 10
339.6135089072
 20
207.4810729805
 30
9.1249141668
 40
7.4083333333
  1
3
 50
90.0
 41
0.7
 11
342.2305771993
 21
207.4810729805
 31
9.1249141668
 73
     1
  0
ENDBLK
  5
2E8
  8
0
  0
BLOCK
  8
0
  2
_D_2
 70
     0
 10
0.0
 20
0.0
 30
0.0
  3
_D_2
  1

  0
SOLID
  5
2F5
  8
BEMAßUNG
 10
342.2305771993
 20
144.2249001596
 30
0.0
 11
343.1305771993
 21
148.2249001596
 31
0.0
 12
341.3305771993
 22
148.2249001596
 32
0.0
 13
341.3305771993
 23
148.2249001596
 33
0.0
  0
SOLID
  5
2F6
  8
BEMAßUNG
 10
342.2305771993
 20
197.0249001596
 30
0.0
 11
341.3305771993
 21
193.0249001596
 31
0.0
 12
343.1305771993
 22
193.0249001596
 32
0.0
 13
343.1305771993
 23
193.0249001596
 33
0.0
  0
LINE
  5
2F7
  8
BEMAßUNG
 10
306.4256258886
 20
144.2249001596
 30
0.0
 11
343.2305771993
 21
144.2249001596
 31
0.0
  0
LINE
  5
2F8
  8
BEMAßUNG
 10
310.1262314498
 20
197.0249001596
 30
0.0
 11
343.2305771993
 21
197.0249001596
 31
0.0
  0
LINE
  5
2F9
  8
BEMAßUNG
 10
342.2305771993
 20
144.2249001596
 30
0.0
 11
342.2305771993
 21
197.0249001596
 31
0.0
  0
TEXT
  5
2FA
  8
BEMAßUNG
 10
339.6135089072
 20
163.0434834681
 30
9.1249141668
 40
7.4083333333
  1
53
 50
90.0
 41
0.7
 11
342.2305771993
 21
163.0434834681
 31
9.1249141668
 73
     1
  0
ENDBLK
  5
2F4
  8
0
  0
BLOCK
  8
0
  2
_D_3
 70
     0
 10
0.0
 20
0.0
 30
0.0
  3
_D_3
  1

  0
SOLID
  5
2FF
  8
BEMAßUNG
 10
324.2305771993
 20
155.5249001596
 30
0.0
 11
325.1305771993
 21
159.5249001596
 31
0.0
 12
323.3305771993
 22
159.5249001596
 32
0.0
 13
323.3305771993
 23
159.5249001596
 33
0.0
  0
SOLID
  5
300
  8
BEMAßUNG
 10
324.2305771993
 20
197.0249001596
 30
0.0
 11
323.3305771993
 21
193.0249001596
 31
0.0
 12
325.1305771993
 22
193.0249001596
 32
0.0
 13
325.1305771993
 23
193.0249001596
 33
0.0
  0
LINE
  5
301
  8
BEMAßUNG
 10
299.0805771993
 20
155.5249001596
 30
0.0
 11
325.2305771993
 21
155.5249001596
 31
0.0
  0
LINE
  5
302
  8
BEMAßUNG
 10
310.1262314498
 20
197.0249001596
 30
0.0
 11
325.2305771993
 21
197.0249001596
 31
0.0
  0
LINE
  5
303
  8
BEMAßUNG
 10
324.2305771993
 20
155.5249001596
 30
0.0
 11
324.2305771993
 21
197.0249001596
 31
0.0
  0
TEXT
  5
304
  8
BEMAßUNG
 10
321.6135089072
 20
171.4396185977
 30
9.1249141668
 40
7.4083333333
  1
42
 50
90.0
 41
0.7
 11
324.2305771993
 21
171.4396185977
 31
9.1249141668
 73
     1
  0
ENDBLK
  5
2FE
  8
0
  0
ENDSEC
  0
SECTION
  2
ENTITIES
  0
ARC
  5
79
  8
0
  6
CONTINUOUS
 62
     7
 10
203.0805771993
 20
-5725.9666999264
 30
0.0
 40
5846.191666665195
 50
89.0808360849
 51
90.9191639151
  0
ARC
  5
7A
  8
0
  6
CONTINUOUS
 62
     7
 10
203.0805771993
 20
5929.616633404
 30
0.0
 40
5846.191666665193
 50
269.0808360849
 51
270.0
  0
ARC
  5
7B
  8
0
  6
CONTINUOUS
 62
     7
 10
203.0805771993
 20
5929.616633404
 30
0.0
 40
5846.191666665193
 50
270.0
 51
270.9191639151
  0
ARC
  5
7C
  8
0
  6
CONTINUOUS
 62
     7
 10
109.5805771993
 20
101.8249667388
 30
0.0
 40
17.64999999999971
 50
180.0
 51
269.0808360849
  0
ARC
  5
7D
  8
0
  6
CONTINUOUS
 62
     7
 10
109.5805771993
 20
101.8249667388
 30
0.0
 40
17.64999999999968
 50
90.919163915
 51
180.0
  0
ARC
  5
7E
  8
0
  6
CONTINUOUS
 62
     7
 10
296.5805771993
 20
101.8249667388
 30
0.0
 40
17.64999999999968
 50
270.9191639151
 51
89.0808360849
  0
ARC
  5
7F
  8
0
  6
CONTINUOUS
 62
     7
 10
227.0805771993
 20
101.8249667388
 30
0.0
 40
6.844155686354955
 50
111.3472926019
 51
247.775748175
  0
ARC
  5
80
  8
0
  6
CONTINUOUS
 62
     7
 10
179.0805771993
 20
101.8249667388
 30
0.0
 40
6.844155686354964
 50
291.4043817003
 51
68.3037850143
  0
CIRCLE
  5
81
  8
0
  6
CONTINUOUS
 62
     7
 10
259.9805771993
 20
101.8249667388
 30
0.0
 40
2.727636339397037
  0
LINE
  5
82
  8
0
  6
CONTINUOUS
 62
     7
 10
231.7462021993
 20
101.8021302003
 30
0.0
 11
231.7546156608
 21
101.7937167388
 31
0.0
  0
LINE
  5
83
  8
0
  6
CONTINUOUS
 62
     7
 10
231.1392310454
 20
101.8063369311
 30
0.0
 11
231.1392310454
 21
101.8147503926
 31
0.0
  0
LINE
  5
84
  8
0
  6
CONTINUOUS
 62
     7
 10
229.0959618146
 20
101.9343417388
 30
0.0
 11
229.1043752762
 21
101.9343417388
 31
0.0
  0
LINE
  5
85
  8
0
  6
CONTINUOUS
 62
     7
 10
293.4421156608
 20
102.2648705849
 30
0.0
 11
293.4421156608
 21
102.2444378926
 31
0.0
  0
LINE
  5
86
  8
0
  6
CONTINUOUS
 62
     7
 10
287.3489666223
 20
103.0341013542
 30
0.0
 11
287.3405531608
 21
103.0341013542
 31
0.0
  0
LINE
  5
87
  8
0
  6
CONTINUOUS
 62
     7
 10
285.4421156608
 20
102.2450388542
 30
0.0
 11
285.4421156608
 21
102.2654715465
 31
0.0
  0
CIRCLE
  5
88
  8
0
  6
CONTINUOUS
 62
     7
 10
146.1805771993
 20
101.8249667388
 30
0.0
 40
2.727636339397037
  0
LINE
  5
89
  8
0
  6
CONTINUOUS
 62
     7
 10
118.8121877762
 20
100.6158321234
 30
0.0
 11
118.8206012377
 21
100.6158321234
 31
0.0
  0
ARC
  5
8A
  8
0
  6
CONTINUOUS
 62
     7
 10
203.0805771993
 20
-5725.9666999264
 30
0.0
 40
5843.041666665194
 50
89.0808360849
 51
90.9191639151
  0
ARC
  5
8B
  8
0
  6
CONTINUOUS
 62
     7
 10
109.5805771993
 20
101.8249667388
 30
0.0
 40
14.49999999999965
 50
90.919163915
 51
180.0
  0
ARC
  5
8C
  8
0
  6
CONTINUOUS
 62
     7
 10
296.5805771993
 20
101.8249667388
 30
0.0
 40
14.50000000000111
 50
270.9191639151
 51
89.0808360849
  0
ARC
  5
8D
  8
0
  6
CONTINUOUS
 62
     7
 10
203.0805771993
 20
5929.616633404
 30
0.0
 40
5843.041666665193
 50
269.0808360849
 51
270.9191639151
  0
ARC
  5
8E
  8
0
  6
CONTINUOUS
 62
     7
 10
109.5805771993
 20
101.8249667388
 30
0.0
 40
14.50000000000023
 50
180.0
 51
269.0808360849
  0
ARC
  5
8F
  8
0
  6
CONTINUOUS
 62
     7
 10
210.1189328256
 20
116.6968352726
 30
0.0
 40
25.6903759061779
 50
302.8953210529
 51
304.1876613833
  0
ARC
  5
90
  8
0
  6
CONTINUOUS
 62
     7
 10
196.0422215744
 20
86.9530982028
 30
0.0
 40
25.69037590888128
 50
122.8953210529
 51
124.1876613833
  0
POLYLINE
  5
91
  8
0
  6
CONTINUOUS
 62
     7
 66
     1
 10
0.0
 20
0.0
 30
0.0
 70
   128
  0
VERTEX
  5
305
  8
0
  6
CONTINUOUS
 62
     7
 10
224.6654276497
 20
95.3261616385
 30
0.0
  0
VERTEX
  5
306
  8
0
  6
CONTINUOUS
 62
     7
 10
224.6223554444
 20
95.420811545
 30
0.0
  0
VERTEX
  5
307
  8
0
  6
CONTINUOUS
 62
     7
 10
224.5733435269
 20
95.4528280454
 30
0.0
  0
VERTEX
  5
308
  8
0
  6
CONTINUOUS
 62
     7
 10
224.5544900102
 20
95.4457152322
 30
0.0
  0
SEQEND
  5
339
  8
0
  6
CONTINUOUS
 62
     7
  0
ARC
  5
92
  8
0
  6
CONTINUOUS
 62
     7
 10
210.0733037789
 20
86.8842685835
 30
0.0
 40
25.77295109705097
 50
55.8144089995
 51
57.1026085642
  0
POLYLINE
  5
93
  8
0
  6
CONTINUOUS
 62
     7
 66
     1
 10
0.0
 20
0.0
 30
0.0
 70
   128
  0
VERTEX
  5
309
  8
0
  6
CONTINUOUS
 62
     7
 10
224.5544900102
 20
108.2042182454
 30
0.0
  0
VERTEX
  5
30A
  8
0
  6
CONTINUOUS
 62
     7
 10
224.5928319689
 20
108.2011846331
 30
0.0
  0
VERTEX
  5
30B
  8
0
  6
CONTINUOUS
 62
     7
 10
224.6336553084
 20
108.2471345921
 30
0.0
  0
VERTEX
  5
30C
  8
0
  6
CONTINUOUS
 62
     7
 10
224.6654276497
 20
108.3237718391
 30
0.0
  0
SEQEND
  5
33A
  8
0
  6
CONTINUOUS
 62
     7
  0
POLYLINE
  5
94
  8
0
  6
CONTINUOUS
 62
     7
 66
     1
 10
0.0
 20
0.0
 30
0.0
 70
   128
  0
VERTEX
  5
30D
  8
0
  6
CONTINUOUS
 62
     7
 10
181.4957267488
 20
108.3237718391
 30
0.0
  0
VERTEX
  5
30E
  8
0
  6
CONTINUOUS
 62
     7
 10
181.5387989541
 20
108.2291219326
 30
0.0
  0
VERTEX
  5
30F
  8
0
  6
CONTINUOUS
 62
     7
 10
181.5878108716
 20
108.1971054322
 30
0.0
  0
VERTEX
  5
310
  8
0
  6
CONTINUOUS
 62
     7
 10
181.6066643883
 20
108.2042182454
 30
0.0
  0
SEQEND
  5
33B
  8
0
  6
CONTINUOUS
 62
     7
  0
ARC
  5
95
  8
0
  6
CONTINUOUS
 62
     7
 10
196.0878506199
 20
116.7656648945
 30
0.0
 40
25.77295109752695
 50
235.8144089995
 51
237.1026085642
  0
POLYLINE
  5
96
  8
0
  6
CONTINUOUS
 62
     7
 66
     1
 10
0.0
 20
0.0
 30
0.0
 70
   128
  0
VERTEX
  5
311
  8
0
  6
CONTINUOUS
 62
     7
 10
181.6066643883
 20
95.4457152322
 30
0.0
  0
VERTEX
  5
312
  8
0
  6
CONTINUOUS
 62
     7
 10
181.5683224297
 20
95.4487488445
 30
0.0
  0
VERTEX
  5
313
  8
0
  6
CONTINUOUS
 62
     7
 10
181.5274990901
 20
95.4027988855
 30
0.0
  0
VERTEX
  5
314
  8
0
  6
CONTINUOUS
 62
     7
 10
181.4957267488
 20
95.3261616385
 30
0.0
  0
SEQEND
  5
33C
  8
0
  6
CONTINUOUS
 62
     7
  0
ARC
  5
97
  8
0
  6
CONTINUOUS
 62
     7
 10
227.0805771993
 20
101.8249667388
 30
0.0
 40
9.48533722937717
 50
188.5409782759
 51
256.2569208359
  0
ARC
  5
98
  8
0
  6
CONTINUOUS
 62
     7
 10
227.0805771993
 20
101.8249667388
 30
0.0
 40
9.485337229377176
 50
103.7430791641
 51
171.4590217241
  0
ARC
  5
99
  8
0
  6
CONTINUOUS
 62
     7
 10
179.0805771993
 20
101.8249667388
 30
0.0
 40
9.485337229377183
 50
8.5409782759
 51
76.2569208359
  0
ARC
  5
9A
  8
0
  6
CONTINUOUS
 62
     7
 10
179.0805771993
 20
101.8249667388
 30
0.0
 40
9.48533722937717
 50
283.7430791641
 51
351.4590217241
  0
LINE
  5
9B
  8
0
  6
CONTINUOUS
 62
     7
 10
180.0575523498
 20
93.8848458609
 30
0.0
 11
180.065854034
 21
93.8173760015
 31
0.0
  0
ARC
  5
9C
  8
0
  6
CONTINUOUS
 62
     7
 10
179.0805771993
 20
101.8249667388
 30
0.0
 40
7.99999999999959
 50
277.0145789686
 51
280.8069228749
  0
ARC
  5
9D
  8
0
  6
CONTINUOUS
 62
     7
 10
179.5810719637
 20
95.6274773183
 30
0.0
 40
1.93821930780576
 50
301.0430664325
 51
351.0565211098
  0
ARC
  5
9E
  8
0
  6
CONTINUOUS
 62
     7
 10
178.1240231568
 20
92.4205473302
 30
0.0
 40
2.392036264962571
 50
2.2828663973
 51
35.7288201932
  0
LINE
  5
9F
  8
0
  6
CONTINUOUS
 62
     7
 10
226.1036020487
 20
109.7650876167
 30
0.0
 11
226.0953003645
 21
109.832557476
 31
0.0
  0
ARC
  5
A0
  8
0
  6
CONTINUOUS
 62
     7
 10
227.0805771993
 20
101.8249667388
 30
0.0
 40
8.00000000000402
 50
97.0145789686
 51
100.8069228749
  0
ARC
  5
A1
  8
0
  6
CONTINUOUS
 62
     7
 10
226.5800824349
 20
108.0224561593
 30
0.0
 40
1.938219307806281
 50
121.0430664325
 51
171.0565211098
  0
ARC
  5
A2
  8
0
  6
CONTINUOUS
 62
     7
 10
228.0371312417
 20
111.2293861474
 30
0.0
 40
2.392036264961987
 50
182.2828663973
 51
215.7288201932
  0
POLYLINE
  5
A3
  8
0
  6
CONTINUOUS
 62
     7
 66
     1
 10
0.0
 20
0.0
 30
0.0
 70
   128
  0
VERTEX
  5
315
  8
0
  6
CONTINUOUS
 62
     7
 10
225.5805771993
 20
93.966849916
 30
0.0
  0
VERTEX
  5
316
  8
0
  6
CONTINUOUS
 62
     7
 10
225.0651448376
 20
94.4107341522
 30
0.0
  0
VERTEX
  5
317
  8
0
  6
CONTINUOUS
 62
     7
 10
224.6654276497
 20
95.3261616385
 30
0.0
  0
SEQEND
  5
33D
  8
0
  6
CONTINUOUS
 62
     7
  0
ARC
  5
A4
  8
0
  6
CONTINUOUS
 62
     7
 10
227.0805771993
 20
101.8249667388
 30
0.0
 40
8.00000000000504
 50
259.1930771251
 51
262.9854210314
  0
LINE
  5
A5
  8
0
  6
CONTINUOUS
 62
     7
 10
226.0953003645
 20
93.8173760015
 30
0.0
 11
226.1036020487
 21
93.8848458609
 31
0.0
  0
ARC
  5
A6
  8
0
  6
CONTINUOUS
 62
     7
 10
227.7147639824
 20
92.5315840549
 30
0.0
 40
2.067830587770742
 50
141.5517738165
 51
180.4365395932
  0
POLYLINE
  5
A7
  8
0
  6
CONTINUOUS
 62
     7
 66
     1
 10
0.0
 20
0.0
 30
0.0
 70
   128
  0
VERTEX
  5
318
  8
0
  6
CONTINUOUS
 62
     7
 10
180.5805771993
 20
109.6830835615
 30
0.0
  0
VERTEX
  5
319
  8
0
  6
CONTINUOUS
 62
     7
 10
181.0960095609
 20
109.2391993253
 30
0.0
  0
VERTEX
  5
31A
  8
0
  6
CONTINUOUS
 62
     7
 10
181.4957267488
 20
108.3237718391
 30
0.0
  0
SEQEND
  5
33E
  8
0
  6
CONTINUOUS
 62
     7
  0
ARC
  5
A8
  8
0
  6
CONTINUOUS
 62
     7
 10
179.0805771993
 20
101.8249667388
 30
0.0
 40
7.999999999983632
 50
79.1930771251
 51
82.9854210314
  0
LINE
  5
A9
  8
0
  6
CONTINUOUS
 62
     7
 10
180.065854034
 20
109.832557476
 30
0.0
 11
180.0575523498
 21
109.7650876167
 31
0.0
  0
ARC
  5
AA
  8
0
  6
CONTINUOUS
 62
     7
 10
178.4463904161
 20
111.1183494227
 30
0.0
 40
2.067830587772586
 50
321.5517738165
 51
0.4365395932
  0
ARC
  5
AB
  8
0
  6
CONTINUOUS
 62
     7
 10
296.5805771993
 20
101.8249667388
 30
0.0
 40
12.04755690148865
 50
270.9191639151
 51
89.0808360849
  0
ARC
  5
AC
  8
0
  6
CONTINUOUS
 62
     7
 10
109.5805771993
 20
101.8249667388
 30
0.0
 40
12.04755690148863
 50
90.919163915
 51
269.0808360849
  0
ARC
  5
AD
  8
0
  6
CONTINUOUS
 62
     7
 10
203.0805771993
 20
5929.616633404
 30
0.0
 40
5840.589223566682
 50
269.0808360849
 51
270.9191639151
  0
ARC
  5
AE
  8
0
  6
CONTINUOUS
 62
     7
 10
109.5805771993
 20
101.8249667388
 30
0.0
 40
14.49999999999935
 50
90.9191639151
 51
269.0808360849
  0
ARC
  5
AF
  8
0
  6
CONTINUOUS
 62
     7
 10
219.0288189722
 20
94.9331442287
 30
0.0
 40
7.045824608498084
 50
335.576972182
 51
339.9350748072
  0
ARC
  5
B0
  8
0
  6
CONTINUOUS
 62
     7
 10
187.1323354232
 20
108.7167892502
 30
0.0
 40
7.045824605077074
 50
155.576972181
 51
159.9350748082
  0
ARC
  5
B1
  8
0
  6
CONTINUOUS
 62
     7
 10
219.0288189754
 20
108.7167892502
 30
0.0
 40
7.04582460502575
 50
20.0649251915
 51
24.4230278189
  0
ARC
  5
B2
  8
0
  6
CONTINUOUS
 62
     7
 10
187.1323354237
 20
94.9331442276
 30
0.0
 40
7.045824605691984
 50
200.0649251917
 51
204.4230278186
  0
ARC
  5
B3
  8
0
  6
CONTINUOUS
 62
     7
 10
258.0805771993
 20
-150.1197701033
 30
0.0
 40
261.8447368421091
 50
82.9854210314
 51
97.0145789686
  0
POLYLINE
  5
B4
  8
0
  6
CONTINUOUS
 62
     7
 66
     1
 10
0.0
 20
0.0
 30
0.0
 70
   128
  0
VERTEX
  5
31B
  8
0
  6
CONTINUOUS
 62
     7
 10
225.1969137053
 20
112.1716795692
 30
0.0
  0
VERTEX
  5
31C
  8
0
  6
CONTINUOUS
 62
     7
 10
225.201194144
 20
112.1625698438
 30
0.0
  0
VERTEX
  5
31D
  8
0
  6
CONTINUOUS
 62
     7
 10
225.4441659743
 20
111.6300292417
 30
0.0
  0
SEQEND
  5
33F
  8
0
  6
CONTINUOUS
 62
     7
  0
ARC
  5
B5
  8
0
  6
CONTINUOUS
 62
     7
 10
148.0805771993
 20
353.7697035809
 30
0.0
 40
261.8447368421091
 50
262.9854210314
 51
277.0145789686
  0
POLYLINE
  5
B6
  8
0
  6
CONTINUOUS
 62
     7
 66
     1
 10
0.0
 20
0.0
 30
0.0
 70
   128
  0
VERTEX
  5
31E
  8
0
  6
CONTINUOUS
 62
     7
 10
180.9642406932
 20
91.4782539083
 30
0.0
  0
VERTEX
  5
31F
  8
0
  6
CONTINUOUS
 62
     7
 10
180.9599602545
 20
91.4873636337
 30
0.0
  0
VERTEX
  5
320
  8
0
  6
CONTINUOUS
 62
     7
 10
180.7169884242
 20
92.0199042358
 30
0.0
  0
SEQEND
  5
340
  8
0
  6
CONTINUOUS
 62
     7
  0
ARC
  5
B7
  8
0
  6
CONTINUOUS
 62
     7
 10
148.0805771993
 20
-150.1197701033
 30
0.0
 40
261.8447368421091
 50
82.9854210314
 51
97.0145789686
  0
POLYLINE
  5
B8
  8
0
  6
CONTINUOUS
 62
     7
 66
     1
 10
0.0
 20
0.0
 30
0.0
 70
   128
  0
VERTEX
  5
321
  8
0
  6
CONTINUOUS
 62
     7
 10
180.7169884242
 20
111.6300292417
 30
0.0
  0
VERTEX
  5
322
  8
0
  6
CONTINUOUS
 62
     7
 10
180.9599602545
 20
112.1625698438
 30
0.0
  0
VERTEX
  5
323
  8
0
  6
CONTINUOUS
 62
     7
 10
180.9642406932
 20
112.1716795692
 30
0.0
  0
SEQEND
  5
341
  8
0
  6
CONTINUOUS
 62
     7
  0
ARC
  5
B9
  8
0
  6
CONTINUOUS
 62
     7
 10
258.0805771993
 20
353.7697035809
 30
0.0
 40
261.8447368421091
 50
262.9854210314
 51
277.0145789686
  0
POLYLINE
  5
BA
  8
0
  6
CONTINUOUS
 62
     7
 66
     1
 10
0.0
 20
0.0
 30
0.0
 70
   128
  0
VERTEX
  5
324
  8
0
  6
CONTINUOUS
 62
     7
 10
225.4441659743
 20
92.0199042358
 30
0.0
  0
VERTEX
  5
325
  8
0
  6
CONTINUOUS
 62
     7
 10
225.201194144
 20
91.4873636337
 30
0.0
  0
VERTEX
  5
326
  8
0
  6
CONTINUOUS
 62
     7
 10
225.1969137053
 20
91.4782539083
 30
0.0
  0
SEQEND
  5
342
  8
0
  6
CONTINUOUS
 62
     7
  0
ARC
  5
BB
  8
0
  6
CONTINUOUS
 62
     7
 10
289.0805771993
 20
101.8249667388
 30
0.0
 40
8.000000000000009
 50
277.0145789686
 51
82.9854210314
  0
ARC
  5
BC
  8
0
  6
CONTINUOUS
 62
     7
 10
117.0805771993
 20
101.8249667388
 30
0.0
 40
8.000000000000009
 50
97.0145789686
 51
262.9854210314
  0
LINE
  5
BD
  8
0
  6
CENTER
 62
     7
 10
340.9065771993
 20
101.8249667388
 30
0.0
 11
65.2545771993
 21
101.8249667388
 31
0.0
  0
LINE
  5
BE
  8
0
  6
CONTINUOUS
 62
     7
 10
338.9065771993
 20
89.8249667388
 30
0.0
 11
338.9065771993
 21
101.8249667388
 31
0.0
  0
SOLID
  5
BF
  8
0
  6
CONTINUOUS
 62
     7
 10
338.9065771993
 20
101.8249667388
 30
0.0
 11
337.4065771993
 21
95.8249667388
 31
0.0
 12
340.4065771993
 22
95.8249667388
 32
0.0
 13
340.4065771993
 23
95.8249667388
 33
0.0
  0
LINE
  5
C0
  8
0
  6
CONTINUOUS
 62
     7
 10
67.2545771993
 20
89.8249667388
 30
0.0
 11
67.2545771993
 21
101.8249667388
 31
0.0
  0
SOLID
  5
C1
  8
0
  6
CONTINUOUS
 62
     7
 10
67.2545771993
 20
101.8249667388
 30
0.0
 11
65.7545771993
 21
95.8249667388
 31
0.0
 12
68.7545771993
 22
95.8249667388
 32
0.0
 13
68.7545771993
 23
95.8249667388
 33
0.0
  0
TEXT
  5
C2
  8
0
  6
CONTINUOUS
 62
     7
 10
341.4105129644
 20
93.5582533459
 30
0.0
 40
6.35
  1
A
 41
0.7
 11
341.4105129644
 21
99.9082533459
 31
0.0
 73
     3
  0
TEXT
  5
C3
  8
0
  6
CONTINUOUS
 62
     7
 10
58.4908020213
 20
93.5582533459
 30
0.0
 40
6.35
  1
A
 41
0.7
 11
58.4908020213
 21
99.9082533459
 31
0.0
 73
     3
  0
LINE
  5
C4
  8
0
  6
CONTINUOUS
 62
     7
 10
312.6410742586
 20
197.0223237661
 30
0.0
 11
311.0805771993
 21
195.4618267067
 31
0.0
  0
LINE
  5
C5
  8
0
  6
CONTINUOUS
 62
     7
 10
297.0805771993
 20
159.5965649465
 30
0.0
 11
298.5805771993
 21
158.0965649465
 31
0.0
  0
LINE
  5
C6
  8
0
  6
CONTINUOUS
 62
     7
 10
297.0805771993
 20
164.0866930071
 30
0.0
 11
298.5839963755
 21
162.5832738308
 31
0.0
  0
LINE
  5
C7
  8
0
  6
CONTINUOUS
 62
     7
 10
297.0805771993
 20
168.5768210676
 30
0.0
 11
302.6324981073
 21
163.0249001596
 31
0.0
  0
LINE
  5
C8
  8
0
  6
CONTINUOUS
 62
     7
 10
297.0805771993
 20
173.0669491281
 30
0.0
 11
304.200679124
 21
165.9468472033
 31
0.0
  0
LINE
  5
C9
  8
0
  6
CONTINUOUS
 62
     7
 10
297.0805771993
 20
177.5570771887
 30
0.0
 11
305.1495548321
 21
169.4880995558
 31
0.0
  0
LINE
  5
CA
  8
0
  6
CONTINUOUS
 62
     7
 10
297.0805771993
 20
182.0472052492
 30
0.0
 11
306.0984305401
 21
173.0293519083
 31
0.0
  0
LINE
  5
CB
  8
0
  6
CONTINUOUS
 62
     7
 10
297.0805771993
 20
186.5373333097
 30
0.0
 11
307.0473062482
 21
176.5706042608
 31
0.0
  0
LINE
  5
CC
  8
0
  6
CONTINUOUS
 62
     7
 10
297.0805771993
 20
191.0274613703
 30
0.0
 11
307.9961819562
 21
180.1118566133
 31
0.0
  0
LINE
  5
CD
  8
0
  6
CONTINUOUS
 62
     7
 10
297.5774479265
 20
195.0207187036
 30
0.0
 11
308.9450576643
 21
183.6531089658
 31
0.0
  0
LINE
  5
CE
  8
0
  6
CONTINUOUS
 62
     7
 10
301.063394531
 20
196.0249001596
 30
0.0
 11
310.5150112208
 21
186.5732834698
 31
0.0
  0
LINE
  5
CF
  8
0
  6
CONTINUOUS
 62
     7
 10
310.7358964936
 20
190.8425262575
 30
0.0
 11
311.3982032972
 21
190.1802194539
 31
0.0
  0
LINE
  5
D0
  8
0
  6
CONTINUOUS
 62
     7
 10
305.5535225916
 20
196.0249001596
 30
0.0
 11
309.5805771993
 21
191.9978455519
 31
0.0
  0
LINE
  5
D1
  8
0
  6
CONTINUOUS
 62
     7
 10
309.0495635774
 20
197.0189872342
 30
0.0
 11
312.0436506521
 21
194.0249001596
 31
0.0
  0
LINE
  5
D2
  8
0
  6
CONTINUOUS
 62
     7
 10
187.0805771993
 20
157.3433634332
 30
0.0
 11
188.5554752515
 21
155.8684653809
 31
0.0
  0
LINE
  5
D3
  8
0
  6
CONTINUOUS
 62
     7
 10
187.0805771993
 20
161.8334914937
 30
0.0
 11
188.5805771993
 21
160.3334914937
 31
0.0
  0
LINE
  5
D4
  8
0
  6
CONTINUOUS
 62
     7
 10
187.0805771993
 20
166.3236195542
 30
0.0
 11
189.7706564895
 21
163.633540264
 31
0.0
  0
LINE
  5
D5
  8
0
  6
CONTINUOUS
 62
     7
 10
187.0805771993
 20
170.8137476148
 30
0.0
 11
190.727556106
 21
167.166768708
 31
0.0
  0
LINE
  5
D6
  8
0
  6
CONTINUOUS
 62
     7
 10
187.0805771993
 20
175.3038756753
 30
0.0
 11
191.6764318141
 21
170.7080210605
 31
0.0
  0
LINE
  5
D7
  8
0
  6
CONTINUOUS
 62
     7
 10
187.0805771993
 20
179.7940037358
 30
0.0
 11
192.6253075221
 21
174.249273413
 31
0.0
  0
LINE
  5
D8
  8
0
  6
CONTINUOUS
 62
     7
 10
187.0805771993
 20
184.2841317964
 30
0.0
 11
193.5741832302
 21
177.7905257654
 31
0.0
  0
LINE
  5
D9
  8
0
  6
CONTINUOUS
 62
     7
 10
217.5805771993
 20
158.2742598569
 30
0.0
 11
219.0805771993
 21
156.7742598569
 31
0.0
  0
LINE
  5
DA
  8
0
  6
CONTINUOUS
 62
     7
 10
187.0805771993
 20
188.7742598569
 30
0.0
 11
194.5230589382
 21
181.3317781179
 31
0.0
  0
LINE
  5
DB
  8
0
  6
CONTINUOUS
 62
     7
 10
216.2591326777
 20
164.085832439
 30
0.0
 11
219.0805771993
 21
161.2643879174
 31
0.0
  0
LINE
  5
DC
  8
0
  6
CONTINUOUS
 62
     7
 10
187.0805771993
 20
193.2643879174
 30
0.0
 11
195.4719346463
 21
184.8730304704
 31
0.0
  0
LINE
  5
DD
  8
0
  6
CONTINUOUS
 62
     7
 10
214.6156317413
 20
170.219461436
 30
0.0
 11
219.0805771993
 21
165.754515978
 31
0.0
  0
LINE
  5
DE
  8
0
  6
CONTINUOUS
 62
     7
 10
186.6956021878
 20
198.1394909894
 30
0.0
 11
196.5601930177
 21
188.2749001596
 31
0.0
  0
LINE
  5
DF
  8
0
  6
CONTINUOUS
 62
     7
 10
212.9721308049
 20
176.3530904329
 30
0.0
 11
219.0805771993
 21
170.2446440385
 31
0.0
  0
LINE
  5
E0
  8
0
  6
CONTINUOUS
 62
     7
 10
189.1003210782
 20
200.2249001596
 30
0.0
 11
195.7809524826
 21
193.5442687552
 31
0.0
  0
LINE
  5
E1
  8
0
  6
CONTINUOUS
 62
     7
 10
211.3286298685
 20
182.4867194298
 30
0.0
 11
219.0805771993
 21
174.734772099
 31
0.0
  0
LINE
  5
E2
  8
0
  6
CONTINUOUS
 62
     7
 10
193.5904491387
 20
200.2249001596
 30
0.0
 11
199.7904491387
 21
194.0249001596
 31
0.0
  0
LINE
  5
E3
  8
0
  6
CONTINUOUS
 62
     7
 10
210.3447713083
 20
187.9607060505
 30
0.0
 11
219.0805771993
 21
179.2249001596
 31
0.0
  0
LINE
  5
E4
  8
0
  6
CONTINUOUS
 62
     7
 10
208.3904444715
 20
189.9150328873
 30
0.0
 11
210.0663830902
 21
188.2390942686
 31
0.0
  0
LINE
  5
E5
  8
0
  6
CONTINUOUS
 62
     7
 10
198.0805771993
 20
200.2249001596
 30
0.0
 11
204.2805771993
 21
194.0249001596
 31
0.0
  0
LINE
  5
E6
  8
0
  6
CONTINUOUS
 62
     7
 10
210.3805771993
 20
192.4150282201
 30
0.0
 11
219.0805771993
 21
183.7150282201
 31
0.0
  0
LINE
  5
E7
  8
0
  6
CONTINUOUS
 62
     7
 10
202.5707052598
 20
200.2249001596
 30
0.0
 11
208.7707052598
 21
194.0249001596
 31
0.0
  0
LINE
  5
E8
  8
0
  6
CONTINUOUS
 62
     7
 10
207.0608333203
 20
200.2249001596
 30
0.0
 11
219.0805771993
 21
188.2051562806
 31
0.0
  0
LINE
  5
E9
  8
0
  6
CONTINUOUS
 62
     7
 10
211.5509613809
 20
200.2249001596
 30
0.0
 11
219.0805771993
 21
192.6952843412
 31
0.0
  0
LINE
  5
EA
  8
0
  6
CONTINUOUS
 62
     7
 10
216.0410894414
 20
200.2249001596
 30
0.0
 11
219.1758886206
 21
197.0901009804
 31
0.0
  0
LINE
  5
EB
  8
0
  6
CONTINUOUS
 62
     7
 10
107.5805920735
 20
156.0210434692
 30
0.0
 11
108.0767205089
 21
155.5249150338
 31
0.0
  0
LINE
  5
EC
  8
0
  6
CONTINUOUS
 62
     7
 10
107.5805771993
 20
160.5111864041
 30
0.0
 11
109.0805771993
 21
159.0111864041
 31
0.0
  0
LINE
  5
ED
  8
0
  6
CONTINUOUS
 62
     7
 10
101.892965137
 20
166.1987984663
 30
0.0
 11
105.0668634438
 21
163.0249001596
 31
0.0
  0
LINE
  5
EE
  8
0
  6
CONTINUOUS
 62
     7
 10
100.2494642006
 20
172.3324274632
 30
0.0
 11
109.0805771993
 21
163.5013144646
 31
0.0
  0
LINE
  5
EF
  8
0
  6
CONTINUOUS
 62
     7
 10
98.6059632642
 20
178.4660564602
 30
0.0
 11
109.0805771993
 21
167.9914425251
 31
0.0
  0
LINE
  5
F0
  8
0
  6
CONTINUOUS
 62
     7
 10
96.9624623278
 20
184.5996854571
 30
0.0
 11
109.0805771993
 21
172.4815705857
 31
0.0
  0
LINE
  5
F1
  8
0
  6
CONTINUOUS
 62
     7
 10
95.300382197
 20
190.7518936485
 30
0.0
 11
109.0805771993
 21
176.9716986462
 31
0.0
  0
LINE
  5
F2
  8
0
  6
CONTINUOUS
 62
     7
 10
95.0805771993
 20
195.4618267067
 30
0.0
 11
109.0805771993
 21
181.4618267067
 31
0.0
  0
LINE
  5
F3
  8
0
  6
CONTINUOUS
 62
     7
 10
99.007631807
 20
196.0249001596
 30
0.0
 11
109.0805771993
 21
185.9519547673
 31
0.0
  0
LINE
  5
F4
  8
0
  6
CONTINUOUS
 62
     7
 10
103.4977598675
 20
196.0249001596
 30
0.0
 11
109.0805771993
 21
190.4420828278
 31
0.0
  0
LINE
  5
F5
  8
0
  6
CONTINUOUS
 62
     7
 10
95.0477598675
 20
185.9749001596
 30
0.0
 11
94.5434887173
 21
185.4706290094
 31
0.0
  0
LINE
  5
F6
  8
0
  6
CONTINUOUS
 62
     7
 10
96.5901666283
 20
183.0271788598
 30
0.0
 11
95.0966832203
 21
181.5336954519
 31
0.0
  0
LINE
  5
F7
  8
0
  6
CONTINUOUS
 62
     7
 10
96.6096735169
 20
178.5565576879
 30
0.0
 11
95.1161901089
 21
177.0630742799
 31
0.0
  0
LINE
  5
F8
  8
0
  6
CONTINUOUS
 62
     7
 10
96.6291804054
 20
174.0859365159
 30
0.0
 11
95.1356969975
 21
172.5924531079
 31
0.0
  0
LINE
  5
F9
  8
0
  6
CONTINUOUS
 62
     7
 10
96.648687294
 20
169.6153153439
 30
0.0
 11
95.155203886
 21
168.121831936
 31
0.0
  0
LINE
  5
FA
  8
0
  6
CONTINUOUS
 62
     7
 10
96.6681941825
 20
165.1446941719
 30
0.0
 11
95.1747107746
 21
163.651210764
 31
0.0
  0
LINE
  5
FB
  8
0
  6
CONTINUOUS
 62
     7
 10
96.6877010711
 20
160.674073
 30
0.0
 11
95.1942176631
 21
159.180589592
 31
0.0
  0
LINE
  5
FC
  8
0
  6
CONTINUOUS
 62
     7
 10
96.7072079597
 20
156.203451828
 30
0.0
 11
95.2137245517
 21
154.70996842
 31
0.0
  0
LINE
  5
FD
  8
0
  6
CONTINUOUS
 62
     7
 10
96.7267148482
 20
151.732830656
 30
0.0
 11
95.2332314403
 21
150.2393472481
 31
0.0
  0
LINE
  5
FE
  8
0
  6
CONTINUOUS
 62
     7
 10
97.2487281056
 20
147.7647158528
 30
0.0
 11
96.1587757162
 21
146.6747634634
 31
0.0
  0
LINE
  5
FF
  8
0
  6
CONTINUOUS
 62
     7
 10
99.8080496637
 20
145.8339093504
 30
0.0
 11
98.6215371127
 21
144.6473967994
 31
0.0
  0
LINE
  5
100
  8
0
  6
CONTINUOUS
 62
     7
 10
104.1891685334
 20
145.7249001596
 30
0.0
 11
102.6891685334
 21
144.2249001596
 31
0.0
  0
LINE
  5
101
  8
0
  6
CONTINUOUS
 62
     7
 10
108.6792965939
 20
145.7249001596
 30
0.0
 11
107.1792965939
 21
144.2249001596
 31
0.0
  0
LINE
  5
102
  8
0
  6
CONTINUOUS
 62
     7
 10
113.1694246544
 20
145.7249001596
 30
0.0
 11
111.6694246544
 21
144.2249001596
 31
0.0
  0
LINE
  5
103
  8
0
  6
CONTINUOUS
 62
     7
 10
117.7575002762
 20
145.8228477208
 30
0.0
 11
116.159552715
 21
144.2249001596
 31
0.0
  0
LINE
  5
104
  8
0
  6
CONTINUOUS
 62
     7
 10
122.1496807755
 20
145.7249001596
 30
0.0
 11
120.6496807755
 21
144.2249001596
 31
0.0
  0
LINE
  5
105
  8
0
  6
CONTINUOUS
 62
     7
 10
126.639808836
 20
145.7249001596
 30
0.0
 11
125.139808836
 21
144.2249001596
 31
0.0
  0
LINE
  5
106
  8
0
  6
CONTINUOUS
 62
     7
 10
131.1299368966
 20
145.7249001596
 30
0.0
 11
129.6299368966
 21
144.2249001596
 31
0.0
  0
LINE
  5
107
  8
0
  6
CONTINUOUS
 62
     7
 10
135.6200649571
 20
145.7249001596
 30
0.0
 11
134.1200649571
 21
144.2249001596
 31
0.0
  0
LINE
  5
108
  8
0
  6
CONTINUOUS
 62
     7
 10
140.1101930177
 20
145.7249001596
 30
0.0
 11
138.6101930177
 21
144.2249001596
 31
0.0
  0
LINE
  5
109
  8
0
  6
CONTINUOUS
 62
     7
 10
145.1118611419
 20
146.2364402233
 30
0.0
 11
143.1003210782
 21
144.2249001596
 31
0.0
  0
LINE
  5
10A
  8
0
  6
CONTINUOUS
 62
     7
 10
149.0904491387
 20
145.7249001596
 30
0.0
 11
147.8893832577
 21
144.5238342786
 31
0.0
  0
LINE
  5
10B
  8
0
  6
CONTINUOUS
 62
     7
 10
153.5805771993
 20
145.7249001596
 30
0.0
 11
152.0805771993
 21
144.2249001596
 31
0.0
  0
LINE
  5
10C
  8
0
  6
CONTINUOUS
 62
     7
 10
158.0707052598
 20
145.7249001596
 30
0.0
 11
156.5707052598
 21
144.2249001596
 31
0.0
  0
LINE
  5
10D
  8
0
  6
CONTINUOUS
 62
     7
 10
197.8176656812
 20
185.471860581
 30
0.0
 11
195.7727320112
 21
183.426926911
 31
0.0
  0
LINE
  5
10E
  8
0
  6
CONTINUOUS
 62
     7
 10
162.5608333203
 20
145.7249001596
 30
0.0
 11
161.0608333203
 21
144.2249001596
 31
0.0
  0
LINE
  5
10F
  8
0
  6
CONTINUOUS
 62
     7
 10
197.2596278555
 20
180.4236946947
 30
0.0
 11
195.7530541458
 21
178.9171209851
 31
0.0
  0
LINE
  5
110
  8
0
  6
CONTINUOUS
 62
     7
 10
167.0509613809
 20
145.7249001596
 30
0.0
 11
165.5509613809
 21
144.2249001596
 31
0.0
  0
LINE
  5
111
  8
0
  6
CONTINUOUS
 62
     7
 10
197.2399499901
 20
175.9138887688
 30
0.0
 11
195.7333762804
 21
174.4073150591
 31
0.0
  0
LINE
  5
112
  8
0
  6
CONTINUOUS
 62
     7
 10
171.5410894414
 20
145.7249001596
 30
0.0
 11
170.0410894414
 21
144.2249001596
 31
0.0
  0
LINE
  5
113
  8
0
  6
CONTINUOUS
 62
     7
 10
197.2202721247
 20
171.4040828428
 30
0.0
 11
195.713698415
 21
169.8975091332
 31
0.0
  0
LINE
  5
114
  8
0
  6
CONTINUOUS
 62
     7
 10
176.1312175019
 20
145.8249001596
 30
0.0
 11
174.5312175019
 21
144.2249001596
 31
0.0
  0
LINE
  5
115
  8
0
  6
CONTINUOUS
 62
     7
 10
197.2005942593
 20
166.8942769169
 30
0.0
 11
195.6940205497
 21
165.3877032073
 31
0.0
  0
LINE
  5
116
  8
0
  6
CONTINUOUS
 62
     7
 10
180.5213455625
 20
145.7249001596
 30
0.0
 11
179.0213455625
 21
144.2249001596
 31
0.0
  0
LINE
  5
117
  8
0
  6
CONTINUOUS
 62
     7
 10
197.1809163939
 20
162.384470991
 30
0.0
 11
195.6743426843
 21
160.8778972814
 31
0.0
  0
LINE
  5
118
  8
0
  6
CONTINUOUS
 62
     7
 10
185.011473623
 20
145.7249001596
 30
0.0
 11
183.511473623
 21
144.2249001596
 31
0.0
  0
LINE
  5
119
  8
0
  6
CONTINUOUS
 62
     7
 10
197.1612385285
 20
157.8746650651
 30
0.0
 11
195.6546648189
 21
156.3680913554
 31
0.0
  0
LINE
  5
11A
  8
0
  6
CONTINUOUS
 62
     7
 10
189.5016016835
 20
145.7249001596
 30
0.0
 11
188.0016016835
 21
144.2249001596
 31
0.0
  0
LINE
  5
11B
  8
0
  6
CONTINUOUS
 62
     7
 10
197.1415606631
 20
153.3648591392
 30
0.0
 11
195.6349869535
 21
151.8582854295
 31
0.0
  0
LINE
  5
11C
  8
0
  6
CONTINUOUS
 62
     7
 10
197.0432203703
 20
148.7763907858
 30
0.0
 11
192.5741352624
 21
144.3073056779
 31
0.0
  0
LINE
  5
11D
  8
0
  6
CONTINUOUS
 62
     7
 10
96.4626985195
 20
191.8799668721
 30
0.0
 11
95.557631807
 21
190.9749001596
 31
0.0
  0
LINE
  5
11E
  8
0
  6
CONTINUOUS
 62
     7
 10
197.0904491387
 20
193.7249001596
 30
0.0
 11
196.790388544
 21
193.4248395648
 31
0.0
  0
LINE
  5
11F
  8
0
  6
CONTINUOUS
 62
     7
 10
209.0509613809
 20
187.7249001596
 30
0.0
 11
208.3434887173
 21
187.017427496
 31
0.0
  0
LINE
  5
120
  8
0
  6
CONTINUOUS
 62
     7
 10
210.3834467251
 20
184.5672574433
 30
0.0
 11
208.8866765035
 21
183.0704872216
 31
0.0
  0
LINE
  5
121
  8
0
  6
CONTINUOUS
 62
     7
 10
210.4029536137
 20
180.0966362713
 30
0.0
 11
208.9094702058
 21
178.6031528634
 31
0.0
  0
LINE
  5
122
  8
0
  6
CONTINUOUS
 62
     7
 10
210.4224605023
 20
175.6260150994
 30
0.0
 11
208.9289770943
 21
174.1325316914
 31
0.0
  0
LINE
  5
123
  8
0
  6
CONTINUOUS
 62
     7
 10
210.4419673908
 20
171.1553939274
 30
0.0
 11
208.9484839829
 21
169.6619105194
 31
0.0
  0
LINE
  5
124
  8
0
  6
CONTINUOUS
 62
     7
 10
210.4614742794
 20
166.6847727554
 30
0.0
 11
208.9679908714
 21
165.1912893475
 31
0.0
  0
LINE
  5
125
  8
0
  6
CONTINUOUS
 62
     7
 10
210.4809811679
 20
162.2141515834
 30
0.0
 11
208.98749776
 21
160.7206681755
 31
0.0
  0
LINE
  5
126
  8
0
  6
CONTINUOUS
 62
     7
 10
210.5004880565
 20
157.7435304115
 30
0.0
 11
209.0070046486
 21
156.2500470035
 31
0.0
  0
LINE
  5
127
  8
0
  6
CONTINUOUS
 62
     7
 10
210.5199949451
 20
153.2729092395
 30
0.0
 11
209.0265115371
 21
151.7794258315
 31
0.0
  0
LINE
  5
128
  8
0
  6
CONTINUOUS
 62
     7
 10
210.6242504045
 20
148.8870366384
 30
0.0
 11
209.4262128292
 21
147.6889990631
 31
0.0
  0
LINE
  5
129
  8
0
  6
CONTINUOUS
 62
     7
 10
212.5055902097
 20
146.2782483831
 30
0.0
 11
211.4198519413
 21
145.1925101146
 31
0.0
  0
LINE
  5
12A
  8
0
  6
CONTINUOUS
 62
     7
 10
216.4423700467
 20
145.7249001596
 30
0.0
 11
214.9423700467
 21
144.2249001596
 31
0.0
  0
LINE
  5
12B
  8
0
  6
CONTINUOUS
 62
     7
 10
220.9324981073
 20
145.7249001596
 30
0.0
 11
219.4324981073
 21
144.2249001596
 31
0.0
  0
LINE
  5
12C
  8
0
  6
CONTINUOUS
 62
     7
 10
225.4226261678
 20
145.7249001596
 30
0.0
 11
223.9226261678
 21
144.2249001596
 31
0.0
  0
LINE
  5
12D
  8
0
  6
CONTINUOUS
 62
     7
 10
230.0127542283
 20
145.8249001596
 30
0.0
 11
228.4127542283
 21
144.2249001596
 31
0.0
  0
LINE
  5
12E
  8
0
  6
CONTINUOUS
 62
     7
 10
234.4028822889
 20
145.7249001596
 30
0.0
 11
232.9028822889
 21
144.2249001596
 31
0.0
  0
LINE
  5
12F
  8
0
  6
CONTINUOUS
 62
     7
 10
238.8930103494
 20
145.7249001596
 30
0.0
 11
237.3930103494
 21
144.2249001596
 31
0.0
  0
LINE
  5
130
  8
0
  6
CONTINUOUS
 62
     7
 10
243.3831384099
 20
145.7249001596
 30
0.0
 11
241.8831384099
 21
144.2249001596
 31
0.0
  0
LINE
  5
131
  8
0
  6
CONTINUOUS
 62
     7
 10
247.8732664705
 20
145.7249001596
 30
0.0
 11
246.3732664705
 21
144.2249001596
 31
0.0
  0
LINE
  5
132
  8
0
  6
CONTINUOUS
 62
     7
 10
252.363394531
 20
145.7249001596
 30
0.0
 11
250.863394531
 21
144.2249001596
 31
0.0
  0
LINE
  5
133
  8
0
  6
CONTINUOUS
 62
     7
 10
256.8535225916
 20
145.7249001596
 30
0.0
 11
255.3535225916
 21
144.2249001596
 31
0.0
  0
LINE
  5
134
  8
0
  6
CONTINUOUS
 62
     7
 10
261.7094973669
 20
146.0907468744
 30
0.0
 11
260.4239535921
 21
144.8052030996
 31
0.0
  0
LINE
  5
135
  8
0
  6
CONTINUOUS
 62
     7
 10
265.8337787126
 20
145.7249001596
 30
0.0
 11
264.3337787126
 21
144.2249001596
 31
0.0
  0
LINE
  5
136
  8
0
  6
CONTINUOUS
 62
     7
 10
270.3239067732
 20
145.7249001596
 30
0.0
 11
268.8239067732
 21
144.2249001596
 31
0.0
  0
LINE
  5
137
  8
0
  6
CONTINUOUS
 62
     7
 10
310.5739067732
 20
185.9749001596
 30
0.0
 11
309.5795108139
 21
184.9805042004
 31
0.0
  0
LINE
  5
138
  8
0
  6
CONTINUOUS
 62
     7
 10
274.8140348337
 20
145.7249001596
 30
0.0
 11
273.3140348337
 21
144.2249001596
 31
0.0
  0
LINE
  5
139
  8
0
  6
CONTINUOUS
 62
     7
 10
311.0664066582
 20
181.9772719841
 30
0.0
 11
309.5598329486
 21
180.4706982744
 31
0.0
  0
LINE
  5
13A
  8
0
  6
CONTINUOUS
 62
     7
 10
279.3041628942
 20
145.7249001596
 30
0.0
 11
277.8041628942
 21
144.2249001596
 31
0.0
  0
LINE
  5
13B
  8
0
  6
CONTINUOUS
 62
     7
 10
311.0467287928
 20
177.4674660581
 30
0.0
 11
309.5401550832
 21
175.9608923485
 31
0.0
  0
LINE
  5
13C
  8
0
  6
CONTINUOUS
 62
     7
 10
283.7942909548
 20
145.7249001596
 30
0.0
 11
282.2942909548
 21
144.2249001596
 31
0.0
  0
LINE
  5
13D
  8
0
  6
CONTINUOUS
 62
     7
 10
311.0270509274
 20
172.9576601322
 30
0.0
 11
309.5204772178
 21
171.4510864226
 31
0.0
  0
LINE
  5
13E
  8
0
  6
CONTINUOUS
 62
     7
 10
288.2844190153
 20
145.7249001596
 30
0.0
 11
286.7844190153
 21
144.2249001596
 31
0.0
  0
LINE
  5
13F
  8
0
  6
CONTINUOUS
 62
     7
 10
311.007373062
 20
168.4478542063
 30
0.0
 11
309.5007993524
 21
166.9412804967
 31
0.0
  0
LINE
  5
140
  8
0
  6
CONTINUOUS
 62
     7
 10
292.8651925839
 20
145.8155456676
 30
0.0
 11
291.2745470758
 21
144.2249001596
 31
0.0
  0
LINE
  5
141
  8
0
  6
CONTINUOUS
 62
     7
 10
310.9876951966
 20
163.9380482804
 30
0.0
 11
309.481121487
 21
162.4314745707
 31
0.0
  0
LINE
  5
142
  8
0
  6
CONTINUOUS
 62
     7
 10
297.2646751364
 20
145.7249001596
 30
0.0
 11
295.7646751364
 21
144.2249001596
 31
0.0
  0
LINE
  5
143
  8
0
  6
CONTINUOUS
 62
     7
 10
310.9680173313
 20
159.4282423545
 30
0.0
 11
309.4614436216
 21
157.9216686448
 31
0.0
  0
LINE
  5
144
  8
0
  6
CONTINUOUS
 62
     7
 10
301.7548031969
 20
145.7249001596
 30
0.0
 11
300.2548031969
 21
144.2249001596
 31
0.0
  0
LINE
  5
145
  8
0
  6
CONTINUOUS
 62
     7
 10
310.9483394659
 20
154.9184364285
 30
0.0
 11
309.4417657562
 21
153.4118627189
 31
0.0
  0
LINE
  5
146
  8
0
  6
CONTINUOUS
 62
     7
 10
306.3542022078
 20
145.8341711099
 30
0.0
 11
304.7449312574
 21
144.2249001596
 31
0.0
  0
LINE
  5
147
  8
0
  6
CONTINUOUS
 62
     7
 10
310.9286616005
 20
150.4086305026
 30
0.0
 11
309.3163692173
 21
148.7963381194
 31
0.0
  0
LINE
  5
148
  8
0
  6
CONTINUOUS
 62
     7
 10
311.6176656812
 20
191.5087871282
 30
0.0
 11
311.0837787126
 21
190.9749001596
 31
0.0
  0
LINE
  5
149
  8
0
  6
CONTINUOUS
 62
     7
 10
209.6965309789
 20
192.8605978181
 30
0.0
 11
208.3434887173
 21
191.5075555565
 31
0.0
  0
ARC
  5
14A
  8
0
  6
CONTINUOUS
 62
     7
 10
321.5924316835
 20
188.440934463
 30
0.0
 40
10.27508063161127
 50
185.820957452
 51
193.8866262474
  0
ARC
  5
14B
  8
0
  6
CONTINUOUS
 62
     7
 10
321.6719883193
 20
188.5005380645
 30
0.0
 40
10.35431656306704
 50
166.1742939997
 51
171.4736904292
  0
LINE
  5
14C
  8
0
  6
CONTINUOUS
 62
     7
 10
311.6176656812
 20
185.9749001596
 30
0.0
 11
309.5838497124
 21
185.9749001596
 31
0.0
  0
POLYLINE
  5
14D
  8
0
  6
CONTINUOUS
 62
     7
 66
     1
 10
0.0
 20
0.0
 30
0.0
 70
   128
  0
VERTEX
  5
327
  8
0
  6
CONTINUOUS
 62
     7
 10
309.5580962409
 20
186.0644954973
 30
0.0
  0
VERTEX
  5
328
  8
0
  6
CONTINUOUS
 62
     7
 10
309.576799911
 20
185.9984714004
 30
0.0
  0
VERTEX
  5
329
  8
0
  6
CONTINUOUS
 62
     7
 10
309.5838497124
 20
185.9749001596
 30
0.0
  0
SEQEND
  5
343
  8
0
  6
CONTINUOUS
 62
     7
  0
LINE
  5
14E
  8
0
  6
CONTINUOUS
 62
     7
 10
309.6056664665
 20
190.9749001596
 30
0.0
 11
311.6176656812
 21
190.9749001596
 31
0.0
  0
LINE
  5
14F
  8
0
  6
CONTINUOUS
 62
     7
 10
309.6089390627
 20
191.7249191981
 30
0.0
 11
309.5805771993
 21
191.7249191981
 31
0.0
  0
LINE
  5
150
  8
0
  6
CONTINUOUS
 62
     7
 10
309.6056664665
 20
190.9749001596
 30
0.0
 11
309.6089390627
 21
191.7249191981
 31
0.0
  0
LINE
  5
151
  8
0
  6
CONTINUOUS
 62
     7
 10
309.4256020905
 20
149.7074469224
 30
0.0
 11
309.5838497124
 21
185.9749001596
 31
0.0
  0
LINE
  5
152
  8
0
  6
CONTINUOUS
 62
     7
 10
311.6176656812
 20
185.9749001596
 30
0.0
 11
311.6176656812
 21
184.5450053977
 31
0.0
  0
LINE
  5
153
  8
0
  6
CONTINUOUS
 62
     7
 10
311.6176656812
 20
193.7249001596
 30
0.0
 11
311.6176656812
 21
190.9749001596
 31
0.0
  0
LINE
  5
154
  8
0
  6
CONTINUOUS
 62
     7
 10
229.5995675839
 20
145.8249001596
 30
0.0
 11
229.5995675839
 21
145.7249001596
 31
0.0
  0
LINE
  5
155
  8
0
  6
CONTINUOUS
 62
     7
 10
229.2626120606
 20
145.8249001596
 30
0.0
 11
229.2626120504
 21
145.7249001596
 31
0.0
  0
LINE
  5
156
  8
0
  6
CONTINUOUS
 62
     7
 10
229.5995675839
 20
145.8249001596
 30
0.0
 11
229.2626120606
 21
145.8249001596
 31
0.0
  0
LINE
  5
157
  8
0
  6
CONTINUOUS
 62
     7
 10
228.5190387377
 20
145.8249001596
 30
0.0
 11
228.5190387377
 21
145.7249001596
 31
0.0
  0
LINE
  5
158
  8
0
  6
CONTINUOUS
 62
     7
 10
227.6667115747
 20
145.8249001596
 30
0.0
 11
227.666711576
 21
145.7249001596
 31
0.0
  0
LINE
  5
159
  8
0
  6
CONTINUOUS
 62
     7
 10
228.5190387377
 20
145.8249001596
 30
0.0
 11
227.6667115747
 21
145.8249001596
 31
0.0
  0
LINE
  5
15A
  8
0
  6
CONTINUOUS
 62
     7
 10
230.6728848916
 20
145.8249001596
 30
0.0
 11
230.6728848916
 21
145.7249001596
 31
0.0
  0
LINE
  5
15B
  8
0
  6
CONTINUOUS
 62
     7
 10
231.0983930748
 20
145.7249001596
 30
0.0
 11
231.0983930748
 21
145.8249001596
 31
0.0
  0
LINE
  5
15C
  8
0
  6
CONTINUOUS
 62
     7
 10
231.0983930748
 20
145.8249001596
 30
0.0
 11
230.6728848916
 21
145.8249001596
 31
0.0
  0
ARC
  5
15D
  8
0
  6
CONTINUOUS
 62
     7
 10
305.4256401676
 20
149.7249001596
 30
0.0
 40
4.000000000000022
 50
270.0
 51
359.75
  0
ARC
  5
15E
  8
0
  6
CONTINUOUS
 62
     7
 10
310.6176656812
 20
184.5450053977
 30
0.0
 40
1.0
 50
333.2350794194
 51
0.0
  0
LINE
  5
15F
  8
0
  6
CONTINUOUS
 62
     7
 10
311.1779513373
 20
183.4352829273
 30
0.0
 11
311.5105273828
 21
184.0946744284
 31
0.0
  0
ARC
  5
160
  8
0
  6
CONTINUOUS
 62
     7
 10
312.0708130388
 20
182.9849519579
 30
0.0
 40
1.000000000000048
 50
153.2350794186
 51
179.7500000001
  0
LINE
  5
161
  8
0
  6
CONTINUOUS
 62
     7
 10
310.9255735326
 20
149.7009019585
 30
0.0
 11
311.0708225581
 21
182.9893152672
 31
0.0
  0
ARC
  5
162
  8
0
  6
CONTINUOUS
 62
     7
 10
305.4256258886
 20
149.7249001596
 30
0.0
 40
5.500000000000008
 50
270.0
 51
359.75
  0
LINE
  5
163
  8
0
  6
CONTINUOUS
 62
     7
 10
262.3554456167
 20
144.2249001596
 30
0.0
 11
305.4256258886
 21
144.2249001596
 31
0.0
  0
ARC
  5
164
  8
0
  6
CONTINUOUS
 62
     7
 10
259.9805771993
 20
139.8249001596
 30
0.0
 40
4.99999999999998
 50
61.6423634237
 51
118.3576365763
  0
LINE
  5
165
  8
0
  6
CONTINUOUS
 62
     7
 10
214.5355285099
 20
144.2249001596
 30
0.0
 11
257.6057087818
 21
144.2249001596
 31
0.0
  0
ARC
  5
166
  8
0
  6
CONTINUOUS
 62
     7
 10
214.5355285099
 20
149.7249001596
 30
0.0
 40
5.50000000000001
 50
180.25
 51
270.0
  0
LINE
  5
167
  8
0
  6
CONTINUOUS
 62
     7
 10
208.8903318405
 20
182.9893152464
 30
0.0
 11
209.035580866
 21
149.7009019585
 31
0.0
  0
ARC
  5
168
  8
0
  6
CONTINUOUS
 62
     7
 10
207.8903413597
 20
182.9849519579
 30
0.0
 40
0.9999999999999845
 50
0.2499988101
 51
26.7649205814
  0
LINE
  5
169
  8
0
  6
CONTINUOUS
 62
     7
 10
208.4506270158
 20
184.0946744284
 30
0.0
 11
208.7832030612
 21
183.4352829273
 31
0.0
  0
ARC
  5
16A
  8
0
  6
CONTINUOUS
 62
     7
 10
209.3434887173
 20
184.5450053977
 30
0.0
 40
1.0
 50
179.9999999999
 51
206.7649205814
  0
LINE
  5
16B
  8
0
  6
CONTINUOUS
 62
     7
 10
208.3434887173
 20
184.5450053977
 30
0.0
 11
208.3434887173
 21
187.7249001596
 31
0.0
  0
LINE
  5
16C
  8
0
  6
CONTINUOUS
 62
     7
 10
210.3696688222
 20
187.7249001596
 30
0.0
 11
208.3434887173
 21
187.7249001596
 31
0.0
  0
LINE
  5
16D
  8
0
  6
CONTINUOUS
 62
     7
 10
210.3696688222
 20
187.7249001596
 30
0.0
 11
210.535552308
 21
149.7074469224
 31
0.0
  0
ARC
  5
16E
  8
0
  6
CONTINUOUS
 62
     7
 10
214.5355142309
 20
149.7249001596
 30
0.0
 40
4.000000000000022
 50
180.25
 51
270.0
  0
LINE
  5
16F
  8
0
  6
CONTINUOUS
 62
     7
 10
225.71134643
 20
145.7249001596
 30
0.0
 11
225.71134643
 21
145.8249001596
 31
0.0
  0
LINE
  5
170
  8
0
  6
CONTINUOUS
 62
     7
 10
225.9421156608
 20
145.8249001596
 30
0.0
 11
225.71134643
 21
145.8249001596
 31
0.0
  0
LINE
  5
171
  8
0
  6
CONTINUOUS
 62
     7
 10
225.9421156608
 20
145.8249001596
 30
0.0
 11
225.9421156608
 21
145.7249001596
 31
0.0
  0
LINE
  5
172
  8
0
  6
CONTINUOUS
 62
     7
 10
227.3818294222
 20
145.7249001596
 30
0.0
 11
227.3818294234
 21
145.8249001596
 31
0.0
  0
LINE
  5
173
  8
0
  6
CONTINUOUS
 62
     7
 10
228.8651925839
 20
145.7249001596
 30
0.0
 11
228.8651925839
 21
145.8249001596
 31
0.0
  0
LINE
  5
174
  8
0
  6
CONTINUOUS
 62
     7
 10
228.8651925839
 20
145.8249001596
 30
0.0
 11
229.2626120606
 21
145.8249001596
 31
0.0
  0
LINE
  5
175
  8
0
  6
CONTINUOUS
 62
     7
 10
229.9111406331
 20
145.7249001596
 30
0.0
 11
229.911140629
 21
145.8249001596
 31
0.0
  0
LINE
  5
176
  8
0
  6
CONTINUOUS
 62
     7
 10
229.911140629
 20
145.8249001596
 30
0.0
 11
230.241039043
 21
145.8249001596
 31
0.0
  0
LINE
  5
177
  8
0
  6
CONTINUOUS
 62
     7
 10
231.831722925
 20
145.8249001596
 30
0.0
 11
231.8317228976
 21
145.7249001596
 31
0.0
  0
ARC
  5
178
  8
0
  6
CONTINUOUS
 62
     7
 10
259.9805771993
 20
139.8249001596
 30
0.0
 40
6.499999999999419
 50
65.1883684974
 51
114.8116315026
  0
LINE
  5
179
  8
0
  6
CONTINUOUS
 62
     7
 10
284.6722448832
 20
145.7249001596
 30
0.0
 11
284.6722448832
 21
145.8249001596
 31
0.0
  0
LINE
  5
17A
  8
0
  6
CONTINUOUS
 62
     7
 10
284.6722448832
 20
145.8249001596
 30
0.0
 11
285.0548165301
 21
145.8249001596
 31
0.0
  0
LINE
  5
17B
  8
0
  6
CONTINUOUS
 62
     7
 10
285.0548165301
 20
145.8249001596
 30
0.0
 11
285.0548165301
 21
145.7249001596
 31
0.0
  0
LINE
  5
17C
  8
0
  6
CONTINUOUS
 62
     7
 10
286.0575002762
 20
145.7249001596
 30
0.0
 11
286.0575002762
 21
145.8249001596
 31
0.0
  0
LINE
  5
17D
  8
0
  6
CONTINUOUS
 62
     7
 10
286.3267310454
 20
145.8249001596
 30
0.0
 11
286.0575002762
 21
145.8249001596
 31
0.0
  0
LINE
  5
17E
  8
0
  6
CONTINUOUS
 62
     7
 10
286.3267310454
 20
145.8249001596
 30
0.0
 11
286.3267310454
 21
145.7249001596
 31
0.0
  0
LINE
  5
17F
  8
0
  6
CONTINUOUS
 62
     7
 10
286.7225541059
 20
145.7249001596
 30
0.0
 11
286.7225541059
 21
145.8249001596
 31
0.0
  0
LINE
  5
180
  8
0
  6
CONTINUOUS
 62
     7
 10
286.9551213857
 20
145.8249001596
 30
0.0
 11
286.7225541059
 21
145.8249001596
 31
0.0
  0
LINE
  5
181
  8
0
  6
CONTINUOUS
 62
     7
 10
286.9551213857
 20
145.8249001596
 30
0.0
 11
286.9551213857
 21
145.7249001596
 31
0.0
  0
LINE
  5
182
  8
0
  6
CONTINUOUS
 62
     7
 10
286.9551213857
 20
145.7249001596
 30
0.0
 11
287.7397627924
 21
145.7249001596
 31
0.0
  0
LINE
  5
183
  8
0
  6
CONTINUOUS
 62
     7
 10
287.7397627924
 20
145.7249001596
 30
0.0
 11
287.7397627924
 21
145.8249001596
 31
0.0
  0
LINE
  5
184
  8
0
  6
CONTINUOUS
 62
     7
 10
287.9966696138
 20
145.8249001596
 30
0.0
 11
287.7397627924
 21
145.8249001596
 31
0.0
  0
LINE
  5
185
  8
0
  6
CONTINUOUS
 62
     7
 10
287.9966696138
 20
145.8249001596
 30
0.0
 11
287.9966696138
 21
145.7249001596
 31
0.0
  0
LINE
  5
186
  8
0
  6
CONTINUOUS
 62
     7
 10
288.4036541223
 20
145.7249001596
 30
0.0
 11
288.4036541223
 21
145.8249001596
 31
0.0
  0
LINE
  5
187
  8
0
  6
CONTINUOUS
 62
     7
 10
288.6728848916
 20
145.8249001596
 30
0.0
 11
288.4036541223
 21
145.8249001596
 31
0.0
  0
LINE
  5
188
  8
0
  6
CONTINUOUS
 62
     7
 10
288.6728848916
 20
145.8249001596
 30
0.0
 11
288.6728848916
 21
145.7249001596
 31
0.0
  0
LINE
  5
189
  8
0
  6
CONTINUOUS
 62
     7
 10
289.2114484035
 20
145.7249001596
 30
0.0
 11
289.2114484035
 21
145.8249001596
 31
0.0
  0
LINE
  5
18A
  8
0
  6
CONTINUOUS
 62
     7
 10
289.2114484035
 20
145.8249001596
 30
0.0
 11
289.480629227
 21
145.8249001596
 31
0.0
  0
LINE
  5
18B
  8
0
  6
CONTINUOUS
 62
     7
 10
289.480629227
 20
145.8249001596
 30
0.0
 11
289.480629227
 21
145.7249001596
 31
0.0
  0
LINE
  5
18C
  8
0
  6
CONTINUOUS
 62
     7
 10
289.480629227
 20
145.7249001596
 30
0.0
 11
290.7882143997
 21
145.7249001596
 31
0.0
  0
LINE
  5
18D
  8
0
  6
CONTINUOUS
 62
     7
 10
290.7882143997
 20
145.7249001596
 30
0.0
 11
290.7882143996
 21
145.8249001596
 31
0.0
  0
LINE
  5
18E
  8
0
  6
CONTINUOUS
 62
     7
 10
290.7882143996
 20
145.8249001596
 30
0.0
 11
291.0573983944
 21
145.8249001596
 31
0.0
  0
LINE
  5
18F
  8
0
  6
CONTINUOUS
 62
     7
 10
291.0573983944
 20
145.8249001596
 30
0.0
 11
291.0573983943
 21
145.7249001596
 31
0.0
  0
LINE
  5
190
  8
0
  6
CONTINUOUS
 62
     7
 10
291.632146707
 20
145.7249001596
 30
0.0
 11
291.6321467005
 21
145.8249001596
 31
0.0
  0
LINE
  5
191
  8
0
  6
CONTINUOUS
 62
     7
 10
291.6321467005
 20
145.8249001596
 30
0.0
 11
292.8651925839
 21
145.8249001596
 31
0.0
  0
LINE
  5
192
  8
0
  6
CONTINUOUS
 62
     7
 10
292.8651925839
 20
145.8249001596
 30
0.0
 11
292.8651925839
 21
145.7249001596
 31
0.0
  0
LINE
  5
193
  8
0
  6
CONTINUOUS
 62
     7
 10
293.8294147915
 20
145.7249001596
 30
0.0
 11
293.8294147915
 21
145.8249001596
 31
0.0
  0
LINE
  5
194
  8
0
  6
CONTINUOUS
 62
     7
 10
294.2114596156
 20
145.8249001596
 30
0.0
 11
293.8294147915
 21
145.8249001596
 31
0.0
  0
LINE
  5
195
  8
0
  6
CONTINUOUS
 62
     7
 10
294.2114596156
 20
145.8249001596
 30
0.0
 11
294.2114596156
 21
145.7249001596
 31
0.0
  0
LINE
  5
196
  8
0
  6
CONTINUOUS
 62
     7
 10
231.0983930748
 20
145.8249001596
 30
0.0
 11
231.831722925
 21
145.8249001596
 31
0.0
  0
LINE
  5
197
  8
0
  6
CONTINUOUS
 62
     7
 10
227.3818294234
 20
145.8249001596
 30
0.0
 11
227.6667115747
 21
145.8249001596
 31
0.0
  0
LINE
  5
198
  8
0
  6
CONTINUOUS
 62
     7
 10
294.2114596156
 20
145.7249001596
 30
0.0
 11
305.4256401676
 21
145.7249001596
 31
0.0
  0
LINE
  5
199
  8
0
  6
CONTINUOUS
 62
     7
 10
292.8651925839
 20
145.7249001596
 30
0.0
 11
293.8294147915
 21
145.7249001596
 31
0.0
  0
LINE
  5
19A
  8
0
  6
CONTINUOUS
 62
     7
 10
291.0573983943
 20
145.7249001596
 30
0.0
 11
291.632146707
 21
145.7249001596
 31
0.0
  0
LINE
  5
19B
  8
0
  6
CONTINUOUS
 62
     7
 10
288.6728848916
 20
145.7249001596
 30
0.0
 11
289.2114484035
 21
145.7249001596
 31
0.0
  0
LINE
  5
19C
  8
0
  6
CONTINUOUS
 62
     7
 10
287.9966696138
 20
145.7249001596
 30
0.0
 11
288.4036541223
 21
145.7249001596
 31
0.0
  0
LINE
  5
19D
  8
0
  6
CONTINUOUS
 62
     7
 10
286.3267310454
 20
145.7249001596
 30
0.0
 11
286.7225541059
 21
145.7249001596
 31
0.0
  0
LINE
  5
19E
  8
0
  6
CONTINUOUS
 62
     7
 10
285.0548165301
 20
145.7249001596
 30
0.0
 11
286.0575002762
 21
145.7249001596
 31
0.0
  0
LINE
  5
19F
  8
0
  6
CONTINUOUS
 62
     7
 10
262.7082135387
 20
145.7249001596
 30
0.0
 11
284.6722448832
 21
145.7249001596
 31
0.0
  0
LINE
  5
1A0
  8
0
  6
CONTINUOUS
 62
     7
 10
231.8317228976
 20
145.7249001596
 30
0.0
 11
257.2529408599
 21
145.7249001596
 31
0.0
  0
LINE
  5
1A1
  8
0
  6
CONTINUOUS
 62
     7
 10
230.2410390441
 20
145.7249001596
 30
0.0
 11
231.0983930748
 21
145.7249001596
 31
0.0
  0
LINE
  5
1A2
  8
0
  6
CONTINUOUS
 62
     7
 10
227.666711576
 20
145.7249001596
 30
0.0
 11
228.8651925839
 21
145.7249001596
 31
0.0
  0
LINE
  5
1A3
  8
0
  6
CONTINUOUS
 62
     7
 10
225.9421156608
 20
145.7249001596
 30
0.0
 11
227.3818294222
 21
145.7249001596
 31
0.0
  0
LINE
  5
1A4
  8
0
  6
CONTINUOUS
 62
     7
 10
214.5355142309
 20
145.7249001596
 30
0.0
 11
225.71134643
 21
145.7249001596
 31
0.0
  0
LINE
  5
1A5
  8
0
  6
CONTINUOUS
 62
     7
 10
230.241039043
 20
145.8249001596
 30
0.0
 11
230.2410390441
 21
145.7249001596
 31
0.0
  0
LINE
  5
1A6
  8
0
  6
CONTINUOUS
 62
     7
 10
229.2626120504
 20
145.7249001596
 30
0.0
 11
229.9111406331
 21
145.7249001596
 31
0.0
  0
LINE
  5
1A7
  8
0
  6
CONTINUOUS
 62
     7
 10
293.21134643
 20
145.8249001596
 30
0.0
 11
293.21134643
 21
145.7249001596
 31
0.0
  0
LINE
  5
1A8
  8
0
  6
CONTINUOUS
 62
     7
 10
293.8294147915
 20
145.8249001596
 30
0.0
 11
293.21134643
 21
145.8249001596
 31
0.0
  0
LINE
  5
1A9
  8
0
  6
CONTINUOUS
 62
     7
 10
229.911140629
 20
145.8249001596
 30
0.0
 11
229.5995675839
 21
145.8249001596
 31
0.0
  0
LINE
  5
1AA
  8
0
  6
CONTINUOUS
 62
     7
 10
232.21134643
 20
145.8249001596
 30
0.0
 11
232.21134643
 21
145.7249001596
 31
0.0
  0
LINE
  5
1AB
  8
0
  6
CONTINUOUS
 62
     7
 10
232.21134643
 20
145.8249001596
 30
0.0
 11
231.831722925
 21
145.8249001596
 31
0.0
  0
LINE
  5
1AC
  8
0
  6
CONTINUOUS
 62
     7
 10
291.0575002762
 20
145.8249001596
 30
0.0
 11
291.0575002762
 21
145.7249001596
 31
0.0
  0
LINE
  5
1AD
  8
0
  6
CONTINUOUS
 62
     7
 10
291.0575002762
 20
145.8249001596
 30
0.0
 11
291.0573983944
 21
145.8249001596
 31
0.0
  0
LINE
  5
1AE
  8
0
  6
CONTINUOUS
 62
     7
 10
287.3489666223
 20
145.8249001596
 30
0.0
 11
287.3489666223
 21
145.7249001596
 31
0.0
  0
LINE
  5
1AF
  8
0
  6
CONTINUOUS
 62
     7
 10
287.7397627924
 20
145.8249001596
 30
0.0
 11
287.3489666223
 21
145.8249001596
 31
0.0
  0
LINE
  5
1B0
  8
0
  6
CONTINUOUS
 62
     7
 10
287.3405531608
 20
145.8249001596
 30
0.0
 11
287.3405531608
 21
145.7249001596
 31
0.0
  0
LINE
  5
1B1
  8
0
  6
CONTINUOUS
 62
     7
 10
287.3405531608
 20
145.8249001596
 30
0.0
 11
286.9551213857
 21
145.8249001596
 31
0.0
  0
LINE
  5
1B2
  8
0
  6
CONTINUOUS
 62
     7
 10
262.3554456167
 20
144.2249001596
 30
0.0
 11
257.6057087818
 21
144.2249001596
 31
0.0
  0
LINE
  5
1B3
  8
0
  6
CONTINUOUS
 62
     7
 10
208.3434887173
 20
190.7249001596
 30
0.0
 11
208.3434887173
 21
193.7249001596
 31
0.0
  0
POLYLINE
  5
1B4
  8
0
  6
CONTINUOUS
 62
     7
 66
     1
 10
0.0
 20
0.0
 30
0.0
 70
   128
  0
VERTEX
  5
32A
  8
0
  6
CONTINUOUS
 62
     7
 10
208.915456075
 20
190.6407261052
 30
0.0
  0
VERTEX
  5
32B
  8
0
  6
CONTINUOUS
 62
     7
 10
208.8829487106
 20
190.6850963412
 30
0.0
  0
VERTEX
  5
32C
  8
0
  6
CONTINUOUS
 62
     7
 10
208.7929329174
 20
190.7249001596
 30
0.0
  0
SEQEND
  5
344
  8
0
  6
CONTINUOUS
 62
     7
  0
ARC
  5
1B5
  8
0
  6
CONTINUOUS
 62
     7
 10
208.4034961988
 20
188.3237540594
 30
0.0
 40
0.7143437206432731
 50
303.0360857003
 51
0.3609411782
  0
LINE
  5
1B6
  8
0
  6
CONTINUOUS
 62
     7
 10
285.6728848916
 20
145.8249001596
 30
0.0
 11
285.6728848916
 21
145.7249001596
 31
0.0
  0
LINE
  5
1B7
  8
0
  6
CONTINUOUS
 62
     7
 10
285.6728848916
 20
145.8249001596
 30
0.0
 11
285.0548165301
 21
145.8249001596
 31
0.0
  0
LINE
  5
1B8
  8
0
  6
CONTINUOUS
 62
     7
 10
208.3434887173
 20
193.7249001596
 30
0.0
 11
209.1975257894
 21
193.7249001596
 31
0.0
  0
LINE
  5
1B9
  8
0
  6
CONTINUOUS
 62
     7
 10
209.1975257894
 20
193.7249001596
 30
0.0
 11
210.3522153359
 21
191.7249191981
 31
0.0
  0
LINE
  5
1BA
  8
0
  6
CONTINUOUS
 62
     7
 10
210.3522153359
 20
191.7249191981
 30
0.0
 11
210.3565787697
 21
190.7249001596
 31
0.0
  0
LINE
  5
1BB
  8
0
  6
CONTINUOUS
 62
     7
 10
208.3434887173
 20
190.7249001596
 30
0.0
 11
210.3565787697
 21
190.7249001596
 31
0.0
  0
LINE
  5
1BC
  8
0
  6
CONTINUOUS
 62
     7
 10
210.3805771993
 20
191.7249191981
 30
0.0
 11
210.3522153359
 21
191.7249191981
 31
0.0
  0
LINE
  5
1BD
  8
0
  6
CONTINUOUS
 62
     7
 10
210.3696688222
 20
187.7249001596
 30
0.0
 11
210.3805771993
 21
187.7249001596
 31
0.0
  0
LINE
  5
1BE
  8
0
  6
CONTINUOUS
 62
     7
 10
309.6089390627
 20
191.7249191981
 30
0.0
 11
310.7636286091
 21
193.7249001596
 31
0.0
  0
LINE
  5
1BF
  8
0
  6
CONTINUOUS
 62
     7
 10
309.7107051833
 20
193.7249001596
 30
0.0
 11
310.7636286091
 21
193.7249001596
 31
0.0
  0
LINE
  5
1C0
  8
0
  6
CONTINUOUS
 62
     7
 10
209.1975257894
 20
193.7249001596
 30
0.0
 11
210.3388347688
 21
193.7249001596
 31
0.0
  0
LINE
  5
1C1
  8
0
  6
CONTINUOUS
 62
     7
 10
289.21134643
 20
145.8249001596
 30
0.0
 11
289.21134643
 21
145.7249001596
 31
0.0
  0
LINE
  5
1C2
  8
0
  6
CONTINUOUS
 62
     7
 10
310.7636286091
 20
193.7249001596
 30
0.0
 11
311.6176656812
 21
193.7249001596
 31
0.0
  0
LINE
  5
1C3
  8
0
  6
CONTINUOUS
 62
     7
 10
290.1344233531
 20
145.8249001596
 30
0.0
 11
289.4805771993
 21
145.8249001596
 31
0.0
  0
LINE
  5
1C4
  8
0
  6
CONTINUOUS
 62
     7
 10
290.7882695069
 20
145.8249001596
 30
0.0
 11
290.1344233531
 21
145.8249001596
 31
0.0
  0
LINE
  5
1C5
  8
0
  6
CONTINUOUS
 62
     7
 10
294.9168752762
 20
145.8249001596
 30
0.0
 11
294.9168752762
 21
145.7249001596
 31
0.0
  0
LINE
  5
1C6
  8
0
  6
CONTINUOUS
 62
     7
 10
294.9168752762
 20
145.8249001596
 30
0.0
 11
294.2114596156
 21
145.8249001596
 31
0.0
  0
LINE
  5
1C7
  8
0
  6
CONTINUOUS
 62
     7
 10
283.9673560454
 20
145.8249001596
 30
0.0
 11
283.9673560454
 21
145.7249001596
 31
0.0
  0
LINE
  5
1C8
  8
0
  6
CONTINUOUS
 62
     7
 10
284.6722448832
 20
145.8249001596
 30
0.0
 11
283.9673560454
 21
145.8249001596
 31
0.0
  0
LINE
  5
1C9
  8
0
  6
CONTINUOUS
 62
     7
 10
230.2882695069
 20
145.8249001596
 30
0.0
 11
230.2882695069
 21
145.7249001596
 31
0.0
  0
LINE
  5
1CA
  8
0
  6
CONTINUOUS
 62
     7
 10
230.2882695069
 20
145.8249001596
 30
0.0
 11
230.241039043
 21
145.8249001596
 31
0.0
  0
LINE
  5
1CB
  8
0
  6
CONTINUOUS
 62
     7
 10
287.3489666223
 20
145.8249001596
 30
0.0
 11
287.3405531608
 21
145.8249001596
 31
0.0
  0
LINE
  5
1CC
  8
0
  6
CONTINUOUS
 62
     7
 10
227.0575002762
 20
145.8249001596
 30
0.0
 11
227.0575002762
 21
145.7249001596
 31
0.0
  0
LINE
  5
1CD
  8
0
  6
CONTINUOUS
 62
     7
 10
227.3818294234
 20
145.8249001596
 30
0.0
 11
227.0575002762
 21
145.8249001596
 31
0.0
  0
ARC
  5
1CE
  8
0
  6
CONTINUOUS
 62
     7
 10
218.4355142309
 20
149.7249001596
 30
0.0
 40
4.000000000000022
 50
180.25
 51
270.0
  0
LINE
  5
1CF
  8
0
  6
CONTINUOUS
 62
     7
 10
214.3415886065
 20
171.2422043382
 30
0.0
 11
214.435552308
 21
149.7074469224
 31
0.0
  0
LINE
  5
1D0
  8
0
  6
CONTINUOUS
 62
     7
 10
96.5773046861
 20
185.9749001596
 30
0.0
 11
96.735552308
 21
149.7074469224
 31
0.0
  0
POLYLINE
  5
1D1
  8
0
  6
CONTINUOUS
 62
     7
 66
     1
 10
0.0
 20
0.0
 30
0.0
 70
   128
  0
VERTEX
  5
32D
  8
0
  6
CONTINUOUS
 62
     7
 10
96.5773046861
 20
185.9749001596
 30
0.0
  0
VERTEX
  5
32E
  8
0
  6
CONTINUOUS
 62
     7
 10
96.5911487956
 20
186.0213863978
 30
0.0
  0
VERTEX
  5
32F
  8
0
  6
CONTINUOUS
 62
     7
 10
96.5988613301
 20
186.0489729333
 30
0.0
  0
SEQEND
  5
345
  8
0
  6
CONTINUOUS
 62
     7
  0
LINE
  5
1D2
  8
0
  6
CONTINUOUS
 62
     7
 10
96.5522153359
 20
191.7249191981
 30
0.0
 11
96.555487932
 21
190.9749001596
 31
0.0
  0
LINE
  5
1D3
  8
0
  6
CONTINUOUS
 62
     7
 10
96.5805771993
 20
191.7249191981
 30
0.0
 11
96.5522153359
 21
191.7249191981
 31
0.0
  0
ARC
  5
1D4
  8
0
  6
CONTINUOUS
 62
     7
 10
85.3875683614
 20
188.7003542983
 30
0.0
 40
9.434216259887746
 50
8.3304060913
 51
13.9511990038
  0
ARC
  5
1D5
  8
0
  6
CONTINUOUS
 62
     7
 10
83.974291651
 20
188.5697412595
 30
0.0
 40
10.8830660643177
 50
346.2061490162
 51
353.8255207591
  0
LINE
  5
1D6
  8
0
  6
CONTINUOUS
 62
     7
 10
94.5434887173
 20
190.9749001596
 30
0.0
 11
96.555487932
 21
190.9749001596
 31
0.0
  0
LINE
  5
1D7
  8
0
  6
CONTINUOUS
 62
     7
 10
96.5773046861
 20
185.9749001596
 30
0.0
 11
94.5434887173
 21
185.9749001596
 31
0.0
  0
LINE
  5
1D8
  8
0
  6
CONTINUOUS
 62
     7
 10
94.5434887173
 20
190.9749001596
 30
0.0
 11
94.5434887173
 21
193.7249001596
 31
0.0
  0
LINE
  5
1D9
  8
0
  6
CONTINUOUS
 62
     7
 10
94.5434887173
 20
184.5450053977
 30
0.0
 11
94.5434887173
 21
185.9749001596
 31
0.0
  0
LINE
  5
1DA
  8
0
  6
CONTINUOUS
 62
     7
 10
114.7959618146
 20
145.8249001596
 30
0.0
 11
114.7959618146
 21
145.7249001596
 31
0.0
  0
LINE
  5
1DB
  8
0
  6
CONTINUOUS
 62
     7
 10
114.529007698
 20
145.8249001596
 30
0.0
 11
114.5290076915
 21
145.7249001596
 31
0.0
  0
LINE
  5
1DC
  8
0
  6
CONTINUOUS
 62
     7
 10
114.7959618146
 20
145.8249001596
 30
0.0
 11
114.529007698
 21
145.8249001596
 31
0.0
  0
LINE
  5
1DD
  8
0
  6
CONTINUOUS
 62
     7
 10
179.1036541223
 20
145.8249001596
 30
0.0
 11
179.1036541223
 21
145.7249001596
 31
0.0
  0
LINE
  5
1DE
  8
0
  6
CONTINUOUS
 62
     7
 10
178.7793249751
 20
145.8249001596
 30
0.0
 11
178.7793249763
 21
145.7249001596
 31
0.0
  0
LINE
  5
1DF
  8
0
  6
CONTINUOUS
 62
     7
 10
179.1036541223
 20
145.8249001596
 30
0.0
 11
178.7793249751
 21
145.8249001596
 31
0.0
  0
LINE
  5
1E0
  8
0
  6
CONTINUOUS
 62
     7
 10
115.3729399989
 20
145.8249001596
 30
0.0
 11
115.3729399989
 21
145.7249001596
 31
0.0
  0
LINE
  5
1E1
  8
0
  6
CONTINUOUS
 62
     7
 10
116.0267310454
 20
145.8249001596
 30
0.0
 11
115.3729399989
 21
145.8249001596
 31
0.0
  0
LINE
  5
1E2
  8
0
  6
CONTINUOUS
 62
     7
 10
122.1937983531
 20
145.8249001596
 30
0.0
 11
122.1937983531
 21
145.7249001596
 31
0.0
  0
LINE
  5
1E3
  8
0
  6
CONTINUOUS
 62
     7
 10
121.4889095153
 20
145.8249001596
 30
0.0
 11
121.4889095153
 21
145.7249001596
 31
0.0
  0
LINE
  5
1E4
  8
0
  6
CONTINUOUS
 62
     7
 10
122.1937983531
 20
145.8249001596
 30
0.0
 11
121.4889095153
 21
145.8249001596
 31
0.0
  0
LINE
  5
1E5
  8
0
  6
CONTINUOUS
 62
     7
 10
113.2959618146
 20
145.7249001596
 30
0.0
 11
113.2959618146
 21
145.8249001596
 31
0.0
  0
LINE
  5
1E6
  8
0
  6
CONTINUOUS
 62
     7
 10
113.2959618146
 20
145.8249001596
 30
0.0
 11
114.529007698
 21
145.8249001596
 31
0.0
  0
LINE
  5
1E7
  8
0
  6
CONTINUOUS
 62
     7
 10
116.6805251715
 20
145.7249001596
 30
0.0
 11
116.6805251715
 21
145.8249001596
 31
0.0
  0
LINE
  5
1E8
  8
0
  6
CONTINUOUS
 62
     7
 10
117.4882695069
 20
145.7249001596
 30
0.0
 11
117.4882695069
 21
145.8249001596
 31
0.0
  0
LINE
  5
1E9
  8
0
  6
CONTINUOUS
 62
     7
 10
117.7575002762
 20
145.8249001596
 30
0.0
 11
117.4882695069
 21
145.8249001596
 31
0.0
  0
LINE
  5
1EA
  8
0
  6
CONTINUOUS
 62
     7
 10
117.7575002762
 20
145.8249001596
 30
0.0
 11
117.7575002762
 21
145.7249001596
 31
0.0
  0
LINE
  5
1EB
  8
0
  6
CONTINUOUS
 62
     7
 10
117.7575002762
 20
145.7249001596
 30
0.0
 11
118.1644847847
 21
145.7249001596
 31
0.0
  0
LINE
  5
1EC
  8
0
  6
CONTINUOUS
 62
     7
 10
118.1644847847
 20
145.7249001596
 30
0.0
 11
118.1644847847
 21
145.8249001596
 31
0.0
  0
LINE
  5
1ED
  8
0
  6
CONTINUOUS
 62
     7
 10
118.4213916061
 20
145.8249001596
 30
0.0
 11
118.1644847847
 21
145.8249001596
 31
0.0
  0
LINE
  5
1EE
  8
0
  6
CONTINUOUS
 62
     7
 10
118.4213916061
 20
145.8249001596
 30
0.0
 11
118.4213916061
 21
145.7249001596
 31
0.0
  0
LINE
  5
1EF
  8
0
  6
CONTINUOUS
 62
     7
 10
119.2060330129
 20
145.7249001596
 30
0.0
 11
119.2060330129
 21
145.8249001596
 31
0.0
  0
LINE
  5
1F0
  8
0
  6
CONTINUOUS
 62
     7
 10
119.4386002926
 20
145.8249001596
 30
0.0
 11
119.2060330129
 21
145.8249001596
 31
0.0
  0
LINE
  5
1F1
  8
0
  6
CONTINUOUS
 62
     7
 10
119.4386002926
 20
145.8249001596
 30
0.0
 11
119.4386002926
 21
145.7249001596
 31
0.0
  0
LINE
  5
1F2
  8
0
  6
CONTINUOUS
 62
     7
 10
119.4386002926
 20
145.7249001596
 30
0.0
 11
119.8344233531
 21
145.7249001596
 31
0.0
  0
LINE
  5
1F3
  8
0
  6
CONTINUOUS
 62
     7
 10
119.8344233531
 20
145.7249001596
 30
0.0
 11
119.8344233531
 21
145.8249001596
 31
0.0
  0
LINE
  5
1F4
  8
0
  6
CONTINUOUS
 62
     7
 10
120.1036541223
 20
145.8249001596
 30
0.0
 11
119.8344233531
 21
145.8249001596
 31
0.0
  0
LINE
  5
1F5
  8
0
  6
CONTINUOUS
 62
     7
 10
120.1036541223
 20
145.8249001596
 30
0.0
 11
120.1036541223
 21
145.7249001596
 31
0.0
  0
LINE
  5
1F6
  8
0
  6
CONTINUOUS
 62
     7
 10
121.1063378684
 20
145.7249001596
 30
0.0
 11
121.1063378684
 21
145.8249001596
 31
0.0
  0
LINE
  5
1F7
  8
0
  6
CONTINUOUS
 62
     7
 10
121.1063378684
 20
145.8249001596
 30
0.0
 11
121.4889095153
 21
145.8249001596
 31
0.0
  0
ARC
  5
1F8
  8
0
  6
CONTINUOUS
 62
     7
 10
146.1805771993
 20
139.8249001596
 30
0.0
 40
6.499999999999419
 50
65.1883684974
 51
114.8116315026
  0
LINE
  5
1F9
  8
0
  6
CONTINUOUS
 62
     7
 10
175.0627613237
 20
145.8249001596
 30
0.0
 11
175.0627613237
 21
145.7249001596
 31
0.0
  0
LINE
  5
1FA
  8
0
  6
CONTINUOUS
 62
     7
 10
175.9201153544
 20
145.7249001596
 30
0.0
 11
175.9201153555
 21
145.8249001596
 31
0.0
  0
LINE
  5
1FB
  8
0
  6
CONTINUOUS
 62
     7
 10
176.2500137655
 20
145.7249001596
 30
0.0
 11
176.8985423481
 21
145.7249001596
 31
0.0
  0
LINE
  5
1FC
  8
0
  6
CONTINUOUS
 62
     7
 10
177.2959618146
 20
145.8249001596
 30
0.0
 11
177.2959618146
 21
145.7249001596
 31
0.0
  0
LINE
  5
1FD
  8
0
  6
CONTINUOUS
 62
     7
 10
180.2190387377
 20
145.7249001596
 30
0.0
 11
180.2190387377
 21
145.8249001596
 31
0.0
  0
LINE
  5
1FE
  8
0
  6
CONTINUOUS
 62
     7
 10
180.4498079685
 20
145.8249001596
 30
0.0
 11
180.2190387377
 21
145.8249001596
 31
0.0
  0
LINE
  5
1FF
  8
0
  6
CONTINUOUS
 62
     7
 10
180.4498079685
 20
145.8249001596
 30
0.0
 11
180.4498079685
 21
145.7249001596
 31
0.0
  0
ARC
  5
200
  8
0
  6
CONTINUOUS
 62
     7
 10
191.6256401676
 20
149.7249001596
 30
0.0
 40
4.0
 50
270.0
 51
359.75
  0
LINE
  5
201
  8
0
  6
CONTINUOUS
 62
     7
 10
195.6256020905
 20
149.7074469224
 30
0.0
 11
195.7914855763
 21
187.7249001596
 31
0.0
  0
LINE
  5
202
  8
0
  6
CONTINUOUS
 62
     7
 10
197.8176656812
 20
187.7249001596
 30
0.0
 11
195.7914855763
 21
187.7249001596
 31
0.0
  0
LINE
  5
203
  8
0
  6
CONTINUOUS
 62
     7
 10
197.8176656812
 20
187.7249001596
 30
0.0
 11
197.8176656812
 21
184.5450053977
 31
0.0
  0
ARC
  5
204
  8
0
  6
CONTINUOUS
 62
     7
 10
196.8176656812
 20
184.5450053977
 30
0.0
 40
1.0
 50
333.2350794186
 51
0.0
  0
LINE
  5
205
  8
0
  6
CONTINUOUS
 62
     7
 10
197.3779513373
 20
183.4352829273
 30
0.0
 11
197.7105273828
 21
184.0946744284
 31
0.0
  0
ARC
  5
206
  8
0
  6
CONTINUOUS
 62
     7
 10
198.2708130388
 20
182.9849519579
 30
0.0
 40
0.9999999999999845
 50
153.2350794186
 51
179.7500011899
  0
LINE
  5
207
  8
0
  6
CONTINUOUS
 62
     7
 10
197.1255735326
 20
149.7009019585
 30
0.0
 11
197.270822558
 21
182.9893152464
 31
0.0
  0
ARC
  5
208
  8
0
  6
CONTINUOUS
 62
     7
 10
191.6256258886
 20
149.7249001596
 30
0.0
 40
5.5
 50
270.0
 51
359.75
  0
LINE
  5
209
  8
0
  6
CONTINUOUS
 62
     7
 10
148.5554456167
 20
144.2249001596
 30
0.0
 11
191.6256258886
 21
144.2249001596
 31
0.0
  0
ARC
  5
20A
  8
0
  6
CONTINUOUS
 62
     7
 10
146.1805771993
 20
139.8249001596
 30
0.0
 40
4.99999999999998
 50
61.6423634237
 51
118.3576365763
  0
LINE
  5
20B
  8
0
  6
CONTINUOUS
 62
     7
 10
100.7355285099
 20
144.2249001596
 30
0.0
 11
143.8057087818
 21
144.2249001596
 31
0.0
  0
ARC
  5
20C
  8
0
  6
CONTINUOUS
 62
     7
 10
100.7355285099
 20
149.7249001596
 30
0.0
 40
5.500000000000008
 50
180.25
 51
270.0
  0
LINE
  5
20D
  8
0
  6
CONTINUOUS
 62
     7
 10
95.0903318404
 20
182.9893152672
 30
0.0
 11
95.235580866
 21
149.7009019585
 31
0.0
  0
ARC
  5
20E
  8
0
  6
CONTINUOUS
 62
     7
 10
94.0903413597
 20
182.9849519579
 30
0.0
 40
1.000000000000023
 50
0.2499999999
 51
26.7649205814
  0
LINE
  5
20F
  8
0
  6
CONTINUOUS
 62
     7
 10
94.6506270157
 20
184.0946744284
 30
0.0
 11
94.9832030612
 21
183.4352829273
 31
0.0
  0
ARC
  5
210
  8
0
  6
CONTINUOUS
 62
     7
 10
95.5434887173
 20
184.5450053977
 30
0.0
 40
1.0
 50
180.0
 51
206.7649205806
  0
ARC
  5
211
  8
0
  6
CONTINUOUS
 62
     7
 10
100.7355142309
 20
149.7249001596
 30
0.0
 40
4.000000000000008
 50
180.25
 51
270.0
  0
LINE
  5
212
  8
0
  6
CONTINUOUS
 62
     7
 10
111.9496947829
 20
145.7249001596
 30
0.0
 11
111.9496947829
 21
145.8249001596
 31
0.0
  0
LINE
  5
213
  8
0
  6
CONTINUOUS
 62
     7
 10
112.3317396071
 20
145.8249001596
 30
0.0
 11
111.9496947829
 21
145.8249001596
 31
0.0
  0
LINE
  5
214
  8
0
  6
CONTINUOUS
 62
     7
 10
112.3317396071
 20
145.8249001596
 30
0.0
 11
112.3317396071
 21
145.7249001596
 31
0.0
  0
LINE
  5
215
  8
0
  6
CONTINUOUS
 62
     7
 10
176.8985423481
 20
145.7249001596
 30
0.0
 11
176.8985423379
 21
145.8249001596
 31
0.0
  0
LINE
  5
216
  8
0
  6
CONTINUOUS
 62
     7
 10
115.3729399989
 20
145.7249001596
 30
0.0
 11
116.6805251715
 21
145.7249001596
 31
0.0
  0
LINE
  5
217
  8
0
  6
CONTINUOUS
 62
     7
 10
116.949705995
 20
145.8249001596
 30
0.0
 11
116.949705995
 21
145.7249001596
 31
0.0
  0
LINE
  5
218
  8
0
  6
CONTINUOUS
 62
     7
 10
116.6805251715
 20
145.8249001596
 30
0.0
 11
116.949705995
 21
145.8249001596
 31
0.0
  0
LINE
  5
219
  8
0
  6
CONTINUOUS
 62
     7
 10
115.1037560041
 20
145.8249001596
 30
0.0
 11
115.3729399989
 21
145.8249001596
 31
0.0
  0
LINE
  5
21A
  8
0
  6
CONTINUOUS
 62
     7
 10
115.1037560042
 20
145.7249001596
 30
0.0
 11
115.1037560041
 21
145.8249001596
 31
0.0
  0
LINE
  5
21B
  8
0
  6
CONTINUOUS
 62
     7
 10
178.4944428238
 20
145.8249001596
 30
0.0
 11
178.7793249751
 21
145.8249001596
 31
0.0
  0
LINE
  5
21C
  8
0
  6
CONTINUOUS
 62
     7
 10
178.4944428226
 20
145.7249001596
 30
0.0
 11
178.4944428238
 21
145.8249001596
 31
0.0
  0
LINE
  5
21D
  8
0
  6
CONTINUOUS
 62
     7
 10
176.2500137695
 20
145.8249001596
 30
0.0
 11
176.2500137655
 21
145.7249001596
 31
0.0
  0
LINE
  5
21E
  8
0
  6
CONTINUOUS
 62
     7
 10
176.8985423379
 20
145.8249001596
 30
0.0
 11
177.2959618146
 21
145.8249001596
 31
0.0
  0
LINE
  5
21F
  8
0
  6
CONTINUOUS
 62
     7
 10
175.9201153555
 20
145.8249001596
 30
0.0
 11
176.2500137695
 21
145.8249001596
 31
0.0
  0
LINE
  5
220
  8
0
  6
CONTINUOUS
 62
     7
 10
180.4498079685
 20
145.7249001596
 30
0.0
 11
191.6256401676
 21
145.7249001596
 31
0.0
  0
LINE
  5
221
  8
0
  6
CONTINUOUS
 62
     7
 10
178.7793249763
 20
145.7249001596
 30
0.0
 11
180.2190387377
 21
145.7249001596
 31
0.0
  0
LINE
  5
222
  8
0
  6
CONTINUOUS
 62
     7
 10
177.2959618146
 20
145.7249001596
 30
0.0
 11
178.4944428226
 21
145.7249001596
 31
0.0
  0
LINE
  5
223
  8
0
  6
CONTINUOUS
 62
     7
 10
175.0627613237
 20
145.7249001596
 30
0.0
 11
175.9201153544
 21
145.7249001596
 31
0.0
  0
LINE
  5
224
  8
0
  6
CONTINUOUS
 62
     7
 10
148.9082135387
 20
145.7249001596
 30
0.0
 11
174.3294315009
 21
145.7249001596
 31
0.0
  0
LINE
  5
225
  8
0
  6
CONTINUOUS
 62
     7
 10
121.4889095153
 20
145.7249001596
 30
0.0
 11
143.4529408599
 21
145.7249001596
 31
0.0
  0
LINE
  5
226
  8
0
  6
CONTINUOUS
 62
     7
 10
120.1036541223
 20
145.7249001596
 30
0.0
 11
121.1063378684
 21
145.7249001596
 31
0.0
  0
LINE
  5
227
  8
0
  6
CONTINUOUS
 62
     7
 10
118.4213916061
 20
145.7249001596
 30
0.0
 11
119.2060330129
 21
145.7249001596
 31
0.0
  0
LINE
  5
228
  8
0
  6
CONTINUOUS
 62
     7
 10
116.949705995
 20
145.7249001596
 30
0.0
 11
117.4882695069
 21
145.7249001596
 31
0.0
  0
LINE
  5
229
  8
0
  6
CONTINUOUS
 62
     7
 10
114.5290076915
 20
145.7249001596
 30
0.0
 11
115.1037560042
 21
145.7249001596
 31
0.0
  0
LINE
  5
22A
  8
0
  6
CONTINUOUS
 62
     7
 10
112.3317396071
 20
145.7249001596
 30
0.0
 11
113.2959618146
 21
145.7249001596
 31
0.0
  0
LINE
  5
22B
  8
0
  6
CONTINUOUS
 62
     7
 10
100.7355142309
 20
145.7249001596
 30
0.0
 11
111.9496947829
 21
145.7249001596
 31
0.0
  0
LINE
  5
22C
  8
0
  6
CONTINUOUS
 62
     7
 10
174.3294315009
 20
145.7249001596
 30
0.0
 11
174.3294314735
 21
145.8249001596
 31
0.0
  0
LINE
  5
22D
  8
0
  6
CONTINUOUS
 62
     7
 10
174.3294314735
 20
145.8249001596
 30
0.0
 11
175.0627613237
 21
145.8249001596
 31
0.0
  0
LINE
  5
22E
  8
0
  6
CONTINUOUS
 62
     7
 10
175.8344233531
 20
145.8249001596
 30
0.0
 11
175.8344233531
 21
145.7249001596
 31
0.0
  0
LINE
  5
22F
  8
0
  6
CONTINUOUS
 62
     7
 10
175.9201153555
 20
145.8249001596
 30
0.0
 11
175.8344233531
 21
145.8249001596
 31
0.0
  0
LINE
  5
230
  8
0
  6
CONTINUOUS
 62
     7
 10
119.8344233531
 20
145.8249001596
 30
0.0
 11
119.4386002926
 21
145.8249001596
 31
0.0
  0
LINE
  5
231
  8
0
  6
CONTINUOUS
 62
     7
 10
116.6805251715
 20
145.8249001596
 30
0.0
 11
116.0267310454
 21
145.8249001596
 31
0.0
  0
LINE
  5
232
  8
0
  6
CONTINUOUS
 62
     7
 10
111.2442791223
 20
145.8249001596
 30
0.0
 11
111.2442791223
 21
145.7249001596
 31
0.0
  0
LINE
  5
233
  8
0
  6
CONTINUOUS
 62
     7
 10
111.9496947829
 20
145.8249001596
 30
0.0
 11
111.2442791223
 21
145.8249001596
 31
0.0
  0
LINE
  5
234
  8
0
  6
CONTINUOUS
 62
     7
 10
195.8045756288
 20
190.7249001596
 30
0.0
 11
197.8176656812
 21
190.7249001596
 31
0.0
  0
LINE
  5
235
  8
0
  6
CONTINUOUS
 62
     7
 10
195.8045756288
 20
190.7249001596
 30
0.0
 11
195.8089390627
 21
191.7249191981
 31
0.0
  0
LINE
  5
236
  8
0
  6
CONTINUOUS
 62
     7
 10
195.8089390627
 20
191.7249191981
 30
0.0
 11
196.9636286091
 21
193.7249001596
 31
0.0
  0
LINE
  5
237
  8
0
  6
CONTINUOUS
 62
     7
 10
196.9636286091
 20
193.7249001596
 30
0.0
 11
197.8176656812
 21
193.7249001596
 31
0.0
  0
LINE
  5
238
  8
0
  6
CONTINUOUS
 62
     7
 10
197.8176656812
 20
193.7249001596
 30
0.0
 11
197.8176656812
 21
190.7249001596
 31
0.0
  0
ARC
  5
239
  8
0
  6
CONTINUOUS
 62
     7
 10
197.7241040446
 20
188.3053082576
 30
0.0
 40
0.6808274078539556
 50
178.4314573008
 51
238.4850732915
  0
POLYLINE
  5
23A
  8
0
  6
CONTINUOUS
 62
     7
 66
     1
 10
0.0
 20
0.0
 30
0.0
 70
   128
  0
VERTEX
  5
330
  8
0
  6
CONTINUOUS
 62
     7
 10
197.3682214811
 20
190.7249001596
 30
0.0
  0
VERTEX
  5
331
  8
0
  6
CONTINUOUS
 62
     7
 10
197.2552638702
 20
190.6629856599
 30
0.0
  0
VERTEX
  5
332
  8
0
  6
CONTINUOUS
 62
     7
 10
197.2442549147
 20
190.6452098441
 30
0.0
  0
SEQEND
  5
346
  8
0
  6
CONTINUOUS
 62
     7
  0
LINE
  5
23B
  8
0
  6
CONTINUOUS
 62
     7
 10
195.8089390627
 20
191.7249191981
 30
0.0
 11
195.7805771993
 21
191.7249191981
 31
0.0
  0
LINE
  5
23C
  8
0
  6
CONTINUOUS
 62
     7
 10
195.7805771993
 20
187.7249001596
 30
0.0
 11
195.7914855763
 21
187.7249001596
 31
0.0
  0
LINE
  5
23D
  8
0
  6
CONTINUOUS
 62
     7
 10
95.3975257894
 20
193.7249001596
 30
0.0
 11
96.5522153359
 21
191.7249191981
 31
0.0
  0
LINE
  5
23E
  8
0
  6
CONTINUOUS
 62
     7
 10
95.3975257894
 20
193.7249001596
 30
0.0
 11
96.4504492153
 21
193.7249001596
 31
0.0
  0
LINE
  5
23F
  8
0
  6
CONTINUOUS
 62
     7
 10
195.8223196298
 20
193.7249001596
 30
0.0
 11
196.9636286091
 21
193.7249001596
 31
0.0
  0
LINE
  5
240
  8
0
  6
CONTINUOUS
 62
     7
 10
148.5554456167
 20
144.2249001596
 30
0.0
 11
143.8057087818
 21
144.2249001596
 31
0.0
  0
LINE
  5
241
  8
0
  6
CONTINUOUS
 62
     7
 10
94.5434887173
 20
193.7249001596
 30
0.0
 11
95.3975257894
 21
193.7249001596
 31
0.0
  0
LINE
  5
242
  8
0
  6
CONTINUOUS
 62
     7
 10
118.1644847847
 20
145.8249001596
 30
0.0
 11
117.7575002762
 21
145.8249001596
 31
0.0
  0
LINE
  5
243
  8
0
  6
CONTINUOUS
 62
     7
 10
175.4498079685
 20
145.8249001596
 30
0.0
 11
175.4498079685
 21
145.7249001596
 31
0.0
  0
LINE
  5
244
  8
0
  6
CONTINUOUS
 62
     7
 10
175.4498079685
 20
145.8249001596
 30
0.0
 11
175.0219233531
 21
145.8249001596
 31
0.0
  0
LINE
  5
245
  8
0
  6
CONTINUOUS
 62
     7
 10
173.9882695069
 20
145.8249001596
 30
0.0
 11
173.9882695069
 21
145.7249001596
 31
0.0
  0
LINE
  5
246
  8
0
  6
CONTINUOUS
 62
     7
 10
174.4065387377
 20
145.8249001596
 30
0.0
 11
173.9882695069
 21
145.8249001596
 31
0.0
  0
LINE
  5
247
  8
0
  6
CONTINUOUS
 62
     7
 10
176.5784137377
 20
145.8249001596
 30
0.0
 11
176.5784137377
 21
145.7249001596
 31
0.0
  0
LINE
  5
248
  8
0
  6
CONTINUOUS
 62
     7
 10
176.8985423379
 20
145.8249001596
 30
0.0
 11
176.5784137377
 21
145.8249001596
 31
0.0
  0
LINE
  5
249
  8
0
  6
CONTINUOUS
 62
     7
 10
176.5784137377
 20
145.8249001596
 30
0.0
 11
176.2500137695
 21
145.8249001596
 31
0.0
  0
LINE
  5
24A
  8
0
  6
CONTINUOUS
 62
     7
 10
179.7124281608
 20
145.8249001596
 30
0.0
 11
179.7124281608
 21
145.7249001596
 31
0.0
  0
LINE
  5
24B
  8
0
  6
CONTINUOUS
 62
     7
 10
180.2190387377
 20
145.8249001596
 30
0.0
 11
179.7124281608
 21
145.8249001596
 31
0.0
  0
LINE
  5
24C
  8
0
  6
CONTINUOUS
 62
     7
 10
177.8728848916
 20
145.8249001596
 30
0.0
 11
177.8728848916
 21
145.7249001596
 31
0.0
  0
LINE
  5
24D
  8
0
  6
CONTINUOUS
 62
     7
 10
177.6421156608
 20
145.8249001596
 30
0.0
 11
177.6421156608
 21
145.7249001596
 31
0.0
  0
LINE
  5
24E
  8
0
  6
CONTINUOUS
 62
     7
 10
177.8728848916
 20
145.8249001596
 30
0.0
 11
177.6421156608
 21
145.8249001596
 31
0.0
  0
LINE
  5
24F
  8
0
  6
CONTINUOUS
 62
     7
 10
178.3536541223
 20
145.8249001596
 30
0.0
 11
178.3536541223
 21
145.7249001596
 31
0.0
  0
LINE
  5
250
  8
0
  6
CONTINUOUS
 62
     7
 10
178.3536541223
 20
145.8249001596
 30
0.0
 11
177.8728848916
 21
145.8249001596
 31
0.0
  0
LINE
  5
251
  8
0
  6
CONTINUOUS
 62
     7
 10
178.4411293228
 20
145.8249001596
 30
0.0
 11
178.3536541223
 21
145.8249001596
 31
0.0
  0
ARC
  5
252
  8
0
  6
CONTINUOUS
 62
     7
 10
187.7256401676
 20
149.7249001596
 30
0.0
 40
4.000000000000022
 50
270.0
 51
359.75
  0
LINE
  5
253
  8
0
  6
CONTINUOUS
 62
     7
 10
191.819565792
 20
171.2422043382
 30
0.0
 11
191.7256020905
 21
149.7074469224
 31
0.0
  0
LINE
  5
254
  8
0
  6
CONTINUOUS
 62
     7
 10
96.5805771993
 20
186.3749001596
 30
0.0
 11
96.5805771993
 21
186.0249001596
 31
0.0
  0
LINE
  5
255
  8
0
  6
CONTINUOUS
 62
     7
 10
96.5805771993
 20
193.5249001596
 30
0.0
 11
96.5805771993
 21
191.1749001596
 31
0.0
  0
LINE
  5
256
  8
0
  6
CONTINUOUS
 62
     7
 10
310.0305771993
 20
191.1749001596
 30
0.0
 11
309.5805771993
 21
191.1749001596
 31
0.0
  0
LINE
  5
257
  8
0
  6
CONTINUOUS
 62
     7
 10
309.5805771993
 20
186.3749001596
 30
0.0
 11
310.0305771993
 21
186.3749001596
 31
0.0
  0
LINE
  5
258
  8
0
  6
CONTINUOUS
 62
     7
 10
309.5805771993
 20
186.3749001596
 30
0.0
 11
309.5805771993
 21
186.0249001596
 31
0.0
  0
LINE
  5
259
  8
0
  6
CONTINUOUS
 62
     7
 10
309.5805771993
 20
193.5249001596
 30
0.0
 11
309.5805771993
 21
191.1749001596
 31
0.0
  0
LINE
  5
25A
  8
0
  6
CONTINUOUS
 62
     7
 10
96.1305771993
 20
186.3749001596
 30
0.0
 11
96.5805771993
 21
186.3749001596
 31
0.0
  0
LINE
  5
25B
  8
0
  6
CONTINUOUS
 62
     7
 10
96.5805771993
 20
191.1749001596
 30
0.0
 11
96.1305771993
 21
191.1749001596
 31
0.0
  0
LINE
  5
25C
  8
0
  6
CONTINUOUS
 62
     7
 10
107.5805771993
 20
162.5249001596
 30
0.0
 11
107.5805771993
 21
156.0249001596
 31
0.0
  0
LINE
  5
25D
  8
0
  6
CONTINUOUS
 62
     7
 10
298.5805771993
 20
162.5249001596
 30
0.0
 11
298.5805771993
 21
156.0249001596
 31
0.0
  0
LINE
  5
25E
  8
0
  6
CONTINUOUS
 62
     7
 10
217.5805771993
 20
156.0249001596
 30
0.0
 11
217.5805771993
 21
162.5426629638
 31
0.0
  0
LINE
  5
25F
  8
0
  6
CONTINUOUS
 62
     7
 10
210.3805771993
 20
191.2749001596
 30
0.0
 11
210.3805771993
 21
193.5249001596
 31
0.0
  0
LINE
  5
260
  8
0
  6
CONTINUOUS
 62
     7
 10
210.3805771993
 20
186.0249001596
 30
0.0
 11
210.3805771993
 21
187.7749001596
 31
0.0
  0
LINE
  5
261
  8
0
  6
CONTINUOUS
 62
     7
 10
195.7805771993
 20
191.2749001596
 30
0.0
 11
195.7805771993
 21
193.5249001596
 31
0.0
  0
LINE
  5
262
  8
0
  6
CONTINUOUS
 62
     7
 10
195.7805771993
 20
186.0249001596
 30
0.0
 11
195.7805771993
 21
187.7749001596
 31
0.0
  0
LINE
  5
263
  8
0
  6
CONTINUOUS
 62
     7
 10
188.5805771993
 20
156.0249001596
 30
0.0
 11
188.5805771993
 21
162.5426629638
 31
0.0
  0
LINE
  5
264
  8
0
  6
CONTINUOUS
 62
     7
 10
313.0805771993
 20
195.2249001596
 30
0.0
 11
313.0805771993
 21
194.0249001596
 31
0.0
  0
LINE
  5
265
  8
0
  6
CONTINUOUS
 62
     7
 10
95.0805771993
 20
195.2249001596
 30
0.0
 11
95.0805771993
 21
197.0249001596
 31
0.0
  0
LINE
  5
266
  8
0
  6
CONTINUOUS
 62
     7
 10
311.0805771993
 20
197.0249001596
 30
0.0
 11
311.0805771993
 21
195.2249001596
 31
0.0
  0
LINE
  5
267
  8
0
  6
CONTINUOUS
 62
     7
 10
226.1036020487
 20
194.0729448479
 30
0.0
 11
225.5805771993
 21
196.0249001596
 31
0.0
  0
LINE
  5
268
  8
0
  6
CONTINUOUS
 62
     7
 10
226.1036020487
 20
193.5249001596
 30
0.0
 11
226.1036020487
 21
194.0729448479
 31
0.0
  0
LINE
  5
269
  8
0
  6
CONTINUOUS
 62
     7
 10
219.0805771993
 20
155.5249001596
 30
0.0
 11
226.1036020487
 21
155.5249001596
 31
0.0
  0
LINE
  5
26A
  8
0
  6
CONTINUOUS
 62
     7
 10
219.0805771993
 20
155.5249001596
 30
0.0
 11
219.0805771993
 21
196.0249001596
 31
0.0
  0
LINE
  5
26B
  8
0
  6
CONTINUOUS
 62
     7
 10
290.0575523498
 20
155.5249001596
 30
0.0
 11
297.0805771993
 21
155.5249001596
 31
0.0
  0
LINE
  5
26C
  8
0
  6
CONTINUOUS
 62
     7
 10
297.0805771993
 20
193.5249001596
 30
0.0
 11
297.0805771993
 21
155.5249001596
 31
0.0
  0
LINE
  5
26D
  8
0
  6
CONTINUOUS
 62
     7
 10
180.0575523498
 20
155.5249001596
 30
0.0
 11
187.0805771993
 21
155.5249001596
 31
0.0
  0
LINE
  5
26E
  8
0
  6
CONTINUOUS
 62
     7
 10
180.0575523498
 20
193.5249001596
 30
0.0
 11
180.0575523498
 21
194.0729448479
 31
0.0
  0
LINE
  5
26F
  8
0
  6
CONTINUOUS
 62
     7
 10
180.5805771993
 20
196.0249001596
 30
0.0
 11
180.0575523498
 21
194.0729448479
 31
0.0
  0
LINE
  5
270
  8
0
  6
CONTINUOUS
 62
     7
 10
187.0805771993
 20
196.0249001596
 30
0.0
 11
187.0805771993
 21
155.5249001596
 31
0.0
  0
LINE
  5
271
  8
0
  6
CONTINUOUS
 62
     7
 10
109.0805771993
 20
155.5249001596
 30
0.0
 11
116.1036020487
 21
155.5249001596
 31
0.0
  0
LINE
  5
272
  8
0
  6
CONTINUOUS
 62
     7
 10
109.0805771993
 20
155.5249001596
 30
0.0
 11
109.0805771993
 21
193.5249001596
 31
0.0
  0
ARC
  5
273
  8
0
  6
CONTINUOUS
 62
     7
 10
309.3305771993
 20
188.7749001596
 30
0.0
 40
2.500000000000018
 50
286.2602047083
 51
73.7397952917
  0
LINE
  5
274
  8
0
  6
CONTINUOUS
 62
     7
 10
309.5805771993
 20
186.0249001596
 30
0.0
 11
308.776729622
 21
183.0249001596
 31
0.0
  0
LINE
  5
275
  8
0
  6
CONTINUOUS
 62
     7
 10
308.776729622
 20
183.0249001596
 30
0.0
 11
303.6163446117
 21
163.7660811145
 31
0.0
  0
ARC
  5
276
  8
0
  6
CONTINUOUS
 62
     7
 10
302.6504187854
 20
164.0249001596
 30
0.0
 40
1.0
 50
270.0
 51
345.0
  0
LINE
  5
277
  8
0
  6
CONTINUOUS
 62
     7
 10
302.6504187854
 20
163.0249001596
 30
0.0
 11
299.0805771993
 21
163.0249001596
 31
0.0
  0
ARC
  5
278
  8
0
  6
CONTINUOUS
 62
     7
 10
299.0805771993
 20
162.5249001596
 30
0.0
 40
0.5
 50
90.0
 51
180.0
  0
ARC
  5
279
  8
0
  6
CONTINUOUS
 62
     7
 10
298.0805771993
 20
156.0249001596
 30
0.0
 40
0.5
 50
270.0
 51
0.0
  0
LINE
  5
27A
  8
0
  6
CONTINUOUS
 62
     7
 10
298.0805771993
 20
155.5249001596
 30
0.0
 11
297.0805771993
 21
155.5249001596
 31
0.0
  0
ARC
  5
27B
  8
0
  6
CONTINUOUS
 62
     7
 10
299.5805771993
 20
193.5249001596
 30
0.0
 40
2.5
 50
90.0
 51
180.0
  0
LINE
  5
27C
  8
0
  6
CONTINUOUS
 62
     7
 10
308.1224116122
 20
196.0249001596
 30
0.0
 11
299.5805771993
 21
196.0249001596
 31
0.0
  0
ARC
  5
27D
  8
0
  6
CONTINUOUS
 62
     7
 10
308.1224116122
 20
196.5249001596
 30
0.0
 40
0.5000000000000333
 50
270.0
 51
355.0
  0
LINE
  5
27E
  8
0
  6
CONTINUOUS
 62
     7
 10
308.6205089613
 20
196.4813222882
 30
0.0
 11
308.6281341007
 21
196.5684780309
 31
0.0
  0
ARC
  5
27F
  8
0
  6
CONTINUOUS
 62
     7
 10
309.1262314498
 20
196.5249001596
 30
0.0
 40
0.5
 50
90.0
 51
175.0
  0
LINE
  5
280
  8
0
  6
CONTINUOUS
 62
     7
 10
309.1262314498
 20
197.0249001596
 30
0.0
 11
311.0805771993
 21
197.0249001596
 31
0.0
  0
ARC
  5
281
  8
0
  6
CONTINUOUS
 62
     7
 10
310.0805771993
 20
193.5249001596
 30
0.0
 40
0.5
 50
90.0
 51
180.0
  0
LINE
  5
282
  8
0
  6
CONTINUOUS
 62
     7
 10
311.0805771993
 20
195.2249001596
 30
0.0
 11
313.0805771993
 21
195.2249001596
 31
0.0
  0
LINE
  5
283
  8
0
  6
CONTINUOUS
 62
     7
 10
310.0805771993
 20
194.0249001596
 30
0.0
 11
313.0805771993
 21
194.0249001596
 31
0.0
  0
LINE
  5
284
  8
0
  6
CONTINUOUS
 62
     7
 10
93.0805771993
 20
194.0249001596
 30
0.0
 11
93.0805771993
 21
195.2249001596
 31
0.0
  0
LINE
  5
285
  8
0
  6
CONTINUOUS
 62
     7
 10
194.976729622
 20
183.0249001596
 30
0.0
 11
189.8163446117
 21
163.7660811145
 31
0.0
  0
LINE
  5
286
  8
0
  6
CONTINUOUS
 62
     7
 10
97.5330202978
 20
196.5684780309
 30
0.0
 11
97.5406454372
 21
196.4813222882
 31
0.0
  0
LINE
  5
287
  8
0
  6
CONTINUOUS
 62
     7
 10
181.4957267488
 20
199.440284775
 30
0.0
 11
181.6066643883
 21
199.8543096821
 31
0.0
  0
ARC
  5
288
  8
0
  6
CONTINUOUS
 62
     7
 10
182.0896273014
 20
199.7249001597
 30
0.0
 40
0.4999999998821111
 50
89.9999999896
 51
165.0000000104
  0
LINE
  5
289
  8
0
  6
CONTINUOUS
 62
     7
 10
182.0896273015
 20
200.2249001596
 30
0.0
 11
186.4247328856
 21
200.2249001596
 31
0.0
  0
ARC
  5
28A
  8
0
  6
CONTINUOUS
 62
     7
 10
186.4247328856
 20
199.7249001596
 30
0.0
 40
0.5
 50
90.0
 51
214.6966023563
  0
LINE
  5
28B
  8
0
  6
CONTINUOUS
 62
     7
 10
197.7805771993
 20
189.2749001596
 30
0.0
 11
197.7805771993
 21
189.7749001596
 31
0.0
  0
ARC
  5
28C
  8
0
  6
CONTINUOUS
 62
     7
 10
217.0840575532
 20
162.5458421836
 30
0.0
 40
0.5002730150835251
 50
0.0506779069
 51
80.4324058122
  0
ARC
  5
28D
  8
0
  6
CONTINUOUS
 62
     7
 10
217.0805771993
 20
162.5426629638
 30
0.0
 40
0.5
 50
360.0
 51
81.1737287431
  0
LINE
  5
28E
  8
0
  6
CONTINUOUS
 62
     7
 10
208.3805771993
 20
189.2749001596
 30
0.0
 11
208.3805771993
 21
189.7749001596
 31
0.0
  0
ARC
  5
28F
  8
0
  6
CONTINUOUS
 62
     7
 10
209.3805771993
 20
189.7749001596
 30
0.0
 40
1.0
 50
90.0
 51
180.0
  0
ARC
  5
290
  8
0
  6
CONTINUOUS
 62
     7
 10
196.7805771993
 20
189.7749001596
 30
0.0
 40
1.0
 50
0.0
 51
90.0
  0
ARC
  5
291
  8
0
  6
CONTINUOUS
 62
     7
 10
196.2805771993
 20
187.7749001596
 30
0.0
 40
0.5
 50
90.0
 51
180.0
  0
ARC
  5
292
  8
0
  6
CONTINUOUS
 62
     7
 10
196.2805771993
 20
191.2749001596
 30
0.0
 40
0.5
 50
180.0
 51
270.0
  0
ARC
  5
293
  8
0
  6
CONTINUOUS
 62
     7
 10
209.8805771993
 20
187.7749001596
 30
0.0
 40
0.5
 50
0.0
 51
90.0
  0
ARC
  5
294
  8
0
  6
CONTINUOUS
 62
     7
 10
107.0805771993
 20
162.5249001596
 30
0.0
 40
0.5
 50
0.0
 51
90.0
  0
LINE
  5
295
  8
0
  6
CONTINUOUS
 62
     7
 10
97.3844247766
 20
183.0249001596
 30
0.0
 11
96.5805771993
 21
186.0249001596
 31
0.0
  0
LINE
  5
296
  8
0
  6
CONTINUOUS
 62
     7
 10
195.7805771993
 20
186.0249001596
 30
0.0
 11
194.976729622
 21
183.0249001596
 31
0.0
  0
LINE
  5
297
  8
0
  6
CONTINUOUS
 62
     7
 10
211.1844247766
 20
183.0249001596
 30
0.0
 11
210.3805771993
 21
186.0249001596
 31
0.0
  0
LINE
  5
298
  8
0
  6
CONTINUOUS
 62
     7
 10
224.6654276497
 20
199.440284775
 30
0.0
 11
225.5805771993
 21
196.0249001596
 31
0.0
  0
ARC
  5
299
  8
0
  6
CONTINUOUS
 62
     7
 10
225.0805771993
 20
196.0249001596
 30
0.0
 40
5.99999999999999
 50
145.3033976437
 51
180.0
  0
LINE
  5
29A
  8
0
  6
CONTINUOUS
 62
     7
 10
216.3448097869
 20
163.7660811145
 30
0.0
 11
211.1844247766
 21
183.0249001596
 31
0.0
  0
LINE
  5
29B
  8
0
  6
CONTINUOUS
 62
     7
 10
290.3628570844
 20
196.0249001596
 30
0.0
 11
299.5805771993
 21
196.0249001596
 31
0.0
  0
LINE
  5
29C
  8
0
  6
CONTINUOUS
 62
     7
 10
102.5448097869
 20
163.7660811145
 30
0.0
 11
97.3844247766
 21
183.0249001596
 31
0.0
  0
ARC
  5
29D
  8
0
  6
CONTINUOUS
 62
     7
 10
209.8805771993
 20
193.5249001596
 30
0.0
 40
0.5
 50
0.0
 51
90.0
  0
ARC
  5
29E
  8
0
  6
CONTINUOUS
 62
     7
 10
97.0349229487
 20
196.5249001596
 30
0.0
 40
0.5000000000000074
 50
5.0
 51
90.0
  0
LINE
  5
29F
  8
0
  6
CONTINUOUS
 62
     7
 10
97.0349229487
 20
197.0249001596
 30
0.0
 11
109.379322968
 21
197.0249001596
 31
0.0
  0
ARC
  5
2A0
  8
0
  6
CONTINUOUS
 62
     7
 10
96.0805771993
 20
193.5249001596
 30
0.0
 40
0.5000000000000142
 50
0.0
 51
90.0
  0
ARC
  5
2A1
  8
0
  6
CONTINUOUS
 62
     7
 10
189.0805771993
 20
162.5426629638
 30
0.0
 40
0.5
 50
98.8262712569
 51
180.0
  0
ARC
  5
2A2
  8
0
  6
CONTINUOUS
 62
     7
 10
106.5805771993
 20
193.5249001596
 30
0.0
 40
2.5
 50
0.0
 51
90.0
  0
LINE
  5
2A3
  8
0
  6
CONTINUOUS
 62
     7
 10
106.5805771993
 20
196.0249001596
 30
0.0
 11
115.7982973141
 21
196.0249001596
 31
0.0
  0
LINE
  5
2A4
  8
0
  6
CONTINUOUS
 62
     7
 10
296.7818314305
 20
197.0249001596
 30
0.0
 11
309.1262314498
 21
197.0249001596
 31
0.0
  0
ARC
  5
2A5
  8
0
  6
CONTINUOUS
 62
     7
 10
188.0805771993
 20
156.0249001596
 30
0.0
 40
0.5
 50
270.0
 51
0.0
  0
ARC
  5
2A6
  8
0
  6
CONTINUOUS
 62
     7
 10
96.8305771993
 20
188.7749001596
 30
0.0
 40
2.50000000000001
 50
106.2602047083
 51
253.7397952917
  0
ARC
  5
2A7
  8
0
  6
CONTINUOUS
 62
     7
 10
196.7805771993
 20
189.2749001596
 30
0.0
 40
1.0
 50
270.0
 51
0.0
  0
LINE
  5
2A8
  8
0
  6
CONTINUOUS
 62
     7
 10
196.7805771993
 20
188.2749001596
 30
0.0
 11
196.2805771993
 21
188.2749001596
 31
0.0
  0
ARC
  5
2A9
  8
0
  6
CONTINUOUS
 62
     7
 10
188.8504187854
 20
164.0249001596
 30
0.0
 40
1.00000000000001
 50
278.8262712569
 51
345.0
  0
ARC
  5
2AA
  8
0
  6
CONTINUOUS
 62
     7
 10
181.0805771993
 20
196.0249001596
 30
0.0
 40
6.000000000000013
 50
0.0
 51
34.6966023563
  0
ARC
  5
2AB
  8
0
  6
CONTINUOUS
 62
     7
 10
219.7364215129
 20
199.7249001596
 30
0.0
 40
0.5
 50
325.3033976437
 51
90.0
  0
ARC
  5
2AC
  8
0
  6
CONTINUOUS
 62
     7
 10
218.0805771993
 20
156.0249001596
 30
0.0
 40
0.5
 50
180.0
 51
270.0
  0
ARC
  5
2AD
  8
0
  6
CONTINUOUS
 62
     7
 10
217.3107356132
 20
164.0249001596
 30
0.0
 40
1.000000000000023
 50
195.0
 51
261.1737287431
  0
LINE
  5
2AE
  8
0
  6
CONTINUOUS
 62
     7
 10
209.8805771993
 20
188.2749001596
 30
0.0
 11
209.3805771993
 21
188.2749001596
 31
0.0
  0
ARC
  5
2AF
  8
0
  6
CONTINUOUS
 62
     7
 10
209.3805771993
 20
189.2749001596
 30
0.0
 40
1.0
 50
180.0
 51
270.0
  0
LINE
  5
2B0
  8
0
  6
CONTINUOUS
 62
     7
 10
209.8805771993
 20
190.7749001596
 30
0.0
 11
209.3805771993
 21
190.7749001596
 31
0.0
  0
ARC
  5
2B1
  8
0
  6
CONTINUOUS
 62
     7
 10
209.8805771993
 20
191.2749001596
 30
0.0
 40
0.5
 50
270.0
 51
0.0
  0
ARC
  5
2B2
  8
0
  6
CONTINUOUS
 62
     7
 10
196.2805771993
 20
193.5249001596
 30
0.0
 40
0.5
 50
90.0
 51
180.0
  0
LINE
  5
2B3
  8
0
  6
CONTINUOUS
 62
     7
 10
196.7805771993
 20
190.7749001596
 30
0.0
 11
196.2805771993
 21
190.7749001596
 31
0.0
  0
LINE
  5
2B4
  8
0
  6
CONTINUOUS
 62
     7
 10
186.4247328856
 20
200.2249001596
 30
0.0
 11
219.7364215129
 21
200.2249001596
 31
0.0
  0
LINE
  5
2B5
  8
0
  6
CONTINUOUS
 62
     7
 10
219.0805771993
 20
155.5249001596
 30
0.0
 11
218.0805771993
 21
155.5249001596
 31
0.0
  0
LINE
  5
2B6
  8
0
  6
CONTINUOUS
 62
     7
 10
188.0805771993
 20
155.5249001596
 30
0.0
 11
187.0805771993
 21
155.5249001596
 31
0.0
  0
LINE
  5
2B7
  8
0
  6
CONTINUOUS
 62
     7
 10
196.2805771993
 20
194.0249001596
 30
0.0
 11
209.8805771993
 21
194.0249001596
 31
0.0
  0
LINE
  5
2B8
  8
0
  6
CONTINUOUS
 62
     7
 10
95.0805771993
 20
197.0249001596
 30
0.0
 11
97.0349229487
 21
197.0249001596
 31
0.0
  0
ARC
  5
2B9
  8
0
  6
CONTINUOUS
 62
     7
 10
98.0387427863
 20
196.5249001596
 30
0.0
 40
0.500000000000005
 50
185.0
 51
270.0
  0
LINE
  5
2BA
  8
0
  6
CONTINUOUS
 62
     7
 10
106.5805771993
 20
196.0249001596
 30
0.0
 11
98.0387427863
 21
196.0249001596
 31
0.0
  0
ARC
  5
2BB
  8
0
  6
CONTINUOUS
 62
     7
 10
108.0805771993
 20
156.0249001596
 30
0.0
 40
0.5
 50
180.0
 51
270.0
  0
LINE
  5
2BC
  8
0
  6
CONTINUOUS
 62
     7
 10
107.0805771993
 20
163.0249001596
 30
0.0
 11
103.5107356132
 21
163.0249001596
 31
0.0
  0
ARC
  5
2BD
  8
0
  6
CONTINUOUS
 62
     7
 10
103.5107356132
 20
164.0249001596
 30
0.0
 40
1.0
 50
195.0
 51
270.0
  0
LINE
  5
2BE
  8
0
  6
CONTINUOUS
 62
     7
 10
109.0805771993
 20
155.5249001596
 30
0.0
 11
108.0805771993
 21
155.5249001596
 31
0.0
  0
LINE
  5
2BF
  8
0
  6
CONTINUOUS
 62
     7
 10
93.0805771993
 20
195.2249001596
 30
0.0
 11
95.0805771993
 21
195.2249001596
 31
0.0
  0
LINE
  5
2C0
  8
0
  6
CONTINUOUS
 62
     7
 10
93.0805771993
 20
194.0249001596
 30
0.0
 11
96.0805771993
 21
194.0249001596
 31
0.0
  0
LINE
  5
2C1
  8
0
  6
CONTINUOUS
 62
     7
 10
180.5805771993
 20
196.0249001596
 30
0.0
 11
181.4957267488
 21
199.440284775
 31
0.0
  0
ARC
  5
2C2
  8
0
  6
CONTINUOUS
 62
     7
 10
224.0715270971
 20
199.7249001597
 30
0.0
 40
0.4999999998820674
 50
14.9999999909
 51
90.0000000104
  0
LINE
  5
2C3
  8
0
  6
CONTINUOUS
 62
     7
 10
224.5544900102
 20
199.8543096821
 30
0.0
 11
224.6654276497
 21
199.440284775
 31
0.0
  0
LINE
  5
2C4
  8
0
  6
CONTINUOUS
 62
     7
 10
219.7364215129
 20
200.2249001596
 30
0.0
 11
224.0715270971
 21
200.2249001596
 31
0.0
  0
POLYLINE
  5
2C5
  8
0
  6
CONTINUOUS
 62
     7
 66
     1
 10
0.0
 20
0.0
 30
0.0
 70
   128
  0
VERTEX
  5
333
  8
0
  6
CONTINUOUS
 62
     7
 10
159.9657076627
 20
196.0249001596
 30
0.0
  0
VERTEX
  5
334
  8
0
  6
CONTINUOUS
 62
     7
 10
136.9864033391
 20
196.0162028968
 30
0.0
  0
VERTEX
  5
335
  8
0
  6
CONTINUOUS
 62
     7
 10
130.988561416
 20
196.0249001596
 30
0.0
  0
SEQEND
  5
347
  8
0
  6
CONTINUOUS
 62
     7
  0
LINE
  5
2C6
  8
0
  6
CONTINUOUS
 62
     7
 10
159.9657076627
 20
196.0249001596
 30
0.0
 11
180.5805771993
 21
196.0249001596
 31
0.0
  0
LINE
  5
2C7
  8
0
  6
CONTINUOUS
 62
     7
 10
115.7982973141
 20
196.0249001596
 30
0.0
 11
130.988561416
 21
196.0249001596
 31
0.0
  0
LINE
  5
2C8
  8
0
  6
CONTINUOUS
 62
     7
 10
116.1036020487
 20
155.5249001596
 30
0.0
 11
180.0575523498
 21
155.5249001596
 31
0.0
  0
LINE
  5
2C9
  8
0
  6
CONTINUOUS
 62
     7
 10
226.1036020487
 20
155.5249001596
 30
0.0
 11
290.0575523498
 21
155.5249001596
 31
0.0
  0
POLYLINE
  5
2CA
  8
0
  6
CONTINUOUS
 62
     7
 66
     1
 10
0.0
 20
0.0
 30
0.0
 70
   128
  0
VERTEX
  5
336
  8
0
  6
CONTINUOUS
 62
     7
 10
275.1725929825
 20
196.0249001596
 30
0.0
  0
VERTEX
  5
337
  8
0
  6
CONTINUOUS
 62
     7
 10
252.1943251092
 20
196.0162028968
 30
0.0
  0
VERTEX
  5
338
  8
0
  6
CONTINUOUS
 62
     7
 10
246.1954467358
 20
196.0249001596
 30
0.0
  0
SEQEND
  5
348
  8
0
  6
CONTINUOUS
 62
     7
  0
LINE
  5
2CB
  8
0
  6
CONTINUOUS
 62
     7
 10
225.5805771993
 20
196.0249001596
 30
0.0
 11
246.1954467358
 21
196.0249001596
 31
0.0
  0
LINE
  5
2CC
  8
0
  6
CONTINUOUS
 62
     7
 10
275.1725929825
 20
196.0249001596
 30
0.0
 11
290.3628570844
 21
196.0249001596
 31
0.0
  0
LINE
  5
2CD
  8
0
  6
CONTINUOUS
 62
     7
 10
109.379322968
 20
197.0249001596
 30
0.0
 11
180.8484391618
 21
197.0249001596
 31
0.0
  0
LINE
  5
2CE
  8
0
  6
CONTINUOUS
 62
     7
 10
225.3129776739
 20
197.0249001596
 30
0.0
 11
296.7818314305
 21
197.0249001596
 31
0.0
  0
ARC
  5
2CF
  8
0
  6
CONTINUOUS
 62
     7
 10
312.601841641
 20
196.7249001596
 30
0.0
 40
0.2999999999999952
 50
32.0
 51
90.0
  0
LINE
  5
2D0
  8
0
  6
CONTINUOUS
 62
     7
 10
314.1849916281
 20
194.757454545
 30
0.0
 11
312.8562560699
 21
196.8838759388
 31
0.0
  0
ARC
  5
2D1
  8
0
  6
CONTINUOUS
 62
     7
 10
313.9305771993
 20
194.5984787658
 30
0.0
 40
0.3000000000000584
 50
287.0
 51
32.0
  0
LINE
  5
2D2
  8
0
  6
CONTINUOUS
 62
     7
 10
313.0805771993
 20
194.0249001596
 30
0.0
 11
314.0182887107
 21
194.311587339
 31
0.0
  0
LINE
  5
2D3
  8
0
  6
CONTINUOUS
 62
     7
 10
312.601841641
 20
197.0249001596
 30
0.0
 11
311.0805771993
 21
197.0249001596
 31
0.0
  0
LINE
  5
2D4
  8
0
  6
CONTINUOUS
 62
     7
 10
92.1428656878
 20
194.311587339
 30
0.0
 11
93.0805771993
 21
194.0249001596
 31
0.0
  0
ARC
  5
2D5
  8
0
  6
CONTINUOUS
 62
     7
 10
92.2305771993
 20
194.5984787658
 30
0.0
 40
0.3000000000000103
 50
148.0
 51
253.0
  0
LINE
  5
2D6
  8
0
  6
CONTINUOUS
 62
     7
 10
93.3048983286
 20
196.8838759388
 30
0.0
 11
91.9761627704
 21
194.757454545
 31
0.0
  0
ARC
  5
2D7
  8
0
  6
CONTINUOUS
 62
     7
 10
93.5593127575
 20
196.7249001596
 30
0.0
 40
0.2999999999999952
 50
90.0
 51
148.0
  0
LINE
  5
2D8
  8
0
  6
CONTINUOUS
 62
     7
 10
95.0805771993
 20
197.0249001596
 30
0.0
 11
93.5593127575
 21
197.0249001596
 31
0.0
  0
DIMENSION
  5
2D9
  8
BEMAßUNG
  2
_D
 10
314.1849916281
 20
210.2249001596
 30
0.0
 11
204.8453470663
 21
210.2249001596
 31
0.0
 70
   160
  1
<>
  3
SLDDIMSTYLE0
 13
91.9761627704
 23
194.757454545
 33
0.0
 14
314.1849916281
 24
194.757454545
 34
0.0
  0
DIMENSION
  5
2E4
  8
BEMAßUNG
  2
_D_1
 10
342.2305771993
 20
197.0249001596
 30
0.0
 11
342.2305771993
 21
210.2249001596
 31
0.0
 70
   160
  1
<>
  3
SLDDIMSTYLE1
 13
219.7364215129
 23
200.2249001596
 33
0.0
 14
309.1262314498
 24
197.0249001596
 34
0.0
 50
90.0
  0
DIMENSION
  5
2F1
  8
BEMAßUNG
  2
_D_2
 10
342.2305771993
 20
197.0249001596
 30
0.0
 11
342.2305771993
 21
168.5311378262
 31
0.0
 70
   160
  1
<>
  3
SLDDIMSTYLE0
 13
305.4256258886
 23
144.2249001596
 33
0.0
 14
309.1262314498
 24
197.0249001596
 34
0.0
 50
90.0
  0
DIMENSION
  5
2FB
  8
BEMAßUNG
  2
_D_3
 10
324.2305771993
 20
197.0249001596
 30
0.0
 11
324.2305771993
 21
176.9272729559
 31
0.0
 70
   160
  1
<>
  3
SLDDIMSTYLE0
 13
298.0805771993
 23
155.5249001596
 33
0.0
 14
309.1262314498
 24
197.0249001596
 34
0.0
 50
90.0
  0
ENDSEC
  0
EOF
