  0
SECTION
  2
HEADER
  9
$ACADVER
  1
AC1009
  9
$DWGCODEPAGE
  3
ansi_1252
  9
$INSBASE
 10
0.0
 20
0.0
 30
0.0
  9
$EXTMIN
 10
0.0
 20
0.0
 30
0.0
  9
$EXTMAX
 10
420.0
 20
297.0
 30
0.0
  9
$LIMMIN
 10
0.0
 20
0.0
  9
$LIMMAX
 10
420.0
 20
297.0
  9
$ORTHOMODE
 70
     0
  9
$REGENMODE
 70
     1
  9
$FILLMODE
 70
     1
  9
$QTEXTMODE
 70
     0
  9
$MIRRTEXT
 70
     1
  9
$DRAGMODE
 70
     2
  9
$LTSCALE
 40
1.0
  9
$OSMODE
 70
    37
  9
$ATTMODE
 70
     1
  9
$TEXTSIZE
 40
3.5
  9
$TRACEWID
 40
1.0
  9
$TEXTSTYLE
  7
STANDARD
  9
$CLAYER
  8
0
  9
$CELTYPE
  6
BYLAYER
  9
$CECOLOR
 62
   256
  9
$DIMSCALE
 40
1.0
  9
$DIMASZ
 40
4.0
  9
$DIMEXO
 40
1.0
  9
$DIMDLI
 40
3.75
  9
$DIMRND
 40
0.0
  9
$DIMDLE
 40
0.0
  9
$DIMEXE
 40
1.0
  9
$DIMTP
 40
0.0
  9
$DIMTM
 40
0.0
  9
$DIMTXT
 40
9.8777777778
  9
$DIMCEN
 40
2.5
  9
$DIMTSZ
 40
0.0
  9
$DIMTOL
 70
     0
  9
$DIMLIM
 70
     0
  9
$DIMTIH
 70
     1
  9
$DIMTOH
 70
     1
  9
$DIMSE1
 70
     0
  9
$DIMSE2
 70
     0
  9
$DIMTAD
 70
     1
  9
$DIMZIN
 70
     0
  9
$DIMBLK
  1

  9
$DIMASO
 70
     1
  9
$DIMSHO
 70
     1
  9
$DIMPOST
  1

  9
$DIMAPOST
  1

  9
$DIMALT
 70
     0
  9
$DIMALTD
 70
     3
  9
$DIMALTF
 40
0.0393700787
  9
$DIMLFAC
 40
2.0
  9
$DIMTOFL
 70
     1
  9
$DIMTVP
 40
0.0
  9
$DIMTIX
 70
     0
  9
$DIMSOXD
 70
     0
  9
$DIMSAH
 70
     0
  9
$DIMBLK1
  1

  9
$DIMBLK2
  1

  9
$DIMSTYLE
  2
ISO-25
  9
$DIMCLRD
 70
     0
  9
$DIMCLRE
 70
     0
  9
$DIMCLRT
 70
     0
  9
$DIMTFAC
 40
1.0
  9
$DIMGAP
 40
1.524
  9
$LUNITS
 70
     2
  9
$LUPREC
 70
     2
  9
$SKETCHINC
 40
1.0
  9
$FILLETRAD
 40
10.0
  9
$AUNITS
 70
     0
  9
$AUPREC
 70
     2
  9
$MENU
  1
.
  9
$ELEVATION
 40
0.0
  9
$PELEVATION
 40
0.0
  9
$THICKNESS
 40
0.0
  9
$LIMCHECK
 70
     0
  9
$CHAMFERA
 40
0.0
  9
$CHAMFERB
 40
0.0
  9
$SKPOLY
 70
     0
  9
$TDCREATE
 40
2460122.596046493
  9
$TDUPDATE
 40
2460122.596047373
  9
$TDINDWG
 40
0.0000000116
  9
$TDUSRTIMER
 40
0.0000000116
  9
$USRTIMER
 70
     1
  9
$ANGBASE
 50
0.0
  9
$ANGDIR
 70
     0
  9
$PDMODE
 70
     0
  9
$PDSIZE
 40
-1.0
  9
$PLINEWID
 40
0.0
  9
$COORDS
 70
     1
  9
$SPLFRAME
 70
     0
  9
$SPLINETYPE
 70
     6
  9
$SPLINESEGS
 70
     8
  9
$ATTDIA
 70
     0
  9
$ATTREQ
 70
     1
  9
$HANDLING
 70
     1
  9
$HANDSEED
  5
3F1
  9
$SURFTAB1
 70
     6
  9
$SURFTAB2
 70
     6
  9
$SURFTYPE
 70
     6
  9
$SURFU
 70
     6
  9
$SURFV
 70
     6
  9
$UCSNAME
  2

  9
$UCSORG
 10
0.0
 20
0.0
 30
0.0
  9
$UCSXDIR
 10
1.0
 20
0.0
 30
0.0
  9
$UCSYDIR
 10
0.0
 20
1.0
 30
0.0
  9
$PUCSNAME
  2

  9
$PUCSORG
 10
0.0
 20
0.0
 30
0.0
  9
$PUCSXDIR
 10
1.0
 20
0.0
 30
0.0
  9
$PUCSYDIR
 10
0.0
 20
1.0
 30
0.0
  9
$USERI1
 70
     0
  9
$USERI2
 70
     0
  9
$USERI3
 70
     0
  9
$USERI4
 70
     0
  9
$USERI5
 70
     0
  9
$USERR1
 40
0.0
  9
$USERR2
 40
0.0
  9
$USERR3
 40
0.0
  9
$USERR4
 40
0.0
  9
$USERR5
 40
0.0
  9
$WORLDVIEW
 70
     1
  9
$SHADEDGE
 70
     3
  9
$SHADEDIF
 70
    70
  9
$TILEMODE
 70
     1
  9
$MAXACTVP
 70
    64
  9
$PLIMCHECK
 70
     0
  9
$PEXTMIN
 10
1.0000000000E+20
 20
1.0000000000E+20
 30
1.0000000000E+20
  9
$PEXTMAX
 10
-1.0000000000E+20
 20
-1.0000000000E+20
 30
-1.0000000000E+20
  9
$PLIMMIN
 10
0.0
 20
0.0
  9
$PLIMMAX
 10
420.0
 20
297.0
  9
$UNITMODE
 70
     0
  9
$VISRETAIN
 70
     1
  9
$PLINEGEN
 70
     0
  9
$PSLTSCALE
 70
     1
  0
ENDSEC
  0
SECTION
  2
TABLES
  0
TABLE
  2
VPORT
 70
     1
  0
VPORT
  2
*ACTIVE
 70
     0
 10
0.0
 20
0.0
 11
1.0
 21
1.0
 12
210.0
 22
148.5
 13
0.0
 23
0.0
 14
10.0
 24
10.0
 15
10.0
 25
10.0
 16
0.0
 26
0.0
 36
1.0
 17
0.0
 27
0.0
 37
0.0
 40
297.0
 41
1.4141414141
 42
50.0
 43
0.0
 44
0.0
 50
0.0
 51
0.0
 71
     0
 72
  2000
 73
     1
 74
     3
 75
     0
 76
     0
 77
     0
 78
     0
  0
ENDTAB
  0
TABLE
  2
LTYPE
 70
     6
  0
LTYPE
  2
CONTINUOUS
 70
     0
  3
Solid line
 72
    65
 73
     0
 40
0.0
  0
LTYPE
  2
HIDDEN
 70
     0
  3
Hidden __ __ __ __ __ __ __ __ __ __ __ __ __ __
 72
    65
 73
     2
 40
1.905
 49
1.27
 49
-0.635
  0
LTYPE
  2
PHANTOM
 70
     0
  3
Phantom ______  __  __  ______  __  __  ______
 72
    65
 73
     6
 40
12.7
 49
6.35
 49
-1.27
 49
1.27
 49
-1.27
 49
1.27
 49
-1.27
  0
LTYPE
  2
CENTER
 70
     0
  3
Center ____ _ ____ _ ____ _ ____ _ ____ _ ____
 72
    65
 73
     4
 40
10.16
 49
6.35
 49
-1.27
 49
1.27
 49
-1.27
  0
LTYPE
  2
CENTERX2
 70
     0
  3
Center (2x) ________  __  ________  __  _____
 72
    65
 73
     4
 40
20.32
 49
12.7
 49
-2.54
 49
2.54
 49
-2.54
  0
LTYPE
  2
DOT2
 70
     0
  3
Dot (.5x) ........................................
 72
    65
 73
     2
 40
0.635
 49
0.0
 49
-0.635
  0
ENDTAB
  0
TABLE
  2
LAYER
 70
     7
  0
LAYER
  2
0
 70
     0
 62
     7
  6
CONTINUOUS
  0
LAYER
  2
FORMAT
 70
     0
 62
     7
  6
CONTINUOUS
  0
LAYER
  2
RED
 70
     0
 62
     1
  6
CONTINUOUS
  0
LAYER
  2
GREEN
 70
     0
 62
   114
  6
CONTINUOUS
  0
LAYER
  2
BLUE
 70
     0
 62
     5
  6
CONTINUOUS
  0
LAYER
  2
BLATTFORMAT
 70
     0
 62
     7
  6
CONTINUOUS
  0
LAYER
  2
BEMAßUNG
 70
     0
 62
     7
  6
CONTINUOUS
  0
ENDTAB
  0
TABLE
  2
STYLE
 70
     1
  0
STYLE
  2
STANDARD
 70
     0
 40
0.0
 41
1.0
 50
0.0
 71
     0
 42
3.5
  3
txt
  4

  0
ENDTAB
  0
TABLE
  2
VIEW
 70
     0
  0
ENDTAB
  0
TABLE
  2
UCS
 70
     0
  0
ENDTAB
  0
TABLE
  2
APPID
 70
     1
  0
APPID
  2
ACAD
 70
     0
  0
ENDTAB
  0
TABLE
  2
DIMSTYLE
 70
     4
  0
DIMSTYLE
  2
ISO-25
 70
     0
  3

  4

  5

  6

  7

 40
1.0
 41
2.5
 42
0.625
 43
3.75
 44
1.25
 45
0.0
 46
0.0
 47
0.0
 48
0.0
140
2.5
141
2.5
142
0.0
143
0.0393700787
144
1.0
145
0.0
146
1.0
147
0.625
 71
     0
 72
     0
 73
     0
 74
     0
 75
     0
 76
     0
 77
     1
 78
     8
170
     0
171
     3
172
     1
173
     0
174
     0
175
     0
176
     0
177
     0
178
     0
  0
DIMSTYLE
  2
SLDDIMSTYLE0
 70
     0
  3

  4

  5

  6

  7

 40
1.0
 41
4.0
 42
0.0625
 43
0.38
 44
0.0
 45
0.000000001
 46
0.0
 47
0.0
 48
0.0
140
7.1912923177
141
0.09
142
0.0
143
25.4
144
1.0
145
0.0
146
1.0
147
1.7978230794
 71
     0
 72
     0
 73
     0
 74
     0
 75
     0
 76
     0
 77
     1
 78
    12
170
     0
171
     2
172
     0
173
     1
174
     0
175
     0
176
     0
177
     0
178
     0
  0
DIMSTYLE
  2
SLDDIMSTYLE1
 70
     0
  3

  4

  5

  6

  7

 40
1.0
 41
4.0
 42
0.0625
 43
0.38
 44
0.0
 45
0.000000001
 46
0.0
 47
0.0
 48
0.0
140
7.1912923177
141
0.09
142
0.0
143
25.4
144
1.0
145
0.0
146
1.0
147
1.7978230794
 71
     0
 72
     0
 73
     0
 74
     0
 75
     0
 76
     0
 77
     1
 78
    12
170
     0
171
     2
172
     1
173
     1
174
     0
175
     0
176
     0
177
     0
178
     0
  0
DIMSTYLE
  2
SLDDIMSTYLE2
 70
     0
  3

  4

  5

  6

  7

 40
1.0
 41
4.0
 42
0.0625
 43
0.38
 44
0.0
 45
0.000000001
 46
0.0
 47
0.0
 48
0.0
140
7.1912923177
141
0.09
142
0.0
143
25.4
144
1.0
145
0.0
146
1.0
147
1.7978230794
 71
     0
 72
     0
 73
     0
 74
     0
 75
     0
 76
     0
 77
     1
 78
    12
170
     0
171
     2
172
     0
173
     1
174
     0
175
     0
176
     0
177
     0
178
     0
  0
ENDTAB
  0
ENDSEC
  0
SECTION
  2
BLOCKS
  0
BLOCK
  8
0
  2
$MODEL_SPACE
 70
     0
 10
0.0
 20
0.0
 30
0.0
  3
$MODEL_SPACE
  1

  0
ENDBLK
  5
21
  8
0
  0
BLOCK
 67
     1
  8
0
  2
$PAPER_SPACE
 70
     0
 10
0.0
 20
0.0
 30
0.0
  3
$PAPER_SPACE
  1

  0
ENDBLK
  5
1D
 67
     1
  8
0
  0
BLOCK
  8
0
  2
_D
 70
     0
 10
0.0
 20
0.0
 30
0.0
  3
_D
  1

  0
SOLID
  5
324
  8
BEMAßUNG
 10
96.4599650605
 20
233.122396929
 30
0.0
 11
100.4599650605
 21
232.222396929
 31
0.0
 12
100.4599650605
 22
234.022396929
 32
0.0
 13
100.4599650605
 23
234.022396929
 33
0.0
  0
SOLID
  5
325
  8
BEMAßUNG
 10
318.6645929713
 20
233.122396929
 30
0.0
 11
314.6645929713
 21
234.022396929
 31
0.0
 12
314.6645929713
 22
232.222396929
 32
0.0
 13
314.6645929713
 23
232.222396929
 33
0.0
  0
LINE
  5
326
  8
BEMAßUNG
 10
96.4599650605
 20
214.9316134568
 30
0.0
 11
96.4599650605
 21
234.122396929
 31
0.0
  0
LINE
  5
327
  8
BEMAßUNG
 10
318.6645929713
 20
214.9316134568
 30
0.0
 11
318.6645929713
 21
234.122396929
 31
0.0
  0
LINE
  5
328
  8
BEMAßUNG
 10
96.4599650605
 20
233.122396929
 30
0.0
 11
318.6645929713
 21
233.122396929
 31
0.0
  0
TEXT
  5
329
  8
BEMAßUNG
 10
201.8757990513
 20
235.7394652211
 30
9.2608654989
 40
7.4083333333
  1
222
 41
0.7
 11
201.8757990513
 21
233.122396929
 31
9.2608654989
 73
     1
  0
ENDBLK
  5
323
  8
0
  0
BLOCK
  8
0
  2
_D_1
 70
     0
 10
0.0
 20
0.0
 30
0.0
  3
_D_1
  1

  0
SOLID
  5
32E
  8
BEMAßUNG
 10
346.7270946284
 20
216.1990590713
 30
0.0
 11
345.8270946284
 21
212.1990590713
 31
0.0
 12
347.6270946284
 22
212.1990590713
 32
0.0
 13
347.6270946284
 23
212.1990590713
 33
0.0
  0
SOLID
  5
32F
  8
BEMAßUNG
 10
346.7270946284
 20
136.6990590713
 30
0.0
 11
347.6270946284
 21
140.6990590713
 31
0.0
 12
345.8270946284
 22
140.6990590713
 32
0.0
 13
345.8270946284
 23
140.6990590713
 33
0.0
  0
LINE
  5
330
  8
BEMAßUNG
 10
314.6049856527
 20
216.1990590713
 30
0.0
 11
347.7270946284
 21
216.1990590713
 31
0.0
  0
LINE
  5
331
  8
BEMAßUNG
 10
310.793212248
 20
136.6990590713
 30
0.0
 11
347.7270946284
 21
136.6990590713
 31
0.0
  0
LINE
  5
332
  8
BEMAßUNG
 10
346.7270946284
 20
216.1990590713
 30
0.0
 11
346.7270946284
 21
136.6990590713
 31
0.0
  0
TEXT
  5
333
  8
BEMAßUNG
 10
344.1100263363
 20
172.4724328837
 30
9.2608654989
 40
7.4083333333
  1
80
 50
90.0
 41
0.7
 11
346.7270946284
 21
172.4724328837
 31
9.2608654989
 73
     1
  0
ENDBLK
  5
32D
  8
0
  0
BLOCK
  8
0
  2
_D_2
 70
     0
 10
0.0
 20
0.0
 30
0.0
  3
_D_2
  1

  0
SOLID
  5
339
  8
BEMAßUNG
 10
334.7270946284
 20
219.3990590713
 30
0.0
 11
335.6270946284
 21
223.3990590713
 31
0.0
 12
333.8270946284
 22
223.3990590713
 32
0.0
 13
333.8270946284
 23
223.3990590713
 33
0.0
  0
SOLID
  5
33A
  8
BEMAßUNG
 10
334.7270946284
 20
216.1990590713
 30
0.0
 11
333.8270946284
 21
212.1990590713
 31
0.0
 12
335.6270946284
 22
212.1990590713
 32
0.0
 13
335.6270946284
 23
212.1990590713
 33
0.0
  0
LINE
  5
33B
  8
BEMAßUNG
 10
229.5532289137
 20
219.3990590713
 30
0.0
 11
335.7270946284
 21
219.3990590713
 31
0.0
  0
LINE
  5
33C
  8
BEMAßUNG
 10
314.6049856527
 20
216.1990590713
 30
0.0
 11
335.7270946284
 21
216.1990590713
 31
0.0
  0
LINE
  5
33D
  8
BEMAßUNG
 10
334.7270946284
 20
219.3990590713
 30
0.0
 11
334.7270946284
 21
232.1711258926
 31
0.0
  0
LINE
  5
33E
  8
BEMAßUNG
 10
334.7270946284
 20
219.3990590713
 30
0.0
 11
334.7270946284
 21
216.1990590713
 31
0.0
  0
LINE
  5
33F
  8
BEMAßUNG
 10
334.7270946284
 20
216.1990590713
 30
0.0
 11
334.7270946284
 21
204.1990590713
 31
0.0
  0
TEXT
  5
340
  8
BEMAßUNG
 10
332.1100263363
 20
226.6834715344
 30
9.2608654989
 40
7.4083333333
  1
3
 50
90.0
 41
0.7
 11
334.7270946284
 21
226.6834715344
 31
9.2608654989
 73
     1
  0
ENDBLK
  5
338
  8
0
  0
BLOCK
  8
0
  2
_D_3
 70
     0
 10
0.0
 20
0.0
 30
0.0
  3
_D_3
  1

  0
SOLID
  5
346
  8
BEMAßUNG
 10
334.7270946284
 20
152.6990590713
 30
0.0
 11
335.6270946284
 21
156.6990590713
 31
0.0
 12
333.8270946284
 22
156.6990590713
 32
0.0
 13
333.8270946284
 23
156.6990590713
 33
0.0
  0
SOLID
  5
347
  8
BEMAßUNG
 10
334.7270946283
 20
216.1990590713
 30
0.0
 11
333.8270946284
 21
212.1990590713
 31
0.0
 12
335.6270946283
 22
212.1990590713
 32
0.0
 13
335.6270946283
 23
212.1990590713
 33
0.0
  0
LINE
  5
348
  8
BEMAßUNG
 10
303.5581697001
 20
152.6990590713
 30
0.0
 11
335.7270946284
 21
152.6990590713
 31
0.0
  0
LINE
  5
349
  8
BEMAßUNG
 10
314.6049856527
 20
216.1990590713
 30
0.0
 11
335.7270946283
 21
216.1990590713
 31
0.0
  0
LINE
  5
34A
  8
BEMAßUNG
 10
334.7270946284
 20
152.6990590713
 30
0.0
 11
334.7270946283
 21
216.1990590713
 31
0.0
  0
TEXT
  5
34B
  8
BEMAßUNG
 10
332.1100263363
 20
177.689863596
 30
9.2608654989
 40
7.4083333333
  1
64
 50
90.0
 41
0.7
 11
334.7270946284
 21
177.689863596
 31
9.2608654989
 73
     1
  0
ENDBLK
  5
345
  8
0
  0
ENDSEC
  0
SECTION
  2
ENTITIES
  0
ARC
  5
79
  8
0
  6
CONTINUOUS
 62
     7
 10
301.0622790159
 20
81.611323828
 30
0.0
 40
17.64999999999969
 50
270.9191639151
 51
89.0808360849
  0
ARC
  5
7A
  8
0
  6
CONTINUOUS
 62
     7
 10
207.5622790159
 20
5909.4029904932
 30
0.0
 40
5846.191666665195
 50
269.0808360849
 51
270.0
  0
ARC
  5
7B
  8
0
  6
CONTINUOUS
 62
     7
 10
207.5622790159
 20
5909.4029904932
 30
0.0
 40
5846.191666665195
 50
270.0
 51
270.9191639151
  0
ARC
  5
7C
  8
0
  6
CONTINUOUS
 62
     7
 10
114.0622790159
 20
81.611323828
 30
0.0
 40
17.64999999999968
 50
90.919163915
 51
180.0
  0
ARC
  5
7D
  8
0
  6
CONTINUOUS
 62
     7
 10
207.5622790159
 20
-5746.1803428372
 30
0.0
 40
5846.191666665193
 50
89.0808360849
 51
90.9191639151
  0
ARC
  5
7E
  8
0
  6
CONTINUOUS
 62
     7
 10
114.0622790159
 20
81.611323828
 30
0.0
 40
17.64999999999971
 50
180.0
 51
269.0808360849
  0
ARC
  5
7F
  8
0
  6
CONTINUOUS
 62
     7
 10
231.5622790159
 20
81.611323828
 30
0.0
 40
6.844155686354964
 50
111.2922332443
 51
247.7842166909
  0
ARC
  5
80
  8
0
  6
CONTINUOUS
 62
     7
 10
183.5622790159
 20
81.611323828
 30
0.0
 40
6.844155686354964
 50
291.3309471413
 51
68.3031202402
  0
CIRCLE
  5
81
  8
0
  6
CONTINUOUS
 62
     7
 10
150.6622790159
 20
81.611323828
 30
0.0
 40
2.727636339397179
  0
LINE
  5
82
  8
0
  6
CONTINUOUS
 62
     7
 10
117.2007405543
 20
81.1714199818
 30
0.0
 11
117.2007405543
 21
81.1918526741
 31
0.0
  0
LINE
  5
83
  8
0
  6
CONTINUOUS
 62
     7
 10
181.585355939
 20
81.501948828
 30
0.0
 11
181.5769424774
 21
81.501948828
 31
0.0
  0
LINE
  5
84
  8
0
  6
CONTINUOUS
 62
     7
 10
178.9351155543
 20
81.6341603664
 30
0.0
 11
178.9267020928
 21
81.642573828
 31
0.0
  0
LINE
  5
85
  8
0
  6
CONTINUOUS
 62
     7
 10
179.5420867082
 20
81.6299536357
 30
0.0
 11
179.5420867082
 21
81.6215401741
 31
0.0
  0
LINE
  5
86
  8
0
  6
CONTINUOUS
 62
     7
 10
123.2938895928
 20
80.4021892126
 30
0.0
 11
123.3023030543
 21
80.4021892126
 31
0.0
  0
LINE
  5
87
  8
0
  6
CONTINUOUS
 62
     7
 10
125.2007405543
 20
81.1912517126
 30
0.0
 11
125.2007405543
 21
81.1708190203
 31
0.0
  0
CIRCLE
  5
88
  8
0
  6
CONTINUOUS
 62
     7
 10
264.4622790159
 20
81.611323828
 30
0.0
 40
2.727636339397179
  0
ARC
  5
89
  8
0
  6
CONTINUOUS
 62
     7
 10
207.5622790159
 20
5909.4029904932
 30
0.0
 40
5843.041666665194
 50
269.0808360849
 51
270.9191639151
  0
ARC
  5
8A
  8
0
  6
CONTINUOUS
 62
     7
 10
207.5622790159
 20
-5746.1803428372
 30
0.0
 40
5843.041666665194
 50
89.0808360849
 51
90.9191639151
  0
ARC
  5
8B
  8
0
  6
CONTINUOUS
 62
     7
 10
114.0622790159
 20
81.611323828
 30
0.0
 40
14.49999999999964
 50
90.919163915
 51
180.0
  0
ARC
  5
8C
  8
0
  6
CONTINUOUS
 62
     7
 10
301.0622790159
 20
81.611323828
 30
0.0
 40
14.50000000000111
 50
270.9191639151
 51
89.0808360849
  0
ARC
  5
8D
  8
0
  6
CONTINUOUS
 62
     7
 10
114.0622790159
 20
81.611323828
 30
0.0
 40
14.50000000000024
 50
180.0
 51
269.0808360849
  0
POLYLINE
  5
8E
  8
0
  6
CONTINUOUS
 62
     7
 66
     1
 10
0.0
 20
0.0
 30
0.0
 70
   128
  0
VERTEX
  5
34C
  8
0
  6
CONTINUOUS
 62
     7
 10
229.1471294663
 20
75.1125187276
 30
0.0
  0
VERTEX
  5
34D
  8
0
  6
CONTINUOUS
 62
     7
 10
229.104057261
 20
75.2071686342
 30
0.0
  0
VERTEX
  5
34E
  8
0
  6
CONTINUOUS
 62
     7
 10
229.0550453435
 20
75.2391851346
 30
0.0
  0
VERTEX
  5
34F
  8
0
  6
CONTINUOUS
 62
     7
 10
229.0361918268
 20
75.2320723214
 30
0.0
  0
SEQEND
  5
3CB
  8
0
  6
CONTINUOUS
 62
     7
  0
ARC
  5
8F
  8
0
  6
CONTINUOUS
 62
     7
 10
214.6006346422
 20
96.4831923617
 30
0.0
 40
25.69037590610928
 50
302.8953210529
 51
304.1876613833
  0
ARC
  5
90
  8
0
  6
CONTINUOUS
 62
     7
 10
214.5550055966
 20
66.6706256743
 30
0.0
 40
25.77295109514516
 50
55.8144089995
 51
57.1026085643
  0
POLYLINE
  5
91
  8
0
  6
CONTINUOUS
 62
     7
 66
     1
 10
0.0
 20
0.0
 30
0.0
 70
   128
  0
VERTEX
  5
350
  8
0
  6
CONTINUOUS
 62
     7
 10
229.0361918268
 20
87.9905753346
 30
0.0
  0
VERTEX
  5
351
  8
0
  6
CONTINUOUS
 62
     7
 10
229.0745337855
 20
87.9875417222
 30
0.0
  0
VERTEX
  5
352
  8
0
  6
CONTINUOUS
 62
     7
 10
229.115357125
 20
88.0334916813
 30
0.0
  0
VERTEX
  5
353
  8
0
  6
CONTINUOUS
 62
     7
 10
229.1471294663
 20
88.1101289283
 30
0.0
  0
SEQEND
  5
3CC
  8
0
  6
CONTINUOUS
 62
     7
  0
POLYLINE
  5
92
  8
0
  6
CONTINUOUS
 62
     7
 66
     1
 10
0.0
 20
0.0
 30
0.0
 70
   128
  0
VERTEX
  5
354
  8
0
  6
CONTINUOUS
 62
     7
 10
185.9774285654
 20
88.1101289283
 30
0.0
  0
VERTEX
  5
355
  8
0
  6
CONTINUOUS
 62
     7
 10
186.0205007707
 20
88.0154790218
 30
0.0
  0
VERTEX
  5
356
  8
0
  6
CONTINUOUS
 62
     7
 10
186.0695126882
 20
87.9834625213
 30
0.0
  0
VERTEX
  5
357
  8
0
  6
CONTINUOUS
 62
     7
 10
186.0883662049
 20
87.9905753346
 30
0.0
  0
SEQEND
  5
3CD
  8
0
  6
CONTINUOUS
 62
     7
  0
ARC
  5
93
  8
0
  6
CONTINUOUS
 62
     7
 10
200.5239233899
 20
66.7394552936
 30
0.0
 40
25.69037590687716
 50
122.8953210529
 51
124.1876613833
  0
ARC
  5
94
  8
0
  6
CONTINUOUS
 62
     7
 10
200.5695524366
 20
96.5520219838
 30
0.0
 40
25.77295109767969
 50
235.8144089995
 51
237.1026085642
  0
POLYLINE
  5
95
  8
0
  6
CONTINUOUS
 62
     7
 66
     1
 10
0.0
 20
0.0
 30
0.0
 70
   128
  0
VERTEX
  5
358
  8
0
  6
CONTINUOUS
 62
     7
 10
186.0883662049
 20
75.2320723214
 30
0.0
  0
VERTEX
  5
359
  8
0
  6
CONTINUOUS
 62
     7
 10
186.0500242463
 20
75.2351059337
 30
0.0
  0
VERTEX
  5
35A
  8
0
  6
CONTINUOUS
 62
     7
 10
186.0092009067
 20
75.1891559747
 30
0.0
  0
VERTEX
  5
35B
  8
0
  6
CONTINUOUS
 62
     7
 10
185.9774285654
 20
75.1125187276
 30
0.0
  0
SEQEND
  5
3CE
  8
0
  6
CONTINUOUS
 62
     7
  0
ARC
  5
96
  8
0
  6
CONTINUOUS
 62
     7
 10
231.5622790159
 20
81.611323828
 30
0.0
 40
9.48533722937719
 50
188.5409782759
 51
256.2569208359
  0
ARC
  5
97
  8
0
  6
CONTINUOUS
 62
     7
 10
183.5622790159
 20
81.611323828
 30
0.0
 40
9.485337229377183
 50
283.7430791641
 51
351.4590217241
  0
ARC
  5
98
  8
0
  6
CONTINUOUS
 62
     7
 10
183.5622790159
 20
81.611323828
 30
0.0
 40
9.48533722937717
 50
8.5409782759
 51
76.2569208359
  0
ARC
  5
99
  8
0
  6
CONTINUOUS
 62
     7
 10
231.5622790159
 20
81.611323828
 30
0.0
 40
9.48533722937717
 50
103.7430791641
 51
171.4590217241
  0
LINE
  5
9A
  8
0
  6
CONTINUOUS
 62
     7
 10
184.5392541665
 20
73.6712029501
 30
0.0
 11
184.5475558507
 21
73.6037330907
 31
0.0
  0
ARC
  5
9B
  8
0
  6
CONTINUOUS
 62
     7
 10
183.5622790159
 20
81.611323828
 30
0.0
 40
7.999999999996009
 50
277.0145789686
 51
280.8069228749
  0
ARC
  5
9C
  8
0
  6
CONTINUOUS
 62
     7
 10
184.0627737803
 20
75.4138344075
 30
0.0
 40
1.938219307805831
 50
301.0430664325
 51
351.0565211098
  0
ARC
  5
9D
  8
0
  6
CONTINUOUS
 62
     7
 10
182.6057249734
 20
72.2069044193
 30
0.0
 40
2.392036264962608
 50
2.2828663973
 51
35.7288201932
  0
LINE
  5
9E
  8
0
  6
CONTINUOUS
 62
     7
 10
230.5853038653
 20
89.5514447058
 30
0.0
 11
230.5770021811
 21
89.6189145652
 31
0.0
  0
ARC
  5
9F
  8
0
  6
CONTINUOUS
 62
     7
 10
231.5622790159
 20
81.611323828
 30
0.0
 40
8.000000000003398
 50
97.0145789686
 51
100.8069228749
  0
ARC
  5
A0
  8
0
  6
CONTINUOUS
 62
     7
 10
231.0617842515
 20
87.8088132484
 30
0.0
 40
1.938219307805922
 50
121.0430664325
 51
171.0565211098
  0
ARC
  5
A1
  8
0
  6
CONTINUOUS
 62
     7
 10
232.5188330583
 20
91.0157432366
 30
0.0
 40
2.39203626496196
 50
182.2828663973
 51
215.7288201932
  0
POLYLINE
  5
A2
  8
0
  6
CONTINUOUS
 62
     7
 66
     1
 10
0.0
 20
0.0
 30
0.0
 70
   128
  0
VERTEX
  5
35C
  8
0
  6
CONTINUOUS
 62
     7
 10
230.0622790159
 20
73.7532070052
 30
0.0
  0
VERTEX
  5
35D
  8
0
  6
CONTINUOUS
 62
     7
 10
229.5468466542
 20
74.1970912414
 30
0.0
  0
VERTEX
  5
35E
  8
0
  6
CONTINUOUS
 62
     7
 10
229.1471294663
 20
75.1125187276
 30
0.0
  0
SEQEND
  5
3CF
  8
0
  6
CONTINUOUS
 62
     7
  0
ARC
  5
A3
  8
0
  6
CONTINUOUS
 62
     7
 10
231.5622790159
 20
81.611323828
 30
0.0
 40
7.999999999995998
 50
259.1930771251
 51
262.9854210314
  0
LINE
  5
A4
  8
0
  6
CONTINUOUS
 62
     7
 10
230.5770021811
 20
73.6037330907
 30
0.0
 11
230.5853038653
 21
73.6712029501
 31
0.0
  0
ARC
  5
A5
  8
0
  6
CONTINUOUS
 62
     7
 10
232.196465799
 20
72.3179411441
 30
0.0
 40
2.067830587771395
 50
141.5517738165
 51
180.4365395932
  0
POLYLINE
  5
A6
  8
0
  6
CONTINUOUS
 62
     7
 66
     1
 10
0.0
 20
0.0
 30
0.0
 70
   128
  0
VERTEX
  5
35F
  8
0
  6
CONTINUOUS
 62
     7
 10
185.0622790159
 20
89.4694406507
 30
0.0
  0
VERTEX
  5
360
  8
0
  6
CONTINUOUS
 62
     7
 10
185.5777113775
 20
89.0255564145
 30
0.0
  0
VERTEX
  5
361
  8
0
  6
CONTINUOUS
 62
     7
 10
185.9774285654
 20
88.1101289283
 30
0.0
  0
SEQEND
  5
3D0
  8
0
  6
CONTINUOUS
 62
     7
  0
ARC
  5
A7
  8
0
  6
CONTINUOUS
 62
     7
 10
183.5622790159
 20
81.611323828
 30
0.0
 40
7.999999999983685
 50
79.1930771251
 51
82.9854210314
  0
LINE
  5
A8
  8
0
  6
CONTINUOUS
 62
     7
 10
184.5475558507
 20
89.6189145652
 30
0.0
 11
184.5392541665
 21
89.5514447058
 31
0.0
  0
ARC
  5
A9
  8
0
  6
CONTINUOUS
 62
     7
 10
182.9280922328
 20
90.9047065119
 30
0.0
 40
2.067830587772642
 50
321.5517738165
 51
0.4365395932
  0
ARC
  5
AA
  8
0
  6
CONTINUOUS
 62
     7
 10
301.0622790159
 20
81.611323828
 30
0.0
 40
12.04755690148864
 50
270.9191639151
 51
89.0808360849
  0
ARC
  5
AB
  8
0
  6
CONTINUOUS
 62
     7
 10
114.0622790159
 20
81.611323828
 30
0.0
 40
14.49999999999935
 50
90.9191639151
 51
269.0808360849
  0
ARC
  5
AC
  8
0
  6
CONTINUOUS
 62
     7
 10
114.0622790159
 20
81.611323828
 30
0.0
 40
12.04755690148863
 50
90.919163915
 51
269.0808360849
  0
ARC
  5
AD
  8
0
  6
CONTINUOUS
 62
     7
 10
207.5622790159
 20
5909.4029904932
 30
0.0
 40
5840.589223566682
 50
269.0808360849
 51
270.9191639151
  0
ARC
  5
AE
  8
0
  6
CONTINUOUS
 62
     7
 10
223.5105207888
 20
74.7195013179
 30
0.0
 40
7.045824608498084
 50
335.576972182
 51
339.9350748072
  0
ARC
  5
AF
  8
0
  6
CONTINUOUS
 62
     7
 10
191.6140372401
 20
88.5031463392
 30
0.0
 40
7.045824605413868
 50
155.5769721811
 51
159.9350748081
  0
ARC
  5
B0
  8
0
  6
CONTINUOUS
 62
     7
 10
223.510520792
 20
88.5031463394
 30
0.0
 40
7.045824605023173
 50
20.0649251915
 51
24.4230278189
  0
ARC
  5
B1
  8
0
  6
CONTINUOUS
 62
     7
 10
191.6140372404
 20
74.7195013168
 30
0.0
 40
7.045824605689343
 50
200.0649251917
 51
204.4230278186
  0
ARC
  5
B2
  8
0
  6
CONTINUOUS
 62
     7
 10
262.5622790159
 20
-170.3334130141
 30
0.0
 40
261.8447368421091
 50
82.9854210314
 51
97.0145789686
  0
POLYLINE
  5
B3
  8
0
  6
CONTINUOUS
 62
     7
 66
     1
 10
0.0
 20
0.0
 30
0.0
 70
   128
  0
VERTEX
  5
362
  8
0
  6
CONTINUOUS
 62
     7
 10
229.6786155219
 20
91.9580366584
 30
0.0
  0
VERTEX
  5
363
  8
0
  6
CONTINUOUS
 62
     7
 10
229.6828959606
 20
91.948926933
 30
0.0
  0
VERTEX
  5
364
  8
0
  6
CONTINUOUS
 62
     7
 10
229.9258677909
 20
91.4163863309
 30
0.0
  0
SEQEND
  5
3D1
  8
0
  6
CONTINUOUS
 62
     7
  0
ARC
  5
B4
  8
0
  6
CONTINUOUS
 62
     7
 10
152.5622790159
 20
333.5560606701
 30
0.0
 40
261.8447368421091
 50
262.9854210314
 51
277.0145789686
  0
POLYLINE
  5
B5
  8
0
  6
CONTINUOUS
 62
     7
 66
     1
 10
0.0
 20
0.0
 30
0.0
 70
   128
  0
VERTEX
  5
365
  8
0
  6
CONTINUOUS
 62
     7
 10
185.4459425099
 20
71.2646109975
 30
0.0
  0
VERTEX
  5
366
  8
0
  6
CONTINUOUS
 62
     7
 10
185.4416620711
 20
71.2737207229
 30
0.0
  0
VERTEX
  5
367
  8
0
  6
CONTINUOUS
 62
     7
 10
185.1986902408
 20
71.806261325
 30
0.0
  0
SEQEND
  5
3D2
  8
0
  6
CONTINUOUS
 62
     7
  0
ARC
  5
B6
  8
0
  6
CONTINUOUS
 62
     7
 10
152.5622790159
 20
-170.3334130141
 30
0.0
 40
261.8447368421091
 50
82.9854210314
 51
97.0145789686
  0
POLYLINE
  5
B7
  8
0
  6
CONTINUOUS
 62
     7
 66
     1
 10
0.0
 20
0.0
 30
0.0
 70
   128
  0
VERTEX
  5
368
  8
0
  6
CONTINUOUS
 62
     7
 10
185.1986902408
 20
91.4163863309
 30
0.0
  0
VERTEX
  5
369
  8
0
  6
CONTINUOUS
 62
     7
 10
185.4416620711
 20
91.948926933
 30
0.0
  0
VERTEX
  5
36A
  8
0
  6
CONTINUOUS
 62
     7
 10
185.4459425099
 20
91.9580366584
 30
0.0
  0
SEQEND
  5
3D3
  8
0
  6
CONTINUOUS
 62
     7
  0
ARC
  5
B8
  8
0
  6
CONTINUOUS
 62
     7
 10
262.5622790159
 20
333.5560606701
 30
0.0
 40
261.8447368421091
 50
262.9854210314
 51
277.0145789686
  0
POLYLINE
  5
B9
  8
0
  6
CONTINUOUS
 62
     7
 66
     1
 10
0.0
 20
0.0
 30
0.0
 70
   128
  0
VERTEX
  5
36B
  8
0
  6
CONTINUOUS
 62
     7
 10
229.9258677909
 20
71.806261325
 30
0.0
  0
VERTEX
  5
36C
  8
0
  6
CONTINUOUS
 62
     7
 10
229.6828959606
 20
71.2737207229
 30
0.0
  0
VERTEX
  5
36D
  8
0
  6
CONTINUOUS
 62
     7
 10
229.6786155219
 20
71.2646109975
 30
0.0
  0
SEQEND
  5
3D4
  8
0
  6
CONTINUOUS
 62
     7
  0
ARC
  5
BA
  8
0
  6
CONTINUOUS
 62
     7
 10
293.5622790159
 20
81.611323828
 30
0.0
 40
8.000000000000023
 50
277.0145789686
 51
82.9854210314
  0
ARC
  5
BB
  8
0
  6
CONTINUOUS
 62
     7
 10
121.5622790159
 20
81.611323828
 30
0.0
 40
8.000000000000023
 50
97.0145789686
 51
262.9854210314
  0
LINE
  5
BC
  8
0
  6
CENTER
 62
     7
 10
345.3882790159
 20
81.8832627867
 30
0.0
 11
69.7362790159
 21
81.8832627867
 31
0.0
  0
LINE
  5
BD
  8
0
  6
CONTINUOUS
 62
     7
 10
343.3882790159
 20
69.8832627867
 30
0.0
 11
343.3882790159
 21
81.8832627867
 31
0.0
  0
SOLID
  5
BE
  8
0
  6
CONTINUOUS
 62
     7
 10
343.3882790159
 20
81.8832627867
 30
0.0
 11
341.8882790159
 21
75.8832627867
 31
0.0
 12
344.8882790159
 22
75.8832627867
 32
0.0
 13
344.8882790159
 23
75.8832627867
 33
0.0
  0
LINE
  5
BF
  8
0
  6
CONTINUOUS
 62
     7
 10
71.7362790159
 20
69.8832627867
 30
0.0
 11
71.7362790159
 21
81.8832627867
 31
0.0
  0
SOLID
  5
C0
  8
0
  6
CONTINUOUS
 62
     7
 10
71.7362790159
 20
81.8832627867
 30
0.0
 11
70.2362790159
 21
75.8832627867
 31
0.0
 12
73.2362790159
 22
75.8832627867
 32
0.0
 13
73.2362790159
 23
75.8832627867
 33
0.0
  0
TEXT
  5
C1
  8
0
  6
CONTINUOUS
 62
     7
 10
345.8924596127
 20
73.6155295469
 30
0.0
 40
6.35
  1
A
 41
0.7
 11
345.8924596127
 21
79.9655295469
 31
0.0
 73
     3
  0
TEXT
  5
C2
  8
0
  6
CONTINUOUS
 62
     7
 10
62.9716469269
 20
73.6155295469
 30
0.0
 40
6.35
  1
A
 41
0.7
 11
62.9716469269
 21
79.9655295469
 31
0.0
 73
     3
  0
LINE
  5
C3
  8
0
  6
CONTINUOUS
 62
     7
 10
317.1211752053
 20
216.1948818079
 30
0.0
 11
315.5597287641
 21
214.6334353667
 31
0.0
  0
LINE
  5
C4
  8
0
  6
CONTINUOUS
 62
     7
 10
301.5576557551
 20
156.3247068163
 30
0.0
 11
303.058386071
 21
154.8239765005
 31
0.0
  0
LINE
  5
C5
  8
0
  6
CONTINUOUS
 62
     7
 10
301.5576557551
 20
160.8148348769
 30
0.0
 11
303.058386071
 21
159.314104561
 31
0.0
  0
LINE
  5
C6
  8
0
  6
CONTINUOUS
 62
     7
 10
301.5576557551
 20
165.3049629374
 30
0.0
 11
303.058386071
 21
163.8042326215
 31
0.0
  0
LINE
  5
C7
  8
0
  6
CONTINUOUS
 62
     7
 10
301.5576557551
 20
169.795090998
 30
0.0
 11
303.058386071
 21
168.2943606821
 31
0.0
  0
LINE
  5
C8
  8
0
  6
CONTINUOUS
 62
     7
 10
301.5576557551
 20
174.2852190585
 30
0.0
 11
303.058386071
 21
172.7844887426
 31
0.0
  0
LINE
  5
C9
  8
0
  6
CONTINUOUS
 62
     7
 10
301.5576557551
 20
178.775347119
 30
0.0
 11
303.058386071
 21
177.2746168031
 31
0.0
  0
LINE
  5
CA
  8
0
  6
CONTINUOUS
 62
     7
 10
301.5576557551
 20
183.2654751796
 30
0.0
 11
303.0678462315
 21
181.7552847032
 31
0.0
  0
LINE
  5
CB
  8
0
  6
CONTINUOUS
 62
     7
 10
301.5576557551
 20
187.7556032401
 30
0.0
 11
307.113017266
 21
182.2002417292
 31
0.0
  0
LINE
  5
CC
  8
0
  6
CONTINUOUS
 62
     7
 10
301.5576557551
 20
192.2457313006
 30
0.0
 11
308.671904664
 21
185.1314823918
 31
0.0
  0
LINE
  5
CD
  8
0
  6
CONTINUOUS
 62
     7
 10
301.5576557551
 20
196.7358593612
 30
0.0
 11
309.6232241507
 21
188.6702909656
 31
0.0
  0
LINE
  5
CE
  8
0
  6
CONTINUOUS
 62
     7
 10
301.5576557551
 20
201.2259874217
 30
0.0
 11
310.5738383988
 21
192.209804778
 31
0.0
  0
LINE
  5
CF
  8
0
  6
CONTINUOUS
 62
     7
 10
301.5576557551
 20
205.7161154822
 30
0.0
 11
311.5237774568
 21
195.7499937806
 31
0.0
  0
LINE
  5
D0
  8
0
  6
CONTINUOUS
 62
     7
 10
301.5576557551
 20
210.2062435428
 30
0.0
 11
312.4734419858
 21
199.2904573121
 31
0.0
  0
LINE
  5
D1
  8
0
  6
CONTINUOUS
 62
     7
 10
302.0655239621
 20
214.1885033963
 30
0.0
 11
313.4229009021
 21
202.8311264564
 31
0.0
  0
LINE
  5
D2
  8
0
  6
CONTINUOUS
 62
     7
 10
305.5450963476
 20
215.1990590713
 30
0.0
 11
314.9857576732
 21
205.7583977457
 31
0.0
  0
LINE
  5
D3
  8
0
  6
CONTINUOUS
 62
     7
 10
315.2791461169
 20
209.9551373626
 30
0.0
 11
315.8183573071
 21
209.4159261724
 31
0.0
  0
LINE
  5
D4
  8
0
  6
CONTINUOUS
 62
     7
 10
310.0352244082
 20
215.1990590713
 30
0.0
 11
314.0577685804
 21
211.1765148991
 31
0.0
  0
LINE
  5
D5
  8
0
  6
CONTINUOUS
 62
     7
 10
313.5327715574
 20
216.1916399826
 30
0.0
 11
316.5253524687
 21
213.1990590713
 31
0.0
  0
LINE
  5
D6
  8
0
  6
CONTINUOUS
 62
     7
 10
191.5576557551
 20
154.071505303
 30
0.0
 11
192.8371373978
 21
152.7920236603
 31
0.0
  0
LINE
  5
D7
  8
0
  6
CONTINUOUS
 62
     7
 10
191.5576557551
 20
158.5616333635
 30
0.0
 11
193.058386071
 21
157.0609030476
 31
0.0
  0
LINE
  5
D8
  8
0
  6
CONTINUOUS
 62
     7
 10
191.5576557551
 20
163.0517614241
 30
0.0
 11
193.058386071
 21
161.5510311082
 31
0.0
  0
LINE
  5
D9
  8
0
  6
CONTINUOUS
 62
     7
 10
191.5576557551
 20
167.5418894846
 30
0.0
 11
193.058386071
 21
166.0411591687
 31
0.0
  0
LINE
  5
DA
  8
0
  6
CONTINUOUS
 62
     7
 10
191.5576557551
 20
172.0320175451
 30
0.0
 11
193.058386071
 21
170.5312872292
 31
0.0
  0
LINE
  5
DB
  8
0
  6
CONTINUOUS
 62
     7
 10
191.5576557551
 20
176.5221456057
 30
0.0
 11
193.058386071
 21
175.0214152898
 31
0.0
  0
LINE
  5
DC
  8
0
  6
CONTINUOUS
 62
     7
 10
191.5576557551
 20
181.0122736662
 30
0.0
 11
193.058386071
 21
179.5115433503
 31
0.0
  0
LINE
  5
DD
  8
0
  6
CONTINUOUS
 62
     7
 10
222.0661719607
 20
154.9938855211
 30
0.0
 11
223.5669022766
 21
153.4931552053
 31
0.0
  0
LINE
  5
DE
  8
0
  6
CONTINUOUS
 62
     7
 10
191.5576557551
 20
185.5024017267
 30
0.0
 11
194.2369811617
 21
182.8230763202
 31
0.0
  0
LINE
  5
DF
  8
0
  6
CONTINUOUS
 62
     7
 10
222.0661719607
 20
159.4840135817
 30
0.0
 11
223.5669022766
 21
157.9832832658
 31
0.0
  0
LINE
  5
E0
  8
0
  6
CONTINUOUS
 62
     7
 10
191.5576557551
 20
189.9925297873
 30
0.0
 11
195.199809704
 21
186.3503758384
 31
0.0
  0
LINE
  5
E1
  8
0
  6
CONTINUOUS
 62
     7
 10
222.0661719607
 20
163.9741416422
 30
0.0
 11
223.5669022766
 21
162.4734113263
 31
0.0
  0
LINE
  5
E2
  8
0
  6
CONTINUOUS
 62
     7
 10
191.5576557551
 20
194.4826578478
 30
0.0
 11
196.1508451319
 21
189.8894684711
 31
0.0
  0
LINE
  5
E3
  8
0
  6
CONTINUOUS
 62
     7
 10
222.0661719607
 20
168.4642697027
 30
0.0
 11
223.5669022766
 21
166.9635393869
 31
0.0
  0
LINE
  5
E4
  8
0
  6
CONTINUOUS
 62
     7
 10
191.5576557551
 20
198.9727859083
 30
0.0
 11
197.1010816929
 21
193.4293599706
 31
0.0
  0
LINE
  5
E5
  8
0
  6
CONTINUOUS
 62
     7
 10
222.0661719607
 20
172.9543977633
 30
0.0
 11
223.5669022766
 21
171.4536674474
 31
0.0
  0
LINE
  5
E6
  8
0
  6
CONTINUOUS
 62
     7
 10
191.5576557551
 20
203.4629139689
 30
0.0
 11
198.05101802
 21
196.969551704
 31
0.0
  0
LINE
  5
E7
  8
0
  6
CONTINUOUS
 62
     7
 10
222.0661719607
 20
177.4445258238
 30
0.0
 11
223.5669022766
 21
175.9437955079
 31
0.0
  0
LINE
  5
E8
  8
0
  6
CONTINUOUS
 62
     7
 10
191.5576557551
 20
207.9530420294
 30
0.0
 11
199.0005346555
 21
200.5101631291
 31
0.0
  0
LINE
  5
E9
  8
0
  6
CONTINUOUS
 62
     7
 10
220.7627618436
 20
183.2380640014
 30
0.0
 11
223.5669022766
 21
180.4339235685
 31
0.0
  0
LINE
  5
EA
  8
0
  6
CONTINUOUS
 62
     7
 10
191.5576557551
 20
212.4431700899
 30
0.0
 11
199.9499330948
 21
204.0508927503
 31
0.0
  0
LINE
  5
EB
  8
0
  6
CONTINUOUS
 62
     7
 10
219.1132172262
 20
189.3777366794
 30
0.0
 11
223.5669022766
 21
184.924051629
 31
0.0
  0
LINE
  5
EC
  8
0
  6
CONTINUOUS
 62
     7
 10
191.0397932044
 20
217.4511607012
 30
0.0
 11
201.0418948343
 21
207.4490590713
 31
0.0
  0
LINE
  5
ED
  8
0
  6
CONTINUOUS
 62
     7
 10
217.4636726087
 20
195.5174093574
 30
0.0
 11
223.5669022766
 21
189.4141796895
 31
0.0
  0
LINE
  5
EE
  8
0
  6
CONTINUOUS
 62
     7
 10
193.5820228948
 20
219.3990590713
 30
0.0
 11
200.2599376561
 21
212.72114431
 31
0.0
  0
LINE
  5
EF
  8
0
  6
CONTINUOUS
 62
     7
 10
215.8173280063
 20
201.6538820204
 30
0.0
 11
223.5669022766
 21
193.9043077501
 31
0.0
  0
LINE
  5
F0
  8
0
  6
CONTINUOUS
 62
     7
 10
198.0721509553
 20
219.3990590713
 30
0.0
 11
204.2721509553
 21
213.1990590713
 31
0.0
  0
LINE
  5
F1
  8
0
  6
CONTINUOUS
 62
     7
 10
212.8800953147
 20
209.0812427725
 30
0.0
 11
223.5669022766
 21
198.3944358106
 31
0.0
  0
LINE
  5
F2
  8
0
  6
CONTINUOUS
 62
     7
 10
202.5622790159
 20
219.3990590713
 30
0.0
 11
208.7622790159
 21
213.1990590713
 31
0.0
  0
LINE
  5
F3
  8
0
  6
CONTINUOUS
 62
     7
 10
214.8667894513
 20
211.5846766964
 30
0.0
 11
223.5669022766
 21
202.8845638711
 31
0.0
  0
LINE
  5
F4
  8
0
  6
CONTINUOUS
 62
     7
 10
207.0524070764
 20
219.3990590713
 30
0.0
 11
213.2524070764
 21
213.1990590713
 31
0.0
  0
LINE
  5
F5
  8
0
  6
CONTINUOUS
 62
     7
 10
211.5425351369
 20
219.3990590713
 30
0.0
 11
223.5669022766
 21
207.3746919317
 31
0.0
  0
LINE
  5
F6
  8
0
  6
CONTINUOUS
 62
     7
 10
216.0326631975
 20
219.3990590713
 30
0.0
 11
223.5669022766
 21
211.8648199922
 31
0.0
  0
LINE
  5
F7
  8
0
  6
CONTINUOUS
 62
     7
 10
220.522791258
 20
219.3990590713
 30
0.0
 11
223.725929412
 21
216.1959209173
 31
0.0
  0
LINE
  5
F8
  8
0
  6
CONTINUOUS
 62
     7
 10
112.0661719607
 20
157.2308120683
 30
0.0
 11
113.5669022766
 21
155.7300817524
 31
0.0
  0
LINE
  5
F9
  8
0
  6
CONTINUOUS
 62
     7
 10
112.0661719607
 20
161.7209401288
 30
0.0
 11
113.5669022766
 21
160.220209813
 31
0.0
  0
LINE
  5
FA
  8
0
  6
CONTINUOUS
 62
     7
 10
112.0661719607
 20
166.2110681894
 30
0.0
 11
113.5669022766
 21
164.7103378735
 31
0.0
  0
LINE
  5
FB
  8
0
  6
CONTINUOUS
 62
     7
 10
112.0661719607
 20
170.7011962499
 30
0.0
 11
113.5669022766
 21
169.200465934
 31
0.0
  0
LINE
  5
FC
  8
0
  6
CONTINUOUS
 62
     7
 10
112.0661719607
 20
175.1913243104
 30
0.0
 11
113.5669022766
 21
173.6905939946
 31
0.0
  0
LINE
  5
FD
  8
0
  6
CONTINUOUS
 62
     7
 10
112.0661719607
 20
179.681452371
 30
0.0
 11
113.5669022766
 21
178.1807220551
 31
0.0
  0
LINE
  5
FE
  8
0
  6
CONTINUOUS
 62
     7
 10
106.394512323
 20
185.3531120087
 30
0.0
 11
109.5480837106
 21
182.1995406211
 31
0.0
  0
LINE
  5
FF
  8
0
  6
CONTINUOUS
 62
     7
 10
104.7449677055
 20
191.4927846867
 30
0.0
 11
113.5669022766
 21
182.6708501156
 31
0.0
  0
LINE
  5
100
  8
0
  6
CONTINUOUS
 62
     7
 10
103.0958560111
 20
197.6320244417
 30
0.0
 11
113.5669022766
 21
187.1609781762
 31
0.0
  0
LINE
  5
101
  8
0
  6
CONTINUOUS
 62
     7
 10
101.4506410543
 20
203.767367459
 30
0.0
 11
113.5669022766
 21
191.6511062367
 31
0.0
  0
LINE
  5
102
  8
0
  6
CONTINUOUS
 62
     7
 10
99.7926586439
 20
209.91547793
 30
0.0
 11
113.5669022766
 21
196.1412342972
 31
0.0
  0
LINE
  5
103
  8
0
  6
CONTINUOUS
 62
     7
 10
99.5648292676
 20
214.6334353667
 30
0.0
 11
113.5669022766
 21
200.6313623578
 31
0.0
  0
LINE
  5
104
  8
0
  6
CONTINUOUS
 62
     7
 10
103.4893336236
 20
215.1990590713
 30
0.0
 11
113.5669022766
 21
205.1214904183
 31
0.0
  0
LINE
  5
105
  8
0
  6
CONTINUOUS
 62
     7
 10
107.9794616841
 20
215.1990590713
 30
0.0
 11
113.5669022766
 21
209.6116184788
 31
0.0
  0
LINE
  5
106
  8
0
  6
CONTINUOUS
 62
     7
 10
99.3442958541
 20
204.9638932413
 30
0.0
 11
99.0178908533
 21
204.6374882405
 31
0.0
  0
LINE
  5
107
  8
0
  6
CONTINUOUS
 62
     7
 10
101.0646282644
 20
202.1940975911
 30
0.0
 11
99.2377202733
 21
200.3671895999
 31
0.0
  0
LINE
  5
108
  8
0
  6
CONTINUOUS
 62
     7
 10
101.084145866
 20
197.7234871322
 30
0.0
 11
99.5899675437
 21
196.2293088098
 31
0.0
  0
LINE
  5
109
  8
0
  6
CONTINUOUS
 62
     7
 10
101.1036635489
 20
193.2528767545
 30
0.0
 11
99.6094821436
 21
191.7586953492
 31
0.0
  0
LINE
  5
10A
  8
0
  6
CONTINUOUS
 62
     7
 10
101.1231815205
 20
188.7822666656
 30
0.0
 11
99.6289967434
 21
187.2880818885
 31
0.0
  0
LINE
  5
10B
  8
0
  6
CONTINUOUS
 62
     7
 10
101.1426994921
 20
184.3116565766
 30
0.0
 11
99.6485113433
 21
182.8174684279
 31
0.0
  0
LINE
  5
10C
  8
0
  6
CONTINUOUS
 62
     7
 10
101.1622174637
 20
179.8410464877
 30
0.0
 11
99.6680261327
 21
178.3468551568
 31
0.0
  0
LINE
  5
10D
  8
0
  6
CONTINUOUS
 62
     7
 10
101.1817354352
 20
175.3704363987
 30
0.0
 11
99.687540937
 21
173.8762419004
 31
0.0
  0
LINE
  5
10E
  8
0
  6
CONTINUOUS
 62
     7
 10
101.2012534068
 20
170.8998263098
 30
0.0
 11
99.7070557412
 21
169.4056286441
 31
0.0
  0
LINE
  5
10F
  8
0
  6
CONTINUOUS
 62
     7
 10
101.2207713784
 20
166.4292162208
 30
0.0
 11
99.7265705454
 21
164.9350153878
 31
0.0
  0
LINE
  5
110
  8
0
  6
CONTINUOUS
 62
     7
 10
101.24028935
 20
161.9586061318
 30
0.0
 11
99.7460853496
 21
160.4644021315
 31
0.0
  0
LINE
  5
111
  8
0
  6
CONTINUOUS
 62
     7
 10
101.2598073216
 20
157.4879960429
 30
0.0
 11
99.7656001538
 21
155.9937888751
 31
0.0
  0
LINE
  5
112
  8
0
  6
CONTINUOUS
 62
     7
 10
101.2793252931
 20
153.0173859539
 30
0.0
 11
99.785114958
 21
151.5231756188
 31
0.0
  0
LINE
  5
113
  8
0
  6
CONTINUOUS
 62
     7
 10
101.2988432647
 20
148.546775865
 30
0.0
 11
99.8046297622
 21
147.0525623625
 31
0.0
  0
LINE
  5
114
  8
0
  6
CONTINUOUS
 62
     7
 10
101.3183612363
 20
144.076165776
 30
0.0
 11
99.8241445664
 21
142.5819491062
 31
0.0
  0
LINE
  5
115
  8
0
  6
CONTINUOUS
 62
     7
 10
101.9257472996
 20
140.1934237788
 30
0.0
 11
100.8422209592
 21
139.1098974384
 31
0.0
  0
LINE
  5
116
  8
0
  6
CONTINUOUS
 62
     7
 10
104.5211298956
 20
138.2986783143
 30
0.0
 11
103.3119072876
 21
137.0894557063
 31
0.0
  0
LINE
  5
117
  8
0
  6
CONTINUOUS
 62
     7
 10
108.9116387132
 20
138.1990590713
 30
0.0
 11
107.4116387132
 21
136.6990590713
 31
0.0
  0
LINE
  5
118
  8
0
  6
CONTINUOUS
 62
     7
 10
113.4017667737
 20
138.1990590713
 30
0.0
 11
111.9017667737
 21
136.6990590713
 31
0.0
  0
LINE
  5
119
  8
0
  6
CONTINUOUS
 62
     7
 10
117.9918948343
 20
138.2990590713
 30
0.0
 11
116.3918948343
 21
136.6990590713
 31
0.0
  0
LINE
  5
11A
  8
0
  6
CONTINUOUS
 62
     7
 10
122.3820228948
 20
138.1990590713
 30
0.0
 11
120.8820228948
 21
136.6990590713
 31
0.0
  0
LINE
  5
11B
  8
0
  6
CONTINUOUS
 62
     7
 10
126.8721509553
 20
138.1990590713
 30
0.0
 11
125.3721509553
 21
136.6990590713
 31
0.0
  0
LINE
  5
11C
  8
0
  6
CONTINUOUS
 62
     7
 10
131.3622790159
 20
138.1990590713
 30
0.0
 11
129.8622790159
 21
136.6990590713
 31
0.0
  0
LINE
  5
11D
  8
0
  6
CONTINUOUS
 62
     7
 10
135.8524070764
 20
138.1990590713
 30
0.0
 11
134.3524070764
 21
136.6990590713
 31
0.0
  0
LINE
  5
11E
  8
0
  6
CONTINUOUS
 62
     7
 10
202.3066671784
 20
204.6533191734
 30
0.0
 11
200.2617382099
 21
202.6083902048
 31
0.0
  0
LINE
  5
11F
  8
0
  6
CONTINUOUS
 62
     7
 10
140.3425351369
 20
138.1990590713
 30
0.0
 11
138.8425351369
 21
136.6990590713
 31
0.0
  0
LINE
  5
120
  8
0
  6
CONTINUOUS
 62
     7
 10
201.7637252379
 20
199.6202491723
 30
0.0
 11
200.2420491869
 21
198.0985731213
 31
0.0
  0
LINE
  5
121
  8
0
  6
CONTINUOUS
 62
     7
 10
144.8326631975
 20
138.1990590713
 30
0.0
 11
143.3326631975
 21
136.6990590713
 31
0.0
  0
LINE
  5
122
  8
0
  6
CONTINUOUS
 62
     7
 10
201.7296436048
 20
195.0960394787
 30
0.0
 11
200.2223601639
 21
193.5887560378
 31
0.0
  0
LINE
  5
123
  8
0
  6
CONTINUOUS
 62
     7
 10
149.8683940953
 20
138.7446619086
 30
0.0
 11
147.822791258
 21
136.6990590713
 31
0.0
  0
LINE
  5
124
  8
0
  6
CONTINUOUS
 62
     7
 10
201.7099578214
 20
190.5862256348
 30
0.0
 11
200.202671141
 21
189.0789389543
 31
0.0
  0
LINE
  5
125
  8
0
  6
CONTINUOUS
 62
     7
 10
153.8129193185
 20
138.1990590713
 30
0.0
 11
152.5392571928
 21
136.9253969455
 31
0.0
  0
LINE
  5
126
  8
0
  6
CONTINUOUS
 62
     7
 10
201.6902720381
 20
186.0764117909
 30
0.0
 11
200.182982118
 21
184.5691218708
 31
0.0
  0
LINE
  5
127
  8
0
  6
CONTINUOUS
 62
     7
 10
158.3030473791
 20
138.1990590713
 30
0.0
 11
156.8030473791
 21
136.6990590713
 31
0.0
  0
LINE
  5
128
  8
0
  6
CONTINUOUS
 62
     7
 10
201.6705862547
 20
181.5665979469
 30
0.0
 11
200.1632930951
 21
180.0593047873
 31
0.0
  0
LINE
  5
129
  8
0
  6
CONTINUOUS
 62
     7
 10
162.7931754396
 20
138.1990590713
 30
0.0
 11
161.2931754396
 21
136.6990590713
 31
0.0
  0
LINE
  5
12A
  8
0
  6
CONTINUOUS
 62
     7
 10
201.6509004713
 20
177.056784103
 30
0.0
 11
200.1436040721
 21
175.5494877038
 31
0.0
  0
LINE
  5
12B
  8
0
  6
CONTINUOUS
 62
     7
 10
167.2833035002
 20
138.1990590713
 30
0.0
 11
165.7833035002
 21
136.6990590713
 31
0.0
  0
LINE
  5
12C
  8
0
  6
CONTINUOUS
 62
     7
 10
201.631214688
 20
172.5469702591
 30
0.0
 11
200.1239150491
 21
171.0396706203
 31
0.0
  0
LINE
  5
12D
  8
0
  6
CONTINUOUS
 62
     7
 10
171.7734315607
 20
138.1990590713
 30
0.0
 11
170.2734315607
 21
136.6990590713
 31
0.0
  0
LINE
  5
12E
  8
0
  6
CONTINUOUS
 62
     7
 10
201.6115289046
 20
168.0371564152
 30
0.0
 11
200.1042260262
 21
166.5298535368
 31
0.0
  0
LINE
  5
12F
  8
0
  6
CONTINUOUS
 62
     7
 10
176.2635596212
 20
138.1990590713
 30
0.0
 11
174.7635596212
 21
136.6990590713
 31
0.0
  0
LINE
  5
130
  8
0
  6
CONTINUOUS
 62
     7
 10
201.5918431212
 20
163.5273425713
 30
0.0
 11
200.0845370032
 21
162.0200364533
 31
0.0
  0
LINE
  5
131
  8
0
  6
CONTINUOUS
 62
     7
 10
180.7536876818
 20
138.1990590713
 30
0.0
 11
179.2536876818
 21
136.6990590713
 31
0.0
  0
LINE
  5
132
  8
0
  6
CONTINUOUS
 62
     7
 10
201.5721571626
 20
159.0175285521
 30
0.0
 11
200.0648479803
 21
157.5102193698
 31
0.0
  0
LINE
  5
133
  8
0
  6
CONTINUOUS
 62
     7
 10
185.2438157423
 20
138.1990590713
 30
0.0
 11
183.7438157423
 21
136.6990590713
 31
0.0
  0
LINE
  5
134
  8
0
  6
CONTINUOUS
 62
     7
 10
201.5524711694
 20
154.5077144984
 30
0.0
 11
200.0451589573
 21
153.0004022864
 31
0.0
  0
LINE
  5
135
  8
0
  6
CONTINUOUS
 62
     7
 10
189.7339438028
 20
138.1990590713
 30
0.0
 11
188.2339438028
 21
136.6990590713
 31
0.0
  0
LINE
  5
136
  8
0
  6
CONTINUOUS
 62
     7
 10
201.5327851762
 20
149.9979004447
 30
0.0
 11
200.0254698305
 21
148.490585099
 31
0.0
  0
LINE
  5
137
  8
0
  6
CONTINUOUS
 62
     7
 10
194.2240718634
 20
138.1990590713
 30
0.0
 11
192.7240718634
 21
136.6990590713
 31
0.0
  0
LINE
  5
138
  8
0
  6
CONTINUOUS
 62
     7
 10
201.5130991831
 20
145.4880863911
 30
0.0
 11
200.0057804117
 21
143.9807676196
 31
0.0
  0
LINE
  5
139
  8
0
  6
CONTINUOUS
 62
     7
 10
201.2797920319
 20
140.7646511794
 30
0.0
 11
197.4546999082
 21
136.9395590556
 31
0.0
  0
LINE
  5
13A
  8
0
  6
CONTINUOUS
 62
     7
 10
100.867076889
 20
210.9768023368
 30
0.0
 11
99.8244994536
 21
209.9342249014
 31
0.0
  0
LINE
  5
13B
  8
0
  6
CONTINUOUS
 62
     7
 10
213.3326631975
 20
206.6990590713
 30
0.0
 11
212.8178908533
 21
206.1842867272
 31
0.0
  0
LINE
  5
13C
  8
0
  6
CONTINUOUS
 62
     7
 10
214.8579046915
 20
203.7341725048
 30
0.0
 11
212.8178908533
 21
201.6941586666
 31
0.0
  0
LINE
  5
13D
  8
0
  6
CONTINUOUS
 62
     7
 10
214.8774222831
 20
199.2635620359
 30
0.0
 11
213.3832449838
 21
197.7693847366
 31
0.0
  0
LINE
  5
13E
  8
0
  6
CONTINUOUS
 62
     7
 10
214.8969398747
 20
194.7929515669
 30
0.0
 11
213.4027595832
 21
193.2987712755
 31
0.0
  0
LINE
  5
13F
  8
0
  6
CONTINUOUS
 62
     7
 10
214.9164578017
 20
190.3223414334
 30
0.0
 11
213.4222741826
 21
188.8281578143
 31
0.0
  0
LINE
  5
140
  8
0
  6
CONTINUOUS
 62
     7
 10
214.9359757731
 20
185.8517313443
 30
0.0
 11
213.441788782
 21
184.3575443532
 31
0.0
  0
LINE
  5
141
  8
0
  6
CONTINUOUS
 62
     7
 10
214.9554937445
 20
181.3811212551
 30
0.0
 11
213.4613035072
 21
179.8869310178
 31
0.0
  0
LINE
  5
142
  8
0
  6
CONTINUOUS
 62
     7
 10
214.9750117158
 20
176.9105111659
 30
0.0
 11
213.4808183109
 21
175.416317761
 31
0.0
  0
LINE
  5
143
  8
0
  6
CONTINUOUS
 62
     7
 10
214.9945296872
 20
172.4399010767
 30
0.0
 11
213.5003331146
 21
170.9457045041
 31
0.0
  0
LINE
  5
144
  8
0
  6
CONTINUOUS
 62
     7
 10
215.0140476585
 20
167.9692909876
 30
0.0
 11
213.5198479182
 21
166.4750912473
 31
0.0
  0
LINE
  5
145
  8
0
  6
CONTINUOUS
 62
     7
 10
215.0335656299
 20
163.4986808984
 30
0.0
 11
213.5393627219
 21
162.0044779904
 31
0.0
  0
LINE
  5
146
  8
0
  6
CONTINUOUS
 62
     7
 10
215.0530836012
 20
159.0280708092
 30
0.0
 11
213.5588775256
 21
157.5338647336
 31
0.0
  0
LINE
  5
147
  8
0
  6
CONTINUOUS
 62
     7
 10
215.0726015726
 20
154.55746072
 30
0.0
 11
213.5783923293
 21
153.0632514767
 31
0.0
  0
LINE
  5
148
  8
0
  6
CONTINUOUS
 62
     7
 10
215.092119544
 20
150.0868506309
 30
0.0
 11
213.597907133
 21
148.5926382199
 31
0.0
  0
LINE
  5
149
  8
0
  6
CONTINUOUS
 62
     7
 10
215.1116375153
 20
145.6162405417
 30
0.0
 11
213.6174219366
 21
144.122024963
 31
0.0
  0
LINE
  5
14A
  8
0
  6
CONTINUOUS
 62
     7
 10
215.2867164935
 20
141.3011914593
 30
0.0
 11
214.0839525319
 21
140.0984274978
 31
0.0
  0
LINE
  5
14B
  8
0
  6
CONTINUOUS
 62
     7
 10
217.1812568561
 20
138.7056037614
 30
0.0
 11
216.1429960584
 21
137.6673429637
 31
0.0
  0
LINE
  5
14C
  8
0
  6
CONTINUOUS
 62
     7
 10
221.1648402266
 20
138.1990590713
 30
0.0
 11
219.6648402266
 21
136.6990590713
 31
0.0
  0
LINE
  5
14D
  8
0
  6
CONTINUOUS
 62
     7
 10
225.6549682871
 20
138.1990590713
 30
0.0
 11
224.1549682871
 21
136.6990590713
 31
0.0
  0
LINE
  5
14E
  8
0
  6
CONTINUOUS
 62
     7
 10
230.1450963476
 20
138.1990590713
 30
0.0
 11
228.6450963476
 21
136.6990590713
 31
0.0
  0
LINE
  5
14F
  8
0
  6
CONTINUOUS
 62
     7
 10
230.2450963476
 20
138.2990590713
 30
0.0
 11
230.1552955239
 21
138.2092582476
 31
0.0
  0
LINE
  5
150
  8
0
  6
CONTINUOUS
 62
     7
 10
234.6352244082
 20
138.1990590713
 30
0.0
 11
233.1352244082
 21
136.6990590713
 31
0.0
  0
LINE
  5
151
  8
0
  6
CONTINUOUS
 62
     7
 10
239.1253524687
 20
138.1990590713
 30
0.0
 11
237.6253524687
 21
136.6990590713
 31
0.0
  0
LINE
  5
152
  8
0
  6
CONTINUOUS
 62
     7
 10
243.6154805292
 20
138.1990590713
 30
0.0
 11
242.1154805292
 21
136.6990590713
 31
0.0
  0
LINE
  5
153
  8
0
  6
CONTINUOUS
 62
     7
 10
248.1056085898
 20
138.1990590713
 30
0.0
 11
246.6056085898
 21
136.6990590713
 31
0.0
  0
LINE
  5
154
  8
0
  6
CONTINUOUS
 62
     7
 10
314.8704427597
 20
204.9638932413
 30
0.0
 11
314.0685209807
 21
204.1619714622
 31
0.0
  0
LINE
  5
155
  8
0
  6
CONTINUOUS
 62
     7
 10
252.5957366503
 20
138.1990590713
 30
0.0
 11
251.0957366503
 21
136.6990590713
 31
0.0
  0
LINE
  5
156
  8
0
  6
CONTINUOUS
 62
     7
 10
316.1066671784
 20
201.7099895995
 30
0.0
 11
314.0488319477
 21
199.6521543687
 31
0.0
  0
LINE
  5
157
  8
0
  6
CONTINUOUS
 62
     7
 10
257.0858647108
 20
138.1990590713
 30
0.0
 11
255.5858647108
 21
136.6990590713
 31
0.0
  0
LINE
  5
158
  8
0
  6
CONTINUOUS
 62
     7
 10
315.5364251355
 20
196.649619496
 30
0.0
 11
314.0291429146
 21
195.1423372751
 31
0.0
  0
LINE
  5
159
  8
0
  6
CONTINUOUS
 62
     7
 10
261.5759927714
 20
138.1990590713
 30
0.0
 11
260.0759927714
 21
136.6990590713
 31
0.0
  0
LINE
  5
15A
  8
0
  6
CONTINUOUS
 62
     7
 10
315.5167393525
 20
192.1398056524
 30
0.0
 11
314.0094538816
 21
190.6325201816
 31
0.0
  0
LINE
  5
15B
  8
0
  6
CONTINUOUS
 62
     7
 10
266.3729904846
 20
138.5059287241
 30
0.0
 11
265.1157674879
 21
137.2487057274
 31
0.0
  0
LINE
  5
15C
  8
0
  6
CONTINUOUS
 62
     7
 10
315.4970535695
 20
187.6299918089
 30
0.0
 11
313.9897648486
 21
186.1227030881
 31
0.0
  0
LINE
  5
15D
  8
0
  6
CONTINUOUS
 62
     7
 10
270.5562488924
 20
138.1990590713
 30
0.0
 11
269.0562488924
 21
136.6990590713
 31
0.0
  0
LINE
  5
15E
  8
0
  6
CONTINUOUS
 62
     7
 10
315.4773677865
 20
183.1201779654
 30
0.0
 11
313.9700758156
 21
181.6128859945
 31
0.0
  0
LINE
  5
15F
  8
0
  6
CONTINUOUS
 62
     7
 10
275.046376953
 20
138.1990590713
 30
0.0
 11
273.546376953
 21
136.6990590713
 31
0.0
  0
LINE
  5
160
  8
0
  6
CONTINUOUS
 62
     7
 10
315.4576820036
 20
178.6103641219
 30
0.0
 11
313.9503867826
 21
177.103068901
 31
0.0
  0
LINE
  5
161
  8
0
  6
CONTINUOUS
 62
     7
 10
279.5365050135
 20
138.1990590713
 30
0.0
 11
278.0365050135
 21
136.6990590713
 31
0.0
  0
LINE
  5
162
  8
0
  6
CONTINUOUS
 62
     7
 10
315.4379962206
 20
174.1005502784
 30
0.0
 11
313.9306977496
 21
172.5932518074
 31
0.0
  0
LINE
  5
163
  8
0
  6
CONTINUOUS
 62
     7
 10
284.0266330741
 20
138.1990590713
 30
0.0
 11
282.5266330741
 21
136.6990590713
 31
0.0
  0
LINE
  5
164
  8
0
  6
CONTINUOUS
 62
     7
 10
315.4183104376
 20
169.5907364349
 30
0.0
 11
313.9110087166
 21
168.0834347139
 31
0.0
  0
LINE
  5
165
  8
0
  6
CONTINUOUS
 62
     7
 10
288.5167611346
 20
138.1990590713
 30
0.0
 11
287.0167611346
 21
136.6990590713
 31
0.0
  0
LINE
  5
166
  8
0
  6
CONTINUOUS
 62
     7
 10
315.3986246546
 20
165.0809225914
 30
0.0
 11
313.8913196836
 21
163.5736176204
 31
0.0
  0
LINE
  5
167
  8
0
  6
CONTINUOUS
 62
     7
 10
293.1068891951
 20
138.2990590713
 30
0.0
 11
291.5068891951
 21
136.6990590713
 31
0.0
  0
LINE
  5
168
  8
0
  6
CONTINUOUS
 62
     7
 10
315.3789387636
 20
160.5711086398
 30
0.0
 11
313.8716306506
 21
159.0638005268
 31
0.0
  0
LINE
  5
169
  8
0
  6
CONTINUOUS
 62
     7
 10
297.4970172557
 20
138.1990590713
 30
0.0
 11
295.9970172557
 21
136.6990590713
 31
0.0
  0
LINE
  5
16A
  8
0
  6
CONTINUOUS
 62
     7
 10
315.3592527708
 20
156.0612945865
 30
0.0
 11
313.8519416176
 21
154.5539834333
 31
0.0
  0
LINE
  5
16B
  8
0
  6
CONTINUOUS
 62
     7
 10
301.9871453162
 20
138.1990590713
 30
0.0
 11
300.4871453162
 21
136.6990590713
 31
0.0
  0
LINE
  5
16C
  8
0
  6
CONTINUOUS
 62
     7
 10
315.3395667781
 20
151.5514805332
 30
0.0
 11
313.8322525846
 21
150.0441663397
 31
0.0
  0
LINE
  5
16D
  8
0
  6
CONTINUOUS
 62
     7
 10
306.4772733767
 20
138.1990590713
 30
0.0
 11
304.9772733767
 21
136.6990590713
 31
0.0
  0
LINE
  5
16E
  8
0
  6
CONTINUOUS
 62
     7
 10
315.3198807853
 20
147.0416664799
 30
0.0
 11
313.8125631943
 21
145.5343488889
 31
0.0
  0
LINE
  5
16F
  8
0
  6
CONTINUOUS
 62
     7
 10
311.3338281465
 20
138.5654857805
 30
0.0
 11
309.4674014373
 21
136.6990590713
 31
0.0
  0
LINE
  5
170
  8
0
  6
CONTINUOUS
 62
     7
 10
315.3001947926
 20
142.5318524266
 30
0.0
 11
313.5215428432
 21
140.7532004772
 31
0.0
  0
LINE
  5
171
  8
0
  6
CONTINUOUS
 62
     7
 10
316.1066671784
 20
210.6902457205
 30
0.0
 11
315.3506463593
 21
209.9342249014
 31
0.0
  0
LINE
  5
172
  8
0
  6
CONTINUOUS
 62
     7
 10
214.1007377831
 20
211.9572617175
 30
0.0
 11
212.8178908533
 21
210.6744147877
 31
0.0
  0
ARC
  5
173
  8
0
  6
CONTINUOUS
 62
     7
 10
325.3145134002
 20
207.3109653644
 30
0.0
 40
9.502272338480962
 50
184.3988904531
 51
194.3001259239
  0
ARC
  5
174
  8
0
  6
CONTINUOUS
 62
     7
 10
325.2271161235
 20
207.6898796247
 30
0.0
 40
9.392532921456548
 50
166.1754261125
 51
171.2074465181
  0
LINE
  5
175
  8
0
  6
CONTINUOUS
 62
     7
 10
316.1066671784
 20
204.9638932413
 30
0.0
 11
314.0720220238
 21
204.9638932413
 31
0.0
  0
POLYLINE
  5
176
  8
0
  6
CONTINUOUS
 62
     7
 66
     1
 10
0.0
 20
0.0
 30
0.0
 70
   128
  0
VERTEX
  5
36E
  8
0
  6
CONTINUOUS
 62
     7
 10
313.9975145935
 20
205.2265841007
 30
0.0
  0
VERTEX
  5
36F
  8
0
  6
CONTINUOUS
 62
     7
 10
314.0697879677
 20
204.9713919002
 30
0.0
  0
VERTEX
  5
370
  8
0
  6
CONTINUOUS
 62
     7
 10
314.0720220238
 20
204.9638932413
 30
0.0
  0
SEQEND
  5
3D5
  8
0
  6
CONTINUOUS
 62
     7
  0
LINE
  5
177
  8
0
  6
CONTINUOUS
 62
     7
 10
314.0937211876
 20
209.9342249014
 30
0.0
 11
316.1066671784
 21
209.9342249014
 31
0.0
  0
LINE
  5
178
  8
0
  6
CONTINUOUS
 62
     7
 10
314.0970603304
 20
210.6990781099
 30
0.0
 11
314.0577685804
 21
210.6990781099
 31
0.0
  0
LINE
  5
179
  8
0
  6
CONTINUOUS
 62
     7
 10
314.0937211876
 20
209.9342249014
 30
0.0
 11
314.0970603304
 21
210.6990781099
 31
0.0
  0
POLYLINE
  5
17A
  8
0
  6
CONTINUOUS
 62
     7
 66
     1
 10
0.0
 20
0.0
 30
0.0
 70
   128
  0
VERTEX
  5
371
  8
0
  6
CONTINUOUS
 62
     7
 10
313.7979254485
 20
142.1816058342
 30
0.0
  0
VERTEX
  5
372
  8
0
  6
CONTINUOUS
 62
     7
 10
313.8308079433
 20
149.7132680179
 30
0.0
  0
VERTEX
  5
373
  8
0
  6
CONTINUOUS
 62
     7
 10
314.0720220238
 20
204.9638932413
 30
0.0
  0
SEQEND
  5
3D6
  8
0
  6
CONTINUOUS
 62
     7
  0
LINE
  5
17B
  8
0
  6
CONTINUOUS
 62
     7
 10
235.1161251697
 20
138.2990590713
 30
0.0
 11
235.1161251697
 21
138.1990590713
 31
0.0
  0
LINE
  5
17C
  8
0
  6
CONTINUOUS
 62
     7
 10
235.1979039391
 20
138.1990590713
 30
0.0
 11
235.1979039436
 21
138.2990590713
 31
0.0
  0
LINE
  5
17D
  8
0
  6
CONTINUOUS
 62
     7
 10
235.1979039436
 20
138.2990590713
 30
0.0
 11
235.1161251697
 21
138.2990590713
 31
0.0
  0
ARC
  5
17E
  8
0
  6
CONTINUOUS
 62
     7
 10
309.796383283
 20
142.2006452866
 30
0.0
 40
4.001587460352275
 50
269.9548012228
 51
359.7273870952
  0
ARC
  5
17F
  8
0
  6
CONTINUOUS
 62
     7
 10
315.1069689938
 20
201.0407959047
 30
0.0
 40
0.9996981846438272
 50
333.226111471
 51
359.9997829894
  0
LINE
  5
180
  8
0
  6
CONTINUOUS
 62
     7
 10
315.6558784156
 20
199.909441839
 30
0.0
 11
315.9994907404
 21
200.5904611489
 31
0.0
  0
POLYLINE
  5
181
  8
0
  6
CONTINUOUS
 62
     7
 66
     1
 10
0.0
 20
0.0
 30
0.0
 70
   128
  0
VERTEX
  5
374
  8
0
  6
CONTINUOUS
 62
     7
 10
315.5487078891
 20
199.463474179
 30
0.0
  0
VERTEX
  5
375
  8
0
  6
CONTINUOUS
 62
     7
 10
315.5778131688
 20
199.698609793
 30
0.0
  0
VERTEX
  5
376
  8
0
  6
CONTINUOUS
 62
     7
 10
315.6558784156
 20
199.909441839
 30
0.0
  0
SEQEND
  5
3D7
  8
0
  6
CONTINUOUS
 62
     7
  0
POLYLINE
  5
182
  8
0
  6
CONTINUOUS
 62
     7
 66
     1
 10
0.0
 20
0.0
 30
0.0
 70
   128
  0
VERTEX
  5
377
  8
0
  6
CONTINUOUS
 62
     7
 10
315.2986373456
 20
142.1750608703
 30
0.0
  0
VERTEX
  5
378
  8
0
  6
CONTINUOUS
 62
     7
 10
315.3890824647
 20
162.8949033646
 30
0.0
  0
VERTEX
  5
379
  8
0
  6
CONTINUOUS
 62
     7
 10
315.5487078891
 20
199.463474179
 30
0.0
  0
SEQEND
  5
3D8
  8
0
  6
CONTINUOUS
 62
     7
  0
ARC
  5
183
  8
0
  6
CONTINUOUS
 62
     7
 10
309.7965433301
 20
142.2012142361
 30
0.0
 40
5.502156173158541
 50
269.965312333
 51
359.7276552899
  0
LINE
  5
184
  8
0
  6
CONTINUOUS
 62
     7
 10
266.8215266084
 20
136.6990590713
 30
0.0
 11
309.793212248
 21
136.6990590713
 31
0.0
  0
ARC
  5
185
  8
0
  6
CONTINUOUS
 62
     7
 10
264.4622790159
 20
132.2990590713
 30
0.0
 40
4.992599443450143
 50
61.8001184094
 51
118.1998815906
  0
LINE
  5
186
  8
0
  6
CONTINUOUS
 62
     7
 10
219.1313457838
 20
136.6990590713
 30
0.0
 11
262.1030314234
 21
136.6990590713
 31
0.0
  0
ARC
  5
187
  8
0
  6
CONTINUOUS
 62
     7
 10
219.1278484348
 20
142.201047076
 30
0.0
 40
5.50198911619122
 50
180.2706122126
 51
270.0364201646
  0
POLYLINE
  5
188
  8
0
  6
CONTINUOUS
 62
     7
 66
     1
 10
0.0
 20
0.0
 30
0.0
 70
   128
  0
VERTEX
  5
37A
  8
0
  6
CONTINUOUS
 62
     7
 10
213.3758501426
 20
199.463474179
 30
0.0
  0
VERTEX
  5
37B
  8
0
  6
CONTINUOUS
 62
     7
 10
213.4492849774
 20
182.6402356066
 30
0.0
  0
VERTEX
  5
37C
  8
0
  6
CONTINUOUS
 62
     7
 10
213.6259206861
 20
142.1750608703
 30
0.0
  0
SEQEND
  5
3D9
  8
0
  6
CONTINUOUS
 62
     7
  0
ARC
  5
189
  8
0
  6
CONTINUOUS
 62
     7
 10
212.3761600675
 20
199.4590994808
 30
0.0
 40
0.9996996470408078
 50
0.2507278476
 51
26.7743342823
  0
LINE
  5
18A
  8
0
  6
CONTINUOUS
 62
     7
 10
212.9250672913
 20
200.5904611489
 30
0.0
 11
213.2686796161
 21
199.909441839
 31
0.0
  0
POLYLINE
  5
18B
  8
0
  6
CONTINUOUS
 62
     7
 66
     1
 10
0.0
 20
0.0
 30
0.0
 70
   128
  0
VERTEX
  5
37D
  8
0
  6
CONTINUOUS
 62
     7
 10
212.9250672913
 20
200.5904611489
 30
0.0
  0
VERTEX
  5
37E
  8
0
  6
CONTINUOUS
 62
     7
 10
212.8377827908
 20
200.8423622104
 30
0.0
  0
VERTEX
  5
37F
  8
0
  6
CONTINUOUS
 62
     7
 10
212.8178908533
 20
201.0407921182
 30
0.0
  0
SEQEND
  5
3DA
  8
0
  6
CONTINUOUS
 62
     7
  0
LINE
  5
18C
  8
0
  6
CONTINUOUS
 62
     7
 10
212.8178908533
 20
201.0407921182
 30
0.0
 11
212.8178908533
 21
206.6990590713
 31
0.0
  0
LINE
  5
18D
  8
0
  6
CONTINUOUS
 62
     7
 10
214.8449607221
 20
206.6990590713
 30
0.0
 11
212.8178908533
 21
206.6990590713
 31
0.0
  0
POLYLINE
  5
18E
  8
0
  6
CONTINUOUS
 62
     7
 66
     1
 10
0.0
 20
0.0
 30
0.0
 70
   128
  0
VERTEX
  5
380
  8
0
  6
CONTINUOUS
 62
     7
 10
214.8449607221
 20
206.6990590713
 30
0.0
  0
VERTEX
  5
381
  8
0
  6
CONTINUOUS
 62
     7
 10
214.8992158891
 20
194.2716180851
 30
0.0
  0
VERTEX
  5
382
  8
0
  6
CONTINUOUS
 62
     7
 10
215.1266325832
 20
142.1816058342
 30
0.0
  0
SEQEND
  5
3DB
  8
0
  6
CONTINUOUS
 62
     7
  0
ARC
  5
18F
  8
0
  6
CONTINUOUS
 62
     7
 10
219.128250837
 20
142.2007217981
 30
0.0
 40
4.001663912572737
 50
180.2737032003
 51
270.0441084817
  0
LINE
  5
190
  8
0
  6
CONTINUOUS
 62
     7
 10
230.1552955239
 20
138.1990590713
 30
0.0
 11
230.1552955239
 21
138.2990590713
 31
0.0
  0
LINE
  5
191
  8
0
  6
CONTINUOUS
 62
     7
 10
230.42361715
 20
138.2990590713
 30
0.0
 11
230.1552955239
 21
138.2990590713
 31
0.0
  0
LINE
  5
192
  8
0
  6
CONTINUOUS
 62
     7
 10
230.42361715
 20
138.2990590713
 30
0.0
 11
230.42361715
 21
138.1990590713
 31
0.0
  0
LINE
  5
193
  8
0
  6
CONTINUOUS
 62
     7
 10
232.0007405543
 20
138.1990590713
 30
0.0
 11
232.0007405543
 21
138.2990590713
 31
0.0
  0
LINE
  5
194
  8
0
  6
CONTINUOUS
 62
     7
 10
232.2315097851
 20
138.2990590713
 30
0.0
 11
232.0007405543
 21
138.2990590713
 31
0.0
  0
LINE
  5
195
  8
0
  6
CONTINUOUS
 62
     7
 10
232.2315097851
 20
138.2990590713
 30
0.0
 11
232.2315097851
 21
138.1990590713
 31
0.0
  0
LINE
  5
196
  8
0
  6
CONTINUOUS
 62
     7
 10
233.3095224556
 20
138.1990590713
 30
0.0
 11
233.3095224556
 21
138.2990590713
 31
0.0
  0
LINE
  5
197
  8
0
  6
CONTINUOUS
 62
     7
 10
233.3095224556
 20
138.2990590713
 30
0.0
 11
233.5434995559
 21
138.2990590713
 31
0.0
  0
LINE
  5
198
  8
0
  6
CONTINUOUS
 62
     7
 10
233.5434995559
 20
138.2990590713
 30
0.0
 11
233.5434995557
 21
138.1990590713
 31
0.0
  0
LINE
  5
199
  8
0
  6
CONTINUOUS
 62
     7
 10
236.586021395
 20
138.2990590713
 30
0.0
 11
236.5860213908
 21
138.1990590713
 31
0.0
  0
ARC
  5
19A
  8
0
  6
CONTINUOUS
 62
     7
 10
264.4622790159
 20
132.2990590713
 30
0.0
 40
6.494308985776593
 50
65.29719589
 51
114.70280411
  0
LINE
  5
19B
  8
0
  6
CONTINUOUS
 62
     7
 10
289.6523322149
 20
138.1990590713
 30
0.0
 11
289.6523322149
 21
138.2990590713
 31
0.0
  0
LINE
  5
19C
  8
0
  6
CONTINUOUS
 62
     7
 10
289.6523322149
 20
138.2990590713
 30
0.0
 11
290.0170680135
 21
138.2990590713
 31
0.0
  0
LINE
  5
19D
  8
0
  6
CONTINUOUS
 62
     7
 10
290.0170680135
 20
138.2990590713
 30
0.0
 11
290.0170680135
 21
138.1990590713
 31
0.0
  0
LINE
  5
19E
  8
0
  6
CONTINUOUS
 62
     7
 10
290.5392020928
 20
138.1990590713
 30
0.0
 11
290.5392020928
 21
138.2990590713
 31
0.0
  0
LINE
  5
19F
  8
0
  6
CONTINUOUS
 62
     7
 10
290.808432862
 20
138.2990590713
 30
0.0
 11
290.5392020928
 21
138.2990590713
 31
0.0
  0
LINE
  5
1A0
  8
0
  6
CONTINUOUS
 62
     7
 10
290.808432862
 20
138.2990590713
 30
0.0
 11
290.808432862
 21
138.1990590713
 31
0.0
  0
LINE
  5
1A1
  8
0
  6
CONTINUOUS
 62
     7
 10
291.2909092747
 20
138.1990590713
 30
0.0
 11
291.2909092747
 21
138.2990590713
 31
0.0
  0
LINE
  5
1A2
  8
0
  6
CONTINUOUS
 62
     7
 10
291.5235082696
 20
138.2990590713
 30
0.0
 11
291.2909092747
 21
138.2990590713
 31
0.0
  0
LINE
  5
1A3
  8
0
  6
CONTINUOUS
 62
     7
 10
291.5235082696
 20
138.2990590713
 30
0.0
 11
291.5235082696
 21
138.1990590713
 31
0.0
  0
LINE
  5
1A4
  8
0
  6
CONTINUOUS
 62
     7
 10
291.5235082696
 20
138.1990590713
 30
0.0
 11
292.1335730689
 21
138.1990590713
 31
0.0
  0
LINE
  5
1A5
  8
0
  6
CONTINUOUS
 62
     7
 10
292.1335730689
 20
138.1990590713
 30
0.0
 11
292.1335730689
 21
138.2990590713
 31
0.0
  0
LINE
  5
1A6
  8
0
  6
CONTINUOUS
 62
     7
 10
292.3892746206
 20
138.2990590713
 30
0.0
 11
292.1335730689
 21
138.2990590713
 31
0.0
  0
LINE
  5
1A7
  8
0
  6
CONTINUOUS
 62
     7
 10
292.3892746206
 20
138.2990590713
 30
0.0
 11
292.3892746206
 21
138.1990590713
 31
0.0
  0
LINE
  5
1A8
  8
0
  6
CONTINUOUS
 62
     7
 10
292.885355939
 20
138.1990590713
 30
0.0
 11
292.885355939
 21
138.2990590713
 31
0.0
  0
LINE
  5
1A9
  8
0
  6
CONTINUOUS
 62
     7
 10
293.1545867082
 20
138.2990590713
 30
0.0
 11
292.885355939
 21
138.2990590713
 31
0.0
  0
LINE
  5
1AA
  8
0
  6
CONTINUOUS
 62
     7
 10
293.1545867082
 20
138.2990590713
 30
0.0
 11
293.1545867082
 21
138.1990590713
 31
0.0
  0
LINE
  5
1AB
  8
0
  6
CONTINUOUS
 62
     7
 10
293.6946690914
 20
138.1990590713
 30
0.0
 11
293.6946690914
 21
138.2990590713
 31
0.0
  0
LINE
  5
1AC
  8
0
  6
CONTINUOUS
 62
     7
 10
293.6946690914
 20
138.2990590713
 30
0.0
 11
293.9640943001
 21
138.2990590713
 31
0.0
  0
LINE
  5
1AD
  8
0
  6
CONTINUOUS
 62
     7
 10
293.9640943001
 20
138.2990590713
 30
0.0
 11
293.9640943002
 21
138.1990590713
 31
0.0
  0
LINE
  5
1AE
  8
0
  6
CONTINUOUS
 62
     7
 10
293.9640943002
 20
138.1990590713
 30
0.0
 11
295.268178937
 21
138.1990590713
 31
0.0
  0
LINE
  5
1AF
  8
0
  6
CONTINUOUS
 62
     7
 10
295.268178937
 20
138.1990590713
 30
0.0
 11
295.268178937
 21
138.2990590713
 31
0.0
  0
LINE
  5
1B0
  8
0
  6
CONTINUOUS
 62
     7
 10
295.268178937
 20
138.2990590713
 30
0.0
 11
295.5375806471
 21
138.2990590713
 31
0.0
  0
LINE
  5
1B1
  8
0
  6
CONTINUOUS
 62
     7
 10
295.5375806471
 20
138.2990590713
 30
0.0
 11
295.5375806471
 21
138.1990590713
 31
0.0
  0
LINE
  5
1B2
  8
0
  6
CONTINUOUS
 62
     7
 10
297.0776636313
 20
138.1990590713
 30
0.0
 11
297.0776636313
 21
138.2990590713
 31
0.0
  0
LINE
  5
1B3
  8
0
  6
CONTINUOUS
 62
     7
 10
297.0776636313
 20
138.2990590713
 30
0.0
 11
297.3468944005
 21
138.2990590713
 31
0.0
  0
LINE
  5
1B4
  8
0
  6
CONTINUOUS
 62
     7
 10
297.3468944005
 20
138.2990590713
 30
0.0
 11
297.3468944005
 21
138.1990590713
 31
0.0
  0
LINE
  5
1B5
  8
0
  6
CONTINUOUS
 62
     7
 10
297.8305669413
 20
138.1990590713
 30
0.0
 11
297.8305669413
 21
138.2990590713
 31
0.0
  0
LINE
  5
1B6
  8
0
  6
CONTINUOUS
 62
     7
 10
298.1944034317
 20
138.2990590713
 30
0.0
 11
297.8305669413
 21
138.2990590713
 31
0.0
  0
LINE
  5
1B7
  8
0
  6
CONTINUOUS
 62
     7
 10
298.1944034317
 20
138.2990590713
 30
0.0
 11
298.1944034317
 21
138.1990590713
 31
0.0
  0
LINE
  5
1B8
  8
0
  6
CONTINUOUS
 62
     7
 10
236.2968139162
 20
138.1990590713
 30
0.0
 11
236.2968139163
 21
138.2990590713
 31
0.0
  0
LINE
  5
1B9
  8
0
  6
CONTINUOUS
 62
     7
 10
235.4739861095
 20
138.2990590713
 30
0.0
 11
235.47398611
 21
138.1990590713
 31
0.0
  0
LINE
  5
1BA
  8
0
  6
CONTINUOUS
 62
     7
 10
235.47398611
 20
138.1990590713
 30
0.0
 11
236.2968139162
 21
138.1990590713
 31
0.0
  0
LINE
  5
1BB
  8
0
  6
CONTINUOUS
 62
     7
 10
236.2968139163
 20
138.2990590713
 30
0.0
 11
236.586021395
 21
138.2990590713
 31
0.0
  0
LINE
  5
1BC
  8
0
  6
CONTINUOUS
 62
     7
 10
235.1979039436
 20
138.2990590713
 30
0.0
 11
235.4739861095
 21
138.2990590713
 31
0.0
  0
LINE
  5
1BD
  8
0
  6
CONTINUOUS
 62
     7
 10
233.7411447106
 20
138.1990590713
 30
0.0
 11
233.7411446997
 21
138.2990590713
 31
0.0
  0
LINE
  5
1BE
  8
0
  6
CONTINUOUS
 62
     7
 10
233.7411446997
 20
138.2990590713
 30
0.0
 11
234.4470109414
 21
138.2990590713
 31
0.0
  0
LINE
  5
1BF
  8
0
  6
CONTINUOUS
 62
     7
 10
234.4470109414
 20
138.2990590713
 30
0.0
 11
234.4470109557
 21
138.1990590713
 31
0.0
  0
LINE
  5
1C0
  8
0
  6
CONTINUOUS
 62
     7
 10
298.1944034317
 20
138.1990590713
 30
0.0
 11
309.7932265612
 21
138.1990590713
 31
0.0
  0
LINE
  5
1C1
  8
0
  6
CONTINUOUS
 62
     7
 10
297.3468944005
 20
138.1990590713
 30
0.0
 11
297.8305669413
 21
138.1990590713
 31
0.0
  0
LINE
  5
1C2
  8
0
  6
CONTINUOUS
 62
     7
 10
295.5375806471
 20
138.1990590713
 30
0.0
 11
297.0776636313
 21
138.1990590713
 31
0.0
  0
LINE
  5
1C3
  8
0
  6
CONTINUOUS
 62
     7
 10
293.1545867082
 20
138.1990590713
 30
0.0
 11
293.6946690914
 21
138.1990590713
 31
0.0
  0
LINE
  5
1C4
  8
0
  6
CONTINUOUS
 62
     7
 10
292.3892746206
 20
138.1990590713
 30
0.0
 11
292.885355939
 21
138.1990590713
 31
0.0
  0
LINE
  5
1C5
  8
0
  6
CONTINUOUS
 62
     7
 10
290.808432862
 20
138.1990590713
 30
0.0
 11
291.2909092747
 21
138.1990590713
 31
0.0
  0
LINE
  5
1C6
  8
0
  6
CONTINUOUS
 62
     7
 10
290.0170680135
 20
138.1990590713
 30
0.0
 11
290.5392020928
 21
138.1990590713
 31
0.0
  0
LINE
  5
1C7
  8
0
  6
CONTINUOUS
 62
     7
 10
267.176325663
 20
138.1990590713
 30
0.0
 11
289.6523322149
 21
138.1990590713
 31
0.0
  0
LINE
  5
1C8
  8
0
  6
CONTINUOUS
 62
     7
 10
236.5860213908
 20
138.1990590713
 30
0.0
 11
261.7482323688
 21
138.1990590713
 31
0.0
  0
LINE
  5
1C9
  8
0
  6
CONTINUOUS
 62
     7
 10
234.4470109557
 20
138.1990590713
 30
0.0
 11
235.1979039391
 21
138.1990590713
 31
0.0
  0
LINE
  5
1CA
  8
0
  6
CONTINUOUS
 62
     7
 10
233.5434995557
 20
138.1990590713
 30
0.0
 11
233.7411447106
 21
138.1990590713
 31
0.0
  0
LINE
  5
1CB
  8
0
  6
CONTINUOUS
 62
     7
 10
232.2315097851
 20
138.1990590713
 30
0.0
 11
233.3095224556
 21
138.1990590713
 31
0.0
  0
LINE
  5
1CC
  8
0
  6
CONTINUOUS
 62
     7
 10
230.42361715
 20
138.1990590713
 30
0.0
 11
232.0007405543
 21
138.1990590713
 31
0.0
  0
LINE
  5
1CD
  8
0
  6
CONTINUOUS
 62
     7
 10
219.1313314706
 20
138.1990590713
 30
0.0
 11
230.1552955239
 21
138.1990590713
 31
0.0
  0
LINE
  5
1CE
  8
0
  6
CONTINUOUS
 62
     7
 10
316.1066671784
 20
204.9638932413
 30
0.0
 11
316.1066671784
 21
201.0407921182
 31
0.0
  0
LINE
  5
1CF
  8
0
  6
CONTINUOUS
 62
     7
 10
233.6925403509
 20
138.2990590713
 30
0.0
 11
233.5434995559
 21
138.2990590713
 31
0.0
  0
LINE
  5
1D0
  8
0
  6
CONTINUOUS
 62
     7
 10
295.268178937
 20
138.2990590713
 30
0.0
 11
294.6161251697
 21
138.2990590713
 31
0.0
  0
LINE
  5
1D1
  8
0
  6
CONTINUOUS
 62
     7
 10
294.6161251697
 20
138.2990590713
 30
0.0
 11
293.9640943001
 21
138.2990590713
 31
0.0
  0
LINE
  5
1D2
  8
0
  6
CONTINUOUS
 62
     7
 10
236.6545867082
 20
138.2990590713
 30
0.0
 11
236.6545867082
 21
138.1990590713
 31
0.0
  0
LINE
  5
1D3
  8
0
  6
CONTINUOUS
 62
     7
 10
236.6545867082
 20
138.2990590713
 30
0.0
 11
236.586021395
 21
138.2990590713
 31
0.0
  0
LINE
  5
1D4
  8
0
  6
CONTINUOUS
 62
     7
 10
297.6930482466
 20
138.2990590713
 30
0.0
 11
297.6930482466
 21
138.1990590713
 31
0.0
  0
LINE
  5
1D5
  8
0
  6
CONTINUOUS
 62
     7
 10
297.8305669413
 20
138.2990590713
 30
0.0
 11
297.6930482466
 21
138.2990590713
 31
0.0
  0
LINE
  5
1D6
  8
0
  6
CONTINUOUS
 62
     7
 10
314.201258776
 20
212.6990590713
 30
0.0
 11
314.0577685804
 21
212.6637278132
 31
0.0
  0
LINE
  5
1D7
  8
0
  6
CONTINUOUS
 62
     7
 10
314.201258776
 20
212.6990590713
 30
0.0
 11
315.2523018956
 21
212.6990590713
 31
0.0
  0
LINE
  5
1D8
  8
0
  6
CONTINUOUS
 62
     7
 10
314.0970603304
 20
210.6990781099
 30
0.0
 11
315.2523018956
 21
212.6990590713
 31
0.0
  0
LINE
  5
1D9
  8
0
  6
CONTINUOUS
 62
     7
 10
291.830668439
 20
138.2990590713
 30
0.0
 11
291.830668439
 21
138.1990590713
 31
0.0
  0
LINE
  5
1DA
  8
0
  6
CONTINUOUS
 62
     7
 10
292.1335730689
 20
138.2990590713
 30
0.0
 11
291.830668439
 21
138.2990590713
 31
0.0
  0
LINE
  5
1DB
  8
0
  6
CONTINUOUS
 62
     7
 10
266.8215266084
 20
136.6990590713
 30
0.0
 11
262.1030314234
 21
136.6990590713
 31
0.0
  0
LINE
  5
1DC
  8
0
  6
CONTINUOUS
 62
     7
 10
212.8178908533
 20
212.6990590713
 30
0.0
 11
213.6722561362
 21
212.6990590713
 31
0.0
  0
LINE
  5
1DD
  8
0
  6
CONTINUOUS
 62
     7
 10
213.6722561362
 20
212.6990590713
 30
0.0
 11
214.8274977014
 21
210.6990781099
 31
0.0
  0
LINE
  5
1DE
  8
0
  6
CONTINUOUS
 62
     7
 10
214.8274977014
 20
210.6990781099
 30
0.0
 11
214.8318635151
 21
209.6990590713
 31
0.0
  0
LINE
  5
1DF
  8
0
  6
CONTINUOUS
 62
     7
 10
212.8178908533
 20
209.6990590713
 30
0.0
 11
214.8318635151
 21
209.6990590713
 31
0.0
  0
LINE
  5
1E0
  8
0
  6
CONTINUOUS
 62
     7
 10
212.8178908533
 20
209.6990590713
 30
0.0
 11
212.8178908533
 21
212.6990590713
 31
0.0
  0
LINE
  5
1E1
  8
0
  6
CONTINUOUS
 62
     7
 10
315.2523018956
 20
212.6990590713
 30
0.0
 11
316.1066671784
 21
212.6990590713
 31
0.0
  0
LINE
  5
1E2
  8
0
  6
CONTINUOUS
 62
     7
 10
316.1066671784
 20
212.6990590713
 30
0.0
 11
316.1066671784
 21
209.9342249014
 31
0.0
  0
LINE
  5
1E3
  8
0
  6
CONTINUOUS
 62
     7
 10
230.854105939
 20
138.2990590713
 30
0.0
 11
230.854105939
 21
138.1990590713
 31
0.0
  0
LINE
  5
1E4
  8
0
  6
CONTINUOUS
 62
     7
 10
230.854105939
 20
138.2990590713
 30
0.0
 11
230.42361715
 21
138.2990590713
 31
0.0
  0
LINE
  5
1E5
  8
0
  6
CONTINUOUS
 62
     7
 10
214.8667894513
 20
210.6990781099
 30
0.0
 11
214.8274977014
 21
210.6990781099
 31
0.0
  0
LINE
  5
1E6
  8
0
  6
CONTINUOUS
 62
     7
 10
213.6722561362
 20
212.6990590713
 30
0.0
 11
214.8667894513
 21
212.6990590713
 31
0.0
  0
LINE
  5
1E7
  8
0
  6
CONTINUOUS
 62
     7
 10
290.1545867082
 20
138.2990590713
 30
0.0
 11
290.1545867082
 21
138.1990590713
 31
0.0
  0
LINE
  5
1E8
  8
0
  6
CONTINUOUS
 62
     7
 10
290.1545867082
 20
138.2990590713
 30
0.0
 11
290.0170680135
 21
138.2990590713
 31
0.0
  0
LINE
  5
1E9
  8
0
  6
CONTINUOUS
 62
     7
 10
214.8449607221
 20
206.6990590713
 30
0.0
 11
214.8667894513
 21
206.6990590713
 31
0.0
  0
LINE
  5
1EA
  8
0
  6
CONTINUOUS
 62
     7
 10
291.8222549774
 20
138.2990590713
 30
0.0
 11
291.8222549774
 21
138.1990590713
 31
0.0
  0
LINE
  5
1EB
  8
0
  6
CONTINUOUS
 62
     7
 10
291.8222549774
 20
138.2990590713
 30
0.0
 11
291.5235082696
 21
138.2990590713
 31
0.0
  0
LINE
  5
1EC
  8
0
  6
CONTINUOUS
 62
     7
 10
299.3985770928
 20
138.2990590713
 30
0.0
 11
299.3985770928
 21
138.1990590713
 31
0.0
  0
LINE
  5
1ED
  8
0
  6
CONTINUOUS
 62
     7
 10
299.3985770928
 20
138.2990590713
 30
0.0
 11
298.1944034317
 21
138.2990590713
 31
0.0
  0
LINE
  5
1EE
  8
0
  6
CONTINUOUS
 62
     7
 10
288.449057862
 20
138.2990590713
 30
0.0
 11
288.449057862
 21
138.1990590713
 31
0.0
  0
LINE
  5
1EF
  8
0
  6
CONTINUOUS
 62
     7
 10
289.6523322149
 20
138.2990590713
 30
0.0
 11
288.449057862
 21
138.2990590713
 31
0.0
  0
LINE
  5
1F0
  8
0
  6
CONTINUOUS
 62
     7
 10
235.885355939
 20
138.2990590713
 30
0.0
 11
235.885355939
 21
138.1990590713
 31
0.0
  0
LINE
  5
1F1
  8
0
  6
CONTINUOUS
 62
     7
 10
235.885355939
 20
138.2990590713
 30
0.0
 11
235.4739861095
 21
138.2990590713
 31
0.0
  0
LINE
  5
1F2
  8
0
  6
CONTINUOUS
 62
     7
 10
236.2968139163
 20
138.2990590713
 30
0.0
 11
235.885355939
 21
138.2990590713
 31
0.0
  0
LINE
  5
1F3
  8
0
  6
CONTINUOUS
 62
     7
 10
234.4622790159
 20
138.2990590713
 30
0.0
 11
234.4622790159
 21
138.1990590713
 31
0.0
  0
LINE
  5
1F4
  8
0
  6
CONTINUOUS
 62
     7
 10
234.7315097851
 20
138.2990590713
 30
0.0
 11
234.7315097851
 21
138.1990590713
 31
0.0
  0
LINE
  5
1F5
  8
0
  6
CONTINUOUS
 62
     7
 10
234.7315097851
 20
138.2990590713
 30
0.0
 11
234.4622790159
 21
138.2990590713
 31
0.0
  0
LINE
  5
1F6
  8
0
  6
CONTINUOUS
 62
     7
 10
291.830668439
 20
138.2990590713
 30
0.0
 11
291.8222549774
 21
138.2990590713
 31
0.0
  0
ARC
  5
1F7
  8
0
  6
CONTINUOUS
 62
     7
 10
212.761545203
 20
207.3935385158
 30
0.0
 40
0.8567294442798254
 50
305.8437429911
 51
5.9950080799
  0
ARC
  5
1F8
  8
0
  6
CONTINUOUS
 62
     7
 10
223.0219364672
 20
142.1990590713
 30
0.0
 40
4.0
 50
180.25
 51
270.0
  0
LINE
  5
1F9
  8
0
  6
CONTINUOUS
 62
     7
 10
218.811135285
 20
190.5020980464
 30
0.0
 11
219.0219745443
 21
142.1816058342
 31
0.0
  0
POLYLINE
  5
1FA
  8
0
  6
CONTINUOUS
 62
     7
 66
     1
 10
0.0
 20
0.0
 30
0.0
 70
   128
  0
VERTEX
  5
383
  8
0
  6
CONTINUOUS
 62
     7
 10
101.0525360079
 20
204.9638932413
 30
0.0
  0
VERTEX
  5
384
  8
0
  6
CONTINUOUS
 62
     7
 10
101.0993763482
 20
194.234864192
 30
0.0
  0
VERTEX
  5
385
  8
0
  6
CONTINUOUS
 62
     7
 10
101.3266325832
 20
142.1816058342
 30
0.0
  0
SEQEND
  5
3DC
  8
0
  6
CONTINUOUS
 62
     7
  0
POLYLINE
  5
1FB
  8
0
  6
CONTINUOUS
 62
     7
 66
     1
 10
0.0
 20
0.0
 30
0.0
 70
   128
  0
VERTEX
  5
386
  8
0
  6
CONTINUOUS
 62
     7
 10
101.0525360079
 20
204.9638932413
 30
0.0
  0
VERTEX
  5
387
  8
0
  6
CONTINUOUS
 62
     7
 10
101.0624280773
 20
204.9972571409
 30
0.0
  0
VERTEX
  5
388
  8
0
  6
CONTINUOUS
 62
     7
 10
101.092235266
 20
205.1041511456
 30
0.0
  0
SEQEND
  5
3DD
  8
0
  6
CONTINUOUS
 62
     7
  0
LINE
  5
1FC
  8
0
  6
CONTINUOUS
 62
     7
 10
101.0274977014
 20
210.6990781099
 30
0.0
 11
101.0308368442
 21
209.9342249014
 31
0.0
  0
LINE
  5
1FD
  8
0
  6
CONTINUOUS
 62
     7
 10
101.0667894513
 20
210.6990781099
 30
0.0
 11
101.0274977014
 21
210.6990781099
 31
0.0
  0
ARC
  5
1FE
  8
0
  6
CONTINUOUS
 62
     7
 10
90.7518402017
 20
207.874959236
 30
0.0
 40
8.518695231941171
 50
8.7882035983
 51
13.9889563064
  0
ARC
  5
1FF
  8
0
  6
CONTINUOUS
 62
     7
 10
89.708719862
 20
207.306411604
 30
0.0
 40
9.59937793948469
 50
345.875592776
 51
355.7406876295
  0
LINE
  5
200
  8
0
  6
CONTINUOUS
 62
     7
 10
99.0178908533
 20
209.9342249014
 30
0.0
 11
101.0308368442
 21
209.9342249014
 31
0.0
  0
LINE
  5
201
  8
0
  6
CONTINUOUS
 62
     7
 10
101.0525360079
 20
204.9638932413
 30
0.0
 11
99.0178908533
 21
204.9638932413
 31
0.0
  0
LINE
  5
202
  8
0
  6
CONTINUOUS
 62
     7
 10
179.9699713236
 20
138.2990590713
 30
0.0
 11
179.9699713236
 21
138.1990590713
 31
0.0
  0
LINE
  5
203
  8
0
  6
CONTINUOUS
 62
     7
 10
179.8934779404
 20
138.2990590713
 30
0.0
 11
179.8934779409
 21
138.1990590713
 31
0.0
  0
LINE
  5
204
  8
0
  6
CONTINUOUS
 62
     7
 10
179.9699713236
 20
138.2990590713
 30
0.0
 11
179.8934779404
 21
138.2990590713
 31
0.0
  0
LINE
  5
205
  8
0
  6
CONTINUOUS
 62
     7
 10
178.508432862
 20
138.2990590713
 30
0.0
 11
178.508432862
 21
138.1990590713
 31
0.0
  0
LINE
  5
206
  8
0
  6
CONTINUOUS
 62
     7
 10
178.590437464
 20
138.1990590713
 30
0.0
 11
178.5904374642
 21
138.2990590713
 31
0.0
  0
LINE
  5
207
  8
0
  6
CONTINUOUS
 62
     7
 10
178.5904374642
 20
138.2990590713
 30
0.0
 11
178.508432862
 21
138.2990590713
 31
0.0
  0
LINE
  5
208
  8
0
  6
CONTINUOUS
 62
     7
 10
180.3545867082
 20
138.2990590713
 30
0.0
 11
180.3545867082
 21
138.1990590713
 31
0.0
  0
LINE
  5
209
  8
0
  6
CONTINUOUS
 62
     7
 10
180.3716988259
 20
138.1990590713
 30
0.0
 11
180.3716988257
 21
138.2990590713
 31
0.0
  0
LINE
  5
20A
  8
0
  6
CONTINUOUS
 62
     7
 10
180.3716988257
 20
138.2990590713
 30
0.0
 11
180.3545867082
 21
138.2990590713
 31
0.0
  0
LINE
  5
20B
  8
0
  6
CONTINUOUS
 62
     7
 10
119.8571454923
 20
138.2990590713
 30
0.0
 11
119.8571454921
 21
138.1990590713
 31
0.0
  0
LINE
  5
20C
  8
0
  6
CONTINUOUS
 62
     7
 10
120.508432862
 20
138.2990590713
 30
0.0
 11
119.8571454923
 21
138.2990590713
 31
0.0
  0
LINE
  5
20D
  8
0
  6
CONTINUOUS
 62
     7
 10
117.7776636313
 20
138.1990590713
 30
0.0
 11
117.7776636313
 21
138.2990590713
 31
0.0
  0
LINE
  5
20E
  8
0
  6
CONTINUOUS
 62
     7
 10
118.0468944005
 20
138.2990590713
 30
0.0
 11
118.0468944005
 21
138.1990590713
 31
0.0
  0
LINE
  5
20F
  8
0
  6
CONTINUOUS
 62
     7
 10
118.0468944005
 20
138.1990590713
 30
0.0
 11
118.9048049753
 21
138.1990590713
 31
0.0
  0
LINE
  5
210
  8
0
  6
CONTINUOUS
 62
     7
 10
119.2062204531
 20
138.2990590713
 30
0.0
 11
119.2062204567
 21
138.1990590713
 31
0.0
  0
LINE
  5
211
  8
0
  6
CONTINUOUS
 62
     7
 10
119.587413414
 20
138.1990590713
 30
0.0
 11
119.5874134141
 21
138.2990590713
 31
0.0
  0
LINE
  5
212
  8
0
  6
CONTINUOUS
 62
     7
 10
119.5874134141
 20
138.2990590713
 30
0.0
 11
119.8571454923
 21
138.2990590713
 31
0.0
  0
LINE
  5
213
  8
0
  6
CONTINUOUS
 62
     7
 10
121.1597285796
 20
138.1990590713
 30
0.0
 11
121.1597285796
 21
138.2990590713
 31
0.0
  0
LINE
  5
214
  8
0
  6
CONTINUOUS
 62
     7
 10
121.1597285796
 20
138.2990590713
 30
0.0
 11
121.4294533066
 21
138.2990590713
 31
0.0
  0
LINE
  5
215
  8
0
  6
CONTINUOUS
 62
     7
 10
121.9699713236
 20
138.1990590713
 30
0.0
 11
121.9699713236
 21
138.2990590713
 31
0.0
  0
LINE
  5
216
  8
0
  6
CONTINUOUS
 62
     7
 10
122.2392020928
 20
138.2990590713
 30
0.0
 11
121.9699713236
 21
138.2990590713
 31
0.0
  0
LINE
  5
217
  8
0
  6
CONTINUOUS
 62
     7
 10
122.2392020928
 20
138.2990590713
 30
0.0
 11
122.2392020928
 21
138.1990590713
 31
0.0
  0
LINE
  5
218
  8
0
  6
CONTINUOUS
 62
     7
 10
122.2392020928
 20
138.1990590713
 30
0.0
 11
122.5570897915
 21
138.1990590713
 31
0.0
  0
LINE
  5
219
  8
0
  6
CONTINUOUS
 62
     7
 10
122.5570897915
 20
138.1990590713
 30
0.0
 11
122.5570897915
 21
138.2990590713
 31
0.0
  0
LINE
  5
21A
  8
0
  6
CONTINUOUS
 62
     7
 10
122.8152018826
 20
138.2990590713
 30
0.0
 11
122.5570897915
 21
138.2990590713
 31
0.0
  0
LINE
  5
21B
  8
0
  6
CONTINUOUS
 62
     7
 10
122.8152018826
 20
138.2990590713
 30
0.0
 11
122.8152018826
 21
138.1990590713
 31
0.0
  0
LINE
  5
21C
  8
0
  6
CONTINUOUS
 62
     7
 10
123.7744198968
 20
138.1990590713
 30
0.0
 11
123.7744198968
 21
138.2990590713
 31
0.0
  0
LINE
  5
21D
  8
0
  6
CONTINUOUS
 62
     7
 10
124.0069554614
 20
138.2990590713
 30
0.0
 11
123.7744198968
 21
138.2990590713
 31
0.0
  0
LINE
  5
21E
  8
0
  6
CONTINUOUS
 62
     7
 10
124.0069554614
 20
138.2990590713
 30
0.0
 11
124.0069554614
 21
138.1990590713
 31
0.0
  0
LINE
  5
21F
  8
0
  6
CONTINUOUS
 62
     7
 10
124.0069554614
 20
138.1990590713
 30
0.0
 11
124.3161251697
 21
138.1990590713
 31
0.0
  0
LINE
  5
220
  8
0
  6
CONTINUOUS
 62
     7
 10
124.3161251697
 20
138.1990590713
 30
0.0
 11
124.3161251697
 21
138.2990590713
 31
0.0
  0
LINE
  5
221
  8
0
  6
CONTINUOUS
 62
     7
 10
124.585355939
 20
138.2990590713
 30
0.0
 11
124.3161251697
 21
138.2990590713
 31
0.0
  0
LINE
  5
222
  8
0
  6
CONTINUOUS
 62
     7
 10
124.585355939
 20
138.2990590713
 30
0.0
 11
124.585355939
 21
138.1990590713
 31
0.0
  0
LINE
  5
223
  8
0
  6
CONTINUOUS
 62
     7
 10
126.468996847
 20
138.2990590713
 30
0.0
 11
126.468996847
 21
138.1990590713
 31
0.0
  0
ARC
  5
224
  8
0
  6
CONTINUOUS
 62
     7
 10
150.6622790159
 20
132.2990590713
 30
0.0
 40
6.494308985776486
 50
65.29719589
 51
114.70280411
  0
LINE
  5
225
  8
0
  6
CONTINUOUS
 62
     7
 10
178.8780694352
 20
138.2990590713
 30
0.0
 11
178.8780694282
 21
138.1990590713
 31
0.0
  0
LINE
  5
226
  8
0
  6
CONTINUOUS
 62
     7
 10
178.8780694282
 20
138.1990590713
 30
0.0
 11
179.6003254845
 21
138.1990590713
 31
0.0
  0
LINE
  5
227
  8
0
  6
CONTINUOUS
 62
     7
 10
181.8161251697
 20
138.2990590713
 30
0.0
 11
181.8161251697
 21
138.1990590713
 31
0.0
  0
LINE
  5
228
  8
0
  6
CONTINUOUS
 62
     7
 10
182.8930482466
 20
138.1990590713
 30
0.0
 11
182.8930482466
 21
138.2990590713
 31
0.0
  0
LINE
  5
229
  8
0
  6
CONTINUOUS
 62
     7
 10
183.1238174774
 20
138.2990590713
 30
0.0
 11
182.8930482466
 21
138.2990590713
 31
0.0
  0
LINE
  5
22A
  8
0
  6
CONTINUOUS
 62
     7
 10
183.1238174774
 20
138.2990590713
 30
0.0
 11
183.1238174774
 21
138.1990590713
 31
0.0
  0
LINE
  5
22B
  8
0
  6
CONTINUOUS
 62
     7
 10
184.8915937386
 20
138.1990590713
 30
0.0
 11
184.8915937386
 21
138.2990590713
 31
0.0
  0
LINE
  5
22C
  8
0
  6
CONTINUOUS
 62
     7
 10
185.1499312907
 20
138.2990590713
 30
0.0
 11
184.8915937386
 21
138.2990590713
 31
0.0
  0
LINE
  5
22D
  8
0
  6
CONTINUOUS
 62
     7
 10
185.1499312907
 20
138.2990590713
 30
0.0
 11
185.1499312907
 21
138.1990590713
 31
0.0
  0
ARC
  5
22E
  8
0
  6
CONTINUOUS
 62
     7
 10
195.9961524775
 20
142.200877376
 30
0.0
 40
4.001819374273726
 50
269.9581083866
 51
359.7240799314
  0
POLYLINE
  5
22F
  8
0
  6
CONTINUOUS
 62
     7
 66
     1
 10
0.0
 20
0.0
 30
0.0
 70
   128
  0
VERTEX
  5
389
  8
0
  6
CONTINUOUS
 62
     7
 10
199.9979254485
 20
142.1816058342
 30
0.0
  0
VERTEX
  5
38A
  8
0
  6
CONTINUOUS
 62
     7
 10
200.0306329044
 20
149.6731756516
 30
0.0
  0
VERTEX
  5
38B
  8
0
  6
CONTINUOUS
 62
     7
 10
200.2795973096
 20
206.6990590713
 30
0.0
  0
SEQEND
  5
3DE
  8
0
  6
CONTINUOUS
 62
     7
  0
LINE
  5
230
  8
0
  6
CONTINUOUS
 62
     7
 10
202.3066671784
 20
206.6990590713
 30
0.0
 11
200.2795973096
 21
206.6990590713
 31
0.0
  0
LINE
  5
231
  8
0
  6
CONTINUOUS
 62
     7
 10
202.3066671784
 20
206.6990590713
 30
0.0
 11
202.3066671784
 21
201.0407921182
 31
0.0
  0
POLYLINE
  5
232
  8
0
  6
CONTINUOUS
 62
     7
 66
     1
 10
0.0
 20
0.0
 30
0.0
 70
   128
  0
VERTEX
  5
38C
  8
0
  6
CONTINUOUS
 62
     7
 10
202.3066671784
 20
201.0407921182
 30
0.0
  0
VERTEX
  5
38D
  8
0
  6
CONTINUOUS
 62
     7
 10
202.253799799
 20
200.7200050376
 30
0.0
  0
VERTEX
  5
38E
  8
0
  6
CONTINUOUS
 62
     7
 10
202.1994907404
 20
200.5904611489
 30
0.0
  0
SEQEND
  5
3DF
  8
0
  6
CONTINUOUS
 62
     7
  0
LINE
  5
233
  8
0
  6
CONTINUOUS
 62
     7
 10
201.8558784156
 20
199.909441839
 30
0.0
 11
202.1994907404
 21
200.5904611489
 31
0.0
  0
POLYLINE
  5
234
  8
0
  6
CONTINUOUS
 62
     7
 66
     1
 10
0.0
 20
0.0
 30
0.0
 70
   128
  0
VERTEX
  5
38F
  8
0
  6
CONTINUOUS
 62
     7
 10
201.7487078891
 20
199.463474179
 30
0.0
  0
VERTEX
  5
390
  8
0
  6
CONTINUOUS
 62
     7
 10
201.7660566602
 20
199.6445882698
 30
0.0
  0
VERTEX
  5
391
  8
0
  6
CONTINUOUS
 62
     7
 10
201.8558784156
 20
199.909441839
 30
0.0
  0
SEQEND
  5
3E0
  8
0
  6
CONTINUOUS
 62
     7
  0
POLYLINE
  5
235
  8
0
  6
CONTINUOUS
 62
     7
 66
     1
 10
0.0
 20
0.0
 30
0.0
 70
   128
  0
VERTEX
  5
392
  8
0
  6
CONTINUOUS
 62
     7
 10
201.4986373456
 20
142.1750608703
 30
0.0
  0
VERTEX
  5
393
  8
0
  6
CONTINUOUS
 62
     7
 10
201.5886037124
 20
162.7852267858
 30
0.0
  0
VERTEX
  5
394
  8
0
  6
CONTINUOUS
 62
     7
 10
201.7487078891
 20
199.463474179
 30
0.0
  0
SEQEND
  5
3E1
  8
0
  6
CONTINUOUS
 62
     7
  0
ARC
  5
236
  8
0
  6
CONTINUOUS
 62
     7
 10
195.9969851207
 20
142.2007700718
 30
0.0
 40
5.501712294133847
 50
269.9607086507
 51
359.7322589722
  0
LINE
  5
237
  8
0
  6
CONTINUOUS
 62
     7
 10
153.0215266084
 20
136.6990590713
 30
0.0
 11
195.993212248
 21
136.6990590713
 31
0.0
  0
ARC
  5
238
  8
0
  6
CONTINUOUS
 62
     7
 10
150.6622790159
 20
132.2990590713
 30
0.0
 40
4.992599443449995
 50
61.8001184094
 51
118.1998815906
  0
LINE
  5
239
  8
0
  6
CONTINUOUS
 62
     7
 10
105.3313457838
 20
136.6990590713
 30
0.0
 11
148.3030314234
 21
136.6990590713
 31
0.0
  0
ARC
  5
23A
  8
0
  6
CONTINUOUS
 62
     7
 10
105.3282179919
 20
142.2014186188
 30
0.0
 40
5.502360436411836
 50
180.274462849
 51
270.0325695281
  0
POLYLINE
  5
23B
  8
0
  6
CONTINUOUS
 62
     7
 66
     1
 10
0.0
 20
0.0
 30
0.0
 70
   128
  0
VERTEX
  5
395
  8
0
  6
CONTINUOUS
 62
     7
 10
99.5758501426
 20
199.463474179
 30
0.0
  0
VERTEX
  5
396
  8
0
  6
CONTINUOUS
 62
     7
 10
99.6499263521
 20
182.4933030816
 30
0.0
  0
VERTEX
  5
397
  8
0
  6
CONTINUOUS
 62
     7
 10
99.8259206861
 20
142.1750608703
 30
0.0
  0
SEQEND
  5
3E2
  8
0
  6
CONTINUOUS
 62
     7
  0
ARC
  5
23C
  8
0
  6
CONTINUOUS
 62
     7
 10
98.5761626331
 20
199.4591000974
 30
0.0
 40
0.999697078701338
 50
0.2506931547
 51
26.7743689752
  0
LINE
  5
23D
  8
0
  6
CONTINUOUS
 62
     7
 10
99.1250672913
 20
200.5904611489
 30
0.0
 11
99.4686796161
 21
199.909441839
 31
0.0
  0
ARC
  5
23E
  8
0
  6
CONTINUOUS
 62
     7
 10
100.0176200598
 20
201.0408032877
 30
0.0
 40
0.9997292065110477
 50
180.000640135
 51
206.7734654047
  0
ARC
  5
23F
  8
0
  6
CONTINUOUS
 62
     7
 10
105.328189334
 20
142.200659953
 30
0.0
 40
4.001602115302126
 50
180.2728219058
 51
270.0449897761
  0
LINE
  5
240
  8
0
  6
CONTINUOUS
 62
     7
 10
115.932638599
 20
138.1990590713
 30
0.0
 11
115.932638599
 21
138.2990590713
 31
0.0
  0
LINE
  5
241
  8
0
  6
CONTINUOUS
 62
     7
 10
116.3328917569
 20
138.2990590713
 30
0.0
 11
115.932638599
 21
138.2990590713
 31
0.0
  0
LINE
  5
242
  8
0
  6
CONTINUOUS
 62
     7
 10
116.3328917569
 20
138.2990590713
 30
0.0
 11
116.3328917569
 21
138.1990590713
 31
0.0
  0
LINE
  5
243
  8
0
  6
CONTINUOUS
 62
     7
 10
126.0685893518
 20
138.1990590713
 30
0.0
 11
126.0685893518
 21
138.2990590713
 31
0.0
  0
LINE
  5
244
  8
0
  6
CONTINUOUS
 62
     7
 10
126.0685893518
 20
138.2990590713
 30
0.0
 11
126.468996847
 21
138.2990590713
 31
0.0
  0
LINE
  5
245
  8
0
  6
CONTINUOUS
 62
     7
 10
179.6003254845
 20
138.1990590713
 30
0.0
 11
179.6003254777
 21
138.2990590713
 31
0.0
  0
LINE
  5
246
  8
0
  6
CONTINUOUS
 62
     7
 10
121.4294533066
 20
138.2990590713
 30
0.0
 11
121.4294533067
 21
138.1990590713
 31
0.0
  0
LINE
  5
247
  8
0
  6
CONTINUOUS
 62
     7
 10
119.8571454921
 20
138.1990590713
 30
0.0
 11
121.1597285796
 21
138.1990590713
 31
0.0
  0
LINE
  5
248
  8
0
  6
CONTINUOUS
 62
     7
 10
185.1499312907
 20
138.1990590713
 30
0.0
 11
195.9932265612
 21
138.1990590713
 31
0.0
  0
LINE
  5
249
  8
0
  6
CONTINUOUS
 62
     7
 10
183.1238174774
 20
138.1990590713
 30
0.0
 11
184.8915937386
 21
138.1990590713
 31
0.0
  0
LINE
  5
24A
  8
0
  6
CONTINUOUS
 62
     7
 10
181.8161251697
 20
138.1990590713
 30
0.0
 11
182.8930482466
 21
138.1990590713
 31
0.0
  0
LINE
  5
24B
  8
0
  6
CONTINUOUS
 62
     7
 10
179.8934779409
 20
138.1990590713
 30
0.0
 11
180.3716988259
 21
138.1990590713
 31
0.0
  0
LINE
  5
24C
  8
0
  6
CONTINUOUS
 62
     7
 10
153.376325663
 20
138.1990590713
 30
0.0
 11
178.590437464
 21
138.1990590713
 31
0.0
  0
LINE
  5
24D
  8
0
  6
CONTINUOUS
 62
     7
 10
126.468996847
 20
138.1990590713
 30
0.0
 11
147.9482323688
 21
138.1990590713
 31
0.0
  0
LINE
  5
24E
  8
0
  6
CONTINUOUS
 62
     7
 10
124.585355939
 20
138.1990590713
 30
0.0
 11
126.0685893518
 21
138.1990590713
 31
0.0
  0
LINE
  5
24F
  8
0
  6
CONTINUOUS
 62
     7
 10
122.8152018826
 20
138.1990590713
 30
0.0
 11
123.7744198968
 21
138.1990590713
 31
0.0
  0
LINE
  5
250
  8
0
  6
CONTINUOUS
 62
     7
 10
121.4294533067
 20
138.1990590713
 30
0.0
 11
121.9699713236
 21
138.1990590713
 31
0.0
  0
LINE
  5
251
  8
0
  6
CONTINUOUS
 62
     7
 10
119.2062204567
 20
138.1990590713
 30
0.0
 11
119.587413414
 21
138.1990590713
 31
0.0
  0
LINE
  5
252
  8
0
  6
CONTINUOUS
 62
     7
 10
116.3328917569
 20
138.1990590713
 30
0.0
 11
117.7776636313
 21
138.1990590713
 31
0.0
  0
LINE
  5
253
  8
0
  6
CONTINUOUS
 62
     7
 10
105.3313314706
 20
138.1990590713
 30
0.0
 11
115.932638599
 21
138.1990590713
 31
0.0
  0
LINE
  5
254
  8
0
  6
CONTINUOUS
 62
     7
 10
180.6447114788
 20
138.2990590713
 30
0.0
 11
180.644711478
 21
138.1990590713
 31
0.0
  0
LINE
  5
255
  8
0
  6
CONTINUOUS
 62
     7
 10
181.5646335344
 20
138.2990590713
 30
0.0
 11
181.8161251697
 21
138.2990590713
 31
0.0
  0
LINE
  5
256
  8
0
  6
CONTINUOUS
 62
     7
 10
180.3716988257
 20
138.2990590713
 30
0.0
 11
180.6447114788
 21
138.2990590713
 31
0.0
  0
LINE
  5
257
  8
0
  6
CONTINUOUS
 62
     7
 10
118.9048049749
 20
138.2990590713
 30
0.0
 11
119.2062204531
 21
138.2990590713
 31
0.0
  0
LINE
  5
258
  8
0
  6
CONTINUOUS
 62
     7
 10
117.7776636313
 20
138.2990590713
 30
0.0
 11
118.0468944005
 21
138.2990590713
 31
0.0
  0
LINE
  5
259
  8
0
  6
CONTINUOUS
 62
     7
 10
118.9048049753
 20
138.1990590713
 30
0.0
 11
118.9048049749
 21
138.2990590713
 31
0.0
  0
LINE
  5
25A
  8
0
  6
CONTINUOUS
 62
     7
 10
179.6003254777
 20
138.2990590713
 30
0.0
 11
179.8934779404
 21
138.2990590713
 31
0.0
  0
LINE
  5
25B
  8
0
  6
CONTINUOUS
 62
     7
 10
178.5904374642
 20
138.2990590713
 30
0.0
 11
178.8780694352
 21
138.2990590713
 31
0.0
  0
LINE
  5
25C
  8
0
  6
CONTINUOUS
 62
     7
 10
181.5646335323
 20
138.1990590713
 30
0.0
 11
181.5646335344
 21
138.2990590713
 31
0.0
  0
LINE
  5
25D
  8
0
  6
CONTINUOUS
 62
     7
 10
180.644711478
 20
138.1990590713
 30
0.0
 11
181.5646335323
 21
138.1990590713
 31
0.0
  0
LINE
  5
25E
  8
0
  6
CONTINUOUS
 62
     7
 10
99.0178908533
 20
201.0407921182
 30
0.0
 11
99.0178908533
 21
204.9638932413
 31
0.0
  0
LINE
  5
25F
  8
0
  6
CONTINUOUS
 62
     7
 10
121.1597285796
 20
138.2990590713
 30
0.0
 11
120.508432862
 21
138.2990590713
 31
0.0
  0
POLYLINE
  5
260
  8
0
  6
CONTINUOUS
 62
     7
 66
     1
 10
0.0
 20
0.0
 30
0.0
 70
   128
  0
VERTEX
  5
398
  8
0
  6
CONTINUOUS
 62
     7
 10
101.0667894513
 20
212.6658259494
 30
0.0
  0
VERTEX
  5
399
  8
0
  6
CONTINUOUS
 62
     7
 10
100.9802883557
 20
212.6956132349
 30
0.0
  0
VERTEX
  5
39A
  8
0
  6
CONTINUOUS
 62
     7
 10
100.9232992557
 20
212.6990590713
 30
0.0
  0
SEQEND
  5
3E3
  8
0
  6
CONTINUOUS
 62
     7
  0
LINE
  5
261
  8
0
  6
CONTINUOUS
 62
     7
 10
99.8722561362
 20
212.6990590713
 30
0.0
 11
101.0274977014
 21
210.6990781099
 31
0.0
  0
LINE
  5
262
  8
0
  6
CONTINUOUS
 62
     7
 10
99.8722561362
 20
212.6990590713
 30
0.0
 11
100.9232992557
 21
212.6990590713
 31
0.0
  0
LINE
  5
263
  8
0
  6
CONTINUOUS
 62
     7
 10
200.2577685804
 20
212.6990590713
 30
0.0
 11
201.4523018956
 21
212.6990590713
 31
0.0
  0
POLYLINE
  5
264
  8
0
  6
CONTINUOUS
 62
     7
 66
     1
 10
0.0
 20
0.0
 30
0.0
 70
   128
  0
VERTEX
  5
39B
  8
0
  6
CONTINUOUS
 62
     7
 10
200.2970603304
 20
210.6990781099
 30
0.0
  0
VERTEX
  5
39C
  8
0
  6
CONTINUOUS
 62
     7
 10
200.9963099287
 20
211.9096056968
 30
0.0
  0
VERTEX
  5
39D
  8
0
  6
CONTINUOUS
 62
     7
 10
201.4523018956
 20
212.6990590713
 30
0.0
  0
SEQEND
  5
3E4
  8
0
  6
CONTINUOUS
 62
     7
  0
LINE
  5
265
  8
0
  6
CONTINUOUS
 62
     7
 10
200.2970603304
 20
210.6990781099
 30
0.0
 11
200.2577685804
 21
210.6990781099
 31
0.0
  0
LINE
  5
266
  8
0
  6
CONTINUOUS
 62
     7
 10
124.3161251697
 20
138.2990590713
 30
0.0
 11
124.0069554614
 21
138.2990590713
 31
0.0
  0
LINE
  5
267
  8
0
  6
CONTINUOUS
 62
     7
 10
185.4315097851
 20
138.2990590713
 30
0.0
 11
185.4315097851
 21
138.1990590713
 31
0.0
  0
LINE
  5
268
  8
0
  6
CONTINUOUS
 62
     7
 10
185.4315097851
 20
138.2990590713
 30
0.0
 11
185.1499312907
 21
138.2990590713
 31
0.0
  0
LINE
  5
269
  8
0
  6
CONTINUOUS
 62
     7
 10
200.2926945167
 20
209.6990590713
 30
0.0
 11
200.2970603304
 21
210.6990781099
 31
0.0
  0
LINE
  5
26A
  8
0
  6
CONTINUOUS
 62
     7
 10
200.2577685804
 20
206.6990590713
 30
0.0
 11
200.2795973096
 21
206.6990590713
 31
0.0
  0
LINE
  5
26B
  8
0
  6
CONTINUOUS
 62
     7
 10
99.0178908533
 20
212.6990590713
 30
0.0
 11
99.8722561362
 21
212.6990590713
 31
0.0
  0
LINE
  5
26C
  8
0
  6
CONTINUOUS
 62
     7
 10
99.0178908533
 20
209.9342249014
 30
0.0
 11
99.0178908533
 21
212.6990590713
 31
0.0
  0
LINE
  5
26D
  8
0
  6
CONTINUOUS
 62
     7
 10
201.4523018956
 20
212.6990590713
 30
0.0
 11
202.3066671784
 21
212.6990590713
 31
0.0
  0
LINE
  5
26E
  8
0
  6
CONTINUOUS
 62
     7
 10
202.3066671784
 20
212.6990590713
 30
0.0
 11
202.3066671784
 21
209.6990590713
 31
0.0
  0
LINE
  5
26F
  8
0
  6
CONTINUOUS
 62
     7
 10
200.2926945167
 20
209.6990590713
 30
0.0
 11
202.3066671784
 21
209.6990590713
 31
0.0
  0
LINE
  5
270
  8
0
  6
CONTINUOUS
 62
     7
 10
119.2776636313
 20
138.2990590713
 30
0.0
 11
119.2776636313
 21
138.1990590713
 31
0.0
  0
LINE
  5
271
  8
0
  6
CONTINUOUS
 62
     7
 10
119.2776636313
 20
138.2990590713
 30
0.0
 11
119.2062204531
 21
138.2990590713
 31
0.0
  0
LINE
  5
272
  8
0
  6
CONTINUOUS
 62
     7
 10
126.6755001697
 20
138.2990590713
 30
0.0
 11
126.6755001697
 21
138.1990590713
 31
0.0
  0
LINE
  5
273
  8
0
  6
CONTINUOUS
 62
     7
 10
126.6755001697
 20
138.2990590713
 30
0.0
 11
126.468996847
 21
138.2990590713
 31
0.0
  0
LINE
  5
274
  8
0
  6
CONTINUOUS
 62
     7
 10
122.5570897915
 20
138.2990590713
 30
0.0
 11
122.2392020928
 21
138.2990590713
 31
0.0
  0
LINE
  5
275
  8
0
  6
CONTINUOUS
 62
     7
 10
153.0215266084
 20
136.6990590713
 30
0.0
 11
148.3030314234
 21
136.6990590713
 31
0.0
  0
LINE
  5
276
  8
0
  6
CONTINUOUS
 62
     7
 10
115.725980939
 20
138.2990590713
 30
0.0
 11
115.725980939
 21
138.1990590713
 31
0.0
  0
LINE
  5
277
  8
0
  6
CONTINUOUS
 62
     7
 10
115.932638599
 20
138.2990590713
 30
0.0
 11
115.725980939
 21
138.2990590713
 31
0.0
  0
LINE
  5
278
  8
0
  6
CONTINUOUS
 62
     7
 10
181.0985770928
 20
138.2990590713
 30
0.0
 11
181.0985770928
 21
138.1990590713
 31
0.0
  0
LINE
  5
279
  8
0
  6
CONTINUOUS
 62
     7
 10
182.3864376697
 20
138.2990590713
 30
0.0
 11
182.3864376697
 21
138.1990590713
 31
0.0
  0
LINE
  5
27A
  8
0
  6
CONTINUOUS
 62
     7
 10
182.8930482466
 20
138.2990590713
 30
0.0
 11
182.3864376697
 21
138.2990590713
 31
0.0
  0
LINE
  5
27B
  8
0
  6
CONTINUOUS
 62
     7
 10
179.2392020928
 20
138.2990590713
 30
0.0
 11
179.2392020928
 21
138.1990590713
 31
0.0
  0
LINE
  5
27C
  8
0
  6
CONTINUOUS
 62
     7
 10
179.2392020928
 20
138.2990590713
 30
0.0
 11
178.8780694352
 21
138.2990590713
 31
0.0
  0
LINE
  5
27D
  8
0
  6
CONTINUOUS
 62
     7
 10
179.6003254777
 20
138.2990590713
 30
0.0
 11
179.2392020928
 21
138.2990590713
 31
0.0
  0
LINE
  5
27E
  8
0
  6
CONTINUOUS
 62
     7
 10
118.5420867082
 20
138.2990590713
 30
0.0
 11
118.5420867082
 21
138.1990590713
 31
0.0
  0
LINE
  5
27F
  8
0
  6
CONTINUOUS
 62
     7
 10
119.008432862
 20
138.2990590713
 30
0.0
 11
118.5420867082
 21
138.2990590713
 31
0.0
  0
LINE
  5
280
  8
0
  6
CONTINUOUS
 62
     7
 10
183.9880001697
 20
138.2990590713
 30
0.0
 11
183.9880001697
 21
138.1990590713
 31
0.0
  0
LINE
  5
281
  8
0
  6
CONTINUOUS
 62
     7
 10
184.8915937386
 20
138.2990590713
 30
0.0
 11
183.9880001697
 21
138.2990590713
 31
0.0
  0
LINE
  5
282
  8
0
  6
CONTINUOUS
 62
     7
 10
118.5420867082
 20
138.2990590713
 30
0.0
 11
118.0468944005
 21
138.2990590713
 31
0.0
  0
POLYLINE
  5
283
  8
0
  6
CONTINUOUS
 62
     7
 66
     1
 10
0.0
 20
0.0
 30
0.0
 70
   128
  0
VERTEX
  5
39E
  8
0
  6
CONTINUOUS
 62
     7
 10
201.5112771005
 20
207.4934725274
 30
0.0
  0
VERTEX
  5
39F
  8
0
  6
CONTINUOUS
 62
     7
 10
201.5185182817
 20
207.3862238346
 30
0.0
  0
VERTEX
  5
3A0
  8
0
  6
CONTINUOUS
 62
     7
 10
201.5767681144
 20
207.1089903093
 30
0.0
  0
VERTEX
  5
3A1
  8
0
  6
CONTINUOUS
 62
     7
 10
201.6639966536
 20
206.8856439933
 30
0.0
  0
VERTEX
  5
3A2
  8
0
  6
CONTINUOUS
 62
     7
 10
201.771467102
 20
206.7388240466
 30
0.0
  0
VERTEX
  5
3A3
  8
0
  6
CONTINUOUS
 62
     7
 10
201.8613320121
 20
206.6990590713
 30
0.0
  0
SEQEND
  5
3E5
  8
0
  6
CONTINUOUS
 62
     7
  0
ARC
  5
284
  8
0
  6
CONTINUOUS
 62
     7
 10
192.1026215646
 20
142.1990590713
 30
0.0
 40
4.0
 50
270.0
 51
359.75
  0
LINE
  5
285
  8
0
  6
CONTINUOUS
 62
     7
 10
196.3133889106
 20
190.4943434031
 30
0.0
 11
196.1025834874
 21
142.1816058342
 31
0.0
  0
ARC
  5
286
  8
0
  6
CONTINUOUS
 62
     7
 10
193.5580032899
 20
181.7207760264
 30
0.0
 40
0.4996172513607151
 50
99.5149198628
 51
180.0206498205
  0
LINE
  5
287
  8
0
  6
CONTINUOUS
 62
     7
 10
307.1072680334
 20
182.1995406211
 30
0.0
 11
303.5579598716
 21
182.1995406211
 31
0.0
  0
LINE
  5
288
  8
0
  6
CONTINUOUS
 62
     7
 10
111.5665981601
 20
182.1995406211
 30
0.0
 11
108.0172899983
 21
182.1995406211
 31
0.0
  0
LINE
  5
289
  8
0
  6
CONTINUOUS
 62
     7
 10
313.3527961887
 20
202.5696495488
 30
0.0
 11
313.3521836438
 21
202.5673862451
 31
0.0
  0
LINE
  5
28A
  8
0
  6
CONTINUOUS
 62
     7
 10
199.5527961887
 20
202.5696495488
 30
0.0
 11
199.5521836438
 21
202.5673862451
 31
0.0
  0
LINE
  5
28B
  8
0
  6
CONTINUOUS
 62
     7
 10
215.5723743879
 20
202.5673862451
 30
0.0
 11
215.571761843
 21
202.5696495488
 31
0.0
  0
LINE
  5
28C
  8
0
  6
CONTINUOUS
 62
     7
 10
113.5669022766
 20
152.6990590713
 30
0.0
 11
120.5853038653
 21
152.6990590713
 31
0.0
  0
LINE
  5
28D
  8
0
  6
CONTINUOUS
 62
     7
 10
113.5669022766
 20
152.6990590713
 30
0.0
 11
113.5669022766
 21
212.6990590713
 31
0.0
  0
LINE
  5
28E
  8
0
  6
CONTINUOUS
 62
     7
 10
294.844558901
 20
215.1990590713
 30
0.0
 11
304.0587569586
 21
215.1990590713
 31
0.0
  0
ARC
  5
28F
  8
0
  6
CONTINUOUS
 62
     7
 10
304.0582183421
 20
212.6984964791
 30
0.0
 40
2.500562650255524
 50
89.987658596
 51
179.9871092366
  0
LINE
  5
290
  8
0
  6
CONTINUOUS
 62
     7
 10
313.0991393223
 20
215.6554812
 30
0.0
 11
313.1067664063
 21
215.7426369427
 31
0.0
  0
LINE
  5
291
  8
0
  6
CONTINUOUS
 62
     7
 10
102.0177916255
 20
215.7426369427
 30
0.0
 11
102.0254187094
 21
215.6554812
 31
0.0
  0
ARC
  5
292
  8
0
  6
CONTINUOUS
 62
     7
 10
111.0662978149
 20
212.6984545859
 30
0.0
 40
2.500604534741602
 50
0.0138504359
 51
90.0113817316
  0
LINE
  5
293
  8
0
  6
CONTINUOUS
 62
     7
 10
111.0658010731
 20
215.1990590713
 30
0.0
 11
120.2799991307
 21
215.1990590713
 31
0.0
  0
LINE
  5
294
  8
0
  6
CONTINUOUS
 62
     7
 10
185.0622790159
 20
215.1990590713
 30
0.0
 11
185.9774285654
 21
218.6144436867
 31
0.0
  0
POLYLINE
  5
295
  8
0
  6
CONTINUOUS
 62
     7
 66
     1
 10
0.0
 20
0.0
 30
0.0
 70
   128
  0
VERTEX
  5
3A4
  8
0
  6
CONTINUOUS
 62
     7
 10
191.5576557551
 20
215.1990590713
 30
0.0
  0
VERTEX
  5
3A5
  8
0
  6
CONTINUOUS
 62
     7
 10
191.3289689951
 20
216.8392947617
 30
0.0
  0
VERTEX
  5
3A6
  8
0
  6
CONTINUOUS
 62
     7
 10
190.4900105552
 20
218.6144436867
 30
0.0
  0
SEQEND
  5
3E6
  8
0
  6
CONTINUOUS
 62
     7
  0
ARC
  5
296
  8
0
  6
CONTINUOUS
 62
     7
 10
214.3666749031
 20
210.4491736117
 30
0.0
 40
0.5001145613393749
 50
269.9834106225
 51
359.9868776462
  0
LINE
  5
297
  8
0
  6
CONTINUOUS
 62
     7
 10
230.5853038653
 20
213.2471037597
 30
0.0
 11
230.0622790159
 21
215.1990590713
 31
0.0
  0
LINE
  5
298
  8
0
  6
CONTINUOUS
 62
     7
 10
230.5853038653
 20
212.6990590713
 30
0.0
 11
230.5853038653
 21
213.2471037597
 31
0.0
  0
LINE
  5
299
  8
0
  6
CONTINUOUS
 62
     7
 10
223.5669022766
 20
152.6990590713
 30
0.0
 11
223.5669022766
 21
215.1990590713
 31
0.0
  0
LINE
  5
29A
  8
0
  6
CONTINUOUS
 62
     7
 10
223.5669022766
 20
152.6990590713
 30
0.0
 11
230.5853038653
 21
152.6990590713
 31
0.0
  0
LINE
  5
29B
  8
0
  6
CONTINUOUS
 62
     7
 10
301.5576557551
 20
212.6990590713
 30
0.0
 11
301.5576557551
 21
152.6990590713
 31
0.0
  0
LINE
  5
29C
  8
0
  6
CONTINUOUS
 62
     7
 10
294.5392541665
 20
152.6990590713
 30
0.0
 11
301.5576557551
 21
152.6990590713
 31
0.0
  0
LINE
  5
29D
  8
0
  6
CONTINUOUS
 62
     7
 10
184.5392541665
 20
212.6990590713
 30
0.0
 11
184.5392541665
 21
213.2471037597
 31
0.0
  0
LINE
  5
29E
  8
0
  6
CONTINUOUS
 62
     7
 10
185.0622790159
 20
215.1990590713
 30
0.0
 11
184.5392541665
 21
213.2471037597
 31
0.0
  0
LINE
  5
29F
  8
0
  6
CONTINUOUS
 62
     7
 10
191.5576557551
 20
215.1990590713
 30
0.0
 11
191.5576557551
 21
152.6990590713
 31
0.0
  0
LINE
  5
2A0
  8
0
  6
CONTINUOUS
 62
     7
 10
184.5392541665
 20
152.6990590713
 30
0.0
 11
191.5576557551
 21
152.6990590713
 31
0.0
  0
ARC
  5
2A1
  8
0
  6
CONTINUOUS
 62
     7
 10
100.5666720654
 20
212.6989416918
 30
0.0
 40
0.5001173997307884
 50
0.0134475519
 51
90.0162641794
  0
ARC
  5
2A2
  8
0
  6
CONTINUOUS
 62
     7
 10
200.7579141018
 20
212.6989135417
 30
0.0
 40
0.5001455425419039
 50
89.9869598785
 51
179.9833283902
  0
ARC
  5
2A3
  8
0
  6
CONTINUOUS
 62
     7
 10
214.3666720654
 20
212.6989416918
 30
0.0
 40
0.5001173997308199
 50
0.0134475519
 51
90.0162641794
  0
LINE
  5
2A4
  8
0
  6
CONTINUOUS
 62
     7
 10
229.1471294663
 20
218.6144436867
 30
0.0
 11
230.0622790159
 21
215.1990590713
 31
0.0
  0
ARC
  5
2A5
  8
0
  6
CONTINUOUS
 62
     7
 10
229.563718477
 20
215.199026027
 30
0.0
 40
5.996816200436527
 50
145.2819502869
 51
179.9996842824
  0
ARC
  5
2A6
  8
0
  6
CONTINUOUS
 62
     7
 10
102.5235838326
 20
215.6991330343
 30
0.0
 40
0.5000739671796798
 50
185.0077652504
 51
270.0074259293
  0
ARC
  5
2A7
  8
0
  6
CONTINUOUS
 62
     7
 10
312.6009638078
 20
215.6991443774
 30
0.0
 40
0.5000853090252484
 50
269.9937647861
 51
354.991044034
  0
ARC
  5
2A8
  8
0
  6
CONTINUOUS
 62
     7
 10
228.5532289138
 20
218.8990590715
 30
0.0
 40
0.4999999998803162
 50
14.9999999907
 51
90.0000000105
  0
LINE
  5
2A9
  8
0
  6
CONTINUOUS
 62
     7
 10
229.0361918268
 20
219.0284685939
 30
0.0
 11
229.1471294663
 21
218.6144436867
 31
0.0
  0
ARC
  5
2AA
  8
0
  6
CONTINUOUS
 62
     7
 10
224.2234930655
 20
218.8990772109
 30
0.0
 40
0.4999819715561859
 50
325.2994388721
 51
90.0381992544
  0
LINE
  5
2AB
  8
0
  6
CONTINUOUS
 62
     7
 10
224.2231597262
 20
219.3990590713
 30
0.0
 11
228.5532289137
 21
219.3990590713
 31
0.0
  0
LINE
  5
2AC
  8
0
  6
CONTINUOUS
 62
     7
 10
185.9774285654
 20
218.6144436867
 30
0.0
 11
186.0883662049
 21
219.0284685939
 31
0.0
  0
ARC
  5
2AD
  8
0
  6
CONTINUOUS
 62
     7
 10
186.571329118
 20
218.8990590715
 30
0.0
 40
0.4999999998804299
 50
89.9999999895
 51
165.0000000105
  0
ARC
  5
2AE
  8
0
  6
CONTINUOUS
 62
     7
 10
190.9010899306
 20
218.8990641216
 30
0.0
 40
0.4999950447980671
 50
89.9646624801
 51
214.6976993933
  0
LINE
  5
2AF
  8
0
  6
CONTINUOUS
 62
     7
 10
186.5713291181
 20
219.3990590713
 30
0.0
 11
190.9013983056
 21
219.3990590713
 31
0.0
  0
ARC
  5
2B0
  8
0
  6
CONTINUOUS
 62
     7
 10
213.8660766084
 20
208.4492309705
 30
0.0
 40
1.000171923845298
 50
180.0098474017
 51
270.0127375715
  0
ARC
  5
2B1
  8
0
  6
CONTINUOUS
 62
     7
 10
213.8660570654
 20
208.948906723
 30
0.0
 40
1.000152377615474
 50
89.9861426152
 51
179.9912724116
  0
ARC
  5
2B2
  8
0
  6
CONTINUOUS
 62
     7
 10
201.2584757631
 20
208.4492366329
 30
0.0
 40
1.000177585073576
 50
269.9875867508
 51
359.989828276
  0
ARC
  5
2B3
  8
0
  6
CONTINUOUS
 62
     7
 10
200.7579144861
 20
206.9489131572
 30
0.0
 40
0.5001459269937114
 50
89.9870039178
 51
179.9832843509
  0
ARC
  5
2B4
  8
0
  6
CONTINUOUS
 62
     7
 10
200.7579013842
 20
210.4491918767
 30
0.0
 40
0.5001328213727527
 50
180.0152143322
 51
270.0144973992
  0
ARC
  5
2B5
  8
0
  6
CONTINUOUS
 62
     7
 10
214.3666411938
 20
206.9489108041
 30
0.0
 40
0.5001482795422644
 50
0.016985133
 51
90.0127265981
  0
ARC
  5
2B6
  8
0
  6
CONTINUOUS
 62
     7
 10
313.604931299
 20
215.6989853586
 30
0.0
 40
0.5000737157344434
 50
89.9937724487
 51
174.9922610023
  0
LINE
  5
2B7
  8
0
  6
CONTINUOUS
 62
     7
 10
301.2635332471
 20
216.1990590713
 30
0.0
 11
313.6049856527
 21
216.1990590713
 31
0.0
  0
ARC
  5
2B8
  8
0
  6
CONTINUOUS
 62
     7
 10
101.5196193011
 20
215.6989772464
 30
0.0
 40
0.5000818271332156
 50
5.0085905587
 51
90.0053759913
  0
LINE
  5
2B9
  8
0
  6
CONTINUOUS
 62
     7
 10
101.5195723791
 20
216.1990590713
 30
0.0
 11
113.8610247846
 21
216.1990590713
 31
0.0
  0
LINE
  5
2BA
  8
0
  6
CONTINUOUS
 62
     7
 10
101.7723743879
 20
202.5673862451
 30
0.0
 11
101.771761843
 21
202.5696495488
 31
0.0
  0
ARC
  5
2BB
  8
0
  6
CONTINUOUS
 62
     7
 10
192.5582719141
 20
153.1991732308
 30
0.0
 40
0.5001141699501624
 50
269.9882898139
 51
359.9869212706
  0
ARC
  5
2BC
  8
0
  6
CONTINUOUS
 62
     7
 10
222.5662729262
 20
153.1991600337
 30
0.0
 40
0.5001009756639064
 50
180.0115670967
 51
270.0132218186
  0
ARC
  5
2BD
  8
0
  6
CONTINUOUS
 62
     7
 10
302.5582719141
 20
153.1991732308
 30
0.0
 40
0.500114169950276
 50
269.9882898139
 51
359.9869212706
  0
ARC
  5
2BE
  8
0
  6
CONTINUOUS
 62
     7
 10
314.5579141018
 20
212.6989135417
 30
0.0
 40
0.5001455425420691
 50
89.9869598785
 51
179.9833283902
  0
ARC
  5
2BF
  8
0
  6
CONTINUOUS
 62
     7
 10
201.2584838663
 20
208.9488896161
 30
0.0
 40
1.000169480498825
 50
0.0097074247
 51
90.0128775485
  0
ARC
  5
2C0
  8
0
  6
CONTINUOUS
 62
     7
 10
313.8122790159
 20
207.9490590713
 30
0.0
 40
2.485165830027698
 50
286.3599811092
 51
73.6400188908
  0
LINE
  5
2C1
  8
0
  6
CONTINUOUS
 62
     7
 10
313.3504729633
 20
202.5610653571
 30
0.0
 11
313.2534233134
 21
202.1991047603
 31
0.0
  0
LINE
  5
2C2
  8
0
  6
CONTINUOUS
 62
     7
 10
302.5581697001
 20
152.6990590713
 30
0.0
 11
301.5576557551
 21
152.6990590713
 31
0.0
  0
LINE
  5
2C3
  8
0
  6
CONTINUOUS
 62
     7
 10
315.5597287641
 20
216.1990590713
 30
0.0
 11
315.5597287641
 21
214.3990590713
 31
0.0
  0
LINE
  5
2C4
  8
0
  6
CONTINUOUS
 62
     7
 10
315.5597287641
 20
214.3990590713
 30
0.0
 11
317.5600379304
 21
214.3990590713
 31
0.0
  0
LINE
  5
2C5
  8
0
  6
CONTINUOUS
 62
     7
 10
317.5600379304
 20
214.3990590713
 30
0.0
 11
317.5600379304
 21
213.1990590713
 31
0.0
  0
LINE
  5
2C6
  8
0
  6
CONTINUOUS
 62
     7
 10
312.6009093861
 20
215.1990590713
 30
0.0
 11
304.0587569586
 21
215.1990590713
 31
0.0
  0
LINE
  5
2C7
  8
0
  6
CONTINUOUS
 62
     7
 10
314.5580279315
 20
213.1990590713
 30
0.0
 11
317.5600379304
 21
213.1990590713
 31
0.0
  0
LINE
  5
2C8
  8
0
  6
CONTINUOUS
 62
     7
 10
314.0577685804
 20
205.1990590713
 30
0.0
 11
313.3527961887
 21
202.5696495488
 31
0.0
  0
LINE
  5
2C9
  8
0
  6
CONTINUOUS
 62
     7
 10
313.6049856527
 20
216.1990590713
 30
0.0
 11
315.5597287641
 21
216.1990590713
 31
0.0
  0
LINE
  5
2CA
  8
0
  6
CONTINUOUS
 62
     7
 10
313.3504729633
 20
202.5610653571
 30
0.0
 11
313.3521836438
 21
202.5673862451
 31
0.0
  0
POLYLINE
  5
2CB
  8
0
  6
CONTINUOUS
 62
     7
 66
     1
 10
0.0
 20
0.0
 30
0.0
 70
   128
  0
VERTEX
  5
3A7
  8
0
  6
CONTINUOUS
 62
     7
 10
313.2534233134
 20
202.1991047603
 30
0.0
  0
VERTEX
  5
3A8
  8
0
  6
CONTINUOUS
 62
     7
 10
312.9944400729
 20
201.233222945
 30
0.0
  0
VERTEX
  5
3A9
  8
0
  6
CONTINUOUS
 62
     7
 10
311.9583556768
 20
197.369736289
 30
0.0
  0
VERTEX
  5
3AA
  8
0
  6
CONTINUOUS
 62
     7
 10
311.8425471366
 20
196.937969899
 30
0.0
  0
SEQEND
  5
3E7
  8
0
  6
CONTINUOUS
 62
     7
  0
POLYLINE
  5
2CC
  8
0
  6
CONTINUOUS
 62
     7
 66
     1
 10
0.0
 20
0.0
 30
0.0
 70
   128
  0
VERTEX
  5
3AB
  8
0
  6
CONTINUOUS
 62
     7
 10
311.8425471366
 20
196.937969899
 30
0.0
  0
VERTEX
  5
3AC
  8
0
  6
CONTINUOUS
 62
     7
 10
310.2089112872
 20
190.8498112748
 30
0.0
  0
VERTEX
  5
3AD
  8
0
  6
CONTINUOUS
 62
     7
 10
308.8031906705
 20
185.6186964995
 30
0.0
  0
VERTEX
  5
3AE
  8
0
  6
CONTINUOUS
 62
     7
 10
308.0814466808
 20
182.9402400262
 30
0.0
  0
SEQEND
  5
3E8
  8
0
  6
CONTINUOUS
 62
     7
  0
ARC
  5
2CD
  8
0
  6
CONTINUOUS
 62
     7
 10
303.5579572744
 20
181.6999693537
 30
0.0
 40
0.4995712674358839
 50
89.9997021266
 51
180.0290141878
  0
LINE
  5
2CE
  8
0
  6
CONTINUOUS
 62
     7
 10
303.058386071
 20
181.6997163743
 30
0.0
 11
303.058386071
 21
153.1990590713
 31
0.0
  0
LINE
  5
2CF
  8
0
  6
CONTINUOUS
 62
     7
 10
307.3518123956
 20
182.2293623441
 30
0.0
 11
307.1072680334
 21
182.1995406211
 31
0.0
  0
ARC
  5
2D0
  8
0
  6
CONTINUOUS
 62
     7
 10
307.113730306
 20
183.2036079946
 30
0.0
 40
1.002914587049575
 50
283.7325585995
 51
344.7754531441
  0
LINE
  5
2D1
  8
0
  6
CONTINUOUS
 62
     7
 10
314.0577685804
 20
205.5645152569
 30
0.0
 11
314.0577685804
 21
205.1990590713
 31
0.0
  0
LINE
  5
2D2
  8
0
  6
CONTINUOUS
 62
     7
 10
314.0577685804
 20
212.6990590713
 30
0.0
 11
314.0577685804
 21
210.3336028857
 31
0.0
  0
LINE
  5
2D3
  8
0
  6
CONTINUOUS
 62
     7
 10
314.5122790159
 20
210.3336028857
 30
0.0
 11
314.0577685804
 21
210.3336028857
 31
0.0
  0
LINE
  5
2D4
  8
0
  6
CONTINUOUS
 62
     7
 10
314.0577685804
 20
205.5645152569
 30
0.0
 11
314.5122790159
 21
205.5645152569
 31
0.0
  0
LINE
  5
2D5
  8
0
  6
CONTINUOUS
 62
     7
 10
199.5504729633
 20
202.5610653571
 30
0.0
 11
199.4534233134
 21
202.1991047603
 31
0.0
  0
LINE
  5
2D6
  8
0
  6
CONTINUOUS
 62
     7
 10
215.6711347184
 20
202.1991047603
 30
0.0
 11
215.5740850685
 21
202.5610653571
 31
0.0
  0
LINE
  5
2D7
  8
0
  6
CONTINUOUS
 62
     7
 10
214.8667894513
 20
210.4490590713
 30
0.0
 11
214.8667894513
 21
212.6990590713
 31
0.0
  0
LINE
  5
2D8
  8
0
  6
CONTINUOUS
 62
     7
 10
214.8667894513
 20
205.1990590713
 30
0.0
 11
214.8667894513
 21
206.9490590713
 31
0.0
  0
LINE
  5
2D9
  8
0
  6
CONTINUOUS
 62
     7
 10
214.3665301003
 20
209.9490590713
 30
0.0
 11
213.8662989592
 21
209.9490590713
 31
0.0
  0
LINE
  5
2DA
  8
0
  6
CONTINUOUS
 62
     7
 10
214.3665301003
 20
207.4490590713
 30
0.0
 11
213.8662989592
 21
207.4490590713
 31
0.0
  0
LINE
  5
2DB
  8
0
  6
CONTINUOUS
 62
     7
 10
212.8659046993
 20
208.4490590713
 30
0.0
 11
212.8659046993
 21
208.9490590713
 31
0.0
  0
LINE
  5
2DC
  8
0
  6
CONTINUOUS
 62
     7
 10
201.2582590725
 20
209.9490590713
 30
0.0
 11
200.7580279315
 21
209.9490590713
 31
0.0
  0
LINE
  5
2DD
  8
0
  6
CONTINUOUS
 62
     7
 10
202.2586533324
 20
208.4490590713
 30
0.0
 11
202.2586533324
 21
208.9490590713
 31
0.0
  0
LINE
  5
2DE
  8
0
  6
CONTINUOUS
 62
     7
 10
201.2582590725
 20
207.4490590713
 30
0.0
 11
200.7580279315
 21
207.4490590713
 31
0.0
  0
LINE
  5
2DF
  8
0
  6
CONTINUOUS
 62
     7
 10
223.5669022766
 20
152.6990590713
 30
0.0
 11
222.5663883316
 21
152.6990590713
 31
0.0
  0
LINE
  5
2E0
  8
0
  6
CONTINUOUS
 62
     7
 10
192.5581697001
 20
152.6990590713
 30
0.0
 11
191.5576557551
 21
152.6990590713
 31
0.0
  0
LINE
  5
2E1
  8
0
  6
CONTINUOUS
 62
     7
 10
200.2577685804
 20
210.4490590713
 30
0.0
 11
200.2577685804
 21
212.6990590713
 31
0.0
  0
LINE
  5
2E2
  8
0
  6
CONTINUOUS
 62
     7
 10
200.2577685804
 20
205.1990590713
 30
0.0
 11
200.2577685804
 21
206.9490590713
 31
0.0
  0
LINE
  5
2E3
  8
0
  6
CONTINUOUS
 62
     7
 10
200.7580279315
 20
213.1990590713
 30
0.0
 11
214.3665301003
 21
213.1990590713
 31
0.0
  0
LINE
  5
2E4
  8
0
  6
CONTINUOUS
 62
     7
 10
215.571761843
 20
202.5696495488
 30
0.0
 11
214.8667894513
 21
205.1990590713
 31
0.0
  0
LINE
  5
2E5
  8
0
  6
CONTINUOUS
 62
     7
 10
200.2577685804
 20
205.1990590713
 30
0.0
 11
199.5527961887
 21
202.5696495488
 31
0.0
  0
LINE
  5
2E6
  8
0
  6
CONTINUOUS
 62
     7
 10
190.9013983056
 20
219.3990590713
 30
0.0
 11
224.2231597262
 21
219.3990590713
 31
0.0
  0
LINE
  5
2E7
  8
0
  6
CONTINUOUS
 62
     7
 10
215.5723743879
 20
202.5673862451
 30
0.0
 11
215.5740850685
 21
202.5610653571
 31
0.0
  0
LINE
  5
2E8
  8
0
  6
CONTINUOUS
 62
     7
 10
199.5504729633
 20
202.5610653571
 30
0.0
 11
199.5521836438
 21
202.5673862451
 31
0.0
  0
POLYLINE
  5
2E9
  8
0
  6
CONTINUOUS
 62
     7
 66
     1
 10
0.0
 20
0.0
 30
0.0
 70
   128
  0
VERTEX
  5
3AF
  8
0
  6
CONTINUOUS
 62
     7
 10
217.0820108951
 20
196.937969899
 30
0.0
  0
VERTEX
  5
3B0
  8
0
  6
CONTINUOUS
 62
     7
 10
216.8229535625
 20
197.9038318448
 30
0.0
  0
VERTEX
  5
3B1
  8
0
  6
CONTINUOUS
 62
     7
 10
215.7869058738
 20
201.7673283451
 30
0.0
  0
VERTEX
  5
3B2
  8
0
  6
CONTINUOUS
 62
     7
 10
215.6711347184
 20
202.1991047603
 30
0.0
  0
SEQEND
  5
3E9
  8
0
  6
CONTINUOUS
 62
     7
  0
POLYLINE
  5
2EA
  8
0
  6
CONTINUOUS
 62
     7
 66
     1
 10
0.0
 20
0.0
 30
0.0
 70
   128
  0
VERTEX
  5
3B3
  8
0
  6
CONTINUOUS
 62
     7
 10
220.8431113509
 20
182.9402400262
 30
0.0
  0
VERTEX
  5
3B4
  8
0
  6
CONTINUOUS
 62
     7
 10
220.7693681084
 20
183.2134752134
 30
0.0
  0
VERTEX
  5
3B5
  8
0
  6
CONTINUOUS
 62
     7
 10
217.0820108951
 20
196.937969899
 30
0.0
  0
SEQEND
  5
3EA
  8
0
  6
CONTINUOUS
 62
     7
  0
POLYLINE
  5
2EB
  8
0
  6
CONTINUOUS
 62
     7
 66
     1
 10
0.0
 20
0.0
 30
0.0
 70
   128
  0
VERTEX
  5
3B6
  8
0
  6
CONTINUOUS
 62
     7
 10
199.4534233134
 20
202.1991047603
 30
0.0
  0
VERTEX
  5
3B7
  8
0
  6
CONTINUOUS
 62
     7
 10
199.1944400729
 20
201.233222945
 30
0.0
  0
VERTEX
  5
3B8
  8
0
  6
CONTINUOUS
 62
     7
 10
198.1583556768
 20
197.369736289
 30
0.0
  0
VERTEX
  5
3B9
  8
0
  6
CONTINUOUS
 62
     7
 10
198.0425471366
 20
196.9379698989
 30
0.0
  0
SEQEND
  5
3EB
  8
0
  6
CONTINUOUS
 62
     7
  0
POLYLINE
  5
2EC
  8
0
  6
CONTINUOUS
 62
     7
 66
     1
 10
0.0
 20
0.0
 30
0.0
 70
   128
  0
VERTEX
  5
3BA
  8
0
  6
CONTINUOUS
 62
     7
 10
198.0425471366
 20
196.9379698989
 30
0.0
  0
VERTEX
  5
3BB
  8
0
  6
CONTINUOUS
 62
     7
 10
196.4089112872
 20
190.8498112748
 30
0.0
  0
VERTEX
  5
3BC
  8
0
  6
CONTINUOUS
 62
     7
 10
195.0031906705
 20
185.6186964995
 30
0.0
  0
VERTEX
  5
3BD
  8
0
  6
CONTINUOUS
 62
     7
 10
194.2814466808
 20
182.9402400262
 30
0.0
  0
SEQEND
  5
3EC
  8
0
  6
CONTINUOUS
 62
     7
  0
ARC
  5
2ED
  8
0
  6
CONTINUOUS
 62
     7
 10
193.3135627657
 20
183.2037799554
 30
0.0
 40
1.003121412091429
 50
283.7395228895
 51
344.7684888541
  0
LINE
  5
2EE
  8
0
  6
CONTINUOUS
 62
     7
 10
193.5518123956
 20
182.2293623441
 30
0.0
 11
193.4754143451
 21
182.2135198382
 31
0.0
  0
LINE
  5
2EF
  8
0
  6
CONTINUOUS
 62
     7
 10
193.058386071
 20
153.1990590713
 30
0.0
 11
193.058386071
 21
181.7205959607
 31
0.0
  0
LINE
  5
2F0
  8
0
  6
CONTINUOUS
 62
     7
 10
221.6491436866
 20
182.2135198382
 30
0.0
 11
221.5727456362
 21
182.2293623441
 31
0.0
  0
ARC
  5
2F1
  8
0
  6
CONTINUOUS
 62
     7
 10
221.8112489182
 20
183.2040403002
 30
0.0
 40
1.003434568719296
 50
195.24204946
 51
256.2499387973
  0
ARC
  5
2F2
  8
0
  6
CONTINUOUS
 62
     7
 10
221.5664815789
 20
181.7207141284
 30
0.0
 40
0.4996903958219605
 50
359.9864505883
 51
80.4779797285
  0
LINE
  5
2F3
  8
0
  6
CONTINUOUS
 62
     7
 10
222.0661719607
 20
153.1990590713
 30
0.0
 11
222.0661719607
 21
181.7205959607
 31
0.0
  0
ARC
  5
2F4
  8
0
  6
CONTINUOUS
 62
     7
 10
112.5662729262
 20
153.1991600337
 30
0.0
 40
0.5001009756638107
 50
180.0115670967
 51
270.0132218186
  0
ARC
  5
2F5
  8
0
  6
CONTINUOUS
 62
     7
 10
101.3122790159
 20
207.9490590713
 30
0.0
 40
2.485165830027702
 50
106.3599811092
 51
253.6400188908
  0
LINE
  5
2F6
  8
0
  6
CONTINUOUS
 62
     7
 10
101.7723743879
 20
202.5673862451
 30
0.0
 11
101.7740850685
 21
202.5610653571
 31
0.0
  0
LINE
  5
2F7
  8
0
  6
CONTINUOUS
 62
     7
 10
113.5669022766
 20
152.6990590713
 30
0.0
 11
112.5663883316
 21
152.6990590713
 31
0.0
  0
LINE
  5
2F8
  8
0
  6
CONTINUOUS
 62
     7
 10
99.5648292676
 20
214.3990590713
 30
0.0
 11
99.5648292676
 21
216.1990590713
 31
0.0
  0
LINE
  5
2F9
  8
0
  6
CONTINUOUS
 62
     7
 10
97.5645201013
 20
214.3990590713
 30
0.0
 11
99.5648292676
 21
214.3990590713
 31
0.0
  0
LINE
  5
2FA
  8
0
  6
CONTINUOUS
 62
     7
 10
97.5645201013
 20
213.1990590713
 30
0.0
 11
97.5645201013
 21
214.3990590713
 31
0.0
  0
LINE
  5
2FB
  8
0
  6
CONTINUOUS
 62
     7
 10
111.0658010731
 20
215.1990590713
 30
0.0
 11
102.5236486457
 21
215.1990590713
 31
0.0
  0
LINE
  5
2FC
  8
0
  6
CONTINUOUS
 62
     7
 10
97.5645201013
 20
213.1990590713
 30
0.0
 11
100.5665301003
 21
213.1990590713
 31
0.0
  0
LINE
  5
2FD
  8
0
  6
CONTINUOUS
 62
     7
 10
101.771761843
 20
202.5696495488
 30
0.0
 11
101.0667894513
 21
205.1990590713
 31
0.0
  0
LINE
  5
2FE
  8
0
  6
CONTINUOUS
 62
     7
 10
99.5648292676
 20
216.1990590713
 30
0.0
 11
101.5195723791
 21
216.1990590713
 31
0.0
  0
LINE
  5
2FF
  8
0
  6
CONTINUOUS
 62
     7
 10
101.8711347184
 20
202.1991047603
 30
0.0
 11
101.7740850685
 21
202.5610653571
 31
0.0
  0
POLYLINE
  5
300
  8
0
  6
CONTINUOUS
 62
     7
 66
     1
 10
0.0
 20
0.0
 30
0.0
 70
   128
  0
VERTEX
  5
3BE
  8
0
  6
CONTINUOUS
 62
     7
 10
103.2820108951
 20
196.937969899
 30
0.0
  0
VERTEX
  5
3BF
  8
0
  6
CONTINUOUS
 62
     7
 10
103.0229535625
 20
197.9038318449
 30
0.0
  0
VERTEX
  5
3C0
  8
0
  6
CONTINUOUS
 62
     7
 10
101.9869058738
 20
201.7673283451
 30
0.0
  0
VERTEX
  5
3C1
  8
0
  6
CONTINUOUS
 62
     7
 10
101.8711347184
 20
202.1991047603
 30
0.0
  0
SEQEND
  5
3ED
  8
0
  6
CONTINUOUS
 62
     7
  0
POLYLINE
  5
301
  8
0
  6
CONTINUOUS
 62
     7
 66
     1
 10
0.0
 20
0.0
 30
0.0
 70
   128
  0
VERTEX
  5
3C2
  8
0
  6
CONTINUOUS
 62
     7
 10
107.0431113509
 20
182.9402400262
 30
0.0
  0
VERTEX
  5
3C3
  8
0
  6
CONTINUOUS
 62
     7
 10
106.9693681083
 20
183.2134752134
 30
0.0
  0
VERTEX
  5
3C4
  8
0
  6
CONTINUOUS
 62
     7
 10
103.2820108951
 20
196.937969899
 30
0.0
  0
SEQEND
  5
3EE
  8
0
  6
CONTINUOUS
 62
     7
  0
LINE
  5
302
  8
0
  6
CONTINUOUS
 62
     7
 10
112.0661719607
 20
181.6997163743
 30
0.0
 11
112.0661719607
 21
153.1990590713
 31
0.0
  0
ARC
  5
303
  8
0
  6
CONTINUOUS
 62
     7
 10
111.5665504669
 20
181.6999190885
 30
0.0
 40
0.4996215349514039
 50
359.9767530681
 51
89.9945306176
  0
ARC
  5
304
  8
0
  6
CONTINUOUS
 62
     7
 10
108.0114526577
 20
183.2042494155
 30
0.0
 40
1.003686128243548
 50
195.250509325
 51
256.2414789315
  0
LINE
  5
305
  8
0
  6
CONTINUOUS
 62
     7
 10
108.0172899983
 20
182.1995406211
 30
0.0
 11
107.7727456362
 21
182.2293623441
 31
0.0
  0
LINE
  5
306
  8
0
  6
CONTINUOUS
 62
     7
 10
100.6122790159
 20
205.5645152569
 30
0.0
 11
101.0667894513
 21
205.5645152569
 31
0.0
  0
LINE
  5
307
  8
0
  6
CONTINUOUS
 62
     7
 10
101.0667894513
 20
210.3336028857
 30
0.0
 11
100.6122790159
 21
210.3336028857
 31
0.0
  0
LINE
  5
308
  8
0
  6
CONTINUOUS
 62
     7
 10
101.0667894513
 20
205.5645152569
 30
0.0
 11
101.0667894513
 21
205.1990590713
 31
0.0
  0
LINE
  5
309
  8
0
  6
CONTINUOUS
 62
     7
 10
101.0667894513
 20
212.6990590713
 30
0.0
 11
101.0667894513
 21
210.3336028857
 31
0.0
  0
POLYLINE
  5
30A
  8
0
  6
CONTINUOUS
 62
     7
 66
     1
 10
0.0
 20
0.0
 30
0.0
 70
   128
  0
VERTEX
  5
3C5
  8
0
  6
CONTINUOUS
 62
     7
 10
164.4474094794
 20
215.1990590713
 30
0.0
  0
VERTEX
  5
3C6
  8
0
  6
CONTINUOUS
 62
     7
 10
141.4681051557
 20
215.1903618085
 30
0.0
  0
VERTEX
  5
3C7
  8
0
  6
CONTINUOUS
 62
     7
 10
135.4702632326
 20
215.1990590713
 30
0.0
  0
SEQEND
  5
3EF
  8
0
  6
CONTINUOUS
 62
     7
  0
LINE
  5
30B
  8
0
  6
CONTINUOUS
 62
     7
 10
164.4474094794
 20
215.1990590713
 30
0.0
 11
185.0622790159
 21
215.1990590713
 31
0.0
  0
LINE
  5
30C
  8
0
  6
CONTINUOUS
 62
     7
 10
120.2799991307
 20
215.1990590713
 30
0.0
 11
135.4702632326
 21
215.1990590713
 31
0.0
  0
LINE
  5
30D
  8
0
  6
CONTINUOUS
 62
     7
 10
120.5853038653
 20
152.6990590713
 30
0.0
 11
184.5392541665
 21
152.6990590713
 31
0.0
  0
LINE
  5
30E
  8
0
  6
CONTINUOUS
 62
     7
 10
279.6542947992
 20
215.1990590713
 30
0.0
 11
269.774499598
 21
215.1953195738
 31
0.0
  0
POLYLINE
  5
30F
  8
0
  6
CONTINUOUS
 62
     7
 66
     1
 10
0.0
 20
0.0
 30
0.0
 70
   128
  0
VERTEX
  5
3C8
  8
0
  6
CONTINUOUS
 62
     7
 10
261.3133582241
 20
215.1921170361
 30
0.0
  0
VERTEX
  5
3C9
  8
0
  6
CONTINUOUS
 62
     7
 10
256.6760269258
 20
215.1903618085
 30
0.0
  0
VERTEX
  5
3CA
  8
0
  6
CONTINUOUS
 62
     7
 10
250.6771485524
 20
215.1990590713
 30
0.0
  0
SEQEND
  5
3F0
  8
0
  6
CONTINUOUS
 62
     7
  0
LINE
  5
310
  8
0
  6
CONTINUOUS
 62
     7
 10
230.0622790159
 20
215.1990590713
 30
0.0
 11
250.6771485524
 21
215.1990590713
 31
0.0
  0
LINE
  5
311
  8
0
  6
CONTINUOUS
 62
     7
 10
279.6542947992
 20
215.1990590713
 30
0.0
 11
294.844558901
 21
215.1990590713
 31
0.0
  0
LINE
  5
312
  8
0
  6
CONTINUOUS
 62
     7
 10
230.5853038653
 20
152.6990590713
 30
0.0
 11
294.5392541665
 21
152.6990590713
 31
0.0
  0
LINE
  5
313
  8
0
  6
CONTINUOUS
 62
     7
 10
113.8610247846
 20
216.1990590713
 30
0.0
 11
185.3300818909
 21
216.1990590713
 31
0.0
  0
LINE
  5
314
  8
0
  6
CONTINUOUS
 62
     7
 10
229.7947227407
 20
216.1990590713
 30
0.0
 11
301.2635332471
 21
216.1990590713
 31
0.0
  0
ARC
  5
315
  8
0
  6
CONTINUOUS
 62
     7
 10
96.7143715216
 20
213.7726386484
 30
0.0
 40
0.2999927285481743
 50
147.9993508511
 51
253.0051774928
  0
LINE
  5
316
  8
0
  6
CONTINUOUS
 62
     7
 10
97.788872123
 20
216.0580348506
 30
0.0
 11
96.4599650605
 21
213.9316134568
 31
0.0
  0
ARC
  5
317
  8
0
  6
CONTINUOUS
 62
     7
 10
98.0433140235
 20
215.8990095087
 30
0.0
 40
0.3000495627691073
 50
89.9983554976
 51
147.9947537705
  0
LINE
  5
318
  8
0
  6
CONTINUOUS
 62
     7
 10
99.5648292676
 20
216.1990590713
 30
0.0
 11
98.0433226355
 21
216.1990590713
 31
0.0
  0
LINE
  5
319
  8
0
  6
CONTINUOUS
 62
     7
 10
96.6266880606
 20
213.4857462507
 30
0.0
 11
97.5645201013
 21
213.1990590713
 31
0.0
  0
ARC
  5
31A
  8
0
  6
CONTINUOUS
 62
     7
 10
317.0812438302
 20
215.8990091874
 30
0.0
 40
0.3000498840665243
 50
32.0052802356
 51
90.0016104964
  0
LINE
  5
31B
  8
0
  6
CONTINUOUS
 62
     7
 10
318.6645929713
 20
213.9316134568
 30
0.0
 11
317.3356859088
 21
216.0580348506
 31
0.0
  0
ARC
  5
31C
  8
0
  6
CONTINUOUS
 62
     7
 10
318.4101905216
 20
213.7726371484
 30
0.0
 40
0.2999901215627556
 50
286.99417354
 51
32.0012981161
  0
LINE
  5
31D
  8
0
  6
CONTINUOUS
 62
     7
 10
317.5600379304
 20
213.1990590713
 30
0.0
 11
318.4978699711
 21
213.4857462507
 31
0.0
  0
LINE
  5
31E
  8
0
  6
CONTINUOUS
 62
     7
 10
317.0812353962
 20
216.1990590713
 30
0.0
 11
315.5597287641
 21
216.1990590713
 31
0.0
  0
DIMENSION
  5
31F
  8
BEMAßUNG
  2
_D
 10
318.6645929713
 20
233.122396929
 30
0.0
 11
210.1072805885
 21
233.122396929
 31
0.0
 70
   160
  1
<>
  3
SLDDIMSTYLE0
 13
96.4599650605
 23
213.9316134568
 33
0.0
 14
318.6645929713
 24
213.9316134568
 34
0.0
  0
DIMENSION
  5
32A
  8
BEMAßUNG
  2
_D_1
 10
346.7270946284
 20
136.6990590713
 30
0.0
 11
346.7270946284
 21
177.9600872418
 31
0.0
 70
   160
  1
<>
  3
SLDDIMSTYLE0
 13
313.6049856527
 23
216.1990590713
 33
0.0
 14
309.793212248
 24
136.6990590713
 34
0.0
 50
90.0
  0
DIMENSION
  5
334
  8
BEMAßUNG
  2
_D_2
 10
334.7270946284
 20
216.1990590713
 30
0.0
 11
334.7270946284
 21
229.4272987135
 31
0.0
 70
   160
  1
<>
  3
SLDDIMSTYLE1
 13
228.5532289137
 23
219.3990590713
 33
0.0
 14
313.6049856527
 24
216.1990590713
 34
0.0
 50
90.0
  0
DIMENSION
  5
341
  8
BEMAßUNG
  2
_D_3
 10
334.7270946283
 20
216.1990590713
 30
0.0
 11
334.7270946284
 21
183.1775179541
 31
0.0
 70
   160
  1
<>
  3
SLDDIMSTYLE2
 13
302.5581697001
 23
152.6990590713
 33
0.0
 14
313.6049856527
 24
216.1990590713
 34
0.0
 50
90.0
  0
ENDSEC
  0
EOF
