  0
SECTION
  2
HEADER
  9
$ACADVER
  1
AC1027
  9
$ACADMAINTVER
 70
   105
  9
$DWGCODEPAGE
  3
ANSI_1252
  9
$REQUIREDVERSIONS
160
                 0
  9
$INSBASE
 10
0.0
 20
0.0
 30
0.0
  9
$EXTMIN
 10
0.0
 20
0.0
 30
0.0
  9
$EXTMAX
 10
840.0
 20
594.0
 30
0.0
  9
$LIMMIN
 10
0.0
 20
0.0
  9
$LIMMAX
 10
840.0
 20
594.0
  9
$ORTHOMODE
 70
     0
  9
$REGENMODE
 70
     1
  9
$FILLMODE
 70
     1
  9
$QTEXTMODE
 70
     0
  9
$MIRRTEXT
 70
     1
  9
$LTSCALE
 40
2.0
  9
$ATTMODE
 70
     1
  9
$TEXTSIZE
 40
7.0
  9
$TRACEWID
 40
1.0
  9
$TEXTSTYLE
  7
Standard
  9
$CLAYER
  8
0
  9
$CELTYPE
  6
ByLayer
  9
$CECOLOR
 62
   256
  9
$CELTSCALE
 40
1.0
  9
$DISPSILH
 70
     0
  9
$DIMSCALE
 40
1.0
  9
$DIMASZ
 40
6.604
  9
$DIMEXO
 40
2.0
  9
$DIMDLI
 40
3.75
  9
$DIMRND
 40
0.0
  9
$DIMDLE
 40
0.0
  9
$DIMEXE
 40
2.0
  9
$DIMTP
 40
0.0
  9
$DIMTM
 40
0.0
  9
$DIMTXT
 40
7.0
  9
$DIMCEN
 40
2.5
  9
$DIMTSZ
 40
0.0
  9
$DIMTOL
 70
     0
  9
$DIMLIM
 70
     0
  9
$DIMTIH
 70
     1
  9
$DIMTOH
 70
     1
  9
$DIMSE1
 70
     0
  9
$DIMSE2
 70
     0
  9
$DIMTAD
 70
     1
  9
$DIMZIN
 70
     1
  9
$DIMBLK
  1

  9
$DIMASO
 70
     1
  9
$DIMSHO
 70
     1
  9
$DIMPOST
  1

  9
$DIMAPOST
  1

  9
$DIMALT
 70
     0
  9
$DIMALTD
 70
     3
  9
$DIMALTF
 40
0.0393700787
  9
$DIMLFAC
 40
1.0
  9
$DIMTOFL
 70
     1
  9
$DIMTVP
 40
0.0
  9
$DIMTIX
 70
     0
  9
$DIMSOXD
 70
     0
  9
$DIMSAH
 70
     0
  9
$DIMBLK1
  1

  9
$DIMBLK2
  1

  9
$DIMSTYLE
  2
ISO-25
  9
$DIMCLRD
 70
     0
  9
$DIMCLRE
 70
     0
  9
$DIMCLRT
 70
     0
  9
$DIMTFAC
 40
1.0
  9
$DIMGAP
 40
3.048
  9
$DIMJUST
 70
     0
  9
$DIMSD1
 70
     0
  9
$DIMSD2
 70
     0
  9
$DIMTOLJ
 70
     0
  9
$DIMTZIN
 70
     1
  9
$DIMALTZ
 70
     0
  9
$DIMALTTZ
 70
     0
  9
$DIMUPT
 70
     0
  9
$DIMDEC
 70
     2
  9
$DIMTDEC
 70
     2
  9
$DIMALTU
 70
     2
  9
$DIMALTTD
 70
     3
  9
$DIMTXSTY
  7
Standard
  9
$DIMAUNIT
 70
     0
  9
$DIMADEC
 70
     2
  9
$DIMALTRND
 40
0.0
  9
$DIMAZIN
 70
     0
  9
$DIMDSEP
 70
    44
  9
$DIMATFIT
 70
     3
  9
$DIMFRAC
 70
     0
  9
$DIMLDRBLK
  1

  9
$DIMLUNIT
 70
     2
  9
$DIMLWD
 70
    -2
  9
$DIMLWE
 70
    -2
  9
$DIMTMOVE
 70
     0
  9
$DIMFXL
 40
1.0
  9
$DIMFXLON
 70
     0
  9
$DIMJOGANG
 40
0.7853981634
  9
$DIMTFILL
 70
     0
  9
$DIMTFILLCLR
 70
     0
  9
$DIMARCSYM
 70
     0
  9
$DIMLTYPE
  6

  9
$DIMLTEX1
  6

  9
$DIMLTEX2
  6

  9
$DIMTXTDIRECTION
 70
     0
  9
$LUNITS
 70
     2
  9
$LUPREC
 70
     2
  9
$SKETCHINC
 40
1.0
  9
$FILLETRAD
 40
10.0
  9
$AUNITS
 70
     0
  9
$AUPREC
 70
     2
  9
$MENU
  1
.
  9
$ELEVATION
 40
0.0
  9
$PELEVATION
 40
0.0
  9
$THICKNESS
 40
0.0
  9
$LIMCHECK
 70
     0
  9
$CHAMFERA
 40
0.0
  9
$CHAMFERB
 40
0.0
  9
$CHAMFERC
 40
0.0
  9
$CHAMFERD
 40
0.0
  9
$SKPOLY
 70
     0
  9
$TDCREATE
 40
2459055.31650037
  9
$TDUCREATE
 40
2459055.233167037
  9
$TDUPDATE
 40
2459055.316501273
  9
$TDUUPDATE
 40
2459055.23316794
  9
$TDINDWG
 40
0.0000000116
  9
$TDUSRTIMER
 40
0.0000000116
  9
$USRTIMER
 70
     1
  9
$ANGBASE
 50
0.0
  9
$ANGDIR
 70
     0
  9
$PDMODE
 70
     0
  9
$PDSIZE
 40
-1.0
  9
$PLINEWID
 40
0.0
  9
$SPLFRAME
 70
     0
  9
$SPLINETYPE
 70
     6
  9
$SPLINESEGS
 70
     8
  9
$HANDSEED
  5
1B2
  9
$SURFTAB1
 70
     6
  9
$SURFTAB2
 70
     6
  9
$SURFTYPE
 70
     6
  9
$SURFU
 70
     6
  9
$SURFV
 70
     6
  9
$UCSBASE
  2

  9
$UCSNAME
  2

  9
$UCSORG
 10
0.0
 20
0.0
 30
0.0
  9
$UCSXDIR
 10
1.0
 20
0.0
 30
0.0
  9
$UCSYDIR
 10
0.0
 20
1.0
 30
0.0
  9
$UCSORTHOREF
  2

  9
$UCSORTHOVIEW
 70
     0
  9
$UCSORGTOP
 10
0.0
 20
0.0
 30
0.0
  9
$UCSORGBOTTOM
 10
0.0
 20
0.0
 30
0.0
  9
$UCSORGLEFT
 10
0.0
 20
0.0
 30
0.0
  9
$UCSORGRIGHT
 10
0.0
 20
0.0
 30
0.0
  9
$UCSORGFRONT
 10
0.0
 20
0.0
 30
0.0
  9
$UCSORGBACK
 10
0.0
 20
0.0
 30
0.0
  9
$PUCSBASE
  2

  9
$PUCSNAME
  2

  9
$PUCSORG
 10
0.0
 20
0.0
 30
0.0
  9
$PUCSXDIR
 10
1.0
 20
0.0
 30
0.0
  9
$PUCSYDIR
 10
0.0
 20
1.0
 30
0.0
  9
$PUCSORTHOREF
  2

  9
$PUCSORTHOVIEW
 70
     0
  9
$PUCSORGTOP
 10
0.0
 20
0.0
 30
0.0
  9
$PUCSORGBOTTOM
 10
0.0
 20
0.0
 30
0.0
  9
$PUCSORGLEFT
 10
0.0
 20
0.0
 30
0.0
  9
$PUCSORGRIGHT
 10
0.0
 20
0.0
 30
0.0
  9
$PUCSORGFRONT
 10
0.0
 20
0.0
 30
0.0
  9
$PUCSORGBACK
 10
0.0
 20
0.0
 30
0.0
  9
$USERI1
 70
     0
  9
$USERI2
 70
     0
  9
$USERI3
 70
     0
  9
$USERI4
 70
     0
  9
$USERI5
 70
     0
  9
$USERR1
 40
0.0
  9
$USERR2
 40
0.0
  9
$USERR3
 40
0.0
  9
$USERR4
 40
0.0
  9
$USERR5
 40
0.0
  9
$WORLDVIEW
 70
     1
  9
$SHADEDGE
 70
     3
  9
$SHADEDIF
 70
    70
  9
$TILEMODE
 70
     1
  9
$MAXACTVP
 70
    64
  9
$PINSBASE
 10
0.0
 20
0.0
 30
0.0
  9
$PLIMCHECK
 70
     0
  9
$PEXTMIN
 10
1.0000000000E+20
 20
1.0000000000E+20
 30
1.0000000000E+20
  9
$PEXTMAX
 10
-1.0000000000E+20
 20
-1.0000000000E+20
 30
-1.0000000000E+20
  9
$PLIMMIN
 10
0.0
 20
0.0
  9
$PLIMMAX
 10
420.0
 20
297.0
  9
$UNITMODE
 70
     0
  9
$VISRETAIN
 70
     1
  9
$PLINEGEN
 70
     0
  9
$PSLTSCALE
 70
     1
  9
$TREEDEPTH
 70
  3020
  9
$CMLSTYLE
  2
Standard
  9
$CMLJUST
 70
     0
  9
$CMLSCALE
 40
20.0
  9
$PROXYGRAPHICS
 70
     1
  9
$MEASUREMENT
 70
     1
  9
$CELWEIGHT
370
    -1
  9
$ENDCAPS
280
     0
  9
$JOINSTYLE
280
     0
  9
$LWDISPLAY
290
     1
  9
$INSUNITS
 70
     4
  9
$HYPERLINKBASE
  1

  9
$STYLESHEET
  1

  9
$XEDIT
290
     1
  9
$CEPSNTYPE
380
     0
  9
$PSTYLEMODE
290
     1
  9
$FINGERPRINTGUID
  2
{AD15FE0F-9CBC-40BC-B567-3AAC8AC372EC}
  9
$VERSIONGUID
  2
{FAEB1C32-E019-11D5-929B-00C0DF256EC4}
  9
$EXTNAMES
290
     1
  9
$PSVPSCALE
 40
0.0
  9
$OLESTARTUP
290
     0
  9
$SORTENTS
280
   127
  9
$INDEXCTL
280
     0
  9
$HIDETEXT
280
     1
  9
$XCLIPFRAME
280
     2
  9
$HALOGAP
280
     0
  9
$OBSCOLOR
 70
   257
  9
$OBSLTYPE
280
     0
  9
$INTERSECTIONDISPLAY
280
     0
  9
$INTERSECTIONCOLOR
 70
   257
  9
$DIMASSOC
280
     2
  9
$PROJECTNAME
  1

  9
$CAMERADISPLAY
290
     0
  9
$LENSLENGTH
 40
50.0
  9
$CAMERAHEIGHT
 40
0.0
  9
$STEPSPERSEC
 40
2.0
  9
$STEPSIZE
 40
6.0
  9
$3DDWFPREC
 40
2.0
  9
$PSOLWIDTH
 40
5.0
  9
$PSOLHEIGHT
 40
80.0
  9
$LOFTANG1
 40
1.5707963268
  9
$LOFTANG2
 40
1.5707963268
  9
$LOFTMAG1
 40
0.0
  9
$LOFTMAG2
 40
0.0
  9
$LOFTPARAM
 70
     7
  9
$LOFTNORMALS
280
     1
  9
$LATITUDE
 40
37.795
  9
$LONGITUDE
 40
-122.394
  9
$NORTHDIRECTION
 40
0.0
  9
$TIMEZONE
 70
 -8000
  9
$LIGHTGLYPHDISPLAY
280
     1
  9
$TILEMODELIGHTSYNCH
280
     1
  9
$CMATERIAL
347
44
  9
$SOLIDHIST
280
     0
  9
$SHOWHIST
280
     1
  9
$DWFFRAME
280
     2
  9
$DGNFRAME
280
     2
  9
$REALWORLDSCALE
290
     1
  9
$INTERFERECOLOR
 62
   256
  9
$CSHADOW
280
     0
  9
$SHADOWPLANELOCATION
 40
0.0
  0
ENDSEC
  0
SECTION
  2
CLASSES
  0
CLASS
  1
ACDBDICTIONARYWDFLT
  2
AcDbDictionaryWithDefault
  3
ObjectDBX Classes
 90
        0
 91
        4
280
     0
281
     0
  0
CLASS
  1
VISUALSTYLE
  2
AcDbVisualStyle
  3
ObjectDBX Classes
 90
     4095
 91
        4
280
     0
281
     0
  0
CLASS
  1
MATERIAL
  2
AcDbMaterial
  3
ObjectDBX Classes
 90
     1153
 91
        4
280
     0
281
     0
  0
CLASS
  1
SCALE
  2
AcDbScale
  3
ObjectDBX Classes
 90
     1153
 91
        4
280
     0
281
     0
  0
CLASS
  1
TABLESTYLE
  2
AcDbTableStyle
  3
ObjectDBX Classes
 90
     4095
 91
        4
280
     0
281
     0
  0
CLASS
  1
MLEADERSTYLE
  2
AcDbMLeaderStyle
  3
ACDB_MLEADERSTYLE_CLASS
 90
     4095
 91
        4
280
     0
281
     0
  0
CLASS
  1
SUN
  2
AcDbSun
  3
SCENEOE
 90
     1153
 91
        4
280
     0
281
     0
  0
CLASS
  1
DICTIONARYVAR
  2
AcDbDictionaryVar
  3
ObjectDBX Classes
 90
        0
 91
        4
280
     0
281
     0
  0
CLASS
  1
CELLSTYLEMAP
  2
AcDbCellStyleMap
  3
ObjectDBX Classes
 90
     1152
 91
        4
280
     0
281
     0
  0
ENDSEC
  0
SECTION
  2
TABLES
  0
TABLE
  2
VPORT
  5
8
330
0
100
AcDbSymbolTable
 70
     1
  0
VPORT
  5
29
330
8
100
AcDbSymbolTableRecord
100
AcDbViewportTableRecord
  2
*Active
 70
     0
 10
0.0
 20
0.0
 11
1.0
 21
1.0
 12
420.0
 22
297.0
 13
0.0
 23
0.0
 14
10.0
 24
10.0
 15
10.0
 25
10.0
 16
0.0
 26
0.0
 36
1.0
 17
0.0
 27
0.0
 37
0.0
 40
594.0
 41
1.4141414141
 42
50.0
 43
0.0
 44
0.0
 50
0.0
 51
0.0
 71
     0
 72
  2000
 73
     1
 74
     3
 75
     0
 76
     0
 77
     0
 78
     0
281
     0
 65
     1
110
0.0
120
0.0
130
0.0
111
1.0
121
0.0
131
0.0
112
0.0
122
1.0
132
0.0
 79
     0
146
0.0
348
2F
 60
     3
 61
     5
292
     1
282
     1
141
0.0
142
0.0
 63
   250
361
6D
  0
ENDTAB
  0
TABLE
  2
LTYPE
  5
5
330
0
100
AcDbSymbolTable
 70
     8
  0
LTYPE
  5
14
330
5
100
AcDbSymbolTableRecord
100
AcDbLinetypeTableRecord
  2
ByBlock
 70
     0
  3

 72
    65
 73
     0
 40
0.0
  0
LTYPE
  5
15
330
5
100
AcDbSymbolTableRecord
100
AcDbLinetypeTableRecord
  2
ByLayer
 70
     0
  3

 72
    65
 73
     0
 40
0.0
  0
LTYPE
  5
16
330
5
100
AcDbSymbolTableRecord
100
AcDbLinetypeTableRecord
  2
Continuous
 70
     0
  3
Solid line
 72
    65
 73
     0
 40
0.0
  0
LTYPE
  5
6E
330
5
100
AcDbSymbolTableRecord
100
AcDbLinetypeTableRecord
  2
SLD-Durchgehend
 70
     0
  3
SolidWorks Line Style
 72
    65
 73
     0
 40
0.0
  0
LTYPE
  5
6F
330
5
100
AcDbSymbolTableRecord
100
AcDbLinetypeTableRecord
  2
SLD-Gestrichelt
 70
     0
  3
SolidWorks Line Style
 72
    65
 73
     2
 40
1.905
 49
1.27
 74
     0
 49
-0.635
 74
     0
  0
LTYPE
  5
70
330
5
100
AcDbSymbolTableRecord
100
AcDbLinetypeTableRecord
  2
SLD-Phantom
 70
     0
  3
SolidWorks Line Style
 72
    65
 73
     6
 40
12.7
 49
6.35
 74
     0
 49
-1.27
 74
     0
 49
1.27
 74
     0
 49
-1.27
 74
     0
 49
1.27
 74
     0
 49
-1.27
 74
     0
  0
LTYPE
  5
71
330
5
100
AcDbSymbolTableRecord
100
AcDbLinetypeTableRecord
  2
SLD-Kette
 70
     0
  3
SolidWorks Line Style
 72
    65
 73
     4
 40
10.16
 49
6.35
 74
     0
 49
-1.27
 74
     0
 49
1.27
 74
     0
 49
-1.27
 74
     0
  0
LTYPE
  5
72
330
5
100
AcDbSymbolTableRecord
100
AcDbLinetypeTableRecord
  2
SLD-Punktstrich
 70
     0
  3
SolidWorks Line Style
 72
    65
 73
     4
 40
19.05
 49
15.24
 74
     0
 49
-1.27
 74
     0
 49
1.27
 74
     0
 49
-1.27
 74
     0
  0
LTYPE
  5
73
330
5
100
AcDbSymbolTableRecord
100
AcDbLinetypeTableRecord
  2
SLD-Naht
 70
     0
  3
SolidWorks Line Style
 72
    65
 73
     2
 40
0.635
 49
0.0
 74
     0
 49
-0.635
 74
     0
  0
LTYPE
  5
74
330
5
100
AcDbSymbolTableRecord
100
AcDbLinetypeTableRecord
  2
SLD-Dicke-Dünne-Kette
 70
     0
  3
SolidWorks Line Style
 72
    65
 73
     4
 40
10.16
 49
6.35
 74
     0
 49
-1.27
 74
     0
 49
1.27
 74
     0
 49
-1.27
 74
     0
  0
ENDTAB
  0
TABLE
  2
LAYER
  5
2
330
0
100
AcDbSymbolTable
 70
     1
  0
LAYER
  5
10
330
2
100
AcDbSymbolTableRecord
100
AcDbLayerTableRecord
  2
0
 70
     0
 62
     7
  6
Continuous
370
    -3
390
F
347
46
348
0
  0
ENDTAB
  0
TABLE
  2
STYLE
  5
3
330
0
100
AcDbSymbolTable
 70
     4
  0
STYLE
  5
11
330
3
100
AcDbSymbolTableRecord
100
AcDbTextStyleTableRecord
  2
Standard
 70
     0
 40
0.0
 41
1.0
 50
0.0
 71
     0
 42
7.0
  3
txt
  4

  0
STYLE
  5
175
330
3
100
AcDbSymbolTableRecord
100
AcDbTextStyleTableRecord
  2
SLDTEXTSTYLE0
 70
     0
 40
0.0
 41
0.605
 50
0.0
 71
     0
 42
7.0
  3
TXT
  4

  0
STYLE
  5
180
330
3
100
AcDbSymbolTableRecord
100
AcDbTextStyleTableRecord
  2
SLDTEXTSTYLE1
 70
     0
 40
0.0
 41
0.845
 50
0.0
 71
     0
 42
7.0
  3
TXT
  4

  0
STYLE
  5
198
330
3
100
AcDbSymbolTableRecord
100
AcDbTextStyleTableRecord
  2
SLDTEXTSTYLE2
 70
     0
 40
0.0
 41
0.96
 50
0.0
 71
     0
 42
7.0
  3
TXT
  4

  0
ENDTAB
  0
TABLE
  2
VIEW
  5
6
330
0
100
AcDbSymbolTable
 70
     0
  0
ENDTAB
  0
TABLE
  2
UCS
  5
7
330
0
100
AcDbSymbolTable
 70
     0
  0
ENDTAB
  0
TABLE
  2
APPID
  5
9
330
0
100
AcDbSymbolTable
 70
     1
  0
APPID
  5
12
330
9
100
AcDbSymbolTableRecord
100
AcDbRegAppTableRecord
  2
ACAD
 70
     0
  0
ENDTAB
  0
TABLE
  2
DIMSTYLE
  5
A
330
0
100
AcDbSymbolTable
 70
     3
100
AcDbDimStyleTable
  0
DIMSTYLE
105
27
330
A
100
AcDbSymbolTableRecord
100
AcDbDimStyleTableRecord
  2
ISO-25
 70
     0
 41
2.5
 42
0.625
 43
3.75
 44
1.25
 73
     0
 74
     0
 77
     1
 78
     8
140
2.5
141
2.5
143
0.0393700787
147
0.625
171
     3
172
     1
178
     0
271
     2
272
     2
274
     3
278
    44
283
     0
284
     8
340
11
  0
DIMSTYLE
105
176
102
{ACAD_REACTORS
330
174
330
184
330
19C
102
}
330
A
100
AcDbSymbolTableRecord
100
AcDbDimStyleTableRecord
  2
SLDDIMSTYLE0
 70
     0
 41
6.604
 44
0.0
 45
0.000000001
 73
     0
 74
     0
 77
     1
 78
    12
 79
     3
140
12.0
147
3.0
173
     1
178
     0
271
     0
272
     0
276
     2
284
    12
340
175
341
177
343
177
344
177
  0
DIMSTYLE
105
18F
102
{ACAD_REACTORS
330
18E
102
}
330
A
100
AcDbSymbolTableRecord
100
AcDbDimStyleTableRecord
  2
SLDDIMSTYLE1
 70
     0
 41
6.604
 44
0.0
 45
0.000000001
 73
     0
 74
     0
 77
     1
 78
    12
 79
     3
140
12.0
147
3.0
173
     1
178
     0
271
     1
272
     1
276
     2
284
    12
340
175
341
177
343
177
344
177
  0
ENDTAB
  0
TABLE
  2
BLOCK_RECORD
  5
1
330
0
100
AcDbSymbolTable
 70
     6
  0
BLOCK_RECORD
  5
1F
330
1
100
AcDbSymbolTableRecord
100
AcDbBlockTableRecord
  2
*Model_Space
340
22
 70
     0
280
     1
281
     0
  0
BLOCK_RECORD
  5
1B
330
1
100
AcDbSymbolTableRecord
100
AcDbBlockTableRecord
  2
*Paper_Space
340
1E
 70
     0
280
     1
281
     0
  0
BLOCK_RECORD
  5
23
330
1
100
AcDbSymbolTableRecord
100
AcDbBlockTableRecord
  2
*Paper_Space0
340
26
 70
     0
280
     1
281
     0
  0
BLOCK_RECORD
  5
177
330
1
100
AcDbSymbolTableRecord
100
AcDbBlockTableRecord
  2
_NONE
340
0
 70
     0
280
     1
281
     0
  0
BLOCK_RECORD
  5
17A
330
1
100
AcDbSymbolTableRecord
100
AcDbBlockTableRecord
  2
_D
340
0
 70
     0
280
     1
281
     0
  0
BLOCK_RECORD
  5
185
330
1
100
AcDbSymbolTableRecord
100
AcDbBlockTableRecord
  2
_D_1
340
0
 70
     0
280
     1
281
     0
  0
BLOCK_RECORD
  5
190
330
1
100
AcDbSymbolTableRecord
100
AcDbBlockTableRecord
  2
_D_2
340
0
 70
     0
280
     1
281
     0
  0
BLOCK_RECORD
  5
19D
330
1
100
AcDbSymbolTableRecord
100
AcDbBlockTableRecord
  2
_D_3
340
0
 70
     0
280
     1
281
     0
  0
ENDTAB
  0
ENDSEC
  0
SECTION
  2
BLOCKS
  0
BLOCK
  5
20
330
1F
100
AcDbEntity
  8
0
100
AcDbBlockBegin
  2
*Model_Space
 70
     0
 10
0.0
 20
0.0
 30
0.0
  3
*Model_Space
  1

  0
ENDBLK
  5
21
330
1F
100
AcDbEntity
  8
0
100
AcDbBlockEnd
  0
BLOCK
  5
1C
330
1B
100
AcDbEntity
 67
     1
  8
0
100
AcDbBlockBegin
  2
*Paper_Space
 70
     0
 10
0.0
 20
0.0
 30
0.0
  3
*Paper_Space
  1

  0
ENDBLK
  5
1D
330
1B
100
AcDbEntity
 67
     1
  8
0
100
AcDbBlockEnd
  0
BLOCK
  5
24
330
23
100
AcDbEntity
  8
0
100
AcDbBlockBegin
  2
*Paper_Space0
 70
     0
 10
0.0
 20
0.0
 30
0.0
  3
*Paper_Space0
  1

  0
ENDBLK
  5
25
330
23
100
AcDbEntity
  8
0
100
AcDbBlockEnd
  0
BLOCK
  5
178
330
177
100
AcDbEntity
  8
0
100
AcDbBlockBegin
  2
_NONE
 70
     0
 10
0.0
 20
0.0
 30
0.0
  3
_NONE
  1

  0
ENDBLK
  5
179
330
177
100
AcDbEntity
  8
0
100
AcDbBlockEnd
  0
BLOCK
  5
17B
330
17A
100
AcDbEntity
  8
0
100
AcDbBlockBegin
  2
_D
 70
     0
 10
0.0
 20
0.0
 30
0.0
  3
_D
  1

  0
LINE
  5
17D
330
17A
100
AcDbEntity
  8
0
  6
SLD-Durchgehend
 62
   250
420
  1644836
370
    18
100
AcDbLine
 10
226.4904
 20
413.7080421053
 30
0.0
 11
226.4904
 21
439.8035433278
 31
0.0
  0
LINE
  5
17E
330
17A
100
AcDbEntity
  8
0
  6
SLD-Durchgehend
 62
   250
420
  1644836
370
    18
100
AcDbLine
 10
508.4904
 20
413.7080421053
 30
0.0
 11
508.4904
 21
439.8035433278
 31
0.0
  0
LINE
  5
17F
330
17A
100
AcDbEntity
  8
0
  6
SLD-Durchgehend
 62
   250
420
  1644836
370
    18
100
AcDbLine
 10
226.4904
 20
437.8035433278
 30
0.0
 11
508.4904
 21
437.8035433278
 31
0.0
  0
MTEXT
  5
181
330
17A
100
AcDbEntity
  8
0
  6
SLD-Durchgehend
 62
   250
420
  1644836
370
    18
100
AcDbMText
 10
337.4324418508
 20
452.3728251556
 30
0.0
 40
12.0
 41
0.0
 46
0.0
 71
     1
 72
     1
  1
72 x 282
  7
SLDTEXTSTYLE1
 73
     1
 44
1.0
  0
SOLID
  5
182
330
17A
100
AcDbEntity
  8
0
  6
SLD-Durchgehend
 62
   250
420
  1644836
370
    18
100
AcDbTrace
 10
226.4904
 20
437.8035433278
 30
0.0
 11
238.4904
 21
435.9573894817
 31
0.0
 12
238.4904
 22
439.649697174
 32
0.0
 13
238.4904
 23
439.649697174
 33
0.0
  0
SOLID
  5
183
330
17A
100
AcDbEntity
  8
0
  6
SLD-Durchgehend
 62
   250
420
  1644836
370
    18
100
AcDbTrace
 10
508.4904
 20
437.8035433278
 30
0.0
 11
496.4904
 21
439.649697174
 31
0.0
 12
496.4904
 22
435.9573894817
 32
0.0
 13
496.4904
 23
435.9573894817
 33
0.0
  0
ENDBLK
  5
17C
330
17A
100
AcDbEntity
  8
0
100
AcDbBlockEnd
  0
BLOCK
  5
186
330
185
100
AcDbEntity
  8
0
100
AcDbBlockBegin
  2
_D_1
 70
     0
 10
0.0
 20
0.0
 30
0.0
  3
_D_1
  1

  0
LINE
  5
188
330
185
100
AcDbEntity
  8
0
  6
SLD-Durchgehend
 62
   250
420
  1644836
370
    18
100
AcDbLine
 10
506.9904
 20
413.7080421053
 30
0.0
 11
506.9904
 21
419.4607937783
 31
0.0
  0
LINE
  5
189
330
185
100
AcDbEntity
  8
0
  6
SLD-Durchgehend
 62
   250
420
  1644836
370
    18
100
AcDbLine
 10
227.9904
 20
413.7080421053
 30
0.0
 11
227.9904
 21
419.4607937783
 31
0.0
  0
LINE
  5
18A
330
185
100
AcDbEntity
  8
0
  6
SLD-Durchgehend
 62
   250
420
  1644836
370
    18
100
AcDbLine
 10
506.9904
 20
417.4607937783
 30
0.0
 11
227.9904
 21
417.4607937783
 31
0.0
  0
MTEXT
  5
18B
330
185
100
AcDbEntity
  8
0
  6
SLD-Durchgehend
 62
   250
420
  1644836
370
    18
100
AcDbMText
 10
337.4324418508
 20
432.0300756061
 30
0.0
 40
12.0
 41
0.0
 46
0.0
 71
     1
 72
     1
  1
69 x 279
  7
SLDTEXTSTYLE1
 73
     1
 44
1.0
  0
SOLID
  5
18C
330
185
100
AcDbEntity
  8
0
  6
SLD-Durchgehend
 62
   250
420
  1644836
370
    18
100
AcDbTrace
 10
506.9904
 20
417.4607937783
 30
0.0
 11
494.9904
 21
419.3069476245
 31
0.0
 12
494.9904
 22
415.6146399322
 32
0.0
 13
494.9904
 23
415.6146399322
 33
0.0
  0
SOLID
  5
18D
330
185
100
AcDbEntity
  8
0
  6
SLD-Durchgehend
 62
   250
420
  1644836
370
    18
100
AcDbTrace
 10
227.9904
 20
417.4607937783
 30
0.0
 11
239.9904
 21
415.6146399322
 31
0.0
 12
239.9904
 22
419.3069476245
 32
0.0
 13
239.9904
 23
419.3069476245
 33
0.0
  0
ENDBLK
  5
187
330
185
100
AcDbEntity
  8
0
100
AcDbBlockEnd
  0
BLOCK
  5
191
330
190
100
AcDbEntity
  8
0
100
AcDbBlockBegin
  2
_D_2
 70
     0
 10
0.0
 20
0.0
 30
0.0
  3
_D_2
  1

  0
LINE
  5
193
330
190
100
AcDbEntity
  8
0
  6
SLD-Durchgehend
 62
   250
420
  1644836
370
    18
100
AcDbLine
 10
510.4904
 20
411.7080421053
 30
0.0
 11
529.0496761783
 21
411.7080421053
 31
0.0
  0
LINE
  5
194
330
190
100
AcDbEntity
  8
0
  6
SLD-Durchgehend
 62
   250
420
  1644836
370
    18
100
AcDbLine
 10
507.9904
 20
402.2080421053
 30
0.0
 11
529.0496761783
 21
402.2080421053
 31
0.0
  0
LINE
  5
195
330
190
100
AcDbEntity
  8
0
  6
SLD-Durchgehend
 62
   250
420
  1644836
370
    18
100
AcDbLine
 10
527.0496761783
 20
411.7080421053
 30
0.0
 11
527.0496761783
 21
434.7849651822
 31
0.0
  0
LINE
  5
196
330
190
100
AcDbEntity
  8
0
  6
SLD-Durchgehend
 62
   250
420
  1644836
370
    18
100
AcDbLine
 10
527.0496761783
 20
411.7080421053
 30
0.0
 11
527.0496761783
 21
402.2080421053
 31
0.0
  0
LINE
  5
197
330
190
100
AcDbEntity
  8
0
  6
SLD-Durchgehend
 62
   250
420
  1644836
370
    18
100
AcDbLine
 10
527.0496761783
 20
402.2080421053
 30
0.0
 11
527.0496761783
 21
377.0627257154
 31
0.0
  0
MTEXT
  5
199
330
190
100
AcDbEntity
  8
0
  6
SLD-Durchgehend
 62
   250
420
  1644836
370
    18
100
AcDbMText
 10
512.4803943505
 20
377.0627257154
 30
0.0
 40
12.0
 41
0.0
 46
0.0
 71
     1
 72
     1
  1
9,5
  7
SLDTEXTSTYLE2
 11
-7.044195017643634E-15
 21
1.0
 31
0.0
 73
     1
 44
1.0
  0
SOLID
  5
19A
330
190
100
AcDbEntity
  8
0
  6
SLD-Durchgehend
 62
   250
420
  1644836
370
    18
100
AcDbTrace
 10
527.0496761783
 20
411.7080421053
 30
0.0
 11
528.8958300245
 21
423.7080421053
 31
0.0
 12
525.2035223322
 22
423.7080421053
 32
0.0
 13
525.2035223322
 23
423.7080421053
 33
0.0
  0
SOLID
  5
19B
330
190
100
AcDbEntity
  8
0
  6
SLD-Durchgehend
 62
   250
420
  1644836
370
    18
100
AcDbTrace
 10
527.0496761783
 20
402.2080421053
 30
0.0
 11
525.2035223322
 21
390.2080421053
 31
0.0
 12
528.8958300245
 22
390.2080421053
 32
0.0
 13
528.8958300245
 23
390.2080421053
 33
0.0
  0
ENDBLK
  5
192
330
190
100
AcDbEntity
  8
0
100
AcDbBlockEnd
  0
BLOCK
  5
19E
330
19D
100
AcDbEntity
  8
0
100
AcDbBlockBegin
  2
_D_3
 70
     0
 10
0.0
 20
0.0
 30
0.0
  3
_D_3
  1

  0
LINE
  5
1A0
330
19D
100
AcDbEntity
  8
0
  6
SLD-Durchgehend
 62
   250
420
  1644836
370
    18
100
AcDbLine
 10
510.4904
 20
411.7080421053
 30
0.0
 11
546.9936834029
 21
411.7080421053
 31
0.0
  0
LINE
  5
1A1
330
19D
100
AcDbEntity
  8
0
  6
SLD-Durchgehend
 62
   250
420
  1644836
370
    18
100
AcDbLine
 10
503.2404
 20
400.7080421053
 30
0.0
 11
546.9936834029
 21
400.7080421053
 31
0.0
  0
LINE
  5
1A2
330
19D
100
AcDbEntity
  8
0
  6
SLD-Durchgehend
 62
   250
420
  1644836
370
    18
100
AcDbLine
 10
544.9936834029
 20
411.7080421053
 30
0.0
 11
544.9936834029
 21
434.7849651822
 31
0.0
  0
LINE
  5
1A3
330
19D
100
AcDbEntity
  8
0
  6
SLD-Durchgehend
 62
   250
420
  1644836
370
    18
100
AcDbLine
 10
544.9936834029
 20
411.7080421053
 30
0.0
 11
544.9936834029
 21
400.7080421053
 31
0.0
  0
LINE
  5
1A4
330
19D
100
AcDbEntity
  8
0
  6
SLD-Durchgehend
 62
   250
420
  1644836
370
    18
100
AcDbLine
 10
544.9936834029
 20
400.7080421053
 30
0.0
 11
544.9936834029
 21
371.6606511711
 31
0.0
  0
MTEXT
  5
1A5
330
19D
100
AcDbEntity
  8
0
  6
SLD-Durchgehend
 62
   250
420
  1644836
370
    18
100
AcDbMText
 10
530.4244015752
 20
371.6606511711
 30
0.0
 40
12.0
 41
0.0
 46
0.0
 71
     1
 72
     1
  1
11
  7
SLDTEXTSTYLE2
 11
-7.044195017643634E-15
 21
1.0
 31
0.0
 73
     1
 44
1.0
  0
SOLID
  5
1A6
330
19D
100
AcDbEntity
  8
0
  6
SLD-Durchgehend
 62
   250
420
  1644836
370
    18
100
AcDbTrace
 10
544.9936834029
 20
411.7080421053
 30
0.0
 11
546.8398372491
 21
423.7080421053
 31
0.0
 12
543.1475295568
 22
423.7080421053
 32
0.0
 13
543.1475295568
 23
423.7080421053
 33
0.0
  0
SOLID
  5
1A7
330
19D
100
AcDbEntity
  8
0
  6
SLD-Durchgehend
 62
   250
420
  1644836
370
    18
100
AcDbTrace
 10
544.9936834029
 20
400.7080421053
 30
0.0
 11
543.1475295568
 21
388.7080421053
 31
0.0
 12
546.8398372491
 22
388.7080421053
 32
0.0
 13
546.8398372491
 23
388.7080421053
 33
0.0
  0
ENDBLK
  5
19F
330
19D
100
AcDbEntity
  8
0
100
AcDbBlockEnd
  0
ENDSEC
  0
SECTION
  2
ENTITIES
  0
LINE
  5
75
330
1F
100
AcDbEntity
  8
0
  6
SLD-Durchgehend
 62
   179
420
  2171202
370
    18
100
AcDbLine
 10
227.9904
 20
411.7080421053
 30
0.0
 11
226.4904
 21
411.7080421053
 31
0.0
  0
LINE
  5
76
330
1F
100
AcDbEntity
  8
0
  6
SLD-Durchgehend
 62
   179
420
  2171202
370
    18
100
AcDbLine
 10
226.4904
 20
411.7080421053
 30
0.0
 11
226.4904
 21
403.2080421053
 31
0.0
  0
LINE
  5
77
330
1F
100
AcDbEntity
  8
0
  6
SLD-Durchgehend
 62
   179
420
  2171202
370
    18
100
AcDbLine
 10
228.9904
 20
400.7080421053
 30
0.0
 11
233.7404
 21
400.7080421053
 31
0.0
  0
LINE
  5
78
330
1F
100
AcDbEntity
  8
0
  6
SLD-Durchgehend
 62
   179
420
  2171202
370
    18
100
AcDbLine
 10
233.7404
 20
400.7080421053
 30
0.0
 11
233.7404
 21
402.2080421053
 31
0.0
  0
LINE
  5
79
330
1F
100
AcDbEntity
  8
0
  6
SLD-Durchgehend
 62
   179
420
  2171202
370
    18
100
AcDbLine
 10
233.7404
 20
402.2080421053
 30
0.0
 11
228.9904
 21
402.2080421053
 31
0.0
  0
LINE
  5
7A
330
1F
100
AcDbEntity
  8
0
  6
SLD-Durchgehend
 62
   179
420
  2171202
370
    18
100
AcDbLine
 10
227.9904
 20
403.2080421053
 30
0.0
 11
227.9904
 21
411.7080421053
 31
0.0
  0
LINE
  5
7B
330
1F
100
AcDbEntity
  8
0
  6
SLD-Durchgehend
 62
   179
420
  2171202
370
    18
100
AcDbLine
 10
416.2404
 20
400.7080421053
 30
0.0
 11
416.2404
 21
401.9330421053
 31
0.0
  0
LINE
  5
7C
330
1F
100
AcDbEntity
  8
0
  6
SLD-Durchgehend
 62
   179
420
  2171202
370
    18
100
AcDbLine
 10
416.2404
 20
401.9330421053
 30
0.0
 11
415.9654
 21
402.2080421053
 31
0.0
  0
LINE
  5
7D
330
1F
100
AcDbEntity
  8
0
  6
SLD-Durchgehend
 62
   179
420
  2171202
370
    18
100
AcDbLine
 10
415.9654
 20
402.2080421053
 30
0.0
 11
369.0154
 21
402.2080421053
 31
0.0
  0
LINE
  5
7E
330
1F
100
AcDbEntity
  8
0
  6
SLD-Durchgehend
 62
   179
420
  2171202
370
    18
100
AcDbLine
 10
369.0154
 20
402.2080421053
 30
0.0
 11
368.7404
 21
401.9330421053
 31
0.0
  0
LINE
  5
7F
330
1F
100
AcDbEntity
  8
0
  6
SLD-Durchgehend
 62
   179
420
  2171202
370
    18
100
AcDbLine
 10
368.7404
 20
401.9330421053
 30
0.0
 11
368.7404
 21
400.9080421053
 31
0.0
  0
LINE
  5
80
330
1F
100
AcDbEntity
  8
0
  6
SLD-Durchgehend
 62
   179
420
  2171202
370
    18
100
AcDbLine
 10
368.7404
 20
400.9080421053
 30
0.0
 11
368.9404
 21
400.7080421053
 31
0.0
  0
LINE
  5
81
330
1F
100
AcDbEntity
  8
0
  6
SLD-Durchgehend
 62
   179
420
  2171202
370
    18
100
AcDbLine
 10
368.9404
 20
400.7080421053
 30
0.0
 11
416.2404
 21
400.7080421053
 31
0.0
  0
LINE
  5
82
330
1F
100
AcDbEntity
  8
0
  6
SLD-Durchgehend
 62
   179
420
  2171202
370
    18
100
AcDbLine
 10
365.9654
 20
402.2080421053
 30
0.0
 11
319.0154
 21
402.2080421053
 31
0.0
  0
LINE
  5
83
330
1F
100
AcDbEntity
  8
0
  6
SLD-Durchgehend
 62
   179
420
  2171202
370
    18
100
AcDbLine
 10
319.0154
 20
402.2080421053
 30
0.0
 11
318.7404
 21
401.9330421053
 31
0.0
  0
LINE
  5
84
330
1F
100
AcDbEntity
  8
0
  6
SLD-Durchgehend
 62
   179
420
  2171202
370
    18
100
AcDbLine
 10
318.7404
 20
401.9330421053
 30
0.0
 11
318.7404
 21
400.7080421053
 31
0.0
  0
LINE
  5
85
330
1F
100
AcDbEntity
  8
0
  6
SLD-Durchgehend
 62
   179
420
  2171202
370
    18
100
AcDbLine
 10
318.7404
 20
400.7080421053
 30
0.0
 11
366.0404
 21
400.7080421053
 31
0.0
  0
LINE
  5
86
330
1F
100
AcDbEntity
  8
0
  6
SLD-Durchgehend
 62
   179
420
  2171202
370
    18
100
AcDbLine
 10
366.0404
 20
400.7080421053
 30
0.0
 11
366.2404
 21
400.9080421053
 31
0.0
  0
LINE
  5
87
330
1F
100
AcDbEntity
  8
0
  6
SLD-Durchgehend
 62
   179
420
  2171202
370
    18
100
AcDbLine
 10
366.2404
 20
400.9080421053
 30
0.0
 11
366.2404
 21
401.9330421053
 31
0.0
  0
LINE
  5
88
330
1F
100
AcDbEntity
  8
0
  6
SLD-Durchgehend
 62
   179
420
  2171202
370
    18
100
AcDbLine
 10
366.2404
 20
401.9330421053
 30
0.0
 11
365.9654
 21
402.2080421053
 31
0.0
  0
LINE
  5
89
330
1F
100
AcDbEntity
  8
0
  6
SLD-Durchgehend
 62
   179
420
  2171202
370
    18
100
AcDbLine
 10
315.9654
 20
402.2080421053
 30
0.0
 11
239.2404
 21
402.2080421053
 31
0.0
  0
LINE
  5
8A
330
1F
100
AcDbEntity
  8
0
  6
SLD-Durchgehend
 62
   179
420
  2171202
370
    18
100
AcDbLine
 10
239.2404
 20
402.2080421053
 30
0.0
 11
239.2404
 21
400.7080421053
 31
0.0
  0
LINE
  5
8B
330
1F
100
AcDbEntity
  8
0
  6
SLD-Durchgehend
 62
   179
420
  2171202
370
    18
100
AcDbLine
 10
239.2404
 20
400.7080421053
 30
0.0
 11
316.2404
 21
400.7080421053
 31
0.0
  0
LINE
  5
8C
330
1F
100
AcDbEntity
  8
0
  6
SLD-Durchgehend
 62
   179
420
  2171202
370
    18
100
AcDbLine
 10
316.2404
 20
400.7080421053
 30
0.0
 11
316.2404
 21
401.9330421053
 31
0.0
  0
LINE
  5
8D
330
1F
100
AcDbEntity
  8
0
  6
SLD-Durchgehend
 62
   179
420
  2171202
370
    18
100
AcDbLine
 10
316.2404
 20
401.9330421053
 30
0.0
 11
315.9654
 21
402.2080421053
 31
0.0
  0
LINE
  5
8E
330
1F
100
AcDbEntity
  8
0
  6
SLD-Durchgehend
 62
   179
420
  2171202
370
    18
100
AcDbLine
 10
495.7404
 20
400.7080421053
 30
0.0
 11
495.7404
 21
402.2080421053
 31
0.0
  0
LINE
  5
8F
330
1F
100
AcDbEntity
  8
0
  6
SLD-Durchgehend
 62
   179
420
  2171202
370
    18
100
AcDbLine
 10
495.7404
 20
402.2080421053
 30
0.0
 11
419.0154
 21
402.2080421053
 31
0.0
  0
LINE
  5
90
330
1F
100
AcDbEntity
  8
0
  6
SLD-Durchgehend
 62
   179
420
  2171202
370
    18
100
AcDbLine
 10
419.0154
 20
402.2080421053
 30
0.0
 11
418.7404
 21
401.9330421053
 31
0.0
  0
LINE
  5
91
330
1F
100
AcDbEntity
  8
0
  6
SLD-Durchgehend
 62
   179
420
  2171202
370
    18
100
AcDbLine
 10
418.7404
 20
401.9330421053
 30
0.0
 11
418.7404
 21
400.7080421053
 31
0.0
  0
LINE
  5
92
330
1F
100
AcDbEntity
  8
0
  6
SLD-Durchgehend
 62
   179
420
  2171202
370
    18
100
AcDbLine
 10
418.7404
 20
400.7080421053
 30
0.0
 11
495.7404
 21
400.7080421053
 31
0.0
  0
LINE
  5
93
330
1F
100
AcDbEntity
  8
0
  6
SLD-Durchgehend
 62
   179
420
  2171202
370
    18
100
AcDbLine
 10
508.4904
 20
411.7080421053
 30
0.0
 11
506.9904
 21
411.7080421053
 31
0.0
  0
LINE
  5
94
330
1F
100
AcDbEntity
  8
0
  6
SLD-Durchgehend
 62
   179
420
  2171202
370
    18
100
AcDbLine
 10
506.9904
 20
411.7080421053
 30
0.0
 11
506.9904
 21
403.2080421053
 31
0.0
  0
LINE
  5
95
330
1F
100
AcDbEntity
  8
0
  6
SLD-Durchgehend
 62
   179
420
  2171202
370
    18
100
AcDbLine
 10
505.9904
 20
402.2080421053
 30
0.0
 11
501.2404
 21
402.2080421053
 31
0.0
  0
LINE
  5
96
330
1F
100
AcDbEntity
  8
0
  6
SLD-Durchgehend
 62
   179
420
  2171202
370
    18
100
AcDbLine
 10
501.2404
 20
402.2080421053
 30
0.0
 11
501.2404
 21
400.7080421053
 31
0.0
  0
LINE
  5
97
330
1F
100
AcDbEntity
  8
0
  6
SLD-Durchgehend
 62
   179
420
  2171202
370
    18
100
AcDbLine
 10
501.2404
 20
400.7080421053
 30
0.0
 11
505.9904
 21
400.7080421053
 31
0.0
  0
LINE
  5
98
330
1F
100
AcDbEntity
  8
0
  6
SLD-Durchgehend
 62
   179
420
  2171202
370
    18
100
AcDbLine
 10
508.4904
 20
403.2080421053
 30
0.0
 11
508.4904
 21
411.7080421053
 31
0.0
  0
LINE
  5
99
330
1F
100
AcDbEntity
  8
0
  6
SLD-Durchgehend
 62
   179
420
  2171202
370
    18
100
AcDbLine
 10
501.2404
 20
400.7080421053
 30
0.0
 11
501.2404
 21
402.2080421053
 31
0.0
  0
LINE
  5
9A
330
1F
100
AcDbEntity
  8
0
  6
SLD-Durchgehend
 62
   179
420
  2171202
370
    18
100
AcDbLine
 10
501.2404
 20
402.2080421053
 30
0.0
 11
495.7404
 21
402.2080421053
 31
0.0
  0
LINE
  5
9B
330
1F
100
AcDbEntity
  8
0
  6
SLD-Durchgehend
 62
   179
420
  2171202
370
    18
100
AcDbLine
 10
495.7404
 20
402.2080421053
 30
0.0
 11
495.7404
 21
400.7080421053
 31
0.0
  0
LINE
  5
9C
330
1F
100
AcDbEntity
  8
0
  6
SLD-Durchgehend
 62
   179
420
  2171202
370
    18
100
AcDbLine
 10
495.7404
 20
400.7080421053
 30
0.0
 11
495.9904
 21
400.7080421053
 31
0.0
  0
LINE
  5
9D
330
1F
100
AcDbEntity
  8
0
  6
SLD-Durchgehend
 62
   179
420
  2171202
370
    18
100
AcDbLine
 10
495.9904
 20
400.7080421053
 30
0.0
 11
495.9904
 21
398.2080421053
 31
0.0
  0
LINE
  5
9E
330
1F
100
AcDbEntity
  8
0
  6
SLD-Durchgehend
 62
   179
420
  2171202
370
    18
100
AcDbLine
 10
495.9904
 20
398.2080421053
 30
0.0
 11
496.4904
 21
397.7080421053
 31
0.0
  0
LINE
  5
9F
330
1F
100
AcDbEntity
  8
0
  6
SLD-Durchgehend
 62
   179
420
  2171202
370
    18
100
AcDbLine
 10
496.4904
 20
397.7080421053
 30
0.0
 11
500.4904
 21
397.7080421053
 31
0.0
  0
LINE
  5
A0
330
1F
100
AcDbEntity
  8
0
  6
SLD-Durchgehend
 62
   179
420
  2171202
370
    18
100
AcDbLine
 10
500.4904
 20
397.7080421053
 30
0.0
 11
500.9904
 21
398.2080421053
 31
0.0
  0
LINE
  5
A1
330
1F
100
AcDbEntity
  8
0
  6
SLD-Durchgehend
 62
   179
420
  2171202
370
    18
100
AcDbLine
 10
500.9904
 20
398.2080421053
 30
0.0
 11
500.9904
 21
400.7080421053
 31
0.0
  0
LINE
  5
A2
330
1F
100
AcDbEntity
  8
0
  6
SLD-Durchgehend
 62
   179
420
  2171202
370
    18
100
AcDbLine
 10
500.9904
 20
400.7080421053
 30
0.0
 11
501.2404
 21
400.7080421053
 31
0.0
  0
LINE
  5
A3
330
1F
100
AcDbEntity
  8
0
  6
SLD-Durchgehend
 62
   179
420
  2171202
370
    18
100
AcDbLine
 10
239.2404
 20
400.7080421053
 30
0.0
 11
239.2404
 21
402.2080421053
 31
0.0
  0
LINE
  5
A4
330
1F
100
AcDbEntity
  8
0
  6
SLD-Durchgehend
 62
   179
420
  2171202
370
    18
100
AcDbLine
 10
239.2404
 20
402.2080421053
 30
0.0
 11
233.7404
 21
402.2080421053
 31
0.0
  0
LINE
  5
A5
330
1F
100
AcDbEntity
  8
0
  6
SLD-Durchgehend
 62
   179
420
  2171202
370
    18
100
AcDbLine
 10
233.7404
 20
402.2080421053
 30
0.0
 11
233.7404
 21
400.7080421053
 31
0.0
  0
LINE
  5
A6
330
1F
100
AcDbEntity
  8
0
  6
SLD-Durchgehend
 62
   179
420
  2171202
370
    18
100
AcDbLine
 10
233.7404
 20
400.7080421053
 30
0.0
 11
233.9904
 21
400.7080421053
 31
0.0
  0
LINE
  5
A7
330
1F
100
AcDbEntity
  8
0
  6
SLD-Durchgehend
 62
   179
420
  2171202
370
    18
100
AcDbLine
 10
233.9904
 20
400.7080421053
 30
0.0
 11
233.9904
 21
398.7080421053
 31
0.0
  0
LINE
  5
A8
330
1F
100
AcDbEntity
  8
0
  6
SLD-Durchgehend
 62
   179
420
  2171202
370
    18
100
AcDbLine
 10
233.9904
 20
398.7080421053
 30
0.0
 11
234.9904
 21
397.7080421053
 31
0.0
  0
LINE
  5
A9
330
1F
100
AcDbEntity
  8
0
  6
SLD-Durchgehend
 62
   179
420
  2171202
370
    18
100
AcDbLine
 10
234.9904
 20
397.7080421053
 30
0.0
 11
237.9904
 21
397.7080421053
 31
0.0
  0
LINE
  5
AA
330
1F
100
AcDbEntity
  8
0
  6
SLD-Durchgehend
 62
   179
420
  2171202
370
    18
100
AcDbLine
 10
237.9904
 20
397.7080421053
 30
0.0
 11
238.9904
 21
398.7080421053
 31
0.0
  0
LINE
  5
AB
330
1F
100
AcDbEntity
  8
0
  6
SLD-Durchgehend
 62
   179
420
  2171202
370
    18
100
AcDbLine
 10
238.9904
 20
398.7080421053
 30
0.0
 11
238.9904
 21
400.7080421053
 31
0.0
  0
LINE
  5
AC
330
1F
100
AcDbEntity
  8
0
  6
SLD-Durchgehend
 62
   179
420
  2171202
370
    18
100
AcDbLine
 10
238.9904
 20
400.7080421053
 30
0.0
 11
239.2404
 21
400.7080421053
 31
0.0
  0
LINE
  5
AD
330
1F
100
AcDbEntity
  8
0
  6
SLD-Durchgehend
 62
   179
420
  2171202
370
    18
100
AcDbLine
 10
369.0904
 20
400.2080421053
 30
0.0
 11
370.5904
 21
398.7080421053
 31
0.0
  0
LINE
  5
AE
330
1F
100
AcDbEntity
  8
0
  6
SLD-Durchgehend
 62
   179
420
  2171202
370
    18
100
AcDbLine
 10
370.5904
 20
398.7080421053
 30
0.0
 11
370.9904
 21
398.7080421053
 31
0.0
  0
LINE
  5
AF
330
1F
100
AcDbEntity
  8
0
  6
SLD-Durchgehend
 62
   179
420
  2171202
370
    18
100
AcDbLine
 10
370.9904
 20
398.7080421053
 30
0.0
 11
370.9904
 21
400.7080421053
 31
0.0
  0
LINE
  5
B0
330
1F
100
AcDbEntity
  8
0
  6
SLD-Durchgehend
 62
   179
420
  2171202
370
    18
100
AcDbLine
 10
370.9904
 20
400.7080421053
 30
0.0
 11
369.0904
 21
400.7080421053
 31
0.0
  0
LINE
  5
B1
330
1F
100
AcDbEntity
  8
0
  6
SLD-Durchgehend
 62
   179
420
  2171202
370
    18
100
AcDbLine
 10
369.0904
 20
400.7080421053
 30
0.0
 11
369.0904
 21
400.2080421053
 31
0.0
  0
LINE
  5
B2
330
1F
100
AcDbEntity
  8
0
  6
SLD-Durchgehend
 62
   179
420
  2171202
370
    18
100
AcDbLine
 10
364.3904
 20
398.7080421053
 30
0.0
 11
365.8904
 21
400.2080421053
 31
0.0
  0
LINE
  5
B3
330
1F
100
AcDbEntity
  8
0
  6
SLD-Durchgehend
 62
   179
420
  2171202
370
    18
100
AcDbLine
 10
365.8904
 20
400.2080421053
 30
0.0
 11
365.8904
 21
400.7080421053
 31
0.0
  0
LINE
  5
B4
330
1F
100
AcDbEntity
  8
0
  6
SLD-Durchgehend
 62
   179
420
  2171202
370
    18
100
AcDbLine
 10
365.8904
 20
400.7080421053
 30
0.0
 11
363.9904
 21
400.7080421053
 31
0.0
  0
LINE
  5
B5
330
1F
100
AcDbEntity
  8
0
  6
SLD-Durchgehend
 62
   179
420
  2171202
370
    18
100
AcDbLine
 10
363.9904
 20
400.7080421053
 30
0.0
 11
363.9904
 21
398.7080421053
 31
0.0
  0
LINE
  5
B6
330
1F
100
AcDbEntity
  8
0
  6
SLD-Durchgehend
 62
   179
420
  2171202
370
    18
100
AcDbLine
 10
363.9904
 20
398.7080421053
 30
0.0
 11
364.3904
 21
398.7080421053
 31
0.0
  0
LINE
  5
B7
330
1F
100
AcDbEntity
  8
0
  6
SLD-Durchgehend
 62
   179
420
  2171202
370
    18
100
AcDbLine
 10
366.4378065771
 20
398.7080421053
 30
0.0
 11
366.4378065771
 21
399.9080421053
 31
0.0
  0
LINE
  5
B8
330
1F
100
AcDbEntity
  8
0
  6
SLD-Durchgehend
 62
   179
420
  2171202
370
    18
100
AcDbLine
 10
366.4378065771
 20
399.9080421053
 30
0.0
 11
368.5429934229
 21
399.9080421053
 31
0.0
  0
LINE
  5
B9
330
1F
100
AcDbEntity
  8
0
  6
SLD-Durchgehend
 62
   179
420
  2171202
370
    18
100
AcDbLine
 10
368.5429934229
 20
399.9080421053
 30
0.0
 11
368.5429934229
 21
398.7080421053
 31
0.0
  0
LINE
  5
BA
330
1F
100
AcDbEntity
  8
0
  6
SLD-Durchgehend
 62
   179
420
  2171202
370
    18
100
AcDbLine
 10
368.5429934229
 20
398.7080421053
 30
0.0
 11
370.4904
 21
398.7080421053
 31
0.0
  0
LINE
  5
BB
330
1F
100
AcDbEntity
  8
0
  6
SLD-Durchgehend
 62
   179
420
  2171202
370
    18
100
AcDbLine
 10
370.4904
 20
398.7080421053
 30
0.0
 11
370.4904
 21
398.9080421053
 31
0.0
  0
LINE
  5
BC
330
1F
100
AcDbEntity
  8
0
  6
SLD-Durchgehend
 62
   179
420
  2171202
370
    18
100
AcDbLine
 10
370.4904
 20
398.9080421053
 30
0.0
 11
369.0196893219
 21
400.3787527834
 31
0.0
  0
LINE
  5
BD
330
1F
100
AcDbEntity
  8
0
  6
SLD-Durchgehend
 62
   179
420
  2171202
370
    18
100
AcDbLine
 10
368.9904
 20
400.4494634615
 30
0.0
 11
368.9904
 21
402.4015421053
 31
0.0
  0
LINE
  5
BE
330
1F
100
AcDbEntity
  8
0
  6
SLD-Durchgehend
 62
   179
420
  2171202
370
    18
100
AcDbLine
 10
368.9904
 20
402.4015421053
 30
0.0
 11
368.6839
 21
402.7080421053
 31
0.0
  0
LINE
  5
BF
330
1F
100
AcDbEntity
  8
0
  6
SLD-Durchgehend
 62
   179
420
  2171202
370
    18
100
AcDbLine
 10
368.6839
 20
402.7080421053
 30
0.0
 11
366.2969
 21
402.7080421053
 31
0.0
  0
LINE
  5
C0
330
1F
100
AcDbEntity
  8
0
  6
SLD-Durchgehend
 62
   179
420
  2171202
370
    18
100
AcDbLine
 10
366.2969
 20
402.7080421053
 30
0.0
 11
365.9904
 21
402.4015421053
 31
0.0
  0
LINE
  5
C1
330
1F
100
AcDbEntity
  8
0
  6
SLD-Durchgehend
 62
   179
420
  2171202
370
    18
100
AcDbLine
 10
365.9904
 20
402.4015421053
 30
0.0
 11
365.9904
 21
400.4494634615
 31
0.0
  0
LINE
  5
C2
330
1F
100
AcDbEntity
  8
0
  6
SLD-Durchgehend
 62
   179
420
  2171202
370
    18
100
AcDbLine
 10
365.9611106781
 20
400.3787527834
 30
0.0
 11
364.4904
 21
398.9080421053
 31
0.0
  0
LINE
  5
C3
330
1F
100
AcDbEntity
  8
0
  6
SLD-Durchgehend
 62
   179
420
  2171202
370
    18
100
AcDbLine
 10
364.4904
 20
398.9080421053
 30
0.0
 11
364.4904
 21
398.7080421053
 31
0.0
  0
LINE
  5
C4
330
1F
100
AcDbEntity
  8
0
  6
SLD-Durchgehend
 62
   179
420
  2171202
370
    18
100
AcDbLine
 10
364.4904
 20
398.7080421053
 30
0.0
 11
366.4378065771
 21
398.7080421053
 31
0.0
  0
LINE
  5
C5
330
1F
100
AcDbEntity
  8
0
  6
SLD-Durchgehend
 62
   250
420
  1644836
370
    25
100
AcDbLine
 10
373.4904
 20
246.4085994618
 30
0.0
 11
373.4904
 21
248.8075789474
 31
0.0
  0
LINE
  5
C6
330
1F
100
AcDbEntity
  8
0
  6
SLD-Durchgehend
 62
   250
420
  1644836
370
    25
100
AcDbLine
 10
361.4904
 20
246.4085994618
 30
0.0
 11
361.4904
 21
248.8075789474
 31
0.0
  0
LINE
  5
C7
330
1F
100
AcDbEntity
  8
0
  6
SLD-Durchgehend
 62
   250
420
  1644836
370
    25
100
AcDbLine
 10
373.4904
 20
243.3075789474
 30
0.0
 11
373.4904
 21
246.4085994618
 31
0.0
  0
LINE
  5
C8
330
1F
100
AcDbEntity
  8
0
  6
SLD-Durchgehend
 62
   250
420
  1644836
370
    25
100
AcDbLine
 10
361.4904
 20
243.3075789474
 30
0.0
 11
361.4904
 21
246.4085994618
 31
0.0
  0
LINE
  5
C9
330
1F
100
AcDbEntity
  8
0
  6
SLD-Durchgehend
 62
   250
420
  1644836
370
    25
100
AcDbLine
 10
373.4904
 20
243.3075789474
 30
0.0
 11
361.4904
 21
243.3075789474
 31
0.0
  0
LINE
  5
CA
330
1F
100
AcDbEntity
  8
0
  6
SLD-Durchgehend
 62
   250
420
  1644836
370
    25
100
AcDbLine
 10
361.4904
 20
323.2065584329
 30
0.0
 11
361.4904
 21
320.8075789474
 31
0.0
  0
LINE
  5
CB
330
1F
100
AcDbEntity
  8
0
  6
SLD-Durchgehend
 62
   250
420
  1644836
370
    25
100
AcDbLine
 10
373.4904
 20
323.2065584329
 30
0.0
 11
373.4904
 21
320.8075789474
 31
0.0
  0
LINE
  5
CC
330
1F
100
AcDbEntity
  8
0
  6
SLD-Durchgehend
 62
   250
420
  1644836
370
    25
100
AcDbLine
 10
373.4904
 20
326.3075789474
 30
0.0
 11
361.4904
 21
326.3075789474
 31
0.0
  0
LINE
  5
CD
330
1F
100
AcDbEntity
  8
0
  6
SLD-Durchgehend
 62
   250
420
  1644836
370
    25
100
AcDbLine
 10
361.4904
 20
326.3075789474
 30
0.0
 11
361.4904
 21
323.2065584329
 31
0.0
  0
LINE
  5
CE
330
1F
100
AcDbEntity
  8
0
  6
SLD-Durchgehend
 62
   250
420
  1644836
370
    25
100
AcDbLine
 10
373.4904
 20
326.3075789474
 30
0.0
 11
373.4904
 21
323.2065584329
 31
0.0
  0
LINE
  5
CF
330
1F
100
AcDbEntity
  8
0
  6
SLD-Durchgehend
 62
   250
420
  1644836
370
    25
100
AcDbLine
 10
228.0904
 20
250.3075789474
 30
0.0
 11
228.0904
 21
248.8075789474
 31
0.0
  0
LINE
  5
D0
330
1F
100
AcDbEntity
  8
0
  6
SLD-Durchgehend
 62
   250
420
  1644836
370
    25
100
AcDbLine
 10
228.0904
 20
250.3075789474
 30
0.0
 11
506.8904
 21
250.3075789474
 31
0.0
  0
LINE
  5
D1
330
1F
100
AcDbEntity
  8
0
  6
SLD-Durchgehend
 62
   250
420
  1644836
370
    25
100
AcDbLine
 10
506.8904
 20
250.3075789474
 30
0.0
 11
506.8904
 21
248.8075789474
 31
0.0
  0
LINE
  5
D2
330
1F
100
AcDbEntity
  8
0
  6
SLD-Durchgehend
 62
   250
420
  1644836
370
    25
100
AcDbLine
 10
228.0904
 20
248.8075789474
 30
0.0
 11
506.8904
 21
248.8075789474
 31
0.0
  0
LINE
  5
D3
330
1F
100
AcDbEntity
  8
0
  6
SLD-Durchgehend
 62
   250
420
  1644836
370
    25
100
AcDbLine
 10
226.4904
 20
320.8075789474
 30
0.0
 11
227.9904
 21
320.8075789474
 31
0.0
  0
LINE
  5
D4
330
1F
100
AcDbEntity
  8
0
  6
SLD-Durchgehend
 62
   250
420
  1644836
370
    25
100
AcDbLine
 10
227.9904
 20
320.8075789474
 30
0.0
 11
227.9904
 21
248.8075789474
 31
0.0
  0
LINE
  5
D5
330
1F
100
AcDbEntity
  8
0
  6
SLD-Durchgehend
 62
   250
420
  1644836
370
    25
100
AcDbLine
 10
226.4904
 20
320.8075789474
 30
0.0
 11
226.4904
 21
248.8075789474
 31
0.0
  0
LINE
  5
D6
330
1F
100
AcDbEntity
  8
0
  6
SLD-Durchgehend
 62
   250
420
  1644836
370
    25
100
AcDbLine
 10
226.4904
 20
248.8075789474
 30
0.0
 11
227.9904
 21
248.8075789474
 31
0.0
  0
LINE
  5
D7
330
1F
100
AcDbEntity
  8
0
  6
SLD-Durchgehend
 62
   250
420
  1644836
370
    25
100
AcDbLine
 10
506.8904
 20
320.8075789474
 30
0.0
 11
228.0904
 21
320.8075789474
 31
0.0
  0
LINE
  5
D8
330
1F
100
AcDbEntity
  8
0
  6
SLD-Durchgehend
 62
   250
420
  1644836
370
    25
100
AcDbLine
 10
506.8904
 20
319.3075789474
 30
0.0
 11
228.0904
 21
319.3075789474
 31
0.0
  0
LINE
  5
D9
330
1F
100
AcDbEntity
  8
0
  6
SLD-Durchgehend
 62
   250
420
  1644836
370
    25
100
AcDbLine
 10
506.8904
 20
319.3075789474
 30
0.0
 11
506.8904
 21
320.8075789474
 31
0.0
  0
LINE
  5
DA
330
1F
100
AcDbEntity
  8
0
  6
SLD-Durchgehend
 62
   250
420
  1644836
370
    25
100
AcDbLine
 10
228.0904
 20
319.3075789474
 30
0.0
 11
228.0904
 21
320.8075789474
 31
0.0
  0
LINE
  5
DB
330
1F
100
AcDbEntity
  8
0
  6
SLD-Durchgehend
 62
   250
420
  1644836
370
    25
100
AcDbLine
 10
508.4904
 20
248.8075789474
 30
0.0
 11
508.4904
 21
320.8075789474
 31
0.0
  0
LINE
  5
DC
330
1F
100
AcDbEntity
  8
0
  6
SLD-Durchgehend
 62
   250
420
  1644836
370
    25
100
AcDbLine
 10
506.9904
 20
248.8075789474
 30
0.0
 11
506.9904
 21
320.8075789474
 31
0.0
  0
LINE
  5
DD
330
1F
100
AcDbEntity
  8
0
  6
SLD-Durchgehend
 62
   250
420
  1644836
370
    25
100
AcDbLine
 10
508.4904
 20
248.8075789474
 30
0.0
 11
506.9904
 21
248.8075789474
 31
0.0
  0
LINE
  5
DE
330
1F
100
AcDbEntity
  8
0
  6
SLD-Durchgehend
 62
   250
420
  1644836
370
    25
100
AcDbLine
 10
508.4904
 20
320.8075789474
 30
0.0
 11
506.9904
 21
320.8075789474
 31
0.0
  0
LINE
  5
DF
330
1F
100
AcDbEntity
  8
0
  6
SLD-Durchgehend
 62
   250
420
  1644836
370
    25
100
AcDbLine
 10
505.9904
 20
319.3075789474
 30
0.0
 11
505.9904
 21
318.3075789474
 31
0.0
  0
LINE
  5
E0
330
1F
100
AcDbEntity
  8
0
  6
SLD-Durchgehend
 62
   250
420
  1644836
370
    25
100
AcDbLine
 10
228.9904
 20
318.3075789474
 30
0.0
 11
228.9904
 21
319.3075789474
 31
0.0
  0
LINE
  5
E1
330
1F
100
AcDbEntity
  8
0
  6
SLD-Durchgehend
 62
   250
420
  1644836
370
    25
100
AcDbLine
 10
227.9904
 20
318.3075789474
 30
0.0
 11
228.9904
 21
318.3075789474
 31
0.0
  0
LINE
  5
E2
330
1F
100
AcDbEntity
  8
0
  6
SLD-Durchgehend
 62
   250
420
  1644836
370
    25
100
AcDbLine
 10
228.9904
 20
251.3075789474
 30
0.0
 11
227.9904
 21
251.3075789474
 31
0.0
  0
LINE
  5
E3
330
1F
100
AcDbEntity
  8
0
  6
SLD-Durchgehend
 62
   250
420
  1644836
370
    25
100
AcDbLine
 10
505.9904
 20
318.3075789474
 30
0.0
 11
506.9904
 21
318.3075789474
 31
0.0
  0
LINE
  5
E4
330
1F
100
AcDbEntity
  8
0
  6
SLD-Durchgehend
 62
   250
420
  1644836
370
    25
100
AcDbLine
 10
506.9904
 20
251.3075789474
 30
0.0
 11
505.9904
 21
251.3075789474
 31
0.0
  0
LINE
  5
E5
330
1F
100
AcDbEntity
  8
0
  6
SLD-Durchgehend
 62
   250
420
  1644836
370
    25
100
AcDbLine
 10
505.9904
 20
251.3075789474
 30
0.0
 11
505.9904
 21
250.3075789474
 31
0.0
  0
LINE
  5
E6
330
1F
100
AcDbEntity
  8
0
  6
SLD-Durchgehend
 62
   250
420
  1644836
370
    25
100
AcDbLine
 10
228.9904
 20
250.3075789474
 30
0.0
 11
228.9904
 21
251.3075789474
 31
0.0
  0
LINE
  5
E7
330
1F
100
AcDbEntity
  8
0
  6
SLD-Durchgehend
 62
   250
420
  1644836
370
    25
100
AcDbLine
 10
366.4378065771
 20
398.7080421053
 30
0.0
 11
364.4904
 21
398.7080421053
 31
0.0
  0
LINE
  5
E8
330
1F
100
AcDbEntity
  8
0
  6
SLD-Durchgehend
 62
   250
420
  1644836
370
    25
100
AcDbLine
 10
364.4904
 20
398.7080421053
 30
0.0
 11
364.4904
 21
398.9080421053
 31
0.0
  0
LINE
  5
E9
330
1F
100
AcDbEntity
  8
0
  6
SLD-Durchgehend
 62
   250
420
  1644836
370
    25
100
AcDbLine
 10
364.4904
 20
398.9080421053
 30
0.0
 11
365.9611106781
 21
400.3787527834
 31
0.0
  0
LINE
  5
EA
330
1F
100
AcDbEntity
  8
0
  6
SLD-Durchgehend
 62
   250
420
  1644836
370
    25
100
AcDbLine
 10
365.9904
 20
400.4494634615
 30
0.0
 11
365.9904
 21
402.4015421053
 31
0.0
  0
LINE
  5
EB
330
1F
100
AcDbEntity
  8
0
  6
SLD-Durchgehend
 62
   250
420
  1644836
370
    25
100
AcDbLine
 10
365.9904
 20
402.4015421053
 30
0.0
 11
366.2969
 21
402.7080421053
 31
0.0
  0
LINE
  5
EC
330
1F
100
AcDbEntity
  8
0
  6
SLD-Durchgehend
 62
   250
420
  1644836
370
    25
100
AcDbLine
 10
366.2969
 20
402.7080421053
 30
0.0
 11
368.6839
 21
402.7080421053
 31
0.0
  0
LINE
  5
ED
330
1F
100
AcDbEntity
  8
0
  6
SLD-Durchgehend
 62
   250
420
  1644836
370
    25
100
AcDbLine
 10
368.6839
 20
402.7080421053
 30
0.0
 11
368.9904
 21
402.4015421053
 31
0.0
  0
LINE
  5
EE
330
1F
100
AcDbEntity
  8
0
  6
SLD-Durchgehend
 62
   250
420
  1644836
370
    25
100
AcDbLine
 10
368.9904
 20
402.4015421053
 30
0.0
 11
368.9904
 21
400.4494634615
 31
0.0
  0
LINE
  5
EF
330
1F
100
AcDbEntity
  8
0
  6
SLD-Durchgehend
 62
   250
420
  1644836
370
    25
100
AcDbLine
 10
369.0196893219
 20
400.3787527834
 30
0.0
 11
370.4904
 21
398.9080421053
 31
0.0
  0
LINE
  5
F0
330
1F
100
AcDbEntity
  8
0
  6
SLD-Durchgehend
 62
   250
420
  1644836
370
    25
100
AcDbLine
 10
370.4904
 20
398.9080421053
 30
0.0
 11
370.4904
 21
398.7080421053
 31
0.0
  0
LINE
  5
F1
330
1F
100
AcDbEntity
  8
0
  6
SLD-Durchgehend
 62
   250
420
  1644836
370
    25
100
AcDbLine
 10
370.4904
 20
398.7080421053
 30
0.0
 11
368.5429934229
 21
398.7080421053
 31
0.0
  0
LINE
  5
F2
330
1F
100
AcDbEntity
  8
0
  6
SLD-Durchgehend
 62
   250
420
  1644836
370
    25
100
AcDbLine
 10
368.5429934229
 20
399.9080421053
 30
0.0
 11
368.5429934229
 21
398.7080421053
 31
0.0
  0
LINE
  5
F3
330
1F
100
AcDbEntity
  8
0
  6
SLD-Durchgehend
 62
   250
420
  1644836
370
    25
100
AcDbLine
 10
368.5429934229
 20
399.9080421053
 30
0.0
 11
366.4378065771
 21
399.9080421053
 31
0.0
  0
LINE
  5
F4
330
1F
100
AcDbEntity
  8
0
  6
SLD-Durchgehend
 62
   250
420
  1644836
370
    25
100
AcDbLine
 10
366.4378065771
 20
399.9080421053
 30
0.0
 11
366.4378065771
 21
398.7080421053
 31
0.0
  0
LINE
  5
F5
330
1F
100
AcDbEntity
  8
0
  6
SLD-Durchgehend
 62
   250
420
  1644836
370
    25
100
AcDbLine
 10
368.2466001445
 20
399.9080421053
 30
0.0
 11
368.2466001445
 21
398.7080421053
 31
0.0
  0
LINE
  5
F6
330
1F
100
AcDbEntity
  8
0
  6
SLD-Durchgehend
 62
   250
420
  1644836
370
    25
100
AcDbLine
 10
368.2466001445
 20
398.7080421053
 30
0.0
 11
368.5429934229
 21
398.7080421053
 31
0.0
  0
LINE
  5
F7
330
1F
100
AcDbEntity
  8
0
  6
SLD-Durchgehend
 62
   250
420
  1644836
370
    25
100
AcDbLine
 10
367.1181694744
 20
399.9080421053
 30
0.0
 11
367.1181694744
 21
398.7080421053
 31
0.0
  0
LINE
  5
F8
330
1F
100
AcDbEntity
  8
0
  6
SLD-Durchgehend
 62
   250
420
  1644836
370
    25
100
AcDbLine
 10
367.1181694744
 20
398.7080421053
 30
0.0
 11
366.4378065771
 21
398.7080421053
 31
0.0
  0
LINE
  5
F9
330
1F
100
AcDbEntity
  8
0
  6
SLD-Durchgehend
 62
   250
420
  1644836
370
    25
100
AcDbLine
 10
367.1181694744
 20
398.7080421053
 30
0.0
 11
368.2466001445
 21
398.7080421053
 31
0.0
  0
LINE
  5
FA
330
1F
100
AcDbEntity
  8
0
  6
SLD-Durchgehend
 62
   250
420
  1644836
370
    25
100
AcDbLine
 10
370.5904
 20
398.7080421053
 30
0.0
 11
369.0904
 21
400.2080421053
 31
0.0
  0
LINE
  5
FB
330
1F
100
AcDbEntity
  8
0
  6
SLD-Durchgehend
 62
   250
420
  1644836
370
    25
100
AcDbLine
 10
365.8904
 20
400.2080421053
 30
0.0
 11
364.3904
 21
398.7080421053
 31
0.0
  0
LINE
  5
FC
330
1F
100
AcDbEntity
  8
0
  6
SLD-Durchgehend
 62
   250
420
  1644836
370
    25
100
AcDbLine
 10
370.5904
 20
398.7080421053
 30
0.0
 11
370.4904
 21
398.7080421053
 31
0.0
  0
LINE
  5
FD
330
1F
100
AcDbEntity
  8
0
  6
SLD-Durchgehend
 62
   250
420
  1644836
370
    25
100
AcDbLine
 10
364.4904
 20
398.7080421053
 30
0.0
 11
364.3904
 21
398.7080421053
 31
0.0
  0
LINE
  5
FE
330
1F
100
AcDbEntity
  8
0
  6
SLD-Durchgehend
 62
   250
420
  1644836
370
    25
100
AcDbLine
 10
365.8904
 20
400.7080421053
 30
0.0
 11
365.8904
 21
400.2080421053
 31
0.0
  0
LINE
  5
FF
330
1F
100
AcDbEntity
  8
0
  6
SLD-Durchgehend
 62
   250
420
  1644836
370
    25
100
AcDbLine
 10
369.0904
 20
400.2080421053
 30
0.0
 11
369.0904
 21
400.7080421053
 31
0.0
  0
LINE
  5
100
330
1F
100
AcDbEntity
  8
0
  6
SLD-Durchgehend
 62
   250
420
  1644836
370
    25
100
AcDbLine
 10
370.9904
 20
398.7080421053
 30
0.0
 11
370.9904
 21
400.7080421053
 31
0.0
  0
LINE
  5
101
330
1F
100
AcDbEntity
  8
0
  6
SLD-Durchgehend
 62
   250
420
  1644836
370
    25
100
AcDbLine
 10
370.9904
 20
400.7080421053
 30
0.0
 11
369.0904
 21
400.7080421053
 31
0.0
  0
LINE
  5
102
330
1F
100
AcDbEntity
  8
0
  6
SLD-Durchgehend
 62
   250
420
  1644836
370
    25
100
AcDbLine
 10
370.5904
 20
398.7080421053
 30
0.0
 11
370.9904
 21
398.7080421053
 31
0.0
  0
LINE
  5
103
330
1F
100
AcDbEntity
  8
0
  6
SLD-Durchgehend
 62
   250
420
  1644836
370
    25
100
AcDbLine
 10
363.9904
 20
400.7080421053
 30
0.0
 11
363.9904
 21
398.7080421053
 31
0.0
  0
LINE
  5
104
330
1F
100
AcDbEntity
  8
0
  6
SLD-Durchgehend
 62
   250
420
  1644836
370
    25
100
AcDbLine
 10
365.8904
 20
400.7080421053
 30
0.0
 11
363.9904
 21
400.7080421053
 31
0.0
  0
LINE
  5
105
330
1F
100
AcDbEntity
  8
0
  6
SLD-Durchgehend
 62
   250
420
  1644836
370
    25
100
AcDbLine
 10
363.9904
 20
398.7080421053
 30
0.0
 11
364.3904
 21
398.7080421053
 31
0.0
  0
LINE
  5
106
330
1F
100
AcDbEntity
  8
0
  6
SLD-Durchgehend
 62
   250
420
  1644836
370
    25
100
AcDbLine
 10
371.5761864376
 20
398.7080421053
 30
0.0
 11
370.9904
 21
398.7080421053
 31
0.0
  0
LINE
  5
107
330
1F
100
AcDbEntity
  8
0
  6
SLD-Durchgehend
 62
   250
420
  1644836
370
    25
100
AcDbLine
 10
363.9904
 20
398.7080421053
 30
0.0
 11
363.4046135624
 21
398.7080421053
 31
0.0
  0
LINE
  5
108
330
1F
100
AcDbEntity
  8
0
  6
SLD-Durchgehend
 62
   250
420
  1644836
370
    25
100
AcDbLine
 10
372.9046135624
 20
398.7080421053
 30
0.0
 11
371.5761864376
 21
398.7080421053
 31
0.0
  0
LINE
  5
109
330
1F
100
AcDbEntity
  8
0
  6
SLD-Durchgehend
 62
   250
420
  1644836
370
    25
100
AcDbLine
 10
363.4046135624
 20
398.7080421053
 30
0.0
 11
362.0761864376
 21
398.7080421053
 31
0.0
  0
LINE
  5
10A
330
1F
100
AcDbEntity
  8
0
  6
SLD-Durchgehend
 62
   250
420
  1644836
370
    25
100
AcDbLine
 10
373.4904
 20
400.7080421053
 30
0.0
 11
373.4904
 21
398.7080421053
 31
0.0
  0
LINE
  5
10B
330
1F
100
AcDbEntity
  8
0
  6
SLD-Durchgehend
 62
   250
420
  1644836
370
    25
100
AcDbLine
 10
373.4904
 20
398.7080421053
 30
0.0
 11
372.9046135624
 21
398.7080421053
 31
0.0
  0
LINE
  5
10C
330
1F
100
AcDbEntity
  8
0
  6
SLD-Durchgehend
 62
   250
420
  1644836
370
    25
100
AcDbLine
 10
361.4904
 20
398.7080421053
 30
0.0
 11
361.4904
 21
400.7080421053
 31
0.0
  0
LINE
  5
10D
330
1F
100
AcDbEntity
  8
0
  6
SLD-Durchgehend
 62
   250
420
  1644836
370
    25
100
AcDbLine
 10
362.0761864376
 20
398.7080421053
 30
0.0
 11
361.4904
 21
398.7080421053
 31
0.0
  0
LINE
  5
10E
330
1F
100
AcDbEntity
  8
0
  6
SLD-Durchgehend
 62
   250
420
  1644836
370
    25
100
AcDbLine
 10
233.7404
 20
400.7080421053
 30
0.0
 11
233.7404
 21
402.2080421053
 31
0.0
  0
LINE
  5
10F
330
1F
100
AcDbEntity
  8
0
  6
SLD-Durchgehend
 62
   250
420
  1644836
370
    25
100
AcDbLine
 10
239.2404
 20
402.2080421053
 30
0.0
 11
239.2404
 21
400.7080421053
 31
0.0
  0
LINE
  5
110
330
1F
100
AcDbEntity
  8
0
  6
SLD-Durchgehend
 62
   250
420
  1644836
370
    25
100
AcDbLine
 10
233.9904
 20
400.7080421053
 30
0.0
 11
233.9904
 21
398.7080421053
 31
0.0
  0
LINE
  5
111
330
1F
100
AcDbEntity
  8
0
  6
SLD-Durchgehend
 62
   250
420
  1644836
370
    25
100
AcDbLine
 10
238.9904
 20
398.7080421053
 30
0.0
 11
238.9904
 21
400.7080421053
 31
0.0
  0
LINE
  5
112
330
1F
100
AcDbEntity
  8
0
  6
SLD-Durchgehend
 62
   250
420
  1644836
370
    25
100
AcDbLine
 10
234.9904
 20
397.7080421053
 30
0.0
 11
233.9904
 21
398.7080421053
 31
0.0
  0
LINE
  5
113
330
1F
100
AcDbEntity
  8
0
  6
SLD-Durchgehend
 62
   250
420
  1644836
370
    25
100
AcDbLine
 10
238.9904
 20
398.7080421053
 30
0.0
 11
237.9904
 21
397.7080421053
 31
0.0
  0
LINE
  5
114
330
1F
100
AcDbEntity
  8
0
  6
SLD-Durchgehend
 62
   250
420
  1644836
370
    25
100
AcDbLine
 10
237.9904
 20
397.7080421053
 30
0.0
 11
234.9904
 21
397.7080421053
 31
0.0
  0
LINE
  5
115
330
1F
100
AcDbEntity
  8
0
  6
SLD-Durchgehend
 62
   250
420
  1644836
370
    25
100
AcDbLine
 10
233.7404
 20
402.2080421053
 30
0.0
 11
239.2404
 21
402.2080421053
 31
0.0
  0
LINE
  5
116
330
1F
100
AcDbEntity
  8
0
  6
SLD-Durchgehend
 62
   250
420
  1644836
370
    25
100
AcDbLine
 10
238.9904
 20
400.7080421053
 30
0.0
 11
239.2404
 21
400.7080421053
 31
0.0
  0
LINE
  5
117
330
1F
100
AcDbEntity
  8
0
  6
SLD-Durchgehend
 62
   250
420
  1644836
370
    25
100
AcDbLine
 10
233.7404
 20
400.7080421053
 30
0.0
 11
233.9904
 21
400.7080421053
 31
0.0
  0
LINE
  5
118
330
1F
100
AcDbEntity
  8
0
  6
SLD-Durchgehend
 62
   250
420
  1644836
370
    25
100
AcDbLine
 10
495.9904
 20
400.7080421053
 30
0.0
 11
495.9904
 21
398.2080421053
 31
0.0
  0
LINE
  5
119
330
1F
100
AcDbEntity
  8
0
  6
SLD-Durchgehend
 62
   250
420
  1644836
370
    25
100
AcDbLine
 10
500.9904
 20
398.2080421053
 30
0.0
 11
500.9904
 21
400.7080421053
 31
0.0
  0
LINE
  5
11A
330
1F
100
AcDbEntity
  8
0
  6
SLD-Durchgehend
 62
   250
420
  1644836
370
    25
100
AcDbLine
 10
495.7404
 20
400.7080421053
 30
0.0
 11
495.7404
 21
402.2080421053
 31
0.0
  0
LINE
  5
11B
330
1F
100
AcDbEntity
  8
0
  6
SLD-Durchgehend
 62
   250
420
  1644836
370
    25
100
AcDbLine
 10
501.2404
 20
402.2080421053
 30
0.0
 11
501.2404
 21
400.7080421053
 31
0.0
  0
LINE
  5
11C
330
1F
100
AcDbEntity
  8
0
  6
SLD-Durchgehend
 62
   250
420
  1644836
370
    25
100
AcDbLine
 10
496.4904
 20
397.7080421053
 30
0.0
 11
495.9904
 21
398.2080421053
 31
0.0
  0
LINE
  5
11D
330
1F
100
AcDbEntity
  8
0
  6
SLD-Durchgehend
 62
   250
420
  1644836
370
    25
100
AcDbLine
 10
500.9904
 20
398.2080421053
 30
0.0
 11
500.4904
 21
397.7080421053
 31
0.0
  0
LINE
  5
11E
330
1F
100
AcDbEntity
  8
0
  6
SLD-Durchgehend
 62
   250
420
  1644836
370
    25
100
AcDbLine
 10
500.4904
 20
397.7080421053
 30
0.0
 11
496.4904
 21
397.7080421053
 31
0.0
  0
LINE
  5
11F
330
1F
100
AcDbEntity
  8
0
  6
SLD-Durchgehend
 62
   250
420
  1644836
370
    25
100
AcDbLine
 10
495.7404
 20
402.2080421053
 30
0.0
 11
501.2404
 21
402.2080421053
 31
0.0
  0
LINE
  5
120
330
1F
100
AcDbEntity
  8
0
  6
SLD-Durchgehend
 62
   250
420
  1644836
370
    25
100
AcDbLine
 10
500.9904
 20
400.7080421053
 30
0.0
 11
501.2404
 21
400.7080421053
 31
0.0
  0
LINE
  5
121
330
1F
100
AcDbEntity
  8
0
  6
SLD-Durchgehend
 62
   250
420
  1644836
370
    25
100
AcDbLine
 10
495.7404
 20
400.7080421053
 30
0.0
 11
495.9904
 21
400.7080421053
 31
0.0
  0
LINE
  5
122
330
1F
100
AcDbEntity
  8
0
  6
SLD-Durchgehend
 62
   250
420
  1644836
370
    25
100
AcDbLine
 10
227.9904
 20
411.7080421053
 30
0.0
 11
227.9904
 21
403.2080421053
 31
0.0
  0
LINE
  5
123
330
1F
100
AcDbEntity
  8
0
  6
SLD-Durchgehend
 62
   250
420
  1644836
370
    25
100
AcDbLine
 10
228.9904
 20
402.2080421053
 30
0.0
 11
233.7404
 21
402.2080421053
 31
0.0
  0
LINE
  5
124
330
1F
100
AcDbEntity
  8
0
  6
SLD-Durchgehend
 62
   250
420
  1644836
370
    25
100
AcDbLine
 10
228.9904
 20
400.7080421053
 30
0.0
 11
233.7404
 21
400.7080421053
 31
0.0
  0
LINE
  5
125
330
1F
100
AcDbEntity
  8
0
  6
SLD-Durchgehend
 62
   250
420
  1644836
370
    25
100
AcDbLine
 10
226.4904
 20
411.7080421053
 30
0.0
 11
226.4904
 21
403.2080421053
 31
0.0
  0
LINE
  5
126
330
1F
100
AcDbEntity
  8
0
  6
SLD-Durchgehend
 62
   250
420
  1644836
370
    25
100
AcDbLine
 10
226.4904
 20
411.7080421053
 30
0.0
 11
227.9904
 21
411.7080421053
 31
0.0
  0
LINE
  5
127
330
1F
100
AcDbEntity
  8
0
  6
SLD-Durchgehend
 62
   250
420
  1644836
370
    25
100
AcDbLine
 10
418.7404
 20
401.9330421053
 30
0.0
 11
416.2404
 21
401.9330421053
 31
0.0
  0
LINE
  5
128
330
1F
100
AcDbEntity
  8
0
  6
SLD-Durchgehend
 62
   250
420
  1644836
370
    25
100
AcDbLine
 10
416.2404
 20
401.9330421053
 30
0.0
 11
415.9654
 21
402.2080421053
 31
0.0
  0
LINE
  5
129
330
1F
100
AcDbEntity
  8
0
  6
SLD-Durchgehend
 62
   250
420
  1644836
370
    25
100
AcDbLine
 10
419.0154
 20
402.2080421053
 30
0.0
 11
415.9654
 21
402.2080421053
 31
0.0
  0
LINE
  5
12A
330
1F
100
AcDbEntity
  8
0
  6
SLD-Durchgehend
 62
   250
420
  1644836
370
    25
100
AcDbLine
 10
419.0154
 20
402.2080421053
 30
0.0
 11
418.7404
 21
401.9330421053
 31
0.0
  0
LINE
  5
12B
330
1F
100
AcDbEntity
  8
0
  6
SLD-Durchgehend
 62
   250
420
  1644836
370
    25
100
AcDbLine
 10
418.7404
 20
400.7080421053
 30
0.0
 11
416.2404
 21
400.7080421053
 31
0.0
  0
LINE
  5
12C
330
1F
100
AcDbEntity
  8
0
  6
SLD-Durchgehend
 62
   250
420
  1644836
370
    25
100
AcDbLine
 10
416.2404
 20
400.7080421053
 30
0.0
 11
416.2404
 21
401.9330421053
 31
0.0
  0
LINE
  5
12D
330
1F
100
AcDbEntity
  8
0
  6
SLD-Durchgehend
 62
   250
420
  1644836
370
    25
100
AcDbLine
 10
418.7404
 20
401.9330421053
 30
0.0
 11
418.7404
 21
400.7080421053
 31
0.0
  0
LINE
  5
12E
330
1F
100
AcDbEntity
  8
0
  6
SLD-Durchgehend
 62
   250
420
  1644836
370
    25
100
AcDbLine
 10
368.9404
 20
400.7080421053
 30
0.0
 11
368.7404
 21
400.9080421053
 31
0.0
  0
LINE
  5
12F
330
1F
100
AcDbEntity
  8
0
  6
SLD-Durchgehend
 62
   250
420
  1644836
370
    25
100
AcDbLine
 10
366.2404
 20
400.9080421053
 30
0.0
 11
366.0404
 21
400.7080421053
 31
0.0
  0
LINE
  5
130
330
1F
100
AcDbEntity
  8
0
  6
SLD-Durchgehend
 62
   250
420
  1644836
370
    25
100
AcDbLine
 10
366.2404
 20
401.9330421053
 30
0.0
 11
365.9654
 21
402.2080421053
 31
0.0
  0
LINE
  5
131
330
1F
100
AcDbEntity
  8
0
  6
SLD-Durchgehend
 62
   250
420
  1644836
370
    25
100
AcDbLine
 10
369.0154
 20
402.2080421053
 30
0.0
 11
368.9904
 21
402.2080421053
 31
0.0
  0
LINE
  5
132
330
1F
100
AcDbEntity
  8
0
  6
SLD-Durchgehend
 62
   250
420
  1644836
370
    25
100
AcDbLine
 10
365.9904
 20
402.2080421053
 30
0.0
 11
365.9654
 21
402.2080421053
 31
0.0
  0
LINE
  5
133
330
1F
100
AcDbEntity
  8
0
  6
SLD-Durchgehend
 62
   250
420
  1644836
370
    25
100
AcDbLine
 10
369.0154
 20
402.2080421053
 30
0.0
 11
368.7404
 21
401.9330421053
 31
0.0
  0
LINE
  5
134
330
1F
100
AcDbEntity
  8
0
  6
SLD-Durchgehend
 62
   250
420
  1644836
370
    25
100
AcDbLine
 10
366.2404
 20
400.9080421053
 30
0.0
 11
366.2404
 21
401.9330421053
 31
0.0
  0
LINE
  5
135
330
1F
100
AcDbEntity
  8
0
  6
SLD-Durchgehend
 62
   250
420
  1644836
370
    25
100
AcDbLine
 10
368.7404
 20
401.9330421053
 30
0.0
 11
368.7404
 21
400.9080421053
 31
0.0
  0
LINE
  5
136
330
1F
100
AcDbEntity
  8
0
  6
SLD-Durchgehend
 62
   250
420
  1644836
370
    25
100
AcDbLine
 10
368.9404
 20
400.7080421053
 30
0.0
 11
416.2404
 21
400.7080421053
 31
0.0
  0
LINE
  5
137
330
1F
100
AcDbEntity
  8
0
  6
SLD-Durchgehend
 62
   250
420
  1644836
370
    25
100
AcDbLine
 10
369.0154
 20
402.2080421053
 30
0.0
 11
415.9654
 21
402.2080421053
 31
0.0
  0
LINE
  5
138
330
1F
100
AcDbEntity
  8
0
  6
SLD-Durchgehend
 62
   250
420
  1644836
370
    25
100
AcDbLine
 10
318.7404
 20
401.9330421053
 30
0.0
 11
318.7404
 21
400.7080421053
 31
0.0
  0
LINE
  5
139
330
1F
100
AcDbEntity
  8
0
  6
SLD-Durchgehend
 62
   250
420
  1644836
370
    25
100
AcDbLine
 10
319.0154
 20
402.2080421053
 30
0.0
 11
318.7404
 21
401.9330421053
 31
0.0
  0
LINE
  5
13A
330
1F
100
AcDbEntity
  8
0
  6
SLD-Durchgehend
 62
   250
420
  1644836
370
    25
100
AcDbLine
 10
318.7404
 20
400.7080421053
 30
0.0
 11
366.0404
 21
400.7080421053
 31
0.0
  0
LINE
  5
13B
330
1F
100
AcDbEntity
  8
0
  6
SLD-Durchgehend
 62
   250
420
  1644836
370
    25
100
AcDbLine
 10
319.0154
 20
402.2080421053
 30
0.0
 11
365.9654
 21
402.2080421053
 31
0.0
  0
LINE
  5
13C
330
1F
100
AcDbEntity
  8
0
  6
SLD-Durchgehend
 62
   250
420
  1644836
370
    25
100
AcDbLine
 10
318.7404
 20
401.9330421053
 30
0.0
 11
316.2404
 21
401.9330421053
 31
0.0
  0
LINE
  5
13D
330
1F
100
AcDbEntity
  8
0
  6
SLD-Durchgehend
 62
   250
420
  1644836
370
    25
100
AcDbLine
 10
316.2404
 20
401.9330421053
 30
0.0
 11
315.9654
 21
402.2080421053
 31
0.0
  0
LINE
  5
13E
330
1F
100
AcDbEntity
  8
0
  6
SLD-Durchgehend
 62
   250
420
  1644836
370
    25
100
AcDbLine
 10
319.0154
 20
402.2080421053
 30
0.0
 11
315.9654
 21
402.2080421053
 31
0.0
  0
LINE
  5
13F
330
1F
100
AcDbEntity
  8
0
  6
SLD-Durchgehend
 62
   250
420
  1644836
370
    25
100
AcDbLine
 10
316.2404
 20
400.7080421053
 30
0.0
 11
316.2404
 21
401.9330421053
 31
0.0
  0
LINE
  5
140
330
1F
100
AcDbEntity
  8
0
  6
SLD-Durchgehend
 62
   250
420
  1644836
370
    25
100
AcDbLine
 10
239.2404
 20
400.7080421053
 30
0.0
 11
316.2404
 21
400.7080421053
 31
0.0
  0
LINE
  5
141
330
1F
100
AcDbEntity
  8
0
  6
SLD-Durchgehend
 62
   250
420
  1644836
370
    25
100
AcDbLine
 10
239.2404
 20
402.2080421053
 30
0.0
 11
315.9654
 21
402.2080421053
 31
0.0
  0
LINE
  5
142
330
1F
100
AcDbEntity
  8
0
  6
SLD-Durchgehend
 62
   250
420
  1644836
370
    25
100
AcDbLine
 10
318.7404
 20
400.7080421053
 30
0.0
 11
316.2404
 21
400.7080421053
 31
0.0
  0
LINE
  5
143
330
1F
100
AcDbEntity
  8
0
  6
SLD-Durchgehend
 62
   250
420
  1644836
370
    25
100
AcDbLine
 10
501.2404
 20
400.7080421053
 30
0.0
 11
505.9904
 21
400.7080421053
 31
0.0
  0
LINE
  5
144
330
1F
100
AcDbEntity
  8
0
  6
SLD-Durchgehend
 62
   250
420
  1644836
370
    25
100
AcDbLine
 10
501.2404
 20
402.2080421053
 30
0.0
 11
505.9904
 21
402.2080421053
 31
0.0
  0
LINE
  5
145
330
1F
100
AcDbEntity
  8
0
  6
SLD-Durchgehend
 62
   250
420
  1644836
370
    25
100
AcDbLine
 10
506.9904
 20
411.7080421053
 30
0.0
 11
508.4904
 21
411.7080421053
 31
0.0
  0
LINE
  5
146
330
1F
100
AcDbEntity
  8
0
  6
SLD-Durchgehend
 62
   250
420
  1644836
370
    25
100
AcDbLine
 10
508.4904
 20
403.2080421053
 30
0.0
 11
508.4904
 21
411.7080421053
 31
0.0
  0
LINE
  5
147
330
1F
100
AcDbEntity
  8
0
  6
SLD-Durchgehend
 62
   250
420
  1644836
370
    25
100
AcDbLine
 10
506.9904
 20
403.2080421053
 30
0.0
 11
506.9904
 21
411.7080421053
 31
0.0
  0
LINE
  5
148
330
1F
100
AcDbEntity
  8
0
  6
SLD-Durchgehend
 62
   250
420
  1644836
370
    25
100
AcDbLine
 10
418.7404
 20
400.7080421053
 30
0.0
 11
495.7404
 21
400.7080421053
 31
0.0
  0
LINE
  5
149
330
1F
100
AcDbEntity
  8
0
  6
SLD-Durchgehend
 62
   250
420
  1644836
370
    25
100
AcDbLine
 10
419.0154
 20
402.2080421053
 30
0.0
 11
495.7404
 21
402.2080421053
 31
0.0
  0
LINE
  5
14A
330
1F
100
AcDbEntity
  8
0
  6
SLD-Durchgehend
 62
   250
420
  1644836
370
    25
100
AcDbLine
 10
228.9904
 20
402.2080421053
 30
0.0
 11
228.9904
 21
403.2080421053
 31
0.0
  0
LINE
  5
14B
330
1F
100
AcDbEntity
  8
0
  6
SLD-Durchgehend
 62
   250
420
  1644836
370
    25
100
AcDbLine
 10
505.9904
 20
403.2080421053
 30
0.0
 11
505.9904
 21
402.2080421053
 31
0.0
  0
LINE
  5
14C
330
1F
100
AcDbEntity
  8
0
  6
SLD-Durchgehend
 62
   250
420
  1644836
370
    25
100
AcDbLine
 10
228.9904
 20
403.9482911053
 30
0.0
 11
228.9904
 21
403.2080421053
 31
0.0
  0
LINE
  5
14D
330
1F
100
AcDbEntity
  8
0
  6
SLD-Durchgehend
 62
   250
420
  1644836
370
    25
100
AcDbLine
 10
228.9904
 20
403.9482911053
 30
0.0
 11
228.0904
 21
403.9482911053
 31
0.0
  0
LINE
  5
14E
330
1F
100
AcDbEntity
  8
0
  6
SLD-Durchgehend
 62
   250
420
  1644836
370
    25
100
AcDbLine
 10
506.8904
 20
411.7080421053
 30
0.0
 11
228.0904
 21
411.7080421053
 31
0.0
  0
LINE
  5
14F
330
1F
100
AcDbEntity
  8
0
  6
SLD-Durchgehend
 62
   250
420
  1644836
370
    25
100
AcDbLine
 10
506.8904
 20
411.7080421053
 30
0.0
 11
506.8904
 21
403.9482911053
 31
0.0
  0
LINE
  5
150
330
1F
100
AcDbEntity
  8
0
  6
SLD-Durchgehend
 62
   250
420
  1644836
370
    25
100
AcDbLine
 10
505.9904
 20
403.9482911053
 30
0.0
 11
506.8904
 21
403.9482911053
 31
0.0
  0
LINE
  5
151
330
1F
100
AcDbEntity
  8
0
  6
SLD-Durchgehend
 62
   250
420
  1644836
370
    25
100
AcDbLine
 10
505.9904
 20
403.9482911053
 30
0.0
 11
505.9904
 21
403.2080421053
 31
0.0
  0
LINE
  5
152
330
1F
100
AcDbEntity
  8
0
  6
SLD-Durchgehend
 62
   250
420
  1644836
370
    25
100
AcDbLine
 10
228.0904
 20
403.9482911053
 30
0.0
 11
228.0904
 21
411.7080421053
 31
0.0
  0
LINE
  5
153
330
1F
100
AcDbEntity
  8
0
  6
SLD-Punktstrich
 62
   250
420
  1644836
370
    18
100
AcDbLine
 10
367.4904
 20
399.2080421053
 30
0.0
 11
367.4904
 21
415.7080421053
 31
0.0
  0
ARC
  5
154
330
1F
100
AcDbEntity
  8
0
  6
SLD-Durchgehend
 62
   179
420
  2171202
370
    18
100
AcDbCircle
 10
228.9904
 20
403.2080421053
 30
0.0
 40
2.5
100
AcDbArc
 50
180.0
 51
270.0
  0
ARC
  5
155
330
1F
100
AcDbEntity
  8
0
  6
SLD-Durchgehend
 62
   179
420
  2171202
370
    18
100
AcDbCircle
 10
228.9904
 20
403.2080421053
 30
0.0
 40
1.0
100
AcDbArc
 50
180.0
 51
270.0
  0
ARC
  5
156
330
1F
100
AcDbEntity
  8
0
  6
SLD-Durchgehend
 62
   179
420
  2171202
370
    18
100
AcDbCircle
 10
505.9904
 20
403.2080421053
 30
0.0
 40
1.0
100
AcDbArc
 50
270.0
 51
0.0
  0
ARC
  5
157
330
1F
100
AcDbEntity
  8
0
  6
SLD-Durchgehend
 62
   179
420
  2171202
370
    18
100
AcDbCircle
 10
505.9904
 20
403.2080421053
 30
0.0
 40
2.5
100
AcDbArc
 50
270.0
 51
0.0
  0
ARC
  5
158
330
1F
100
AcDbEntity
  8
0
  6
SLD-Durchgehend
 62
   179
420
  2171202
370
    18
100
AcDbCircle
 10
369.0904
 20
400.4494634615
 30
0.0
 40
0.1000000000000651
100
AcDbArc
 50
180.0
 51
225.0
  0
ARC
  5
159
330
1F
100
AcDbEntity
  8
0
  6
SLD-Durchgehend
 62
   179
420
  2171202
370
    18
100
AcDbCircle
 10
365.8904
 20
400.4494634615
 30
0.0
 40
0.1000000000000796
100
AcDbArc
 50
315.0
 51
0.0
  0
CIRCLE
  5
15A
330
1F
100
AcDbEntity
  8
0
  6
SLD-Durchgehend
 62
   250
420
  1644836
370
    25
100
AcDbCircle
 10
367.4904
 20
284.8075789474
 30
0.0
 40
1.500000000000057
  0
CIRCLE
  5
15B
330
1F
100
AcDbEntity
  8
0
  6
SLD-Durchgehend
 62
   250
420
  1644836
370
    25
100
AcDbCircle
 10
367.4904
 20
284.8075789474
 30
0.0
 40
1.193500000000029
  0
CIRCLE
  5
15C
330
1F
100
AcDbEntity
  8
0
  6
SLD-Durchgehend
 62
   250
420
  1644836
370
    25
100
AcDbCircle
 10
367.4904
 20
284.8075789474
 30
0.0
 40
1.525000000000091
  0
CIRCLE
  5
15D
330
1F
100
AcDbEntity
  8
0
  6
SLD-Durchgehend
 62
   250
420
  1644836
370
    25
100
AcDbCircle
 10
317.4904
 20
284.8075789474
 30
0.0
 40
1.525000000000034
  0
CIRCLE
  5
15E
330
1F
100
AcDbEntity
  8
0
  6
SLD-Durchgehend
 62
   250
420
  1644836
370
    25
100
AcDbCircle
 10
317.4904
 20
284.8075789474
 30
0.0
 40
1.250000000000057
  0
CIRCLE
  5
15F
330
1F
100
AcDbEntity
  8
0
  6
SLD-Durchgehend
 62
   250
420
  1644836
370
    25
100
AcDbCircle
 10
417.4904
 20
284.8075789474
 30
0.0
 40
1.525000000000091
  0
CIRCLE
  5
160
330
1F
100
AcDbEntity
  8
0
  6
SLD-Durchgehend
 62
   250
420
  1644836
370
    25
100
AcDbCircle
 10
417.4904
 20
284.8075789474
 30
0.0
 40
1.250000000000114
  0
CIRCLE
  5
161
330
1F
100
AcDbEntity
  8
0
  6
SLD-Durchgehend
 62
   250
420
  1644836
370
    25
100
AcDbCircle
 10
498.4904
 20
284.8075789474
 30
0.0
 40
2.750000000000057
  0
CIRCLE
  5
162
330
1F
100
AcDbEntity
  8
0
  6
SLD-Durchgehend
 62
   250
420
  1644836
370
    25
100
AcDbCircle
 10
236.4904
 20
284.8075789474
 30
0.0
 40
2.75
  0
ARC
  5
163
330
1F
100
AcDbEntity
  8
0
  6
SLD-Durchgehend
 62
   250
420
  1644836
370
    25
100
AcDbCircle
 10
365.8904
 20
400.4494634615
 30
0.0
 40
0.1000000000000796
100
AcDbArc
 50
315.0
 51
0.0
  0
ARC
  5
164
330
1F
100
AcDbEntity
  8
0
  6
SLD-Durchgehend
 62
   250
420
  1644836
370
    25
100
AcDbCircle
 10
369.0904
 20
400.4494634615
 30
0.0
 40
0.1000000000000651
100
AcDbArc
 50
180.0
 51
225.0
  0
ARC
  5
165
330
1F
100
AcDbEntity
  8
0
  6
SLD-Durchgehend
 62
   250
420
  1644836
370
    25
100
AcDbCircle
 10
228.9904
 20
403.2080421053
 30
0.0
 40
1.0
100
AcDbArc
 50
180.0
 51
270.0
  0
ARC
  5
166
330
1F
100
AcDbEntity
  8
0
  6
SLD-Durchgehend
 62
   250
420
  1644836
370
    25
100
AcDbCircle
 10
228.9904
 20
403.2080421053
 30
0.0
 40
2.5
100
AcDbArc
 50
180.0
 51
270.0
  0
ARC
  5
167
330
1F
100
AcDbEntity
  8
0
  6
SLD-Durchgehend
 62
   250
420
  1644836
370
    25
100
AcDbCircle
 10
505.9904
 20
403.2080421053
 30
0.0
 40
1.0
100
AcDbArc
 50
270.0
 51
0.0
  0
ARC
  5
168
330
1F
100
AcDbEntity
  8
0
  6
SLD-Durchgehend
 62
   250
420
  1644836
370
    25
100
AcDbCircle
 10
505.9904
 20
403.2080421053
 30
0.0
 40
2.5
100
AcDbArc
 50
270.0
 51
0.0
  0
HATCH
  5
169
330
1F
100
AcDbEntity
  8
0
 62
   250
420
  1644836
100
AcDbHatch
 10
0.0
 20
0.0
 30
0.0
210
0.0
220
0.0
230
1.0
  2
ANSI31
 70
     0
 71
     0
 91
        1
 92
        0
 93
        8
 72
     1
 10
227.9903999999999
 20
403.208042105263
 11
227.9903999999999
 21
411.708042105263
 72
     1
 10
227.9903999999999
 20
411.708042105263
 11
226.4903999999999
 21
411.708042105263
 72
     1
 10
226.4903999999999
 20
411.708042105263
 11
226.4903999999999
 21
403.208042105263
 72
     2
 10
228.9903999999999
 20
403.208042105263
 40
2.499999999999988
 50
180.0
 51
270.0000000000008
 73
     1
 72
     1
 10
228.9903999999999
 20
400.708042105263
 11
233.7403999999999
 21
400.708042105263
 72
     1
 10
233.7403999999999
 20
400.708042105263
 11
233.7403999999999
 21
402.208042105263
 72
     1
 10
233.7403999999999
 20
402.208042105263
 11
228.9903999999999
 21
402.208042105263
 72
     2
 10
228.9903999999999
 20
403.208042105263
 40
0.999999999999987
 50
90.0
 51
180.0
 73
     0
 97
        0
 75
     0
 76
     1
 52
0.0
 41
2.0
 77
     0
 78
     1
 53
45.0
 43
0.0
 44
0.0
 45
-4.490128060534577
 46
4.490128060534577
 79
     0
 98
        1
 10
0.0
 20
0.0
  0
HATCH
  5
16A
330
1F
100
AcDbEntity
  8
0
 62
   250
420
  1644836
100
AcDbHatch
 10
0.0
 20
0.0
 30
0.0
210
0.0
220
0.0
230
1.0
  2
ANSI31
 70
     0
 71
     0
 91
        1
 92
        0
 93
        7
 72
     1
 10
368.9403999999999
 20
400.708042105263
 11
416.2403999999999
 21
400.708042105263
 72
     1
 10
416.2403999999999
 20
400.708042105263
 11
416.2403999999999
 21
401.933042105263
 72
     1
 10
416.2403999999999
 20
401.933042105263
 11
415.9653999999999
 21
402.208042105263
 72
     1
 10
415.9653999999999
 20
402.208042105263
 11
369.0153999999999
 21
402.208042105263
 72
     1
 10
369.0153999999999
 20
402.208042105263
 11
368.7403999999999
 21
401.933042105263
 72
     1
 10
368.7403999999999
 20
401.933042105263
 11
368.7403999999999
 21
400.9080421052632
 72
     1
 10
368.7403999999999
 20
400.9080421052632
 11
368.9403999999999
 21
400.708042105263
 97
        0
 75
     0
 76
     1
 52
0.0
 41
2.0
 77
     0
 78
     1
 53
45.0
 43
0.0
 44
0.0
 45
-4.490128060534577
 46
4.490128060534577
 79
     0
 98
        1
 10
0.0
 20
0.0
  0
HATCH
  5
16B
330
1F
100
AcDbEntity
  8
0
 62
   250
420
  1644836
100
AcDbHatch
 10
0.0
 20
0.0
 30
0.0
210
0.0
220
0.0
230
1.0
  2
ANSI31
 70
     0
 71
     0
 91
        1
 92
        0
 93
        7
 72
     1
 10
366.2403999999999
 20
401.933042105263
 11
365.9653999999999
 21
402.208042105263
 72
     1
 10
365.9653999999999
 20
402.208042105263
 11
319.0153999999999
 21
402.208042105263
 72
     1
 10
319.0153999999999
 20
402.208042105263
 11
318.7403999999999
 21
401.933042105263
 72
     1
 10
318.7403999999999
 20
401.933042105263
 11
318.7403999999999
 21
400.708042105263
 72
     1
 10
318.7403999999999
 20
400.708042105263
 11
366.0403999999999
 21
400.708042105263
 72
     1
 10
366.0403999999999
 20
400.708042105263
 11
366.2403999999999
 21
400.9080421052632
 72
     1
 10
366.2403999999999
 20
400.9080421052632
 11
366.2403999999999
 21
401.933042105263
 97
        0
 75
     0
 76
     1
 52
0.0
 41
2.0
 77
     0
 78
     1
 53
45.0
 43
0.0
 44
0.0
 45
-4.490128060534577
 46
4.490128060534577
 79
     0
 98
        1
 10
0.0
 20
0.0
  0
HATCH
  5
16C
330
1F
100
AcDbEntity
  8
0
 62
   250
420
  1644836
100
AcDbHatch
 10
0.0
 20
0.0
 30
0.0
210
0.0
220
0.0
230
1.0
  2
ANSI31
 70
     0
 71
     0
 91
        1
 92
        0
 93
        5
 72
     1
 10
316.2403999999999
 20
401.933042105263
 11
315.9653999999999
 21
402.208042105263
 72
     1
 10
315.9653999999999
 20
402.208042105263
 11
239.2403999999999
 21
402.208042105263
 72
     1
 10
239.2403999999999
 20
402.208042105263
 11
239.2403999999999
 21
400.708042105263
 72
     1
 10
239.2403999999999
 20
400.708042105263
 11
316.2403999999999
 21
400.708042105263
 72
     1
 10
316.2403999999999
 20
400.708042105263
 11
316.2403999999999
 21
401.933042105263
 97
        0
 75
     0
 76
     1
 52
0.0
 41
2.0
 77
     0
 78
     1
 53
45.0
 43
0.0
 44
0.0
 45
-4.490128060534577
 46
4.490128060534577
 79
     0
 98
        1
 10
0.0
 20
0.0
  0
HATCH
  5
16D
330
1F
100
AcDbEntity
  8
0
 62
   250
420
  1644836
100
AcDbHatch
 10
0.0
 20
0.0
 30
0.0
210
0.0
220
0.0
230
1.0
  2
ANSI31
 70
     0
 71
     0
 91
        1
 92
        0
 93
        5
 72
     1
 10
418.7403999999999
 20
400.708042105263
 11
495.7403999999999
 21
400.708042105263
 72
     1
 10
495.7403999999999
 20
400.708042105263
 11
495.7403999999999
 21
402.208042105263
 72
     1
 10
495.7403999999999
 20
402.208042105263
 11
419.0153999999999
 21
402.208042105263
 72
     1
 10
419.0153999999999
 20
402.208042105263
 11
418.7403999999999
 21
401.933042105263
 72
     1
 10
418.7403999999999
 20
401.933042105263
 11
418.7403999999999
 21
400.708042105263
 97
        0
 75
     0
 76
     1
 52
0.0
 41
2.0
 77
     0
 78
     1
 53
45.0
 43
0.0
 44
0.0
 45
-4.490128060534577
 46
4.490128060534577
 79
     0
 98
        1
 10
0.0
 20
0.0
  0
HATCH
  5
16E
330
1F
100
AcDbEntity
  8
0
 62
   250
420
  1644836
100
AcDbHatch
 10
0.0
 20
0.0
 30
0.0
210
0.0
220
0.0
230
1.0
  2
ANSI31
 70
     0
 71
     0
 91
        1
 92
        0
 93
        8
 72
     1
 10
508.4903999999999
 20
403.208042105263
 11
508.4903999999999
 21
411.708042105263
 72
     1
 10
508.4903999999999
 20
411.708042105263
 11
506.9904
 21
411.708042105263
 72
     1
 10
506.9904
 20
411.708042105263
 11
506.9904
 21
403.208042105263
 72
     2
 10
505.9904
 20
403.208042105263
 40
1.000000000000001
 50
0.0
 51
90.0
 73
     0
 72
     1
 10
505.9904
 20
402.208042105263
 11
501.2403999999999
 21
402.208042105263
 72
     1
 10
501.2403999999999
 20
402.208042105263
 11
501.2403999999999
 21
400.708042105263
 72
     1
 10
501.2403999999999
 20
400.708042105263
 11
505.9904000000001
 21
400.708042105263
 72
     2
 10
505.9904
 20
403.208042105263
 40
2.499999999999974
 50
270.0000000000034
 51
360.0000000000008
 73
     1
 97
        0
 75
     0
 76
     1
 52
0.0
 41
2.0
 77
     0
 78
     1
 53
45.0
 43
0.0
 44
0.0
 45
-4.490128060534577
 46
4.490128060534577
 79
     0
 98
        1
 10
0.0
 20
0.0
  0
HATCH
  5
16F
330
1F
100
AcDbEntity
  8
0
 62
   250
420
  1644836
100
AcDbHatch
 10
0.0
 20
0.0
 30
0.0
210
0.0
220
0.0
230
1.0
  2
ANSI31
 70
     0
 71
     0
 91
        1
 92
        0
 93
       10
 72
     1
 10
500.9904
 20
400.708042105263
 11
501.2403999999999
 21
400.708042105263
 72
     1
 10
501.2403999999999
 20
400.708042105263
 11
501.2403999999999
 21
402.208042105263
 72
     1
 10
501.2403999999999
 20
402.208042105263
 11
495.7403999999999
 21
402.208042105263
 72
     1
 10
495.7403999999999
 20
402.208042105263
 11
495.7403999999999
 21
400.708042105263
 72
     1
 10
495.7403999999999
 20
400.708042105263
 11
495.9904
 21
400.708042105263
 72
     1
 10
495.9904
 20
400.708042105263
 11
495.9904
 21
398.208042105263
 72
     1
 10
495.9904
 20
398.208042105263
 11
496.4904
 21
397.708042105263
 72
     1
 10
496.4904
 20
397.708042105263
 11
500.4903999999999
 21
397.708042105263
 72
     1
 10
500.4903999999999
 20
397.708042105263
 11
500.9904
 21
398.208042105263
 72
     1
 10
500.9904
 20
398.208042105263
 11
500.9904
 21
400.708042105263
 97
        0
 75
     0
 76
     1
 52
0.0
 41
2.0
 77
     0
 78
     1
 53
45.0
 43
0.0
 44
0.0
 45
-4.490128060534577
 46
4.490128060534577
 79
     0
 98
        1
 10
0.0
 20
0.0
  0
HATCH
  5
170
330
1F
100
AcDbEntity
  8
0
 62
   250
420
  1644836
100
AcDbHatch
 10
0.0
 20
0.0
 30
0.0
210
0.0
220
0.0
230
1.0
  2
ANSI31
 70
     0
 71
     0
 91
        1
 92
        0
 93
       10
 72
     1
 10
238.9903999999999
 20
400.708042105263
 11
239.2403999999999
 21
400.708042105263
 72
     1
 10
239.2403999999999
 20
400.708042105263
 11
239.2403999999999
 21
402.208042105263
 72
     1
 10
239.2403999999999
 20
402.208042105263
 11
233.7403999999999
 21
402.208042105263
 72
     1
 10
233.7403999999999
 20
402.208042105263
 11
233.7403999999999
 21
400.708042105263
 72
     1
 10
233.7403999999999
 20
400.708042105263
 11
233.9903999999999
 21
400.708042105263
 72
     1
 10
233.9903999999999
 20
400.708042105263
 11
233.9903999999999
 21
398.708042105263
 72
     1
 10
233.9903999999999
 20
398.708042105263
 11
234.9903999999999
 21
397.708042105263
 72
     1
 10
234.9903999999999
 20
397.708042105263
 11
237.9903999999999
 21
397.708042105263
 72
     1
 10
237.9903999999999
 20
397.708042105263
 11
238.9903999999999
 21
398.708042105263
 72
     1
 10
238.9903999999999
 20
398.708042105263
 11
238.9903999999999
 21
400.708042105263
 97
        0
 75
     0
 76
     1
 52
0.0
 41
2.0
 77
     0
 78
     1
 53
45.0
 43
0.0
 44
0.0
 45
-4.490128060534577
 46
4.490128060534577
 79
     0
 98
        1
 10
0.0
 20
0.0
  0
HATCH
  5
171
330
1F
100
AcDbEntity
  8
0
 62
   250
420
  1644836
100
AcDbHatch
 10
0.0
 20
0.0
 30
0.0
210
0.0
220
0.0
230
1.0
  2
ANSI31
 70
     0
 71
     0
 91
        1
 92
        0
 93
        5
 72
     1
 10
369.0903999999999
 20
400.708042105263
 11
369.0903999999999
 21
400.208042105263
 72
     1
 10
369.0903999999999
 20
400.208042105263
 11
370.5903999999999
 21
398.708042105263
 72
     1
 10
370.5903999999999
 20
398.708042105263
 11
370.9904
 21
398.708042105263
 72
     1
 10
370.9904
 20
398.708042105263
 11
370.9904
 21
400.708042105263
 72
     1
 10
370.9904
 20
400.708042105263
 11
369.0903999999999
 21
400.708042105263
 97
        0
 75
     0
 76
     1
 52
0.0
 41
2.0
 77
     0
 78
     1
 53
45.0
 43
0.0
 44
0.0
 45
-4.490128060534577
 46
4.490128060534577
 79
     0
 98
        1
 10
0.0
 20
0.0
  0
HATCH
  5
172
330
1F
100
AcDbEntity
  8
0
 62
   250
420
  1644836
100
AcDbHatch
 10
0.0
 20
0.0
 30
0.0
210
0.0
220
0.0
230
1.0
  2
ANSI31
 70
     0
 71
     0
 91
        1
 92
        0
 93
        5
 72
     1
 10
363.9903999999999
 20
398.708042105263
 11
364.3903999999999
 21
398.708042105263
 72
     1
 10
364.3903999999999
 20
398.708042105263
 11
365.8903999999999
 21
400.208042105263
 72
     1
 10
365.8903999999999
 20
400.208042105263
 11
365.8903999999999
 21
400.708042105263
 72
     1
 10
365.8903999999999
 20
400.708042105263
 11
363.9903999999999
 21
400.708042105263
 72
     1
 10
363.9903999999999
 20
400.708042105263
 11
363.9903999999999
 21
398.708042105263
 97
        0
 75
     0
 76
     1
 52
0.0
 41
2.0
 77
     0
 78
     1
 53
45.0
 43
0.0
 44
0.0
 45
-4.490128060534577
 46
4.490128060534577
 79
     0
 98
        1
 10
0.0
 20
0.0
  0
HATCH
  5
173
330
1F
100
AcDbEntity
  8
0
 62
   250
420
  1644836
100
AcDbHatch
 10
0.0
 20
0.0
 30
0.0
210
0.0
220
0.0
230
1.0
  2
ANSI31
 70
     0
 71
     0
 91
        1
 92
        0
 93
       16
 72
     1
 10
364.4903999999999
 20
398.708042105263
 11
366.4378065771434
 21
398.708042105263
 72
     1
 10
366.4378065771434
 20
398.708042105263
 11
366.4378065771434
 21
399.9080421052631
 72
     1
 10
366.4378065771434
 20
399.9080421052631
 11
368.5429934228564
 21
399.9080421052631
 72
     1
 10
368.5429934228564
 20
399.9080421052631
 11
368.5429934228564
 21
398.708042105263
 72
     1
 10
368.5429934228564
 20
398.708042105263
 11
370.4904
 21
398.708042105263
 72
     1
 10
370.4904
 20
398.708042105263
 11
370.4904
 21
398.9080421052631
 72
     1
 10
370.4904
 20
398.9080421052631
 11
369.0196893218812
 21
400.3787527833816
 72
     2
 10
369.0903999999999
 20
400.4494634615003
 40
0.0999999999999999
 50
135.0
 51
180.0
 73
     0
 72
     1
 10
368.9903999999999
 20
400.4494634615003
 11
368.9904
 21
402.401542105263
 72
     1
 10
368.9904
 20
402.401542105263
 11
368.6838999999999
 21
402.708042105263
 72
     1
 10
368.6838999999999
 20
402.708042105263
 11
366.2968999999999
 21
402.708042105263
 72
     1
 10
366.2968999999999
 20
402.708042105263
 11
365.9904
 21
402.401542105263
 72
     1
 10
365.9904
 20
402.401542105263
 11
365.9904
 21
400.4494634615003
 72
     2
 10
365.8903999999999
 20
400.4494634615003
 40
0.1000000000000162
 50
0.0
 51
45.00000000004606
 73
     0
 72
     1
 10
365.9611106781185
 20
400.3787527833816
 11
364.4903999999999
 21
398.9080421052631
 72
     1
 10
364.4903999999999
 20
398.9080421052631
 11
364.4903999999999
 21
398.708042105263
 97
        0
 75
     0
 76
     1
 52
0.0
 41
2.0
 77
     0
 78
     1
 53
45.0
 43
0.0
 44
0.0
 45
-4.490128060534577
 46
4.490128060534577
 79
     0
 98
        1
 10
0.0
 20
0.0
  0
DIMENSION
  5
174
330
1F
100
AcDbEntity
  8
0
  6
SLD-Durchgehend
 62
   250
420
  1644836
370
    18
100
AcDbDimension
280
     0
  2
_D
 10
226.4904
 20
437.8035433278
 30
0.0
 11
369.0574407481
 21
437.8035433278
 31
0.0
 70
   160
  1
<> x 282
 71
     2
 42
-1.0
 73
     0
 74
     0
 75
     0
  3
SLDDIMSTYLE0
100
AcDbAlignedDimension
 13
508.4904
 23
411.7080421053
 33
0.0
 14
226.4904
 24
411.7080421053
 34
0.0
100
AcDbRotatedDimension
  0
DIMENSION
  5
184
330
1F
100
AcDbEntity
  8
0
  6
SLD-Durchgehend
 62
   250
420
  1644836
370
    18
100
AcDbDimension
280
     0
  2
_D_1
 10
506.9904
 20
417.4607937783
 30
0.0
 11
369.0574407481
 21
417.4607937783
 31
0.0
 70
   160
  1
<> x 279
 71
     2
 42
-1.0
 73
     0
 74
     0
 75
     0
  3
SLDDIMSTYLE0
100
AcDbAlignedDimension
 13
227.9904
 23
411.7080421053
 33
0.0
 14
506.9904
 24
411.7080421053
 34
0.0
100
AcDbRotatedDimension
  0
DIMENSION
  5
18E
330
1F
100
AcDbEntity
  8
0
  6
SLD-Durchgehend
 62
   250
420
  1644836
370
    18
100
AcDbDimension
280
     0
  2
_D_2
 10
527.0496761783
 20
411.7080421053
 30
0.0
 11
527.0496761783
 21
388.521059297
 31
0.0
 70
   160
  1
<>
 71
     2
 42
-1.0
 73
     0
 74
     0
 75
     0
  3
SLDDIMSTYLE1
100
AcDbAlignedDimension
 13
505.9904
 23
402.2080421053
 33
0.0
 14
508.4904
 24
411.7080421053
 34
0.0
 50
90.0
100
AcDbRotatedDimension
  0
DIMENSION
  5
19C
330
1F
100
AcDbEntity
  8
0
  6
SLD-Durchgehend
 62
   250
420
  1644836
370
    18
100
AcDbDimension
280
     0
  2
_D_3
 10
544.9936834029
 20
411.7080421053
 30
0.0
 11
544.9936834029
 21
380.8273174777
 31
0.0
 70
   160
  1
<>
 71
     2
 42
-1.0
 73
     0
 74
     0
 75
     0
  3
SLDDIMSTYLE0
100
AcDbAlignedDimension
 13
501.2404
 23
400.7080421053
 33
0.0
 14
508.4904
 24
411.7080421053
 34
0.0
 50
90.0
100
AcDbRotatedDimension
  0
ENDSEC
  0
SECTION
  2
OBJECTS
  0
DICTIONARY
  5
C
330
0
100
AcDbDictionary
281
     1
  3
ACAD_DETAILVIEWSTYLE
350
1AF
  3
ACAD_GROUP
350
D
  3
ACAD_LAYOUT
350
1A
  3
ACAD_MATERIAL
350
43
  3
ACAD_MLEADERSTYLE
350
6B
  3
ACAD_MLINESTYLE
350
17
  3
ACAD_PLOTSETTINGS
350
19
  3
ACAD_PLOTSTYLENAME
350
E
  3
ACAD_SCALELIST
350
47
  3
ACAD_SECTIONVIEWSTYLE
350
1B0
  3
ACAD_TABLESTYLE
350
69
  3
ACAD_VISUALSTYLE
350
2A
  3
ACDB_RECOMPOSE_DATA
350
1AC
  3
AcDbVariableDictionary
350
1A8
  0
SUN
  5
6D
330
29
100
AcDbSun
 90
        1
290
     0
 63
     7
421
 16777215
 40
1.0
291
     1
 91
  2455826
 92
 54000000
292
     0
 70
     2
 71
   256
280
     1
  0
DICTIONARY
  5
1AF
102
{ACAD_REACTORS
330
C
102
}
330
C
100
AcDbDictionary
281
     1
  0
DICTIONARY
  5
D
102
{ACAD_REACTORS
330
C
102
}
330
C
100
AcDbDictionary
281
     1
  0
DICTIONARY
  5
1A
102
{ACAD_REACTORS
330
C
102
}
330
C
100
AcDbDictionary
281
     1
  3
Layout1
350
1E
  3
Layout2
350
26
  3
Model
350
22
  0
DICTIONARY
  5
43
102
{ACAD_REACTORS
330
C
102
}
330
C
100
AcDbDictionary
281
     1
  3
ByBlock
350
45
  3
ByLayer
350
44
  3
Global
350
46
  0
DICTIONARY
  5
6B
102
{ACAD_REACTORS
330
C
102
}
330
C
100
AcDbDictionary
281
     1
  3
Standard
350
6C
  0
DICTIONARY
  5
17
102
{ACAD_REACTORS
330
C
102
}
330
C
100
AcDbDictionary
281
     1
  3
Standard
350
18
  0
DICTIONARY
  5
19
102
{ACAD_REACTORS
330
C
102
}
330
C
100
AcDbDictionary
281
     1
  0
ACDBDICTIONARYWDFLT
  5
E
102
{ACAD_REACTORS
330
C
102
}
330
C
100
AcDbDictionary
281
     1
  3
Normal
350
F
100
AcDbDictionaryWithDefault
340
F
  0
DICTIONARY
  5
47
102
{ACAD_REACTORS
330
C
102
}
330
C
100
AcDbDictionary
281
     1
  3
A0
350
48
  3
A1
350
49
  3
A2
350
4A
  3
A3
350
4B
  3
A4
350
4C
  3
A5
350
4D
  3
A6
350
4E
  3
A7
350
4F
  3
A8
350
50
  3
A9
350
51
  3
B0
350
52
  3
B1
350
53
  3
B2
350
54
  3
B3
350
55
  3
B4
350
56
  3
B5
350
57
  3
B6
350
58
  3
B7
350
59
  3
B8
350
5A
  3
B9
350
5B
  3
C0
350
5C
  3
C1
350
5D
  3
C2
350
5E
  3
C3
350
5F
  3
C4
350
60
  3
C5
350
61
  3
C6
350
62
  3
C7
350
63
  3
C8
350
64
  3
C9
350
65
  3
D0
350
66
  3
D1
350
67
  3
D2
350
68
  0
DICTIONARY
  5
1B0
102
{ACAD_REACTORS
330
C
102
}
330
C
100
AcDbDictionary
281
     1
  0
DICTIONARY
  5
69
102
{ACAD_REACTORS
330
C
102
}
330
C
100
AcDbDictionary
281
     1
  3
Standard
350
6A
  0
DICTIONARY
  5
2A
102
{ACAD_REACTORS
330
C
102
}
330
C
100
AcDbDictionary
281
     1
  3
2dWireframe
350
2F
  3
Basic
350
32
  3
Brighten
350
36
  3
ColorChange
350
3A
  3
Conceptual
350
34
  3
Dim
350
35
  3
EdgeColorOff
350
3D
  3
Facepattern
350
39
  3
Flat
350
2B
  3
FlatWithEdges
350
2C
  3
Gouraud
350
2D
  3
GouraudWithEdges
350
2E
  3
Hidden
350
31
  3
JitterOff
350
3B
  3
Linepattern
350
38
  3
OverhangOff
350
3C
  3
Realistic
350
33
  3
Shaded
350
42
  3
Shaded with edges
350
41
  3
Shades of Gray
350
3E
  3
Sketchy
350
3F
  3
Thicken
350
37
  3
Wireframe
350
30
  3
X-Ray
350
40
  0
XRECORD
  5
1AC
102
{ACAD_REACTORS
330
C
102
}
330
C
100
AcDbXrecord
280
     1
 90
        1
330
6A
  0
DICTIONARY
  5
1A8
102
{ACAD_REACTORS
330
C
102
}
330
C
100
AcDbDictionary
281
     1
  3
CANNOSCALE
350
1A9
  3
CMLEADERSTYLE
350
1AE
  3
CTABLESTYLE
350
1AD
  3
SECTIONTHICKNESSINC
350
1B1
  0
LAYOUT
  5
1E
102
{ACAD_REACTORS
330
1A
102
}
330
1A
100
AcDbPlotSettings
  1

  2
none_device
  4

  6

 40
0.0
 41
0.0
 42
0.0
 43
0.0
 44
0.0
 45
0.0
 46
0.0
 47
0.0
 48
0.0
 49
0.0
140
0.0
141
0.0
142
1.0
143
1.0
 70
   688
 72
     1
 73
     0
 74
     5
  7

 75
    16
 76
     0
 77
     2
 78
   300
147
1.0
148
0.0
149
0.0
100
AcDbLayout
  1
Layout1
 70
     1
 71
     1
 10
0.0
 20
0.0
 11
420.0
 21
297.0
 12
0.0
 22
0.0
 32
0.0
 14
1.0000000000E+20
 24
1.0000000000E+20
 34
1.0000000000E+20
 15
-1.0000000000E+20
 25
-1.0000000000E+20
 35
-1.0000000000E+20
146
0.0
 13
0.0
 23
0.0
 33
0.0
 16
1.0
 26
0.0
 36
0.0
 17
0.0
 27
1.0
 37
0.0
 76
     0
330
1B
  0
LAYOUT
  5
26
102
{ACAD_REACTORS
330
1A
102
}
330
1A
100
AcDbPlotSettings
  1

  2
none_device
  4

  6

 40
0.0
 41
0.0
 42
0.0
 43
0.0
 44
0.0
 45
0.0
 46
0.0
 47
0.0
 48
0.0
 49
0.0
140
0.0
141
0.0
142
1.0
143
1.0
 70
   688
 72
     1
 73
     0
 74
     5
  7

 75
    16
 76
     0
 77
     2
 78
   300
147
1.0
148
0.0
149
0.0
100
AcDbLayout
  1
Layout2
 70
     1
 71
     2
 10
0.0
 20
0.0
 11
0.0
 21
0.0
 12
0.0
 22
0.0
 32
0.0
 14
0.0
 24
0.0
 34
0.0
 15
0.0
 25
0.0
 35
0.0
146
0.0
 13
0.0
 23
0.0
 33
0.0
 16
1.0
 26
0.0
 36
0.0
 17
0.0
 27
1.0
 37
0.0
 76
     0
330
23
  0
LAYOUT
  5
22
102
{ACAD_REACTORS
330
1A
102
}
330
1A
100
AcDbPlotSettings
  1

  2
none_device
  4
Letter_(8.50_x_11.00_Inches)
  6

 40
6.35
 41
6.35
 42
6.35000508
 43
6.35000508
 44
215.9
 45
279.4
 46
0.0
 47
0.0
 48
0.0
 49
0.0
140
0.0
141
0.0
142
1.0
143
1.0
 70
  1712
 72
     1
 73
     0
 74
     0
  7

 75
     0
 76
     0
 77
     2
 78
   300
147
1.0
148
0.0
149
0.0
100
AcDbLayout
  1
Model
 70
     1
 71
     0
 10
0.0
 20
0.0
 11
840.0
 21
594.0
 12
0.0
 22
0.0
 32
0.0
 14
0.0
 24
0.0
 34
0.0
 15
840.0
 25
594.0
 35
0.0
146
0.0
 13
0.0
 23
0.0
 33
0.0
 16
1.0
 26
0.0
 36
0.0
 17
0.0
 27
1.0
 37
0.0
 76
     0
330
1F
331
29
  0
MATERIAL
  5
45
102
{ACAD_REACTORS
330
43
102
}
330
43
100
AcDbMaterial
  1
ByBlock
 72
     1
 94
      127
  0
MATERIAL
  5
44
102
{ACAD_REACTORS
330
43
102
}
330
43
100
AcDbMaterial
  1
ByLayer
 72
     1
 94
      127
  0
MATERIAL
  5
46
102
{ACAD_REACTORS
330
43
102
}
330
43
100
AcDbMaterial
  1
Global
 72
     1
 94
      127
  0
MLEADERSTYLE
  5
6C
102
{ACAD_REACTORS
330
6B
102
}
330
6B
100
AcDbMLeaderStyle
179
     2
170
     2
171
     1
172
     0
 90
        2
 40
0.0
 41
0.0
173
     1
 91
-1056964608
340
14
 92
       -2
290
     1
 42
2.0
291
     1
 43
8.0
  3
Standard
341
0
 44
4.0
300

342
11
174
     1
178
     6
175
     1
176
     0
 93
-1056964608
 45
4.0
292
     0
297
     0
 46
4.0
343
0
 94
-1056964608
 47
1.0
 49
1.0
140
1.0
293
     1
141
0.0
294
     1
177
     0
142
1.0
295
     0
296
     0
143
3.75
271
     0
272
     9
273
     9
298
     0
  0
MLINESTYLE
  5
18
102
{ACAD_REACTORS
330
17
102
}
330
17
100
AcDbMlineStyle
  2
Standard
 70
     0
  3

 62
   256
 51
90.0
 52
90.0
 71
     2
 49
0.5
 62
   256
  6
BYLAYER
 49
-0.5
 62
   256
  6
BYLAYER
  0
ACDBPLACEHOLDER
  5
F
102
{ACAD_REACTORS
330
E
102
}
330
E
  0
SCALE
  5
48
102
{ACAD_REACTORS
330
47
102
}
330
47
100
AcDbScale
 70
     0
300
1:1
140
1.0
141
1.0
290
     1
  0
SCALE
  5
49
102
{ACAD_REACTORS
330
47
102
}
330
47
100
AcDbScale
 70
     0
300
1:2
140
1.0
141
2.0
290
     0
  0
SCALE
  5
4A
102
{ACAD_REACTORS
330
47
102
}
330
47
100
AcDbScale
 70
     0
300
1:4
140
1.0
141
4.0
290
     0
  0
SCALE
  5
4B
102
{ACAD_REACTORS
330
47
102
}
330
47
100
AcDbScale
 70
     0
300
1:5
140
1.0
141
5.0
290
     0
  0
SCALE
  5
4C
102
{ACAD_REACTORS
330
47
102
}
330
47
100
AcDbScale
 70
     0
300
1:8
140
1.0
141
8.0
290
     0
  0
SCALE
  5
4D
102
{ACAD_REACTORS
330
47
102
}
330
47
100
AcDbScale
 70
     0
300
1:10
140
1.0
141
10.0
290
     0
  0
SCALE
  5
4E
102
{ACAD_REACTORS
330
47
102
}
330
47
100
AcDbScale
 70
     0
300
1:16
140
1.0
141
16.0
290
     0
  0
SCALE
  5
4F
102
{ACAD_REACTORS
330
47
102
}
330
47
100
AcDbScale
 70
     0
300
1:20
140
1.0
141
20.0
290
     0
  0
SCALE
  5
50
102
{ACAD_REACTORS
330
47
102
}
330
47
100
AcDbScale
 70
     0
300
1:30
140
1.0
141
30.0
290
     0
  0
SCALE
  5
51
102
{ACAD_REACTORS
330
47
102
}
330
47
100
AcDbScale
 70
     0
300
1:40
140
1.0
141
40.0
290
     0
  0
SCALE
  5
52
102
{ACAD_REACTORS
330
47
102
}
330
47
100
AcDbScale
 70
     0
300
1:50
140
1.0
141
50.0
290
     0
  0
SCALE
  5
53
102
{ACAD_REACTORS
330
47
102
}
330
47
100
AcDbScale
 70
     0
300
1:100
140
1.0
141
100.0
290
     0
  0
SCALE
  5
54
102
{ACAD_REACTORS
330
47
102
}
330
47
100
AcDbScale
 70
     0
300
2:1
140
2.0
141
1.0
290
     0
  0
SCALE
  5
55
102
{ACAD_REACTORS
330
47
102
}
330
47
100
AcDbScale
 70
     0
300
4:1
140
4.0
141
1.0
290
     0
  0
SCALE
  5
56
102
{ACAD_REACTORS
330
47
102
}
330
47
100
AcDbScale
 70
     0
300
8:1
140
8.0
141
1.0
290
     0
  0
SCALE
  5
57
102
{ACAD_REACTORS
330
47
102
}
330
47
100
AcDbScale
 70
     0
300
10:1
140
10.0
141
1.0
290
     0
  0
SCALE
  5
58
102
{ACAD_REACTORS
330
47
102
}
330
47
100
AcDbScale
 70
     0
300
100:1
140
100.0
141
1.0
290
     0
  0
SCALE
  5
59
102
{ACAD_REACTORS
330
47
102
}
330
47
100
AcDbScale
 70
     0
300
1/128" = 1'-0"
140
0.0078125
141
12.0
290
     0
  0
SCALE
  5
5A
102
{ACAD_REACTORS
330
47
102
}
330
47
100
AcDbScale
 70
     0
300
1/64" = 1'-0"
140
0.015625
141
12.0
290
     0
  0
SCALE
  5
5B
102
{ACAD_REACTORS
330
47
102
}
330
47
100
AcDbScale
 70
     0
300
1/32" = 1'-0"
140
0.03125
141
12.0
290
     0
  0
SCALE
  5
5C
102
{ACAD_REACTORS
330
47
102
}
330
47
100
AcDbScale
 70
     0
300
1/16" = 1'-0"
140
0.0625
141
12.0
290
     0
  0
SCALE
  5
5D
102
{ACAD_REACTORS
330
47
102
}
330
47
100
AcDbScale
 70
     0
300
3/32" = 1'-0"
140
0.09375
141
12.0
290
     0
  0
SCALE
  5
5E
102
{ACAD_REACTORS
330
47
102
}
330
47
100
AcDbScale
 70
     0
300
1/8" = 1'-0"
140
0.125
141
12.0
290
     0
  0
SCALE
  5
5F
102
{ACAD_REACTORS
330
47
102
}
330
47
100
AcDbScale
 70
     0
300
3/16" = 1'-0"
140
0.1875
141
12.0
290
     0
  0
SCALE
  5
60
102
{ACAD_REACTORS
330
47
102
}
330
47
100
AcDbScale
 70
     0
300
1/4" = 1'-0"
140
0.25
141
12.0
290
     0
  0
SCALE
  5
61
102
{ACAD_REACTORS
330
47
102
}
330
47
100
AcDbScale
 70
     0
300
3/8" = 1'-0"
140
0.375
141
12.0
290
     0
  0
SCALE
  5
62
102
{ACAD_REACTORS
330
47
102
}
330
47
100
AcDbScale
 70
     0
300
1/2" = 1'-0"
140
0.5
141
12.0
290
     0
  0
SCALE
  5
63
102
{ACAD_REACTORS
330
47
102
}
330
47
100
AcDbScale
 70
     0
300
3/4" = 1'-0"
140
0.75
141
12.0
290
     0
  0
SCALE
  5
64
102
{ACAD_REACTORS
330
47
102
}
330
47
100
AcDbScale
 70
     0
300
1" = 1'-0"
140
1.0
141
12.0
290
     0
  0
SCALE
  5
65
102
{ACAD_REACTORS
330
47
102
}
330
47
100
AcDbScale
 70
     0
300
1-1/2" = 1'-0"
140
1.5
141
12.0
290
     0
  0
SCALE
  5
66
102
{ACAD_REACTORS
330
47
102
}
330
47
100
AcDbScale
 70
     0
300
3" = 1'-0"
140
3.0
141
12.0
290
     0
  0
SCALE
  5
67
102
{ACAD_REACTORS
330
47
102
}
330
47
100
AcDbScale
 70
     0
300
6" = 1'-0"
140
6.0
141
12.0
290
     0
  0
SCALE
  5
68
102
{ACAD_REACTORS
330
47
102
}
330
47
100
AcDbScale
 70
     0
300
1'-0" = 1'-0"
140
12.0
141
12.0
290
     0
  0
TABLESTYLE
  5
6A
102
{ACAD_REACTORS
330
69
102
}
102
{ACAD_XDICTIONARY
360
1AA
102
}
330
69
100
AcDbTableStyle
  3
Standard
 70
     0
 71
     0
 40
0.06
 41
0.06
280
     0
281
     0
  7
Standard
140
4.5
170
     2
 62
     0
 63
   257
283
     0
 90
        4
 91
        0
  1

274
    -2
284
     1
 64
     0
275
    -2
285
     1
 65
     0
276
    -2
286
     1
 66
     0
277
    -2
287
     1
 67
     0
278
    -2
288
     1
 68
     0
279
    -2
289
     1
 69
     0
  7
Standard
140
6.0
170
     5
 62
     0
 63
   257
283
     0
 90
        4
 91
        0
  1

274
    -2
284
     1
 64
     0
275
    -2
285
     1
 65
     0
276
    -2
286
     1
 66
     0
277
    -2
287
     1
 67
     0
278
    -2
288
     1
 68
     0
279
    -2
289
     1
 69
     0
  7
Standard
140
4.5
170
     5
 62
     0
 63
   257
283
     0
 90
        4
 91
        0
  1

274
    -2
284
     1
 64
     0
275
    -2
285
     1
 65
     0
276
    -2
286
     1
 66
     0
277
    -2
287
     1
 67
     0
278
    -2
288
     1
 68
     0
279
    -2
289
     1
 69
     0
  0
VISUALSTYLE
  5
2F
102
{ACAD_REACTORS
330
2A
102
}
330
2A
100
AcDbVisualStyle
  2
2dWireframe
 70
     4
177
     3
291
     0
 70
    58
 90
        0
176
     1
 90
        2
176
     1
 90
        0
176
     1
 90
        0
176
     1
 40
0.6
176
     1
 40
30.0
176
     1
 62
     7
420
 16777215
176
     1
 90
        1
176
     1
 90
        4
176
     1
 62
     7
176
     1
 62
   257
176
     1
 90
        1
176
     1
 90
        1
176
     1
 40
1.0
176
     1
 90
        0
176
     1
 62
   257
176
     1
 40
1.0
176
     1
 90
        1
176
     1
 90
        6
176
     1
 90
        2
176
     1
 62
     7
176
     1
 90
        5
176
     1
 90
        0
176
     1
 90
        0
176
     1
290
     0
176
     1
 90
        1
176
     1
 40
0.0
176
     1
 90
        0
176
     1
290
     1
176
     1
290
     1
176
     1
290
     0
176
     1
290
     0
176
     1
290
     0
176
     1
290
     0
176
     1
290
     0
176
     1
290
     0
176
     1
290
     0
176
     1
 90
       50
176
     1
 40
0.0
176
     1
 40
1.0
176
     1
 90
        0
176
     1
 62
    18
420
        0
176
     1
 90
       50
176
     1
 90
        3
176
     1
 62
     5
420
      255
176
     1
290
     0
176
     1
 90
       50
176
     1
 90
       50
176
     1
 90
       50
176
     1
290
     0
176
     1
 90
       50
176
     1
 62
   256
176
     0
 40
1.0
176
     0
 90
        2
176
     1
  1
strokes_ogs.tif
176
     1
290
     0
176
     1
 40
1.0
176
     1
 40
1.0
176
     1
  0
VISUALSTYLE
  5
32
102
{ACAD_REACTORS
330
2A
102
}
330
2A
100
AcDbVisualStyle
  2
Basic
 70
     7
177
     3
291
     1
 70
    58
 90
        1
176
     1
 90
        0
176
     1
 90
        1
176
     1
 90
        0
176
     1
 40
0.6
176
     1
 40
30.0
176
     1
 62
     7
420
 16777215
176
     1
 90
        0
176
     1
 90
        4
176
     1
 62
     7
176
     1
 62
   257
176
     1
 90
        1
176
     1
 90
        1
176
     1
 40
1.0
176
     1
 90
        8
176
     1
 62
     7
176
     1
 40
1.0
176
     1
 90
        1
176
     1
 90
        6
176
     1
 90
        2
176
     1
 62
     7
176
     1
 90
        5
176
     1
 90
        0
176
     1
 90
        0
176
     1
290
     0
176
     1
 90
        1
176
     1
 40
0.0
176
     1
 90
        0
176
     1
290
     0
176
     1
290
     1
176
     1
290
     1
176
     1
290
     0
176
     1
290
     0
176
     1
290
     0
176
     1
290
     0
176
     1
290
     0
176
     1
290
     0
176
     1
 90
       50
176
     1
 40
0.0
176
     1
 40
1.0
176
     1
 90
        0
176
     1
 62
    18
420
        0
176
     1
 90
       50
176
     1
 90
        3
176
     1
 62
     5
420
      255
176
     1
290
     0
176
     1
 90
       50
176
     1
 90
       50
176
     1
 90
       50
176
     1
290
     0
176
     1
 90
       50
176
     1
 62
   256
176
     0
 40
1.0
176
     0
 90
        2
176
     1
  1
strokes_ogs.tif
176
     1
290
     0
176
     1
 40
1.0
176
     1
 40
1.0
176
     1
  0
VISUALSTYLE
  5
36
102
{ACAD_REACTORS
330
2A
102
}
330
2A
100
AcDbVisualStyle
  2
Brighten
 70
    12
177
     3
291
     1
 70
    58
 90
        2
176
     1
 90
        2
176
     1
 90
        0
176
     1
 90
        0
176
     1
 40
0.6
176
     1
 40
30.0
176
     1
 62
     7
420
 16777215
176
     1
 90
        1
176
     1
 90
        4
176
     1
 62
     7
176
     1
 62
   257
176
     1
 90
        1
176
     1
 90
        1
176
     1
 40
1.0
176
     1
 90
        8
176
     1
 62
     7
176
     1
 40
1.0
176
     1
 90
        1
176
     1
 90
        6
176
     1
 90
        2
176
     1
 62
     7
176
     1
 90
        5
176
     1
 90
        0
176
     1
 90
        0
176
     1
290
     0
176
     1
 90
        1
176
     1
 40
50.0
176
     1
 90
        0
176
     1
290
     0
176
     1
290
     1
176
     1
290
     1
176
     1
290
     0
176
     1
290
     0
176
     1
290
     0
176
     1
290
     0
176
     1
290
     0
176
     1
290
     0
176
     1
 90
       50
176
     1
 40
0.0
176
     1
 40
1.0
176
     1
 90
        0
176
     1
 62
    18
420
        0
176
     1
 90
       50
176
     1
 90
        3
176
     1
 62
     5
420
      255
176
     1
290
     0
176
     1
 90
       50
176
     1
 90
       50
176
     1
 90
       50
176
     1
290
     0
176
     1
 90
       50
176
     1
 62
   256
176
     0
 40
1.0
176
     0
 90
        2
176
     1
  1
strokes_ogs.tif
176
     1
290
     0
176
     1
 40
1.0
176
     1
 40
1.0
176
     1
  0
VISUALSTYLE
  5
3A
102
{ACAD_REACTORS
330
2A
102
}
330
2A
100
AcDbVisualStyle
  2
ColorChange
 70
    16
177
     3
291
     1
 70
    58
 90
        2
176
     1
 90
        2
176
     1
 90
        3
176
     1
 90
        0
176
     1
 40
0.6
176
     1
 40
30.0
176
     1
 62
     8
420
  8421504
176
     1
 90
        1
176
     1
 90
        4
176
     1
 62
     7
176
     1
 62
   257
176
     1
 90
        1
176
     1
 90
        1
176
     1
 40
1.0
176
     1
 90
        8
176
     1
 62
     8
420
  8421504
176
     1
 40
1.0
176
     1
 90
        1
176
     1
 90
        6
176
     1
 90
        2
176
     1
 62
     7
176
     1
 90
        5
176
     1
 90
        0
176
     1
 90
        0
176
     1
290
     0
176
     1
 90
        1
176
     1
 40
0.0
176
     1
 90
        0
176
     1
290
     0
176
     1
290
     1
176
     1
290
     1
176
     1
290
     0
176
     1
290
     0
176
     1
290
     0
176
     1
290
     0
176
     1
290
     0
176
     1
290
     0
176
     1
 90
       50
176
     1
 40
0.0
176
     1
 40
1.0
176
     1
 90
        0
176
     1
 62
    18
420
        0
176
     1
 90
       50
176
     1
 90
        3
176
     1
 62
     5
420
      255
176
     1
290
     0
176
     1
 90
       50
176
     1
 90
       50
176
     1
 90
       50
176
     1
290
     0
176
     1
 90
       50
176
     1
 62
   256
176
     0
 40
1.0
176
     0
 90
        2
176
     1
  1
strokes_ogs.tif
176
     1
290
     0
176
     1
 40
1.0
176
     1
 40
1.0
176
     1
  0
VISUALSTYLE
  5
34
102
{ACAD_REACTORS
330
2A
102
}
330
2A
100
AcDbVisualStyle
  2
Conceptual
 70
     9
177
     3
291
     0
 70
    58
 90
        3
176
     1
 90
        2
176
     1
 90
        0
176
     1
 90
        0
176
     1
 40
0.6
176
     1
 40
30.0
176
     1
 62
     7
420
 16777215
176
     1
 90
        2
176
     1
 90
        2
176
     1
 62
     7
176
     1
 62
   257
176
     1
 90
        1
176
     1
 90
        1
176
     1
 40
179.0
176
     1
 90
        8
176
     1
 62
     7
176
     1
 40
1.0
176
     1
 90
        1
176
     1
 90
        6
176
     1
 90
        2
176
     1
 62
     7
176
     1
 90
        3
176
     1
 90
        0
176
     1
 90
        0
176
     1
290
     0
176
     1
 90
        1
176
     1
 40
0.0
176
     1
 90
        0
176
     1
290
     0
176
     1
290
     1
176
     1
290
     1
176
     1
290
     0
176
     1
290
     0
176
     1
290
     0
176
     1
290
     0
176
     1
290
     0
176
     1
290
     0
176
     1
 90
       50
176
     1
 40
0.0
176
     1
 40
1.0
176
     1
 90
        0
176
     1
 62
    18
420
        0
176
     1
 90
       50
176
     1
 90
        3
176
     1
 62
     5
420
      255
176
     1
290
     0
176
     1
 90
       50
176
     1
 90
       50
176
     1
 90
       50
176
     1
290
     0
176
     1
 90
       50
176
     1
 62
   256
176
     0
 40
1.0
176
     0
 90
        2
176
     1
  1
strokes_ogs.tif
176
     1
290
     0
176
     1
 40
1.0
176
     1
 40
1.0
176
     1
  0
VISUALSTYLE
  5
35
102
{ACAD_REACTORS
330
2A
102
}
330
2A
100
AcDbVisualStyle
  2
Dim
 70
    11
177
     3
291
     1
 70
    58
 90
        2
176
     1
 90
        2
176
     1
 90
        0
176
     1
 90
        0
176
     1
 40
0.6
176
     1
 40
30.0
176
     1
 62
     7
420
 16777215
176
     1
 90
        1
176
     1
 90
        4
176
     1
 62
     7
176
     1
 62
   257
176
     1
 90
        1
176
     1
 90
        1
176
     1
 40
1.0
176
     1
 90
        8
176
     1
 62
     7
176
     1
 40
1.0
176
     1
 90
        1
176
     1
 90
        6
176
     1
 90
        2
176
     1
 62
     7
176
     1
 90
        5
176
     1
 90
        0
176
     1
 90
        0
176
     1
290
     0
176
     1
 90
        1
176
     1
 40
-50.0
176
     1
 90
        0
176
     1
290
     0
176
     1
290
     1
176
     1
290
     1
176
     1
290
     0
176
     1
290
     0
176
     1
290
     0
176
     1
290
     0
176
     1
290
     0
176
     1
290
     0
176
     1
 90
       50
176
     1
 40
0.0
176
     1
 40
1.0
176
     1
 90
        0
176
     1
 62
    18
420
        0
176
     1
 90
       50
176
     1
 90
        3
176
     1
 62
     5
420
      255
176
     1
290
     0
176
     1
 90
       50
176
     1
 90
       50
176
     1
 90
       50
176
     1
290
     0
176
     1
 90
       50
176
     1
 62
   256
176
     0
 40
1.0
176
     0
 90
        2
176
     1
  1
strokes_ogs.tif
176
     1
290
     0
176
     1
 40
1.0
176
     1
 40
1.0
176
     1
  0
VISUALSTYLE
  5
3D
102
{ACAD_REACTORS
330
2A
102
}
330
2A
100
AcDbVisualStyle
  2
EdgeColorOff
 70
    22
177
     3
291
     1
 70
    58
 90
        2
176
     0
 90
        2
176
     0
 90
        0
176
     0
 90
        0
176
     0
 40
0.6
176
     0
 40
30.0
176
     0
 62
     7
420
 16777215
176
     0
 90
        1
176
     0
 90
        4
176
     0
 62
     7
176
     0
 62
   257
176
     0
 90
        1
176
     0
 90
        1
176
     0
 40
1.0
176
     0
 90
        8
176
     2
 62
     7
176
     0
 40
1.0
176
     0
 90
        1
176
     0
 90
        6
176
     0
 90
        2
176
     0
 62
     7
176
     0
 90
        5
176
     0
 90
        0
176
     0
 90
        0
176
     0
290
     0
176
     0
 90
        1
176
     0
 40
0.0
176
     0
 90
        0
176
     0
290
     0
176
     0
290
     1
176
     0
290
     1
176
     0
290
     0
176
     0
290
     0
176
     0
290
     0
176
     0
290
     0
176
     0
290
     0
176
     0
290
     0
176
     0
 90
       50
176
     0
 40
0.0
176
     0
 40
1.0
176
     0
 90
        0
176
     0
 62
    18
420
        0
176
     0
 90
       50
176
     0
 90
        3
176
     0
 62
     5
420
      255
176
     0
290
     0
176
     0
 90
       50
176
     0
 90
       50
176
     0
 90
       50
176
     0
290
     0
176
     0
 90
       50
176
     0
 62
   256
176
     0
 40
1.0
176
     0
 90
        2
176
     0
  1
strokes_ogs.tif
176
     0
290
     0
176
     0
 40
1.0
176
     0
 40
1.0
176
     0
  0
VISUALSTYLE
  5
39
102
{ACAD_REACTORS
330
2A
102
}
330
2A
100
AcDbVisualStyle
  2
Facepattern
 70
    15
177
     3
291
     1
 70
    58
 90
        2
176
     1
 90
        2
176
     1
 90
        0
176
     1
 90
        0
176
     1
 40
0.6
176
     1
 40
30.0
176
     1
 62
     7
420
 16777215
176
     1
 90
        1
176
     1
 90
        4
176
     1
 62
     7
176
     1
 62
   257
176
     1
 90
        1
176
     1
 90
        1
176
     1
 40
1.0
176
     1
 90
        8
176
     1
 62
     7
176
     1
 40
1.0
176
     1
 90
        1
176
     1
 90
        6
176
     1
 90
        2
176
     1
 62
     7
176
     1
 90
        5
176
     1
 90
        0
176
     1
 90
        0
176
     1
290
     0
176
     1
 90
        1
176
     1
 40
0.0
176
     1
 90
        0
176
     1
290
     0
176
     1
290
     1
176
     1
290
     1
176
     1
290
     0
176
     1
290
     0
176
     1
290
     0
176
     1
290
     0
176
     1
290
     0
176
     1
290
     0
176
     1
 90
       50
176
     1
 40
0.0
176
     1
 40
1.0
176
     1
 90
        0
176
     1
 62
    18
420
        0
176
     1
 90
       50
176
     1
 90
        3
176
     1
 62
     5
420
      255
176
     1
290
     0
176
     1
 90
       50
176
     1
 90
       50
176
     1
 90
       50
176
     1
290
     0
176
     1
 90
       50
176
     1
 62
   256
176
     0
 40
1.0
176
     0
 90
        2
176
     1
  1
strokes_ogs.tif
176
     1
290
     0
176
     1
 40
1.0
176
     1
 40
1.0
176
     1
  0
VISUALSTYLE
  5
2B
102
{ACAD_REACTORS
330
2A
102
}
330
2A
100
AcDbVisualStyle
  2
Flat
 70
     0
177
     3
291
     1
 70
    58
 90
        2
176
     1
 90
        1
176
     1
 90
        1
176
     1
 90
        2
176
     1
 40
0.6
176
     1
 40
30.0
176
     1
 62
     7
420
 16777215
176
     1
 90
        0
176
     1
 90
        0
176
     1
 62
     7
176
     1
 62
   257
176
     1
 90
        1
176
     1
 90
        1
176
     1
 40
1.0
176
     1
 90
        8
176
     1
 62
     7
176
     1
 40
1.0
176
     1
 90
        1
176
     1
 90
        6
176
     1
 90
        2
176
     1
 62
     7
176
     1
 90
        5
176
     1
 90
        0
176
     1
 90
        0
176
     1
290
     0
176
     1
 90
       13
176
     1
 40
0.0
176
     1
 90
        0
176
     1
290
     0
176
     1
290
     1
176
     1
290
     1
176
     1
290
     0
176
     1
290
     0
176
     1
290
     0
176
     1
290
     0
176
     1
290
     0
176
     1
290
     0
176
     1
 90
       50
176
     1
 40
0.0
176
     1
 40
1.0
176
     1
 90
        0
176
     1
 62
    18
420
        0
176
     1
 90
       50
176
     1
 90
        3
176
     1
 62
     5
420
      255
176
     1
290
     0
176
     1
 90
       50
176
     1
 90
       50
176
     1
 90
       50
176
     1
290
     0
176
     1
 90
       50
176
     1
 62
   256
176
     0
 40
1.0
176
     0
 90
        2
176
     1
  1
strokes_ogs.tif
176
     1
290
     0
176
     1
 40
1.0
176
     1
 40
1.0
176
     1
  0
VISUALSTYLE
  5
2C
102
{ACAD_REACTORS
330
2A
102
}
330
2A
100
AcDbVisualStyle
  2
FlatWithEdges
 70
     1
177
     3
291
     1
 70
    58
 90
        2
176
     1
 90
        1
176
     1
 90
        1
176
     1
 90
        2
176
     1
 40
0.6
176
     1
 40
30.0
176
     1
 62
     7
420
 16777215
176
     1
 90
        1
176
     1
 90
        0
176
     1
 62
     7
176
     1
 62
   257
176
     1
 90
        1
176
     1
 90
        1
176
     1
 40
1.0
176
     1
 90
        0
176
     1
 62
   257
176
     1
 40
1.0
176
     1
 90
        1
176
     1
 90
        6
176
     1
 90
        2
176
     1
 62
     7
176
     1
 90
        5
176
     1
 90
        0
176
     1
 90
        0
176
     1
290
     0
176
     1
 90
       13
176
     1
 40
0.0
176
     1
 90
        0
176
     1
290
     0
176
     1
290
     1
176
     1
290
     1
176
     1
290
     0
176
     1
290
     0
176
     1
290
     0
176
     1
290
     0
176
     1
290
     0
176
     1
290
     0
176
     1
 90
       50
176
     1
 40
0.0
176
     1
 40
1.0
176
     1
 90
        0
176
     1
 62
    18
420
        0
176
     1
 90
       50
176
     1
 90
        3
176
     1
 62
     5
420
      255
176
     1
290
     0
176
     1
 90
       50
176
     1
 90
       50
176
     1
 90
       50
176
     1
290
     0
176
     1
 90
       50
176
     1
 62
   256
176
     0
 40
1.0
176
     0
 90
        2
176
     1
  1
strokes_ogs.tif
176
     1
290
     0
176
     1
 40
1.0
176
     1
 40
1.0
176
     1
  0
VISUALSTYLE
  5
2D
102
{ACAD_REACTORS
330
2A
102
}
330
2A
100
AcDbVisualStyle
  2
Gouraud
 70
     2
177
     3
291
     1
 70
    58
 90
        2
176
     1
 90
        2
176
     1
 90
        1
176
     1
 90
        2
176
     1
 40
0.6
176
     1
 40
30.0
176
     1
 62
     7
420
 16777215
176
     1
 90
        0
176
     1
 90
        0
176
     1
 62
     7
176
     1
 62
   257
176
     1
 90
        1
176
     1
 90
        1
176
     1
 40
1.0
176
     1
 90
        0
176
     1
 62
     7
176
     1
 40
1.0
176
     1
 90
        1
176
     1
 90
        6
176
     1
 90
        2
176
     1
 62
     7
176
     1
 90
        5
176
     1
 90
        0
176
     1
 90
        0
176
     1
290
     0
176
     1
 90
       13
176
     1
 40
0.0
176
     1
 90
        0
176
     1
290
     0
176
     1
290
     1
176
     1
290
     1
176
     1
290
     0
176
     1
290
     0
176
     1
290
     0
176
     1
290
     0
176
     1
290
     0
176
     1
290
     0
176
     1
 90
       50
176
     1
 40
0.0
176
     1
 40
1.0
176
     1
 90
        0
176
     1
 62
    18
420
        0
176
     1
 90
       50
176
     1
 90
        3
176
     1
 62
     5
420
      255
176
     1
290
     0
176
     1
 90
       50
176
     1
 90
       50
176
     1
 90
       50
176
     1
290
     0
176
     1
 90
       50
176
     1
 62
   256
176
     0
 40
1.0
176
     0
 90
        2
176
     1
  1
strokes_ogs.tif
176
     1
290
     0
176
     1
 40
1.0
176
     1
 40
1.0
176
     1
  0
VISUALSTYLE
  5
2E
102
{ACAD_REACTORS
330
2A
102
}
330
2A
100
AcDbVisualStyle
  2
GouraudWithEdges
 70
     3
177
     3
291
     1
 70
    58
 90
        2
176
     1
 90
        2
176
     1
 90
        1
176
     1
 90
        2
176
     1
 40
0.6
176
     1
 40
30.0
176
     1
 62
     7
420
 16777215
176
     1
 90
        1
176
     1
 90
        0
176
     1
 62
     7
176
     1
 62
   257
176
     1
 90
        1
176
     1
 90
        1
176
     1
 40
1.0
176
     1
 90
        0
176
     1
 62
   257
176
     1
 40
1.0
176
     1
 90
        1
176
     1
 90
        6
176
     1
 90
        2
176
     1
 62
     7
176
     1
 90
        5
176
     1
 90
        0
176
     1
 90
        0
176
     1
290
     0
176
     1
 90
       13
176
     1
 40
0.0
176
     1
 90
        0
176
     1
290
     0
176
     1
290
     1
176
     1
290
     1
176
     1
290
     0
176
     1
290
     0
176
     1
290
     0
176
     1
290
     0
176
     1
290
     0
176
     1
290
     0
176
     1
 90
       50
176
     1
 40
0.0
176
     1
 40
1.0
176
     1
 90
        0
176
     1
 62
    18
420
        0
176
     1
 90
       50
176
     1
 90
        3
176
     1
 62
     5
420
      255
176
     1
290
     0
176
     1
 90
       50
176
     1
 90
       50
176
     1
 90
       50
176
     1
290
     0
176
     1
 90
       50
176
     1
 62
   256
176
     0
 40
1.0
176
     0
 90
        2
176
     1
  1
strokes_ogs.tif
176
     1
290
     0
176
     1
 40
1.0
176
     1
 40
1.0
176
     1
  0
VISUALSTYLE
  5
31
102
{ACAD_REACTORS
330
2A
102
}
330
2A
100
AcDbVisualStyle
  2
Hidden
 70
     6
177
     3
291
     0
 70
    58
 90
        1
176
     1
 90
        2
176
     1
 90
        2
176
     1
 90
        0
176
     1
 40
0.6
176
     1
 40
30.0
176
     1
 62
     7
420
 16777215
176
     1
 90
        2
176
     1
 90
        2
176
     1
 62
     7
176
     1
 62
   257
176
     1
 90
        2
176
     1
 90
        1
176
     1
 40
40.0
176
     1
 90
        0
176
     1
 62
   257
176
     1
 40
1.0
176
     1
 90
        1
176
     1
 90
        6
176
     1
 90
        2
176
     1
 62
     7
176
     1
 90
        3
176
     1
 90
        0
176
     1
 90
        0
176
     1
290
     0
176
     1
 90
        1
176
     1
 40
0.0
176
     1
 90
        0
176
     1
290
     0
176
     1
290
     1
176
     1
290
     1
176
     1
290
     0
176
     1
290
     0
176
     1
290
     0
176
     1
290
     0
176
     1
290
     0
176
     1
290
     0
176
     1
 90
       50
176
     1
 40
0.0
176
     1
 40
1.0
176
     1
 90
        0
176
     1
 62
    18
420
        0
176
     1
 90
       50
176
     1
 90
        3
176
     1
 62
     5
420
      255
176
     1
290
     0
176
     1
 90
       50
176
     1
 90
       50
176
     1
 90
       50
176
     1
290
     0
176
     1
 90
       50
176
     1
 62
   256
176
     0
 40
1.0
176
     0
 90
        2
176
     1
  1
strokes_ogs.tif
176
     1
290
     0
176
     1
 40
1.0
176
     1
 40
1.0
176
     1
  0
VISUALSTYLE
  5
3B
102
{ACAD_REACTORS
330
2A
102
}
330
2A
100
AcDbVisualStyle
  2
JitterOff
 70
    20
177
     3
291
     1
 70
    58
 90
        2
176
     0
 90
        2
176
     0
 90
        0
176
     0
 90
        0
176
     0
 40
0.6
176
     0
 40
30.0
176
     0
 62
     7
420
 16777215
176
     0
 90
        1
176
     0
 90
        4
176
     0
 62
     7
176
     0
 62
   257
176
     0
 90
        1
176
     0
 90
        1
176
     0
 40
1.0
176
     0
 90
       10
176
     2
 62
     7
176
     0
 40
1.0
176
     0
 90
        1
176
     0
 90
        6
176
     0
 90
        2
176
     0
 62
     7
176
     0
 90
        5
176
     0
 90
        0
176
     0
 90
        0
176
     0
290
     0
176
     0
 90
        1
176
     0
 40
0.0
176
     0
 90
        0
176
     0
290
     0
176
     0
290
     1
176
     0
290
     1
176
     0
290
     0
176
     0
290
     0
176
     0
290
     0
176
     0
290
     0
176
     0
290
     0
176
     0
290
     0
176
     0
 90
       50
176
     0
 40
0.0
176
     0
 40
1.0
176
     0
 90
        0
176
     0
 62
    18
420
        0
176
     0
 90
       50
176
     0
 90
        3
176
     0
 62
     5
420
      255
176
     0
290
     0
176
     0
 90
       50
176
     0
 90
       50
176
     0
 90
       50
176
     0
290
     0
176
     0
 90
       50
176
     0
 62
   256
176
     0
 40
1.0
176
     0
 90
        2
176
     0
  1
strokes_ogs.tif
176
     0
290
     0
176
     0
 40
1.0
176
     0
 40
1.0
176
     0
  0
VISUALSTYLE
  5
38
102
{ACAD_REACTORS
330
2A
102
}
330
2A
100
AcDbVisualStyle
  2
Linepattern
 70
    14
177
     3
291
     1
 70
    58
 90
        2
176
     1
 90
        2
176
     1
 90
        0
176
     1
 90
        0
176
     1
 40
0.6
176
     1
 40
30.0
176
     1
 62
     7
420
 16777215
176
     1
 90
        1
176
     1
 90
        4
176
     1
 62
     7
176
     1
 62
   257
176
     1
 90
        7
176
     1
 90
        7
176
     1
 40
1.0
176
     1
 90
        8
176
     1
 62
     7
176
     1
 40
1.0
176
     1
 90
        1
176
     1
 90
        6
176
     1
 90
        2
176
     1
 62
     7
176
     1
 90
        5
176
     1
 90
        0
176
     1
 90
        0
176
     1
290
     0
176
     1
 90
        1
176
     1
 40
0.0
176
     1
 90
        0
176
     1
290
     0
176
     1
290
     1
176
     1
290
     1
176
     1
290
     0
176
     1
290
     0
176
     1
290
     0
176
     1
290
     0
176
     1
290
     0
176
     1
290
     0
176
     1
 90
       50
176
     1
 40
0.0
176
     1
 40
1.0
176
     1
 90
        0
176
     1
 62
    18
420
        0
176
     1
 90
       50
176
     1
 90
        3
176
     1
 62
     5
420
      255
176
     1
290
     0
176
     1
 90
       50
176
     1
 90
       50
176
     1
 90
       50
176
     1
290
     0
176
     1
 90
       50
176
     1
 62
   256
176
     0
 40
1.0
176
     0
 90
        2
176
     1
  1
strokes_ogs.tif
176
     1
290
     0
176
     1
 40
1.0
176
     1
 40
1.0
176
     1
  0
VISUALSTYLE
  5
3C
102
{ACAD_REACTORS
330
2A
102
}
330
2A
100
AcDbVisualStyle
  2
OverhangOff
 70
    21
177
     3
291
     1
 70
    58
 90
        2
176
     0
 90
        2
176
     0
 90
        0
176
     0
 90
        0
176
     0
 40
0.6
176
     0
 40
30.0
176
     0
 62
     7
420
 16777215
176
     0
 90
        1
176
     0
 90
        4
176
     0
 62
     7
176
     0
 62
   257
176
     0
 90
        1
176
     0
 90
        1
176
     0
 40
1.0
176
     0
 90
        9
176
     2
 62
     7
176
     0
 40
1.0
176
     0
 90
        1
176
     0
 90
        6
176
     0
 90
        2
176
     0
 62
     7
176
     0
 90
        5
176
     0
 90
        0
176
     0
 90
        0
176
     0
290
     0
176
     0
 90
        1
176
     0
 40
0.0
176
     0
 90
        0
176
     0
290
     0
176
     0
290
     1
176
     0
290
     1
176
     0
290
     0
176
     0
290
     0
176
     0
290
     0
176
     0
290
     0
176
     0
290
     0
176
     0
290
     0
176
     0
 90
       50
176
     0
 40
0.0
176
     0
 40
1.0
176
     0
 90
        0
176
     0
 62
    18
420
        0
176
     0
 90
       50
176
     0
 90
        3
176
     0
 62
     5
420
      255
176
     0
290
     0
176
     0
 90
       50
176
     0
 90
       50
176
     0
 90
       50
176
     0
290
     0
176
     0
 90
       50
176
     0
 62
   256
176
     0
 40
1.0
176
     0
 90
        2
176
     0
  1
strokes_ogs.tif
176
     0
290
     0
176
     0
 40
1.0
176
     0
 40
1.0
176
     0
  0
VISUALSTYLE
  5
33
102
{ACAD_REACTORS
330
2A
102
}
330
2A
100
AcDbVisualStyle
  2
Realistic
 70
     8
177
     3
291
     0
 70
    58
 90
        2
176
     1
 90
        3
176
     1
 90
        0
176
     1
 90
        2
176
     1
 40
0.6
176
     1
 40
30.0
176
     1
 62
     7
420
 16777215
176
     1
 90
        0
176
     1
 90
        0
176
     1
 62
     7
176
     1
 62
   257
176
     1
 90
        1
176
     1
 90
        1
176
     1
 40
1.0
176
     1
 90
        8
176
     1
 62
   257
176
     1
 40
1.0
176
     1
 90
        1
176
     1
 90
        6
176
     1
 90
        2
176
     1
 62
     7
176
     1
 90
        3
176
     1
 90
        0
176
     1
 90
        0
176
     1
290
     0
176
     1
 90
       13
176
     1
 40
0.0
176
     1
 90
        0
176
     1
290
     0
176
     1
290
     1
176
     1
290
     1
176
     1
290
     0
176
     1
290
     0
176
     1
290
     0
176
     1
290
     0
176
     1
290
     0
176
     1
290
     0
176
     1
 90
       50
176
     1
 40
0.0
176
     1
 40
1.0
176
     1
 90
        0
176
     1
 62
    18
420
        0
176
     1
 90
       50
176
     1
 90
        3
176
     1
 62
     5
420
      255
176
     1
290
     0
176
     1
 90
       50
176
     1
 90
       50
176
     1
 90
       50
176
     1
290
     0
176
     1
 90
       50
176
     1
 62
   256
176
     0
 40
1.0
176
     0
 90
        2
176
     1
  1
strokes_ogs.tif
176
     1
290
     0
176
     1
 40
1.0
176
     1
 40
1.0
176
     1
  0
VISUALSTYLE
  5
42
102
{ACAD_REACTORS
330
2A
102
}
330
2A
100
AcDbVisualStyle
  2
Shaded
 70
    27
177
     3
291
     0
 70
    58
 90
        2
176
     1
 90
        2
176
     1
 90
        1
176
     1
 90
        2
176
     1
 40
0.6
176
     1
 40
30.0
176
     1
 62
     7
420
 16777215
176
     1
 90
        0
176
     1
 90
        4
176
     1
 62
     7
176
     1
 62
   257
176
     1
 90
        1
176
     1
 90
        1
176
     1
 40
1.0
176
     1
 90
        8
176
     1
 62
   257
176
     1
 40
1.0
176
     1
 90
        1
176
     1
 90
        6
176
     1
 90
        2
176
     1
 62
     8
420
  7895160
176
     1
 90
        3
176
     1
 90
        0
176
     1
 90
        0
176
     1
290
     0
176
     1
 90
        5
176
     1
 40
0.0
176
     1
 90
        0
176
     1
290
     0
176
     1
290
     1
176
     1
290
     1
176
     1
290
     0
176
     1
290
     0
176
     1
290
     0
176
     1
290
     0
176
     1
290
     0
176
     1
290
     0
176
     1
 90
       50
176
     1
 40
0.0
176
     1
 40
1.0
176
     1
 90
        0
176
     1
 62
    18
420
        0
176
     1
 90
       50
176
     1
 90
        3
176
     1
 62
     5
420
      255
176
     1
290
     0
176
     1
 90
       50
176
     1
 90
       50
176
     1
 90
       50
176
     1
290
     0
176
     1
 90
       50
176
     1
 62
   256
176
     0
 40
1.0
176
     0
 90
        2
176
     1
  1
strokes_ogs.tif
176
     1
290
     0
176
     1
 40
1.0
176
     1
 40
1.0
176
     1
  0
VISUALSTYLE
  5
41
102
{ACAD_REACTORS
330
2A
102
}
330
2A
100
AcDbVisualStyle
  2
Shaded with edges
 70
    26
177
     3
291
     0
 70
    58
 90
        2
176
     1
 90
        2
176
     1
 90
        1
176
     1
 90
        2
176
     1
 40
0.6
176
     1
 40
30.0
176
     1
 62
     7
420
 16777215
176
     1
 90
        1
176
     1
 90
       10
176
     1
 62
     7
176
     1
 62
   257
176
     1
 90
        2
176
     1
 90
        1
176
     1
 40
1.0
176
     1
 90
        8
176
     1
 62
   257
176
     1
 40
1.0
176
     1
 90
        1
176
     1
 90
        6
176
     1
 90
        2
176
     1
 62
     7
176
     1
 90
        3
176
     1
 90
        0
176
     1
 90
        0
176
     1
290
     0
176
     1
 90
        5
176
     1
 40
0.0
176
     1
 90
        0
176
     1
290
     0
176
     1
290
     1
176
     1
290
     1
176
     1
290
     0
176
     1
290
     0
176
     1
290
     0
176
     1
290
     0
176
     1
290
     0
176
     1
290
     0
176
     1
 90
       50
176
     1
 40
0.0
176
     1
 40
1.0
176
     1
 90
        0
176
     1
 62
    18
420
        0
176
     1
 90
       50
176
     1
 90
        3
176
     1
 62
     5
420
      255
176
     1
290
     0
176
     1
 90
       50
176
     1
 90
       50
176
     1
 90
       50
176
     1
290
     0
176
     1
 90
       50
176
     1
 62
   256
176
     0
 40
1.0
176
     0
 90
        2
176
     1
  1
strokes_ogs.tif
176
     1
290
     0
176
     1
 40
1.0
176
     1
 40
1.0
176
     1
  0
VISUALSTYLE
  5
3E
102
{ACAD_REACTORS
330
2A
102
}
330
2A
100
AcDbVisualStyle
  2
Shades of Gray
 70
    23
177
     3
291
     0
 70
    58
 90
        2
176
     1
 90
        2
176
     1
 90
        3
176
     1
 90
        0
176
     1
 40
0.6
176
     1
 40
30.0
176
     1
 62
     7
420
 16777215
176
     1
 90
        2
176
     1
 90
        2
176
     1
 62
     7
176
     1
 62
     7
176
     1
 90
        1
176
     1
 90
        1
176
     1
 40
40.0
176
     1
 90
        8
176
     1
 62
     7
176
     1
 40
1.0
176
     1
 90
        1
176
     1
 90
        6
176
     1
 90
        2
176
     1
 62
     7
176
     1
 90
        3
176
     1
 90
        0
176
     1
 90
        0
176
     1
290
     0
176
     1
 90
        1
176
     1
 40
0.0
176
     1
 90
        0
176
     1
290
     0
176
     1
290
     1
176
     1
290
     1
176
     1
290
     0
176
     1
290
     0
176
     1
290
     0
176
     1
290
     0
176
     1
290
     0
176
     1
290
     0
176
     1
 90
       50
176
     1
 40
0.0
176
     1
 40
1.0
176
     1
 90
        0
176
     1
 62
    18
420
        0
176
     1
 90
       50
176
     1
 90
        3
176
     1
 62
     5
420
      255
176
     1
290
     0
176
     1
 90
       50
176
     1
 90
       50
176
     1
 90
       50
176
     1
290
     0
176
     1
 90
       50
176
     1
 62
   256
176
     0
 40
1.0
176
     0
 90
        2
176
     1
  1
strokes_ogs.tif
176
     1
290
     0
176
     1
 40
1.0
176
     1
 40
1.0
176
     1
  0
VISUALSTYLE
  5
3F
102
{ACAD_REACTORS
330
2A
102
}
330
2A
100
AcDbVisualStyle
  2
Sketchy
 70
    24
177
     3
291
     0
 70
    58
 90
        1
176
     1
 90
        2
176
     1
 90
        2
176
     1
 90
        0
176
     1
 40
0.6
176
     1
 40
30.0
176
     1
 62
     7
420
 16777215
176
     1
 90
        2
176
     1
 90
        2
176
     1
 62
     7
176
     1
 62
     7
176
     1
 90
        1
176
     1
 90
        1
176
     1
 40
40.0
176
     1
 90
       11
176
     1
 62
     7
176
     1
 40
1.0
176
     1
 90
        1
176
     1
 90
        6
176
     1
 90
        2
176
     1
 62
     7
176
     1
 90
        6
176
     1
 90
        0
176
     1
 90
        0
176
     1
290
     0
176
     1
 90
        1
176
     1
 40
0.0
176
     1
 90
        0
176
     1
290
     0
176
     1
290
     1
176
     1
290
     1
176
     1
290
     0
176
     1
290
     0
176
     1
290
     0
176
     1
290
     0
176
     1
290
     0
176
     1
290
     0
176
     1
 90
       50
176
     1
 40
0.0
176
     1
 40
1.0
176
     1
 90
        0
176
     1
 62
    18
420
        0
176
     1
 90
       50
176
     1
 90
        3
176
     1
 62
     5
420
      255
176
     1
290
     0
176
     1
 90
       50
176
     1
 90
       50
176
     1
 90
       50
176
     1
290
     0
176
     1
 90
       50
176
     1
 62
   256
176
     0
 40
1.0
176
     0
 90
        2
176
     1
  1
strokes_ogs.tif
176
     1
290
     0
176
     1
 40
1.0
176
     1
 40
1.0
176
     1
  0
VISUALSTYLE
  5
37
102
{ACAD_REACTORS
330
2A
102
}
330
2A
100
AcDbVisualStyle
  2
Thicken
 70
    13
177
     3
291
     1
 70
    58
 90
        2
176
     1
 90
        2
176
     1
 90
        0
176
     1
 90
        0
176
     1
 40
0.6
176
     1
 40
30.0
176
     1
 62
     7
420
 16777215
176
     1
 90
        1
176
     1
 90
        4
176
     1
 62
     7
176
     1
 62
   257
176
     1
 90
        1
176
     1
 90
        1
176
     1
 40
1.0
176
     1
 90
       12
176
     1
 62
     7
176
     1
 40
1.0
176
     1
 90
        1
176
     1
 90
        6
176
     1
 90
        2
176
     1
 62
     7
176
     1
 90
        5
176
     1
 90
        0
176
     1
 90
        0
176
     1
290
     0
176
     1
 90
        1
176
     1
 40
0.0
176
     1
 90
        0
176
     1
290
     0
176
     1
290
     1
176
     1
290
     1
176
     1
290
     0
176
     1
290
     0
176
     1
290
     0
176
     1
290
     0
176
     1
290
     0
176
     1
290
     0
176
     1
 90
       50
176
     1
 40
0.0
176
     1
 40
1.0
176
     1
 90
        0
176
     1
 62
    18
420
        0
176
     1
 90
       50
176
     1
 90
        3
176
     1
 62
     5
420
      255
176
     1
290
     0
176
     1
 90
       50
176
     1
 90
       50
176
     1
 90
       50
176
     1
290
     0
176
     1
 90
       50
176
     1
 62
   256
176
     0
 40
1.0
176
     0
 90
        2
176
     1
  1
strokes_ogs.tif
176
     1
290
     0
176
     1
 40
1.0
176
     1
 40
1.0
176
     1
  0
VISUALSTYLE
  5
30
102
{ACAD_REACTORS
330
2A
102
}
330
2A
100
AcDbVisualStyle
  2
Wireframe
 70
     5
177
     3
291
     0
 70
    58
 90
        0
176
     1
 90
        2
176
     1
 90
        0
176
     1
 90
        0
176
     1
 40
0.6
176
     1
 40
30.0
176
     1
 62
     7
420
 16777215
176
     1
 90
        1
176
     1
 90
        4
176
     1
 62
     7
176
     1
 62
   257
176
     1
 90
        1
176
     1
 90
        1
176
     1
 40
1.0
176
     1
 90
        0
176
     1
 62
   257
176
     1
 40
1.0
176
     1
 90
        1
176
     1
 90
        6
176
     1
 90
        2
176
     1
 62
     7
176
     1
 90
        3
176
     1
 90
        0
176
     1
 90
        0
176
     1
290
     0
176
     1
 90
        1
176
     1
 40
0.0
176
     1
 90
        0
176
     1
290
     0
176
     1
290
     1
176
     1
290
     1
176
     1
290
     0
176
     1
290
     0
176
     1
290
     0
176
     1
290
     0
176
     1
290
     0
176
     1
290
     0
176
     1
 90
       50
176
     1
 40
0.0
176
     1
 40
1.0
176
     1
 90
        0
176
     1
 62
    18
420
        0
176
     1
 90
       50
176
     1
 90
        3
176
     1
 62
     5
420
      255
176
     1
290
     0
176
     1
 90
       50
176
     1
 90
       50
176
     1
 90
       50
176
     1
290
     0
176
     1
 90
       50
176
     1
 62
   256
176
     0
 40
1.0
176
     0
 90
        2
176
     1
  1
strokes_ogs.tif
176
     1
290
     0
176
     1
 40
1.0
176
     1
 40
1.0
176
     1
  0
VISUALSTYLE
  5
40
102
{ACAD_REACTORS
330
2A
102
}
330
2A
100
AcDbVisualStyle
  2
X-Ray
 70
    25
177
     3
291
     0
 70
    58
 90
        2
176
     1
 90
        2
176
     1
 90
        1
176
     1
 90
        1
176
     1
 40
0.5
176
     1
 40
30.0
176
     1
 62
     7
420
 16777215
176
     1
 90
        1
176
     1
 90
        0
176
     1
 62
     7
176
     1
 62
   257
176
     1
 90
        1
176
     1
 90
        1
176
     1
 40
1.0
176
     1
 90
        8
176
     1
 62
     7
176
     1
 40
1.0
176
     1
 90
        1
176
     1
 90
        6
176
     1
 90
        2
176
     1
 62
     7
176
     1
 90
        3
176
     1
 90
        0
176
     1
 90
        0
176
     1
290
     0
176
     1
 90
       13
176
     1
 40
0.0
176
     1
 90
        0
176
     1
290
     0
176
     1
290
     1
176
     1
290
     1
176
     1
290
     0
176
     1
290
     0
176
     1
290
     0
176
     1
290
     0
176
     1
290
     0
176
     1
290
     0
176
     1
 90
       50
176
     1
 40
0.0
176
     1
 40
1.0
176
     1
 90
        0
176
     1
 62
    18
420
        0
176
     1
 90
       50
176
     1
 90
        3
176
     1
 62
     5
420
      255
176
     1
290
     0
176
     1
 90
       50
176
     1
 90
       50
176
     1
 90
       50
176
     1
290
     0
176
     1
 90
       50
176
     1
 62
   256
176
     0
 40
1.0
176
     0
 90
        2
176
     1
  1
strokes_ogs.tif
176
     1
290
     0
176
     1
 40
1.0
176
     1
 40
1.0
176
     1
  0
DICTIONARYVAR
  5
1A9
102
{ACAD_REACTORS
330
1A8
102
}
330
1A8
100
DictionaryVariables
280
     0
  1
1:1
  0
DICTIONARYVAR
  5
1AE
102
{ACAD_REACTORS
330
1A8
102
}
330
1A8
100
DictionaryVariables
280
     0
  1
Standard
  0
DICTIONARYVAR
  5
1AD
102
{ACAD_REACTORS
330
1A8
102
}
330
1A8
100
DictionaryVariables
280
     0
  1
Standard
  0
DICTIONARYVAR
  5
1B1
102
{ACAD_REACTORS
330
1A8
102
}
330
1A8
100
DictionaryVariables
280
     0
  1
6.000000
  0
DICTIONARY
  5
1AA
330
6A
100
AcDbDictionary
280
     1
281
     1
  3
ACAD_ROUNDTRIP_2008_TABLESTYLE_CELLSTYLEMAP
360
1AB
  0
CELLSTYLEMAP
  5
1AB
102
{ACAD_REACTORS
330
1AA
102
}
330
1AA
100
AcDbCellStyleMap
 90
        3
300
CELLSTYLE
  1
TABLEFORMAT_BEGIN
 90
        5
170
     1
 91
        0
 92
    32768
 62
   257
 93
        1
300
CONTENTFORMAT
  1
CONTENTFORMAT_BEGIN
 90
        0
 91
        0
 92
        4
 93
        0
300

 40
0.0
140
1.0
 94
        5
 62
     0
340
11
144
6.0
309
CONTENTFORMAT_END
171
     1
301
MARGIN
  1
CELLMARGIN_BEGIN
 40
1.5
 40
1.5
 40
1.5
 40
1.5
 40
1.5
 40
1.5
309
CELLMARGIN_END
 94
        6
 95
        1
302
GRIDFORMAT
  1
GRIDFORMAT_BEGIN
 90
        0
 91
        1
 62
     0
 92
       -2
340
14
 93
        0
 40
0.045
309
GRIDFORMAT_END
 95
        2
302
GRIDFORMAT
  1
GRIDFORMAT_BEGIN
 90
        0
 91
        1
 62
     0
 92
       -2
340
14
 93
        0
 40
0.045
309
GRIDFORMAT_END
 95
        4
302
GRIDFORMAT
  1
GRIDFORMAT_BEGIN
 90
        0
 91
        1
 62
     0
 92
       -2
340
14
 93
        0
 40
0.045
309
GRIDFORMAT_END
 95
        8
302
GRIDFORMAT
  1
GRIDFORMAT_BEGIN
 90
        0
 91
        1
 62
     0
 92
       -2
340
14
 93
        0
 40
0.045
309
GRIDFORMAT_END
 95
       16
302
GRIDFORMAT
  1
GRIDFORMAT_BEGIN
 90
        0
 91
        1
 62
     0
 92
       -2
340
14
 93
        0
 40
0.045
309
GRIDFORMAT_END
 95
       32
302
GRIDFORMAT
  1
GRIDFORMAT_BEGIN
 90
        0
 91
        1
 62
     0
 92
       -2
340
14
 93
        0
 40
0.045
309
GRIDFORMAT_END
309
TABLEFORMAT_END
  1
CELLSTYLE_BEGIN
 90
        1
 91
        1
300
_TITLE
309
CELLSTYLE_END
300
CELLSTYLE
  1
TABLEFORMAT_BEGIN
 90
        5
170
     1
 91
        0
 92
        0
 62
   257
 93
        1
300
CONTENTFORMAT
  1
CONTENTFORMAT_BEGIN
 90
        0
 91
        0
 92
        4
 93
        0
300

 40
0.0
140
1.0
 94
        5
 62
     0
340
11
144
4.5
309
CONTENTFORMAT_END
171
     1
301
MARGIN
  1
CELLMARGIN_BEGIN
 40
1.5
 40
1.5
 40
1.5
 40
1.5
 40
1.5
 40
1.5
309
CELLMARGIN_END
 94
        6
 95
        1
302
GRIDFORMAT
  1
GRIDFORMAT_BEGIN
 90
        0
 91
        1
 62
     0
 92
       -2
340
14
 93
        0
 40
0.045
309
GRIDFORMAT_END
 95
        2
302
GRIDFORMAT
  1
GRIDFORMAT_BEGIN
 90
        0
 91
        1
 62
     0
 92
       -2
340
14
 93
        0
 40
0.045
309
GRIDFORMAT_END
 95
        4
302
GRIDFORMAT
  1
GRIDFORMAT_BEGIN
 90
        0
 91
        1
 62
     0
 92
       -2
340
14
 93
        0
 40
0.045
309
GRIDFORMAT_END
 95
        8
302
GRIDFORMAT
  1
GRIDFORMAT_BEGIN
 90
        0
 91
        1
 62
     0
 92
       -2
340
14
 93
        0
 40
0.045
309
GRIDFORMAT_END
 95
       16
302
GRIDFORMAT
  1
GRIDFORMAT_BEGIN
 90
        0
 91
        1
 62
     0
 92
       -2
340
14
 93
        0
 40
0.045
309
GRIDFORMAT_END
 95
       32
302
GRIDFORMAT
  1
GRIDFORMAT_BEGIN
 90
        0
 91
        1
 62
     0
 92
       -2
340
14
 93
        0
 40
0.045
309
GRIDFORMAT_END
309
TABLEFORMAT_END
  1
CELLSTYLE_BEGIN
 90
        2
 91
        1
300
_HEADER
309
CELLSTYLE_END
300
CELLSTYLE
  1
TABLEFORMAT_BEGIN
 90
        5
170
     1
 91
        0
 92
        0
 62
   257
 93
        1
300
CONTENTFORMAT
  1
CONTENTFORMAT_BEGIN
 90
        0
 91
        0
 92
        4
 93
        0
300

 40
0.0
140
1.0
 94
        2
 62
     0
340
11
144
4.5
309
CONTENTFORMAT_END
171
     1
301
MARGIN
  1
CELLMARGIN_BEGIN
 40
1.5
 40
1.5
 40
1.5
 40
1.5
 40
1.5
 40
1.5
309
CELLMARGIN_END
 94
        6
 95
        1
302
GRIDFORMAT
  1
GRIDFORMAT_BEGIN
 90
        0
 91
        1
 62
     0
 92
       -2
340
14
 93
        0
 40
0.045
309
GRIDFORMAT_END
 95
        2
302
GRIDFORMAT
  1
GRIDFORMAT_BEGIN
 90
        0
 91
        1
 62
     0
 92
       -2
340
14
 93
        0
 40
0.045
309
GRIDFORMAT_END
 95
        4
302
GRIDFORMAT
  1
GRIDFORMAT_BEGIN
 90
        0
 91
        1
 62
     0
 92
       -2
340
14
 93
        0
 40
0.045
309
GRIDFORMAT_END
 95
        8
302
GRIDFORMAT
  1
GRIDFORMAT_BEGIN
 90
        0
 91
        1
 62
     0
 92
       -2
340
14
 93
        0
 40
0.045
309
GRIDFORMAT_END
 95
       16
302
GRIDFORMAT
  1
GRIDFORMAT_BEGIN
 90
        0
 91
        1
 62
     0
 92
       -2
340
14
 93
        0
 40
0.045
309
GRIDFORMAT_END
 95
       32
302
GRIDFORMAT
  1
GRIDFORMAT_BEGIN
 90
        0
 91
        1
 62
     0
 92
       -2
340
14
 93
        0
 40
0.045
309
GRIDFORMAT_END
309
TABLEFORMAT_END
  1
CELLSTYLE_BEGIN
 90
        3
 91
        2
300
_DATA
309
CELLSTYLE_END
  0
ENDSEC
  0
EOF
