  0
SECTION
  2
HEADER
  9
$ACADVER
  1
AC1015
  9
$ACADMAINTVER
 70
     6
  9
$DWGCODEPAGE
  3
ANSI_1252
  9
$INSBASE
 10
0.0
 20
0.0
 30
0.0
  9
$EXTMIN
 10
-848.177813
 20
-597.195125
 30
0.0
  9
$EXTMAX
 10
1251.822187
 20
887.804875
 30
0.0
  9
$LIMMIN
 10
-848.177813
 20
-597.195125
  9
$LIMMAX
 10
1251.822187
 20
887.804875
  9
$ORTHOMODE
 70
     0
  9
$REGENMODE
 70
     1
  9
$FILLMODE
 70
     1
  9
$QTEXTMODE
 70
     0
  9
$MIRRTEXT
 70
     1
  9
$LTSCALE
 40
5.0
  9
$ATTMODE
 70
     1
  9
$TEXTSIZE
 40
2.5
  9
$TRACEWID
 40
1.0
  9
$TEXTSTYLE
  7
Standard
  9
$CLAYER
  8
0
  9
$CELTYPE
  6
ByLayer
  9
$CECOLOR
 62
     7
  9
$CELTSCALE
 40
1.0
  9
$DISPSILH
 70
     0
  9
$DIMSCALE
 40
5.0
  9
$DIMASZ
 40
3.5
  9
$DIMEXO
 40
0.625
  9
$DIMDLI
 40
3.75
  9
$DIMRND
 40
0.0
  9
$DIMDLE
 40
0.0
  9
$DIMEXE
 40
1.25
  9
$DIMTP
 40
0.0
  9
$DIMTM
 40
0.0
  9
$DIMTXT
 40
3.5
  9
$DIMCEN
 40
2.5
  9
$DIMTSZ
 40
0.0
  9
$DIMTOL
 70
     0
  9
$DIMLIM
 70
     0
  9
$DIMTIH
 70
     0
  9
$DIMTOH
 70
     0
  9
$DIMSE1
 70
     0
  9
$DIMSE2
 70
     0
  9
$DIMTAD
 70
     1
  9
$DIMZIN
 70
     8
  9
$DIMBLK
  1

  9
$DIMASO
 70
     1
  9
$DIMSHO
 70
     1
  9
$DIMPOST
  1

  9
$DIMAPOST
  1

  9
$DIMALT
 70
     0
  9
$DIMALTD
 70
     3
  9
$DIMALTF
 40
0.03937
  9
$DIMLFAC
 40
1.0
  9
$DIMTOFL
 70
     1
  9
$DIMTVP
 40
0.0
  9
$DIMTIX
 70
     0
  9
$DIMSOXD
 70
     0
  9
$DIMSAH
 70
     0
  9
$DIMBLK1
  1

  9
$DIMBLK2
  1

  9
$DIMSTYLE
  2
ISO-25
  9
$DIMCLRD
 70
     0
  9
$DIMCLRE
 70
     0
  9
$DIMCLRT
 70
     0
  9
$DIMTFAC
 40
1.0
  9
$DIMGAP
 40
0.625
  9
$DIMJUST
 70
     0
  9
$DIMSD1
 70
     0
  9
$DIMSD2
 70
     0
  9
$DIMTOLJ
 70
     0
  9
$DIMTZIN
 70
     8
  9
$DIMALTZ
 70
     0
  9
$DIMALTTZ
 70
     0
  9
$DIMUPT
 70
     0
  9
$DIMDEC
 70
     2
  9
$DIMTDEC
 70
     2
  9
$DIMALTU
 70
     2
  9
$DIMALTTD
 70
     3
  9
$DIMTXSTY
  7
Standard
  9
$DIMAUNIT
 70
     0
  9
$DIMADEC
 70
     0
  9
$DIMALTRND
 40
0.0
  9
$DIMAZIN
 70
     0
  9
$DIMDSEP
 70
    44
  9
$DIMATFIT
 70
     3
  9
$DIMFRAC
 70
     0
  9
$DIMLDRBLK
  1

  9
$DIMLUNIT
 70
     2
  9
$DIMLWD
 70
    -2
  9
$DIMLWE
 70
    -2
  9
$DIMTMOVE
 70
     0
  9
$LUNITS
 70
     2
  9
$LUPREC
 70
     4
  9
$SKETCHINC
 40
1.0
  9
$FILLETRAD
 40
10.0
  9
$AUNITS
 70
     0
  9
$AUPREC
 70
     0
  9
$MENU
  1
.
  9
$ELEVATION
 40
0.0
  9
$PELEVATION
 40
0.0
  9
$THICKNESS
 40
0.0
  9
$LIMCHECK
 70
     0
  9
$CHAMFERA
 40
10.0
  9
$CHAMFERB
 40
10.0
  9
$CHAMFERC
 40
20.0
  9
$CHAMFERD
 40
0.0
  9
$SKPOLY
 70
     0
  9
$TDCREATE
 40
2456031.488917859
  9
$TDUCREATE
 40
2456031.405584525
  9
$TDUPDATE
 40
2456031.48891787
  9
$TDUUPDATE
 40
2456031.405584537
  9
$TDINDWG
 40
0.0000000116
  9
$TDUSRTIMER
 40
0.0000000116
  9
$USRTIMER
 70
     1
  9
$ANGBASE
 50
0.0
  9
$ANGDIR
 70
     0
  9
$PDMODE
 70
     0
  9
$PDSIZE
 40
0.0
  9
$PLINEWID
 40
0.0
  9
$SPLFRAME
 70
     0
  9
$SPLINETYPE
 70
     6
  9
$SPLINESEGS
 70
     8
  9
$HANDSEED
  5
76D
  9
$SURFTAB1
 70
     6
  9
$SURFTAB2
 70
     6
  9
$SURFTYPE
 70
     6
  9
$SURFU
 70
     6
  9
$SURFV
 70
     6
  9
$UCSBASE
  2

  9
$UCSNAME
  2

  9
$UCSORG
 10
0.0
 20
0.0
 30
0.0
  9
$UCSXDIR
 10
1.0
 20
0.0
 30
0.0
  9
$UCSYDIR
 10
0.0
 20
1.0
 30
0.0
  9
$UCSORTHOREF
  2

  9
$UCSORTHOVIEW
 70
     0
  9
$UCSORGTOP
 10
0.0
 20
0.0
 30
0.0
  9
$UCSORGBOTTOM
 10
0.0
 20
0.0
 30
0.0
  9
$UCSORGLEFT
 10
0.0
 20
0.0
 30
0.0
  9
$UCSORGRIGHT
 10
0.0
 20
0.0
 30
0.0
  9
$UCSORGFRONT
 10
0.0
 20
0.0
 30
0.0
  9
$UCSORGBACK
 10
0.0
 20
0.0
 30
0.0
  9
$PUCSBASE
  2

  9
$PUCSNAME
  2

  9
$PUCSORG
 10
0.0
 20
0.0
 30
0.0
  9
$PUCSXDIR
 10
1.0
 20
0.0
 30
0.0
  9
$PUCSYDIR
 10
0.0
 20
1.0
 30
0.0
  9
$PUCSORTHOREF
  2

  9
$PUCSORTHOVIEW
 70
     0
  9
$PUCSORGTOP
 10
0.0
 20
0.0
 30
0.0
  9
$PUCSORGBOTTOM
 10
0.0
 20
0.0
 30
0.0
  9
$PUCSORGLEFT
 10
0.0
 20
0.0
 30
0.0
  9
$PUCSORGRIGHT
 10
0.0
 20
0.0
 30
0.0
  9
$PUCSORGFRONT
 10
0.0
 20
0.0
 30
0.0
  9
$PUCSORGBACK
 10
0.0
 20
0.0
 30
0.0
  9
$USERI1
 70
     0
  9
$USERI2
 70
     0
  9
$USERI3
 70
     0
  9
$USERI4
 70
     0
  9
$USERI5
 70
     0
  9
$USERR1
 40
0.0
  9
$USERR2
 40
0.0
  9
$USERR3
 40
0.0
  9
$USERR4
 40
0.0
  9
$USERR5
 40
0.0
  9
$WORLDVIEW
 70
     1
  9
$SHADEDGE
 70
     3
  9
$SHADEDIF
 70
    70
  9
$TILEMODE
 70
     1
  9
$MAXACTVP
 70
    64
  9
$PINSBASE
 10
0.0
 20
0.0
 30
0.0
  9
$PLIMCHECK
 70
     0
  9
$PEXTMIN
 10
-848.177813
 20
-597.195125
 30
0.0
  9
$PEXTMAX
 10
1251.822187
 20
887.804875
 30
0.0
  9
$PLIMMIN
 10
-848.177813
 20
-597.195125
  9
$PLIMMAX
 10
1251.822187
 20
887.804875
  9
$UNITMODE
 70
     0
  9
$VISRETAIN
 70
     1
  9
$PLINEGEN
 70
     0
  9
$PSLTSCALE
 70
     1
  9
$TREEDEPTH
 70
  3020
  9
$CMLSTYLE
  2
Standard
  9
$CMLJUST
 70
     0
  9
$CMLSCALE
 40
20.0
  9
$PROXYGRAPHICS
 70
     1
  9
$MEASUREMENT
 70
     1
  9
$CELWEIGHT
370
    -1
  9
$ENDCAPS
280
     0
  9
$JOINSTYLE
280
     0
  9
$LWDISPLAY
290
     0
  9
$INSUNITS
 70
     4
  9
$HYPERLINKBASE
  1

  9
$STYLESHEET
  1

  9
$XEDIT
290
     1
  9
$CEPSNTYPE
380
     0
  9
$PSTYLEMODE
290
     1
  9
$FINGERPRINTGUID
  2
{FAEB1C30-E019-11D5-929B-00C0DF256EC4}
  9
$VERSIONGUID
  2
{FAEB1C32-E019-11D5-929B-00C0DF256EC4}
  9
$EXTNAMES
290
     1
  9
$PSVPSCALE
 40
0.0
  9
$OLESTARTUP
290
     0
  0
ENDSEC
  0
SECTION
  2
CLASSES
  0
CLASS
  1
ACDBDICTIONARYWDFLT
  2
AcDbDictionaryWithDefault
  3
ObjectDBX Classes
 90
        0
280
     0
281
     0
  0
CLASS
  1
ACDBPLACEHOLDER
  2
AcDbPlaceHolder
  3
ObjectDBX Classes
 90
        0
280
     0
281
     0
  0
CLASS
  1
LAYOUT
  2
AcDbLayout
  3
ObjectDBX Classes
 90
        0
280
     0
281
     0
  0
ENDSEC
  0
SECTION
  2
TABLES
  0
TABLE
  2
VPORT
  5
8
330
0
100
AcDbSymbolTable
 70
     2
  0
VPORT
  5
29
330
8
100
AcDbSymbolTableRecord
100
AcDbViewportTableRecord
  2
*ACTIVE
 70
     0
 10
0.0
 20
0.0
 11
1.0
 21
1.0
 12
201.822187
 22
145.304875
 13
0.0
 23
0.0
 14
1.0
 24
1.0
 15
0.0
 25
0.0
 16
0.0
 26
0.0
 36
1.0
 17
0.0
 27
0.0
 37
0.0
 40
1485.0
 41
1.414141
 42
50.0
 43
0.0
 44
0.0
 50
0.0
 51
0.0
 71
    16
 72
   100
 73
     1
 74
     0
 75
     0
 76
     0
 77
     0
 78
     0
281
     0
 65
     0
110
0.0
120
0.0
130
0.0
111
1.0
121
0.0
131
0.0
112
0.0
122
1.0
132
0.0
 79
     0
146
0.0
  0
ENDTAB
  0
TABLE
  2
LTYPE
  5
5
330
0
100
AcDbSymbolTable
 70
     3
  0
LTYPE
  5
14
330
5
100
AcDbSymbolTableRecord
100
AcDbLinetypeTableRecord
  2
ByBlock
 70
     0
  3

 72
    65
 73
     0
 40
0.0
  0
LTYPE
  5
15
330
5
100
AcDbSymbolTableRecord
100
AcDbLinetypeTableRecord
  2
ByLayer
 70
     0
  3

 72
    65
 73
     0
 40
0.0
  0
LTYPE
  5
16
330
5
100
AcDbSymbolTableRecord
100
AcDbLinetypeTableRecord
  2
Continuous
 70
     0
  3
Solid line
 72
    65
 73
     0
 40
0.0
  0
LTYPE
  5
2A
330
5
100
AcDbSymbolTableRecord
100
AcDbLinetypeTableRecord
  2
DASHED
 70
     0
  3
__ __ __ __ __
 72
    65
 73
     2
 40
6.25
 49
5.0
 74
     4
 75
     0
340
0
 46
1.0
 50
0.0
 44
0.0
 45
0.0
 49
-1.25
 74
     4
 75
     0
340
0
 46
1.0
 50
0.0
 44
0.0
 45
0.0
  0
LTYPE
  5
114
330
5
100
AcDbSymbolTableRecord
100
AcDbLinetypeTableRecord
  2
DASHDOT
 70
     0
  3
__ . __ . __ . __ . __
 72
    65
 73
     4
 40
7.5
 49
5.0
 74
     4
 75
     0
340
0
 46
1.0
 50
0.0
 44
0.0
 45
0.0
 49
-1.25
 74
     4
 75
     0
340
0
 46
1.0
 50
0.0
 44
0.0
 45
0.0
 49
0.0
 74
     4
 75
     0
340
0
 46
1.0
 50
0.0
 44
0.0
 45
0.0
 49
-1.25
 74
     4
 75
     0
340
0
 46
1.0
 50
0.0
 44
0.0
 45
0.0
  0
ENDTAB
  0
TABLE
  2
LAYER
  5
2
330
0
100
AcDbSymbolTable
 70
     9
  0
LAYER
  5
10
330
2
100
AcDbSymbolTableRecord
100
AcDbLayerTableRecord
  2
0
 70
     0
 62
     7
  6
Continuous
370
    -3
390
F
  0
LAYER
  5
2B
330
2
100
AcDbSymbolTableRecord
100
AcDbLayerTableRecord
  2
LC-INFO-1-5-mm-A3-0
 70
     1
 62
     7
  6
ByBlock
370
    -3
390
F
  0
LAYER
  5
2C
330
2
100
AcDbSymbolTableRecord
100
AcDbLayerTableRecord
  2
LC-CUT-HIDDEN
 70
     0
 62
     7
  6
DASHED
370
    -3
390
F
  0
LAYER
  5
2D
330
2
100
AcDbSymbolTableRecord
100
AcDbLayerTableRecord
  2
LC-VIEWPORT
 70
     0
 62
     7
  6
ByBlock
370
    -3
390
F
  0
LAYER
  5
2E
330
2
100
AcDbSymbolTableRecord
100
AcDbLayerTableRecord
  2
LC-3D-HIDDEN
 70
     0
 62
     9
  6
DASHED
370
    -3
390
F
  0
LAYER
  5
30
330
2
100
AcDbSymbolTableRecord
100
AcDbLayerTableRecord
  2
LC-001-002-----0
 70
     0
 62
     2
  6
ByBlock
370
    -3
390
F
  0
LAYER
  5
32
330
2
100
AcDbSymbolTableRecord
100
AcDbLayerTableRecord
  2
LC-002-100-D00-0
 70
     0
 62
     1
  6
ByBlock
370
    -3
390
F
  0
LAYER
  5
EB
330
2
100
AcDbSymbolTableRecord
100
AcDbLayerTableRecord
  2
Defpoints
 70
     0
 62
     7
  6
Continuous
290
     0
370
    -3
390
F
  0
LAYER
  5
74A
330
2
100
AcDbSymbolTableRecord
100
AcDbLayerTableRecord
  2
LC-003-003-----0
 70
     0
 62
     2
  6
ByBlock
370
    -3
390
F
  0
ENDTAB
  0
TABLE
  2
STYLE
  5
3
330
0
100
AcDbSymbolTable
 70
     3
  0
STYLE
  5
11
330
3
100
AcDbSymbolTableRecord
100
AcDbTextStyleTableRecord
  2
Standard
 70
     0
 40
0.0
 41
1.0
 50
0.0
 71
     0
 42
2.5
  3
txt
  4

  0
STYLE
  5
2F
330
3
100
AcDbSymbolTableRecord
100
AcDbTextStyleTableRecord
  2
LCTX15-400-0-0-Arial
 70
     0
 40
0.0
 41
0.8
 50
0.0
 71
     0
 42
3.5
  3

  4

1001
ACAD
1000
Arial
1071
 16777218
  0
STYLE
  5
E8
330
3
100
AcDbSymbolTableRecord
100
AcDbTextStyleTableRecord
  2
LCTX15-400-0-0pDIN-Schrift
 70
     0
 40
2.5
 41
0.8
 50
15.0
 71
     0
 42
3.5
  3
STANDARD
  4

  0
ENDTAB
  0
TABLE
  2
VIEW
  5
6
330
0
100
AcDbSymbolTable
 70
     0
  0
ENDTAB
  0
TABLE
  2
UCS
  5
7
330
0
100
AcDbSymbolTable
 70
     0
  0
ENDTAB
  0
TABLE
  2
APPID
  5
9
330
0
100
AcDbSymbolTable
 70
     1
  0
APPID
  5
12
330
9
100
AcDbSymbolTableRecord
100
AcDbRegAppTableRecord
  2
ACAD
 70
     0
  0
ENDTAB
  0
TABLE
  2
DIMSTYLE
  5
A
330
0
100
AcDbSymbolTable
 70
     3
100
AcDbDimStyleTable
  0
DIMSTYLE
105
27
330
A
100
AcDbSymbolTableRecord
100
AcDbDimStyleTableRecord
  2
ISO-25
 70
     0
 41
2.5
 42
0.625
 43
3.75
 44
1.25
 73
     0
 74
     0
 77
     1
 78
     8
140
2.5
141
2.5
143
0.03937
147
0.625
171
     3
172
     1
271
     2
272
     2
274
     3
278
    44
283
     0
284
     8
340
11
  0
DIMSTYLE
105
E9
102
{ACAD_REACTORS
330
EA
330
F9
330
107
330
377
330
386
330
393
330
496
330
53B
330
71D
330
72B
330
74B
330
759
102
}
330
A
100
AcDbSymbolTableRecord
100
AcDbDimStyleTableRecord
  2
LC-DIM-L-0100-02-02
 70
     0
 40
5.0
 41
10.0
 42
0.0
 43
7.5
 44
1.8
 73
     0
 74
     0
 77
     1
 78
     8
 79
     2
140
10.0
141
0.0
146
0.71
147
1.5
176
     2
177
     2
178
     2
179
     2
271
     2
278
    44
289
     1
340
E8
  0
DIMSTYLE
105
739
102
{ACAD_REACTORS
330
73A
102
}
330
A
100
AcDbSymbolTableRecord
100
AcDbDimStyleTableRecord
  2
LC-DIM-L-0100-01-02
 70
     0
 40
5.0
 41
10.0
 42
0.0
 43
7.5
 44
1.8
 73
     0
 74
     0
 77
     1
 78
     8
 79
     2
140
10.0
141
0.0
146
0.71
147
1.5
176
     2
177
     2
178
     2
179
     1
271
     1
278
    44
289
     1
340
E8
  0
ENDTAB
  0
TABLE
  2
BLOCK_RECORD
  5
1
330
0
100
AcDbSymbolTable
 70
    67
  0
BLOCK_RECORD
  5
1F
330
1
100
AcDbSymbolTableRecord
100
AcDbBlockTableRecord
  2
*Model_Space
340
22
  0
BLOCK_RECORD
  5
1B
330
1
100
AcDbSymbolTableRecord
100
AcDbBlockTableRecord
  2
*Paper_Space
340
1E
  0
BLOCK_RECORD
  5
23
330
1
100
AcDbSymbolTableRecord
100
AcDbBlockTableRecord
  2
*Paper_Space0
340
26
  0
BLOCK_RECORD
  5
52
330
1
100
AcDbSymbolTableRecord
100
AcDbBlockTableRecord
  2
KLON1
340
0
102
{BLKREFS
331
59
102
}
  0
BLOCK_RECORD
  5
5B
330
1
100
AcDbSymbolTableRecord
100
AcDbBlockTableRecord
  2
KLON2
340
0
102
{BLKREFS
331
60
102
}
  0
BLOCK_RECORD
  5
61
330
1
100
AcDbSymbolTableRecord
100
AcDbBlockTableRecord
  2
KLON3
340
0
102
{BLKREFS
331
66
102
}
  0
BLOCK_RECORD
  5
67
330
1
100
AcDbSymbolTableRecord
100
AcDbBlockTableRecord
  2
KLON4
340
0
102
{BLKREFS
331
6C
102
}
  0
BLOCK_RECORD
  5
6E
330
1
100
AcDbSymbolTableRecord
100
AcDbBlockTableRecord
  2
KLON5
340
0
102
{BLKREFS
331
75
102
}
  0
BLOCK_RECORD
  5
78
330
1
100
AcDbSymbolTableRecord
100
AcDbBlockTableRecord
  2
KLON6
340
0
102
{BLKREFS
331
7D
102
}
  0
BLOCK_RECORD
  5
8B
330
1
100
AcDbSymbolTableRecord
100
AcDbBlockTableRecord
  2
KLON7
340
0
102
{BLKREFS
331
90
102
}
  0
BLOCK_RECORD
  5
91
330
1
100
AcDbSymbolTableRecord
100
AcDbBlockTableRecord
  2
KLON8
340
0
102
{BLKREFS
331
96
102
}
  0
BLOCK_RECORD
  5
98
330
1
100
AcDbSymbolTableRecord
100
AcDbBlockTableRecord
  2
KLON9
340
0
102
{BLKREFS
331
9D
102
}
  0
BLOCK_RECORD
  5
9E
330
1
100
AcDbSymbolTableRecord
100
AcDbBlockTableRecord
  2
KLON10
340
0
102
{BLKREFS
331
A3
102
}
  0
BLOCK_RECORD
  5
EC
330
1
100
AcDbSymbolTableRecord
100
AcDbBlockTableRecord
  2
*D11
340
0
  0
BLOCK_RECORD
  5
FA
330
1
100
AcDbSymbolTableRecord
100
AcDbBlockTableRecord
  2
*D12
340
0
  0
BLOCK_RECORD
  5
108
330
1
100
AcDbSymbolTableRecord
100
AcDbBlockTableRecord
  2
*D13
340
0
  0
BLOCK_RECORD
  5
32F
330
1
100
AcDbSymbolTableRecord
100
AcDbBlockTableRecord
  2
KLON11
340
0
102
{BLKREFS
331
338
102
}
  0
BLOCK_RECORD
  5
339
330
1
100
AcDbSymbolTableRecord
100
AcDbBlockTableRecord
  2
KLON12
340
0
102
{BLKREFS
331
342
102
}
  0
BLOCK_RECORD
  5
34D
330
1
100
AcDbSymbolTableRecord
100
AcDbBlockTableRecord
  2
KLON13
340
0
102
{BLKREFS
331
359
102
}
  0
BLOCK_RECORD
  5
35A
330
1
100
AcDbSymbolTableRecord
100
AcDbBlockTableRecord
  2
KLON14
340
0
102
{BLKREFS
331
366
102
}
  0
BLOCK_RECORD
  5
378
330
1
100
AcDbSymbolTableRecord
100
AcDbBlockTableRecord
  2
*D18
340
0
  0
BLOCK_RECORD
  5
387
330
1
100
AcDbSymbolTableRecord
100
AcDbBlockTableRecord
  2
*D19
340
0
  0
BLOCK_RECORD
  5
394
330
1
100
AcDbSymbolTableRecord
100
AcDbBlockTableRecord
  2
*D20
340
0
  0
BLOCK_RECORD
  5
3A0
330
1
100
AcDbSymbolTableRecord
100
AcDbBlockTableRecord
  2
KLON15
340
0
102
{BLKREFS
331
3B5
102
}
  0
BLOCK_RECORD
  5
3B6
330
1
100
AcDbSymbolTableRecord
100
AcDbBlockTableRecord
  2
KLON16
340
0
102
{BLKREFS
331
3CD
102
}
  0
BLOCK_RECORD
  5
3CF
330
1
100
AcDbSymbolTableRecord
100
AcDbBlockTableRecord
  2
KLON17
340
0
102
{BLKREFS
331
3D4
102
}
  0
BLOCK_RECORD
  5
3D5
330
1
100
AcDbSymbolTableRecord
100
AcDbBlockTableRecord
  2
KLON18
340
0
102
{BLKREFS
331
3DA
102
}
  0
BLOCK_RECORD
  5
3DD
330
1
100
AcDbSymbolTableRecord
100
AcDbBlockTableRecord
  2
KLON19
340
0
102
{BLKREFS
331
3E2
102
}
  0
BLOCK_RECORD
  5
3E5
330
1
100
AcDbSymbolTableRecord
100
AcDbBlockTableRecord
  2
KLON20
340
0
102
{BLKREFS
331
3EA
102
}
  0
BLOCK_RECORD
  5
3ED
330
1
100
AcDbSymbolTableRecord
100
AcDbBlockTableRecord
  2
KLON21
340
0
102
{BLKREFS
331
3F2
102
}
  0
BLOCK_RECORD
  5
3F5
330
1
100
AcDbSymbolTableRecord
100
AcDbBlockTableRecord
  2
KLON22
340
0
102
{BLKREFS
331
3FA
102
}
  0
BLOCK_RECORD
  5
3FB
330
1
100
AcDbSymbolTableRecord
100
AcDbBlockTableRecord
  2
KLON23
340
0
102
{BLKREFS
331
400
102
}
  0
BLOCK_RECORD
  5
401
330
1
100
AcDbSymbolTableRecord
100
AcDbBlockTableRecord
  2
KLON24
340
0
102
{BLKREFS
331
408
102
}
  0
BLOCK_RECORD
  5
47C
330
1
100
AcDbSymbolTableRecord
100
AcDbBlockTableRecord
  2
KLON25
340
0
102
{BLKREFS
331
488
102
}
  0
BLOCK_RECORD
  5
48A
330
1
100
AcDbSymbolTableRecord
100
AcDbBlockTableRecord
  2
KLON26
340
0
102
{BLKREFS
331
495
102
}
  0
BLOCK_RECORD
  5
497
330
1
100
AcDbSymbolTableRecord
100
AcDbBlockTableRecord
  2
*D33
340
0
  0
BLOCK_RECORD
  5
4A4
330
1
100
AcDbSymbolTableRecord
100
AcDbBlockTableRecord
  2
KLON27
340
0
102
{BLKREFS
331
4A9
102
}
  0
BLOCK_RECORD
  5
4AD
330
1
100
AcDbSymbolTableRecord
100
AcDbBlockTableRecord
  2
KLON28
340
0
102
{BLKREFS
331
4B2
102
}
  0
BLOCK_RECORD
  5
4B6
330
1
100
AcDbSymbolTableRecord
100
AcDbBlockTableRecord
  2
POLY1
340
0
102
{BLKREFS
331
4C5
102
}
  0
BLOCK_RECORD
  5
4C6
330
1
100
AcDbSymbolTableRecord
100
AcDbBlockTableRecord
  2
POLY2
340
0
102
{BLKREFS
331
4D5
102
}
  0
BLOCK_RECORD
  5
4D6
330
1
100
AcDbSymbolTableRecord
100
AcDbBlockTableRecord
  2
POLY3
340
0
102
{BLKREFS
331
4E5
102
}
  0
BLOCK_RECORD
  5
4E6
330
1
100
AcDbSymbolTableRecord
100
AcDbBlockTableRecord
  2
POLY4
340
0
102
{BLKREFS
331
4F5
102
}
  0
BLOCK_RECORD
  5
500
330
1
100
AcDbSymbolTableRecord
100
AcDbBlockTableRecord
  2
POLY5
340
0
102
{BLKREFS
331
50F
102
}
  0
BLOCK_RECORD
  5
512
330
1
100
AcDbSymbolTableRecord
100
AcDbBlockTableRecord
  2
POLY6
340
0
102
{BLKREFS
331
521
102
}
  0
BLOCK_RECORD
  5
53C
330
1
100
AcDbSymbolTableRecord
100
AcDbBlockTableRecord
  2
*D42
340
0
  0
BLOCK_RECORD
  5
584
330
1
100
AcDbSymbolTableRecord
100
AcDbBlockTableRecord
  2
POLY7
340
0
102
{BLKREFS
331
593
102
}
  0
BLOCK_RECORD
  5
594
330
1
100
AcDbSymbolTableRecord
100
AcDbBlockTableRecord
  2
POLY8
340
0
102
{BLKREFS
331
5A3
102
}
  0
BLOCK_RECORD
  5
5A8
330
1
100
AcDbSymbolTableRecord
100
AcDbBlockTableRecord
  2
POLY9
340
0
102
{BLKREFS
331
5B9
102
}
  0
BLOCK_RECORD
  5
5BA
330
1
100
AcDbSymbolTableRecord
100
AcDbBlockTableRecord
  2
POLY10
340
0
102
{BLKREFS
331
5CB
102
}
  0
BLOCK_RECORD
  5
5D5
330
1
100
AcDbSymbolTableRecord
100
AcDbBlockTableRecord
  2
POLY11
340
0
102
{BLKREFS
331
5E0
102
}
  0
BLOCK_RECORD
  5
646
330
1
100
AcDbSymbolTableRecord
100
AcDbBlockTableRecord
  2
POLY12
340
0
102
{BLKREFS
331
653
102
}
  0
BLOCK_RECORD
  5
667
330
1
100
AcDbSymbolTableRecord
100
AcDbBlockTableRecord
  2
KLON29
340
0
102
{BLKREFS
331
66C
102
}
  0
BLOCK_RECORD
  5
672
330
1
100
AcDbSymbolTableRecord
100
AcDbBlockTableRecord
  2
POLY13
340
0
102
{BLKREFS
331
685
102
}
  0
BLOCK_RECORD
  5
688
330
1
100
AcDbSymbolTableRecord
100
AcDbBlockTableRecord
  2
KLON30
340
0
102
{BLKREFS
331
68D
102
}
  0
BLOCK_RECORD
  5
696
330
1
100
AcDbSymbolTableRecord
100
AcDbBlockTableRecord
  2
POLY14
340
0
102
{BLKREFS
331
6A3
102
}
  0
BLOCK_RECORD
  5
6B4
330
1
100
AcDbSymbolTableRecord
100
AcDbBlockTableRecord
  2
POLY15
340
0
102
{BLKREFS
331
6D5
102
}
  0
BLOCK_RECORD
  5
6DE
330
1
100
AcDbSymbolTableRecord
100
AcDbBlockTableRecord
  2
KLON31
340
0
102
{BLKREFS
331
6E5
102
}
  0
BLOCK_RECORD
  5
6E6
330
1
100
AcDbSymbolTableRecord
100
AcDbBlockTableRecord
  2
KLON32
340
0
102
{BLKREFS
331
6F2
102
}
  0
BLOCK_RECORD
  5
6F3
330
1
100
AcDbSymbolTableRecord
100
AcDbBlockTableRecord
  2
KLON33
340
0
102
{BLKREFS
331
6F8
102
}
  0
BLOCK_RECORD
  5
6F9
330
1
100
AcDbSymbolTableRecord
100
AcDbBlockTableRecord
  2
KLON34
340
0
102
{BLKREFS
331
6FE
102
}
  0
BLOCK_RECORD
  5
700
330
1
100
AcDbSymbolTableRecord
100
AcDbBlockTableRecord
  2
KLON35
340
0
102
{BLKREFS
331
707
102
}
  0
BLOCK_RECORD
  5
708
330
1
100
AcDbSymbolTableRecord
100
AcDbBlockTableRecord
  2
KLON36
340
0
102
{BLKREFS
331
70D
102
}
  0
BLOCK_RECORD
  5
70E
330
1
100
AcDbSymbolTableRecord
100
AcDbBlockTableRecord
  2
KLON37
340
0
102
{BLKREFS
331
714
102
}
  0
BLOCK_RECORD
  5
715
330
1
100
AcDbSymbolTableRecord
100
AcDbBlockTableRecord
  2
KLON38
340
0
102
{BLKREFS
331
71C
102
}
  0
BLOCK_RECORD
  5
71E
330
1
100
AcDbSymbolTableRecord
100
AcDbBlockTableRecord
  2
*D62
340
0
  0
BLOCK_RECORD
  5
72C
330
1
100
AcDbSymbolTableRecord
100
AcDbBlockTableRecord
  2
*D63
340
0
  0
BLOCK_RECORD
  5
73B
330
1
100
AcDbSymbolTableRecord
100
AcDbBlockTableRecord
  2
*D64
340
0
  0
BLOCK_RECORD
  5
74C
330
1
100
AcDbSymbolTableRecord
100
AcDbBlockTableRecord
  2
*D65
340
0
  0
BLOCK_RECORD
  5
75A
330
1
100
AcDbSymbolTableRecord
100
AcDbBlockTableRecord
  2
*D66
340
0
  0
ENDTAB
  0
ENDSEC
  0
SECTION
  2
BLOCKS
  0
BLOCK
  5
20
330
1F
100
AcDbEntity
  8
0
100
AcDbBlockBegin
  2
*Model_Space
 70
     0
 71
     0
 10
0.0
 20
0.0
 30
0.0
  3
*Model_Space
  1

  0
ENDBLK
  5
21
330
1F
100
AcDbEntity
  8
0
100
AcDbBlockEnd
  0
BLOCK
  5
1C
330
1B
100
AcDbEntity
 67
     1
  8
0
100
AcDbBlockBegin
  2
*Paper_Space
 70
     0
 71
     0
 10
0.0
 20
0.0
 30
0.0
  3
*Paper_Space
  1

  0
ENDBLK
  5
1D
330
1B
100
AcDbEntity
 67
     1
  8
0
100
AcDbBlockEnd
  0
BLOCK
  5
24
330
23
100
AcDbEntity
  8
0
100
AcDbBlockBegin
  2
*Paper_Space0
 70
     0
 71
     0
 10
0.0
 20
0.0
 30
0.0
  3
*Paper_Space0
  1

  0
ENDBLK
  5
25
330
23
100
AcDbEntity
  8
0
100
AcDbBlockEnd
  0
BLOCK
  5
53
330
52
100
AcDbEntity
  8
0
100
AcDbBlockBegin
  2
KLON1
 70
     0
 71
     0
 10
0.0
 20
0.0
 30
0.0
  3
KLON1
  1

  4
KLON1
  0
LINE
  5
55
330
52
100
AcDbEntity
  8
LC-002-100-D00-0
 62
     7
370
    15
100
AcDbLine
 10
721.693525
 20
140.533444
 30
0.0
 11
721.706162
 21
140.452563
 31
0.0
  0
LINE
  5
56
330
52
100
AcDbEntity
  8
LC-002-100-D00-0
 62
     7
370
    15
100
AcDbLine
 10
721.706162
 20
140.452563
 30
0.0
 11
721.714953
 21
140.396354
 31
0.0
  0
LINE
  5
57
330
52
100
AcDbEntity
  8
LC-002-100-D00-0
 62
     7
370
    15
100
AcDbLine
 10
721.714953
 20
140.396354
 30
0.0
 11
721.717487
 21
140.380255
 31
0.0
  0
LINE
  5
58
330
52
100
AcDbEntity
  8
LC-002-100-D00-0
 62
     7
370
    15
100
AcDbLine
 10
721.717487
 20
140.380255
 30
0.0
 11
721.719722
 21
140.365969
 31
0.0
  0
ENDBLK
  5
54
330
52
100
AcDbEntity
  8
0
100
AcDbBlockEnd
  0
BLOCK
  5
5C
330
5B
100
AcDbEntity
  8
0
100
AcDbBlockBegin
  2
KLON2
 70
     0
 71
     0
 10
0.0
 20
0.0
 30
0.0
  3
KLON2
  1

  4
KLON2
  0
LINE
  5
5E
330
5B
100
AcDbEntity
  8
LC-002-100-D00-0
 62
     7
370
    15
100
AcDbLine
 10
721.693525
 20
151.696135
 30
0.0
 11
721.704105
 21
151.702045
 31
0.0
  0
LINE
  5
5F
330
5B
100
AcDbEntity
  8
LC-002-100-D00-0
 62
     7
370
    15
100
AcDbLine
 10
721.704105
 20
151.702045
 30
0.0
 11
721.719722
 21
151.710774
 31
0.0
  0
ENDBLK
  5
5D
330
5B
100
AcDbEntity
  8
0
100
AcDbBlockEnd
  0
BLOCK
  5
62
330
61
100
AcDbEntity
  8
0
100
AcDbBlockBegin
  2
KLON3
 70
     0
 71
     0
 10
0.0
 20
0.0
 30
0.0
  3
KLON3
  1

  4
KLON3
  0
LINE
  5
64
330
61
100
AcDbEntity
  8
LC-002-100-D00-0
 62
     7
370
    15
100
AcDbLine
 10
721.693525
 20
104.710775
 30
0.0
 11
721.700946
 21
104.672602
 31
0.0
  0
LINE
  5
65
330
61
100
AcDbEntity
  8
LC-002-100-D00-0
 62
     7
370
    15
100
AcDbLine
 10
721.700946
 20
104.672602
 30
0.0
 11
721.719722
 21
104.640118
 31
0.0
  0
ENDBLK
  5
63
330
61
100
AcDbEntity
  8
0
100
AcDbBlockEnd
  0
BLOCK
  5
68
330
67
100
AcDbEntity
  8
0
100
AcDbBlockBegin
  2
KLON4
 70
     0
 71
     0
 10
0.0
 20
0.0
 30
0.0
  3
KLON4
  1

  4
KLON4
  0
LINE
  5
6A
330
67
100
AcDbEntity
  8
LC-002-100-D00-0
 62
     7
370
    15
100
AcDbLine
 10
37.745903
 20
151.696135
 30
0.0
 11
37.735323
 21
151.702045
 31
0.0
  0
LINE
  5
6B
330
67
100
AcDbEntity
  8
LC-002-100-D00-0
 62
     7
370
    15
100
AcDbLine
 10
37.735323
 20
151.702045
 30
0.0
 11
37.719706
 21
151.710774
 31
0.0
  0
ENDBLK
  5
69
330
67
100
AcDbEntity
  8
0
100
AcDbBlockEnd
  0
BLOCK
  5
6F
330
6E
100
AcDbEntity
  8
0
100
AcDbBlockBegin
  2
KLON5
 70
     0
 71
     0
 10
0.0
 20
0.0
 30
0.0
  3
KLON5
  1

  4
KLON5
  0
LINE
  5
71
330
6E
100
AcDbEntity
  8
LC-002-100-D00-0
 62
     7
370
    15
100
AcDbLine
 10
37.745903
 20
140.533444
 30
0.0
 11
37.733267
 21
140.452563
 31
0.0
  0
LINE
  5
72
330
6E
100
AcDbEntity
  8
LC-002-100-D00-0
 62
     7
370
    15
100
AcDbLine
 10
37.733267
 20
140.452563
 30
0.0
 11
37.724475
 21
140.396354
 31
0.0
  0
LINE
  5
73
330
6E
100
AcDbEntity
  8
LC-002-100-D00-0
 62
     7
370
    15
100
AcDbLine
 10
37.724475
 20
140.396354
 30
0.0
 11
37.721942
 21
140.380255
 31
0.0
  0
LINE
  5
74
330
6E
100
AcDbEntity
  8
LC-002-100-D00-0
 62
     7
370
    15
100
AcDbLine
 10
37.721942
 20
140.380255
 30
0.0
 11
37.719706
 21
140.365969
 31
0.0
  0
ENDBLK
  5
70
330
6E
100
AcDbEntity
  8
0
100
AcDbBlockEnd
  0
BLOCK
  5
79
330
78
100
AcDbEntity
  8
0
100
AcDbBlockBegin
  2
KLON6
 70
     0
 71
     0
 10
0.0
 20
0.0
 30
0.0
  3
KLON6
  1

  4
KLON6
  0
LINE
  5
7B
330
78
100
AcDbEntity
  8
LC-002-100-D00-0
 62
     7
370
    15
100
AcDbLine
 10
37.745903
 20
104.710775
 30
0.0
 11
37.738482
 21
104.672602
 31
0.0
  0
LINE
  5
7C
330
78
100
AcDbEntity
  8
LC-002-100-D00-0
 62
     7
370
    15
100
AcDbLine
 10
37.738482
 20
104.672602
 30
0.0
 11
37.719706
 21
104.640118
 31
0.0
  0
ENDBLK
  5
7A
330
78
100
AcDbEntity
  8
0
100
AcDbBlockEnd
  0
BLOCK
  5
8C
330
8B
100
AcDbEntity
  8
0
100
AcDbBlockBegin
  2
KLON7
 70
     0
 71
     0
 10
0.0
 20
0.0
 30
0.0
  3
KLON7
  1

  4
KLON7
  0
LINE
  5
8E
330
8B
100
AcDbEntity
  8
LC-002-100-D00-0
 62
     7
370
    15
100
AcDbLine
 10
721.665005
 20
115.877366
 30
0.0
 11
721.681158
 21
115.88345
 31
0.0
  0
LINE
  5
8F
330
8B
100
AcDbEntity
  8
LC-002-100-D00-0
 62
     7
370
    15
100
AcDbLine
 10
721.681158
 20
115.88345
 30
0.0
 11
721.693525
 21
115.888106
 31
0.0
  0
ENDBLK
  5
8D
330
8B
100
AcDbEntity
  8
0
100
AcDbBlockEnd
  0
BLOCK
  5
92
330
91
100
AcDbEntity
  8
0
100
AcDbBlockBegin
  2
KLON8
 70
     0
 71
     0
 10
0.0
 20
0.0
 30
0.0
  3
KLON8
  1

  4
KLON8
  0
LINE
  5
94
330
91
100
AcDbEntity
  8
LC-002-100-D00-0
 62
     7
370
    15
100
AcDbLine
 10
37.774424
 20
115.877366
 30
0.0
 11
37.758271
 21
115.88345
 31
0.0
  0
LINE
  5
95
330
91
100
AcDbEntity
  8
LC-002-100-D00-0
 62
     7
370
    15
100
AcDbLine
 10
37.758271
 20
115.88345
 30
0.0
 11
37.745903
 21
115.888106
 31
0.0
  0
ENDBLK
  5
93
330
91
100
AcDbEntity
  8
0
100
AcDbBlockEnd
  0
BLOCK
  5
99
330
98
100
AcDbEntity
  8
0
100
AcDbBlockBegin
  2
KLON9
 70
     0
 71
     0
 10
0.0
 20
0.0
 30
0.0
  3
KLON9
  1

  4
KLON9
  0
LINE
  5
9B
330
98
100
AcDbEntity
  8
LC-002-100-D00-0
 62
     7
370
    15
100
AcDbLine
 10
721.665005
 20
140.544184
 30
0.0
 11
721.681158
 21
140.538099
 31
0.0
  0
LINE
  5
9C
330
98
100
AcDbEntity
  8
LC-002-100-D00-0
 62
     7
370
    15
100
AcDbLine
 10
721.681158
 20
140.538099
 30
0.0
 11
721.693525
 21
140.533444
 31
0.0
  0
ENDBLK
  5
9A
330
98
100
AcDbEntity
  8
0
100
AcDbBlockEnd
  0
BLOCK
  5
9F
330
9E
100
AcDbEntity
  8
0
100
AcDbBlockBegin
  2
KLON10
 70
     0
 71
     0
 10
0.0
 20
0.0
 30
0.0
  3
KLON10
  1

  4
KLON10
  0
LINE
  5
A1
330
9E
100
AcDbEntity
  8
LC-002-100-D00-0
 62
     7
370
    15
100
AcDbLine
 10
37.774424
 20
140.544184
 30
0.0
 11
37.758271
 21
140.538099
 31
0.0
  0
LINE
  5
A2
330
9E
100
AcDbEntity
  8
LC-002-100-D00-0
 62
     7
370
    15
100
AcDbLine
 10
37.758271
 20
140.538099
 30
0.0
 11
37.745903
 21
140.533444
 31
0.0
  0
ENDBLK
  5
A0
330
9E
100
AcDbEntity
  8
0
100
AcDbBlockEnd
  0
BLOCK
  5
F7
330
EC
100
AcDbEntity
  8
0
100
AcDbBlockBegin
  2
*D11
 70
     1
 71
     0
 10
0.0
 20
0.0
 30
0.0
  3
*D11
  1

  0
LINE
  5
ED
330
EC
100
AcDbEntity
  8
LC-002-100-D00-0
 62
     2
370
    -2
100
AcDbLine
 10
774.719714
 20
174.210775
 30
0.0
 11
875.991143
 21
174.210775
 31
0.0
  0
LINE
  5
EE
330
EC
100
AcDbEntity
  8
LC-002-100-D00-0
 62
     2
370
    -2
100
AcDbLine
 10
774.719714
 20
172.710775
 30
0.0
 11
875.991143
 21
172.710775
 31
0.0
  0
LINE
  5
EF
330
EC
100
AcDbEntity
  8
LC-002-100-D00-0
 62
     2
370
    -2
100
AcDbLine
 10
866.991143
 20
224.210775
 30
0.0
 11
866.991143
 21
274.210775
 31
0.0
  0
LINE
  5
F0
330
EC
100
AcDbEntity
  8
LC-002-100-D00-0
 62
     2
370
    -2
100
AcDbLine
 10
866.991143
 20
122.710775
 30
0.0
 11
866.991143
 21
63.085193
 31
0.0
  0
SOLID
  5
F1
330
EC
100
AcDbEntity
  8
LC-002-100-D00-0
 62
     2
100
AcDbTrace
 10
858.65781
 20
224.210775
 30
0.0
 11
875.324476
 21
224.210775
 31
0.0
 12
866.991143
 22
174.210775
 32
0.0
 13
866.991143
 23
174.210775
 33
0.0
  0
SOLID
  5
F2
330
EC
100
AcDbEntity
  8
LC-002-100-D00-0
 62
     2
100
AcDbTrace
 10
875.324476
 20
122.710775
 30
0.0
 11
858.65781
 21
122.710775
 31
0.0
 12
866.991143
 22
172.710775
 32
0.0
 13
866.991143
 23
172.710775
 33
0.0
  0
MTEXT
  5
F3
330
EC
100
AcDbEntity
  8
LC-002-100-D00-0
 62
     2
100
AcDbMText
 10
811.991143
 20
109.664875
 30
0.0
 40
50.0
 41
0.0
 71
     5
 72
     1
  1
\A1;1,5
  7
LCTX15-400-0-0pDIN-Schrift
 11
6.123031769111886E-17
 21
1.0
 31
0.0
 73
     1
 44
1.0
  0
POINT
  5
F4
330
EC
100
AcDbEntity
  8
Defpoints
 62
     0
100
AcDbPoint
 10
774.719714
 20
174.210775
 30
0.0
  0
POINT
  5
F5
330
EC
100
AcDbEntity
  8
Defpoints
 62
     0
100
AcDbPoint
 10
774.719714
 20
172.710775
 30
0.0
  0
POINT
  5
F6
330
EC
100
AcDbEntity
  8
Defpoints
 62
     0
100
AcDbPoint
 10
866.991143
 20
172.710775
 30
0.0
  0
ENDBLK
  5
F8
330
EC
100
AcDbEntity
  8
0
100
AcDbBlockEnd
  0
BLOCK
  5
105
330
FA
100
AcDbEntity
  8
0
100
AcDbBlockBegin
  2
*D12
 70
     1
 71
     0
 10
0.0
 20
0.0
 30
0.0
  3
*D12
  1

  0
LINE
  5
FB
330
FA
100
AcDbEntity
  8
LC-002-100-D00-0
 62
     2
370
    -2
100
AcDbLine
 10
774.719714
 20
172.710775
 30
0.0
 11
940.47911
 21
172.710775
 31
0.0
  0
LINE
  5
FC
330
FA
100
AcDbEntity
  8
LC-002-100-D00-0
 62
     2
370
    -2
100
AcDbLine
 10
727.219714
 20
154.210775
 30
0.0
 11
940.47911
 21
154.210775
 31
0.0
  0
LINE
  5
FD
330
FA
100
AcDbEntity
  8
LC-002-100-D00-0
 62
     2
370
    -2
100
AcDbLine
 10
931.47911
 20
222.710775
 30
0.0
 11
931.47911
 21
272.710775
 31
0.0
  0
LINE
  5
FE
330
FA
100
AcDbEntity
  8
LC-002-100-D00-0
 62
     2
370
    -2
100
AcDbLine
 10
931.47911
 20
104.210775
 30
0.0
 11
931.47911
 21
64.827574
 31
0.0
  0
SOLID
  5
FF
330
FA
100
AcDbEntity
  8
LC-002-100-D00-0
 62
     2
100
AcDbTrace
 10
923.145777
 20
222.710775
 30
0.0
 11
939.812443
 21
222.710775
 31
0.0
 12
931.47911
 22
172.710775
 32
0.0
 13
931.47911
 23
172.710775
 33
0.0
  0
SOLID
  5
100
330
FA
100
AcDbEntity
  8
LC-002-100-D00-0
 62
     2
100
AcDbTrace
 10
939.812443
 20
104.210775
 30
0.0
 11
923.145777
 21
104.210775
 31
0.0
 12
931.47911
 22
154.210775
 32
0.0
 13
931.47911
 23
154.210775
 33
0.0
  0
MTEXT
  5
101
330
FA
100
AcDbEntity
  8
LC-002-100-D00-0
 62
     2
100
AcDbMText
 10
876.47911
 20
130.454875
 30
0.0
 40
50.0
 41
0.0
 71
     5
 72
     1
  1
\A1;18,5
  7
LCTX15-400-0-0pDIN-Schrift
 11
6.123031769111886E-17
 21
1.0
 31
0.0
 73
     1
 44
1.0
  0
POINT
  5
102
330
FA
100
AcDbEntity
  8
Defpoints
 62
     0
100
AcDbPoint
 10
774.719714
 20
172.710775
 30
0.0
  0
POINT
  5
103
330
FA
100
AcDbEntity
  8
Defpoints
 62
     0
100
AcDbPoint
 10
727.219714
 20
154.210775
 30
0.0
  0
POINT
  5
104
330
FA
100
AcDbEntity
  8
Defpoints
 62
     0
100
AcDbPoint
 10
931.47911
 20
154.210775
 30
0.0
  0
ENDBLK
  5
106
330
FA
100
AcDbEntity
  8
0
100
AcDbBlockEnd
  0
BLOCK
  5
112
330
108
100
AcDbEntity
  8
0
100
AcDbBlockBegin
  2
*D13
 70
     1
 71
     0
 10
0.0
 20
0.0
 30
0.0
  3
*D13
  1

  0
LINE
  5
109
330
108
100
AcDbEntity
  8
LC-002-100-D00-0
 62
     2
370
    -2
100
AcDbLine
 10
774.719714
 20
174.210775
 30
0.0
 11
1025.603227
 21
174.210775
 31
0.0
  0
LINE
  5
10A
330
108
100
AcDbEntity
  8
LC-002-100-D00-0
 62
     2
370
    -2
100
AcDbLine
 10
774.719714
 20
50.710775
 30
0.0
 11
1025.603227
 21
50.710775
 31
0.0
  0
LINE
  5
10B
330
108
100
AcDbEntity
  8
LC-002-100-D00-0
 62
     2
370
    -2
100
AcDbLine
 10
1016.603227
 20
124.210775
 30
0.0
 11
1016.603227
 21
100.710775
 31
0.0
  0
SOLID
  5
10C
330
108
100
AcDbEntity
  8
LC-002-100-D00-0
 62
     2
100
AcDbTrace
 10
1024.93656
 20
124.210775
 30
0.0
 11
1008.269893
 21
124.210775
 31
0.0
 12
1016.603227
 22
174.210775
 32
0.0
 13
1016.603227
 23
174.210775
 33
0.0
  0
SOLID
  5
10D
330
108
100
AcDbEntity
  8
LC-002-100-D00-0
 62
     2
100
AcDbTrace
 10
1008.269893
 20
100.710775
 30
0.0
 11
1024.93656
 21
100.710775
 31
0.0
 12
1016.603227
 22
50.710775
 32
0.0
 13
1016.603227
 23
50.710775
 33
0.0
  0
MTEXT
  5
10E
330
108
100
AcDbEntity
  8
LC-002-100-D00-0
 62
     2
100
AcDbMText
 10
961.603227
 20
53.234875
 30
0.0
 40
50.0
 41
0.0
 71
     5
 72
     1
  1
\A1;123,5
  7
LCTX15-400-0-0pDIN-Schrift
 11
6.123031769111886E-17
 21
1.0
 31
0.0
 73
     1
 44
1.0
  0
POINT
  5
10F
330
108
100
AcDbEntity
  8
Defpoints
 62
     0
100
AcDbPoint
 10
774.719714
 20
174.210775
 30
0.0
  0
POINT
  5
110
330
108
100
AcDbEntity
  8
Defpoints
 62
     0
100
AcDbPoint
 10
774.719714
 20
50.710775
 30
0.0
  0
POINT
  5
111
330
108
100
AcDbEntity
  8
Defpoints
 62
     0
100
AcDbPoint
 10
1016.603227
 20
50.710775
 30
0.0
  0
ENDBLK
  5
113
330
108
100
AcDbEntity
  8
0
100
AcDbBlockEnd
  0
BLOCK
  5
330
330
32F
100
AcDbEntity
  8
0
100
AcDbBlockBegin
  2
KLON11
 70
     0
 71
     0
 10
0.0
 20
0.0
 30
0.0
  3
KLON11
  1

  4
KLON11
  0
LINE
  5
332
330
32F
100
AcDbEntity
  8
LC-002-100-D00-0
 62
     7
370
    15
100
AcDbLine
 10
712.627397
 20
459.394529
 30
0.0
 11
715.183721
 21
459.487825
 31
0.0
  0
LINE
  5
333
330
32F
100
AcDbEntity
  8
LC-002-100-D00-0
 62
     7
370
    15
100
AcDbLine
 10
715.183721
 20
459.487825
 30
0.0
 11
717.329518
 21
459.566138
 31
0.0
  0
LINE
  5
334
330
32F
100
AcDbEntity
  8
LC-002-100-D00-0
 62
     7
370
    15
100
AcDbLine
 10
717.329518
 20
459.566138
 30
0.0
 11
719.059662
 21
459.629282
 31
0.0
  0
LINE
  5
335
330
32F
100
AcDbEntity
  8
LC-002-100-D00-0
 62
     7
370
    15
100
AcDbLine
 10
719.059662
 20
459.629282
 30
0.0
 11
720.36998
 21
459.677104
 31
0.0
  0
LINE
  5
336
330
32F
100
AcDbEntity
  8
LC-002-100-D00-0
 62
     7
370
    15
100
AcDbLine
 10
720.36998
 20
459.677104
 30
0.0
 11
721.257374
 21
459.709491
 31
0.0
  0
LINE
  5
337
330
32F
100
AcDbEntity
  8
LC-002-100-D00-0
 62
     7
370
    15
100
AcDbLine
 10
721.257374
 20
459.709491
 30
0.0
 11
721.719728
 21
459.726365
 31
0.0
  0
ENDBLK
  5
331
330
32F
100
AcDbEntity
  8
0
100
AcDbBlockEnd
  0
BLOCK
  5
33A
330
339
100
AcDbEntity
  8
0
100
AcDbBlockBegin
  2
KLON12
 70
     0
 71
     0
 10
0.0
 20
0.0
 30
0.0
  3
KLON12
  1

  4
KLON12
  0
LINE
  5
33C
330
339
100
AcDbEntity
  8
LC-002-100-D00-0
 62
     7
370
    15
100
AcDbLine
 10
46.812043
 20
459.394529
 30
0.0
 11
44.255719
 21
459.487825
 31
0.0
  0
LINE
  5
33D
330
339
100
AcDbEntity
  8
LC-002-100-D00-0
 62
     7
370
    15
100
AcDbLine
 10
44.255719
 20
459.487825
 30
0.0
 11
42.109922
 21
459.566138
 31
0.0
  0
LINE
  5
33E
330
339
100
AcDbEntity
  8
LC-002-100-D00-0
 62
     7
370
    15
100
AcDbLine
 10
42.109922
 20
459.566138
 30
0.0
 11
40.379778
 21
459.629282
 31
0.0
  0
LINE
  5
33F
330
339
100
AcDbEntity
  8
LC-002-100-D00-0
 62
     7
370
    15
100
AcDbLine
 10
40.379778
 20
459.629282
 30
0.0
 11
39.06946
 21
459.677104
 31
0.0
  0
LINE
  5
340
330
339
100
AcDbEntity
  8
LC-002-100-D00-0
 62
     7
370
    15
100
AcDbLine
 10
39.06946
 20
459.677104
 30
0.0
 11
38.182066
 21
459.709491
 31
0.0
  0
LINE
  5
341
330
339
100
AcDbEntity
  8
LC-002-100-D00-0
 62
     7
370
    15
100
AcDbLine
 10
38.182066
 20
459.709491
 30
0.0
 11
37.719712
 21
459.726365
 31
0.0
  0
ENDBLK
  5
33B
330
339
100
AcDbEntity
  8
0
100
AcDbBlockEnd
  0
BLOCK
  5
34E
330
34D
100
AcDbEntity
  8
0
100
AcDbBlockBegin
  2
KLON13
 70
     0
 71
     0
 10
0.0
 20
0.0
 30
0.0
  3
KLON13
  1

  4
KLON13
  0
LINE
  5
350
330
34D
100
AcDbEntity
  8
LC-002-100-D00-0
 62
     7
370
    15
100
AcDbLine
 10
721.692369
 20
461.226364
 30
0.0
 11
721.691654
 21
461.264345
 31
0.0
  0
LINE
  5
351
330
34D
100
AcDbEntity
  8
LC-002-100-D00-0
 62
     7
370
    15
100
AcDbLine
 10
721.691654
 20
461.264345
 30
0.0
 11
721.689598
 21
461.377132
 31
0.0
  0
LINE
  5
352
330
34D
100
AcDbEntity
  8
LC-002-100-D00-0
 62
     7
370
    15
100
AcDbLine
 10
721.689598
 20
461.377132
 30
0.0
 11
721.68626
 21
461.561301
 31
0.0
  0
LINE
  5
353
330
34D
100
AcDbEntity
  8
LC-002-100-D00-0
 62
     7
370
    15
100
AcDbLine
 10
721.68626
 20
461.561301
 30
0.0
 11
721.6817
 21
461.811253
 31
0.0
  0
LINE
  5
354
330
34D
100
AcDbEntity
  8
LC-002-100-D00-0
 62
     7
370
    15
100
AcDbLine
 10
721.6817
 20
461.811253
 30
0.0
 11
721.676067
 21
462.119396
 31
0.0
  0
LINE
  5
355
330
34D
100
AcDbEntity
  8
LC-002-100-D00-0
 62
     7
370
    15
100
AcDbLine
 10
721.676067
 20
462.119396
 30
0.0
 11
721.669541
 21
462.476365
 31
0.0
  0
LINE
  5
356
330
34D
100
AcDbEntity
  8
LC-002-100-D00-0
 62
     7
370
    15
100
AcDbLine
 10
721.669541
 20
462.476365
 30
0.0
 11
721.662358
 21
462.871315
 31
0.0
  0
LINE
  5
357
330
34D
100
AcDbEntity
  8
LC-002-100-D00-0
 62
     7
370
    15
100
AcDbLine
 10
721.662358
 20
462.871315
 30
0.0
 11
721.654669
 21
463.292244
 31
0.0
  0
LINE
  5
358
330
34D
100
AcDbEntity
  8
LC-002-100-D00-0
 62
     7
370
    15
100
AcDbLine
 10
721.654669
 20
463.292244
 30
0.0
 11
721.646742
 21
463.726366
 31
0.0
  0
ENDBLK
  5
34F
330
34D
100
AcDbEntity
  8
0
100
AcDbBlockEnd
  0
BLOCK
  5
35B
330
35A
100
AcDbEntity
  8
0
100
AcDbBlockBegin
  2
KLON14
 70
     0
 71
     0
 10
0.0
 20
0.0
 30
0.0
  3
KLON14
  1

  4
KLON14
  0
LINE
  5
35D
330
35A
100
AcDbEntity
  8
LC-002-100-D00-0
 62
     7
370
    15
100
AcDbLine
 10
37.747071
 20
461.226364
 30
0.0
 11
37.747786
 21
461.264345
 31
0.0
  0
LINE
  5
35E
330
35A
100
AcDbEntity
  8
LC-002-100-D00-0
 62
     7
370
    15
100
AcDbLine
 10
37.747786
 20
461.264345
 30
0.0
 11
37.749843
 21
461.377132
 31
0.0
  0
LINE
  5
35F
330
35A
100
AcDbEntity
  8
LC-002-100-D00-0
 62
     7
370
    15
100
AcDbLine
 10
37.749843
 20
461.377132
 30
0.0
 11
37.75318
 21
461.561301
 31
0.0
  0
LINE
  5
360
330
35A
100
AcDbEntity
  8
LC-002-100-D00-0
 62
     7
370
    15
100
AcDbLine
 10
37.75318
 20
461.561301
 30
0.0
 11
37.75774
 21
461.811253
 31
0.0
  0
LINE
  5
361
330
35A
100
AcDbEntity
  8
LC-002-100-D00-0
 62
     7
370
    15
100
AcDbLine
 10
37.75774
 20
461.811253
 30
0.0
 11
37.763373
 21
462.119396
 31
0.0
  0
LINE
  5
362
330
35A
100
AcDbEntity
  8
LC-002-100-D00-0
 62
     7
370
    15
100
AcDbLine
 10
37.763373
 20
462.119396
 30
0.0
 11
37.7699
 21
462.476365
 31
0.0
  0
LINE
  5
363
330
35A
100
AcDbEntity
  8
LC-002-100-D00-0
 62
     7
370
    15
100
AcDbLine
 10
37.7699
 20
462.476365
 30
0.0
 11
37.777082
 21
462.871315
 31
0.0
  0
LINE
  5
364
330
35A
100
AcDbEntity
  8
LC-002-100-D00-0
 62
     7
370
    15
100
AcDbLine
 10
37.777082
 20
462.871315
 30
0.0
 11
37.784771
 21
463.292244
 31
0.0
  0
LINE
  5
365
330
35A
100
AcDbEntity
  8
LC-002-100-D00-0
 62
     7
370
    15
100
AcDbLine
 10
37.784771
 20
463.292244
 30
0.0
 11
37.792698
 21
463.726366
 31
0.0
  0
ENDBLK
  5
35C
330
35A
100
AcDbEntity
  8
0
100
AcDbBlockEnd
  0
BLOCK
  5
384
330
378
100
AcDbEntity
  8
0
100
AcDbBlockBegin
  2
*D18
 70
     1
 71
     0
 10
0.0
 20
0.0
 30
0.0
  3
*D18
  1

  0
LINE
  5
379
330
378
100
AcDbEntity
  8
LC-002-100-D00-0
 62
     2
370
    -2
100
AcDbLine
 10
-20.28028
 20
481.726365
 30
0.0
 11
-68.056064
 21
481.726365
 31
0.0
  0
LINE
  5
37A
330
378
100
AcDbEntity
  8
LC-002-100-D00-0
 62
     2
370
    -2
100
AcDbLine
 10
-15.28028
 20
527.726365
 30
0.0
 11
-68.056064
 21
527.726365
 31
0.0
  0
LINE
  5
37B
330
378
100
AcDbEntity
  8
LC-002-100-D00-0
 62
     2
370
    -2
100
AcDbLine
 10
-59.056064
 20
431.726365
 30
0.0
 11
-59.056064
 21
381.726365
 31
0.0
  0
LINE
  5
37C
330
378
100
AcDbEntity
  8
LC-002-100-D00-0
 62
     2
370
    -2
100
AcDbLine
 10
-59.056064
 20
577.726365
 30
0.0
 11
-59.056064
 21
627.726365
 31
0.0
  0
LINE
  5
37D
330
378
100
AcDbEntity
  8
LC-002-100-D00-0
 62
     2
370
    -2
100
AcDbLine
 10
-59.056064
 20
481.726365
 30
0.0
 11
-59.056064
 21
527.726365
 31
0.0
  0
SOLID
  5
37E
330
378
100
AcDbEntity
  8
LC-002-100-D00-0
 62
     2
100
AcDbTrace
 10
-50.722731
 20
431.726365
 30
0.0
 11
-67.389397
 21
431.726365
 31
0.0
 12
-59.056064
 22
481.726365
 32
0.0
 13
-59.056064
 23
481.726365
 33
0.0
  0
SOLID
  5
37F
330
378
100
AcDbEntity
  8
LC-002-100-D00-0
 62
     2
100
AcDbTrace
 10
-67.389397
 20
577.726365
 30
0.0
 11
-50.722731
 21
577.726365
 31
0.0
 12
-59.056064
 22
527.726365
 32
0.0
 13
-59.056064
 23
527.726365
 33
0.0
  0
MTEXT
  5
380
330
378
100
AcDbEntity
  8
LC-002-100-D00-0
 62
     2
100
AcDbMText
 10
-114.056064
 20
505.754511
 30
0.0
 40
50.0
 41
0.0
 71
     5
 72
     1
  1
\A1;46
  7
LCTX15-400-0-0pDIN-Schrift
 11
6.123031769111886E-17
 21
1.0
 31
0.0
 73
     1
 44
1.0
  0
POINT
  5
381
330
378
100
AcDbEntity
  8
Defpoints
 62
     0
100
AcDbPoint
 10
-20.28028
 20
481.726365
 30
0.0
  0
POINT
  5
382
330
378
100
AcDbEntity
  8
Defpoints
 62
     0
100
AcDbPoint
 10
-15.28028
 20
527.726365
 30
0.0
  0
POINT
  5
383
330
378
100
AcDbEntity
  8
Defpoints
 62
     0
100
AcDbPoint
 10
-59.056064
 20
527.726365
 30
0.0
  0
ENDBLK
  5
385
330
378
100
AcDbEntity
  8
0
100
AcDbBlockEnd
  0
BLOCK
  5
391
330
387
100
AcDbEntity
  8
0
100
AcDbBlockBegin
  2
*D19
 70
     1
 71
     0
 10
0.0
 20
0.0
 30
0.0
  3
*D19
  1

  0
LINE
  5
388
330
387
100
AcDbEntity
  8
LC-002-100-D00-0
 62
     2
370
    -2
100
AcDbLine
 10
-20.28028
 20
522.726365
 30
0.0
 11
-20.28028
 21
646.294875
 31
0.0
  0
LINE
  5
389
330
387
100
AcDbEntity
  8
LC-002-100-D00-0
 62
     2
370
    -2
100
AcDbLine
 10
779.71972
 20
522.726365
 30
0.0
 11
779.71972
 21
646.294875
 31
0.0
  0
LINE
  5
38A
330
387
100
AcDbEntity
  8
LC-002-100-D00-0
 62
     2
370
    -2
100
AcDbLine
 10
29.71972
 20
637.294875
 30
0.0
 11
729.71972
 21
637.294875
 31
0.0
  0
SOLID
  5
38B
330
387
100
AcDbEntity
  8
LC-002-100-D00-0
 62
     2
100
AcDbTrace
 10
29.71972
 20
645.628208
 30
0.0
 11
29.71972
 21
628.961542
 31
0.0
 12
-20.28028
 22
637.294875
 32
0.0
 13
-20.28028
 23
637.294875
 33
0.0
  0
SOLID
  5
38C
330
387
100
AcDbEntity
  8
LC-002-100-D00-0
 62
     2
100
AcDbTrace
 10
729.71972
 20
628.961542
 30
0.0
 11
729.71972
 21
645.628208
 31
0.0
 12
779.71972
 22
637.294875
 32
0.0
 13
779.71972
 23
637.294875
 33
0.0
  0
MTEXT
  5
38D
330
387
100
AcDbEntity
  8
LC-002-100-D00-0
 62
     2
100
AcDbMText
 10
382.041631
 20
692.294875
 30
0.0
 40
50.0
 41
0.0
 71
     5
 72
     1
  1
\A1;800
  7
LCTX15-400-0-0pDIN-Schrift
 73
     1
 44
1.0
  0
POINT
  5
38E
330
387
100
AcDbEntity
  8
Defpoints
 62
     0
100
AcDbPoint
 10
-20.28028
 20
522.726365
 30
0.0
  0
POINT
  5
38F
330
387
100
AcDbEntity
  8
Defpoints
 62
     0
100
AcDbPoint
 10
779.71972
 20
522.726365
 30
0.0
  0
POINT
  5
390
330
387
100
AcDbEntity
  8
Defpoints
 62
     0
100
AcDbPoint
 10
779.71972
 20
637.294875
 30
0.0
  0
ENDBLK
  5
392
330
387
100
AcDbEntity
  8
0
100
AcDbBlockEnd
  0
BLOCK
  5
39E
330
394
100
AcDbEntity
  8
0
100
AcDbBlockBegin
  2
*D20
 70
     1
 71
     0
 10
0.0
 20
0.0
 30
0.0
  3
*D20
  1

  0
LINE
  5
395
330
394
100
AcDbEntity
  8
LC-002-100-D00-0
 62
     2
370
    -2
100
AcDbLine
 10
29.71972
 20
478.726365
 30
0.0
 11
29.71972
 21
565.490544
 31
0.0
  0
LINE
  5
396
330
394
100
AcDbEntity
  8
LC-002-100-D00-0
 62
     2
370
    -2
100
AcDbLine
 10
729.71972
 20
478.726365
 30
0.0
 11
729.71972
 21
565.490544
 31
0.0
  0
LINE
  5
397
330
394
100
AcDbEntity
  8
LC-002-100-D00-0
 62
     2
370
    -2
100
AcDbLine
 10
79.71972
 20
556.490544
 30
0.0
 11
679.71972
 21
556.490544
 31
0.0
  0
SOLID
  5
398
330
394
100
AcDbEntity
  8
LC-002-100-D00-0
 62
     2
100
AcDbTrace
 10
79.71972
 20
564.823878
 30
0.0
 11
79.71972
 21
548.157211
 31
0.0
 12
29.71972
 22
556.490544
 32
0.0
 13
29.71972
 23
556.490544
 33
0.0
  0
SOLID
  5
399
330
394
100
AcDbEntity
  8
LC-002-100-D00-0
 62
     2
100
AcDbTrace
 10
679.71972
 20
548.157211
 30
0.0
 11
679.71972
 21
564.823878
 31
0.0
 12
729.71972
 22
556.490544
 32
0.0
 13
729.71972
 23
556.490544
 33
0.0
  0
MTEXT
  5
39A
330
394
100
AcDbEntity
  8
LC-002-100-D00-0
 62
     2
100
AcDbMText
 10
374.219642
 20
611.490544
 30
0.0
 40
50.0
 41
0.0
 71
     5
 72
     1
  1
\A1;700
  7
LCTX15-400-0-0pDIN-Schrift
 73
     1
 44
1.0
  0
POINT
  5
39B
330
394
100
AcDbEntity
  8
Defpoints
 62
     0
100
AcDbPoint
 10
29.71972
 20
478.726365
 30
0.0
  0
POINT
  5
39C
330
394
100
AcDbEntity
  8
Defpoints
 62
     0
100
AcDbPoint
 10
729.71972
 20
478.726365
 30
0.0
  0
POINT
  5
39D
330
394
100
AcDbEntity
  8
Defpoints
 62
     0
100
AcDbPoint
 10
729.71972
 20
556.490544
 30
0.0
  0
ENDBLK
  5
39F
330
394
100
AcDbEntity
  8
0
100
AcDbBlockEnd
  0
BLOCK
  5
3A1
330
3A0
100
AcDbEntity
  8
0
100
AcDbBlockBegin
  2
KLON15
 70
     0
 71
     0
 10
0.0
 20
0.0
 30
0.0
  3
KLON15
  1

  4
KLON15
  0
LINE
  5
3A3
330
3A0
100
AcDbEntity
  8
LC-002-100-D00-0
 62
     7
370
    25
100
AcDbLine
 10
765.415376
 20
480.226365
 30
0.0
 11
766.915376
 21
481.726365
 31
0.0
  0
LINE
  5
3A4
330
3A0
100
AcDbEntity
  8
LC-002-100-D00-0
 62
     7
370
    25
100
AcDbLine
 10
722.496553
 20
459.75818
 30
0.0
 11
724.442249
 21
461.703876
 31
0.0
  0
LINE
  5
3A5
330
3A0
100
AcDbEntity
  8
LC-002-100-D00-0
 62
     7
370
    25
100
AcDbLine
 10
729.242209
 20
466.503836
 30
0.0
 11
731.187905
 21
468.449533
 31
0.0
  0
LINE
  5
3A6
330
3A0
100
AcDbEntity
  8
LC-002-100-D00-0
 62
     7
370
    25
100
AcDbLine
 10
742.964736
 20
480.226365
 30
0.0
 11
744.464736
 21
481.726365
 31
0.0
  0
LINE
  5
3A7
330
3A0
100
AcDbEntity
  8
LC-002-100-D00-0
 62
     7
370
    25
100
AcDbLine
 10
700.014098
 20
459.726365
 30
0.0
 11
703.301346
 21
463.013613
 31
0.0
  0
LINE
  5
3A8
330
3A0
100
AcDbEntity
  8
LC-002-100-D00-0
 62
     7
370
    25
100
AcDbLine
 10
677.563459
 20
459.726365
 30
0.0
 11
679.063459
 21
461.226365
 31
0.0
  0
LINE
  5
3A9
330
3A0
100
AcDbEntity
  8
LC-002-100-D00-0
 62
     7
370
    25
100
AcDbLine
 10
695.71972
 20
477.882627
 30
0.0
 11
699.063457
 21
481.226365
 31
0.0
  0
LINE
  5
3AA
330
3A0
100
AcDbEntity
  8
LC-002-100-D00-0
 62
     7
370
    25
100
AcDbLine
 10
655.112819
 20
459.726365
 30
0.0
 11
656.612819
 21
461.226365
 31
0.0
  0
LINE
  5
3AB
330
3A0
100
AcDbEntity
  8
LC-002-100-D00-0
 62
     7
370
    25
100
AcDbLine
 10
632.66218
 20
459.726365
 30
0.0
 11
634.16218
 21
461.226365
 31
0.0
  0
LINE
  5
3AC
330
3A0
100
AcDbEntity
  8
LC-002-100-D00-0
 62
     7
370
    25
100
AcDbLine
 10
610.21154
 20
459.726365
 30
0.0
 11
611.71154
 21
461.226365
 31
0.0
  0
LINE
  5
3AD
330
3A0
100
AcDbEntity
  8
LC-002-100-D00-0
 62
     7
370
    25
100
AcDbLine
 10
587.760901
 20
459.726365
 30
0.0
 11
593.71972
 21
465.685184
 31
0.0
  0
LINE
  5
3AE
330
3A0
100
AcDbEntity
  8
LC-002-100-D00-0
 62
     7
370
    25
100
AcDbLine
 10
565.310261
 20
459.726365
 30
0.0
 11
566.810261
 21
461.226365
 31
0.0
  0
LINE
  5
3AF
330
3A0
100
AcDbEntity
  8
LC-002-100-D00-0
 62
     7
370
    25
100
AcDbLine
 10
585.71972
 20
480.135825
 30
0.0
 11
586.81026
 21
481.226365
 31
0.0
  0
LINE
  5
3B0
330
3A0
100
AcDbEntity
  8
LC-002-100-D00-0
 62
     7
370
    25
100
AcDbLine
 10
542.859622
 20
459.726365
 30
0.0
 11
544.359622
 21
461.226365
 31
0.0
  0
LINE
  5
3B1
330
3A0
100
AcDbEntity
  8
LC-002-100-D00-0
 62
     7
370
    25
100
AcDbLine
 10
520.408982
 20
459.726365
 30
0.0
 11
521.908982
 21
461.226365
 31
0.0
  0
LINE
  5
3B2
330
3A0
100
AcDbEntity
  8
LC-002-100-D00-0
 62
     7
370
    25
100
AcDbLine
 10
497.958343
 20
459.726365
 30
0.0
 11
499.458343
 21
461.226365
 31
0.0
  0
LINE
  5
3B3
330
3A0
100
AcDbEntity
  8
LC-002-100-D00-0
 62
     7
370
    25
100
AcDbLine
 10
475.507703
 20
459.726365
 30
0.0
 11
483.71972
 21
467.938382
 31
0.0
  0
LINE
  5
3B4
330
3A0
100
AcDbEntity
  8
LC-002-100-D00-0
 62
     7
370
    25
100
AcDbLine
 10
448.057064
 20
454.726365
 30
0.0
 11
449.557064
 21
456.226365
 31
0.0
  0
ENDBLK
  5
3A2
330
3A0
100
AcDbEntity
  8
0
100
AcDbBlockEnd
  0
BLOCK
  5
3B7
330
3B6
100
AcDbEntity
  8
0
100
AcDbBlockBegin
  2
KLON16
 70
     0
 71
     0
 10
0.0
 20
0.0
 30
0.0
  3
KLON16
  1

  4
KLON16
  0
LINE
  5
3B9
330
3B6
100
AcDbEntity
  8
LC-002-100-D00-0
 62
     7
370
    25
100
AcDbLine
 10
313.353227
 20
454.726365
 30
0.0
 11
314.853227
 21
456.226365
 31
0.0
  0
LINE
  5
3BA
330
3B6
100
AcDbEntity
  8
LC-002-100-D00-0
 62
     7
370
    25
100
AcDbLine
 10
293.822491
 20
457.646268
 30
0.0
 11
295.047236
 21
458.871013
 31
0.0
  0
LINE
  5
3BB
330
3B6
100
AcDbEntity
  8
LC-002-100-D00-0
 62
     7
370
    25
100
AcDbLine
 10
273.451948
 20
459.726365
 30
0.0
 11
274.951948
 21
461.226365
 31
0.0
  0
LINE
  5
3BC
330
3B6
100
AcDbEntity
  8
LC-002-100-D00-0
 62
     7
370
    25
100
AcDbLine
 10
275.21972
 20
461.494137
 30
0.0
 11
283.71972
 21
469.994137
 31
0.0
  0
LINE
  5
3BD
330
3B6
100
AcDbEntity
  8
LC-002-100-D00-0
 62
     7
370
    25
100
AcDbLine
 10
251.001309
 20
459.726365
 30
0.0
 11
252.501309
 21
461.226365
 31
0.0
  0
LINE
  5
3BE
330
3B6
100
AcDbEntity
  8
LC-002-100-D00-0
 62
     7
370
    25
100
AcDbLine
 10
228.550669
 20
459.726365
 30
0.0
 11
230.050669
 21
461.226365
 31
0.0
  0
LINE
  5
3BF
330
3B6
100
AcDbEntity
  8
LC-002-100-D00-0
 62
     7
370
    25
100
AcDbLine
 10
206.10003
 20
459.726365
 30
0.0
 11
207.60003
 21
461.226365
 31
0.0
  0
LINE
  5
3C0
330
3B6
100
AcDbEntity
  8
LC-002-100-D00-0
 62
     7
370
    25
100
AcDbLine
 10
183.64939
 20
459.726365
 30
0.0
 11
185.14939
 21
461.226365
 31
0.0
  0
LINE
  5
3C1
330
3B6
100
AcDbEntity
  8
LC-002-100-D00-0
 62
     7
370
    25
100
AcDbLine
 10
161.198751
 20
459.726365
 30
0.0
 11
162.698751
 21
461.226365
 31
0.0
  0
LINE
  5
3C2
330
3B6
100
AcDbEntity
  8
LC-002-100-D00-0
 62
     7
370
    25
100
AcDbLine
 10
166.355825
 20
464.883439
 30
0.0
 11
173.71972
 21
472.247335
 31
0.0
  0
LINE
  5
3C3
330
3B6
100
AcDbEntity
  8
LC-002-100-D00-0
 62
     7
370
    25
100
AcDbLine
 10
138.748111
 20
459.726365
 30
0.0
 11
140.248111
 21
461.226365
 31
0.0
  0
LINE
  5
3C4
330
3B6
100
AcDbEntity
  8
LC-002-100-D00-0
 62
     7
370
    25
100
AcDbLine
 10
116.297472
 20
459.726365
 30
0.0
 11
117.797472
 21
461.226365
 31
0.0
  0
LINE
  5
3C5
330
3B6
100
AcDbEntity
  8
LC-002-100-D00-0
 62
     7
370
    25
100
AcDbLine
 10
93.846832
 20
459.726365
 30
0.0
 11
95.346832
 21
461.226365
 31
0.0
  0
LINE
  5
3C6
330
3B6
100
AcDbEntity
  8
LC-002-100-D00-0
 62
     7
370
    25
100
AcDbLine
 10
71.396193
 20
459.726365
 30
0.0
 11
72.896193
 21
461.226365
 31
0.0
  0
LINE
  5
3C7
330
3B6
100
AcDbEntity
  8
LC-002-100-D00-0
 62
     7
370
    25
100
AcDbLine
 10
48.945553
 20
459.726365
 30
0.0
 11
50.445553
 21
461.226365
 31
0.0
  0
LINE
  5
3C8
330
3B6
100
AcDbEntity
  8
LC-002-100-D00-0
 62
     7
370
    25
100
AcDbLine
 10
55.71972
 20
466.500532
 30
0.0
 11
63.71972
 21
474.500533
 31
0.0
  0
LINE
  5
3C9
330
3B6
100
AcDbEntity
  8
LC-002-100-D00-0
 62
     7
370
    25
100
AcDbLine
 10
30.195391
 20
463.426842
 30
0.0
 11
31.266587
 21
464.498038
 31
0.0
  0
LINE
  5
3CA
330
3B6
100
AcDbEntity
  8
LC-002-100-D00-0
 62
     7
370
    25
100
AcDbLine
 10
24.544273
 20
480.226365
 30
0.0
 11
26.044273
 21
481.726365
 31
0.0
  0
LINE
  5
3CB
330
3B6
100
AcDbEntity
  8
LC-002-100-D00-0
 62
     7
370
    25
100
AcDbLine
 10
2.093633
 20
480.226365
 30
0.0
 11
3.593633
 21
481.726365
 31
0.0
  0
LINE
  5
3CC
330
3B6
100
AcDbEntity
  8
LC-002-100-D00-0
 62
     7
370
    25
100
AcDbLine
 10
-20.28028
 20
480.303091
 30
0.0
 11
-18.857006
 21
481.726365
 31
0.0
  0
ENDBLK
  5
3B8
330
3B6
100
AcDbEntity
  8
0
100
AcDbBlockEnd
  0
BLOCK
  5
3D0
330
3CF
100
AcDbEntity
  8
0
100
AcDbBlockBegin
  2
KLON17
 70
     0
 71
     0
 10
0.0
 20
0.0
 30
0.0
  3
KLON17
  1

  4
KLON17
  0
LINE
  5
3D2
330
3CF
100
AcDbEntity
  8
LC-002-100-D00-0
 62
     7
370
    25
100
AcDbLine
 10
153.74811
 20
474.726365
 30
0.0
 11
154.46972
 21
475.447975
 31
0.0
  0
LINE
  5
3D3
330
3CF
100
AcDbEntity
  8
LC-002-100-D00-0
 62
     7
370
    25
100
AcDbLine
 10
157.74811
 20
478.726365
 30
0.0
 11
160.74811
 21
481.726365
 31
0.0
  0
ENDBLK
  5
3D1
330
3CF
100
AcDbEntity
  8
0
100
AcDbBlockEnd
  0
BLOCK
  5
3D6
330
3D5
100
AcDbEntity
  8
0
100
AcDbBlockBegin
  2
KLON18
 70
     0
 71
     0
 10
0.0
 20
0.0
 30
0.0
  3
KLON18
  1

  4
KLON18
  0
LINE
  5
3D8
330
3D5
100
AcDbEntity
  8
LC-002-100-D00-0
 62
     7
370
    25
100
AcDbLine
 10
173.61972
 20
472.147335
 30
0.0
 11
179.524141
 21
478.051756
 31
0.0
  0
LINE
  5
3D9
330
3D5
100
AcDbEntity
  8
LC-002-100-D00-0
 62
     7
370
    25
100
AcDbLine
 10
180.144329
 20
478.671944
 30
0.0
 11
183.198749
 21
481.726365
 31
0.0
  0
ENDBLK
  5
3D7
330
3D5
100
AcDbEntity
  8
0
100
AcDbBlockEnd
  0
BLOCK
  5
3DE
330
3DD
100
AcDbEntity
  8
0
100
AcDbBlockBegin
  2
KLON19
 70
     0
 71
     0
 10
0.0
 20
0.0
 30
0.0
  3
KLON19
  1

  4
KLON19
  0
LINE
  5
3E0
330
3DD
100
AcDbEntity
  8
LC-002-100-D00-0
 62
     7
370
    25
100
AcDbLine
 10
594.91972
 20
466.885184
 30
0.0
 11
599.46972
 21
471.435185
 31
0.0
  0
LINE
  5
3E1
330
3DD
100
AcDbEntity
  8
LC-002-100-D00-0
 62
     7
370
    25
100
AcDbLine
 10
604.96972
 20
476.935185
 30
0.0
 11
607.96972
 21
479.935185
 31
0.0
  0
ENDBLK
  5
3DF
330
3DD
100
AcDbEntity
  8
0
100
AcDbBlockEnd
  0
BLOCK
  5
3E6
330
3E5
100
AcDbEntity
  8
0
100
AcDbBlockBegin
  2
KLON20
 70
     0
 71
     0
 10
0.0
 20
0.0
 30
0.0
  3
KLON20
  1

  4
KLON20
  0
LINE
  5
3E8
330
3E5
100
AcDbEntity
  8
LC-002-100-D00-0
 62
     7
370
    25
100
AcDbLine
 10
284.451947
 20
470.726365
 30
0.0
 11
289.46972
 21
475.744138
 31
0.0
  0
LINE
  5
3E9
330
3E5
100
AcDbEntity
  8
LC-002-100-D00-0
 62
     7
370
    25
100
AcDbLine
 10
292.451947
 20
478.726365
 30
0.0
 11
295.451947
 21
481.726365
 31
0.0
  0
ENDBLK
  5
3E7
330
3E5
100
AcDbEntity
  8
0
100
AcDbBlockEnd
  0
BLOCK
  5
3EE
330
3ED
100
AcDbEntity
  8
0
100
AcDbBlockBegin
  2
KLON21
 70
     0
 71
     0
 10
0.0
 20
0.0
 30
0.0
  3
KLON21
  1

  4
KLON21
  0
LINE
  5
3F0
330
3ED
100
AcDbEntity
  8
LC-002-100-D00-0
 62
     7
370
    25
100
AcDbLine
 10
486.070573
 20
470.289235
 30
0.0
 11
489.46972
 21
473.688382
 31
0.0
  0
LINE
  5
3F1
330
3ED
100
AcDbEntity
  8
LC-002-100-D00-0
 62
     7
370
    25
100
AcDbLine
 10
494.507702
 20
478.726365
 30
0.0
 11
497.407018
 21
481.625681
 31
0.0
  0
ENDBLK
  5
3EF
330
3ED
100
AcDbEntity
  8
0
100
AcDbBlockEnd
  0
BLOCK
  5
3F6
330
3F5
100
AcDbEntity
  8
0
100
AcDbBlockBegin
  2
KLON22
 70
     0
 71
     0
 10
0.0
 20
0.0
 30
0.0
  3
KLON22
  1

  4
KLON22
  0
LINE
  5
3F8
330
3F5
100
AcDbEntity
  8
LC-002-100-D00-0
 62
     7
370
    25
100
AcDbLine
 10
705.116519
 20
464.828786
 30
0.0
 11
709.46972
 21
469.181987
 31
0.0
  0
LINE
  5
3F9
330
3F5
100
AcDbEntity
  8
LC-002-100-D00-0
 62
     7
370
    25
100
AcDbLine
 10
715.014097
 20
474.726365
 30
0.0
 11
717.96972
 21
477.681988
 31
0.0
  0
ENDBLK
  5
3F7
330
3F5
100
AcDbEntity
  8
0
100
AcDbBlockEnd
  0
BLOCK
  5
3FC
330
3FB
100
AcDbEntity
  8
0
100
AcDbBlockBegin
  2
KLON23
 70
     0
 71
     0
 10
0.0
 20
0.0
 30
0.0
  3
KLON23
  1

  4
KLON23
  0
LINE
  5
3FE
330
3FB
100
AcDbEntity
  8
LC-002-100-D00-0
 62
     7
370
    50
100
AcDbLine
 10
53.368867
 20
464.149679
 30
0.0
 11
54.168181
 21
464.948993
 31
0.0
  0
LINE
  5
3FF
330
3FB
100
AcDbEntity
  8
LC-002-100-D00-0
 62
     7
370
    50
100
AcDbLine
 10
54.465859
 20
465.24667
 30
0.0
 11
56.31972
 21
467.100532
 31
0.0
  0
ENDBLK
  5
3FD
330
3FB
100
AcDbEntity
  8
0
100
AcDbBlockEnd
  0
BLOCK
  5
402
330
401
100
AcDbEntity
  8
0
100
AcDbBlockBegin
  2
KLON24
 70
     0
 71
     0
 10
0.0
 20
0.0
 30
0.0
  3
KLON24
  1

  4
KLON24
  0
LINE
  5
404
330
401
100
AcDbEntity
  8
LC-002-100-D00-0
 62
     7
370
    25
100
AcDbLine
 10
51.945553
 20
462.726365
 30
0.0
 11
53.368867
 21
464.149679
 31
0.0
  0
LINE
  5
405
330
401
100
AcDbEntity
  8
LC-002-100-D00-0
 62
     7
370
    25
100
AcDbLine
 10
53.945553
 20
464.726365
 30
0.0
 11
54.51972
 21
465.300532
 31
0.0
  0
LINE
  5
406
330
401
100
AcDbEntity
  8
LC-002-100-D00-0
 62
     7
370
    25
100
AcDbLine
 10
41.494913
 20
474.726365
 30
0.0
 11
44.46972
 21
477.701172
 31
0.0
  0
LINE
  5
407
330
401
100
AcDbEntity
  8
LC-002-100-D00-0
 62
     7
370
    25
100
AcDbLine
 10
45.494912
 20
478.726365
 30
0.0
 11
48.494912
 21
481.726365
 31
0.0
  0
ENDBLK
  5
403
330
401
100
AcDbEntity
  8
0
100
AcDbBlockEnd
  0
BLOCK
  5
47D
330
47C
100
AcDbEntity
  8
0
100
AcDbBlockBegin
  2
KLON25
 70
     0
 71
     0
 10
0.0
 20
0.0
 30
0.0
  3
KLON25
  1

  4
KLON25
  0
LINE
  5
47F
330
47C
100
AcDbEntity
  8
LC-002-100-D00-0
 62
     7
370
    25
100
AcDbLine
 10
444.683704
 20
413.834108
 30
0.0
 11
453.111977
 21
422.262381
 31
0.0
  0
LINE
  5
480
330
47C
100
AcDbEntity
  8
LC-002-100-D00-0
 62
     7
370
    25
100
AcDbLine
 10
422.12532
 20
413.726365
 30
0.0
 11
425.12532
 21
416.726365
 31
0.0
  0
LINE
  5
481
330
47C
100
AcDbEntity
  8
LC-002-100-D00-0
 62
     7
370
    25
100
AcDbLine
 10
450.21972
 20
441.820764
 30
0.0
 11
453.21972
 21
444.820764
 31
0.0
  0
LINE
  5
482
330
47C
100
AcDbEntity
  8
LC-002-100-D00-0
 62
     7
370
    25
100
AcDbLine
 10
399.67468
 20
413.726365
 30
0.0
 11
402.67468
 21
416.726365
 31
0.0
  0
LINE
  5
483
330
47C
100
AcDbEntity
  8
LC-002-100-D00-0
 62
     7
370
    25
100
AcDbLine
 10
377.22404
 20
413.726365
 30
0.0
 11
380.22404
 21
416.726365
 31
0.0
  0
LINE
  5
484
330
47C
100
AcDbEntity
  8
LC-002-100-D00-0
 62
     7
370
    25
100
AcDbLine
 10
354.7734
 20
413.726365
 30
0.0
 11
357.7734
 21
416.726365
 31
0.0
  0
LINE
  5
485
330
47C
100
AcDbEntity
  8
LC-002-100-D00-0
 62
     7
370
    25
100
AcDbLine
 10
332.322759
 20
413.726365
 30
0.0
 11
335.322759
 21
416.726365
 31
0.0
  0
LINE
  5
486
330
47C
100
AcDbEntity
  8
LC-002-100-D00-0
 62
     7
370
    25
100
AcDbLine
 10
311.214741
 20
415.068987
 30
0.0
 11
313.445377
 21
417.299622
 31
0.0
  0
LINE
  5
487
330
47C
100
AcDbEntity
  8
LC-002-100-D00-0
 62
     7
370
    25
100
AcDbLine
 10
306.21972
 20
432.524606
 30
0.0
 11
309.21972
 21
435.524606
 31
0.0
  0
ENDBLK
  5
47E
330
47C
100
AcDbEntity
  8
0
100
AcDbBlockEnd
  0
BLOCK
  5
48B
330
48A
100
AcDbEntity
  8
0
100
AcDbBlockBegin
  2
KLON26
 70
     0
 71
     0
 10
0.0
 20
0.0
 30
0.0
  3
KLON26
  1

  4
KLON26
  0
LINE
  5
48D
330
48A
100
AcDbEntity
  8
LC-002-100-D00-0
 62
     7
370
    25
100
AcDbLine
 10
433.67468
 20
447.726365
 30
0.0
 11
434.21972
 21
448.271405
 31
0.0
  0
LINE
  5
48E
330
48A
100
AcDbEntity
  8
LC-002-100-D00-0
 62
     7
370
    25
100
AcDbLine
 10
426.010166
 20
462.512491
 30
0.0
 11
427.155342
 21
463.657667
 31
0.0
  0
LINE
  5
48F
330
48A
100
AcDbEntity
  8
LC-002-100-D00-0
 62
     7
370
    25
100
AcDbLine
 10
403.7734
 20
462.726365
 30
0.0
 11
405.2734
 21
464.226365
 31
0.0
  0
LINE
  5
490
330
48A
100
AcDbEntity
  8
LC-002-100-D00-0
 62
     7
370
    25
100
AcDbLine
 10
381.322759
 20
462.726365
 30
0.0
 11
382.822759
 21
464.226365
 31
0.0
  0
LINE
  5
491
330
48A
100
AcDbEntity
  8
LC-002-100-D00-0
 62
     7
370
    25
100
AcDbLine
 10
358.872119
 20
462.726365
 30
0.0
 11
360.372119
 21
464.226365
 31
0.0
  0
LINE
  5
492
330
48A
100
AcDbEntity
  8
LC-002-100-D00-0
 62
     7
370
    25
100
AcDbLine
 10
326.421479
 20
452.726365
 30
0.0
 11
327.921479
 21
454.226365
 31
0.0
  0
LINE
  5
493
330
48A
100
AcDbEntity
  8
LC-002-100-D00-0
 62
     7
370
    25
100
AcDbLine
 10
329.21972
 20
455.524606
 30
0.0
 11
330.71972
 21
457.024606
 31
0.0
  0
LINE
  5
494
330
48A
100
AcDbEntity
  8
LC-002-100-D00-0
 62
     7
370
    25
100
AcDbLine
 10
336.421479
 20
462.726365
 30
0.0
 11
337.921479
 21
464.226365
 31
0.0
  0
ENDBLK
  5
48C
330
48A
100
AcDbEntity
  8
0
100
AcDbBlockEnd
  0
BLOCK
  5
4A1
330
497
100
AcDbEntity
  8
0
100
AcDbBlockBegin
  2
*D33
 70
     1
 71
     0
 10
0.0
 20
0.0
 30
0.0
  3
*D33
  1

  0
LINE
  5
498
330
497
100
AcDbEntity
  8
LC-002-100-D00-0
 62
     2
370
    -2
100
AcDbLine
 10
306.21972
 20
423.726365
 30
0.0
 11
306.21972
 21
314.504875
 31
0.0
  0
LINE
  5
499
330
497
100
AcDbEntity
  8
LC-002-100-D00-0
 62
     2
370
    -2
100
AcDbLine
 10
453.21972
 20
423.726365
 30
0.0
 11
453.21972
 21
314.504875
 31
0.0
  0
LINE
  5
49A
330
497
100
AcDbEntity
  8
LC-002-100-D00-0
 62
     2
370
    -2
100
AcDbLine
 10
356.21972
 20
323.504875
 30
0.0
 11
403.21972
 21
323.504875
 31
0.0
  0
SOLID
  5
49B
330
497
100
AcDbEntity
  8
LC-002-100-D00-0
 62
     2
100
AcDbTrace
 10
356.21972
 20
331.838208
 30
0.0
 11
356.21972
 21
315.171542
 31
0.0
 12
306.21972
 22
323.504875
 32
0.0
 13
306.21972
 23
323.504875
 33
0.0
  0
SOLID
  5
49C
330
497
100
AcDbEntity
  8
LC-002-100-D00-0
 62
     2
100
AcDbTrace
 10
403.21972
 20
315.171542
 30
0.0
 11
403.21972
 21
331.838208
 31
0.0
 12
453.21972
 22
323.504875
 32
0.0
 13
453.21972
 23
323.504875
 33
0.0
  0
MTEXT
  5
49D
330
497
100
AcDbEntity
  8
LC-002-100-D00-0
 62
     2
100
AcDbMText
 10
366.87844
 20
378.504875
 30
0.0
 40
50.0
 41
0.0
 71
     5
 72
     1
  1
\A1;147
  7
LCTX15-400-0-0pDIN-Schrift
 73
     1
 44
1.0
  0
POINT
  5
49E
330
497
100
AcDbEntity
  8
Defpoints
 62
     0
100
AcDbPoint
 10
306.21972
 20
423.726365
 30
0.0
  0
POINT
  5
49F
330
497
100
AcDbEntity
  8
Defpoints
 62
     0
100
AcDbPoint
 10
453.21972
 20
423.726365
 30
0.0
  0
POINT
  5
4A0
330
497
100
AcDbEntity
  8
Defpoints
 62
     0
100
AcDbPoint
 10
453.21972
 20
323.504875
 30
0.0
  0
ENDBLK
  5
4A2
330
497
100
AcDbEntity
  8
0
100
AcDbBlockEnd
  0
BLOCK
  5
4A5
330
4A4
100
AcDbEntity
  8
0
100
AcDbBlockBegin
  2
KLON27
 70
     0
 71
     0
 10
0.0
 20
0.0
 30
0.0
  3
KLON27
  1

  4
KLON27
  0
LINE
  5
4A7
330
4A4
100
AcDbEntity
  8
LC-002-100-D00-0
 62
     7
370
    15
100
AcDbLine
 10
410.219714
 20
152.973832
 30
0.0
 11
413.20457
 21
152.793282
 31
0.0
  0
LINE
  5
4A8
330
4A4
100
AcDbEntity
  8
LC-002-100-D00-0
 62
     7
370
    15
100
AcDbLine
 10
413.20457
 20
152.793282
 30
0.0
 11
415.907439
 21
152.311786
 31
0.0
  0
ENDBLK
  5
4A6
330
4A4
100
AcDbEntity
  8
0
100
AcDbBlockEnd
  0
BLOCK
  5
4AE
330
4AD
100
AcDbEntity
  8
0
100
AcDbBlockBegin
  2
KLON28
 70
     0
 71
     0
 10
0.0
 20
0.0
 30
0.0
  3
KLON28
  1

  4
KLON28
  0
LINE
  5
4B0
330
4AD
100
AcDbEntity
  8
LC-002-100-D00-0
 62
     7
370
    15
100
AcDbLine
 10
349.219714
 20
103.447718
 30
0.0
 11
346.234858
 21
103.628268
 31
0.0
  0
LINE
  5
4B1
330
4AD
100
AcDbEntity
  8
LC-002-100-D00-0
 62
     7
370
    15
100
AcDbLine
 10
346.234858
 20
103.628268
 30
0.0
 11
344.670866
 21
103.869104
 31
0.0
  0
ENDBLK
  5
4AF
330
4AD
100
AcDbEntity
  8
0
100
AcDbBlockEnd
  0
BLOCK
  5
4B7
330
4B6
100
AcDbEntity
  8
0
100
AcDbBlockBegin
  2
POLY1
 70
     0
 71
     0
 10
0.0
 20
0.0
 30
0.0
  3
POLY1
  1

  4
POLY1
  0
LINE
  5
4B9
330
4B6
100
AcDbEntity
  8
LC-002-100-D00-0
 62
     7
370
    50
100
AcDbLine
 10
410.219714
 20
103.410774
 30
0.0
 11
410.219714
 21
103.410774
 31
0.0
  0
LINE
  5
4BA
330
4B6
100
AcDbEntity
  8
LC-002-100-D00-0
 62
     7
370
    50
100
AcDbLine
 10
410.219714
 20
103.410774
 30
0.0
 11
411.255438
 21
103.448339
 31
0.0
  0
LINE
  5
4BB
330
4B6
100
AcDbEntity
  8
LC-002-100-D00-0
 62
     7
370
    50
100
AcDbLine
 10
411.255438
 20
103.448339
 30
0.0
 11
411.255438
 21
103.448339
 31
0.0
  0
LINE
  5
4BC
330
4B6
100
AcDbEntity
  8
LC-002-100-D00-0
 62
     7
370
    50
100
AcDbLine
 10
411.255438
 20
103.448339
 30
0.0
 11
413.357119
 21
103.524567
 31
0.0
  0
LINE
  5
4BD
330
4B6
100
AcDbEntity
  8
LC-002-100-D00-0
 62
     7
370
    50
100
AcDbLine
 10
413.357119
 20
103.524567
 30
0.0
 11
413.357119
 21
103.524567
 31
0.0
  0
LINE
  5
4BE
330
4B6
100
AcDbEntity
  8
LC-002-100-D00-0
 62
     7
370
    50
100
AcDbLine
 10
413.357119
 20
103.524567
 30
0.0
 11
416.506989
 21
104.157685
 31
0.0
  0
LINE
  5
4BF
330
4B6
100
AcDbEntity
  8
LC-002-100-D00-0
 62
     7
370
    50
100
AcDbLine
 10
416.506989
 20
104.157685
 30
0.0
 11
416.506989
 21
104.157685
 31
0.0
  0
LINE
  5
4C0
330
4B6
100
AcDbEntity
  8
LC-002-100-D00-0
 62
     7
370
    50
100
AcDbLine
 10
416.506989
 20
104.157685
 30
0.0
 11
419.710609
 21
105.183856
 31
0.0
  0
LINE
  5
4C1
330
4B6
100
AcDbEntity
  8
LC-002-100-D00-0
 62
     7
370
    50
100
AcDbLine
 10
419.710609
 20
105.183856
 30
0.0
 11
419.710609
 21
105.183856
 31
0.0
  0
LINE
  5
4C2
330
4B6
100
AcDbEntity
  8
LC-002-100-D00-0
 62
     7
370
    50
100
AcDbLine
 10
419.710609
 20
105.183856
 30
0.0
 11
421.788923
 21
106.298432
 31
0.0
  0
LINE
  5
4C3
330
4B6
100
AcDbEntity
  8
LC-002-100-D00-0
 62
     7
370
    50
100
AcDbLine
 10
421.788923
 20
106.298432
 30
0.0
 11
421.788923
 21
106.298432
 31
0.0
  0
LINE
  5
4C4
330
4B6
100
AcDbEntity
  8
LC-002-100-D00-0
 62
     7
370
    50
100
AcDbLine
 10
421.788923
 20
106.298432
 30
0.0
 11
422.841263
 21
106.86279
 31
0.0
  0
ENDBLK
  5
4B8
330
4B6
100
AcDbEntity
  8
0
100
AcDbBlockEnd
  0
BLOCK
  5
4C7
330
4C6
100
AcDbEntity
  8
0
100
AcDbBlockBegin
  2
POLY2
 70
     0
 71
     0
 10
0.0
 20
0.0
 30
0.0
  3
POLY2
  1

  4
POLY2
  0
LINE
  5
4C9
330
4C6
100
AcDbEntity
  8
LC-002-100-D00-0
 62
     7
370
    50
100
AcDbLine
 10
349.219714
 20
103.410774
 30
0.0
 11
349.219714
 21
103.410774
 31
0.0
  0
LINE
  5
4CA
330
4C6
100
AcDbEntity
  8
LC-002-100-D00-0
 62
     7
370
    50
100
AcDbLine
 10
349.219714
 20
103.410774
 30
0.0
 11
348.18399
 21
103.448339
 31
0.0
  0
LINE
  5
4CB
330
4C6
100
AcDbEntity
  8
LC-002-100-D00-0
 62
     7
370
    50
100
AcDbLine
 10
348.18399
 20
103.448339
 30
0.0
 11
348.18399
 21
103.448339
 31
0.0
  0
LINE
  5
4CC
330
4C6
100
AcDbEntity
  8
LC-002-100-D00-0
 62
     7
370
    50
100
AcDbLine
 10
348.18399
 20
103.448339
 30
0.0
 11
346.08231
 21
103.524567
 31
0.0
  0
LINE
  5
4CD
330
4C6
100
AcDbEntity
  8
LC-002-100-D00-0
 62
     7
370
    50
100
AcDbLine
 10
346.08231
 20
103.524567
 30
0.0
 11
346.08231
 21
103.524567
 31
0.0
  0
LINE
  5
4CE
330
4C6
100
AcDbEntity
  8
LC-002-100-D00-0
 62
     7
370
    50
100
AcDbLine
 10
346.08231
 20
103.524567
 30
0.0
 11
342.932439
 21
104.157685
 31
0.0
  0
LINE
  5
4CF
330
4C6
100
AcDbEntity
  8
LC-002-100-D00-0
 62
     7
370
    50
100
AcDbLine
 10
342.932439
 20
104.157685
 30
0.0
 11
342.932439
 21
104.157685
 31
0.0
  0
LINE
  5
4D0
330
4C6
100
AcDbEntity
  8
LC-002-100-D00-0
 62
     7
370
    50
100
AcDbLine
 10
342.932439
 20
104.157685
 30
0.0
 11
339.728819
 21
105.183856
 31
0.0
  0
LINE
  5
4D1
330
4C6
100
AcDbEntity
  8
LC-002-100-D00-0
 62
     7
370
    50
100
AcDbLine
 10
339.728819
 20
105.183856
 30
0.0
 11
339.728819
 21
105.183856
 31
0.0
  0
LINE
  5
4D2
330
4C6
100
AcDbEntity
  8
LC-002-100-D00-0
 62
     7
370
    50
100
AcDbLine
 10
339.728819
 20
105.183856
 30
0.0
 11
337.650506
 21
106.298432
 31
0.0
  0
LINE
  5
4D3
330
4C6
100
AcDbEntity
  8
LC-002-100-D00-0
 62
     7
370
    50
100
AcDbLine
 10
337.650506
 20
106.298432
 30
0.0
 11
337.650506
 21
106.298432
 31
0.0
  0
LINE
  5
4D4
330
4C6
100
AcDbEntity
  8
LC-002-100-D00-0
 62
     7
370
    50
100
AcDbLine
 10
337.650506
 20
106.298432
 30
0.0
 11
336.598166
 21
106.86279
 31
0.0
  0
ENDBLK
  5
4C8
330
4C6
100
AcDbEntity
  8
0
100
AcDbBlockEnd
  0
BLOCK
  5
4D7
330
4D6
100
AcDbEntity
  8
0
100
AcDbBlockBegin
  2
POLY3
 70
     0
 71
     0
 10
0.0
 20
0.0
 30
0.0
  3
POLY3
  1

  4
POLY3
  0
LINE
  5
4D9
330
4D6
100
AcDbEntity
  8
LC-002-100-D00-0
 62
     7
370
    50
100
AcDbLine
 10
336.598166
 20
149.558759
 30
0.0
 11
336.598166
 21
149.558759
 31
0.0
  0
LINE
  5
4DA
330
4D6
100
AcDbEntity
  8
LC-002-100-D00-0
 62
     7
370
    50
100
AcDbLine
 10
336.598166
 20
149.558759
 30
0.0
 11
337.510453
 21
150.054367
 31
0.0
  0
LINE
  5
4DB
330
4D6
100
AcDbEntity
  8
LC-002-100-D00-0
 62
     7
370
    50
100
AcDbLine
 10
337.510453
 20
150.054367
 30
0.0
 11
337.510453
 21
150.054367
 31
0.0
  0
LINE
  5
4DC
330
4D6
100
AcDbEntity
  8
LC-002-100-D00-0
 62
     7
370
    50
100
AcDbLine
 10
337.510453
 20
150.054367
 30
0.0
 11
339.361307
 21
151.059859
 31
0.0
  0
LINE
  5
4DD
330
4D6
100
AcDbEntity
  8
LC-002-100-D00-0
 62
     7
370
    50
100
AcDbLine
 10
339.361307
 20
151.059859
 30
0.0
 11
339.361307
 21
151.059859
 31
0.0
  0
LINE
  5
4DE
330
4D6
100
AcDbEntity
  8
LC-002-100-D00-0
 62
     7
370
    50
100
AcDbLine
 10
339.361307
 20
151.059859
 30
0.0
 11
342.398404
 21
152.117874
 31
0.0
  0
LINE
  5
4DF
330
4D6
100
AcDbEntity
  8
LC-002-100-D00-0
 62
     7
370
    50
100
AcDbLine
 10
342.398404
 20
152.117874
 30
0.0
 11
342.398404
 21
152.117874
 31
0.0
  0
LINE
  5
4E0
330
4D6
100
AcDbEntity
  8
LC-002-100-D00-0
 62
     7
370
    50
100
AcDbLine
 10
342.398404
 20
152.117874
 30
0.0
 11
345.674943
 21
152.862994
 31
0.0
  0
LINE
  5
4E1
330
4D6
100
AcDbEntity
  8
LC-002-100-D00-0
 62
     7
370
    50
100
AcDbLine
 10
345.674943
 20
152.862994
 30
0.0
 11
345.674943
 21
152.862994
 31
0.0
  0
LINE
  5
4E2
330
4D6
100
AcDbEntity
  8
LC-002-100-D00-0
 62
     7
370
    50
100
AcDbLine
 10
345.674943
 20
152.862994
 30
0.0
 11
348.028053
 21
152.961095
 31
0.0
  0
LINE
  5
4E3
330
4D6
100
AcDbEntity
  8
LC-002-100-D00-0
 62
     7
370
    50
100
AcDbLine
 10
348.028053
 20
152.961095
 30
0.0
 11
348.028053
 21
152.961095
 31
0.0
  0
LINE
  5
4E4
330
4D6
100
AcDbEntity
  8
LC-002-100-D00-0
 62
     7
370
    50
100
AcDbLine
 10
348.028053
 20
152.961095
 30
0.0
 11
349.219714
 21
153.010775
 31
0.0
  0
ENDBLK
  5
4D8
330
4D6
100
AcDbEntity
  8
0
100
AcDbBlockEnd
  0
BLOCK
  5
4E7
330
4E6
100
AcDbEntity
  8
0
100
AcDbBlockBegin
  2
POLY4
 70
     0
 71
     0
 10
0.0
 20
0.0
 30
0.0
  3
POLY4
  1

  4
POLY4
  0
LINE
  5
4E9
330
4E6
100
AcDbEntity
  8
LC-002-100-D00-0
 62
     7
370
    50
100
AcDbLine
 10
422.841263
 20
149.558759
 30
0.0
 11
422.841263
 21
149.558759
 31
0.0
  0
LINE
  5
4EA
330
4E6
100
AcDbEntity
  8
LC-002-100-D00-0
 62
     7
370
    50
100
AcDbLine
 10
422.841263
 20
149.558759
 30
0.0
 11
421.928975
 21
150.054367
 31
0.0
  0
LINE
  5
4EB
330
4E6
100
AcDbEntity
  8
LC-002-100-D00-0
 62
     7
370
    50
100
AcDbLine
 10
421.928975
 20
150.054367
 30
0.0
 11
421.928975
 21
150.054367
 31
0.0
  0
LINE
  5
4EC
330
4E6
100
AcDbEntity
  8
LC-002-100-D00-0
 62
     7
370
    50
100
AcDbLine
 10
421.928975
 20
150.054367
 30
0.0
 11
420.078121
 21
151.059859
 31
0.0
  0
LINE
  5
4ED
330
4E6
100
AcDbEntity
  8
LC-002-100-D00-0
 62
     7
370
    50
100
AcDbLine
 10
420.078121
 20
151.059859
 30
0.0
 11
420.078121
 21
151.059859
 31
0.0
  0
LINE
  5
4EE
330
4E6
100
AcDbEntity
  8
LC-002-100-D00-0
 62
     7
370
    50
100
AcDbLine
 10
420.078121
 20
151.059859
 30
0.0
 11
417.041024
 21
152.117874
 31
0.0
  0
LINE
  5
4EF
330
4E6
100
AcDbEntity
  8
LC-002-100-D00-0
 62
     7
370
    50
100
AcDbLine
 10
417.041024
 20
152.117874
 30
0.0
 11
417.041024
 21
152.117874
 31
0.0
  0
LINE
  5
4F0
330
4E6
100
AcDbEntity
  8
LC-002-100-D00-0
 62
     7
370
    50
100
AcDbLine
 10
417.041024
 20
152.117874
 30
0.0
 11
413.764485
 21
152.862994
 31
0.0
  0
LINE
  5
4F1
330
4E6
100
AcDbEntity
  8
LC-002-100-D00-0
 62
     7
370
    50
100
AcDbLine
 10
413.764485
 20
152.862994
 30
0.0
 11
413.764485
 21
152.862994
 31
0.0
  0
LINE
  5
4F2
330
4E6
100
AcDbEntity
  8
LC-002-100-D00-0
 62
     7
370
    50
100
AcDbLine
 10
413.764485
 20
152.862994
 30
0.0
 11
411.411375
 21
152.961095
 31
0.0
  0
LINE
  5
4F3
330
4E6
100
AcDbEntity
  8
LC-002-100-D00-0
 62
     7
370
    50
100
AcDbLine
 10
411.411375
 20
152.961095
 30
0.0
 11
411.411375
 21
152.961095
 31
0.0
  0
LINE
  5
4F4
330
4E6
100
AcDbEntity
  8
LC-002-100-D00-0
 62
     7
370
    50
100
AcDbLine
 10
411.411375
 20
152.961095
 30
0.0
 11
410.219714
 21
153.010775
 31
0.0
  0
ENDBLK
  5
4E8
330
4E6
100
AcDbEntity
  8
0
100
AcDbBlockEnd
  0
BLOCK
  5
501
330
500
100
AcDbEntity
  8
0
100
AcDbBlockBegin
  2
POLY5
 70
     0
 71
     0
 10
0.0
 20
0.0
 30
0.0
  3
POLY5
  1

  4
POLY5
  0
LINE
  5
503
330
500
100
AcDbEntity
  8
LC-002-100-D00-0
 62
     7
370
    50
100
AcDbLine
 10
339.670364
 20
105.670813
 30
0.0
 11
339.670364
 21
105.670813
 31
0.0
  0
LINE
  5
504
330
500
100
AcDbEntity
  8
LC-002-100-D00-0
 62
     7
370
    50
100
AcDbLine
 10
339.670364
 20
105.670813
 30
0.0
 11
339.644875
 21
105.626668
 31
0.0
  0
LINE
  5
505
330
500
100
AcDbEntity
  8
LC-002-100-D00-0
 62
     7
370
    50
100
AcDbLine
 10
339.644875
 20
105.626668
 30
0.0
 11
339.644875
 21
105.626668
 31
0.0
  0
LINE
  5
506
330
500
100
AcDbEntity
  8
LC-002-100-D00-0
 62
     7
370
    50
100
AcDbLine
 10
339.644875
 20
105.626668
 30
0.0
 11
339.593892
 21
105.538369
 31
0.0
  0
LINE
  5
507
330
500
100
AcDbEntity
  8
LC-002-100-D00-0
 62
     7
370
    50
100
AcDbLine
 10
339.593892
 20
105.538369
 30
0.0
 11
339.593892
 21
105.538369
 31
0.0
  0
LINE
  5
508
330
500
100
AcDbEntity
  8
LC-002-100-D00-0
 62
     7
370
    50
100
AcDbLine
 10
339.593892
 20
105.538369
 30
0.0
 11
339.53932
 21
105.443836
 31
0.0
  0
LINE
  5
509
330
500
100
AcDbEntity
  8
LC-002-100-D00-0
 62
     7
370
    50
100
AcDbLine
 10
339.53932
 20
105.443836
 30
0.0
 11
339.53932
 21
105.443836
 31
0.0
  0
LINE
  5
50A
330
500
100
AcDbEntity
  8
LC-002-100-D00-0
 62
     7
370
    50
100
AcDbLine
 10
339.53932
 20
105.443836
 30
0.0
 11
339.512247
 21
105.396945
 31
0.0
  0
LINE
  5
50B
330
500
100
AcDbEntity
  8
LC-002-100-D00-0
 62
     7
370
    50
100
AcDbLine
 10
339.512247
 20
105.396945
 30
0.0
 11
339.512247
 21
105.396945
 31
0.0
  0
LINE
  5
50C
330
500
100
AcDbEntity
  8
LC-002-100-D00-0
 62
     7
370
    50
100
AcDbLine
 10
339.512247
 20
105.396945
 30
0.0
 11
339.50975
 21
105.392622
 31
0.0
  0
LINE
  5
50D
330
500
100
AcDbEntity
  8
LC-002-100-D00-0
 62
     7
370
    50
100
AcDbLine
 10
339.50975
 20
105.392622
 30
0.0
 11
339.50975
 21
105.392622
 31
0.0
  0
LINE
  5
50E
330
500
100
AcDbEntity
  8
LC-002-100-D00-0
 62
     7
370
    50
100
AcDbLine
 10
339.50975
 20
105.392622
 30
0.0
 11
339.508851
 21
105.391066
 31
0.0
  0
ENDBLK
  5
502
330
500
100
AcDbEntity
  8
0
100
AcDbBlockEnd
  0
BLOCK
  5
513
330
512
100
AcDbEntity
  8
0
100
AcDbBlockBegin
  2
POLY6
 70
     0
 71
     0
 10
0.0
 20
0.0
 30
0.0
  3
POLY6
  1

  4
POLY6
  0
LINE
  5
515
330
512
100
AcDbEntity
  8
LC-002-100-D00-0
 62
     7
370
    50
100
AcDbLine
 10
419.930578
 20
105.391066
 30
0.0
 11
419.930578
 21
105.391066
 31
0.0
  0
LINE
  5
516
330
512
100
AcDbEntity
  8
LC-002-100-D00-0
 62
     7
370
    50
100
AcDbLine
 10
419.930578
 20
105.391066
 30
0.0
 11
419.927828
 21
105.395828
 31
0.0
  0
LINE
  5
517
330
512
100
AcDbEntity
  8
LC-002-100-D00-0
 62
     7
370
    50
100
AcDbLine
 10
419.927828
 20
105.395828
 30
0.0
 11
419.927828
 21
105.395828
 31
0.0
  0
LINE
  5
518
330
512
100
AcDbEntity
  8
LC-002-100-D00-0
 62
     7
370
    50
100
AcDbLine
 10
419.927828
 20
105.395828
 30
0.0
 11
419.922328
 21
105.405353
 31
0.0
  0
LINE
  5
519
330
512
100
AcDbEntity
  8
LC-002-100-D00-0
 62
     7
370
    50
100
AcDbLine
 10
419.922328
 20
105.405353
 30
0.0
 11
419.922328
 21
105.405353
 31
0.0
  0
LINE
  5
51A
330
512
100
AcDbEntity
  8
LC-002-100-D00-0
 62
     7
370
    50
100
AcDbLine
 10
419.922328
 20
105.405353
 30
0.0
 11
419.879317
 21
105.479854
 31
0.0
  0
LINE
  5
51B
330
512
100
AcDbEntity
  8
LC-002-100-D00-0
 62
     7
370
    50
100
AcDbLine
 10
419.879317
 20
105.479854
 30
0.0
 11
419.879317
 21
105.479854
 31
0.0
  0
LINE
  5
51C
330
512
100
AcDbEntity
  8
LC-002-100-D00-0
 62
     7
370
    50
100
AcDbLine
 10
419.879317
 20
105.479854
 30
0.0
 11
419.825
 21
105.573927
 31
0.0
  0
LINE
  5
51D
330
512
100
AcDbEntity
  8
LC-002-100-D00-0
 62
     7
370
    50
100
AcDbLine
 10
419.825
 20
105.573927
 30
0.0
 11
419.825
 21
105.573927
 31
0.0
  0
LINE
  5
51E
330
512
100
AcDbEntity
  8
LC-002-100-D00-0
 62
     7
370
    50
100
AcDbLine
 10
419.825
 20
105.573927
 30
0.0
 11
419.78426
 21
105.644492
 31
0.0
  0
LINE
  5
51F
330
512
100
AcDbEntity
  8
LC-002-100-D00-0
 62
     7
370
    50
100
AcDbLine
 10
419.78426
 20
105.644492
 30
0.0
 11
419.78426
 21
105.644492
 31
0.0
  0
LINE
  5
520
330
512
100
AcDbEntity
  8
LC-002-100-D00-0
 62
     7
370
    50
100
AcDbLine
 10
419.78426
 20
105.644492
 30
0.0
 11
419.769064
 21
105.670813
 31
0.0
  0
ENDBLK
  5
514
330
512
100
AcDbEntity
  8
0
100
AcDbBlockEnd
  0
BLOCK
  5
548
330
53C
100
AcDbEntity
  8
0
100
AcDbBlockBegin
  2
*D42
 70
     1
 71
     0
 10
0.0
 20
0.0
 30
0.0
  3
*D42
  1

  0
LINE
  5
53D
330
53C
100
AcDbEntity
  8
LC-002-100-D00-0
 62
     2
370
    -2
100
AcDbLine
 10
779.71972
 20
481.726361
 30
0.0
 11
876.371595
 21
481.726361
 31
0.0
  0
LINE
  5
53E
330
53C
100
AcDbEntity
  8
LC-002-100-D00-0
 62
     2
370
    -2
100
AcDbLine
 10
543.21972
 20
413.726361
 30
0.0
 11
876.371595
 21
413.726361
 31
0.0
  0
LINE
  5
53F
330
53C
100
AcDbEntity
  8
LC-002-100-D00-0
 62
     2
370
    -2
100
AcDbLine
 10
867.371595
 20
531.726361
 30
0.0
 11
867.371595
 21
581.726361
 31
0.0
  0
LINE
  5
540
330
53C
100
AcDbEntity
  8
LC-002-100-D00-0
 62
     2
370
    -2
100
AcDbLine
 10
867.371595
 20
363.726361
 30
0.0
 11
867.371595
 21
313.726361
 31
0.0
  0
LINE
  5
541
330
53C
100
AcDbEntity
  8
LC-002-100-D00-0
 62
     2
370
    -2
100
AcDbLine
 10
867.371595
 20
481.726361
 30
0.0
 11
867.371595
 21
413.726361
 31
0.0
  0
SOLID
  5
542
330
53C
100
AcDbEntity
  8
LC-002-100-D00-0
 62
     2
100
AcDbTrace
 10
859.038262
 20
531.726361
 30
0.0
 11
875.704929
 21
531.726361
 31
0.0
 12
867.371595
 22
481.726361
 32
0.0
 13
867.371595
 23
481.726361
 33
0.0
  0
SOLID
  5
543
330
53C
100
AcDbEntity
  8
LC-002-100-D00-0
 62
     2
100
AcDbTrace
 10
875.704929
 20
363.726361
 30
0.0
 11
859.038262
 21
363.726361
 31
0.0
 12
867.371595
 22
413.726361
 32
0.0
 13
867.371595
 23
413.726361
 33
0.0
  0
MTEXT
  5
544
330
53C
100
AcDbEntity
  8
LC-002-100-D00-0
 62
     2
100
AcDbMText
 10
812.371595
 20
467.549875
 30
0.0
 40
50.0
 41
0.0
 71
     5
 72
     1
  1
\A1;68
  7
LCTX15-400-0-0pDIN-Schrift
 11
6.123031769111886E-17
 21
1.0
 31
0.0
 73
     1
 44
1.0
  0
POINT
  5
545
330
53C
100
AcDbEntity
  8
Defpoints
 62
     0
100
AcDbPoint
 10
779.71972
 20
481.726361
 30
0.0
  0
POINT
  5
546
330
53C
100
AcDbEntity
  8
Defpoints
 62
     0
100
AcDbPoint
 10
543.21972
 20
413.726361
 30
0.0
  0
POINT
  5
547
330
53C
100
AcDbEntity
  8
Defpoints
 62
     0
100
AcDbPoint
 10
867.371595
 20
413.726361
 30
0.0
  0
ENDBLK
  5
549
330
53C
100
AcDbEntity
  8
0
100
AcDbBlockEnd
  0
BLOCK
  5
585
330
584
100
AcDbEntity
  8
0
100
AcDbBlockBegin
  2
POLY7
 70
     0
 71
     0
 10
0.0
 20
0.0
 30
0.0
  3
POLY7
  1

  4
POLY7
  0
LINE
  5
587
330
584
100
AcDbEntity
  8
LC-002-100-D00-0
 62
     7
370
    50
100
AcDbLine
 10
-149.004373
 20
457.101557
 30
0.0
 11
-149.004373
 21
457.101557
 31
0.0
  0
LINE
  5
588
330
584
100
AcDbEntity
  8
LC-002-100-D00-0
 62
     7
370
    50
100
AcDbLine
 10
-149.004373
 20
457.101557
 30
0.0
 11
-149.029478
 21
457.06916
 31
0.0
  0
LINE
  5
589
330
584
100
AcDbEntity
  8
LC-002-100-D00-0
 62
     7
370
    50
100
AcDbLine
 10
-149.029478
 20
457.06916
 30
0.0
 11
-149.029478
 21
457.06916
 31
0.0
  0
LINE
  5
58A
330
584
100
AcDbEntity
  8
LC-002-100-D00-0
 62
     7
370
    50
100
AcDbLine
 10
-149.029478
 20
457.06916
 30
0.0
 11
-149.079893
 21
457.004106
 31
0.0
  0
LINE
  5
58B
330
584
100
AcDbEntity
  8
LC-002-100-D00-0
 62
     7
370
    50
100
AcDbLine
 10
-149.079893
 20
457.004106
 30
0.0
 11
-149.079893
 21
457.004106
 31
0.0
  0
LINE
  5
58C
330
584
100
AcDbEntity
  8
LC-002-100-D00-0
 62
     7
370
    50
100
AcDbLine
 10
-149.079893
 20
457.004106
 30
0.0
 11
-149.479582
 21
456.647522
 31
0.0
  0
LINE
  5
58D
330
584
100
AcDbEntity
  8
LC-002-100-D00-0
 62
     7
370
    50
100
AcDbLine
 10
-149.479582
 20
456.647522
 30
0.0
 11
-149.479582
 21
456.647522
 31
0.0
  0
LINE
  5
58E
330
584
100
AcDbEntity
  8
LC-002-100-D00-0
 62
     7
370
    50
100
AcDbLine
 10
-149.479582
 20
456.647522
 30
0.0
 11
-150.059267
 21
456.320751
 31
0.0
  0
LINE
  5
58F
330
584
100
AcDbEntity
  8
LC-002-100-D00-0
 62
     7
370
    50
100
AcDbLine
 10
-150.059267
 20
456.320751
 30
0.0
 11
-150.059267
 21
456.320751
 31
0.0
  0
LINE
  5
590
330
584
100
AcDbEntity
  8
LC-002-100-D00-0
 62
     7
370
    50
100
AcDbLine
 10
-150.059267
 20
456.320751
 30
0.0
 11
-150.622083
 21
456.257893
 31
0.0
  0
LINE
  5
591
330
584
100
AcDbEntity
  8
LC-002-100-D00-0
 62
     7
370
    50
100
AcDbLine
 10
-150.622083
 20
456.257893
 30
0.0
 11
-150.622083
 21
456.257893
 31
0.0
  0
LINE
  5
592
330
584
100
AcDbEntity
  8
LC-002-100-D00-0
 62
     7
370
    50
100
AcDbLine
 10
-150.622083
 20
456.257893
 30
0.0
 11
-150.904373
 21
456.226365
 31
0.0
  0
ENDBLK
  5
586
330
584
100
AcDbEntity
  8
0
100
AcDbBlockEnd
  0
BLOCK
  5
595
330
594
100
AcDbEntity
  8
0
100
AcDbBlockBegin
  2
POLY8
 70
     0
 71
     0
 10
0.0
 20
0.0
 30
0.0
  3
POLY8
  1

  4
POLY8
  0
LINE
  5
597
330
594
100
AcDbEntity
  8
LC-002-100-D00-0
 62
     7
370
    50
100
AcDbLine
 10
-197.904372
 20
456.226365
 30
0.0
 11
-197.904372
 21
456.226365
 31
0.0
  0
LINE
  5
598
330
594
100
AcDbEntity
  8
LC-002-100-D00-0
 62
     7
370
    50
100
AcDbLine
 10
-197.904372
 20
456.226365
 30
0.0
 11
-198.21587
 21
456.265165
 31
0.0
  0
LINE
  5
599
330
594
100
AcDbEntity
  8
LC-002-100-D00-0
 62
     7
370
    50
100
AcDbLine
 10
-198.21587
 20
456.265165
 30
0.0
 11
-198.21587
 21
456.265165
 31
0.0
  0
LINE
  5
59A
330
594
100
AcDbEntity
  8
LC-002-100-D00-0
 62
     7
370
    50
100
AcDbLine
 10
-198.21587
 20
456.265165
 30
0.0
 11
-198.841844
 21
456.343135
 31
0.0
  0
LINE
  5
59B
330
594
100
AcDbEntity
  8
LC-002-100-D00-0
 62
     7
370
    50
100
AcDbLine
 10
-198.841844
 20
456.343135
 30
0.0
 11
-198.841844
 21
456.343135
 31
0.0
  0
LINE
  5
59C
330
594
100
AcDbEntity
  8
LC-002-100-D00-0
 62
     7
370
    50
100
AcDbLine
 10
-198.841844
 20
456.343135
 30
0.0
 11
-199.397197
 21
456.70098
 31
0.0
  0
LINE
  5
59D
330
594
100
AcDbEntity
  8
LC-002-100-D00-0
 62
     7
370
    50
100
AcDbLine
 10
-199.397197
 20
456.70098
 30
0.0
 11
-199.397197
 21
456.70098
 31
0.0
  0
LINE
  5
59E
330
594
100
AcDbEntity
  8
LC-002-100-D00-0
 62
     7
370
    50
100
AcDbLine
 10
-199.397197
 20
456.70098
 30
0.0
 11
-199.743338
 21
457.02343
 31
0.0
  0
LINE
  5
59F
330
594
100
AcDbEntity
  8
LC-002-100-D00-0
 62
     7
370
    50
100
AcDbLine
 10
-199.743338
 20
457.02343
 30
0.0
 11
-199.743338
 21
457.02343
 31
0.0
  0
LINE
  5
5A0
330
594
100
AcDbEntity
  8
LC-002-100-D00-0
 62
     7
370
    50
100
AcDbLine
 10
-199.743338
 20
457.02343
 30
0.0
 11
-199.783989
 21
457.075465
 31
0.0
  0
LINE
  5
5A1
330
594
100
AcDbEntity
  8
LC-002-100-D00-0
 62
     7
370
    50
100
AcDbLine
 10
-199.783989
 20
457.075465
 30
0.0
 11
-199.783989
 21
457.075465
 31
0.0
  0
LINE
  5
5A2
330
594
100
AcDbEntity
  8
LC-002-100-D00-0
 62
     7
370
    50
100
AcDbLine
 10
-199.783989
 20
457.075465
 30
0.0
 11
-199.804372
 21
457.101557
 31
0.0
  0
ENDBLK
  5
596
330
594
100
AcDbEntity
  8
0
100
AcDbBlockEnd
  0
BLOCK
  5
5A9
330
5A8
100
AcDbEntity
  8
0
100
AcDbBlockBegin
  2
POLY9
 70
     0
 71
     0
 10
0.0
 20
0.0
 30
0.0
  3
POLY9
  1

  4
POLY9
  0
LINE
  5
5AB
330
5A8
100
AcDbEntity
  8
LC-002-100-D00-0
 62
     7
370
    50
100
AcDbLine
 10
-151.86441
 20
446.234426
 30
0.0
 11
-151.86441
 21
446.234426
 31
0.0
  0
LINE
  5
5AC
330
5A8
100
AcDbEntity
  8
LC-002-100-D00-0
 62
     7
370
    50
100
AcDbLine
 10
-151.86441
 20
446.234426
 30
0.0
 11
-151.669943
 21
446.276856
 31
0.0
  0
LINE
  5
5AD
330
5A8
100
AcDbEntity
  8
LC-002-100-D00-0
 62
     7
370
    50
100
AcDbLine
 10
-151.669943
 20
446.276856
 30
0.0
 11
-151.669943
 21
446.276856
 31
0.0
  0
LINE
  5
5AE
330
5A8
100
AcDbEntity
  8
LC-002-100-D00-0
 62
     7
370
    50
100
AcDbLine
 10
-151.669943
 20
446.276856
 30
0.0
 11
-151.280976
 21
446.361725
 31
0.0
  0
LINE
  5
5AF
330
5A8
100
AcDbEntity
  8
LC-002-100-D00-0
 62
     7
370
    50
100
AcDbLine
 10
-151.280976
 20
446.361725
 30
0.0
 11
-151.280976
 21
446.361725
 31
0.0
  0
LINE
  5
5B0
330
5A8
100
AcDbEntity
  8
LC-002-100-D00-0
 62
     7
370
    50
100
AcDbLine
 10
-151.280976
 20
446.361725
 30
0.0
 11
-150.785611
 21
446.762352
 31
0.0
  0
LINE
  5
5B1
330
5A8
100
AcDbEntity
  8
LC-002-100-D00-0
 62
     7
370
    50
100
AcDbLine
 10
-150.785611
 20
446.762352
 30
0.0
 11
-150.785611
 21
446.762352
 31
0.0
  0
LINE
  5
5B2
330
5A8
100
AcDbEntity
  8
LC-002-100-D00-0
 62
     7
370
    50
100
AcDbLine
 10
-150.785611
 20
446.762352
 30
0.0
 11
-150.432384
 21
447.312508
 31
0.0
  0
LINE
  5
5B3
330
5A8
100
AcDbEntity
  8
LC-002-100-D00-0
 62
     7
370
    50
100
AcDbLine
 10
-150.432384
 20
447.312508
 30
0.0
 11
-150.432384
 21
447.312508
 31
0.0
  0
LINE
  5
5B4
330
5A8
100
AcDbEntity
  8
LC-002-100-D00-0
 62
     7
370
    50
100
AcDbLine
 10
-150.432384
 20
447.312508
 30
0.0
 11
-150.289771
 21
447.834391
 31
0.0
  0
LINE
  5
5B5
330
5A8
100
AcDbEntity
  8
LC-002-100-D00-0
 62
     7
370
    50
100
AcDbLine
 10
-150.289771
 20
447.834391
 30
0.0
 11
-150.289771
 21
447.834391
 31
0.0
  0
LINE
  5
5B6
330
5A8
100
AcDbEntity
  8
LC-002-100-D00-0
 62
     7
370
    50
100
AcDbLine
 10
-150.289771
 20
447.834391
 30
0.0
 11
-150.279399
 21
448.14233
 31
0.0
  0
LINE
  5
5B7
330
5A8
100
AcDbEntity
  8
LC-002-100-D00-0
 62
     7
370
    50
100
AcDbLine
 10
-150.279399
 20
448.14233
 30
0.0
 11
-150.279399
 21
448.14233
 31
0.0
  0
LINE
  5
5B8
330
5A8
100
AcDbEntity
  8
LC-002-100-D00-0
 62
     7
370
    50
100
AcDbLine
 10
-150.279399
 20
448.14233
 30
0.0
 11
-150.276569
 21
448.226364
 31
0.0
  0
ENDBLK
  5
5AA
330
5A8
100
AcDbEntity
  8
0
100
AcDbBlockEnd
  0
BLOCK
  5
5BB
330
5BA
100
AcDbEntity
  8
0
100
AcDbBlockBegin
  2
POLY10
 70
     0
 71
     0
 10
0.0
 20
0.0
 30
0.0
  3
POLY10
  1

  4
POLY10
  0
LINE
  5
5BD
330
5BA
100
AcDbEntity
  8
LC-002-100-D00-0
 62
     7
370
    50
100
AcDbLine
 10
-198.532176
 20
448.226364
 30
0.0
 11
-198.532176
 21
448.226364
 31
0.0
  0
LINE
  5
5BE
330
5BA
100
AcDbEntity
  8
LC-002-100-D00-0
 62
     7
370
    50
100
AcDbLine
 10
-198.532176
 20
448.226364
 30
0.0
 11
-198.513085
 21
448.002618
 31
0.0
  0
LINE
  5
5BF
330
5BA
100
AcDbEntity
  8
LC-002-100-D00-0
 62
     7
370
    50
100
AcDbLine
 10
-198.513085
 20
448.002618
 30
0.0
 11
-198.513085
 21
448.002618
 31
0.0
  0
LINE
  5
5C0
330
5BA
100
AcDbEntity
  8
LC-002-100-D00-0
 62
     7
370
    50
100
AcDbLine
 10
-198.513085
 20
448.002618
 30
0.0
 11
-198.474903
 21
447.555146
 31
0.0
  0
LINE
  5
5C1
330
5BA
100
AcDbEntity
  8
LC-002-100-D00-0
 62
     7
370
    50
100
AcDbLine
 10
-198.474903
 20
447.555146
 30
0.0
 11
-198.474903
 21
447.555146
 31
0.0
  0
LINE
  5
5C2
330
5BA
100
AcDbEntity
  8
LC-002-100-D00-0
 62
     7
370
    50
100
AcDbLine
 10
-198.474903
 20
447.555146
 30
0.0
 11
-198.177382
 21
446.958591
 31
0.0
  0
LINE
  5
5C3
330
5BA
100
AcDbEntity
  8
LC-002-100-D00-0
 62
     7
370
    50
100
AcDbLine
 10
-198.177382
 20
446.958591
 30
0.0
 11
-198.177382
 21
446.958591
 31
0.0
  0
LINE
  5
5C4
330
5BA
100
AcDbEntity
  8
LC-002-100-D00-0
 62
     7
370
    50
100
AcDbLine
 10
-198.177382
 20
446.958591
 30
0.0
 11
-197.738936
 21
446.505572
 31
0.0
  0
LINE
  5
5C5
330
5BA
100
AcDbEntity
  8
LC-002-100-D00-0
 62
     7
370
    50
100
AcDbLine
 10
-197.738936
 20
446.505572
 30
0.0
 11
-197.738936
 21
446.505572
 31
0.0
  0
LINE
  5
5C6
330
5BA
100
AcDbEntity
  8
LC-002-100-D00-0
 62
     7
370
    50
100
AcDbLine
 10
-197.738936
 20
446.505572
 30
0.0
 11
-197.297002
 21
446.288062
 31
0.0
  0
LINE
  5
5C7
330
5BA
100
AcDbEntity
  8
LC-002-100-D00-0
 62
     7
370
    50
100
AcDbLine
 10
-197.297002
 20
446.288062
 30
0.0
 11
-197.297002
 21
446.288062
 31
0.0
  0
LINE
  5
5C8
330
5BA
100
AcDbEntity
  8
LC-002-100-D00-0
 62
     7
370
    50
100
AcDbLine
 10
-197.297002
 20
446.288062
 30
0.0
 11
-197.024098
 21
446.246557
 31
0.0
  0
LINE
  5
5C9
330
5BA
100
AcDbEntity
  8
LC-002-100-D00-0
 62
     7
370
    50
100
AcDbLine
 10
-197.024098
 20
446.246557
 30
0.0
 11
-197.024098
 21
446.246557
 31
0.0
  0
LINE
  5
5CA
330
5BA
100
AcDbEntity
  8
LC-002-100-D00-0
 62
     7
370
    50
100
AcDbLine
 10
-197.024098
 20
446.246557
 30
0.0
 11
-196.944334
 21
446.234426
 31
0.0
  0
ENDBLK
  5
5BC
330
5BA
100
AcDbEntity
  8
0
100
AcDbBlockEnd
  0
BLOCK
  5
5D6
330
5D5
100
AcDbEntity
  8
0
100
AcDbBlockBegin
  2
POLY11
 70
     0
 71
     0
 10
0.0
 20
0.0
 30
0.0
  3
POLY11
  1

  4
POLY11
  0
LINE
  5
5D8
330
5D5
100
AcDbEntity
  8
LC-002-100-D00-0
 62
     7
370
    50
100
AcDbLine
 10
-197.904372
 20
461.226408
 30
0.0
 11
-197.904372
 21
461.226408
 31
0.0
  0
LINE
  5
5D9
330
5D5
100
AcDbEntity
  8
LC-002-100-D00-0
 62
     7
370
    50
100
AcDbLine
 10
-197.904372
 20
461.226408
 30
0.0
 11
-197.917478
 21
461.226461
 31
0.0
  0
LINE
  5
5DA
330
5D5
100
AcDbEntity
  8
LC-002-100-D00-0
 62
     7
370
    50
100
AcDbLine
 10
-197.917478
 20
461.226461
 30
0.0
 11
-197.917478
 21
461.226461
 31
0.0
  0
LINE
  5
5DB
330
5D5
100
AcDbEntity
  8
LC-002-100-D00-0
 62
     7
370
    50
100
AcDbLine
 10
-197.917478
 20
461.226461
 30
0.0
 11
-197.943233
 21
461.226565
 31
0.0
  0
LINE
  5
5DC
330
5D5
100
AcDbEntity
  8
LC-002-100-D00-0
 62
     7
370
    50
100
AcDbLine
 10
-197.943233
 20
461.226565
 30
0.0
 11
-197.943233
 21
461.226565
 31
0.0
  0
LINE
  5
5DD
330
5D5
100
AcDbEntity
  8
LC-002-100-D00-0
 62
     7
370
    50
100
AcDbLine
 10
-197.943233
 20
461.226565
 30
0.0
 11
-197.964557
 21
461.227101
 31
0.0
  0
LINE
  5
5DE
330
5D5
100
AcDbEntity
  8
LC-002-100-D00-0
 62
     7
370
    50
100
AcDbLine
 10
-197.964557
 20
461.227101
 30
0.0
 11
-197.964557
 21
461.227101
 31
0.0
  0
LINE
  5
5DF
330
5D5
100
AcDbEntity
  8
LC-002-100-D00-0
 62
     7
370
    50
100
AcDbLine
 10
-197.964557
 20
461.227101
 30
0.0
 11
-197.975029
 21
461.227364
 31
0.0
  0
ENDBLK
  5
5D7
330
5D5
100
AcDbEntity
  8
0
100
AcDbBlockEnd
  0
BLOCK
  5
647
330
646
100
AcDbEntity
  8
0
100
AcDbBlockBegin
  2
POLY12
 70
     0
 71
     0
 10
0.0
 20
0.0
 30
0.0
  3
POLY12
  1

  4
POLY12
  0
LINE
  5
649
330
646
100
AcDbEntity
  8
LC-002-100-D00-0
 62
     7
370
    50
100
AcDbLine
 10
-199.349762
 20
455.146202
 30
0.0
 11
-199.349762
 21
455.146202
 31
0.0
  0
LINE
  5
64A
330
646
100
AcDbEntity
  8
LC-002-100-D00-0
 62
     7
370
    50
100
AcDbLine
 10
-199.349762
 20
455.146202
 30
0.0
 11
-199.079401
 21
455.026871
 31
0.0
  0
LINE
  5
64B
330
646
100
AcDbEntity
  8
LC-002-100-D00-0
 62
     7
370
    50
100
AcDbLine
 10
-199.079401
 20
455.026871
 30
0.0
 11
-199.079401
 21
455.026871
 31
0.0
  0
LINE
  5
64C
330
646
100
AcDbEntity
  8
LC-002-100-D00-0
 62
     7
370
    50
100
AcDbLine
 10
-199.079401
 20
455.026871
 30
0.0
 11
-198.537359
 21
454.787627
 31
0.0
  0
LINE
  5
64D
330
646
100
AcDbEntity
  8
LC-002-100-D00-0
 62
     7
370
    50
100
AcDbLine
 10
-198.537359
 20
454.787627
 30
0.0
 11
-198.537359
 21
454.787627
 31
0.0
  0
LINE
  5
64E
330
646
100
AcDbEntity
  8
LC-002-100-D00-0
 62
     7
370
    50
100
AcDbLine
 10
-198.537359
 20
454.787627
 30
0.0
 11
-197.917654
 21
454.726784
 31
0.0
  0
LINE
  5
64F
330
646
100
AcDbEntity
  8
LC-002-100-D00-0
 62
     7
370
    50
100
AcDbLine
 10
-197.917654
 20
454.726784
 30
0.0
 11
-197.917654
 21
454.726784
 31
0.0
  0
LINE
  5
650
330
646
100
AcDbEntity
  8
LC-002-100-D00-0
 62
     7
370
    50
100
AcDbLine
 10
-197.917654
 20
454.726784
 30
0.0
 11
-197.609358
 21
454.726372
 31
0.0
  0
LINE
  5
651
330
646
100
AcDbEntity
  8
LC-002-100-D00-0
 62
     7
370
    50
100
AcDbLine
 10
-197.609358
 20
454.726372
 30
0.0
 11
-197.609358
 21
454.726372
 31
0.0
  0
LINE
  5
652
330
646
100
AcDbEntity
  8
LC-002-100-D00-0
 62
     7
370
    50
100
AcDbLine
 10
-197.609358
 20
454.726372
 30
0.0
 11
-197.604372
 21
454.726365
 31
0.0
  0
ENDBLK
  5
648
330
646
100
AcDbEntity
  8
0
100
AcDbBlockEnd
  0
BLOCK
  5
668
330
667
100
AcDbEntity
  8
0
100
AcDbBlockBegin
  2
KLON29
 70
     0
 71
     0
 10
0.0
 20
0.0
 30
0.0
  3
KLON29
  1

  4
KLON29
  0
LINE
  5
66A
330
667
100
AcDbEntity
  8
LC-002-100-D00-0
 62
     7
370
    15
100
AcDbLine
 10
-277.404373
 20
413.775525
 30
0.0
 11
-280.358341
 21
414.568649
 31
0.0
  0
LINE
  5
66B
330
667
100
AcDbEntity
  8
LC-002-100-D00-0
 62
     7
370
    15
100
AcDbLine
 10
-280.358341
 20
414.568649
 30
0.0
 11
-280.404371
 21
414.581009
 31
0.0
  0
ENDBLK
  5
669
330
667
100
AcDbEntity
  8
0
100
AcDbBlockEnd
  0
BLOCK
  5
673
330
672
100
AcDbEntity
  8
0
100
AcDbBlockBegin
  2
POLY13
 70
     0
 71
     0
 10
0.0
 20
0.0
 30
0.0
  3
POLY13
  1

  4
POLY13
  0
LINE
  5
675
330
672
100
AcDbEntity
  8
LC-002-100-D00-0
 62
     7
370
    50
100
AcDbLine
 10
-205.520389
 20
416.894405
 30
0.0
 11
-205.520389
 21
416.894405
 31
0.0
  0
LINE
  5
676
330
672
100
AcDbEntity
  8
LC-002-100-D00-0
 62
     7
370
    50
100
AcDbLine
 10
-205.520389
 20
416.894405
 30
0.0
 11
-205.84145
 21
416.929713
 31
0.0
  0
LINE
  5
677
330
672
100
AcDbEntity
  8
LC-002-100-D00-0
 62
     7
370
    50
100
AcDbLine
 10
-205.84145
 20
416.929713
 30
0.0
 11
-205.84145
 21
416.929713
 31
0.0
  0
LINE
  5
678
330
672
100
AcDbEntity
  8
LC-002-100-D00-0
 62
     7
370
    50
100
AcDbLine
 10
-205.84145
 20
416.929713
 30
0.0
 11
-206.86948
 21
417.042767
 31
0.0
  0
LINE
  5
679
330
672
100
AcDbEntity
  8
LC-002-100-D00-0
 62
     7
370
    50
100
AcDbLine
 10
-206.86948
 20
417.042767
 30
0.0
 11
-206.86948
 21
417.042767
 31
0.0
  0
LINE
  5
67A
330
672
100
AcDbEntity
  8
LC-002-100-D00-0
 62
     7
370
    50
100
AcDbLine
 10
-206.86948
 20
417.042767
 30
0.0
 11
-208.331013
 21
417.835264
 31
0.0
  0
LINE
  5
67B
330
672
100
AcDbEntity
  8
LC-002-100-D00-0
 62
     7
370
    50
100
AcDbLine
 10
-208.331013
 20
417.835264
 30
0.0
 11
-208.331013
 21
417.835264
 31
0.0
  0
LINE
  5
67C
330
672
100
AcDbEntity
  8
LC-002-100-D00-0
 62
     7
370
    50
100
AcDbLine
 10
-208.331013
 20
417.835264
 30
0.0
 11
-209.799543
 21
419.134436
 31
0.0
  0
LINE
  5
67D
330
672
100
AcDbEntity
  8
LC-002-100-D00-0
 62
     7
370
    50
100
AcDbLine
 10
-209.799543
 20
419.134436
 30
0.0
 11
-209.799543
 21
419.134436
 31
0.0
  0
LINE
  5
67E
330
672
100
AcDbEntity
  8
LC-002-100-D00-0
 62
     7
370
    50
100
AcDbLine
 10
-209.799543
 20
419.134436
 30
0.0
 11
-210.727825
 21
420.581976
 31
0.0
  0
LINE
  5
67F
330
672
100
AcDbEntity
  8
LC-002-100-D00-0
 62
     7
370
    50
100
AcDbLine
 10
-210.727825
 20
420.581976
 30
0.0
 11
-210.727825
 21
420.581976
 31
0.0
  0
LINE
  5
680
330
672
100
AcDbEntity
  8
LC-002-100-D00-0
 62
     7
370
    50
100
AcDbLine
 10
-210.727825
 20
420.581976
 30
0.0
 11
-211.293991
 21
422.139843
 31
0.0
  0
LINE
  5
681
330
672
100
AcDbEntity
  8
LC-002-100-D00-0
 62
     7
370
    50
100
AcDbLine
 10
-211.293991
 20
422.139843
 30
0.0
 11
-211.293991
 21
422.139843
 31
0.0
  0
LINE
  5
682
330
672
100
AcDbEntity
  8
LC-002-100-D00-0
 62
     7
370
    50
100
AcDbLine
 10
-211.293991
 20
422.139843
 30
0.0
 11
-211.367278
 21
423.193204
 31
0.0
  0
LINE
  5
683
330
672
100
AcDbEntity
  8
LC-002-100-D00-0
 62
     7
370
    50
100
AcDbLine
 10
-211.367278
 20
423.193204
 30
0.0
 11
-211.367278
 21
423.193204
 31
0.0
  0
LINE
  5
684
330
672
100
AcDbEntity
  8
LC-002-100-D00-0
 62
     7
370
    50
100
AcDbLine
 10
-211.367278
 20
423.193204
 30
0.0
 11
-211.404373
 21
423.726365
 31
0.0
  0
ENDBLK
  5
674
330
672
100
AcDbEntity
  8
0
100
AcDbBlockEnd
  0
BLOCK
  5
689
330
688
100
AcDbEntity
  8
0
100
AcDbBlockBegin
  2
KLON30
 70
     0
 71
     0
 10
0.0
 20
0.0
 30
0.0
  3
KLON30
  1

  4
KLON30
  0
LINE
  5
68B
330
688
100
AcDbEntity
  8
LC-002-100-D00-0
 62
     7
370
    15
100
AcDbLine
 10
-280.404371
 20
462.87172
 30
0.0
 11
-280.358341
 21
462.884081
 31
0.0
  0
LINE
  5
68C
330
688
100
AcDbEntity
  8
LC-002-100-D00-0
 62
     7
370
    15
100
AcDbLine
 10
-280.358341
 20
462.884081
 30
0.0
 11
-277.404373
 21
463.677204
 31
0.0
  0
ENDBLK
  5
68A
330
688
100
AcDbEntity
  8
0
100
AcDbBlockEnd
  0
BLOCK
  5
697
330
696
100
AcDbEntity
  8
0
100
AcDbBlockBegin
  2
POLY14
 70
     0
 71
     0
 10
0.0
 20
0.0
 30
0.0
  3
POLY14
  1

  4
POLY14
  0
LINE
  5
699
330
696
100
AcDbEntity
  8
LC-002-100-D00-0
 62
     7
370
    50
100
AcDbLine
 10
-230.111447
 20
463.677204
 30
0.0
 11
-230.111447
 21
463.677204
 31
0.0
  0
LINE
  5
69A
330
696
100
AcDbEntity
  8
LC-002-100-D00-0
 62
     7
370
    50
100
AcDbLine
 10
-230.111447
 20
463.677204
 30
0.0
 11
-229.774873
 21
463.643195
 31
0.0
  0
LINE
  5
69B
330
696
100
AcDbEntity
  8
LC-002-100-D00-0
 62
     7
370
    50
100
AcDbLine
 10
-229.774873
 20
463.643195
 30
0.0
 11
-229.774873
 21
463.643195
 31
0.0
  0
LINE
  5
69C
330
696
100
AcDbEntity
  8
LC-002-100-D00-0
 62
     7
370
    50
100
AcDbLine
 10
-229.774873
 20
463.643195
 30
0.0
 11
-229.101753
 21
463.575179
 31
0.0
  0
LINE
  5
69D
330
696
100
AcDbEntity
  8
LC-002-100-D00-0
 62
     7
370
    50
100
AcDbLine
 10
-229.101753
 20
463.575179
 30
0.0
 11
-229.101753
 21
463.575179
 31
0.0
  0
LINE
  5
69E
330
696
100
AcDbEntity
  8
LC-002-100-D00-0
 62
     7
370
    50
100
AcDbLine
 10
-229.101753
 20
463.575179
 30
0.0
 11
-228.152349
 21
463.04986
 31
0.0
  0
LINE
  5
69F
330
696
100
AcDbEntity
  8
LC-002-100-D00-0
 62
     7
370
    50
100
AcDbLine
 10
-228.152349
 20
463.04986
 30
0.0
 11
-228.152349
 21
463.04986
 31
0.0
  0
LINE
  5
6A0
330
696
100
AcDbEntity
  8
LC-002-100-D00-0
 62
     7
370
    50
100
AcDbLine
 10
-228.152349
 20
463.04986
 30
0.0
 11
-227.728834
 21
462.473582
 31
0.0
  0
LINE
  5
6A1
330
696
100
AcDbEntity
  8
LC-002-100-D00-0
 62
     7
370
    50
100
AcDbLine
 10
-227.728834
 20
462.473582
 30
0.0
 11
-227.728834
 21
462.473582
 31
0.0
  0
LINE
  5
6A2
330
696
100
AcDbEntity
  8
LC-002-100-D00-0
 62
     7
370
    50
100
AcDbLine
 10
-227.728834
 20
462.473582
 30
0.0
 11
-227.506083
 21
462.170485
 31
0.0
  0
ENDBLK
  5
698
330
696
100
AcDbEntity
  8
0
100
AcDbBlockEnd
  0
BLOCK
  5
6B5
330
6B4
100
AcDbEntity
  8
0
100
AcDbBlockBegin
  2
POLY15
 70
     0
 71
     0
 10
0.0
 20
0.0
 30
0.0
  3
POLY15
  1

  4
POLY15
  0
LINE
  5
6B7
330
6B4
100
AcDbEntity
  8
LC-002-100-D00-0
 62
     7
370
    50
100
AcDbLine
 10
-230.062448
 20
360.226364
 30
0.0
 11
-230.062448
 21
360.226364
 31
0.0
  0
LINE
  5
6B8
330
6B4
100
AcDbEntity
  8
LC-002-100-D00-0
 62
     7
370
    50
100
AcDbLine
 10
-230.062448
 20
360.226364
 30
0.0
 11
-230.022784
 21
360.226364
 31
0.0
  0
LINE
  5
6B9
330
6B4
100
AcDbEntity
  8
LC-002-100-D00-0
 62
     7
370
    50
100
AcDbLine
 10
-230.022784
 20
360.226364
 30
0.0
 11
-230.022784
 21
360.226364
 31
0.0
  0
LINE
  5
6BA
330
6B4
100
AcDbEntity
  8
LC-002-100-D00-0
 62
     7
370
    50
100
AcDbLine
 10
-230.022784
 20
360.226364
 30
0.0
 11
-229.936175
 21
360.226364
 31
0.0
  0
LINE
  5
6BB
330
6B4
100
AcDbEntity
  8
LC-002-100-D00-0
 62
     7
370
    50
100
AcDbLine
 10
-229.936175
 20
360.226364
 30
0.0
 11
-229.936175
 21
360.226364
 31
0.0
  0
LINE
  5
6BC
330
6B4
100
AcDbEntity
  8
LC-002-100-D00-0
 62
     7
370
    50
100
AcDbLine
 10
-229.936175
 20
360.226364
 30
0.0
 11
-230.490651
 21
360.226364
 31
0.0
  0
LINE
  5
6BD
330
6B4
100
AcDbEntity
  8
LC-002-100-D00-0
 62
     7
370
    50
100
AcDbLine
 10
-230.490651
 20
360.226364
 30
0.0
 11
-230.490651
 21
360.226364
 31
0.0
  0
LINE
  5
6BE
330
6B4
100
AcDbEntity
  8
LC-002-100-D00-0
 62
     7
370
    50
100
AcDbLine
 10
-230.490651
 20
360.226364
 30
0.0
 11
-231.317226
 21
360.226364
 31
0.0
  0
LINE
  5
6BF
330
6B4
100
AcDbEntity
  8
LC-002-100-D00-0
 62
     7
370
    50
100
AcDbLine
 10
-231.317226
 20
360.226364
 30
0.0
 11
-231.317226
 21
360.226364
 31
0.0
  0
LINE
  5
6C0
330
6B4
100
AcDbEntity
  8
LC-002-100-D00-0
 62
     7
370
    50
100
AcDbLine
 10
-231.317226
 20
360.226364
 30
0.0
 11
-232.494843
 21
360.226364
 31
0.0
  0
LINE
  5
6C1
330
6B4
100
AcDbEntity
  8
LC-002-100-D00-0
 62
     7
370
    50
100
AcDbLine
 10
-232.494843
 20
360.226364
 30
0.0
 11
-232.494843
 21
360.226364
 31
0.0
  0
LINE
  5
6C2
330
6B4
100
AcDbEntity
  8
LC-002-100-D00-0
 62
     7
370
    50
100
AcDbLine
 10
-232.494843
 20
360.226364
 30
0.0
 11
-234.322957
 21
360.226364
 31
0.0
  0
LINE
  5
6C3
330
6B4
100
AcDbEntity
  8
LC-002-100-D00-0
 62
     7
370
    50
100
AcDbLine
 10
-234.322957
 20
360.226364
 30
0.0
 11
-234.322957
 21
360.226364
 31
0.0
  0
LINE
  5
6C4
330
6B4
100
AcDbEntity
  8
LC-002-100-D00-0
 62
     7
370
    50
100
AcDbLine
 10
-234.322957
 20
360.226364
 30
0.0
 11
-237.024584
 21
360.226364
 31
0.0
  0
LINE
  5
6C5
330
6B4
100
AcDbEntity
  8
LC-002-100-D00-0
 62
     7
370
    50
100
AcDbLine
 10
-237.024584
 20
360.226364
 30
0.0
 11
-237.024584
 21
360.226364
 31
0.0
  0
LINE
  5
6C6
330
6B4
100
AcDbEntity
  8
LC-002-100-D00-0
 62
     7
370
    50
100
AcDbLine
 10
-237.024584
 20
360.226364
 30
0.0
 11
-239.949848
 21
360.226364
 31
0.0
  0
LINE
  5
6C7
330
6B4
100
AcDbEntity
  8
LC-002-100-D00-0
 62
     7
370
    50
100
AcDbLine
 10
-239.949848
 20
360.226364
 30
0.0
 11
-239.949848
 21
360.226364
 31
0.0
  0
LINE
  5
6C8
330
6B4
100
AcDbEntity
  8
LC-002-100-D00-0
 62
     7
370
    50
100
AcDbLine
 10
-239.949848
 20
360.226364
 30
0.0
 11
-242.223952
 21
360.226364
 31
0.0
  0
LINE
  5
6C9
330
6B4
100
AcDbEntity
  8
LC-002-100-D00-0
 62
     7
370
    50
100
AcDbLine
 10
-242.223952
 20
360.226364
 30
0.0
 11
-242.223952
 21
360.226364
 31
0.0
  0
LINE
  5
6CA
330
6B4
100
AcDbEntity
  8
LC-002-100-D00-0
 62
     7
370
    50
100
AcDbLine
 10
-242.223952
 20
360.226364
 30
0.0
 11
-243.870627
 21
360.226364
 31
0.0
  0
LINE
  5
6CB
330
6B4
100
AcDbEntity
  8
LC-002-100-D00-0
 62
     7
370
    50
100
AcDbLine
 10
-243.870627
 20
360.226364
 30
0.0
 11
-243.870627
 21
360.226364
 31
0.0
  0
LINE
  5
6CC
330
6B4
100
AcDbEntity
  8
LC-002-100-D00-0
 62
     7
370
    50
100
AcDbLine
 10
-243.870627
 20
360.226364
 30
0.0
 11
-245.313841
 21
360.226364
 31
0.0
  0
LINE
  5
6CD
330
6B4
100
AcDbEntity
  8
LC-002-100-D00-0
 62
     7
370
    50
100
AcDbLine
 10
-245.313841
 20
360.226364
 30
0.0
 11
-245.313841
 21
360.226364
 31
0.0
  0
LINE
  5
6CE
330
6B4
100
AcDbEntity
  8
LC-002-100-D00-0
 62
     7
370
    50
100
AcDbLine
 10
-245.313841
 20
360.226364
 30
0.0
 11
-246.781925
 21
360.226364
 31
0.0
  0
LINE
  5
6CF
330
6B4
100
AcDbEntity
  8
LC-002-100-D00-0
 62
     7
370
    50
100
AcDbLine
 10
-246.781925
 20
360.226364
 30
0.0
 11
-246.781925
 21
360.226364
 31
0.0
  0
LINE
  5
6D0
330
6B4
100
AcDbEntity
  8
LC-002-100-D00-0
 62
     7
370
    50
100
AcDbLine
 10
-246.781925
 20
360.226364
 30
0.0
 11
-247.843107
 21
360.226364
 31
0.0
  0
LINE
  5
6D1
330
6B4
100
AcDbEntity
  8
LC-002-100-D00-0
 62
     7
370
    50
100
AcDbLine
 10
-247.843107
 20
360.226364
 30
0.0
 11
-247.843107
 21
360.226364
 31
0.0
  0
LINE
  5
6D2
330
6B4
100
AcDbEntity
  8
LC-002-100-D00-0
 62
     7
370
    50
100
AcDbLine
 10
-247.843107
 20
360.226364
 30
0.0
 11
-247.771548
 21
360.226364
 31
0.0
  0
LINE
  5
6D3
330
6B4
100
AcDbEntity
  8
LC-002-100-D00-0
 62
     7
370
    50
100
AcDbLine
 10
-247.771548
 20
360.226364
 30
0.0
 11
-247.771548
 21
360.226364
 31
0.0
  0
LINE
  5
6D4
330
6B4
100
AcDbEntity
  8
LC-002-100-D00-0
 62
     7
370
    50
100
AcDbLine
 10
-247.771548
 20
360.226364
 30
0.0
 11
-247.746301
 21
360.226364
 31
0.0
  0
ENDBLK
  5
6B6
330
6B4
100
AcDbEntity
  8
0
100
AcDbBlockEnd
  0
BLOCK
  5
6DF
330
6DE
100
AcDbEntity
  8
0
100
AcDbBlockBegin
  2
KLON31
 70
     0
 71
     0
 10
0.0
 20
0.0
 30
0.0
  3
KLON31
  1

  4
KLON31
  0
LINE
  5
6E1
330
6DE
100
AcDbEntity
  8
LC-002-100-D00-0
 62
     7
370
    25
100
AcDbLine
 10
-224.446523
 20
450.871169
 30
0.0
 11
-222.250371
 21
453.067321
 31
0.0
  0
LINE
  5
6E2
330
6DE
100
AcDbEntity
  8
LC-002-100-D00-0
 62
     7
370
    25
100
AcDbLine
 10
-237.097848
 20
460.670485
 30
0.0
 11
-234.091128
 21
463.677205
 31
0.0
  0
LINE
  5
6E3
330
6DE
100
AcDbEntity
  8
LC-002-100-D00-0
 62
     7
370
    25
100
AcDbLine
 10
-259.548488
 20
460.670485
 30
0.0
 11
-256.541768
 21
463.677205
 31
0.0
  0
LINE
  5
6E4
330
6DE
100
AcDbEntity
  8
LC-002-100-D00-0
 62
     7
370
    25
100
AcDbLine
 10
-280.404372
 20
462.265241
 30
0.0
 11
-279.575288
 21
463.094325
 31
0.0
  0
ENDBLK
  5
6E0
330
6DE
100
AcDbEntity
  8
0
100
AcDbBlockEnd
  0
BLOCK
  5
6E7
330
6E6
100
AcDbEntity
  8
0
100
AcDbBlockBegin
  2
KLON32
 70
     0
 71
     0
 10
0.0
 20
0.0
 30
0.0
  3
KLON32
  1

  4
KLON32
  0
LINE
  5
6E9
330
6E6
100
AcDbEntity
  8
LC-002-100-D00-0
 62
     7
370
    25
100
AcDbLine
 10
-149.338126
 20
413.726365
 30
0.0
 11
-146.338126
 21
416.726365
 31
0.0
  0
LINE
  5
6EA
330
6E6
100
AcDbEntity
  8
LC-002-100-D00-0
 62
     7
370
    25
100
AcDbLine
 10
-137.404372
 20
425.660118
 30
0.0
 11
-134.404372
 21
428.660118
 31
0.0
  0
LINE
  5
6EB
330
6E6
100
AcDbEntity
  8
LC-002-100-D00-0
 62
     7
370
    25
100
AcDbLine
 10
-171.788766
 20
413.726365
 30
0.0
 11
-168.788766
 21
416.726365
 31
0.0
  0
LINE
  5
6EC
330
6E6
100
AcDbEntity
  8
LC-002-100-D00-0
 62
     7
370
    25
100
AcDbLine
 10
-137.404372
 20
448.110759
 30
0.0
 11
-134.404372
 21
451.110759
 31
0.0
  0
LINE
  5
6ED
330
6E6
100
AcDbEntity
  8
LC-002-100-D00-0
 62
     7
370
    25
100
AcDbLine
 10
-194.239406
 20
413.726365
 30
0.0
 11
-191.239406
 21
416.726365
 31
0.0
  0
LINE
  5
6EE
330
6E6
100
AcDbEntity
  8
LC-002-100-D00-0
 62
     7
370
    25
100
AcDbLine
 10
-182.416475
 20
425.549297
 30
0.0
 11
-179.689863
 21
428.275908
 31
0.0
  0
LINE
  5
6EF
330
6E6
100
AcDbEntity
  8
LC-002-100-D00-0
 62
     7
370
    25
100
AcDbLine
 10
-216.640887
 20
413.775525
 30
0.0
 11
-213.634167
 21
416.782245
 31
0.0
  0
LINE
  5
6F0
330
6E6
100
AcDbEntity
  8
LC-002-100-D00-0
 62
     7
370
    25
100
AcDbLine
 10
-239.091527
 20
413.775525
 30
0.0
 11
-236.084807
 21
416.782245
 31
0.0
  0
LINE
  5
6F1
330
6E6
100
AcDbEntity
  8
LC-002-100-D00-0
 62
     7
370
    25
100
AcDbLine
 10
-261.542167
 20
413.775525
 30
0.0
 11
-258.535448
 21
416.782245
 31
0.0
  0
ENDBLK
  5
6E8
330
6E6
100
AcDbEntity
  8
0
100
AcDbBlockEnd
  0
BLOCK
  5
6F4
330
6F3
100
AcDbEntity
  8
0
100
AcDbBlockBegin
  2
KLON33
 70
     0
 71
     0
 10
0.0
 20
0.0
 30
0.0
  3
KLON33
  1

  4
KLON33
  0
LINE
  5
6F6
330
6F3
100
AcDbEntity
  8
LC-002-100-D00-0
 62
     7
370
    25
100
AcDbLine
 10
-135.288766
 20
450.226365
 30
0.0
 11
-134.404372
 21
451.110759
 31
0.0
  0
LINE
  5
6F7
330
6F3
100
AcDbEntity
  8
LC-002-100-D00-0
 62
     7
370
    25
100
AcDbLine
 10
-137.404372
 20
470.561399
 30
0.0
 11
-134.404372
 21
473.561399
 31
0.0
  0
ENDBLK
  5
6F5
330
6F3
100
AcDbEntity
  8
0
100
AcDbBlockEnd
  0
BLOCK
  5
6FA
330
6F9
100
AcDbEntity
  8
0
100
AcDbBlockBegin
  2
KLON34
 70
     0
 71
     0
 10
0.0
 20
0.0
 30
0.0
  3
KLON34
  1

  4
KLON34
  0
LINE
  5
6FC
330
6F9
100
AcDbEntity
  8
LC-002-100-D00-0
 62
     7
370
    25
100
AcDbLine
 10
-205.140687
 20
447.726365
 30
0.0
 11
-202.404372
 21
450.46268
 31
0.0
  0
LINE
  5
6FD
330
6F9
100
AcDbEntity
  8
LC-002-100-D00-0
 62
     7
370
    25
100
AcDbLine
 10
-214.404372
 20
460.91332
 30
0.0
 11
-211.404372
 21
463.91332
 31
0.0
  0
ENDBLK
  5
6FB
330
6F9
100
AcDbEntity
  8
0
100
AcDbBlockEnd
  0
BLOCK
  5
701
330
700
100
AcDbEntity
  8
0
100
AcDbBlockBegin
  2
KLON35
 70
     0
 71
     0
 10
0.0
 20
0.0
 30
0.0
  3
KLON35
  1

  4
KLON35
  0
LINE
  5
703
330
700
100
AcDbEntity
  8
LC-002-100-D00-0
 62
     7
370
    25
100
AcDbLine
 10
-169.154372
 20
438.811399
 30
0.0
 11
-167.654372
 21
440.311399
 31
0.0
  0
LINE
  5
704
330
700
100
AcDbEntity
  8
LC-002-100-D00-0
 62
     7
370
    25
100
AcDbLine
 10
-169.690189
 20
460.726223
 30
0.0
 11
-168.602663
 21
461.813749
 31
0.0
  0
LINE
  5
705
330
700
100
AcDbEntity
  8
LC-002-100-D00-0
 62
     7
370
    25
100
AcDbLine
 10
-194.404372
 20
458.46268
 30
0.0
 11
-192.592694
 21
460.274358
 31
0.0
  0
LINE
  5
706
330
700
100
AcDbEntity
  8
LC-002-100-D00-0
 62
     7
370
    25
100
AcDbLine
 10
-190.452365
 20
462.414687
 30
0.0
 11
-188.640687
 21
464.226365
 31
0.0
  0
ENDBLK
  5
702
330
700
100
AcDbEntity
  8
0
100
AcDbBlockEnd
  0
BLOCK
  5
709
330
708
100
AcDbEntity
  8
0
100
AcDbBlockBegin
  2
KLON36
 70
     0
 71
     0
 10
0.0
 20
0.0
 30
0.0
  3
KLON36
  1

  4
KLON36
  0
LINE
  5
70B
330
708
100
AcDbEntity
  8
LC-002-100-D00-0
 62
     7
370
    25
100
AcDbLine
 10
-155.904372
 20
429.610759
 30
0.0
 11
-154.404372
 21
431.110759
 31
0.0
  0
LINE
  5
70C
330
708
100
AcDbEntity
  8
LC-002-100-D00-0
 62
     7
370
    25
100
AcDbLine
 10
-155.904372
 20
452.061399
 30
0.0
 11
-153.739406
 21
454.226365
 31
0.0
  0
ENDBLK
  5
70A
330
708
100
AcDbEntity
  8
0
100
AcDbBlockEnd
  0
BLOCK
  5
70F
330
70E
100
AcDbEntity
  8
0
100
AcDbBlockBegin
  2
KLON37
 70
     0
 71
     0
 10
0.0
 20
0.0
 30
0.0
  3
KLON37
  1

  4
KLON37
  0
LINE
  5
711
330
70E
100
AcDbEntity
  8
LC-002-100-D00-0
 62
     7
370
    25
100
AcDbLine
 10
-148.404372
 20
459.561399
 30
0.0
 11
-146.904372
 21
461.061399
 31
0.0
  0
LINE
  5
712
330
70E
100
AcDbEntity
  8
LC-002-100-D00-0
 62
     7
370
    25
100
AcDbLine
 10
-129.904372
 20
500.512039
 30
0.0
 11
-128.404372
 21
502.012039
 31
0.0
  0
LINE
  5
713
330
70E
100
AcDbEntity
  8
LC-002-100-D00-0
 62
     7
370
    25
100
AcDbLine
 10
-129.904372
 20
522.96268
 30
0.0
 11
-128.404372
 21
524.46268
 31
0.0
  0
ENDBLK
  5
710
330
70E
100
AcDbEntity
  8
0
100
AcDbBlockEnd
  0
BLOCK
  5
716
330
715
100
AcDbEntity
  8
0
100
AcDbBlockBegin
  2
KLON38
 70
     0
 71
     0
 10
0.0
 20
0.0
 30
0.0
  3
KLON38
  1

  4
KLON38
  0
LINE
  5
718
330
715
100
AcDbEntity
  8
LC-002-100-D00-0
 62
     7
370
    25
100
AcDbLine
 10
-200.704372
 20
452.16268
 30
0.0
 11
-199.204372
 21
453.66268
 31
0.0
  0
LINE
  5
719
330
715
100
AcDbEntity
  8
LC-002-100-D00-0
 62
     7
370
    25
100
AcDbLine
 10
-201.904372
 20
473.41332
 30
0.0
 11
-200.404372
 21
474.91332
 31
0.0
  0
LINE
  5
71A
330
715
100
AcDbEntity
  8
LC-002-100-D00-0
 62
     7
370
    25
100
AcDbLine
 10
-217.541968
 20
480.226365
 30
0.0
 11
-216.041968
 21
481.726365
 31
0.0
  0
LINE
  5
71B
330
715
100
AcDbEntity
  8
LC-002-100-D00-0
 62
     7
370
    25
100
AcDbLine
 10
-239.992608
 20
480.226365
 30
0.0
 11
-238.492608
 21
481.726365
 31
0.0
  0
ENDBLK
  5
717
330
715
100
AcDbEntity
  8
0
100
AcDbBlockEnd
  0
BLOCK
  5
729
330
71E
100
AcDbEntity
  8
0
100
AcDbBlockBegin
  2
*D62
 70
     1
 71
     0
 10
0.0
 20
0.0
 30
0.0
  3
*D62
  1

  0
LINE
  5
71F
330
71E
100
AcDbEntity
  8
LC-002-100-D00-0
 62
     2
370
    -2
100
AcDbLine
 10
-154.404372
 20
423.726365
 30
0.0
 11
-87.001776
 21
423.726365
 31
0.0
  0
LINE
  5
720
330
71E
100
AcDbEntity
  8
LC-002-100-D00-0
 62
     2
370
    -2
100
AcDbLine
 10
-169.911515
 20
447.726365
 30
0.0
 11
-87.001776
 21
447.726365
 31
0.0
  0
LINE
  5
721
330
71E
100
AcDbEntity
  8
LC-002-100-D00-0
 62
     2
370
    -2
100
AcDbLine
 10
-96.001776
 20
497.726365
 30
0.0
 11
-96.001776
 21
547.726365
 31
0.0
  0
LINE
  5
722
330
71E
100
AcDbEntity
  8
LC-002-100-D00-0
 62
     2
370
    -2
100
AcDbLine
 10
-96.001776
 20
373.726365
 30
0.0
 11
-96.001776
 21
345.852122
 31
0.0
  0
SOLID
  5
723
330
71E
100
AcDbEntity
  8
LC-002-100-D00-0
 62
     2
100
AcDbTrace
 10
-87.668443
 20
373.726365
 30
0.0
 11
-104.33511
 21
373.726365
 31
0.0
 12
-96.001776
 22
423.726365
 32
0.0
 13
-96.001776
 23
423.726365
 33
0.0
  0
SOLID
  5
724
330
71E
100
AcDbEntity
  8
LC-002-100-D00-0
 62
     2
100
AcDbTrace
 10
-104.33511
 20
497.726365
 30
0.0
 11
-87.668443
 21
497.726365
 31
0.0
 12
-96.001776
 22
447.726365
 32
0.0
 13
-96.001776
 23
447.726365
 33
0.0
  0
MTEXT
  5
725
330
71E
100
AcDbEntity
  8
LC-002-100-D00-0
 62
     2
100
AcDbMText
 10
-151.001776
 20
388.918365
 30
0.0
 40
50.0
 41
0.0
 71
     5
 72
     1
  1
\A1;24
  7
LCTX15-400-0-0pDIN-Schrift
 11
6.123031769111886E-17
 21
1.0
 31
0.0
 73
     1
 44
1.0
  0
POINT
  5
726
330
71E
100
AcDbEntity
  8
Defpoints
 62
     0
100
AcDbPoint
 10
-154.404372
 20
423.726365
 30
0.0
  0
POINT
  5
727
330
71E
100
AcDbEntity
  8
Defpoints
 62
     0
100
AcDbPoint
 10
-169.911515
 20
447.726365
 30
0.0
  0
POINT
  5
728
330
71E
100
AcDbEntity
  8
Defpoints
 62
     0
100
AcDbPoint
 10
-96.001776
 20
447.726365
 30
0.0
  0
ENDBLK
  5
72A
330
71E
100
AcDbEntity
  8
0
100
AcDbBlockEnd
  0
BLOCK
  5
737
330
72C
100
AcDbEntity
  8
0
100
AcDbBlockBegin
  2
*D63
 70
     1
 71
     0
 10
0.0
 20
0.0
 30
0.0
  3
*D63
  1

  0
LINE
  5
72D
330
72C
100
AcDbEntity
  8
LC-002-100-D00-0
 62
     2
370
    -2
100
AcDbLine
 10
-277.404372
 20
463.677205
 30
0.0
 11
-347.603933
 21
463.677205
 31
0.0
  0
LINE
  5
72E
330
72C
100
AcDbEntity
  8
LC-002-100-D00-0
 62
     2
370
    -2
100
AcDbLine
 10
-277.404372
 20
413.775525
 30
0.0
 11
-347.603933
 21
413.775525
 31
0.0
  0
LINE
  5
72F
330
72C
100
AcDbEntity
  8
LC-002-100-D00-0
 62
     2
370
    -2
100
AcDbLine
 10
-338.603933
 20
363.775525
 30
0.0
 11
-338.603933
 21
313.775525
 31
0.0
  0
LINE
  5
730
330
72C
100
AcDbEntity
  8
LC-002-100-D00-0
 62
     2
370
    -2
100
AcDbLine
 10
-338.603933
 20
513.677205
 30
0.0
 11
-338.603933
 21
612.786228
 31
0.0
  0
SOLID
  5
731
330
72C
100
AcDbEntity
  8
LC-002-100-D00-0
 62
     2
100
AcDbTrace
 10
-346.937266
 20
513.677205
 30
0.0
 11
-330.270599
 21
513.677205
 31
0.0
 12
-338.603933
 22
463.677205
 32
0.0
 13
-338.603933
 23
463.677205
 33
0.0
  0
SOLID
  5
732
330
72C
100
AcDbEntity
  8
LC-002-100-D00-0
 62
     2
100
AcDbTrace
 10
-330.270599
 20
363.775525
 30
0.0
 11
-346.937266
 21
363.775525
 31
0.0
 12
-338.603933
 22
413.775525
 32
0.0
 13
-338.603933
 23
413.775525
 33
0.0
  0
MTEXT
  5
733
330
72C
100
AcDbEntity
  8
LC-002-100-D00-0
 62
     2
100
AcDbMText
 10
-393.603933
 20
528.434875
 30
0.0
 40
50.0
 41
0.0
 71
     5
 72
     1
  1
\A1;DN50
  7
LCTX15-400-0-0pDIN-Schrift
 11
6.123031769111886E-17
 21
1.0
 31
0.0
 73
     1
 44
1.0
  0
POINT
  5
734
330
72C
100
AcDbEntity
  8
Defpoints
 62
     0
100
AcDbPoint
 10
-277.404372
 20
463.677205
 30
0.0
  0
POINT
  5
735
330
72C
100
AcDbEntity
  8
Defpoints
 62
     0
100
AcDbPoint
 10
-277.404372
 20
413.775525
 30
0.0
  0
POINT
  5
736
330
72C
100
AcDbEntity
  8
Defpoints
 62
     0
100
AcDbPoint
 10
-338.603933
 20
413.775525
 30
0.0
  0
ENDBLK
  5
738
330
72C
100
AcDbEntity
  8
0
100
AcDbBlockEnd
  0
BLOCK
  5
745
330
73B
100
AcDbEntity
  8
0
100
AcDbBlockBegin
  2
*D64
 70
     1
 71
     0
 10
0.0
 20
0.0
 30
0.0
  3
*D64
  1

  0
LINE
  5
73C
330
73B
100
AcDbEntity
  8
LC-002-100-D00-0
 62
     2
370
    -2
100
AcDbLine
 10
-251.904372
 20
481.726365
 30
0.0
 11
-470.065024
 21
481.726365
 31
0.0
  0
LINE
  5
73D
330
73B
100
AcDbEntity
  8
LC-002-100-D00-0
 62
     2
370
    -2
100
AcDbLine
 10
-248.404372
 20
352.226365
 30
0.0
 11
-470.065024
 21
352.226365
 31
0.0
  0
LINE
  5
73E
330
73B
100
AcDbEntity
  8
LC-002-100-D00-0
 62
     2
370
    -2
100
AcDbLine
 10
-461.065024
 20
431.726365
 30
0.0
 11
-461.065024
 21
402.226365
 31
0.0
  0
SOLID
  5
73F
330
73B
100
AcDbEntity
  8
LC-002-100-D00-0
 62
     2
100
AcDbTrace
 10
-452.731691
 20
431.726365
 30
0.0
 11
-469.398357
 21
431.726365
 31
0.0
 12
-461.065024
 22
481.726365
 32
0.0
 13
-461.065024
 23
481.726365
 33
0.0
  0
SOLID
  5
740
330
73B
100
AcDbEntity
  8
LC-002-100-D00-0
 62
     2
100
AcDbTrace
 10
-469.398357
 20
402.226365
 30
0.0
 11
-452.731691
 21
402.226365
 31
0.0
 12
-461.065024
 22
352.226365
 32
0.0
 13
-461.065024
 23
352.226365
 33
0.0
  0
MTEXT
  5
741
330
73B
100
AcDbEntity
  8
LC-002-100-D00-0
 62
     2
100
AcDbMText
 10
-516.065024
 20
448.244875
 30
0.0
 40
50.0
 41
0.0
 71
     5
 72
     1
  1
\A1;68-129,5
  7
LCTX15-400-0-0pDIN-Schrift
 11
6.123031769111886E-17
 21
1.0
 31
0.0
 73
     1
 44
1.0
  0
POINT
  5
742
330
73B
100
AcDbEntity
  8
Defpoints
 62
     0
100
AcDbPoint
 10
-251.904372
 20
481.726365
 30
0.0
  0
POINT
  5
743
330
73B
100
AcDbEntity
  8
Defpoints
 62
     0
100
AcDbPoint
 10
-248.404372
 20
352.226365
 30
0.0
  0
POINT
  5
744
330
73B
100
AcDbEntity
  8
Defpoints
 62
     0
100
AcDbPoint
 10
-461.065024
 20
352.226365
 30
0.0
  0
ENDBLK
  5
746
330
73B
100
AcDbEntity
  8
0
100
AcDbBlockEnd
  0
BLOCK
  5
757
330
74C
100
AcDbEntity
  8
0
100
AcDbBlockBegin
  2
*D65
 70
     1
 71
     0
 10
0.0
 20
0.0
 30
0.0
  3
*D65
  1

  0
LINE
  5
74D
330
74C
100
AcDbEntity
  8
LC-003-003-----0
 62
     2
370
    -2
100
AcDbLine
 10
-280.404371
 20
416.782244
 30
0.0
 11
-280.404371
 21
255.104875
 31
0.0
  0
LINE
  5
74E
330
74C
100
AcDbEntity
  8
LC-003-003-----0
 62
     2
370
    -2
100
AcDbLine
 10
-174.404372
 20
416.726365
 30
0.0
 11
-174.404372
 21
255.104875
 31
0.0
  0
LINE
  5
74F
330
74C
100
AcDbEntity
  8
LC-003-003-----0
 62
     2
370
    -2
100
AcDbLine
 10
-124.404372
 20
264.104875
 30
0.0
 11
-74.404372
 21
264.104875
 31
0.0
  0
LINE
  5
750
330
74C
100
AcDbEntity
  8
LC-003-003-----0
 62
     2
370
    -2
100
AcDbLine
 10
-330.404371
 20
264.104875
 30
0.0
 11
-429.311413
 21
264.104875
 31
0.0
  0
SOLID
  5
751
330
74C
100
AcDbEntity
  8
LC-003-003-----0
 62
     2
100
AcDbTrace
 10
-330.404371
 20
255.771542
 30
0.0
 11
-330.404371
 21
272.438208
 31
0.0
 12
-280.404371
 22
264.104875
 32
0.0
 13
-280.404371
 23
264.104875
 33
0.0
  0
SOLID
  5
752
330
74C
100
AcDbEntity
  8
LC-003-003-----0
 62
     2
100
AcDbTrace
 10
-124.404372
 20
272.438208
 30
0.0
 11
-124.404372
 21
255.771542
 31
0.0
 12
-174.404372
 22
264.104875
 32
0.0
 13
-174.404372
 23
264.104875
 33
0.0
  0
MTEXT
  5
753
330
74C
100
AcDbEntity
  8
LC-003-003-----0
 62
     2
100
AcDbMText
 10
-373.212502
 20
319.104875
 30
0.0
 40
50.0
 41
0.0
 71
     5
 72
     1
  1
\A1;106
  7
LCTX15-400-0-0pDIN-Schrift
 73
     1
 44
1.0
  0
POINT
  5
754
330
74C
100
AcDbEntity
  8
Defpoints
 62
     0
100
AcDbPoint
 10
-280.404371
 20
416.782244
 30
0.0
  0
POINT
  5
755
330
74C
100
AcDbEntity
  8
Defpoints
 62
     0
100
AcDbPoint
 10
-174.404372
 20
416.726365
 30
0.0
  0
POINT
  5
756
330
74C
100
AcDbEntity
  8
Defpoints
 62
     0
100
AcDbPoint
 10
-174.404372
 20
264.104875
 30
0.0
  0
ENDBLK
  5
758
330
74C
100
AcDbEntity
  8
0
100
AcDbBlockEnd
  0
BLOCK
  5
764
330
75A
100
AcDbEntity
  8
0
100
AcDbBlockBegin
  2
*D66
 70
     1
 71
     0
 10
0.0
 20
0.0
 30
0.0
  3
*D66
  1

  0
LINE
  5
75B
330
75A
100
AcDbEntity
  8
LC-003-003-----0
 62
     2
370
    -2
100
AcDbLine
 10
-280.404371
 20
416.782244
 30
0.0
 11
-280.404371
 21
168.974875
 31
0.0
  0
LINE
  5
75C
330
75A
100
AcDbEntity
  8
LC-003-003-----0
 62
     2
370
    -2
100
AcDbLine
 10
-134.404373
 20
428.660117
 30
0.0
 11
-134.404373
 21
168.974875
 31
0.0
  0
LINE
  5
75D
330
75A
100
AcDbEntity
  8
LC-003-003-----0
 62
     2
370
    -2
100
AcDbLine
 10
-230.404371
 20
177.974875
 30
0.0
 11
-184.404373
 21
177.974875
 31
0.0
  0
SOLID
  5
75E
330
75A
100
AcDbEntity
  8
LC-003-003-----0
 62
     2
100
AcDbTrace
 10
-230.404371
 20
186.308208
 30
0.0
 11
-230.404371
 21
169.641542
 31
0.0
 12
-280.404371
 22
177.974875
 32
0.0
 13
-280.404371
 23
177.974875
 33
0.0
  0
SOLID
  5
75F
330
75A
100
AcDbEntity
  8
LC-003-003-----0
 62
     2
100
AcDbTrace
 10
-184.404373
 20
169.641542
 30
0.0
 11
-184.404373
 21
186.308208
 31
0.0
 12
-134.404373
 22
177.974875
 32
0.0
 13
-134.404373
 23
177.974875
 33
0.0
  0
MTEXT
  5
760
330
75A
100
AcDbEntity
  8
LC-003-003-----0
 62
     2
100
AcDbMText
 10
-210.818446
 20
232.974875
 30
0.0
 40
50.0
 41
0.0
 71
     5
 72
     1
  1
\A1;146
  7
LCTX15-400-0-0pDIN-Schrift
 73
     1
 44
1.0
  0
POINT
  5
761
330
75A
100
AcDbEntity
  8
Defpoints
 62
     0
100
AcDbPoint
 10
-280.404371
 20
416.782244
 30
0.0
  0
POINT
  5
762
330
75A
100
AcDbEntity
  8
Defpoints
 62
     0
100
AcDbPoint
 10
-134.404373
 20
428.660117
 30
0.0
  0
POINT
  5
763
330
75A
100
AcDbEntity
  8
Defpoints
 62
     0
100
AcDbPoint
 10
-134.404373
 20
177.974875
 30
0.0
  0
ENDBLK
  5
765
330
75A
100
AcDbEntity
  8
0
100
AcDbBlockEnd
  0
ENDSEC
  0
SECTION
  2
ENTITIES
  0
LINE
  5
31
330
1F
100
AcDbEntity
  8
LC-001-002-----0
 62
     7
370
    25
100
AcDbLine
 10
543.21972
 20
413.726361
 30
0.0
 11
443.21972
 21
413.726361
 31
0.0
  0
LINE
  5
33
330
1F
100
AcDbEntity
  8
LC-002-100-D00-0
 62
     7
370
    50
100
AcDbLine
 10
779.719714
 20
174.210775
 30
0.0
 11
779.719714
 21
172.710775
 31
0.0
  0
LINE
  5
34
330
1F
100
AcDbEntity
  8
LC-002-100-D00-0
 62
     7
370
    50
100
AcDbLine
 10
779.719714
 20
172.710775
 30
0.0
 11
774.719714
 21
172.710775
 31
0.0
  0
LINE
  5
35
330
1F
100
AcDbEntity
  8
LC-002-100-D00-0
 62
     7
370
    50
100
AcDbLine
 10
774.719714
 20
174.210775
 30
0.0
 11
779.719714
 21
174.210775
 31
0.0
  0
LINE
  5
36
330
1F
100
AcDbEntity
  8
LC-002-100-D00-0
 62
     7
370
    50
100
AcDbLine
 10
-15.280286
 20
172.710775
 30
0.0
 11
774.719714
 21
172.710775
 31
0.0
  0
LINE
  5
37
330
1F
100
AcDbEntity
  8
LC-002-100-D00-0
 62
     7
370
    50
100
AcDbLine
 10
-15.280286
 20
174.210775
 30
0.0
 11
774.719714
 21
174.210775
 31
0.0
  0
LINE
  5
38
330
1F
100
AcDbEntity
  8
LC-002-100-D00-0
 62
     7
370
    50
100
AcDbLine
 10
-20.280286
 20
172.710775
 30
0.0
 11
-20.280286
 21
174.210775
 31
0.0
  0
LINE
  5
39
330
1F
100
AcDbEntity
  8
LC-002-100-D00-0
 62
     7
370
    50
100
AcDbLine
 10
-15.280286
 20
172.710775
 30
0.0
 11
-20.280286
 21
172.710775
 31
0.0
  0
LINE
  5
3A
330
1F
100
AcDbEntity
  8
LC-002-100-D00-0
 62
     7
370
    50
100
AcDbLine
 10
-20.280286
 20
174.210775
 30
0.0
 11
-15.280286
 21
174.210775
 31
0.0
  0
LINE
  5
3B
330
1F
100
AcDbEntity
  8
LC-002-100-D00-0
 62
     7
370
    50
100
AcDbLine
 10
-20.280286
 20
171.210775
 30
0.0
 11
-20.280286
 21
172.710775
 31
0.0
  0
LINE
  5
3C
330
1F
100
AcDbEntity
  8
LC-002-100-D00-0
 62
     7
370
    50
100
AcDbLine
 10
779.719714
 20
172.710775
 30
0.0
 11
779.719714
 21
171.210775
 31
0.0
  0
ARC
  5
3D
330
1F
100
AcDbEntity
  8
LC-002-100-D00-0
 62
     7
370
    50
100
AcDbCircle
 10
727.219714
 20
104.710775
 30
0.0
 40
2.5
100
AcDbArc
 50
270.0
 51
0.0
  0
ARC
  5
3E
330
1F
100
AcDbEntity
  8
LC-002-100-D00-0
 62
     7
370
    50
100
AcDbCircle
 10
727.219714
 20
151.710775
 30
0.0
 40
2.5
100
AcDbArc
 50
0.0
 51
90.0
  0
LINE
  5
3F
330
1F
100
AcDbEntity
  8
LC-002-100-D00-0
 62
     7
370
    50
100
AcDbLine
 10
729.719714
 20
104.710775
 30
0.0
 11
729.719714
 21
151.710775
 31
0.0
  0
LINE
  5
40
330
1F
100
AcDbEntity
  8
LC-002-100-D00-0
 62
     7
370
    50
100
AcDbLine
 10
727.219714
 20
102.210775
 30
0.0
 11
32.219714
 21
102.210775
 31
0.0
  0
LINE
  5
41
330
1F
100
AcDbEntity
  8
LC-002-100-D00-0
 62
     7
370
    50
100
AcDbLine
 10
32.219714
 20
154.210775
 30
0.0
 11
727.219714
 21
154.210775
 31
0.0
  0
ARC
  5
42
330
1F
100
AcDbEntity
  8
LC-002-100-D00-0
 62
     7
370
    50
100
AcDbCircle
 10
32.219714
 20
151.710775
 30
0.0
 40
2.5
100
AcDbArc
 50
90.0
 51
180.0
  0
ARC
  5
43
330
1F
100
AcDbEntity
  8
LC-002-100-D00-0
 62
     7
370
    50
100
AcDbCircle
 10
32.219714
 20
104.710775
 30
0.0
 40
2.5
100
AcDbArc
 50
180.0
 51
270.0
  0
LINE
  5
44
330
1F
100
AcDbEntity
  8
LC-002-100-D00-0
 62
     7
370
    50
100
AcDbLine
 10
29.719714
 20
104.710775
 30
0.0
 11
29.719714
 21
151.710775
 31
0.0
  0
LINE
  5
45
330
1F
100
AcDbEntity
  8
LC-002-100-D00-0
 62
     7
370
    50
100
AcDbLine
 10
-15.280286
 20
50.710775
 30
0.0
 11
774.719714
 21
50.710775
 31
0.0
  0
ARC
  5
46
330
1F
100
AcDbEntity
  8
LC-002-100-D00-0
 62
     7
370
    50
100
AcDbCircle
 10
-15.280286
 20
55.710775
 30
0.0
 40
5.0
100
AcDbArc
 50
180.0
 51
270.0
  0
ARC
  5
47
330
1F
100
AcDbEntity
  8
LC-002-100-D00-0
 62
     7
370
    50
100
AcDbCircle
 10
774.719714
 20
55.710775
 30
0.0
 40
5.0
100
AcDbArc
 50
270.0
 51
0.0
  0
LINE
  5
48
330
1F
100
AcDbEntity
  8
LC-002-100-D00-0
 62
     7
370
    50
100
AcDbLine
 10
-20.280286
 20
171.210775
 30
0.0
 11
-20.280286
 21
55.710775
 31
0.0
  0
LINE
  5
49
330
1F
100
AcDbEntity
  8
LC-002-100-D00-0
 62
     7
370
    50
100
AcDbLine
 10
779.719714
 20
171.210775
 30
0.0
 11
779.719714
 21
55.710775
 31
0.0
  0
CIRCLE
  5
4A
330
1F
100
AcDbEntity
  8
LC-002-100-D00-0
 62
     7
370
    50
100
AcDbCircle
 10
699.719714
 20
128.210775
 30
0.0
 40
3.000000000000114
  0
CIRCLE
  5
4B
330
1F
100
AcDbEntity
  8
LC-002-100-D00-0
 62
     7
370
    50
100
AcDbCircle
 10
589.719714
 20
128.210775
 30
0.0
 40
3.000000000000341
  0
CIRCLE
  5
4C
330
1F
100
AcDbEntity
  8
LC-002-100-D00-0
 62
     7
370
    50
100
AcDbCircle
 10
479.719714
 20
128.210775
 30
0.0
 40
2.999999999999886
  0
CIRCLE
  5
4D
330
1F
100
AcDbEntity
  8
LC-002-100-D00-0
 62
     7
370
    50
100
AcDbCircle
 10
279.719714
 20
128.210775
 30
0.0
 40
3.000000000000114
  0
CIRCLE
  5
4E
330
1F
100
AcDbEntity
  8
LC-002-100-D00-0
 62
     7
370
    50
100
AcDbCircle
 10
169.719714
 20
128.210775
 30
0.0
 40
3.000000000000114
  0
CIRCLE
  5
4F
330
1F
100
AcDbEntity
  8
LC-002-100-D00-0
 62
     7
370
    50
100
AcDbCircle
 10
59.719714
 20
128.210775
 30
0.0
 40
3.000000000000114
  0
LINE
  5
50
330
1F
100
AcDbEntity
  8
LC-002-100-D00-0
 62
     7
370
    50
100
AcDbLine
 10
721.693525
 20
115.888106
 30
0.0
 11
721.693525
 21
104.710775
 31
0.0
  0
ARC
  5
51
330
1F
100
AcDbEntity
  8
LC-002-100-D00-0
 62
     7
370
    50
100
AcDbCircle
 10
1725.700197
 20
-41.072441
 30
0.0
 40
1016.201755851977
100
AcDbArc
 50
171.105076
 51
171.114633
  0
INSERT
  5
59
330
1F
100
AcDbEntity
  8
LC-002-100-D00-0
 62
     7
370
    50
100
AcDbBlockReference
  2
KLON1
 10
0.0
 20
0.0
 30
0.0
  0
LINE
  5
5A
330
1F
100
AcDbEntity
  8
LC-002-100-D00-0
 62
     7
370
    50
100
AcDbLine
 10
721.693525
 20
151.696135
 30
0.0
 11
721.693525
 21
140.533444
 31
0.0
  0
INSERT
  5
60
330
1F
100
AcDbEntity
  8
LC-002-100-D00-0
 62
     7
370
    50
100
AcDbBlockReference
  2
KLON2
 10
0.0
 20
0.0
 30
0.0
  0
INSERT
  5
66
330
1F
100
AcDbEntity
  8
LC-002-100-D00-0
 62
     7
370
    50
100
AcDbBlockReference
  2
KLON3
 10
0.0
 20
0.0
 30
0.0
  0
INSERT
  5
6C
330
1F
100
AcDbEntity
  8
LC-002-100-D00-0
 62
     7
370
    50
100
AcDbBlockReference
  2
KLON4
 10
0.0
 20
0.0
 30
0.0
  0
LINE
  5
6D
330
1F
100
AcDbEntity
  8
LC-002-100-D00-0
 62
     7
370
    50
100
AcDbLine
 10
37.745903
 20
151.696135
 30
0.0
 11
37.745903
 21
140.533444
 31
0.0
  0
INSERT
  5
75
330
1F
100
AcDbEntity
  8
LC-002-100-D00-0
 62
     7
370
    50
100
AcDbBlockReference
  2
KLON5
 10
0.0
 20
0.0
 30
0.0
  0
ARC
  5
76
330
1F
100
AcDbEntity
  8
LC-002-100-D00-0
 62
     7
370
    50
100
AcDbCircle
 10
-966.260768
 20
-41.072441
 30
0.0
 40
1016.201755852208
100
AcDbArc
 50
8.885367
 51
8.894924
  0
LINE
  5
77
330
1F
100
AcDbEntity
  8
LC-002-100-D00-0
 62
     7
370
    50
100
AcDbLine
 10
37.745903
 20
115.888106
 30
0.0
 11
37.745903
 21
104.710775
 31
0.0
  0
INSERT
  5
7D
330
1F
100
AcDbEntity
  8
LC-002-100-D00-0
 62
     7
370
    50
100
AcDbBlockReference
  2
KLON6
 10
0.0
 20
0.0
 30
0.0
  0
ELLIPSE
  5
7E
330
1F
100
AcDbEntity
  8
LC-002-100-D00-0
 62
     7
370
    50
100
AcDbEllipse
 10
721.646746
 20
104.710775
 30
0.0
 11
0.0
 21
-2.500000122070309
 31
0.0
210
0.0
220
0.0
230
1.0
 40
0.018242
 41
3.1415926535873
 42
4.712388980377431
  0
ELLIPSE
  5
7F
330
1F
100
AcDbEntity
  8
LC-002-100-D00-0
 62
     7
370
    50
100
AcDbEllipse
 10
584.646746
 20
104.710775
 30
0.0
 11
0.0
 21
-2.5
 31
0.0
210
0.0
220
0.0
230
1.0
 40
0.018242
 41
3.141592653589793
 42
4.712388980381052
  0
ELLIPSE
  5
80
330
1F
100
AcDbEntity
  8
LC-002-100-D00-0
 62
     7
370
    50
100
AcDbEllipse
 10
790.192351
 20
104.710775
 30
0.0
 11
68.50000000492467
 21
0.0
 31
0.0
210
0.0
220
0.0
230
0.9999999999999999
 40
0.036496
 41
3.141592653597296
 42
3.169858841660642
  0
ELLIPSE
  5
81
330
1F
100
AcDbEntity
  8
LC-002-100-D00-0
 62
     7
370
    50
100
AcDbEllipse
 10
37.792682
 20
104.710775
 30
0.0
 11
0.0
 21
-2.499999877929684
 31
0.0
210
0.0
220
0.0
230
1.0
 40
0.018242
 41
1.570796326801951
 42
3.141592653597427
  0
ELLIPSE
  5
82
330
1F
100
AcDbEntity
  8
LC-002-100-D00-0
 62
     7
370
    50
100
AcDbEllipse
 10
174.792682
 20
104.710775
 30
0.0
 11
0.0
 21
-2.500000007629394
 31
0.0
210
0.0
220
0.0
230
1.0
 40
0.018242
 41
1.570796326798529
 42
3.14159265358917
  0
ELLIPSE
  5
83
330
1F
100
AcDbEntity
  8
LC-002-100-D00-0
 62
     7
370
    50
100
AcDbEllipse
 10
-30.752923
 20
104.710775
 30
0.0
 11
68.50000000734899
 21
0.0
 31
0.0
210
0.0
220
0.0
230
1.0
 40
0.036496
 41
6.254919119109327
 42
6.283185307179484
  0
ELLIPSE
  5
84
330
1F
100
AcDbEntity
  8
LC-002-100-D00-0
 62
     7
370
    50
100
AcDbEllipse
 10
790.192351
 20
151.710775
 30
0.0
 11
68.50000000005083
 21
0.0
 31
0.0
210
0.0
220
0.0
230
1.0
 40
0.036496
 41
3.141592653589827
 42
3.147448628039438
  0
ELLIPSE
  5
85
330
1F
100
AcDbEntity
  8
LC-002-100-D00-0
 62
     7
370
    50
100
AcDbEllipse
 10
721.646746
 20
151.710775
 30
0.0
 11
0.0
 21
-2.499999511718702
 31
0.0
210
0.0
220
0.0
230
1.0
 40
0.018242
 41
4.712388980384542
 42
6.283185358115899
  0
ELLIPSE
  5
86
330
1F
100
AcDbEntity
  8
LC-002-100-D00-0
 62
     7
370
    50
100
AcDbEllipse
 10
-30.752923
 20
151.710775
 30
0.0
 11
68.50000001061532
 21
0.0
 31
0.0
210
0.0
220
0.0
230
1.0
 40
0.036496
 41
6.277329332730448
 42
6.283185307179382
  0
ELLIPSE
  5
87
330
1F
100
AcDbEntity
  8
LC-002-100-D00-0
 62
     7
370
    50
100
AcDbEllipse
 10
37.792682
 20
151.710775
 30
0.0
 11
0.0
 21
-2.500000015258789
 31
0.0
210
0.0
220
0.0
230
1.0
 40
0.018242
 41
6.283185256224588
 42
7.853981633974483
  0
ELLIPSE
  5
88
330
1F
100
AcDbEntity
  8
LC-002-100-D00-0
 62
     7
370
    50
100
AcDbEllipse
 10
584.646746
 20
151.710775
 30
0.0
 11
0.0
 21
-2.500000091552733
 31
0.0
210
0.0
220
0.0
230
0.9999999999999999
 40
0.018242
 41
4.712388980388339
 42
6.283185315326204
  0
ELLIPSE
  5
89
330
1F
100
AcDbEntity
  8
LC-002-100-D00-0
 62
     7
370
    50
100
AcDbEllipse
 10
174.792682
 20
151.710775
 30
0.0
 11
0.0
 21
-2.499999900817869
 31
0.0
210
0.0
220
0.0
230
0.9999999999999999
 40
0.018242
 41
6.283185299026736
 42
7.853981633970902
  0
LINE
  5
8A
330
1F
100
AcDbEntity
  8
LC-002-100-D00-0
 62
     7
370
    50
100
AcDbLine
 10
584.692354
 20
104.710775
 30
0.0
 11
584.692354
 21
107.561291
 31
0.0
  0
INSERT
  5
90
330
1F
100
AcDbEntity
  8
LC-002-100-D00-0
 62
     7
370
    50
100
AcDbBlockReference
  2
KLON7
 10
0.0
 20
0.0
 30
0.0
  0
INSERT
  5
96
330
1F
100
AcDbEntity
  8
LC-002-100-D00-0
 62
     7
370
    50
100
AcDbBlockReference
  2
KLON8
 10
0.0
 20
0.0
 30
0.0
  0
LINE
  5
97
330
1F
100
AcDbEntity
  8
LC-002-100-D00-0
 62
     7
370
    50
100
AcDbLine
 10
174.747074
 20
104.710775
 30
0.0
 11
174.747074
 21
107.561291
 31
0.0
  0
INSERT
  5
9D
330
1F
100
AcDbEntity
  8
LC-002-100-D00-0
 62
     7
370
    50
100
AcDbBlockReference
  2
KLON9
 10
0.0
 20
0.0
 30
0.0
  0
INSERT
  5
A3
330
1F
100
AcDbEntity
  8
LC-002-100-D00-0
 62
     7
370
    50
100
AcDbBlockReference
  2
KLON10
 10
0.0
 20
0.0
 30
0.0
  0
LINE
  5
A4
330
1F
100
AcDbEntity
  8
LC-002-100-D00-0
 62
     7
370
    50
100
AcDbLine
 10
584.692354
 20
148.860258
 30
0.0
 11
584.692354
 21
151.710774
 31
0.0
  0
LINE
  5
A5
330
1F
100
AcDbEntity
  8
LC-002-100-D00-0
 62
     7
370
    50
100
AcDbLine
 10
174.747074
 20
148.860258
 30
0.0
 11
174.747074
 21
151.710774
 31
0.0
  0
LINE
  5
A6
330
1F
100
AcDbEntity
  8
LC-002-100-D00-0
 62
     7
370
    50
100
AcDbLine
 10
584.706629
 20
108.355097
 30
0.0
 11
584.706629
 21
109.960775
 31
0.0
  0
ELLIPSE
  5
A7
330
1F
100
AcDbEntity
  8
LC-002-100-D00-0
 62
     7
370
    15
100
AcDbEllipse
 10
167.075833
 20
173.740178
 30
0.0
 11
28.64933028568108
 21
1.713494946932265
 31
0.0
210
0.0
220
0.0
230
1.0
 40
0.016531
 41
6.280994665943315
 42
6.282196627520814
  0
ELLIPSE
  5
A8
330
1F
100
AcDbEntity
  8
LC-002-100-D00-0
 62
     7
370
    15
100
AcDbEllipse
 10
167.075833
 20
185.108501
 30
0.0
 11
28.64933023820887
 21
-1.713494944093046
 31
0.0
210
0.0
220
0.0
230
1.0
 40
0.016531
 41
0.0009886796687196
 42
0.002190641246225
  0
LINE
  5
A9
330
1F
100
AcDbEntity
  8
LC-002-100-D00-0
 62
     7
370
    50
100
AcDbLine
 10
584.706629
 20
146.460774
 30
0.0
 11
584.706629
 21
148.066453
 31
0.0
  0
ELLIPSE
  5
AA
330
1F
100
AcDbEntity
  8
LC-002-100-D00-0
 62
     7
370
    15
100
AcDbEllipse
 10
142.379758
 20
173.740178
 30
0.0
 11
28.64933025733443
 21
-1.713494945236874
 31
0.0
210
0.0
220
0.0
230
1.0
 40
0.016531
 41
3.142581333254806
 42
3.143783294832454
  0
LINE
  5
AB
330
1F
100
AcDbEntity
  8
LC-002-100-D00-0
 62
     7
370
    50
100
AcDbLine
 10
174.732799
 20
108.355097
 30
0.0
 11
174.732799
 21
109.960775
 31
0.0
  0
ELLIPSE
  5
AC
330
1F
100
AcDbEntity
  8
LC-002-100-D00-0
 62
     7
370
    15
100
AcDbEllipse
 10
142.379758
 20
185.108501
 30
0.0
 11
28.64933027270312
 21
1.713494946156115
 31
0.0
210
0.0
220
0.0
230
1.0
 40
0.016531
 41
3.139402012350725
 42
3.140603973928257
  0
LINE
  5
AD
330
1F
100
AcDbEntity
  8
LC-002-100-D00-0
 62
     7
370
    50
100
AcDbLine
 10
174.732799
 20
146.460774
 30
0.0
 11
174.732799
 21
148.066453
 31
0.0
  0
LINE
  5
AE
330
1F
100
AcDbEntity
  8
LC-002-100-D00-0
 62
     7
370
    50
100
AcDbLine
 10
584.692354
 20
107.561664
 30
0.0
 11
584.706525
 21
108.352234
 31
0.0
  0
LINE
  5
AF
330
1F
100
AcDbEntity
  8
LC-002-100-D00-0
 62
     7
370
    50
100
AcDbLine
 10
584.692354
 20
148.859886
 30
0.0
 11
584.706525
 21
148.069316
 31
0.0
  0
LINE
  5
B0
330
1F
100
AcDbEntity
  8
LC-002-100-D00-0
 62
     7
370
    50
100
AcDbLine
 10
174.747074
 20
107.561664
 30
0.0
 11
174.732903
 21
108.352234
 31
0.0
  0
LINE
  5
B1
330
1F
100
AcDbEntity
  8
LC-002-100-D00-0
 62
     7
370
    50
100
AcDbLine
 10
174.747074
 20
148.859886
 30
0.0
 11
174.732903
 21
148.069316
 31
0.0
  0
ARC
  5
B2
330
1F
100
AcDbEntity
  8
LC-002-100-D00-0
 62
     7
370
    50
100
AcDbCircle
 10
182.969714
 20
114.960775
 30
0.0
 40
5.0
100
AcDbArc
 50
270.0
 51
0.0
  0
LINE
  5
B3
330
1F
100
AcDbEntity
  8
LC-002-100-D00-0
 62
     7
370
    50
100
AcDbLine
 10
187.969714
 20
141.460775
 30
0.0
 11
187.969714
 21
114.960775
 31
0.0
  0
ARC
  5
B4
330
1F
100
AcDbEntity
  8
LC-002-100-D00-0
 62
     7
370
    50
100
AcDbCircle
 10
182.969714
 20
141.460775
 30
0.0
 40
5.0
100
AcDbArc
 50
0.0
 51
90.0
  0
CIRCLE
  5
B5
330
1F
100
AcDbEntity
  8
LC-002-100-D00-0
 62
     7
370
    50
100
AcDbCircle
 10
169.719714
 20
128.210775
 30
0.0
 40
3.899999999999864
  0
LINE
  5
B6
330
1F
100
AcDbEntity
  8
LC-002-100-D00-0
 62
     7
370
    50
100
AcDbLine
 10
156.469714
 20
146.460775
 30
0.0
 11
182.969714
 21
146.460775
 31
0.0
  0
LINE
  5
B7
330
1F
100
AcDbEntity
  8
LC-002-100-D00-0
 62
     7
370
    50
100
AcDbLine
 10
182.969714
 20
109.960775
 30
0.0
 11
156.469714
 21
109.960775
 31
0.0
  0
ARC
  5
B8
330
1F
100
AcDbEntity
  8
LC-002-100-D00-0
 62
     7
370
    50
100
AcDbCircle
 10
156.469714
 20
114.960775
 30
0.0
 40
5.000000000000341
100
AcDbArc
 50
180.0
 51
270.0
  0
ARC
  5
B9
330
1F
100
AcDbEntity
  8
LC-002-100-D00-0
 62
     7
370
    50
100
AcDbCircle
 10
156.469714
 20
141.460775
 30
0.0
 40
5.0
100
AcDbArc
 50
90.0
 51
180.0
  0
LINE
  5
BA
330
1F
100
AcDbEntity
  8
LC-002-100-D00-0
 62
     7
370
    50
100
AcDbLine
 10
151.469714
 20
114.960775
 30
0.0
 11
151.469714
 21
141.460775
 31
0.0
  0
ARC
  5
BB
330
1F
100
AcDbEntity
  8
LC-002-100-D00-0
 62
     7
370
    50
100
AcDbCircle
 10
602.969714
 20
114.960775
 30
0.0
 40
5.0
100
AcDbArc
 50
270.0
 51
0.0
  0
LINE
  5
BC
330
1F
100
AcDbEntity
  8
LC-002-100-D00-0
 62
     7
370
    50
100
AcDbLine
 10
607.969714
 20
141.460775
 30
0.0
 11
607.969714
 21
114.960775
 31
0.0
  0
ARC
  5
BD
330
1F
100
AcDbEntity
  8
LC-002-100-D00-0
 62
     7
370
    50
100
AcDbCircle
 10
602.969714
 20
141.460775
 30
0.0
 40
5.0
100
AcDbArc
 50
0.0
 51
90.0
  0
CIRCLE
  5
BE
330
1F
100
AcDbEntity
  8
LC-002-100-D00-0
 62
     7
370
    50
100
AcDbCircle
 10
589.719714
 20
128.210775
 30
0.0
 40
3.900000000000205
  0
LINE
  5
BF
330
1F
100
AcDbEntity
  8
LC-002-100-D00-0
 62
     7
370
    50
100
AcDbLine
 10
576.469714
 20
146.460775
 30
0.0
 11
602.969714
 21
146.460775
 31
0.0
  0
LINE
  5
C0
330
1F
100
AcDbEntity
  8
LC-002-100-D00-0
 62
     7
370
    50
100
AcDbLine
 10
602.969714
 20
109.960775
 30
0.0
 11
576.469714
 21
109.960775
 31
0.0
  0
ARC
  5
C1
330
1F
100
AcDbEntity
  8
LC-002-100-D00-0
 62
     7
370
    50
100
AcDbCircle
 10
576.469714
 20
114.960775
 30
0.0
 40
5.000000000000341
100
AcDbArc
 50
180.0
 51
270.0
  0
ARC
  5
C2
330
1F
100
AcDbEntity
  8
LC-002-100-D00-0
 62
     7
370
    50
100
AcDbCircle
 10
576.469714
 20
141.460775
 30
0.0
 40
5.0
100
AcDbArc
 50
90.0
 51
180.0
  0
LINE
  5
C3
330
1F
100
AcDbEntity
  8
LC-002-100-D00-0
 62
     7
370
    50
100
AcDbLine
 10
571.469714
 20
114.960775
 30
0.0
 11
571.469714
 21
141.460775
 31
0.0
  0
ARC
  5
C4
330
1F
100
AcDbEntity
  8
LC-002-100-D00-0
 62
     7
370
    50
100
AcDbCircle
 10
292.969714
 20
114.960775
 30
0.0
 40
5.0
100
AcDbArc
 50
270.0
 51
0.0
  0
ARC
  5
C5
330
1F
100
AcDbEntity
  8
LC-002-100-D00-0
 62
     7
370
    50
100
AcDbCircle
 10
292.969714
 20
141.460775
 30
0.0
 40
5.0
100
AcDbArc
 50
0.0
 51
90.0
  0
LINE
  5
C6
330
1F
100
AcDbEntity
  8
LC-002-100-D00-0
 62
     7
370
    50
100
AcDbLine
 10
297.969714
 20
141.460775
 30
0.0
 11
297.969714
 21
114.960775
 31
0.0
  0
CIRCLE
  5
C7
330
1F
100
AcDbEntity
  8
LC-002-100-D00-0
 62
     7
370
    50
100
AcDbCircle
 10
279.719714
 20
128.210775
 30
0.0
 40
3.900000000000205
  0
LINE
  5
C8
330
1F
100
AcDbEntity
  8
LC-002-100-D00-0
 62
     7
370
    50
100
AcDbLine
 10
292.969714
 20
109.960775
 30
0.0
 11
266.469714
 21
109.960775
 31
0.0
  0
LINE
  5
C9
330
1F
100
AcDbEntity
  8
LC-002-100-D00-0
 62
     7
370
    50
100
AcDbLine
 10
266.469714
 20
146.460775
 30
0.0
 11
292.969714
 21
146.460775
 31
0.0
  0
ARC
  5
CA
330
1F
100
AcDbEntity
  8
LC-002-100-D00-0
 62
     7
370
    50
100
AcDbCircle
 10
266.469714
 20
114.960775
 30
0.0
 40
5.0
100
AcDbArc
 50
180.0
 51
270.0
  0
ARC
  5
CB
330
1F
100
AcDbEntity
  8
LC-002-100-D00-0
 62
     7
370
    50
100
AcDbCircle
 10
266.469714
 20
141.460775
 30
0.0
 40
5.0
100
AcDbArc
 50
90.0
 51
180.0
  0
LINE
  5
CC
330
1F
100
AcDbEntity
  8
LC-002-100-D00-0
 62
     7
370
    50
100
AcDbLine
 10
261.469714
 20
114.960775
 30
0.0
 11
261.469714
 21
141.460775
 31
0.0
  0
ARC
  5
CD
330
1F
100
AcDbEntity
  8
LC-002-100-D00-0
 62
     7
370
    50
100
AcDbCircle
 10
72.969714
 20
114.960775
 30
0.0
 40
5.0
100
AcDbArc
 50
270.0
 51
0.0
  0
ARC
  5
CE
330
1F
100
AcDbEntity
  8
LC-002-100-D00-0
 62
     7
370
    50
100
AcDbCircle
 10
72.969714
 20
141.460775
 30
0.0
 40
5.0
100
AcDbArc
 50
0.0
 51
90.0
  0
LINE
  5
CF
330
1F
100
AcDbEntity
  8
LC-002-100-D00-0
 62
     7
370
    50
100
AcDbLine
 10
77.969714
 20
141.460775
 30
0.0
 11
77.969714
 21
114.960775
 31
0.0
  0
CIRCLE
  5
D0
330
1F
100
AcDbEntity
  8
LC-002-100-D00-0
 62
     7
370
    50
100
AcDbCircle
 10
59.719714
 20
128.210775
 30
0.0
 40
3.900000000000205
  0
LINE
  5
D1
330
1F
100
AcDbEntity
  8
LC-002-100-D00-0
 62
     7
370
    50
100
AcDbLine
 10
46.469714
 20
146.460775
 30
0.0
 11
72.969714
 21
146.460775
 31
0.0
  0
LINE
  5
D2
330
1F
100
AcDbEntity
  8
LC-002-100-D00-0
 62
     7
370
    50
100
AcDbLine
 10
72.969714
 20
109.960775
 30
0.0
 11
46.469714
 21
109.960775
 31
0.0
  0
ARC
  5
D3
330
1F
100
AcDbEntity
  8
LC-002-100-D00-0
 62
     7
370
    50
100
AcDbCircle
 10
46.469714
 20
114.960775
 30
0.0
 40
5.0
100
AcDbArc
 50
180.0
 51
270.0
  0
ARC
  5
D4
330
1F
100
AcDbEntity
  8
LC-002-100-D00-0
 62
     7
370
    50
100
AcDbCircle
 10
46.469714
 20
141.460775
 30
0.0
 40
5.0
100
AcDbArc
 50
90.0
 51
180.0
  0
LINE
  5
D5
330
1F
100
AcDbEntity
  8
LC-002-100-D00-0
 62
     7
370
    50
100
AcDbLine
 10
41.469714
 20
114.960775
 30
0.0
 11
41.469714
 21
141.460775
 31
0.0
  0
ARC
  5
D6
330
1F
100
AcDbEntity
  8
LC-002-100-D00-0
 62
     7
370
    50
100
AcDbCircle
 10
492.969714
 20
141.460775
 30
0.0
 40
5.0
100
AcDbArc
 50
0.0
 51
90.0
  0
LINE
  5
D7
330
1F
100
AcDbEntity
  8
LC-002-100-D00-0
 62
     7
370
    50
100
AcDbLine
 10
497.969714
 20
141.460775
 30
0.0
 11
497.969714
 21
114.960775
 31
0.0
  0
ARC
  5
D8
330
1F
100
AcDbEntity
  8
LC-002-100-D00-0
 62
     7
370
    50
100
AcDbCircle
 10
492.969714
 20
114.960775
 30
0.0
 40
5.0
100
AcDbArc
 50
270.0
 51
0.0
  0
CIRCLE
  5
D9
330
1F
100
AcDbEntity
  8
LC-002-100-D00-0
 62
     7
370
    50
100
AcDbCircle
 10
479.719714
 20
128.210775
 30
0.0
 40
3.900000000000205
  0
LINE
  5
DA
330
1F
100
AcDbEntity
  8
LC-002-100-D00-0
 62
     7
370
    50
100
AcDbLine
 10
492.969714
 20
109.960775
 30
0.0
 11
466.469714
 21
109.960775
 31
0.0
  0
LINE
  5
DB
330
1F
100
AcDbEntity
  8
LC-002-100-D00-0
 62
     7
370
    50
100
AcDbLine
 10
466.469714
 20
146.460775
 30
0.0
 11
492.969714
 21
146.460775
 31
0.0
  0
ARC
  5
DC
330
1F
100
AcDbEntity
  8
LC-002-100-D00-0
 62
     7
370
    50
100
AcDbCircle
 10
466.469714
 20
141.460775
 30
0.0
 40
5.0
100
AcDbArc
 50
90.0
 51
180.0
  0
ARC
  5
DD
330
1F
100
AcDbEntity
  8
LC-002-100-D00-0
 62
     7
370
    50
100
AcDbCircle
 10
466.469714
 20
114.960775
 30
0.0
 40
5.0
100
AcDbArc
 50
180.0
 51
270.0
  0
LINE
  5
DE
330
1F
100
AcDbEntity
  8
LC-002-100-D00-0
 62
     7
370
    50
100
AcDbLine
 10
461.469714
 20
114.960775
 30
0.0
 11
461.469714
 21
141.460775
 31
0.0
  0
LINE
  5
DF
330
1F
100
AcDbEntity
  8
LC-002-100-D00-0
 62
     7
370
    50
100
AcDbLine
 10
717.969714
 20
141.460775
 30
0.0
 11
717.969714
 21
114.960775
 31
0.0
  0
ARC
  5
E0
330
1F
100
AcDbEntity
  8
LC-002-100-D00-0
 62
     7
370
    50
100
AcDbCircle
 10
712.969714
 20
114.960775
 30
0.0
 40
5.0
100
AcDbArc
 50
270.0
 51
0.0
  0
ARC
  5
E1
330
1F
100
AcDbEntity
  8
LC-002-100-D00-0
 62
     7
370
    50
100
AcDbCircle
 10
712.969714
 20
141.460775
 30
0.0
 40
5.0
100
AcDbArc
 50
0.0
 51
90.0
  0
CIRCLE
  5
E2
330
1F
100
AcDbEntity
  8
LC-002-100-D00-0
 62
     7
370
    50
100
AcDbCircle
 10
699.719714
 20
128.210775
 30
0.0
 40
3.900000000000205
  0
LINE
  5
E3
330
1F
100
AcDbEntity
  8
LC-002-100-D00-0
 62
     7
370
    50
100
AcDbLine
 10
686.469714
 20
146.460775
 30
0.0
 11
712.969714
 21
146.460775
 31
0.0
  0
LINE
  5
E4
330
1F
100
AcDbEntity
  8
LC-002-100-D00-0
 62
     7
370
    50
100
AcDbLine
 10
712.969714
 20
109.960775
 30
0.0
 11
686.469714
 21
109.960775
 31
0.0
  0
ARC
  5
E5
330
1F
100
AcDbEntity
  8
LC-002-100-D00-0
 62
     7
370
    50
100
AcDbCircle
 10
686.469714
 20
141.460775
 30
0.0
 40
5.0
100
AcDbArc
 50
90.0
 51
180.0
  0
ARC
  5
E6
330
1F
100
AcDbEntity
  8
LC-002-100-D00-0
 62
     7
370
    50
100
AcDbCircle
 10
686.469714
 20
114.960775
 30
0.0
 40
5.0
100
AcDbArc
 50
180.0
 51
270.0
  0
LINE
  5
E7
330
1F
100
AcDbEntity
  8
LC-002-100-D00-0
 62
     7
370
    50
100
AcDbLine
 10
681.469714
 20
114.960775
 30
0.0
 11
681.469714
 21
141.460775
 31
0.0
  0
DIMENSION
  5
EA
330
1F
100
AcDbEntity
  8
LC-002-100-D00-0
 62
     7
370
    25
100
AcDbDimension
  2
*D11
 10
866.991143
 20
172.710775
 30
0.0
 11
811.991143
 21
109.664875
 31
0.0
 70
   160
  1
1,5
 71
     5
 42
1.5
 53
90.0
  3
LC-DIM-L-0100-02-02
100
AcDbAlignedDimension
 13
774.719714
 23
174.210775
 33
0.0
 14
774.719714
 24
172.710775
 34
0.0
 50
90.0
100
AcDbRotatedDimension
  0
DIMENSION
  5
F9
330
1F
100
AcDbEntity
  8
LC-002-100-D00-0
 62
     7
370
    25
100
AcDbDimension
  2
*D12
 10
931.47911
 20
154.210775
 30
0.0
 11
876.47911
 21
130.454875
 31
0.0
 70
   160
  1
18,5
 71
     5
 42
18.5
 53
90.0
  3
LC-DIM-L-0100-02-02
100
AcDbAlignedDimension
 13
774.719714
 23
172.710775
 33
0.0
 14
727.219714
 24
154.210775
 34
0.0
 50
90.0
100
AcDbRotatedDimension
  0
DIMENSION
  5
107
330
1F
100
AcDbEntity
  8
LC-002-100-D00-0
 62
     7
370
    25
100
AcDbDimension
  2
*D13
 10
1016.603227
 20
50.710775
 30
0.0
 11
961.603227
 21
53.234875
 31
0.0
 70
   160
  1
123,5
 71
     5
 42
123.5
 53
90.0
  3
LC-DIM-L-0100-02-02
100
AcDbAlignedDimension
 13
774.719714
 23
174.210775
 33
0.0
 14
774.719714
 24
50.710775
 34
0.0
 50
90.0
100
AcDbRotatedDimension
  0
LINE
  5
115
330
1F
100
AcDbEntity
  8
LC-002-100-D00-0
  6
DASHDOT
 62
     7
370
    25
100
AcDbLine
 10
379.719714
 20
184.210775
 30
0.0
 11
379.719714
 21
22.210776
 31
0.0
  0
LINE
  5
116
330
1F
100
AcDbEntity
  8
LC-002-100-D00-0
  6
DASHDOT
 62
     7
370
    25
100
AcDbLine
 10
737.219714
 20
128.210775
 30
0.0
 11
22.219714
 21
128.210775
 31
0.0
  0
LINE
  5
117
330
1F
100
AcDbEntity
  8
LC-002-100-D00-0
 62
     7
370
    50
100
AcDbLine
 10
696.319715
 20
469.726365
 30
0.0
 11
695.319728
 21
470.726365
 31
0.0
  0
LINE
  5
118
330
1F
100
AcDbEntity
  8
LC-002-100-D00-0
 62
     7
370
    50
100
AcDbLine
 10
696.319715
 20
469.726365
 30
0.0
 11
696.31972
 21
463.726365
 31
0.0
  0
LINE
  5
119
330
1F
100
AcDbEntity
  8
LC-002-100-D00-0
 62
     7
370
    50
100
AcDbLine
 10
695.31972
 20
462.726365
 30
0.0
 11
696.31972
 21
463.726365
 31
0.0
  0
LINE
  5
11A
330
1F
100
AcDbEntity
  8
LC-002-100-D00-0
 62
     7
370
    50
100
AcDbLine
 10
693.368868
 20
464.726364
 30
0.0
 11
693.368868
 21
462.726365
 31
0.0
  0
LINE
  5
11B
330
1F
100
AcDbEntity
  8
LC-002-100-D00-0
 62
     7
370
    50
100
AcDbLine
 10
694.075011
 20
464.915576
 30
0.0
 11
693.368868
 21
464.726364
 31
0.0
  0
ARC
  5
11C
330
1F
100
AcDbEntity
  8
LC-002-100-D00-0
 62
     7
370
    50
100
AcDbCircle
 10
693.91972
 20
465.495131
 30
0.0
 40
0.6000000000000886
100
AcDbArc
 50
285.0
 51
0.0
  0
LINE
  5
11D
330
1F
100
AcDbEntity
  8
LC-002-100-D00-0
 62
     7
370
    50
100
AcDbLine
 10
694.51972
 20
467.957598
 30
0.0
 11
694.51972
 21
465.495131
 31
0.0
  0
ARC
  5
11E
330
1F
100
AcDbEntity
  8
LC-002-100-D00-0
 62
     7
370
    50
100
AcDbCircle
 10
693.91972
 20
467.957598
 30
0.0
 40
0.6000000000001364
100
AcDbArc
 50
0.0
 51
75.0
  0
LINE
  5
11F
330
1F
100
AcDbEntity
  8
LC-002-100-D00-0
 62
     7
370
    50
100
AcDbLine
 10
693.368868
 20
468.726365
 30
0.0
 11
694.075011
 21
468.537154
 31
0.0
  0
LINE
  5
120
330
1F
100
AcDbEntity
  8
LC-002-100-D00-0
 62
     7
370
    50
100
AcDbLine
 10
693.368868
 20
470.726365
 30
0.0
 11
693.368868
 21
468.726365
 31
0.0
  0
LINE
  5
121
330
1F
100
AcDbEntity
  8
LC-002-100-D00-0
 62
     7
370
    50
100
AcDbLine
 10
693.368868
 20
462.726365
 30
0.0
 11
695.31972
 21
462.726365
 31
0.0
  0
LINE
  5
122
330
1F
100
AcDbEntity
  8
LC-002-100-D00-0
 62
     7
370
    50
100
AcDbLine
 10
693.368868
 20
470.726365
 30
0.0
 11
695.319728
 21
470.726365
 31
0.0
  0
LINE
  5
123
330
1F
100
AcDbEntity
  8
LC-002-100-D00-0
 62
     7
370
    50
100
AcDbLine
 10
704.91972
 20
465.495131
 30
0.0
 11
704.91972
 21
467.957598
 31
0.0
  0
ARC
  5
124
330
1F
100
AcDbEntity
  8
LC-002-100-D00-0
 62
     7
370
    50
100
AcDbCircle
 10
705.51972
 20
465.495131
 30
0.0
 40
0.6000000000001364
100
AcDbArc
 50
180.0
 51
255.0
  0
LINE
  5
125
330
1F
100
AcDbEntity
  8
LC-002-100-D00-0
 62
     7
370
    50
100
AcDbLine
 10
706.070588
 20
464.726364
 30
0.0
 11
705.364429
 21
464.915576
 31
0.0
  0
LINE
  5
126
330
1F
100
AcDbEntity
  8
LC-002-100-D00-0
 62
     7
370
    50
100
AcDbLine
 10
706.070588
 20
464.726364
 30
0.0
 11
706.070588
 21
462.726365
 31
0.0
  0
LINE
  5
127
330
1F
100
AcDbEntity
  8
LC-002-100-D00-0
 62
     7
370
    50
100
AcDbLine
 10
703.11972
 20
463.726365
 30
0.0
 11
704.11972
 21
462.726365
 31
0.0
  0
LINE
  5
128
330
1F
100
AcDbEntity
  8
LC-002-100-D00-0
 62
     7
370
    50
100
AcDbLine
 10
703.11972
 20
463.726365
 30
0.0
 11
703.119711
 21
469.726365
 31
0.0
  0
LINE
  5
129
330
1F
100
AcDbEntity
  8
LC-002-100-D00-0
 62
     7
370
    50
100
AcDbLine
 10
704.119728
 20
470.726365
 30
0.0
 11
703.119711
 21
469.726365
 31
0.0
  0
LINE
  5
12A
330
1F
100
AcDbEntity
  8
LC-002-100-D00-0
 62
     7
370
    50
100
AcDbLine
 10
706.070588
 20
470.726365
 30
0.0
 11
706.070588
 21
468.726365
 31
0.0
  0
LINE
  5
12B
330
1F
100
AcDbEntity
  8
LC-002-100-D00-0
 62
     7
370
    50
100
AcDbLine
 10
705.364429
 20
468.537154
 30
0.0
 11
706.070588
 21
468.726365
 31
0.0
  0
ARC
  5
12C
330
1F
100
AcDbEntity
  8
LC-002-100-D00-0
 62
     7
370
    50
100
AcDbCircle
 10
705.51972
 20
467.957598
 30
0.0
 40
0.6000000000001474
100
AcDbArc
 50
105.0
 51
180.0
  0
LINE
  5
12D
330
1F
100
AcDbEntity
  8
LC-002-100-D00-0
 62
     7
370
    50
100
AcDbLine
 10
704.11972
 20
462.726365
 30
0.0
 11
706.070588
 21
462.726365
 31
0.0
  0
LINE
  5
12E
330
1F
100
AcDbEntity
  8
LC-002-100-D00-0
 62
     7
370
    50
100
AcDbLine
 10
704.119728
 20
470.726365
 30
0.0
 11
706.070588
 21
470.726365
 31
0.0
  0
LINE
  5
12F
330
1F
100
AcDbEntity
  8
LC-002-100-D00-0
 62
     7
370
    50
100
AcDbLine
 10
696.31972
 20
463.726365
 30
0.0
 11
696.47756
 21
463.726365
 31
0.0
  0
LINE
  5
130
330
1F
100
AcDbEntity
  8
LC-002-100-D00-0
 62
     7
370
    50
100
AcDbLine
 10
702.96188
 20
463.726365
 30
0.0
 11
703.11972
 21
463.726365
 31
0.0
  0
LINE
  5
131
330
1F
100
AcDbEntity
  8
LC-002-100-D00-0
 62
     7
370
    50
100
AcDbLine
 10
704.11972
 20
462.726365
 30
0.0
 11
703.583938
 21
462.726365
 31
0.0
  0
LINE
  5
132
330
1F
100
AcDbEntity
  8
LC-002-100-D00-0
 62
     7
370
    50
100
AcDbLine
 10
695.855502
 20
462.726365
 30
0.0
 11
695.31972
 21
462.726365
 31
0.0
  0
LINE
  5
133
330
1F
100
AcDbEntity
  8
LC-002-100-D00-0
 62
     7
370
    50
100
AcDbLine
 10
706.070588
 20
470.726365
 30
0.0
 11
703.619734
 21
470.726365
 31
0.0
  0
LINE
  5
134
330
1F
100
AcDbEntity
  8
LC-002-100-D00-0
 62
     7
370
    50
100
AcDbLine
 10
703.619734
 20
470.726365
 30
0.0
 11
703.61972
 21
481.726365
 31
0.0
  0
LINE
  5
135
330
1F
100
AcDbEntity
  8
LC-002-100-D00-0
 62
     7
370
    50
100
AcDbLine
 10
703.61972
 20
481.726365
 30
0.0
 11
716.96972
 21
481.726365
 31
0.0
  0
ARC
  5
136
330
1F
100
AcDbEntity
  8
LC-002-100-D00-0
 62
     7
370
    50
100
AcDbCircle
 10
716.96972
 20
480.726365
 30
0.0
 40
1.000000000000227
100
AcDbArc
 50
0.0
 51
90.0
  0
LINE
  5
137
330
1F
100
AcDbEntity
  8
LC-002-100-D00-0
 62
     7
370
    50
100
AcDbLine
 10
717.96972
 20
480.726365
 30
0.0
 11
717.969731
 21
474.726365
 31
0.0
  0
LINE
  5
138
330
1F
100
AcDbEntity
  8
LC-002-100-D00-0
 62
     7
370
    50
100
AcDbLine
 10
714.96972
 20
474.726365
 30
0.0
 11
717.969731
 21
474.726365
 31
0.0
  0
LINE
  5
139
330
1F
100
AcDbEntity
  8
LC-002-100-D00-0
 62
     7
370
    50
100
AcDbLine
 10
714.96972
 20
474.726365
 30
0.0
 11
714.96971
 21
478.726365
 31
0.0
  0
LINE
  5
13A
330
1F
100
AcDbEntity
  8
LC-002-100-D00-0
 62
     7
370
    50
100
AcDbLine
 10
710.46972
 20
478.726365
 30
0.0
 11
714.96971
 21
478.726365
 31
0.0
  0
ARC
  5
13B
330
1F
100
AcDbEntity
  8
LC-002-100-D00-0
 62
     7
370
    50
100
AcDbCircle
 10
710.46972
 20
477.726365
 30
0.0
 40
1.0
100
AcDbArc
 50
90.0
 51
180.0
  0
LINE
  5
13C
330
1F
100
AcDbEntity
  8
LC-002-100-D00-0
 62
     7
370
    50
100
AcDbLine
 10
709.46972
 20
463.726365
 30
0.0
 11
709.46972
 21
477.726365
 31
0.0
  0
ARC
  5
13D
330
1F
100
AcDbEntity
  8
LC-002-100-D00-0
 62
     7
370
    50
100
AcDbCircle
 10
708.46972
 20
463.726365
 30
0.0
 40
1.0
100
AcDbArc
 50
270.0
 51
0.0
  0
LINE
  5
13E
330
1F
100
AcDbEntity
  8
LC-002-100-D00-0
 62
     7
370
    50
100
AcDbLine
 10
708.46972
 20
462.726365
 30
0.0
 11
706.070588
 21
462.726365
 31
0.0
  0
LINE
  5
13F
330
1F
100
AcDbEntity
  8
LC-002-100-D00-0
 62
     7
370
    50
100
AcDbLine
 10
706.070588
 20
464.726364
 30
0.0
 11
706.070588
 21
462.726365
 31
0.0
  0
LINE
  5
140
330
1F
100
AcDbEntity
  8
LC-002-100-D00-0
 62
     7
370
    50
100
AcDbLine
 10
705.41972
 20
464.726365
 30
0.0
 11
706.070588
 21
464.726364
 31
0.0
  0
ARC
  5
141
330
1F
100
AcDbEntity
  8
LC-002-100-D00-0
 62
     7
370
    50
100
AcDbCircle
 10
705.41972
 20
465.226365
 30
0.0
 40
0.5
100
AcDbArc
 50
180.0
 51
270.0
  0
LINE
  5
142
330
1F
100
AcDbEntity
  8
LC-002-100-D00-0
 62
     7
370
    50
100
AcDbLine
 10
704.91972
 20
468.226365
 30
0.0
 11
704.91972
 21
465.226365
 31
0.0
  0
ARC
  5
143
330
1F
100
AcDbEntity
  8
LC-002-100-D00-0
 62
     7
370
    50
100
AcDbCircle
 10
705.41972
 20
468.226365
 30
0.0
 40
0.5
100
AcDbArc
 50
90.0
 51
180.0
  0
LINE
  5
144
330
1F
100
AcDbEntity
  8
LC-002-100-D00-0
 62
     7
370
    50
100
AcDbLine
 10
706.070588
 20
468.726365
 30
0.0
 11
705.41972
 21
468.726365
 31
0.0
  0
LINE
  5
145
330
1F
100
AcDbEntity
  8
LC-002-100-D00-0
 62
     7
370
    50
100
AcDbLine
 10
706.070588
 20
470.726365
 30
0.0
 11
706.070588
 21
468.726365
 31
0.0
  0
ARC
  5
146
330
1F
100
AcDbEntity
  8
LC-002-100-D00-0
 62
     7
370
    50
100
AcDbCircle
 10
688.96972
 20
477.726365
 30
0.0
 40
1.000000000000227
100
AcDbArc
 50
0.0
 51
90.0
  0
ARC
  5
147
330
1F
100
AcDbEntity
  8
LC-002-100-D00-0
 62
     7
370
    50
100
AcDbCircle
 10
690.96972
 20
463.726365
 30
0.0
 40
1.000000000000227
100
AcDbArc
 50
180.0
 51
270.0
  0
LINE
  5
148
330
1F
100
AcDbEntity
  8
LC-002-100-D00-0
 62
     7
370
    50
100
AcDbLine
 10
689.96972
 20
477.726365
 30
0.0
 11
689.96972
 21
463.726365
 31
0.0
  0
LINE
  5
149
330
1F
100
AcDbEntity
  8
LC-002-100-D00-0
 62
     7
370
    50
100
AcDbLine
 10
694.51972
 20
465.226365
 30
0.0
 11
694.51972
 21
468.226365
 31
0.0
  0
LINE
  5
14A
330
1F
100
AcDbEntity
  8
LC-002-100-D00-0
 62
     7
370
    50
100
AcDbLine
 10
695.81972
 20
481.726365
 30
0.0
 11
695.819721
 21
470.726365
 31
0.0
  0
LINE
  5
14B
330
1F
100
AcDbEntity
  8
LC-002-100-D00-0
 62
     7
370
    50
100
AcDbLine
 10
695.81972
 20
481.726365
 30
0.0
 11
703.61972
 21
481.726365
 31
0.0
  0
LINE
  5
14C
330
1F
100
AcDbEntity
  8
LC-002-100-D00-0
 62
     7
370
    50
100
AcDbLine
 10
693.368868
 20
470.726365
 30
0.0
 11
693.368868
 21
468.726365
 31
0.0
  0
LINE
  5
14D
330
1F
100
AcDbEntity
  8
LC-002-100-D00-0
 62
     7
370
    50
100
AcDbLine
 10
693.368868
 20
464.726364
 30
0.0
 11
693.368868
 21
462.726365
 31
0.0
  0
ARC
  5
14E
330
1F
100
AcDbEntity
  8
LC-002-100-D00-0
 62
     7
370
    50
100
AcDbCircle
 10
694.01972
 20
465.226365
 30
0.0
 40
0.5
100
AcDbArc
 50
270.0
 51
0.0
  0
LINE
  5
14F
330
1F
100
AcDbEntity
  8
LC-002-100-D00-0
 62
     7
370
    50
100
AcDbLine
 10
693.368868
 20
464.726364
 30
0.0
 11
694.01972
 21
464.726365
 31
0.0
  0
LINE
  5
150
330
1F
100
AcDbEntity
  8
LC-002-100-D00-0
 62
     7
370
    50
100
AcDbLine
 10
684.469716
 20
478.726365
 30
0.0
 11
684.46972
 21
474.726365
 31
0.0
  0
LINE
  5
151
330
1F
100
AcDbEntity
  8
LC-002-100-D00-0
 62
     7
370
    50
100
AcDbLine
 10
681.469724
 20
474.726365
 30
0.0
 11
681.46972
 21
480.726365
 31
0.0
  0
ARC
  5
152
330
1F
100
AcDbEntity
  8
LC-002-100-D00-0
 62
     7
370
    50
100
AcDbCircle
 10
682.46972
 20
480.726365
 30
0.0
 40
1.0
100
AcDbArc
 50
90.0
 51
180.0
  0
LINE
  5
153
330
1F
100
AcDbEntity
  8
LC-002-100-D00-0
 62
     7
370
    50
100
AcDbLine
 10
694.01972
 20
468.726365
 30
0.0
 11
693.368868
 21
468.726365
 31
0.0
  0
ARC
  5
154
330
1F
100
AcDbEntity
  8
LC-002-100-D00-0
 62
     7
370
    50
100
AcDbCircle
 10
694.01972
 20
468.226365
 30
0.0
 40
0.5
100
AcDbArc
 50
0.0
 51
90.0
  0
LINE
  5
155
330
1F
100
AcDbEntity
  8
LC-002-100-D00-0
 62
     7
370
    50
100
AcDbLine
 10
681.469724
 20
474.726365
 30
0.0
 11
684.46972
 21
474.726365
 31
0.0
  0
LINE
  5
156
330
1F
100
AcDbEntity
  8
LC-002-100-D00-0
 62
     7
370
    50
100
AcDbLine
 10
695.819721
 20
470.726365
 30
0.0
 11
693.368868
 21
470.726365
 31
0.0
  0
LINE
  5
157
330
1F
100
AcDbEntity
  8
LC-002-100-D00-0
 62
     7
370
    50
100
AcDbLine
 10
693.368868
 20
462.726365
 30
0.0
 11
690.96972
 21
462.726365
 31
0.0
  0
LINE
  5
158
330
1F
100
AcDbEntity
  8
LC-002-100-D00-0
 62
     7
370
    50
100
AcDbLine
 10
684.469716
 20
478.726365
 30
0.0
 11
688.96972
 21
478.726365
 31
0.0
  0
LINE
  5
159
330
1F
100
AcDbEntity
  8
LC-002-100-D00-0
 62
     7
370
    50
100
AcDbLine
 10
682.46972
 20
481.726365
 30
0.0
 11
695.81972
 21
481.726365
 31
0.0
  0
LINE
  5
15A
330
1F
100
AcDbEntity
  8
LC-002-100-D00-0
 62
     7
370
    50
100
AcDbLine
 10
712.96972
 20
474.726365
 30
0.0
 11
714.96972
 21
474.726365
 31
0.0
  0
LINE
  5
15B
330
1F
100
AcDbEntity
  8
LC-002-100-D00-0
 62
     7
370
    50
100
AcDbLine
 10
684.46972
 20
474.726365
 30
0.0
 11
686.46972
 21
474.726365
 31
0.0
  0
LINE
  5
15C
330
1F
100
AcDbEntity
  8
LC-002-100-D00-0
 62
     7
370
    50
100
AcDbLine
 10
686.46972
 20
474.726365
 30
0.0
 11
689.969734
 21
474.726365
 31
0.0
  0
LINE
  5
15D
330
1F
100
AcDbEntity
  8
LC-002-100-D00-0
 62
     7
370
    50
100
AcDbLine
 10
709.469721
 20
474.726365
 30
0.0
 11
712.96972
 21
474.726365
 31
0.0
  0
LINE
  5
15E
330
1F
100
AcDbEntity
  8
LC-002-100-D00-0
 62
     7
370
    50
100
AcDbLine
 10
56.319729
 20
469.726365
 30
0.0
 11
55.319712
 21
470.726365
 31
0.0
  0
LINE
  5
15F
330
1F
100
AcDbEntity
  8
LC-002-100-D00-0
 62
     7
370
    50
100
AcDbLine
 10
56.319729
 20
469.726365
 30
0.0
 11
56.31972
 21
463.726365
 31
0.0
  0
LINE
  5
160
330
1F
100
AcDbEntity
  8
LC-002-100-D00-0
 62
     7
370
    50
100
AcDbLine
 10
55.31972
 20
462.726365
 30
0.0
 11
56.31972
 21
463.726365
 31
0.0
  0
LINE
  5
161
330
1F
100
AcDbEntity
  8
LC-002-100-D00-0
 62
     7
370
    50
100
AcDbLine
 10
53.368852
 20
464.726364
 30
0.0
 11
53.368852
 21
462.726365
 31
0.0
  0
LINE
  5
162
330
1F
100
AcDbEntity
  8
LC-002-100-D00-0
 62
     7
370
    50
100
AcDbLine
 10
54.075011
 20
464.915576
 30
0.0
 11
53.368852
 21
464.726364
 31
0.0
  0
ARC
  5
163
330
1F
100
AcDbEntity
  8
LC-002-100-D00-0
 62
     7
370
    50
100
AcDbCircle
 10
53.91972
 20
465.495131
 30
0.0
 40
0.6000000000001032
100
AcDbArc
 50
285.0
 51
0.0
  0
LINE
  5
164
330
1F
100
AcDbEntity
  8
LC-002-100-D00-0
 62
     7
370
    50
100
AcDbLine
 10
54.51972
 20
467.957598
 30
0.0
 11
54.51972
 21
465.495131
 31
0.0
  0
ARC
  5
165
330
1F
100
AcDbEntity
  8
LC-002-100-D00-0
 62
     7
370
    50
100
AcDbCircle
 10
53.91972
 20
467.957598
 30
0.0
 40
0.6000000000000227
100
AcDbArc
 50
0.0
 51
75.0
  0
LINE
  5
166
330
1F
100
AcDbEntity
  8
LC-002-100-D00-0
 62
     7
370
    50
100
AcDbLine
 10
53.368852
 20
468.726365
 30
0.0
 11
54.075011
 21
468.537154
 31
0.0
  0
LINE
  5
167
330
1F
100
AcDbEntity
  8
LC-002-100-D00-0
 62
     7
370
    50
100
AcDbLine
 10
53.368852
 20
470.726365
 30
0.0
 11
53.368852
 21
468.726365
 31
0.0
  0
LINE
  5
168
330
1F
100
AcDbEntity
  8
LC-002-100-D00-0
 62
     7
370
    50
100
AcDbLine
 10
53.368852
 20
462.726365
 30
0.0
 11
55.31972
 21
462.726365
 31
0.0
  0
LINE
  5
169
330
1F
100
AcDbEntity
  8
LC-002-100-D00-0
 62
     7
370
    50
100
AcDbLine
 10
53.368852
 20
470.726365
 30
0.0
 11
55.319712
 21
470.726365
 31
0.0
  0
LINE
  5
16A
330
1F
100
AcDbEntity
  8
LC-002-100-D00-0
 62
     7
370
    50
100
AcDbLine
 10
64.91972
 20
465.495131
 30
0.0
 11
64.91972
 21
467.957598
 31
0.0
  0
ARC
  5
16B
330
1F
100
AcDbEntity
  8
LC-002-100-D00-0
 62
     7
370
    50
100
AcDbCircle
 10
65.51972
 20
465.495131
 30
0.0
 40
0.6000000000000227
100
AcDbArc
 50
180.0
 51
255.0
  0
LINE
  5
16C
330
1F
100
AcDbEntity
  8
LC-002-100-D00-0
 62
     7
370
    50
100
AcDbLine
 10
66.070572
 20
464.726364
 30
0.0
 11
65.364429
 21
464.915576
 31
0.0
  0
LINE
  5
16D
330
1F
100
AcDbEntity
  8
LC-002-100-D00-0
 62
     7
370
    50
100
AcDbLine
 10
66.070572
 20
464.726364
 30
0.0
 11
66.070572
 21
462.726365
 31
0.0
  0
LINE
  5
16E
330
1F
100
AcDbEntity
  8
LC-002-100-D00-0
 62
     7
370
    50
100
AcDbLine
 10
63.11972
 20
463.726365
 30
0.0
 11
64.11972
 21
462.726365
 31
0.0
  0
LINE
  5
16F
330
1F
100
AcDbEntity
  8
LC-002-100-D00-0
 62
     7
370
    50
100
AcDbLine
 10
63.11972
 20
463.726365
 30
0.0
 11
63.119725
 21
469.726365
 31
0.0
  0
LINE
  5
170
330
1F
100
AcDbEntity
  8
LC-002-100-D00-0
 62
     7
370
    50
100
AcDbLine
 10
64.119712
 20
470.726365
 30
0.0
 11
63.119725
 21
469.726365
 31
0.0
  0
LINE
  5
171
330
1F
100
AcDbEntity
  8
LC-002-100-D00-0
 62
     7
370
    50
100
AcDbLine
 10
66.070572
 20
470.726365
 30
0.0
 11
66.070572
 21
468.726365
 31
0.0
  0
LINE
  5
172
330
1F
100
AcDbEntity
  8
LC-002-100-D00-0
 62
     7
370
    50
100
AcDbLine
 10
65.364429
 20
468.537154
 30
0.0
 11
66.070572
 21
468.726365
 31
0.0
  0
ARC
  5
173
330
1F
100
AcDbEntity
  8
LC-002-100-D00-0
 62
     7
370
    50
100
AcDbCircle
 10
65.51972
 20
467.957598
 30
0.0
 40
0.6000000000001032
100
AcDbArc
 50
105.0
 51
180.0
  0
LINE
  5
174
330
1F
100
AcDbEntity
  8
LC-002-100-D00-0
 62
     7
370
    50
100
AcDbLine
 10
64.11972
 20
462.726365
 30
0.0
 11
66.070572
 21
462.726365
 31
0.0
  0
LINE
  5
175
330
1F
100
AcDbEntity
  8
LC-002-100-D00-0
 62
     7
370
    50
100
AcDbLine
 10
64.119712
 20
470.726365
 30
0.0
 11
66.070572
 21
470.726365
 31
0.0
  0
LINE
  5
176
330
1F
100
AcDbEntity
  8
LC-002-100-D00-0
 62
     7
370
    50
100
AcDbLine
 10
56.31972
 20
463.726365
 30
0.0
 11
56.47756
 21
463.726365
 31
0.0
  0
LINE
  5
177
330
1F
100
AcDbEntity
  8
LC-002-100-D00-0
 62
     7
370
    50
100
AcDbLine
 10
62.96188
 20
463.726365
 30
0.0
 11
63.11972
 21
463.726365
 31
0.0
  0
LINE
  5
178
330
1F
100
AcDbEntity
  8
LC-002-100-D00-0
 62
     7
370
    50
100
AcDbLine
 10
64.11972
 20
462.726365
 30
0.0
 11
63.583938
 21
462.726365
 31
0.0
  0
LINE
  5
179
330
1F
100
AcDbEntity
  8
LC-002-100-D00-0
 62
     7
370
    50
100
AcDbLine
 10
55.855502
 20
462.726365
 30
0.0
 11
55.31972
 21
462.726365
 31
0.0
  0
LINE
  5
17A
330
1F
100
AcDbEntity
  8
LC-002-100-D00-0
 62
     7
370
    50
100
AcDbLine
 10
66.070572
 20
470.726365
 30
0.0
 11
63.619719
 21
470.726365
 31
0.0
  0
LINE
  5
17B
330
1F
100
AcDbEntity
  8
LC-002-100-D00-0
 62
     7
370
    50
100
AcDbLine
 10
63.619719
 20
470.726365
 30
0.0
 11
63.61972
 21
481.726365
 31
0.0
  0
LINE
  5
17C
330
1F
100
AcDbEntity
  8
LC-002-100-D00-0
 62
     7
370
    50
100
AcDbLine
 10
63.61972
 20
481.726365
 30
0.0
 11
76.96972
 21
481.726365
 31
0.0
  0
ARC
  5
17D
330
1F
100
AcDbEntity
  8
LC-002-100-D00-0
 62
     7
370
    50
100
AcDbCircle
 10
76.96972
 20
480.726365
 30
0.0
 40
1.000000000000057
100
AcDbArc
 50
0.0
 51
90.0
  0
LINE
  5
17E
330
1F
100
AcDbEntity
  8
LC-002-100-D00-0
 62
     7
370
    50
100
AcDbLine
 10
77.96972
 20
480.726365
 30
0.0
 11
77.969716
 21
474.726365
 31
0.0
  0
LINE
  5
17F
330
1F
100
AcDbEntity
  8
LC-002-100-D00-0
 62
     7
370
    50
100
AcDbLine
 10
74.96972
 20
474.726365
 30
0.0
 11
77.969716
 21
474.726365
 31
0.0
  0
LINE
  5
180
330
1F
100
AcDbEntity
  8
LC-002-100-D00-0
 62
     7
370
    50
100
AcDbLine
 10
74.96972
 20
474.726365
 30
0.0
 11
74.969725
 21
478.726365
 31
0.0
  0
LINE
  5
181
330
1F
100
AcDbEntity
  8
LC-002-100-D00-0
 62
     7
370
    50
100
AcDbLine
 10
70.46972
 20
478.726365
 30
0.0
 11
74.969725
 21
478.726365
 31
0.0
  0
ARC
  5
182
330
1F
100
AcDbEntity
  8
LC-002-100-D00-0
 62
     7
370
    50
100
AcDbCircle
 10
70.46972
 20
477.726365
 30
0.0
 40
1.0
100
AcDbArc
 50
90.0
 51
180.0
  0
LINE
  5
183
330
1F
100
AcDbEntity
  8
LC-002-100-D00-0
 62
     7
370
    50
100
AcDbLine
 10
69.46972
 20
463.726365
 30
0.0
 11
69.46972
 21
477.726365
 31
0.0
  0
ARC
  5
184
330
1F
100
AcDbEntity
  8
LC-002-100-D00-0
 62
     7
370
    50
100
AcDbCircle
 10
68.46972
 20
463.726365
 30
0.0
 40
1.0
100
AcDbArc
 50
270.0
 51
0.0
  0
LINE
  5
185
330
1F
100
AcDbEntity
  8
LC-002-100-D00-0
 62
     7
370
    50
100
AcDbLine
 10
68.46972
 20
462.726365
 30
0.0
 11
66.070572
 21
462.726365
 31
0.0
  0
LINE
  5
186
330
1F
100
AcDbEntity
  8
LC-002-100-D00-0
 62
     7
370
    50
100
AcDbLine
 10
66.070572
 20
464.726364
 30
0.0
 11
66.070572
 21
462.726365
 31
0.0
  0
LINE
  5
187
330
1F
100
AcDbEntity
  8
LC-002-100-D00-0
 62
     7
370
    50
100
AcDbLine
 10
65.41972
 20
464.726365
 30
0.0
 11
66.070572
 21
464.726364
 31
0.0
  0
ARC
  5
188
330
1F
100
AcDbEntity
  8
LC-002-100-D00-0
 62
     7
370
    50
100
AcDbCircle
 10
65.41972
 20
465.226365
 30
0.0
 40
0.5
100
AcDbArc
 50
180.0
 51
270.0
  0
LINE
  5
189
330
1F
100
AcDbEntity
  8
LC-002-100-D00-0
 62
     7
370
    50
100
AcDbLine
 10
64.91972
 20
468.226365
 30
0.0
 11
64.91972
 21
465.226365
 31
0.0
  0
ARC
  5
18A
330
1F
100
AcDbEntity
  8
LC-002-100-D00-0
 62
     7
370
    50
100
AcDbCircle
 10
65.41972
 20
468.226365
 30
0.0
 40
0.5
100
AcDbArc
 50
90.0
 51
180.0
  0
LINE
  5
18B
330
1F
100
AcDbEntity
  8
LC-002-100-D00-0
 62
     7
370
    50
100
AcDbLine
 10
66.070572
 20
468.726365
 30
0.0
 11
65.41972
 21
468.726365
 31
0.0
  0
LINE
  5
18C
330
1F
100
AcDbEntity
  8
LC-002-100-D00-0
 62
     7
370
    50
100
AcDbLine
 10
66.070572
 20
470.726365
 30
0.0
 11
66.070572
 21
468.726365
 31
0.0
  0
ARC
  5
18D
330
1F
100
AcDbEntity
  8
LC-002-100-D00-0
 62
     7
370
    50
100
AcDbCircle
 10
48.96972
 20
477.726365
 30
0.0
 40
1.000000000000114
100
AcDbArc
 50
0.0
 51
90.0
  0
LINE
  5
18E
330
1F
100
AcDbEntity
  8
LC-002-100-D00-0
 62
     7
370
    50
100
AcDbLine
 10
49.96972
 20
477.726365
 30
0.0
 11
49.96972
 21
463.726365
 31
0.0
  0
ARC
  5
18F
330
1F
100
AcDbEntity
  8
LC-002-100-D00-0
 62
     7
370
    50
100
AcDbCircle
 10
50.96972
 20
463.726365
 30
0.0
 40
1.000000000000114
100
AcDbArc
 50
180.0
 51
270.0
  0
LINE
  5
190
330
1F
100
AcDbEntity
  8
LC-002-100-D00-0
 62
     7
370
    50
100
AcDbLine
 10
54.51972
 20
465.226365
 30
0.0
 11
54.51972
 21
468.226365
 31
0.0
  0
LINE
  5
191
330
1F
100
AcDbEntity
  8
LC-002-100-D00-0
 62
     7
370
    50
100
AcDbLine
 10
55.81972
 20
481.726365
 30
0.0
 11
55.819706
 21
470.726365
 31
0.0
  0
LINE
  5
192
330
1F
100
AcDbEntity
  8
LC-002-100-D00-0
 62
     7
370
    50
100
AcDbLine
 10
55.81972
 20
481.726365
 30
0.0
 11
63.61972
 21
481.726365
 31
0.0
  0
LINE
  5
193
330
1F
100
AcDbEntity
  8
LC-002-100-D00-0
 62
     7
370
    50
100
AcDbLine
 10
53.368852
 20
470.726365
 30
0.0
 11
53.368852
 21
468.726365
 31
0.0
  0
LINE
  5
194
330
1F
100
AcDbEntity
  8
LC-002-100-D00-0
 62
     7
370
    50
100
AcDbLine
 10
53.368852
 20
464.726364
 30
0.0
 11
53.368852
 21
462.726365
 31
0.0
  0
ARC
  5
195
330
1F
100
AcDbEntity
  8
LC-002-100-D00-0
 62
     7
370
    50
100
AcDbCircle
 10
54.01972
 20
465.226365
 30
0.0
 40
0.5
100
AcDbArc
 50
270.0
 51
0.0
  0
LINE
  5
196
330
1F
100
AcDbEntity
  8
LC-002-100-D00-0
 62
     7
370
    50
100
AcDbLine
 10
53.368852
 20
464.726364
 30
0.0
 11
54.01972
 21
464.726365
 31
0.0
  0
LINE
  5
197
330
1F
100
AcDbEntity
  8
LC-002-100-D00-0
 62
     7
370
    50
100
AcDbLine
 10
44.46973
 20
478.726365
 30
0.0
 11
44.46972
 21
474.726365
 31
0.0
  0
LINE
  5
198
330
1F
100
AcDbEntity
  8
LC-002-100-D00-0
 62
     7
370
    50
100
AcDbLine
 10
41.469709
 20
474.726365
 30
0.0
 11
41.46972
 21
480.726365
 31
0.0
  0
ARC
  5
199
330
1F
100
AcDbEntity
  8
LC-002-100-D00-0
 62
     7
370
    50
100
AcDbCircle
 10
42.46972
 20
480.726365
 30
0.0
 40
1.0
100
AcDbArc
 50
90.0
 51
180.0
  0
LINE
  5
19A
330
1F
100
AcDbEntity
  8
LC-002-100-D00-0
 62
     7
370
    50
100
AcDbLine
 10
54.01972
 20
468.726365
 30
0.0
 11
53.368852
 21
468.726365
 31
0.0
  0
ARC
  5
19B
330
1F
100
AcDbEntity
  8
LC-002-100-D00-0
 62
     7
370
    50
100
AcDbCircle
 10
54.01972
 20
468.226365
 30
0.0
 40
0.5
100
AcDbArc
 50
0.0
 51
90.0
  0
LINE
  5
19C
330
1F
100
AcDbEntity
  8
LC-002-100-D00-0
 62
     7
370
    50
100
AcDbLine
 10
41.469709
 20
474.726365
 30
0.0
 11
44.46972
 21
474.726365
 31
0.0
  0
LINE
  5
19D
330
1F
100
AcDbEntity
  8
LC-002-100-D00-0
 62
     7
370
    50
100
AcDbLine
 10
55.819706
 20
470.726365
 30
0.0
 11
53.368852
 21
470.726365
 31
0.0
  0
LINE
  5
19E
330
1F
100
AcDbEntity
  8
LC-002-100-D00-0
 62
     7
370
    50
100
AcDbLine
 10
53.368852
 20
462.726365
 30
0.0
 11
50.96972
 21
462.726365
 31
0.0
  0
LINE
  5
19F
330
1F
100
AcDbEntity
  8
LC-002-100-D00-0
 62
     7
370
    50
100
AcDbLine
 10
44.46973
 20
478.726365
 30
0.0
 11
48.96972
 21
478.726365
 31
0.0
  0
LINE
  5
1A0
330
1F
100
AcDbEntity
  8
LC-002-100-D00-0
 62
     7
370
    50
100
AcDbLine
 10
42.46972
 20
481.726365
 30
0.0
 11
55.81972
 21
481.726365
 31
0.0
  0
LINE
  5
1A1
330
1F
100
AcDbEntity
  8
LC-002-100-D00-0
 62
     7
370
    50
100
AcDbLine
 10
72.96972
 20
474.726365
 30
0.0
 11
74.96972
 21
474.726365
 31
0.0
  0
LINE
  5
1A2
330
1F
100
AcDbEntity
  8
LC-002-100-D00-0
 62
     7
370
    50
100
AcDbLine
 10
44.46972
 20
474.726365
 30
0.0
 11
46.46972
 21
474.726365
 31
0.0
  0
LINE
  5
1A3
330
1F
100
AcDbEntity
  8
LC-002-100-D00-0
 62
     7
370
    50
100
AcDbLine
 10
46.46972
 20
474.726365
 30
0.0
 11
49.969719
 21
474.726365
 31
0.0
  0
LINE
  5
1A4
330
1F
100
AcDbEntity
  8
LC-002-100-D00-0
 62
     7
370
    50
100
AcDbLine
 10
69.469706
 20
474.726365
 30
0.0
 11
72.96972
 21
474.726365
 31
0.0
  0
LINE
  5
1A5
330
1F
100
AcDbEntity
  8
LC-002-100-D00-0
 62
     7
370
    50
100
AcDbLine
 10
166.319714
 20
469.726365
 30
0.0
 11
165.319727
 21
470.726365
 31
0.0
  0
LINE
  5
1A6
330
1F
100
AcDbEntity
  8
LC-002-100-D00-0
 62
     7
370
    50
100
AcDbLine
 10
166.319714
 20
469.726365
 30
0.0
 11
166.31972
 21
463.726365
 31
0.0
  0
LINE
  5
1A7
330
1F
100
AcDbEntity
  8
LC-002-100-D00-0
 62
     7
370
    50
100
AcDbLine
 10
165.31972
 20
462.726365
 30
0.0
 11
166.31972
 21
463.726365
 31
0.0
  0
LINE
  5
1A8
330
1F
100
AcDbEntity
  8
LC-002-100-D00-0
 62
     7
370
    50
100
AcDbLine
 10
163.368867
 20
464.726364
 30
0.0
 11
163.368867
 21
462.726365
 31
0.0
  0
LINE
  5
1A9
330
1F
100
AcDbEntity
  8
LC-002-100-D00-0
 62
     7
370
    50
100
AcDbLine
 10
164.075011
 20
464.915576
 30
0.0
 11
163.368867
 21
464.726364
 31
0.0
  0
ARC
  5
1AA
330
1F
100
AcDbEntity
  8
LC-002-100-D00-0
 62
     7
370
    50
100
AcDbCircle
 10
163.91972
 20
465.495131
 30
0.0
 40
0.6000000000000886
100
AcDbArc
 50
285.0
 51
0.0
  0
LINE
  5
1AB
330
1F
100
AcDbEntity
  8
LC-002-100-D00-0
 62
     7
370
    50
100
AcDbLine
 10
164.51972
 20
467.957598
 30
0.0
 11
164.51972
 21
465.495131
 31
0.0
  0
ARC
  5
1AC
330
1F
100
AcDbEntity
  8
LC-002-100-D00-0
 62
     7
370
    50
100
AcDbCircle
 10
163.91972
 20
467.957598
 30
0.0
 40
0.6000000000000227
100
AcDbArc
 50
0.0
 51
75.0
  0
LINE
  5
1AD
330
1F
100
AcDbEntity
  8
LC-002-100-D00-0
 62
     7
370
    50
100
AcDbLine
 10
163.368867
 20
468.726365
 30
0.0
 11
164.075011
 21
468.537154
 31
0.0
  0
LINE
  5
1AE
330
1F
100
AcDbEntity
  8
LC-002-100-D00-0
 62
     7
370
    50
100
AcDbLine
 10
163.368867
 20
470.726365
 30
0.0
 11
163.368867
 21
468.726365
 31
0.0
  0
LINE
  5
1AF
330
1F
100
AcDbEntity
  8
LC-002-100-D00-0
 62
     7
370
    50
100
AcDbLine
 10
163.368867
 20
462.726365
 30
0.0
 11
165.31972
 21
462.726365
 31
0.0
  0
LINE
  5
1B0
330
1F
100
AcDbEntity
  8
LC-002-100-D00-0
 62
     7
370
    50
100
AcDbLine
 10
163.368867
 20
470.726365
 30
0.0
 11
165.319727
 21
470.726365
 31
0.0
  0
LINE
  5
1B1
330
1F
100
AcDbEntity
  8
LC-002-100-D00-0
 62
     7
370
    50
100
AcDbLine
 10
174.91972
 20
465.495131
 30
0.0
 11
174.91972
 21
467.957598
 31
0.0
  0
ARC
  5
1B2
330
1F
100
AcDbEntity
  8
LC-002-100-D00-0
 62
     7
370
    50
100
AcDbCircle
 10
175.51972
 20
465.495131
 30
0.0
 40
0.6000000000000227
100
AcDbArc
 50
180.0
 51
255.0
  0
LINE
  5
1B3
330
1F
100
AcDbEntity
  8
LC-002-100-D00-0
 62
     7
370
    50
100
AcDbLine
 10
176.070572
 20
464.726364
 30
0.0
 11
175.364429
 21
464.915576
 31
0.0
  0
LINE
  5
1B4
330
1F
100
AcDbEntity
  8
LC-002-100-D00-0
 62
     7
370
    50
100
AcDbLine
 10
176.070572
 20
464.726364
 30
0.0
 11
176.070572
 21
462.726365
 31
0.0
  0
LINE
  5
1B5
330
1F
100
AcDbEntity
  8
LC-002-100-D00-0
 62
     7
370
    50
100
AcDbLine
 10
173.11972
 20
463.726365
 30
0.0
 11
174.11972
 21
462.726365
 31
0.0
  0
LINE
  5
1B6
330
1F
100
AcDbEntity
  8
LC-002-100-D00-0
 62
     7
370
    50
100
AcDbLine
 10
173.11972
 20
463.726365
 30
0.0
 11
173.119725
 21
469.726365
 31
0.0
  0
LINE
  5
1B7
330
1F
100
AcDbEntity
  8
LC-002-100-D00-0
 62
     7
370
    50
100
AcDbLine
 10
174.119727
 20
470.726365
 30
0.0
 11
173.119725
 21
469.726365
 31
0.0
  0
LINE
  5
1B8
330
1F
100
AcDbEntity
  8
LC-002-100-D00-0
 62
     7
370
    50
100
AcDbLine
 10
176.070572
 20
470.726365
 30
0.0
 11
176.070572
 21
468.726365
 31
0.0
  0
LINE
  5
1B9
330
1F
100
AcDbEntity
  8
LC-002-100-D00-0
 62
     7
370
    50
100
AcDbLine
 10
175.364429
 20
468.537154
 30
0.0
 11
176.070572
 21
468.726365
 31
0.0
  0
ARC
  5
1BA
330
1F
100
AcDbEntity
  8
LC-002-100-D00-0
 62
     7
370
    50
100
AcDbCircle
 10
175.51972
 20
467.957598
 30
0.0
 40
0.600000000000118
100
AcDbArc
 50
105.0
 51
180.0
  0
LINE
  5
1BB
330
1F
100
AcDbEntity
  8
LC-002-100-D00-0
 62
     7
370
    50
100
AcDbLine
 10
174.11972
 20
462.726365
 30
0.0
 11
176.070572
 21
462.726365
 31
0.0
  0
LINE
  5
1BC
330
1F
100
AcDbEntity
  8
LC-002-100-D00-0
 62
     7
370
    50
100
AcDbLine
 10
174.119727
 20
470.726365
 30
0.0
 11
176.070572
 21
470.726365
 31
0.0
  0
LINE
  5
1BD
330
1F
100
AcDbEntity
  8
LC-002-100-D00-0
 62
     7
370
    50
100
AcDbLine
 10
166.31972
 20
463.726365
 30
0.0
 11
166.47756
 21
463.726365
 31
0.0
  0
LINE
  5
1BE
330
1F
100
AcDbEntity
  8
LC-002-100-D00-0
 62
     7
370
    50
100
AcDbLine
 10
172.96188
 20
463.726365
 30
0.0
 11
173.11972
 21
463.726365
 31
0.0
  0
LINE
  5
1BF
330
1F
100
AcDbEntity
  8
LC-002-100-D00-0
 62
     7
370
    50
100
AcDbLine
 10
174.11972
 20
462.726365
 30
0.0
 11
173.583938
 21
462.726365
 31
0.0
  0
LINE
  5
1C0
330
1F
100
AcDbEntity
  8
LC-002-100-D00-0
 62
     7
370
    50
100
AcDbLine
 10
165.855502
 20
462.726365
 30
0.0
 11
165.31972
 21
462.726365
 31
0.0
  0
LINE
  5
1C1
330
1F
100
AcDbEntity
  8
LC-002-100-D00-0
 62
     7
370
    50
100
AcDbLine
 10
176.070572
 20
470.726365
 30
0.0
 11
173.619718
 21
470.726365
 31
0.0
  0
LINE
  5
1C2
330
1F
100
AcDbEntity
  8
LC-002-100-D00-0
 62
     7
370
    50
100
AcDbLine
 10
173.619718
 20
470.726365
 30
0.0
 11
173.61972
 21
481.726365
 31
0.0
  0
LINE
  5
1C3
330
1F
100
AcDbEntity
  8
LC-002-100-D00-0
 62
     7
370
    50
100
AcDbLine
 10
173.61972
 20
481.726365
 30
0.0
 11
186.96972
 21
481.726365
 31
0.0
  0
ARC
  5
1C4
330
1F
100
AcDbEntity
  8
LC-002-100-D00-0
 62
     7
370
    50
100
AcDbCircle
 10
186.96972
 20
480.726365
 30
0.0
 40
1.000000000000114
100
AcDbArc
 50
0.0
 51
90.0
  0
LINE
  5
1C5
330
1F
100
AcDbEntity
  8
LC-002-100-D00-0
 62
     7
370
    50
100
AcDbLine
 10
187.96972
 20
480.726365
 30
0.0
 11
187.969715
 21
474.726365
 31
0.0
  0
LINE
  5
1C6
330
1F
100
AcDbEntity
  8
LC-002-100-D00-0
 62
     7
370
    50
100
AcDbLine
 10
184.96972
 20
474.726365
 30
0.0
 11
187.969715
 21
474.726365
 31
0.0
  0
LINE
  5
1C7
330
1F
100
AcDbEntity
  8
LC-002-100-D00-0
 62
     7
370
    50
100
AcDbLine
 10
184.96972
 20
474.726365
 30
0.0
 11
184.969724
 21
478.726365
 31
0.0
  0
LINE
  5
1C8
330
1F
100
AcDbEntity
  8
LC-002-100-D00-0
 62
     7
370
    50
100
AcDbLine
 10
180.46972
 20
478.726365
 30
0.0
 11
184.969724
 21
478.726365
 31
0.0
  0
ARC
  5
1C9
330
1F
100
AcDbEntity
  8
LC-002-100-D00-0
 62
     7
370
    50
100
AcDbCircle
 10
180.46972
 20
477.726365
 30
0.0
 40
1.0
100
AcDbArc
 50
90.0
 51
180.0
  0
LINE
  5
1CA
330
1F
100
AcDbEntity
  8
LC-002-100-D00-0
 62
     7
370
    50
100
AcDbLine
 10
179.46972
 20
463.726365
 30
0.0
 11
179.46972
 21
477.726365
 31
0.0
  0
ARC
  5
1CB
330
1F
100
AcDbEntity
  8
LC-002-100-D00-0
 62
     7
370
    50
100
AcDbCircle
 10
178.46972
 20
463.726365
 30
0.0
 40
1.0
100
AcDbArc
 50
270.0
 51
0.0
  0
LINE
  5
1CC
330
1F
100
AcDbEntity
  8
LC-002-100-D00-0
 62
     7
370
    50
100
AcDbLine
 10
178.46972
 20
462.726365
 30
0.0
 11
176.070572
 21
462.726365
 31
0.0
  0
LINE
  5
1CD
330
1F
100
AcDbEntity
  8
LC-002-100-D00-0
 62
     7
370
    50
100
AcDbLine
 10
176.070572
 20
464.726364
 30
0.0
 11
176.070572
 21
462.726365
 31
0.0
  0
LINE
  5
1CE
330
1F
100
AcDbEntity
  8
LC-002-100-D00-0
 62
     7
370
    50
100
AcDbLine
 10
175.41972
 20
464.726365
 30
0.0
 11
176.070572
 21
464.726364
 31
0.0
  0
ARC
  5
1CF
330
1F
100
AcDbEntity
  8
LC-002-100-D00-0
 62
     7
370
    50
100
AcDbCircle
 10
175.41972
 20
465.226365
 30
0.0
 40
0.5
100
AcDbArc
 50
180.0
 51
270.0
  0
LINE
  5
1D0
330
1F
100
AcDbEntity
  8
LC-002-100-D00-0
 62
     7
370
    50
100
AcDbLine
 10
174.91972
 20
468.226365
 30
0.0
 11
174.91972
 21
465.226365
 31
0.0
  0
ARC
  5
1D1
330
1F
100
AcDbEntity
  8
LC-002-100-D00-0
 62
     7
370
    50
100
AcDbCircle
 10
175.41972
 20
468.226365
 30
0.0
 40
0.5
100
AcDbArc
 50
90.0
 51
180.0
  0
LINE
  5
1D2
330
1F
100
AcDbEntity
  8
LC-002-100-D00-0
 62
     7
370
    50
100
AcDbLine
 10
176.070572
 20
468.726365
 30
0.0
 11
175.41972
 21
468.726365
 31
0.0
  0
LINE
  5
1D3
330
1F
100
AcDbEntity
  8
LC-002-100-D00-0
 62
     7
370
    50
100
AcDbLine
 10
176.070572
 20
470.726365
 30
0.0
 11
176.070572
 21
468.726365
 31
0.0
  0
ARC
  5
1D4
330
1F
100
AcDbEntity
  8
LC-002-100-D00-0
 62
     7
370
    50
100
AcDbCircle
 10
158.96972
 20
477.726365
 30
0.0
 40
1.000000000000114
100
AcDbArc
 50
0.0
 51
90.0
  0
ARC
  5
1D5
330
1F
100
AcDbEntity
  8
LC-002-100-D00-0
 62
     7
370
    50
100
AcDbCircle
 10
160.96972
 20
463.726365
 30
0.0
 40
1.0
100
AcDbArc
 50
180.0
 51
270.0
  0
LINE
  5
1D6
330
1F
100
AcDbEntity
  8
LC-002-100-D00-0
 62
     7
370
    50
100
AcDbLine
 10
159.96972
 20
477.726365
 30
0.0
 11
159.96972
 21
463.726365
 31
0.0
  0
LINE
  5
1D7
330
1F
100
AcDbEntity
  8
LC-002-100-D00-0
 62
     7
370
    50
100
AcDbLine
 10
164.51972
 20
465.226365
 30
0.0
 11
164.51972
 21
468.226365
 31
0.0
  0
LINE
  5
1D8
330
1F
100
AcDbEntity
  8
LC-002-100-D00-0
 62
     7
370
    50
100
AcDbLine
 10
165.81972
 20
481.726365
 30
0.0
 11
165.81972
 21
470.726365
 31
0.0
  0
LINE
  5
1D9
330
1F
100
AcDbEntity
  8
LC-002-100-D00-0
 62
     7
370
    50
100
AcDbLine
 10
165.81972
 20
481.726365
 30
0.0
 11
173.61972
 21
481.726365
 31
0.0
  0
LINE
  5
1DA
330
1F
100
AcDbEntity
  8
LC-002-100-D00-0
 62
     7
370
    50
100
AcDbLine
 10
163.368867
 20
464.726364
 30
0.0
 11
163.368867
 21
462.726365
 31
0.0
  0
LINE
  5
1DB
330
1F
100
AcDbEntity
  8
LC-002-100-D00-0
 62
     7
370
    50
100
AcDbLine
 10
163.368867
 20
470.726365
 30
0.0
 11
163.368867
 21
468.726365
 31
0.0
  0
ARC
  5
1DC
330
1F
100
AcDbEntity
  8
LC-002-100-D00-0
 62
     7
370
    50
100
AcDbCircle
 10
164.01972
 20
465.226365
 30
0.0
 40
0.5
100
AcDbArc
 50
270.0
 51
0.0
  0
LINE
  5
1DD
330
1F
100
AcDbEntity
  8
LC-002-100-D00-0
 62
     7
370
    50
100
AcDbLine
 10
163.368867
 20
464.726364
 30
0.0
 11
164.01972
 21
464.726365
 31
0.0
  0
LINE
  5
1DE
330
1F
100
AcDbEntity
  8
LC-002-100-D00-0
 62
     7
370
    50
100
AcDbLine
 10
154.469714
 20
478.726365
 30
0.0
 11
154.46972
 21
474.726365
 31
0.0
  0
LINE
  5
1DF
330
1F
100
AcDbEntity
  8
LC-002-100-D00-0
 62
     7
370
    50
100
AcDbLine
 10
151.469723
 20
474.726365
 30
0.0
 11
151.46972
 21
480.726365
 31
0.0
  0
ARC
  5
1E0
330
1F
100
AcDbEntity
  8
LC-002-100-D00-0
 62
     7
370
    50
100
AcDbCircle
 10
152.46972
 20
480.726365
 30
0.0
 40
1.0
100
AcDbArc
 50
90.0
 51
180.0
  0
LINE
  5
1E1
330
1F
100
AcDbEntity
  8
LC-002-100-D00-0
 62
     7
370
    50
100
AcDbLine
 10
164.01972
 20
468.726365
 30
0.0
 11
163.368867
 21
468.726365
 31
0.0
  0
ARC
  5
1E2
330
1F
100
AcDbEntity
  8
LC-002-100-D00-0
 62
     7
370
    50
100
AcDbCircle
 10
164.01972
 20
468.226365
 30
0.0
 40
0.4999999999998863
100
AcDbArc
 50
0.0
 51
90.0
  0
LINE
  5
1E3
330
1F
100
AcDbEntity
  8
LC-002-100-D00-0
 62
     7
370
    50
100
AcDbLine
 10
165.81972
 20
470.726365
 30
0.0
 11
163.368867
 21
470.726365
 31
0.0
  0
LINE
  5
1E4
330
1F
100
AcDbEntity
  8
LC-002-100-D00-0
 62
     7
370
    50
100
AcDbLine
 10
163.368867
 20
462.726365
 30
0.0
 11
160.96972
 21
462.726365
 31
0.0
  0
LINE
  5
1E5
330
1F
100
AcDbEntity
  8
LC-002-100-D00-0
 62
     7
370
    50
100
AcDbLine
 10
154.469714
 20
478.726365
 30
0.0
 11
158.96972
 21
478.726365
 31
0.0
  0
LINE
  5
1E6
330
1F
100
AcDbEntity
  8
LC-002-100-D00-0
 62
     7
370
    50
100
AcDbLine
 10
152.46972
 20
481.726365
 30
0.0
 11
165.81972
 21
481.726365
 31
0.0
  0
LINE
  5
1E7
330
1F
100
AcDbEntity
  8
LC-002-100-D00-0
 62
     7
370
    50
100
AcDbLine
 10
151.469723
 20
474.726365
 30
0.0
 11
154.46972
 21
474.726365
 31
0.0
  0
LINE
  5
1E8
330
1F
100
AcDbEntity
  8
LC-002-100-D00-0
 62
     7
370
    50
100
AcDbLine
 10
182.96972
 20
474.726365
 30
0.0
 11
184.96972
 21
474.726365
 31
0.0
  0
LINE
  5
1E9
330
1F
100
AcDbEntity
  8
LC-002-100-D00-0
 62
     7
370
    50
100
AcDbLine
 10
154.46972
 20
474.726365
 30
0.0
 11
156.46972
 21
474.726365
 31
0.0
  0
LINE
  5
1EA
330
1F
100
AcDbEntity
  8
LC-002-100-D00-0
 62
     7
370
    50
100
AcDbLine
 10
156.46972
 20
474.726365
 30
0.0
 11
159.969718
 21
474.726365
 31
0.0
  0
LINE
  5
1EB
330
1F
100
AcDbEntity
  8
LC-002-100-D00-0
 62
     7
370
    50
100
AcDbLine
 10
179.46972
 20
474.726365
 30
0.0
 11
182.96972
 21
474.726365
 31
0.0
  0
LINE
  5
1EC
330
1F
100
AcDbEntity
  8
LC-002-100-D00-0
 62
     7
370
    50
100
AcDbLine
 10
586.319716
 20
469.726365
 30
0.0
 11
585.319714
 21
470.726365
 31
0.0
  0
LINE
  5
1ED
330
1F
100
AcDbEntity
  8
LC-002-100-D00-0
 62
     7
370
    50
100
AcDbLine
 10
586.319716
 20
469.726365
 30
0.0
 11
586.31972
 21
463.726365
 31
0.0
  0
LINE
  5
1EE
330
1F
100
AcDbEntity
  8
LC-002-100-D00-0
 62
     7
370
    50
100
AcDbLine
 10
585.31972
 20
462.726365
 30
0.0
 11
586.31972
 21
463.726365
 31
0.0
  0
LINE
  5
1EF
330
1F
100
AcDbEntity
  8
LC-002-100-D00-0
 62
     7
370
    50
100
AcDbLine
 10
583.368868
 20
464.726364
 30
0.0
 11
583.368868
 21
462.726365
 31
0.0
  0
LINE
  5
1F0
330
1F
100
AcDbEntity
  8
LC-002-100-D00-0
 62
     7
370
    50
100
AcDbLine
 10
584.075011
 20
464.915576
 30
0.0
 11
583.368868
 21
464.726364
 31
0.0
  0
ARC
  5
1F1
330
1F
100
AcDbEntity
  8
LC-002-100-D00-0
 62
     7
370
    50
100
AcDbCircle
 10
583.91972
 20
465.495131
 30
0.0
 40
0.6000000000000886
100
AcDbArc
 50
285.0
 51
0.0
  0
LINE
  5
1F2
330
1F
100
AcDbEntity
  8
LC-002-100-D00-0
 62
     7
370
    50
100
AcDbLine
 10
584.51972
 20
467.957598
 30
0.0
 11
584.51972
 21
465.495131
 31
0.0
  0
ARC
  5
1F3
330
1F
100
AcDbEntity
  8
LC-002-100-D00-0
 62
     7
370
    50
100
AcDbCircle
 10
583.91972
 20
467.957598
 30
0.0
 40
0.5999999999999091
100
AcDbArc
 50
0.0
 51
75.0
  0
LINE
  5
1F4
330
1F
100
AcDbEntity
  8
LC-002-100-D00-0
 62
     7
370
    50
100
AcDbLine
 10
583.368868
 20
468.726365
 30
0.0
 11
584.075011
 21
468.537154
 31
0.0
  0
LINE
  5
1F5
330
1F
100
AcDbEntity
  8
LC-002-100-D00-0
 62
     7
370
    50
100
AcDbLine
 10
583.368868
 20
470.726365
 30
0.0
 11
583.368868
 21
468.726365
 31
0.0
  0
LINE
  5
1F6
330
1F
100
AcDbEntity
  8
LC-002-100-D00-0
 62
     7
370
    50
100
AcDbLine
 10
583.368868
 20
462.726365
 30
0.0
 11
585.31972
 21
462.726365
 31
0.0
  0
LINE
  5
1F7
330
1F
100
AcDbEntity
  8
LC-002-100-D00-0
 62
     7
370
    50
100
AcDbLine
 10
583.368868
 20
470.726365
 30
0.0
 11
585.319714
 21
470.726365
 31
0.0
  0
LINE
  5
1F8
330
1F
100
AcDbEntity
  8
LC-002-100-D00-0
 62
     7
370
    50
100
AcDbLine
 10
594.91972
 20
465.495131
 30
0.0
 11
594.91972
 21
467.957598
 31
0.0
  0
ARC
  5
1F9
330
1F
100
AcDbEntity
  8
LC-002-100-D00-0
 62
     7
370
    50
100
AcDbCircle
 10
595.51972
 20
465.495131
 30
0.0
 40
0.6000000000000227
100
AcDbArc
 50
180.0
 51
255.0
  0
LINE
  5
1FA
330
1F
100
AcDbEntity
  8
LC-002-100-D00-0
 62
     7
370
    50
100
AcDbLine
 10
596.070573
 20
464.726364
 30
0.0
 11
595.364429
 21
464.915576
 31
0.0
  0
LINE
  5
1FB
330
1F
100
AcDbEntity
  8
LC-002-100-D00-0
 62
     7
370
    50
100
AcDbLine
 10
596.070573
 20
464.726364
 30
0.0
 11
596.070573
 21
462.726365
 31
0.0
  0
LINE
  5
1FC
330
1F
100
AcDbEntity
  8
LC-002-100-D00-0
 62
     7
370
    50
100
AcDbLine
 10
593.11972
 20
463.726365
 30
0.0
 11
594.11972
 21
462.726365
 31
0.0
  0
LINE
  5
1FD
330
1F
100
AcDbEntity
  8
LC-002-100-D00-0
 62
     7
370
    50
100
AcDbLine
 10
593.11972
 20
463.726365
 30
0.0
 11
593.119726
 21
469.726365
 31
0.0
  0
LINE
  5
1FE
330
1F
100
AcDbEntity
  8
LC-002-100-D00-0
 62
     7
370
    50
100
AcDbLine
 10
594.119713
 20
470.726365
 30
0.0
 11
593.119726
 21
469.726365
 31
0.0
  0
LINE
  5
1FF
330
1F
100
AcDbEntity
  8
LC-002-100-D00-0
 62
     7
370
    50
100
AcDbLine
 10
596.070573
 20
470.726365
 30
0.0
 11
596.070573
 21
468.726365
 31
0.0
  0
LINE
  5
200
330
1F
100
AcDbEntity
  8
LC-002-100-D00-0
 62
     7
370
    50
100
AcDbLine
 10
595.364429
 20
468.537154
 30
0.0
 11
596.070573
 21
468.726365
 31
0.0
  0
ARC
  5
201
330
1F
100
AcDbEntity
  8
LC-002-100-D00-0
 62
     7
370
    50
100
AcDbCircle
 10
595.51972
 20
467.957598
 30
0.0
 40
0.600000000000118
100
AcDbArc
 50
105.0
 51
180.0
  0
LINE
  5
202
330
1F
100
AcDbEntity
  8
LC-002-100-D00-0
 62
     7
370
    50
100
AcDbLine
 10
594.11972
 20
462.726365
 30
0.0
 11
596.070573
 21
462.726365
 31
0.0
  0
LINE
  5
203
330
1F
100
AcDbEntity
  8
LC-002-100-D00-0
 62
     7
370
    50
100
AcDbLine
 10
594.119713
 20
470.726365
 30
0.0
 11
596.070573
 21
470.726365
 31
0.0
  0
LINE
  5
204
330
1F
100
AcDbEntity
  8
LC-002-100-D00-0
 62
     7
370
    50
100
AcDbLine
 10
586.31972
 20
463.726365
 30
0.0
 11
586.47756
 21
463.726365
 31
0.0
  0
LINE
  5
205
330
1F
100
AcDbEntity
  8
LC-002-100-D00-0
 62
     7
370
    50
100
AcDbLine
 10
592.96188
 20
463.726365
 30
0.0
 11
593.11972
 21
463.726365
 31
0.0
  0
LINE
  5
206
330
1F
100
AcDbEntity
  8
LC-002-100-D00-0
 62
     7
370
    50
100
AcDbLine
 10
594.11972
 20
462.726365
 30
0.0
 11
593.583938
 21
462.726365
 31
0.0
  0
LINE
  5
207
330
1F
100
AcDbEntity
  8
LC-002-100-D00-0
 62
     7
370
    50
100
AcDbLine
 10
585.855502
 20
462.726365
 30
0.0
 11
585.31972
 21
462.726365
 31
0.0
  0
LINE
  5
208
330
1F
100
AcDbEntity
  8
LC-002-100-D00-0
 62
     7
370
    50
100
AcDbLine
 10
596.070573
 20
470.726365
 30
0.0
 11
593.61972
 21
470.726365
 31
0.0
  0
LINE
  5
209
330
1F
100
AcDbEntity
  8
LC-002-100-D00-0
 62
     7
370
    50
100
AcDbLine
 10
593.61972
 20
470.726365
 30
0.0
 11
593.61972
 21
481.726365
 31
0.0
  0
LINE
  5
20A
330
1F
100
AcDbEntity
  8
LC-002-100-D00-0
 62
     7
370
    50
100
AcDbLine
 10
593.61972
 20
481.726365
 30
0.0
 11
606.96972
 21
481.726365
 31
0.0
  0
ARC
  5
20B
330
1F
100
AcDbEntity
  8
LC-002-100-D00-0
 62
     7
370
    50
100
AcDbCircle
 10
606.96972
 20
480.726365
 30
0.0
 40
1.000000000000114
100
AcDbArc
 50
0.0
 51
90.0
  0
LINE
  5
20C
330
1F
100
AcDbEntity
  8
LC-002-100-D00-0
 62
     7
370
    50
100
AcDbLine
 10
607.96972
 20
480.726365
 30
0.0
 11
607.969717
 21
474.726365
 31
0.0
  0
LINE
  5
20D
330
1F
100
AcDbEntity
  8
LC-002-100-D00-0
 62
     7
370
    50
100
AcDbLine
 10
604.96972
 20
474.726365
 30
0.0
 11
607.969717
 21
474.726365
 31
0.0
  0
LINE
  5
20E
330
1F
100
AcDbEntity
  8
LC-002-100-D00-0
 62
     7
370
    50
100
AcDbLine
 10
604.96972
 20
474.726365
 30
0.0
 11
604.969726
 21
478.726365
 31
0.0
  0
LINE
  5
20F
330
1F
100
AcDbEntity
  8
LC-002-100-D00-0
 62
     7
370
    50
100
AcDbLine
 10
600.46972
 20
478.726365
 30
0.0
 11
604.969726
 21
478.726365
 31
0.0
  0
ARC
  5
210
330
1F
100
AcDbEntity
  8
LC-002-100-D00-0
 62
     7
370
    50
100
AcDbCircle
 10
600.46972
 20
477.726365
 30
0.0
 40
1.0
100
AcDbArc
 50
90.0
 51
180.0
  0
LINE
  5
211
330
1F
100
AcDbEntity
  8
LC-002-100-D00-0
 62
     7
370
    50
100
AcDbLine
 10
599.46972
 20
463.726365
 30
0.0
 11
599.46972
 21
477.726365
 31
0.0
  0
ARC
  5
212
330
1F
100
AcDbEntity
  8
LC-002-100-D00-0
 62
     7
370
    50
100
AcDbCircle
 10
598.46972
 20
463.726365
 30
0.0
 40
1.0
100
AcDbArc
 50
270.0
 51
0.0
  0
LINE
  5
213
330
1F
100
AcDbEntity
  8
LC-002-100-D00-0
 62
     7
370
    50
100
AcDbLine
 10
598.46972
 20
462.726365
 30
0.0
 11
596.070573
 21
462.726365
 31
0.0
  0
LINE
  5
214
330
1F
100
AcDbEntity
  8
LC-002-100-D00-0
 62
     7
370
    50
100
AcDbLine
 10
596.070573
 20
464.726364
 30
0.0
 11
596.070573
 21
462.726365
 31
0.0
  0
LINE
  5
215
330
1F
100
AcDbEntity
  8
LC-002-100-D00-0
 62
     7
370
    50
100
AcDbLine
 10
595.41972
 20
464.726365
 30
0.0
 11
596.070573
 21
464.726364
 31
0.0
  0
ARC
  5
216
330
1F
100
AcDbEntity
  8
LC-002-100-D00-0
 62
     7
370
    50
100
AcDbCircle
 10
595.41972
 20
465.226365
 30
0.0
 40
0.5
100
AcDbArc
 50
180.0
 51
270.0
  0
LINE
  5
217
330
1F
100
AcDbEntity
  8
LC-002-100-D00-0
 62
     7
370
    50
100
AcDbLine
 10
594.91972
 20
468.226365
 30
0.0
 11
594.91972
 21
465.226365
 31
0.0
  0
ARC
  5
218
330
1F
100
AcDbEntity
  8
LC-002-100-D00-0
 62
     7
370
    50
100
AcDbCircle
 10
595.41972
 20
468.226365
 30
0.0
 40
0.5
100
AcDbArc
 50
90.0
 51
180.0
  0
LINE
  5
219
330
1F
100
AcDbEntity
  8
LC-002-100-D00-0
 62
     7
370
    50
100
AcDbLine
 10
596.070573
 20
468.726365
 30
0.0
 11
595.41972
 21
468.726365
 31
0.0
  0
LINE
  5
21A
330
1F
100
AcDbEntity
  8
LC-002-100-D00-0
 62
     7
370
    50
100
AcDbLine
 10
596.070573
 20
470.726365
 30
0.0
 11
596.070573
 21
468.726365
 31
0.0
  0
ARC
  5
21B
330
1F
100
AcDbEntity
  8
LC-002-100-D00-0
 62
     7
370
    50
100
AcDbCircle
 10
578.96972
 20
477.726365
 30
0.0
 40
1.000000000000114
100
AcDbArc
 50
0.0
 51
90.0
  0
ARC
  5
21C
330
1F
100
AcDbEntity
  8
LC-002-100-D00-0
 62
     7
370
    50
100
AcDbCircle
 10
580.96972
 20
463.726365
 30
0.0
 40
1.000000000000114
100
AcDbArc
 50
180.0
 51
270.0
  0
LINE
  5
21D
330
1F
100
AcDbEntity
  8
LC-002-100-D00-0
 62
     7
370
    50
100
AcDbLine
 10
579.96972
 20
477.726365
 30
0.0
 11
579.96972
 21
463.726365
 31
0.0
  0
LINE
  5
21E
330
1F
100
AcDbEntity
  8
LC-002-100-D00-0
 62
     7
370
    50
100
AcDbLine
 10
584.51972
 20
465.226365
 30
0.0
 11
584.51972
 21
468.226365
 31
0.0
  0
LINE
  5
21F
330
1F
100
AcDbEntity
  8
LC-002-100-D00-0
 62
     7
370
    50
100
AcDbLine
 10
585.81972
 20
481.726365
 30
0.0
 11
585.819722
 21
470.726365
 31
0.0
  0
LINE
  5
220
330
1F
100
AcDbEntity
  8
LC-002-100-D00-0
 62
     7
370
    50
100
AcDbLine
 10
585.81972
 20
481.726365
 30
0.0
 11
593.61972
 21
481.726365
 31
0.0
  0
LINE
  5
221
330
1F
100
AcDbEntity
  8
LC-002-100-D00-0
 62
     7
370
    50
100
AcDbLine
 10
583.368868
 20
470.726365
 30
0.0
 11
583.368868
 21
468.726365
 31
0.0
  0
LINE
  5
222
330
1F
100
AcDbEntity
  8
LC-002-100-D00-0
 62
     7
370
    50
100
AcDbLine
 10
583.368868
 20
464.726364
 30
0.0
 11
583.368868
 21
462.726365
 31
0.0
  0
ARC
  5
223
330
1F
100
AcDbEntity
  8
LC-002-100-D00-0
 62
     7
370
    50
100
AcDbCircle
 10
584.01972
 20
465.226365
 30
0.0
 40
0.5
100
AcDbArc
 50
270.0
 51
0.0
  0
LINE
  5
224
330
1F
100
AcDbEntity
  8
LC-002-100-D00-0
 62
     7
370
    50
100
AcDbLine
 10
583.368868
 20
464.726364
 30
0.0
 11
584.01972
 21
464.726365
 31
0.0
  0
LINE
  5
225
330
1F
100
AcDbEntity
  8
LC-002-100-D00-0
 62
     7
370
    50
100
AcDbLine
 10
574.469716
 20
478.726365
 30
0.0
 11
574.46972
 21
474.726365
 31
0.0
  0
LINE
  5
226
330
1F
100
AcDbEntity
  8
LC-002-100-D00-0
 62
     7
370
    50
100
AcDbLine
 10
571.469725
 20
474.726365
 30
0.0
 11
571.46972
 21
480.726365
 31
0.0
  0
ARC
  5
227
330
1F
100
AcDbEntity
  8
LC-002-100-D00-0
 62
     7
370
    50
100
AcDbCircle
 10
572.46972
 20
480.726365
 30
0.0
 40
1.0
100
AcDbArc
 50
90.0
 51
180.0
  0
LINE
  5
228
330
1F
100
AcDbEntity
  8
LC-002-100-D00-0
 62
     7
370
    50
100
AcDbLine
 10
584.01972
 20
468.726365
 30
0.0
 11
583.368868
 21
468.726365
 31
0.0
  0
ARC
  5
229
330
1F
100
AcDbEntity
  8
LC-002-100-D00-0
 62
     7
370
    50
100
AcDbCircle
 10
584.01972
 20
468.226365
 30
0.0
 40
0.4999999999998863
100
AcDbArc
 50
0.0
 51
90.0
  0
LINE
  5
22A
330
1F
100
AcDbEntity
  8
LC-002-100-D00-0
 62
     7
370
    50
100
AcDbLine
 10
585.819722
 20
470.726365
 30
0.0
 11
583.368868
 21
470.726365
 31
0.0
  0
LINE
  5
22B
330
1F
100
AcDbEntity
  8
LC-002-100-D00-0
 62
     7
370
    50
100
AcDbLine
 10
583.368868
 20
462.726365
 30
0.0
 11
580.96972
 21
462.726365
 31
0.0
  0
LINE
  5
22C
330
1F
100
AcDbEntity
  8
LC-002-100-D00-0
 62
     7
370
    50
100
AcDbLine
 10
574.469716
 20
478.726365
 30
0.0
 11
578.96972
 21
478.726365
 31
0.0
  0
LINE
  5
22D
330
1F
100
AcDbEntity
  8
LC-002-100-D00-0
 62
     7
370
    50
100
AcDbLine
 10
572.46972
 20
481.726365
 30
0.0
 11
585.81972
 21
481.726365
 31
0.0
  0
LINE
  5
22E
330
1F
100
AcDbEntity
  8
LC-002-100-D00-0
 62
     7
370
    50
100
AcDbLine
 10
571.469725
 20
474.726365
 30
0.0
 11
574.46972
 21
474.726365
 31
0.0
  0
LINE
  5
22F
330
1F
100
AcDbEntity
  8
LC-002-100-D00-0
 62
     7
370
    50
100
AcDbLine
 10
602.96972
 20
474.726365
 30
0.0
 11
604.96972
 21
474.726365
 31
0.0
  0
LINE
  5
230
330
1F
100
AcDbEntity
  8
LC-002-100-D00-0
 62
     7
370
    50
100
AcDbLine
 10
574.46972
 20
474.726365
 30
0.0
 11
576.46972
 21
474.726365
 31
0.0
  0
LINE
  5
231
330
1F
100
AcDbEntity
  8
LC-002-100-D00-0
 62
     7
370
    50
100
AcDbLine
 10
576.46972
 20
474.726365
 30
0.0
 11
579.96972
 21
474.726365
 31
0.0
  0
LINE
  5
232
330
1F
100
AcDbEntity
  8
LC-002-100-D00-0
 62
     7
370
    50
100
AcDbLine
 10
599.469722
 20
474.726365
 30
0.0
 11
602.96972
 21
474.726365
 31
0.0
  0
LINE
  5
233
330
1F
100
AcDbEntity
  8
LC-002-100-D00-0
 62
     7
370
    50
100
AcDbLine
 10
276.319721
 20
469.726365
 30
0.0
 11
275.319719
 21
470.726365
 31
0.0
  0
LINE
  5
234
330
1F
100
AcDbEntity
  8
LC-002-100-D00-0
 62
     7
370
    50
100
AcDbLine
 10
276.319721
 20
469.726365
 30
0.0
 11
276.31972
 21
463.726365
 31
0.0
  0
LINE
  5
235
330
1F
100
AcDbEntity
  8
LC-002-100-D00-0
 62
     7
370
    50
100
AcDbLine
 10
275.31972
 20
462.726365
 30
0.0
 11
276.31972
 21
463.726365
 31
0.0
  0
LINE
  5
236
330
1F
100
AcDbEntity
  8
LC-002-100-D00-0
 62
     7
370
    50
100
AcDbLine
 10
273.368866
 20
464.726364
 30
0.0
 11
273.368866
 21
462.726365
 31
0.0
  0
LINE
  5
237
330
1F
100
AcDbEntity
  8
LC-002-100-D00-0
 62
     7
370
    50
100
AcDbLine
 10
274.075011
 20
464.915576
 30
0.0
 11
273.368866
 21
464.726364
 31
0.0
  0
ARC
  5
238
330
1F
100
AcDbEntity
  8
LC-002-100-D00-0
 62
     7
370
    50
100
AcDbCircle
 10
273.91972
 20
465.495131
 30
0.0
 40
0.6000000000000886
100
AcDbArc
 50
285.0
 51
0.0
  0
LINE
  5
239
330
1F
100
AcDbEntity
  8
LC-002-100-D00-0
 62
     7
370
    50
100
AcDbLine
 10
274.51972
 20
467.957598
 30
0.0
 11
274.51972
 21
465.495131
 31
0.0
  0
ARC
  5
23A
330
1F
100
AcDbEntity
  8
LC-002-100-D00-0
 62
     7
370
    50
100
AcDbCircle
 10
273.91972
 20
467.957598
 30
0.0
 40
0.5999999999999091
100
AcDbArc
 50
0.0
 51
75.0
  0
LINE
  5
23B
330
1F
100
AcDbEntity
  8
LC-002-100-D00-0
 62
     7
370
    50
100
AcDbLine
 10
273.368866
 20
468.726365
 30
0.0
 11
274.075011
 21
468.537154
 31
0.0
  0
LINE
  5
23C
330
1F
100
AcDbEntity
  8
LC-002-100-D00-0
 62
     7
370
    50
100
AcDbLine
 10
273.368866
 20
470.726365
 30
0.0
 11
273.368866
 21
468.726365
 31
0.0
  0
LINE
  5
23D
330
1F
100
AcDbEntity
  8
LC-002-100-D00-0
 62
     7
370
    50
100
AcDbLine
 10
273.368866
 20
462.726365
 30
0.0
 11
275.31972
 21
462.726365
 31
0.0
  0
LINE
  5
23E
330
1F
100
AcDbEntity
  8
LC-002-100-D00-0
 62
     7
370
    50
100
AcDbLine
 10
273.368866
 20
470.726365
 30
0.0
 11
275.319719
 21
470.726365
 31
0.0
  0
LINE
  5
23F
330
1F
100
AcDbEntity
  8
LC-002-100-D00-0
 62
     7
370
    50
100
AcDbLine
 10
284.91972
 20
465.495131
 30
0.0
 11
284.91972
 21
467.957598
 31
0.0
  0
ARC
  5
240
330
1F
100
AcDbEntity
  8
LC-002-100-D00-0
 62
     7
370
    50
100
AcDbCircle
 10
285.51972
 20
465.495131
 30
0.0
 40
0.6000000000000227
100
AcDbArc
 50
180.0
 51
255.0
  0
LINE
  5
241
330
1F
100
AcDbEntity
  8
LC-002-100-D00-0
 62
     7
370
    50
100
AcDbLine
 10
286.070571
 20
464.726364
 30
0.0
 11
285.364429
 21
464.915576
 31
0.0
  0
LINE
  5
242
330
1F
100
AcDbEntity
  8
LC-002-100-D00-0
 62
     7
370
    50
100
AcDbLine
 10
286.070571
 20
464.726364
 30
0.0
 11
286.070571
 21
462.726365
 31
0.0
  0
LINE
  5
243
330
1F
100
AcDbEntity
  8
LC-002-100-D00-0
 62
     7
370
    50
100
AcDbLine
 10
283.11972
 20
463.726365
 30
0.0
 11
284.11972
 21
462.726365
 31
0.0
  0
LINE
  5
244
330
1F
100
AcDbEntity
  8
LC-002-100-D00-0
 62
     7
370
    50
100
AcDbLine
 10
283.11972
 20
463.726365
 30
0.0
 11
283.119716
 21
469.726365
 31
0.0
  0
LINE
  5
245
330
1F
100
AcDbEntity
  8
LC-002-100-D00-0
 62
     7
370
    50
100
AcDbLine
 10
284.119719
 20
470.726365
 30
0.0
 11
283.119716
 21
469.726365
 31
0.0
  0
LINE
  5
246
330
1F
100
AcDbEntity
  8
LC-002-100-D00-0
 62
     7
370
    50
100
AcDbLine
 10
286.070571
 20
470.726365
 30
0.0
 11
286.070571
 21
468.726365
 31
0.0
  0
LINE
  5
247
330
1F
100
AcDbEntity
  8
LC-002-100-D00-0
 62
     7
370
    50
100
AcDbLine
 10
285.364429
 20
468.537154
 30
0.0
 11
286.070571
 21
468.726365
 31
0.0
  0
ARC
  5
248
330
1F
100
AcDbEntity
  8
LC-002-100-D00-0
 62
     7
370
    50
100
AcDbCircle
 10
285.51972
 20
467.957598
 30
0.0
 40
0.600000000000118
100
AcDbArc
 50
105.0
 51
180.0
  0
LINE
  5
249
330
1F
100
AcDbEntity
  8
LC-002-100-D00-0
 62
     7
370
    50
100
AcDbLine
 10
284.11972
 20
462.726365
 30
0.0
 11
286.070571
 21
462.726365
 31
0.0
  0
LINE
  5
24A
330
1F
100
AcDbEntity
  8
LC-002-100-D00-0
 62
     7
370
    50
100
AcDbLine
 10
284.119719
 20
470.726365
 30
0.0
 11
286.070571
 21
470.726365
 31
0.0
  0
LINE
  5
24B
330
1F
100
AcDbEntity
  8
LC-002-100-D00-0
 62
     7
370
    50
100
AcDbLine
 10
276.31972
 20
463.726365
 30
0.0
 11
276.47756
 21
463.726365
 31
0.0
  0
LINE
  5
24C
330
1F
100
AcDbEntity
  8
LC-002-100-D00-0
 62
     7
370
    50
100
AcDbLine
 10
282.96188
 20
463.726365
 30
0.0
 11
283.11972
 21
463.726365
 31
0.0
  0
LINE
  5
24D
330
1F
100
AcDbEntity
  8
LC-002-100-D00-0
 62
     7
370
    50
100
AcDbLine
 10
284.11972
 20
462.726365
 30
0.0
 11
283.583938
 21
462.726365
 31
0.0
  0
LINE
  5
24E
330
1F
100
AcDbEntity
  8
LC-002-100-D00-0
 62
     7
370
    50
100
AcDbLine
 10
275.855502
 20
462.726365
 30
0.0
 11
275.31972
 21
462.726365
 31
0.0
  0
LINE
  5
24F
330
1F
100
AcDbEntity
  8
LC-002-100-D00-0
 62
     7
370
    50
100
AcDbLine
 10
286.070571
 20
470.726365
 30
0.0
 11
283.619718
 21
470.726365
 31
0.0
  0
LINE
  5
250
330
1F
100
AcDbEntity
  8
LC-002-100-D00-0
 62
     7
370
    50
100
AcDbLine
 10
283.619718
 20
470.726365
 30
0.0
 11
283.61972
 21
481.726365
 31
0.0
  0
LINE
  5
251
330
1F
100
AcDbEntity
  8
LC-002-100-D00-0
 62
     7
370
    50
100
AcDbLine
 10
283.61972
 20
481.726365
 30
0.0
 11
296.96972
 21
481.726365
 31
0.0
  0
ARC
  5
252
330
1F
100
AcDbEntity
  8
LC-002-100-D00-0
 62
     7
370
    50
100
AcDbCircle
 10
296.96972
 20
480.726365
 30
0.0
 40
1.000000000000114
100
AcDbArc
 50
0.0
 51
90.0
  0
LINE
  5
253
330
1F
100
AcDbEntity
  8
LC-002-100-D00-0
 62
     7
370
    50
100
AcDbLine
 10
297.96972
 20
480.726365
 30
0.0
 11
297.969722
 21
474.726365
 31
0.0
  0
LINE
  5
254
330
1F
100
AcDbEntity
  8
LC-002-100-D00-0
 62
     7
370
    50
100
AcDbLine
 10
294.96972
 20
474.726365
 30
0.0
 11
297.969722
 21
474.726365
 31
0.0
  0
LINE
  5
255
330
1F
100
AcDbEntity
  8
LC-002-100-D00-0
 62
     7
370
    50
100
AcDbLine
 10
294.96972
 20
474.726365
 30
0.0
 11
294.969723
 21
478.726365
 31
0.0
  0
LINE
  5
256
330
1F
100
AcDbEntity
  8
LC-002-100-D00-0
 62
     7
370
    50
100
AcDbLine
 10
290.46972
 20
478.726365
 30
0.0
 11
294.969723
 21
478.726365
 31
0.0
  0
ARC
  5
257
330
1F
100
AcDbEntity
  8
LC-002-100-D00-0
 62
     7
370
    50
100
AcDbCircle
 10
290.46972
 20
477.726365
 30
0.0
 40
1.0
100
AcDbArc
 50
90.0
 51
180.0
  0
LINE
  5
258
330
1F
100
AcDbEntity
  8
LC-002-100-D00-0
 62
     7
370
    50
100
AcDbLine
 10
289.46972
 20
463.726365
 30
0.0
 11
289.46972
 21
477.726365
 31
0.0
  0
ARC
  5
259
330
1F
100
AcDbEntity
  8
LC-002-100-D00-0
 62
     7
370
    50
100
AcDbCircle
 10
288.46972
 20
463.726365
 30
0.0
 40
1.0
100
AcDbArc
 50
270.0
 51
0.0
  0
LINE
  5
25A
330
1F
100
AcDbEntity
  8
LC-002-100-D00-0
 62
     7
370
    50
100
AcDbLine
 10
288.46972
 20
462.726365
 30
0.0
 11
286.070571
 21
462.726365
 31
0.0
  0
LINE
  5
25B
330
1F
100
AcDbEntity
  8
LC-002-100-D00-0
 62
     7
370
    50
100
AcDbLine
 10
286.070571
 20
464.726364
 30
0.0
 11
286.070571
 21
462.726365
 31
0.0
  0
LINE
  5
25C
330
1F
100
AcDbEntity
  8
LC-002-100-D00-0
 62
     7
370
    50
100
AcDbLine
 10
285.41972
 20
464.726365
 30
0.0
 11
286.070571
 21
464.726364
 31
0.0
  0
ARC
  5
25D
330
1F
100
AcDbEntity
  8
LC-002-100-D00-0
 62
     7
370
    50
100
AcDbCircle
 10
285.41972
 20
465.226365
 30
0.0
 40
0.5
100
AcDbArc
 50
180.0
 51
270.0
  0
LINE
  5
25E
330
1F
100
AcDbEntity
  8
LC-002-100-D00-0
 62
     7
370
    50
100
AcDbLine
 10
284.91972
 20
468.226365
 30
0.0
 11
284.91972
 21
465.226365
 31
0.0
  0
ARC
  5
25F
330
1F
100
AcDbEntity
  8
LC-002-100-D00-0
 62
     7
370
    50
100
AcDbCircle
 10
285.41972
 20
468.226365
 30
0.0
 40
0.5
100
AcDbArc
 50
90.0
 51
180.0
  0
LINE
  5
260
330
1F
100
AcDbEntity
  8
LC-002-100-D00-0
 62
     7
370
    50
100
AcDbLine
 10
286.070571
 20
468.726365
 30
0.0
 11
285.41972
 21
468.726365
 31
0.0
  0
LINE
  5
261
330
1F
100
AcDbEntity
  8
LC-002-100-D00-0
 62
     7
370
    50
100
AcDbLine
 10
286.070571
 20
470.726365
 30
0.0
 11
286.070571
 21
468.726365
 31
0.0
  0
ARC
  5
262
330
1F
100
AcDbEntity
  8
LC-002-100-D00-0
 62
     7
370
    50
100
AcDbCircle
 10
268.96972
 20
477.726365
 30
0.0
 40
1.000000000000114
100
AcDbArc
 50
0.0
 51
90.0
  0
ARC
  5
263
330
1F
100
AcDbEntity
  8
LC-002-100-D00-0
 62
     7
370
    50
100
AcDbCircle
 10
270.96972
 20
463.726365
 30
0.0
 40
1.000000000000114
100
AcDbArc
 50
180.0
 51
270.0
  0
LINE
  5
264
330
1F
100
AcDbEntity
  8
LC-002-100-D00-0
 62
     7
370
    50
100
AcDbLine
 10
269.96972
 20
477.726365
 30
0.0
 11
269.96972
 21
463.726365
 31
0.0
  0
LINE
  5
265
330
1F
100
AcDbEntity
  8
LC-002-100-D00-0
 62
     7
370
    50
100
AcDbLine
 10
274.51972
 20
465.226365
 30
0.0
 11
274.51972
 21
468.226365
 31
0.0
  0
LINE
  5
266
330
1F
100
AcDbEntity
  8
LC-002-100-D00-0
 62
     7
370
    50
100
AcDbLine
 10
275.81972
 20
481.726365
 30
0.0
 11
275.81972
 21
470.726365
 31
0.0
  0
LINE
  5
267
330
1F
100
AcDbEntity
  8
LC-002-100-D00-0
 62
     7
370
    50
100
AcDbLine
 10
275.81972
 20
481.726365
 30
0.0
 11
283.61972
 21
481.726365
 31
0.0
  0
LINE
  5
268
330
1F
100
AcDbEntity
  8
LC-002-100-D00-0
 62
     7
370
    50
100
AcDbLine
 10
273.368866
 20
470.726365
 30
0.0
 11
273.368866
 21
468.726365
 31
0.0
  0
LINE
  5
269
330
1F
100
AcDbEntity
  8
LC-002-100-D00-0
 62
     7
370
    50
100
AcDbLine
 10
273.368866
 20
464.726364
 30
0.0
 11
273.368866
 21
462.726365
 31
0.0
  0
ARC
  5
26A
330
1F
100
AcDbEntity
  8
LC-002-100-D00-0
 62
     7
370
    50
100
AcDbCircle
 10
274.01972
 20
465.226365
 30
0.0
 40
0.5
100
AcDbArc
 50
270.0
 51
0.0
  0
LINE
  5
26B
330
1F
100
AcDbEntity
  8
LC-002-100-D00-0
 62
     7
370
    50
100
AcDbLine
 10
273.368866
 20
464.726364
 30
0.0
 11
274.01972
 21
464.726365
 31
0.0
  0
LINE
  5
26C
330
1F
100
AcDbEntity
  8
LC-002-100-D00-0
 62
     7
370
    50
100
AcDbLine
 10
264.469721
 20
478.726365
 30
0.0
 11
264.46972
 21
474.726365
 31
0.0
  0
LINE
  5
26D
330
1F
100
AcDbEntity
  8
LC-002-100-D00-0
 62
     7
370
    50
100
AcDbLine
 10
261.469723
 20
474.726365
 30
0.0
 11
261.46972
 21
480.726365
 31
0.0
  0
ARC
  5
26E
330
1F
100
AcDbEntity
  8
LC-002-100-D00-0
 62
     7
370
    50
100
AcDbCircle
 10
262.46972
 20
480.726365
 30
0.0
 40
1.0
100
AcDbArc
 50
90.0
 51
180.0
  0
LINE
  5
26F
330
1F
100
AcDbEntity
  8
LC-002-100-D00-0
 62
     7
370
    50
100
AcDbLine
 10
274.01972
 20
468.726365
 30
0.0
 11
273.368866
 21
468.726365
 31
0.0
  0
ARC
  5
270
330
1F
100
AcDbEntity
  8
LC-002-100-D00-0
 62
     7
370
    50
100
AcDbCircle
 10
274.01972
 20
468.226365
 30
0.0
 40
0.4999999999998863
100
AcDbArc
 50
0.0
 51
90.0
  0
LINE
  5
271
330
1F
100
AcDbEntity
  8
LC-002-100-D00-0
 62
     7
370
    50
100
AcDbLine
 10
275.81972
 20
470.726365
 30
0.0
 11
273.368866
 21
470.726365
 31
0.0
  0
LINE
  5
272
330
1F
100
AcDbEntity
  8
LC-002-100-D00-0
 62
     7
370
    50
100
AcDbLine
 10
273.368866
 20
462.726365
 30
0.0
 11
270.96972
 21
462.726365
 31
0.0
  0
LINE
  5
273
330
1F
100
AcDbEntity
  8
LC-002-100-D00-0
 62
     7
370
    50
100
AcDbLine
 10
264.469721
 20
478.726365
 30
0.0
 11
268.96972
 21
478.726365
 31
0.0
  0
LINE
  5
274
330
1F
100
AcDbEntity
  8
LC-002-100-D00-0
 62
     7
370
    50
100
AcDbLine
 10
261.469723
 20
474.726365
 30
0.0
 11
264.46972
 21
474.726365
 31
0.0
  0
LINE
  5
275
330
1F
100
AcDbEntity
  8
LC-002-100-D00-0
 62
     7
370
    50
100
AcDbLine
 10
262.46972
 20
481.726365
 30
0.0
 11
275.81972
 21
481.726365
 31
0.0
  0
LINE
  5
276
330
1F
100
AcDbEntity
  8
LC-002-100-D00-0
 62
     7
370
    50
100
AcDbLine
 10
292.96972
 20
474.726365
 30
0.0
 11
294.96972
 21
474.726365
 31
0.0
  0
LINE
  5
277
330
1F
100
AcDbEntity
  8
LC-002-100-D00-0
 62
     7
370
    50
100
AcDbLine
 10
264.46972
 20
474.726365
 30
0.0
 11
266.46972
 21
474.726365
 31
0.0
  0
LINE
  5
278
330
1F
100
AcDbEntity
  8
LC-002-100-D00-0
 62
     7
370
    50
100
AcDbLine
 10
266.46972
 20
474.726365
 30
0.0
 11
269.969717
 21
474.726365
 31
0.0
  0
LINE
  5
279
330
1F
100
AcDbEntity
  8
LC-002-100-D00-0
 62
     7
370
    50
100
AcDbLine
 10
289.46972
 20
474.726365
 30
0.0
 11
292.96972
 21
474.726365
 31
0.0
  0
LINE
  5
27A
330
1F
100
AcDbEntity
  8
LC-002-100-D00-0
 62
     7
370
    50
100
AcDbLine
 10
476.319724
 20
469.726365
 30
0.0
 11
475.319722
 21
470.726365
 31
0.0
  0
LINE
  5
27B
330
1F
100
AcDbEntity
  8
LC-002-100-D00-0
 62
     7
370
    50
100
AcDbLine
 10
476.319724
 20
469.726365
 30
0.0
 11
476.31972
 21
463.726365
 31
0.0
  0
LINE
  5
27C
330
1F
100
AcDbEntity
  8
LC-002-100-D00-0
 62
     7
370
    50
100
AcDbLine
 10
475.31972
 20
462.726365
 30
0.0
 11
476.31972
 21
463.726365
 31
0.0
  0
LINE
  5
27D
330
1F
100
AcDbEntity
  8
LC-002-100-D00-0
 62
     7
370
    50
100
AcDbLine
 10
473.368869
 20
464.726364
 30
0.0
 11
473.368869
 21
462.726365
 31
0.0
  0
LINE
  5
27E
330
1F
100
AcDbEntity
  8
LC-002-100-D00-0
 62
     7
370
    50
100
AcDbLine
 10
474.075011
 20
464.915576
 30
0.0
 11
473.368869
 21
464.726364
 31
0.0
  0
ARC
  5
27F
330
1F
100
AcDbEntity
  8
LC-002-100-D00-0
 62
     7
370
    50
100
AcDbCircle
 10
473.91972
 20
465.495131
 30
0.0
 40
0.6000000000000886
100
AcDbArc
 50
285.0
 51
0.0
  0
LINE
  5
280
330
1F
100
AcDbEntity
  8
LC-002-100-D00-0
 62
     7
370
    50
100
AcDbLine
 10
474.51972
 20
467.957598
 30
0.0
 11
474.51972
 21
465.495131
 31
0.0
  0
ARC
  5
281
330
1F
100
AcDbEntity
  8
LC-002-100-D00-0
 62
     7
370
    50
100
AcDbCircle
 10
473.91972
 20
467.957598
 30
0.0
 40
0.5999999999999091
100
AcDbArc
 50
0.0
 51
75.0
  0
LINE
  5
282
330
1F
100
AcDbEntity
  8
LC-002-100-D00-0
 62
     7
370
    50
100
AcDbLine
 10
473.368869
 20
468.726365
 30
0.0
 11
474.075011
 21
468.537154
 31
0.0
  0
LINE
  5
283
330
1F
100
AcDbEntity
  8
LC-002-100-D00-0
 62
     7
370
    50
100
AcDbLine
 10
473.368869
 20
470.726365
 30
0.0
 11
473.368869
 21
468.726365
 31
0.0
  0
LINE
  5
284
330
1F
100
AcDbEntity
  8
LC-002-100-D00-0
 62
     7
370
    50
100
AcDbLine
 10
473.368869
 20
462.726365
 30
0.0
 11
475.31972
 21
462.726365
 31
0.0
  0
LINE
  5
285
330
1F
100
AcDbEntity
  8
LC-002-100-D00-0
 62
     7
370
    50
100
AcDbLine
 10
473.368869
 20
470.726365
 30
0.0
 11
475.319722
 21
470.726365
 31
0.0
  0
LINE
  5
286
330
1F
100
AcDbEntity
  8
LC-002-100-D00-0
 62
     7
370
    50
100
AcDbLine
 10
484.91972
 20
465.495131
 30
0.0
 11
484.91972
 21
467.957598
 31
0.0
  0
ARC
  5
287
330
1F
100
AcDbEntity
  8
LC-002-100-D00-0
 62
     7
370
    50
100
AcDbCircle
 10
485.51972
 20
465.495131
 30
0.0
 40
0.6000000000000227
100
AcDbArc
 50
180.0
 51
255.0
  0
LINE
  5
288
330
1F
100
AcDbEntity
  8
LC-002-100-D00-0
 62
     7
370
    50
100
AcDbLine
 10
486.070574
 20
464.726364
 30
0.0
 11
485.364429
 21
464.915576
 31
0.0
  0
LINE
  5
289
330
1F
100
AcDbEntity
  8
LC-002-100-D00-0
 62
     7
370
    50
100
AcDbLine
 10
486.070574
 20
464.726364
 30
0.0
 11
486.070574
 21
462.726365
 31
0.0
  0
LINE
  5
28A
330
1F
100
AcDbEntity
  8
LC-002-100-D00-0
 62
     7
370
    50
100
AcDbLine
 10
483.11972
 20
463.726365
 30
0.0
 11
484.11972
 21
462.726365
 31
0.0
  0
LINE
  5
28B
330
1F
100
AcDbEntity
  8
LC-002-100-D00-0
 62
     7
370
    50
100
AcDbLine
 10
483.11972
 20
463.726365
 30
0.0
 11
483.119719
 21
469.726365
 31
0.0
  0
LINE
  5
28C
330
1F
100
AcDbEntity
  8
LC-002-100-D00-0
 62
     7
370
    50
100
AcDbLine
 10
484.119722
 20
470.726365
 30
0.0
 11
483.119719
 21
469.726365
 31
0.0
  0
LINE
  5
28D
330
1F
100
AcDbEntity
  8
LC-002-100-D00-0
 62
     7
370
    50
100
AcDbLine
 10
486.070574
 20
470.726365
 30
0.0
 11
486.070574
 21
468.726365
 31
0.0
  0
LINE
  5
28E
330
1F
100
AcDbEntity
  8
LC-002-100-D00-0
 62
     7
370
    50
100
AcDbLine
 10
485.364429
 20
468.537154
 30
0.0
 11
486.070574
 21
468.726365
 31
0.0
  0
ARC
  5
28F
330
1F
100
AcDbEntity
  8
LC-002-100-D00-0
 62
     7
370
    50
100
AcDbCircle
 10
485.51972
 20
467.957598
 30
0.0
 40
0.600000000000118
100
AcDbArc
 50
105.0
 51
180.0
  0
LINE
  5
290
330
1F
100
AcDbEntity
  8
LC-002-100-D00-0
 62
     7
370
    50
100
AcDbLine
 10
484.11972
 20
462.726365
 30
0.0
 11
486.070574
 21
462.726365
 31
0.0
  0
LINE
  5
291
330
1F
100
AcDbEntity
  8
LC-002-100-D00-0
 62
     7
370
    50
100
AcDbLine
 10
484.119722
 20
470.726365
 30
0.0
 11
486.070574
 21
470.726365
 31
0.0
  0
LINE
  5
292
330
1F
100
AcDbEntity
  8
LC-002-100-D00-0
 62
     7
370
    50
100
AcDbLine
 10
476.31972
 20
463.726365
 30
0.0
 11
476.47756
 21
463.726365
 31
0.0
  0
LINE
  5
293
330
1F
100
AcDbEntity
  8
LC-002-100-D00-0
 62
     7
370
    50
100
AcDbLine
 10
482.96188
 20
463.726365
 30
0.0
 11
483.11972
 21
463.726365
 31
0.0
  0
LINE
  5
294
330
1F
100
AcDbEntity
  8
LC-002-100-D00-0
 62
     7
370
    50
100
AcDbLine
 10
484.11972
 20
462.726365
 30
0.0
 11
483.583938
 21
462.726365
 31
0.0
  0
LINE
  5
295
330
1F
100
AcDbEntity
  8
LC-002-100-D00-0
 62
     7
370
    50
100
AcDbLine
 10
475.855502
 20
462.726365
 30
0.0
 11
475.31972
 21
462.726365
 31
0.0
  0
LINE
  5
296
330
1F
100
AcDbEntity
  8
LC-002-100-D00-0
 62
     7
370
    50
100
AcDbLine
 10
486.070574
 20
470.726365
 30
0.0
 11
483.61972
 21
470.726365
 31
0.0
  0
LINE
  5
297
330
1F
100
AcDbEntity
  8
LC-002-100-D00-0
 62
     7
370
    50
100
AcDbLine
 10
483.61972
 20
470.726365
 30
0.0
 11
483.61972
 21
481.726365
 31
0.0
  0
LINE
  5
298
330
1F
100
AcDbEntity
  8
LC-002-100-D00-0
 62
     7
370
    50
100
AcDbLine
 10
483.61972
 20
481.726365
 30
0.0
 11
496.96972
 21
481.726365
 31
0.0
  0
ARC
  5
299
330
1F
100
AcDbEntity
  8
LC-002-100-D00-0
 62
     7
370
    50
100
AcDbCircle
 10
496.96972
 20
480.726365
 30
0.0
 40
1.000000000000114
100
AcDbArc
 50
0.0
 51
90.0
  0
LINE
  5
29A
330
1F
100
AcDbEntity
  8
LC-002-100-D00-0
 62
     7
370
    50
100
AcDbLine
 10
497.96972
 20
480.726365
 30
0.0
 11
497.969718
 21
474.726365
 31
0.0
  0
LINE
  5
29B
330
1F
100
AcDbEntity
  8
LC-002-100-D00-0
 62
     7
370
    50
100
AcDbLine
 10
494.96972
 20
474.726365
 30
0.0
 11
497.969718
 21
474.726365
 31
0.0
  0
LINE
  5
29C
330
1F
100
AcDbEntity
  8
LC-002-100-D00-0
 62
     7
370
    50
100
AcDbLine
 10
494.96972
 20
474.726365
 30
0.0
 11
494.969719
 21
478.726365
 31
0.0
  0
LINE
  5
29D
330
1F
100
AcDbEntity
  8
LC-002-100-D00-0
 62
     7
370
    50
100
AcDbLine
 10
490.46972
 20
478.726365
 30
0.0
 11
494.969719
 21
478.726365
 31
0.0
  0
ARC
  5
29E
330
1F
100
AcDbEntity
  8
LC-002-100-D00-0
 62
     7
370
    50
100
AcDbCircle
 10
490.46972
 20
477.726365
 30
0.0
 40
1.0
100
AcDbArc
 50
90.0
 51
180.0
  0
LINE
  5
29F
330
1F
100
AcDbEntity
  8
LC-002-100-D00-0
 62
     7
370
    50
100
AcDbLine
 10
489.46972
 20
463.726365
 30
0.0
 11
489.46972
 21
477.726365
 31
0.0
  0
ARC
  5
2A0
330
1F
100
AcDbEntity
  8
LC-002-100-D00-0
 62
     7
370
    50
100
AcDbCircle
 10
488.46972
 20
463.726365
 30
0.0
 40
1.0
100
AcDbArc
 50
270.0
 51
0.0
  0
LINE
  5
2A1
330
1F
100
AcDbEntity
  8
LC-002-100-D00-0
 62
     7
370
    50
100
AcDbLine
 10
488.46972
 20
462.726365
 30
0.0
 11
486.070574
 21
462.726365
 31
0.0
  0
LINE
  5
2A2
330
1F
100
AcDbEntity
  8
LC-002-100-D00-0
 62
     7
370
    50
100
AcDbLine
 10
486.070574
 20
464.726364
 30
0.0
 11
486.070574
 21
462.726365
 31
0.0
  0
LINE
  5
2A3
330
1F
100
AcDbEntity
  8
LC-002-100-D00-0
 62
     7
370
    50
100
AcDbLine
 10
485.41972
 20
464.726365
 30
0.0
 11
486.070574
 21
464.726364
 31
0.0
  0
ARC
  5
2A4
330
1F
100
AcDbEntity
  8
LC-002-100-D00-0
 62
     7
370
    50
100
AcDbCircle
 10
485.41972
 20
465.226365
 30
0.0
 40
0.5
100
AcDbArc
 50
180.0
 51
270.0
  0
LINE
  5
2A5
330
1F
100
AcDbEntity
  8
LC-002-100-D00-0
 62
     7
370
    50
100
AcDbLine
 10
484.91972
 20
468.226365
 30
0.0
 11
484.91972
 21
465.226365
 31
0.0
  0
ARC
  5
2A6
330
1F
100
AcDbEntity
  8
LC-002-100-D00-0
 62
     7
370
    50
100
AcDbCircle
 10
485.41972
 20
468.226365
 30
0.0
 40
0.5
100
AcDbArc
 50
90.0
 51
180.0
  0
LINE
  5
2A7
330
1F
100
AcDbEntity
  8
LC-002-100-D00-0
 62
     7
370
    50
100
AcDbLine
 10
486.070574
 20
468.726365
 30
0.0
 11
485.41972
 21
468.726365
 31
0.0
  0
LINE
  5
2A8
330
1F
100
AcDbEntity
  8
LC-002-100-D00-0
 62
     7
370
    50
100
AcDbLine
 10
486.070574
 20
470.726365
 30
0.0
 11
486.070574
 21
468.726365
 31
0.0
  0
ARC
  5
2A9
330
1F
100
AcDbEntity
  8
LC-002-100-D00-0
 62
     7
370
    50
100
AcDbCircle
 10
468.96972
 20
477.726365
 30
0.0
 40
1.000000000000114
100
AcDbArc
 50
0.0
 51
90.0
  0
LINE
  5
2AA
330
1F
100
AcDbEntity
  8
LC-002-100-D00-0
 62
     7
370
    50
100
AcDbLine
 10
469.96972
 20
477.726365
 30
0.0
 11
469.96972
 21
463.726365
 31
0.0
  0
ARC
  5
2AB
330
1F
100
AcDbEntity
  8
LC-002-100-D00-0
 62
     7
370
    50
100
AcDbCircle
 10
470.96972
 20
463.726365
 30
0.0
 40
1.000000000000114
100
AcDbArc
 50
180.0
 51
270.0
  0
LINE
  5
2AC
330
1F
100
AcDbEntity
  8
LC-002-100-D00-0
 62
     7
370
    50
100
AcDbLine
 10
474.51972
 20
465.226365
 30
0.0
 11
474.51972
 21
468.226365
 31
0.0
  0
LINE
  5
2AD
330
1F
100
AcDbEntity
  8
LC-002-100-D00-0
 62
     7
370
    50
100
AcDbLine
 10
475.81972
 20
481.726365
 30
0.0
 11
475.819723
 21
470.726365
 31
0.0
  0
LINE
  5
2AE
330
1F
100
AcDbEntity
  8
LC-002-100-D00-0
 62
     7
370
    50
100
AcDbLine
 10
475.81972
 20
481.726365
 30
0.0
 11
483.61972
 21
481.726365
 31
0.0
  0
LINE
  5
2AF
330
1F
100
AcDbEntity
  8
LC-002-100-D00-0
 62
     7
370
    50
100
AcDbLine
 10
473.368869
 20
470.726365
 30
0.0
 11
473.368869
 21
468.726365
 31
0.0
  0
LINE
  5
2B0
330
1F
100
AcDbEntity
  8
LC-002-100-D00-0
 62
     7
370
    50
100
AcDbLine
 10
473.368869
 20
464.726364
 30
0.0
 11
473.368869
 21
462.726365
 31
0.0
  0
ARC
  5
2B1
330
1F
100
AcDbEntity
  8
LC-002-100-D00-0
 62
     7
370
    50
100
AcDbCircle
 10
474.01972
 20
465.226365
 30
0.0
 40
0.5
100
AcDbArc
 50
270.0
 51
0.0
  0
LINE
  5
2B2
330
1F
100
AcDbEntity
  8
LC-002-100-D00-0
 62
     7
370
    50
100
AcDbLine
 10
473.368869
 20
464.726364
 30
0.0
 11
474.01972
 21
464.726365
 31
0.0
  0
LINE
  5
2B3
330
1F
100
AcDbEntity
  8
LC-002-100-D00-0
 62
     7
370
    50
100
AcDbLine
 10
464.469717
 20
478.726365
 30
0.0
 11
464.46972
 21
474.726365
 31
0.0
  0
LINE
  5
2B4
330
1F
100
AcDbEntity
  8
LC-002-100-D00-0
 62
     7
370
    50
100
AcDbLine
 10
461.469718
 20
474.726365
 30
0.0
 11
461.46972
 21
480.726365
 31
0.0
  0
ARC
  5
2B5
330
1F
100
AcDbEntity
  8
LC-002-100-D00-0
 62
     7
370
    50
100
AcDbCircle
 10
462.46972
 20
480.726365
 30
0.0
 40
1.0
100
AcDbArc
 50
90.0
 51
180.0
  0
LINE
  5
2B6
330
1F
100
AcDbEntity
  8
LC-002-100-D00-0
 62
     7
370
    50
100
AcDbLine
 10
474.01972
 20
468.726365
 30
0.0
 11
473.368869
 21
468.726365
 31
0.0
  0
ARC
  5
2B7
330
1F
100
AcDbEntity
  8
LC-002-100-D00-0
 62
     7
370
    50
100
AcDbCircle
 10
474.01972
 20
468.226365
 30
0.0
 40
0.4999999999998863
100
AcDbArc
 50
0.0
 51
90.0
  0
LINE
  5
2B8
330
1F
100
AcDbEntity
  8
LC-002-100-D00-0
 62
     7
370
    50
100
AcDbLine
 10
475.819723
 20
470.726365
 30
0.0
 11
473.368869
 21
470.726365
 31
0.0
  0
LINE
  5
2B9
330
1F
100
AcDbEntity
  8
LC-002-100-D00-0
 62
     7
370
    50
100
AcDbLine
 10
473.368869
 20
462.726365
 30
0.0
 11
470.96972
 21
462.726365
 31
0.0
  0
LINE
  5
2BA
330
1F
100
AcDbEntity
  8
LC-002-100-D00-0
 62
     7
370
    50
100
AcDbLine
 10
464.469717
 20
478.726365
 30
0.0
 11
468.96972
 21
478.726365
 31
0.0
  0
LINE
  5
2BB
330
1F
100
AcDbEntity
  8
LC-002-100-D00-0
 62
     7
370
    50
100
AcDbLine
 10
461.469718
 20
474.726365
 30
0.0
 11
464.46972
 21
474.726365
 31
0.0
  0
LINE
  5
2BC
330
1F
100
AcDbEntity
  8
LC-002-100-D00-0
 62
     7
370
    50
100
AcDbLine
 10
462.46972
 20
481.726365
 30
0.0
 11
475.81972
 21
481.726365
 31
0.0
  0
LINE
  5
2BD
330
1F
100
AcDbEntity
  8
LC-002-100-D00-0
 62
     7
370
    50
100
AcDbLine
 10
492.96972
 20
474.726365
 30
0.0
 11
494.96972
 21
474.726365
 31
0.0
  0
LINE
  5
2BE
330
1F
100
AcDbEntity
  8
LC-002-100-D00-0
 62
     7
370
    50
100
AcDbLine
 10
464.46972
 20
474.726365
 30
0.0
 11
466.46972
 21
474.726365
 31
0.0
  0
LINE
  5
2BF
330
1F
100
AcDbEntity
  8
LC-002-100-D00-0
 62
     7
370
    50
100
AcDbLine
 10
466.46972
 20
474.726365
 30
0.0
 11
469.96972
 21
474.726365
 31
0.0
  0
LINE
  5
2C0
330
1F
100
AcDbEntity
  8
LC-002-100-D00-0
 62
     7
370
    50
100
AcDbLine
 10
489.469723
 20
474.726365
 30
0.0
 11
492.96972
 21
474.726365
 31
0.0
  0
LINE
  5
2C1
330
1F
100
AcDbEntity
  8
LC-002-100-D00-0
 62
     7
370
    50
100
AcDbLine
 10
473.062058
 20
459.641179
 30
0.0
 11
455.228386
 21
454.862661
 31
0.0
  0
ARC
  5
2C2
330
1F
100
AcDbEntity
  8
LC-002-100-D00-0
 62
     7
370
    50
100
AcDbCircle
 10
454.19311
 20
458.726365
 30
0.0
 40
4.0
100
AcDbArc
 50
270.0
 51
285.0
  0
ARC
  5
2C3
330
1F
100
AcDbEntity
  8
LC-002-100-D00-0
 62
     7
370
    50
100
AcDbCircle
 10
454.19311
 20
458.726365
 30
0.0
 40
2.5
100
AcDbArc
 50
270.0
 51
285.0
  0
LINE
  5
2C4
330
1F
100
AcDbEntity
  8
LC-002-100-D00-0
 62
     7
370
    50
100
AcDbLine
 10
472.673829
 20
461.090068
 30
0.0
 11
454.840158
 21
456.31155
 31
0.0
  0
ARC
  5
2C5
330
1F
100
AcDbEntity
  8
LC-002-100-D00-0
 62
     7
370
    50
100
AcDbCircle
 10
473.709105
 20
457.226365
 30
0.0
 40
4.0
100
AcDbArc
 50
90.0
 51
105.0
  0
LINE
  5
2C6
330
1F
100
AcDbEntity
  8
LC-002-100-D00-0
 62
     7
370
    50
100
AcDbLine
 10
473.709105
 20
461.226365
 30
0.0
 11
475.21972
 21
461.226364
 31
0.0
  0
LINE
  5
2C7
330
1F
100
AcDbEntity
  8
LC-002-100-D00-0
 62
     7
370
    50
100
AcDbLine
 10
475.21972
 20
461.226364
 30
0.0
 11
475.21972
 21
462.626366
 31
0.0
  0
LINE
  5
2C8
330
1F
100
AcDbEntity
  8
LC-002-100-D00-0
 62
     7
370
    50
100
AcDbLine
 10
475.71972
 20
462.626365
 30
0.0
 11
475.21972
 21
462.626366
 31
0.0
  0
ARC
  5
2C9
330
1F
100
AcDbEntity
  8
LC-002-100-D00-0
 62
     7
370
    50
100
AcDbCircle
 10
474.71972
 20
464.126365
 30
0.0
 40
1.802775637731868
100
AcDbArc
 50
303.690068
 51
56.309932
  0
LINE
  5
2CA
330
1F
100
AcDbEntity
  8
LC-002-100-D00-0
 62
     7
370
    50
100
AcDbLine
 10
475.719721
 20
480.226365
 30
0.0
 11
475.71972
 21
465.626365
 31
0.0
  0
LINE
  5
2CB
330
1F
100
AcDbEntity
  8
LC-002-100-D00-0
 62
     7
370
    50
100
AcDbLine
 10
476.719723
 20
481.226365
 30
0.0
 11
475.719721
 21
480.226365
 31
0.0
  0
LINE
  5
2CC
330
1F
100
AcDbEntity
  8
LC-002-100-D00-0
 62
     7
370
    50
100
AcDbLine
 10
482.71972
 20
481.226365
 30
0.0
 11
476.719723
 21
481.226365
 31
0.0
  0
LINE
  5
2CD
330
1F
100
AcDbEntity
  8
LC-002-100-D00-0
 62
     7
370
    50
100
AcDbLine
 10
483.719722
 20
480.226365
 30
0.0
 11
482.71972
 21
481.226365
 31
0.0
  0
LINE
  5
2CE
330
1F
100
AcDbEntity
  8
LC-002-100-D00-0
 62
     7
370
    50
100
AcDbLine
 10
483.71972
 20
465.626365
 30
0.0
 11
483.719722
 21
480.226365
 31
0.0
  0
ARC
  5
2CF
330
1F
100
AcDbEntity
  8
LC-002-100-D00-0
 62
     7
370
    50
100
AcDbCircle
 10
484.71972
 20
464.126365
 30
0.0
 40
1.802775637732121
100
AcDbArc
 50
123.690068
 51
236.309932
  0
LINE
  5
2D0
330
1F
100
AcDbEntity
  8
LC-002-100-D00-0
 62
     7
370
    50
100
AcDbLine
 10
484.219723
 20
462.626366
 30
0.0
 11
483.71972
 21
462.626365
 31
0.0
  0
LINE
  5
2D1
330
1F
100
AcDbEntity
  8
LC-002-100-D00-0
 62
     7
370
    50
100
AcDbLine
 10
484.219723
 20
462.626366
 30
0.0
 11
484.219723
 21
461.226364
 31
0.0
  0
LINE
  5
2D2
330
1F
100
AcDbEntity
  8
LC-002-100-D00-0
 62
     7
370
    50
100
AcDbLine
 10
484.219723
 20
461.226364
 30
0.0
 11
585.219727
 21
461.226364
 31
0.0
  0
LINE
  5
2D3
330
1F
100
AcDbEntity
  8
LC-002-100-D00-0
 62
     7
370
    50
100
AcDbLine
 10
585.219727
 20
461.226364
 30
0.0
 11
585.219727
 21
462.626366
 31
0.0
  0
LINE
  5
2D4
330
1F
100
AcDbEntity
  8
LC-002-100-D00-0
 62
     7
370
    50
100
AcDbLine
 10
585.71972
 20
462.626365
 30
0.0
 11
585.219727
 21
462.626366
 31
0.0
  0
ARC
  5
2D5
330
1F
100
AcDbEntity
  8
LC-002-100-D00-0
 62
     7
370
    50
100
AcDbCircle
 10
584.71972
 20
464.126365
 30
0.0
 40
1.802775637731868
100
AcDbArc
 50
303.690068
 51
56.309932
  0
LINE
  5
2D6
330
1F
100
AcDbEntity
  8
LC-002-100-D00-0
 62
     7
370
    50
100
AcDbLine
 10
585.71972
 20
480.226365
 30
0.0
 11
585.71972
 21
465.626365
 31
0.0
  0
LINE
  5
2D7
330
1F
100
AcDbEntity
  8
LC-002-100-D00-0
 62
     7
370
    50
100
AcDbLine
 10
586.719722
 20
481.226365
 30
0.0
 11
585.71972
 21
480.226365
 31
0.0
  0
LINE
  5
2D8
330
1F
100
AcDbEntity
  8
LC-002-100-D00-0
 62
     7
370
    50
100
AcDbLine
 10
592.71972
 20
481.226365
 30
0.0
 11
586.719722
 21
481.226365
 31
0.0
  0
LINE
  5
2D9
330
1F
100
AcDbEntity
  8
LC-002-100-D00-0
 62
     7
370
    50
100
AcDbLine
 10
593.719722
 20
480.226365
 30
0.0
 11
592.71972
 21
481.226365
 31
0.0
  0
LINE
  5
2DA
330
1F
100
AcDbEntity
  8
LC-002-100-D00-0
 62
     7
370
    50
100
AcDbLine
 10
593.71972
 20
465.626365
 30
0.0
 11
593.719722
 21
480.226365
 31
0.0
  0
ARC
  5
2DB
330
1F
100
AcDbEntity
  8
LC-002-100-D00-0
 62
     7
370
    50
100
AcDbCircle
 10
594.71972
 20
464.126365
 30
0.0
 40
1.802775637732121
100
AcDbArc
 50
123.690068
 51
236.309932
  0
LINE
  5
2DC
330
1F
100
AcDbEntity
  8
LC-002-100-D00-0
 62
     7
370
    50
100
AcDbLine
 10
594.219715
 20
462.626366
 30
0.0
 11
593.71972
 21
462.626365
 31
0.0
  0
LINE
  5
2DD
330
1F
100
AcDbEntity
  8
LC-002-100-D00-0
 62
     7
370
    50
100
AcDbLine
 10
594.219715
 20
462.626366
 30
0.0
 11
594.219715
 21
461.226364
 31
0.0
  0
LINE
  5
2DE
330
1F
100
AcDbEntity
  8
LC-002-100-D00-0
 62
     7
370
    50
100
AcDbLine
 10
594.219715
 20
461.226364
 30
0.0
 11
695.219711
 21
461.226364
 31
0.0
  0
LINE
  5
2DF
330
1F
100
AcDbEntity
  8
LC-002-100-D00-0
 62
     7
370
    50
100
AcDbLine
 10
695.219711
 20
461.226364
 30
0.0
 11
695.219711
 21
462.626366
 31
0.0
  0
LINE
  5
2E0
330
1F
100
AcDbEntity
  8
LC-002-100-D00-0
 62
     7
370
    50
100
AcDbLine
 10
695.71972
 20
462.626365
 30
0.0
 11
695.219711
 21
462.626366
 31
0.0
  0
ARC
  5
2E1
330
1F
100
AcDbEntity
  8
LC-002-100-D00-0
 62
     7
370
    50
100
AcDbCircle
 10
694.71972
 20
464.126365
 30
0.0
 40
1.802775637731868
100
AcDbArc
 50
303.690068
 51
56.309932
  0
LINE
  5
2E2
330
1F
100
AcDbEntity
  8
LC-002-100-D00-0
 62
     7
370
    50
100
AcDbLine
 10
695.719735
 20
480.226365
 30
0.0
 11
695.71972
 21
465.626365
 31
0.0
  0
LINE
  5
2E3
330
1F
100
AcDbEntity
  8
LC-002-100-D00-0
 62
     7
370
    50
100
AcDbLine
 10
696.719722
 20
481.226365
 30
0.0
 11
695.719735
 21
480.226365
 31
0.0
  0
LINE
  5
2E4
330
1F
100
AcDbEntity
  8
LC-002-100-D00-0
 62
     7
370
    50
100
AcDbLine
 10
702.719734
 20
481.226365
 30
0.0
 11
696.719722
 21
481.226365
 31
0.0
  0
LINE
  5
2E5
330
1F
100
AcDbEntity
  8
LC-002-100-D00-0
 62
     7
370
    50
100
AcDbLine
 10
703.719721
 20
480.226365
 30
0.0
 11
702.719734
 21
481.226365
 31
0.0
  0
LINE
  5
2E6
330
1F
100
AcDbEntity
  8
LC-002-100-D00-0
 62
     7
370
    50
100
AcDbLine
 10
703.71972
 20
465.626365
 30
0.0
 11
703.719721
 21
480.226365
 31
0.0
  0
ARC
  5
2E7
330
1F
100
AcDbEntity
  8
LC-002-100-D00-0
 62
     7
370
    50
100
AcDbCircle
 10
704.71972
 20
464.126365
 30
0.0
 40
1.802775637731868
100
AcDbArc
 50
123.690068
 51
236.309932
  0
LINE
  5
2E8
330
1F
100
AcDbEntity
  8
LC-002-100-D00-0
 62
     7
370
    50
100
AcDbLine
 10
704.219715
 20
462.626366
 30
0.0
 11
703.71972
 21
462.626365
 31
0.0
  0
LINE
  5
2E9
330
1F
100
AcDbEntity
  8
LC-002-100-D00-0
 62
     7
370
    50
100
AcDbLine
 10
704.219715
 20
462.626366
 30
0.0
 11
704.219715
 21
461.226364
 31
0.0
  0
LINE
  5
2EA
330
1F
100
AcDbEntity
  8
LC-002-100-D00-0
 62
     7
370
    50
100
AcDbLine
 10
704.219715
 20
461.226364
 30
0.0
 11
721.71972
 21
461.226365
 31
0.0
  0
ARC
  5
2EB
330
1F
100
AcDbEntity
  8
LC-002-100-D00-0
 62
     7
370
    50
100
AcDbCircle
 10
721.71972
 20
469.226365
 30
0.0
 40
8.000000000000227
100
AcDbArc
 50
270.0
 51
0.0
  0
LINE
  5
2EC
330
1F
100
AcDbEntity
  8
LC-002-100-D00-0
 62
     7
370
    50
100
AcDbLine
 10
729.71972
 20
469.226365
 30
0.0
 11
729.71972
 21
478.726365
 31
0.0
  0
ARC
  5
2ED
330
1F
100
AcDbEntity
  8
LC-002-100-D00-0
 62
     7
370
    50
100
AcDbCircle
 10
732.71972
 20
478.726365
 30
0.0
 40
3.0
100
AcDbArc
 50
90.0
 51
180.0
  0
LINE
  5
2EE
330
1F
100
AcDbEntity
  8
LC-002-100-D00-0
 62
     7
370
    50
100
AcDbLine
 10
779.71972
 20
481.726365
 30
0.0
 11
732.71972
 21
481.726365
 31
0.0
  0
LINE
  5
2EF
330
1F
100
AcDbEntity
  8
LC-002-100-D00-0
 62
     7
370
    50
100
AcDbLine
 10
779.719726
 20
480.226365
 30
0.0
 11
779.71972
 21
481.726365
 31
0.0
  0
LINE
  5
2F0
330
1F
100
AcDbEntity
  8
LC-002-100-D00-0
 62
     7
370
    50
100
AcDbLine
 10
779.719726
 20
480.226365
 30
0.0
 11
732.71972
 21
480.226365
 31
0.0
  0
ARC
  5
2F1
330
1F
100
AcDbEntity
  8
LC-002-100-D00-0
 62
     7
370
    50
100
AcDbCircle
 10
732.71972
 20
478.726365
 30
0.0
 40
1.5
100
AcDbArc
 50
90.0
 51
180.0
  0
LINE
  5
2F2
330
1F
100
AcDbEntity
  8
LC-002-100-D00-0
 62
     7
370
    50
100
AcDbLine
 10
731.21972
 20
469.226365
 30
0.0
 11
731.21972
 21
478.726365
 31
0.0
  0
ARC
  5
2F3
330
1F
100
AcDbEntity
  8
LC-002-100-D00-0
 62
     7
370
    50
100
AcDbCircle
 10
721.71972
 20
469.226365
 30
0.0
 40
9.5
100
AcDbArc
 50
270.0
 51
0.0
  0
LINE
  5
2F4
330
1F
100
AcDbEntity
  8
LC-002-100-D00-0
 62
     7
370
    50
100
AcDbLine
 10
473.709105
 20
459.726365
 30
0.0
 11
721.71972
 21
459.726365
 31
0.0
  0
ARC
  5
2F5
330
1F
100
AcDbEntity
  8
LC-002-100-D00-0
 62
     7
370
    50
100
AcDbCircle
 10
473.709105
 20
457.226365
 30
0.0
 40
2.5
100
AcDbArc
 50
90.0
 51
105.0
  0
LINE
  5
2F6
330
1F
100
AcDbEntity
  8
LC-002-100-D00-0
 62
     7
370
    50
100
AcDbLine
 10
64.219729
 20
462.626366
 30
0.0
 11
63.71972
 21
462.626365
 31
0.0
  0
LINE
  5
2F7
330
1F
100
AcDbEntity
  8
LC-002-100-D00-0
 62
     7
370
    50
100
AcDbLine
 10
64.219729
 20
462.626366
 30
0.0
 11
64.219729
 21
461.226364
 31
0.0
  0
LINE
  5
2F8
330
1F
100
AcDbEntity
  8
LC-002-100-D00-0
 62
     7
370
    50
100
AcDbLine
 10
64.219729
 20
461.226364
 30
0.0
 11
165.219725
 21
461.226364
 31
0.0
  0
LINE
  5
2F9
330
1F
100
AcDbEntity
  8
LC-002-100-D00-0
 62
     7
370
    50
100
AcDbLine
 10
165.219725
 20
461.226364
 30
0.0
 11
165.219725
 21
462.626366
 31
0.0
  0
LINE
  5
2FA
330
1F
100
AcDbEntity
  8
LC-002-100-D00-0
 62
     7
370
    50
100
AcDbLine
 10
165.71972
 20
462.626365
 30
0.0
 11
165.219725
 21
462.626366
 31
0.0
  0
ARC
  5
2FB
330
1F
100
AcDbEntity
  8
LC-002-100-D00-0
 62
     7
370
    50
100
AcDbCircle
 10
164.71972
 20
464.126365
 30
0.0
 40
1.802775637731995
100
AcDbArc
 50
303.690068
 51
56.309932
  0
LINE
  5
2FC
330
1F
100
AcDbEntity
  8
LC-002-100-D00-0
 62
     7
370
    50
100
AcDbLine
 10
165.719718
 20
480.226365
 30
0.0
 11
165.71972
 21
465.626365
 31
0.0
  0
LINE
  5
2FD
330
1F
100
AcDbEntity
  8
LC-002-100-D00-0
 62
     7
370
    50
100
AcDbLine
 10
166.719721
 20
481.226365
 30
0.0
 11
165.719718
 21
480.226365
 31
0.0
  0
LINE
  5
2FE
330
1F
100
AcDbEntity
  8
LC-002-100-D00-0
 62
     7
370
    50
100
AcDbLine
 10
172.719718
 20
481.226365
 30
0.0
 11
166.719721
 21
481.226365
 31
0.0
  0
LINE
  5
2FF
330
1F
100
AcDbEntity
  8
LC-002-100-D00-0
 62
     7
370
    50
100
AcDbLine
 10
173.71972
 20
480.226365
 30
0.0
 11
172.719718
 21
481.226365
 31
0.0
  0
LINE
  5
300
330
1F
100
AcDbEntity
  8
LC-002-100-D00-0
 62
     7
370
    50
100
AcDbLine
 10
173.71972
 20
465.626365
 30
0.0
 11
173.71972
 21
480.226365
 31
0.0
  0
ARC
  5
301
330
1F
100
AcDbEntity
  8
LC-002-100-D00-0
 62
     7
370
    50
100
AcDbCircle
 10
174.71972
 20
464.126365
 30
0.0
 40
1.802775637732121
100
AcDbArc
 50
123.690068
 51
236.309932
  0
LINE
  5
302
330
1F
100
AcDbEntity
  8
LC-002-100-D00-0
 62
     7
370
    50
100
AcDbLine
 10
174.219713
 20
462.626366
 30
0.0
 11
173.71972
 21
462.626365
 31
0.0
  0
LINE
  5
303
330
1F
100
AcDbEntity
  8
LC-002-100-D00-0
 62
     7
370
    50
100
AcDbLine
 10
174.219713
 20
462.626366
 30
0.0
 11
174.219713
 21
461.226364
 31
0.0
  0
LINE
  5
304
330
1F
100
AcDbEntity
  8
LC-002-100-D00-0
 62
     7
370
    50
100
AcDbLine
 10
174.219713
 20
461.226364
 30
0.0
 11
275.219717
 21
461.226364
 31
0.0
  0
LINE
  5
305
330
1F
100
AcDbEntity
  8
LC-002-100-D00-0
 62
     7
370
    50
100
AcDbLine
 10
275.219717
 20
461.226364
 30
0.0
 11
275.219717
 21
462.626366
 31
0.0
  0
LINE
  5
306
330
1F
100
AcDbEntity
  8
LC-002-100-D00-0
 62
     7
370
    50
100
AcDbLine
 10
275.71972
 20
462.626365
 30
0.0
 11
275.219717
 21
462.626366
 31
0.0
  0
ARC
  5
307
330
1F
100
AcDbEntity
  8
LC-002-100-D00-0
 62
     7
370
    50
100
AcDbCircle
 10
274.71972
 20
464.126365
 30
0.0
 40
1.802775637731868
100
AcDbArc
 50
303.690068
 51
56.309932
  0
LINE
  5
308
330
1F
100
AcDbEntity
  8
LC-002-100-D00-0
 62
     7
370
    50
100
AcDbLine
 10
275.719718
 20
480.226365
 30
0.0
 11
275.71972
 21
465.626365
 31
0.0
  0
LINE
  5
309
330
1F
100
AcDbEntity
  8
LC-002-100-D00-0
 62
     7
370
    50
100
AcDbLine
 10
276.71972
 20
481.226365
 30
0.0
 11
275.719718
 21
480.226365
 31
0.0
  0
LINE
  5
30A
330
1F
100
AcDbEntity
  8
LC-002-100-D00-0
 62
     7
370
    50
100
AcDbLine
 10
282.719717
 20
481.226365
 30
0.0
 11
276.71972
 21
481.226365
 31
0.0
  0
LINE
  5
30B
330
1F
100
AcDbEntity
  8
LC-002-100-D00-0
 62
     7
370
    50
100
AcDbLine
 10
283.719719
 20
480.226365
 30
0.0
 11
282.719717
 21
481.226365
 31
0.0
  0
LINE
  5
30C
330
1F
100
AcDbEntity
  8
LC-002-100-D00-0
 62
     7
370
    50
100
AcDbLine
 10
283.71972
 20
465.626365
 30
0.0
 11
283.719719
 21
480.226365
 31
0.0
  0
ARC
  5
30D
330
1F
100
AcDbEntity
  8
LC-002-100-D00-0
 62
     7
370
    50
100
AcDbCircle
 10
284.71972
 20
464.126365
 30
0.0
 40
1.802775637732121
100
AcDbArc
 50
123.690068
 51
236.309932
  0
LINE
  5
30E
330
1F
100
AcDbEntity
  8
LC-002-100-D00-0
 62
     7
370
    50
100
AcDbLine
 10
284.21972
 20
462.626366
 30
0.0
 11
283.71972
 21
462.626365
 31
0.0
  0
LINE
  5
30F
330
1F
100
AcDbEntity
  8
LC-002-100-D00-0
 62
     7
370
    50
100
AcDbLine
 10
284.21972
 20
462.626366
 30
0.0
 11
284.21972
 21
461.226364
 31
0.0
  0
LINE
  5
310
330
1F
100
AcDbEntity
  8
LC-002-100-D00-0
 62
     7
370
    50
100
AcDbLine
 10
284.21972
 20
461.226364
 30
0.0
 11
285.730335
 21
461.226365
 31
0.0
  0
ARC
  5
311
330
1F
100
AcDbEntity
  8
LC-002-100-D00-0
 62
     7
370
    50
100
AcDbCircle
 10
285.730335
 20
457.226365
 30
0.0
 40
3.999999999999902
100
AcDbArc
 50
75.0
 51
90.0
  0
LINE
  5
312
330
1F
100
AcDbEntity
  8
LC-002-100-D00-0
 62
     7
370
    50
100
AcDbLine
 10
304.599282
 20
456.31155
 30
0.0
 11
286.765611
 21
461.090068
 31
0.0
  0
ARC
  5
313
330
1F
100
AcDbEntity
  8
LC-002-100-D00-0
 62
     7
370
    50
100
AcDbCircle
 10
305.24633
 20
458.726365
 30
0.0
 40
2.500000000000091
100
AcDbArc
 50
255.0
 51
270.0
  0
ARC
  5
314
330
1F
100
AcDbEntity
  8
LC-002-100-D00-0
 62
     7
370
    50
100
AcDbCircle
 10
305.24633
 20
458.726365
 30
0.0
 40
4.000000000000122
100
AcDbArc
 50
255.0
 51
270.0
  0
LINE
  5
315
330
1F
100
AcDbEntity
  8
LC-002-100-D00-0
 62
     7
370
    50
100
AcDbLine
 10
304.211054
 20
454.862661
 30
0.0
 11
286.377382
 21
459.641179
 31
0.0
  0
ARC
  5
316
330
1F
100
AcDbEntity
  8
LC-002-100-D00-0
 62
     7
370
    50
100
AcDbCircle
 10
285.730335
 20
457.226365
 30
0.0
 40
2.500000000000091
100
AcDbArc
 50
75.0
 51
90.0
  0
LINE
  5
317
330
1F
100
AcDbEntity
  8
LC-002-100-D00-0
 62
     7
370
    50
100
AcDbLine
 10
37.71972
 20
459.726365
 30
0.0
 11
285.730335
 21
459.726365
 31
0.0
  0
ARC
  5
318
330
1F
100
AcDbEntity
  8
LC-002-100-D00-0
 62
     7
370
    50
100
AcDbCircle
 10
37.71972
 20
469.226365
 30
0.0
 40
9.500000000000114
100
AcDbArc
 50
180.0
 51
270.0
  0
LINE
  5
319
330
1F
100
AcDbEntity
  8
LC-002-100-D00-0
 62
     7
370
    50
100
AcDbLine
 10
28.21972
 20
478.726365
 30
0.0
 11
28.21972
 21
469.226365
 31
0.0
  0
ARC
  5
31A
330
1F
100
AcDbEntity
  8
LC-002-100-D00-0
 62
     7
370
    50
100
AcDbCircle
 10
26.71972
 20
478.726365
 30
0.0
 40
1.5
100
AcDbArc
 50
0.0
 51
90.0
  0
LINE
  5
31B
330
1F
100
AcDbEntity
  8
LC-002-100-D00-0
 62
     7
370
    50
100
AcDbLine
 10
-20.28028
 20
481.726365
 30
0.0
 11
-20.280286
 21
480.226365
 31
0.0
  0
ARC
  5
31C
330
1F
100
AcDbEntity
  8
LC-002-100-D00-0
 62
     7
370
    50
100
AcDbCircle
 10
26.71972
 20
478.726365
 30
0.0
 40
3.000000000000114
100
AcDbArc
 50
0.0
 51
90.0
  0
LINE
  5
31D
330
1F
100
AcDbEntity
  8
LC-002-100-D00-0
 62
     7
370
    50
100
AcDbLine
 10
29.71972
 20
478.726365
 30
0.0
 11
29.71972
 21
469.226365
 31
0.0
  0
ARC
  5
31E
330
1F
100
AcDbEntity
  8
LC-002-100-D00-0
 62
     7
370
    50
100
AcDbCircle
 10
37.71972
 20
469.226365
 30
0.0
 40
8.000000000000114
100
AcDbArc
 50
180.0
 51
270.0
  0
LINE
  5
31F
330
1F
100
AcDbEntity
  8
LC-002-100-D00-0
 62
     7
370
    50
100
AcDbLine
 10
37.71972
 20
461.226365
 30
0.0
 11
55.219726
 21
461.226364
 31
0.0
  0
LINE
  5
320
330
1F
100
AcDbEntity
  8
LC-002-100-D00-0
 62
     7
370
    50
100
AcDbLine
 10
55.219726
 20
461.226364
 30
0.0
 11
55.219726
 21
462.626366
 31
0.0
  0
LINE
  5
321
330
1F
100
AcDbEntity
  8
LC-002-100-D00-0
 62
     7
370
    50
100
AcDbLine
 10
55.71972
 20
462.626365
 30
0.0
 11
55.219726
 21
462.626366
 31
0.0
  0
ARC
  5
322
330
1F
100
AcDbEntity
  8
LC-002-100-D00-0
 62
     7
370
    50
100
AcDbCircle
 10
54.71972
 20
464.126365
 30
0.0
 40
1.8027756377319
100
AcDbArc
 50
303.690068
 51
56.309932
  0
LINE
  5
323
330
1F
100
AcDbEntity
  8
LC-002-100-D00-0
 62
     7
370
    50
100
AcDbLine
 10
55.719719
 20
480.226365
 30
0.0
 11
55.71972
 21
465.626365
 31
0.0
  0
LINE
  5
324
330
1F
100
AcDbEntity
  8
LC-002-100-D00-0
 62
     7
370
    50
100
AcDbLine
 10
56.719706
 20
481.226365
 30
0.0
 11
55.719719
 21
480.226365
 31
0.0
  0
LINE
  5
325
330
1F
100
AcDbEntity
  8
LC-002-100-D00-0
 62
     7
370
    50
100
AcDbLine
 10
62.719718
 20
481.226365
 30
0.0
 11
56.719706
 21
481.226365
 31
0.0
  0
LINE
  5
326
330
1F
100
AcDbEntity
  8
LC-002-100-D00-0
 62
     7
370
    50
100
AcDbLine
 10
63.719705
 20
480.226365
 30
0.0
 11
62.719718
 21
481.226365
 31
0.0
  0
LINE
  5
327
330
1F
100
AcDbEntity
  8
LC-002-100-D00-0
 62
     7
370
    50
100
AcDbLine
 10
63.71972
 20
465.626365
 30
0.0
 11
63.719705
 21
480.226365
 31
0.0
  0
ARC
  5
328
330
1F
100
AcDbEntity
  8
LC-002-100-D00-0
 62
     7
370
    50
100
AcDbCircle
 10
64.71972
 20
464.126365
 30
0.0
 40
1.802775637732089
100
AcDbArc
 50
123.690068
 51
236.309932
  0
LINE
  5
329
330
1F
100
AcDbEntity
  8
LC-002-100-D00-0
 62
     7
370
    50
100
AcDbLine
 10
26.71972
 20
481.726365
 30
0.0
 11
-20.28028
 21
481.726365
 31
0.0
  0
LINE
  5
32A
330
1F
100
AcDbEntity
  8
LC-002-100-D00-0
 62
     7
370
    50
100
AcDbLine
 10
26.71972
 20
480.226365
 30
0.0
 11
-20.280286
 21
480.226365
 31
0.0
  0
ELLIPSE
  5
32B
330
1F
100
AcDbEntity
  8
LC-002-100-D00-0
 62
     7
370
    50
100
AcDbEllipse
 10
584.741537
 20
457.226365
 30
0.0
 11
0.0
 21
-2.500000152587886
 31
0.0
210
0.0
220
0.0
230
0.9999999999999999
 40
0.027578
 41
0.000000000003298
 42
0.321750554402376
  0
ELLIPSE
  5
32C
330
1F
100
AcDbEntity
  8
LC-002-100-D00-0
 62
     7
370
    50
100
AcDbEllipse
 10
174.697903
 20
457.226365
 30
0.0
 11
0.0
 21
-2.499999987602234
 31
0.0
210
0.0
220
0.0
230
1.0
 40
0.027578
 41
5.961434752785046
 42
6.283185307181236
  0
LINE
  5
32D
330
1F
100
AcDbEntity
  8
LC-002-100-D00-0
 62
     7
370
    50
100
AcDbLine
 10
584.719718
 20
459.597712
 30
0.0
 11
584.719718
 21
454.932324
 31
0.0
  0
LINE
  5
32E
330
1F
100
AcDbEntity
  8
LC-002-100-D00-0
 62
     7
370
    50
100
AcDbLine
 10
174.719722
 20
459.597712
 30
0.0
 11
174.719722
 21
454.932324
 31
0.0
  0
INSERT
  5
338
330
1F
100
AcDbEntity
  8
LC-002-100-D00-0
 62
     7
370
    50
100
AcDbBlockReference
  2
KLON11
 10
0.0
 20
0.0
 30
0.0
  0
INSERT
  5
342
330
1F
100
AcDbEntity
  8
LC-002-100-D00-0
 62
     7
370
    50
100
AcDbBlockReference
  2
KLON12
 10
0.0
 20
0.0
 30
0.0
  0
LINE
  5
343
330
1F
100
AcDbEntity
  8
LC-002-100-D00-0
 62
     7
370
    50
100
AcDbLine
 10
584.719703
 20
454.726364
 30
0.0
 11
584.719688
 21
454.931631
 31
0.0
  0
LINE
  5
344
330
1F
100
AcDbEntity
  8
LC-002-100-D00-0
 62
     7
370
    50
100
AcDbLine
 10
584.719718
 20
454.726364
 30
0.0
 11
712.627397
 21
459.394529
 31
0.0
  0
LINE
  5
345
330
1F
100
AcDbEntity
  8
LC-002-100-D00-0
 62
     7
370
    50
100
AcDbLine
 10
584.719703
 20
454.726364
 30
0.0
 11
584.719703
 21
454.726364
 31
0.0
  0
LINE
  5
346
330
1F
100
AcDbEntity
  8
LC-002-100-D00-0
 62
     7
370
    50
100
AcDbLine
 10
174.719737
 20
454.726364
 30
0.0
 11
174.719752
 21
454.931631
 31
0.0
  0
LINE
  5
347
330
1F
100
AcDbEntity
  8
LC-002-100-D00-0
 62
     7
370
    50
100
AcDbLine
 10
174.719722
 20
454.726364
 30
0.0
 11
46.812043
 21
459.394529
 31
0.0
  0
LINE
  5
348
330
1F
100
AcDbEntity
  8
LC-002-100-D00-0
 62
     7
370
    50
100
AcDbLine
 10
174.719737
 20
454.726364
 30
0.0
 11
174.719737
 21
454.726364
 31
0.0
  0
LINE
  5
349
330
1F
100
AcDbEntity
  8
LC-002-100-D00-0
 62
     7
370
    50
100
AcDbLine
 10
454.19311
 20
454.726365
 30
0.0
 11
456.29371
 21
454.726364
 31
0.0
  0
LINE
  5
34A
330
1F
100
AcDbEntity
  8
LC-002-100-D00-0
 62
     7
370
    50
100
AcDbLine
 10
305.24633
 20
454.726365
 30
0.0
 11
303.14573
 21
454.726364
 31
0.0
  0
LINE
  5
34B
330
1F
100
AcDbEntity
  8
LC-002-100-D00-0
 62
     7
370
    50
100
AcDbLine
 10
456.29371
 20
454.726364
 30
0.0
 11
584.719703
 21
454.726364
 31
0.0
  0
LINE
  5
34C
330
1F
100
AcDbEntity
  8
LC-002-100-D00-0
 62
     7
370
    50
100
AcDbLine
 10
303.14573
 20
454.726364
 30
0.0
 11
174.719737
 21
454.726364
 31
0.0
  0
INSERT
  5
359
330
1F
100
AcDbEntity
  8
LC-002-100-D00-0
 62
     7
370
    50
100
AcDbBlockReference
  2
KLON13
 10
0.0
 20
0.0
 30
0.0
  0
INSERT
  5
366
330
1F
100
AcDbEntity
  8
LC-002-100-D00-0
 62
     7
370
    50
100
AcDbBlockReference
  2
KLON14
 10
0.0
 20
0.0
 30
0.0
  0
LINE
  5
367
330
1F
100
AcDbEntity
  8
LC-002-100-D00-0
 62
     7
370
    50
100
AcDbLine
 10
727.21972
 20
481.726365
 30
0.0
 11
732.71972
 21
481.726365
 31
0.0
  0
LINE
  5
368
330
1F
100
AcDbEntity
  8
LC-002-100-D00-0
 62
     7
370
    50
100
AcDbLine
 10
32.21972
 20
481.726365
 30
0.0
 11
26.71972
 21
481.726365
 31
0.0
  0
LINE
  5
369
330
1F
100
AcDbEntity
  8
LC-002-100-D00-0
 62
     7
370
    50
100
AcDbLine
 10
727.21972
 20
481.726365
 30
0.0
 11
716.96972
 21
481.726365
 31
0.0
  0
LINE
  5
36A
330
1F
100
AcDbEntity
  8
LC-002-100-D00-0
 62
     7
370
    50
100
AcDbLine
 10
682.46972
 20
481.726365
 30
0.0
 11
606.96972
 21
481.726365
 31
0.0
  0
LINE
  5
36B
330
1F
100
AcDbEntity
  8
LC-002-100-D00-0
 62
     7
370
    50
100
AcDbLine
 10
572.46972
 20
481.726365
 30
0.0
 11
496.96972
 21
481.726365
 31
0.0
  0
LINE
  5
36C
330
1F
100
AcDbEntity
  8
LC-002-100-D00-0
 62
     7
370
    50
100
AcDbLine
 10
462.46972
 20
481.726365
 30
0.0
 11
296.96972
 21
481.726365
 31
0.0
  0
LINE
  5
36D
330
1F
100
AcDbEntity
  8
LC-002-100-D00-0
 62
     7
370
    50
100
AcDbLine
 10
262.46972
 20
481.726365
 30
0.0
 11
186.96972
 21
481.726365
 31
0.0
  0
LINE
  5
36E
330
1F
100
AcDbEntity
  8
LC-002-100-D00-0
 62
     7
370
    50
100
AcDbLine
 10
152.46972
 20
481.726365
 30
0.0
 11
76.96972
 21
481.726365
 31
0.0
  0
LINE
  5
36F
330
1F
100
AcDbEntity
  8
LC-002-100-D00-0
 62
     7
370
    50
100
AcDbLine
 10
42.46972
 20
481.726365
 30
0.0
 11
32.21972
 21
481.726365
 31
0.0
  0
LINE
  5
370
330
1F
100
AcDbEntity
  8
LC-002-100-D00-0
 62
     7
370
    50
100
AcDbLine
 10
-20.28028
 20
481.726365
 30
0.0
 11
-20.28028
 21
483.226365
 31
0.0
  0
LINE
  5
371
330
1F
100
AcDbEntity
  8
LC-002-100-D00-0
 62
     7
370
    50
100
AcDbLine
 10
779.71972
 20
483.226365
 30
0.0
 11
779.71972
 21
481.726365
 31
0.0
  0
ARC
  5
372
330
1F
100
AcDbEntity
  8
LC-002-100-D00-0
 62
     7
370
    50
100
AcDbCircle
 10
-15.28028
 20
522.726365
 30
0.0
 40
5.0
100
AcDbArc
 50
90.0
 51
180.0
  0
LINE
  5
373
330
1F
100
AcDbEntity
  8
LC-002-100-D00-0
 62
     7
370
    50
100
AcDbLine
 10
-15.28028
 20
527.726365
 30
0.0
 11
774.71972
 21
527.726365
 31
0.0
  0
ARC
  5
374
330
1F
100
AcDbEntity
  8
LC-002-100-D00-0
 62
     7
370
    50
100
AcDbCircle
 10
774.71972
 20
522.726365
 30
0.0
 40
5.0
100
AcDbArc
 50
0.0
 51
90.0
  0
LINE
  5
375
330
1F
100
AcDbEntity
  8
LC-002-100-D00-0
 62
     7
370
    50
100
AcDbLine
 10
-20.28028
 20
522.726365
 30
0.0
 11
-20.28028
 21
483.226365
 31
0.0
  0
LINE
  5
376
330
1F
100
AcDbEntity
  8
LC-002-100-D00-0
 62
     7
370
    50
100
AcDbLine
 10
779.71972
 20
522.726365
 30
0.0
 11
779.71972
 21
483.226365
 31
0.0
  0
DIMENSION
  5
377
330
1F
100
AcDbEntity
  8
LC-002-100-D00-0
 62
     7
370
    25
100
AcDbDimension
  2
*D18
 10
-59.056064
 20
527.726365
 30
0.0
 11
-114.056064
 21
505.754511
 31
0.0
 70
   160
  1
46
 71
     5
 42
46.0
 53
90.0
  3
LC-DIM-L-0100-02-02
100
AcDbAlignedDimension
 13
-20.28028
 23
481.726365
 33
0.0
 14
-15.28028
 24
527.726365
 34
0.0
 50
90.0
100
AcDbRotatedDimension
  0
DIMENSION
  5
386
330
1F
100
AcDbEntity
  8
LC-002-100-D00-0
 62
     7
370
    25
100
AcDbDimension
  2
*D19
 10
779.71972
 20
637.294875
 30
0.0
 11
382.041631
 21
692.294875
 31
0.0
 70
   160
  1
800
 71
     5
 42
800.0
  3
LC-DIM-L-0100-02-02
100
AcDbAlignedDimension
 13
-20.28028
 23
522.726365
 33
0.0
 14
779.71972
 24
522.726365
 34
0.0
100
AcDbRotatedDimension
  0
DIMENSION
  5
393
330
1F
100
AcDbEntity
  8
LC-002-100-D00-0
 62
     7
370
    25
100
AcDbDimension
  2
*D20
 10
729.71972
 20
556.490544
 30
0.0
 11
374.219642
 21
611.490544
 31
0.0
 70
   160
  1
700
 71
     5
 42
700.0
  3
LC-DIM-L-0100-02-02
100
AcDbAlignedDimension
 13
29.71972
 23
478.726365
 33
0.0
 14
729.71972
 24
478.726365
 34
0.0
100
AcDbRotatedDimension
  0
INSERT
  5
3B5
330
1F
100
AcDbEntity
  8
LC-002-100-D00-0
 62
     7
370
    25
100
AcDbBlockReference
  2
KLON15
 10
0.0
 20
0.0
 30
0.0
  0
INSERT
  5
3CD
330
1F
100
AcDbEntity
  8
LC-002-100-D00-0
 62
     7
370
    25
100
AcDbBlockReference
  2
KLON16
 10
0.0
 20
0.0
 30
0.0
  0
LINE
  5
3CE
330
1F
100
AcDbEntity
  8
LC-002-100-D00-0
 62
     7
370
    50
100
AcDbLine
 10
164.198751
 20
462.726365
 30
0.0
 11
166.31972
 21
464.847334
 31
0.0
  0
INSERT
  5
3D4
330
1F
100
AcDbEntity
  8
LC-002-100-D00-0
 62
     7
370
    25
100
AcDbBlockReference
  2
KLON17
 10
0.0
 20
0.0
 30
0.0
  0
INSERT
  5
3DA
330
1F
100
AcDbEntity
  8
LC-002-100-D00-0
 62
     7
370
    25
100
AcDbBlockReference
  2
KLON18
 10
0.0
 20
0.0
 30
0.0
  0
LINE
  5
3DB
330
1F
100
AcDbEntity
  8
LC-002-100-D00-0
 62
     7
370
    50
100
AcDbLine
 10
593.11972
 20
465.085184
 30
0.0
 11
594.91972
 21
466.885184
 31
0.0
  0
LINE
  5
3DC
330
1F
100
AcDbEntity
  8
LC-002-100-D00-0
 62
     7
370
    25
100
AcDbLine
 10
579.96972
 20
474.385824
 30
0.0
 11
585.81972
 21
480.235825
 31
0.0
  0
INSERT
  5
3E2
330
1F
100
AcDbEntity
  8
LC-002-100-D00-0
 62
     7
370
    25
100
AcDbBlockReference
  2
KLON19
 10
0.0
 20
0.0
 30
0.0
  0
LINE
  5
3E3
330
1F
100
AcDbEntity
  8
LC-002-100-D00-0
 62
     7
370
    50
100
AcDbLine
 10
283.11972
 20
469.394137
 30
0.0
 11
284.451947
 21
470.726365
 31
0.0
  0
LINE
  5
3E4
330
1F
100
AcDbEntity
  8
LC-002-100-D00-0
 62
     7
370
    25
100
AcDbLine
 10
269.692444
 20
478.417502
 30
0.0
 11
273.001307
 21
481.726365
 31
0.0
  0
INSERT
  5
3EA
330
1F
100
AcDbEntity
  8
LC-002-100-D00-0
 62
     7
370
    25
100
AcDbBlockReference
  2
KLON20
 10
0.0
 20
0.0
 30
0.0
  0
LINE
  5
3EB
330
1F
100
AcDbEntity
  8
LC-002-100-D00-0
 62
     7
370
    50
100
AcDbLine
 10
483.11972
 20
467.338382
 30
0.0
 11
486.070573
 21
470.289235
 31
0.0
  0
LINE
  5
3EC
330
1F
100
AcDbEntity
  8
LC-002-100-D00-0
 62
     7
370
    25
100
AcDbLine
 10
469.96972
 20
476.639022
 30
0.0
 11
475.057062
 21
481.726365
 31
0.0
  0
INSERT
  5
3F2
330
1F
100
AcDbEntity
  8
LC-002-100-D00-0
 62
     7
370
    25
100
AcDbBlockReference
  2
KLON21
 10
0.0
 20
0.0
 30
0.0
  0
LINE
  5
3F3
330
1F
100
AcDbEntity
  8
LC-002-100-D00-0
 62
     7
370
    50
100
AcDbLine
 10
703.566909
 20
463.279176
 30
0.0
 11
705.247945
 21
464.960212
 31
0.0
  0
LINE
  5
3F4
330
1F
100
AcDbEntity
  8
LC-002-100-D00-0
 62
     7
370
    25
100
AcDbLine
 10
689.96972
 20
472.132627
 30
0.0
 11
695.81972
 21
477.982627
 31
0.0
  0
INSERT
  5
3FA
330
1F
100
AcDbEntity
  8
LC-002-100-D00-0
 62
     7
370
    25
100
AcDbBlockReference
  2
KLON22
 10
0.0
 20
0.0
 30
0.0
  0
INSERT
  5
400
330
1F
100
AcDbEntity
  8
LC-002-100-D00-0
 62
     7
370
    50
100
AcDbBlockReference
  2
KLON23
 10
0.0
 20
0.0
 30
0.0
  0
INSERT
  5
408
330
1F
100
AcDbEntity
  8
LC-002-100-D00-0
 62
     7
370
    25
100
AcDbBlockReference
  2
KLON24
 10
0.0
 20
0.0
 30
0.0
  0
LINE
  5
409
330
1F
100
AcDbEntity
  8
LC-002-100-D00-0
 62
     7
370
    25
100
AcDbLine
 10
63.61972
 20
474.400533
 30
0.0
 11
70.945552
 21
481.726365
 31
0.0
  0
LINE
  5
40A
330
1F
100
AcDbEntity
  8
LC-002-100-D00-0
  6
DASHDOT
 62
     7
370
    25
100
AcDbLine
 10
699.71972
 20
453.726365
 30
0.0
 11
699.71972
 21
487.726365
 31
0.0
  0
LINE
  5
40B
330
1F
100
AcDbEntity
  8
LC-002-100-D00-0
  6
DASHDOT
 62
     7
370
    25
100
AcDbLine
 10
589.71972
 20
453.726365
 30
0.0
 11
589.71972
 21
487.726365
 31
0.0
  0
LINE
  5
40C
330
1F
100
AcDbEntity
  8
LC-002-100-D00-0
  6
DASHDOT
 62
     7
370
    25
100
AcDbLine
 10
479.71972
 20
453.726365
 30
0.0
 11
479.71972
 21
487.726365
 31
0.0
  0
LINE
  5
40D
330
1F
100
AcDbEntity
  8
LC-002-100-D00-0
  6
DASHDOT
 62
     7
370
    25
100
AcDbLine
 10
279.71972
 20
453.726365
 30
0.0
 11
279.71972
 21
487.726365
 31
0.0
  0
LINE
  5
40E
330
1F
100
AcDbEntity
  8
LC-002-100-D00-0
  6
DASHDOT
 62
     7
370
    25
100
AcDbLine
 10
169.71972
 20
453.726365
 30
0.0
 11
169.71972
 21
487.726365
 31
0.0
  0
LINE
  5
40F
330
1F
100
AcDbEntity
  8
LC-002-100-D00-0
  6
DASHDOT
 62
     7
370
    25
100
AcDbLine
 10
59.71972
 20
453.726365
 30
0.0
 11
59.71972
 21
487.726365
 31
0.0
  0
LINE
  5
410
102
{ACAD_REACTORS
330
76C
102
}
330
1F
100
AcDbEntity
  8
LC-002-100-D00-0
 62
     7
370
    50
100
AcDbLine
 10
429.162337
 20
423.726365
 30
0.0
 11
429.162337
 21
447.726365
 31
0.0
  0
LINE
  5
411
102
{ACAD_REACTORS
330
76C
102
}
330
1F
100
AcDbEntity
  8
LC-002-100-D00-0
 62
     7
370
    50
100
AcDbLine
 10
330.277103
 20
447.726365
 30
0.0
 11
330.277103
 21
423.726365
 31
0.0
  0
ARC
  5
412
102
{ACAD_REACTORS
330
76C
102
}
330
1F
100
AcDbEntity
  8
LC-002-100-D00-0
 62
     7
370
    50
100
AcDbCircle
 10
454.19311
 20
458.726365
 30
0.0
 40
4.000000000000114
100
AcDbArc
 50
270.0
 51
285.0
  0
LINE
  5
413
102
{ACAD_REACTORS
330
76C
102
}
330
1F
100
AcDbEntity
  8
LC-002-100-D00-0
 62
     7
370
    50
100
AcDbLine
 10
454.193107
 20
454.726365
 30
0.0
 11
437.519721
 21
454.726365
 31
0.0
  0
ARC
  5
414
102
{ACAD_REACTORS
330
76C
102
}
330
1F
100
AcDbEntity
  8
LC-002-100-D00-0
 62
     7
370
    50
100
AcDbCircle
 10
437.51972
 20
453.726365
 30
0.0
 40
1.0
100
AcDbArc
 50
90.0
 51
180.0
  0
LINE
  5
415
102
{ACAD_REACTORS
330
76C
102
}
330
1F
100
AcDbEntity
  8
LC-002-100-D00-0
 62
     7
370
    50
100
AcDbLine
 10
436.519719
 20
453.726365
 30
0.0
 11
436.519719
 21
449.726365
 31
0.0
  0
LINE
  5
416
102
{ACAD_REACTORS
330
76C
102
}
330
1F
100
AcDbEntity
  8
LC-002-100-D00-0
 62
     7
370
    50
100
AcDbLine
 10
436.519719
 20
449.726365
 30
0.0
 11
435.019719
 21
449.726365
 31
0.0
  0
LINE
  5
417
102
{ACAD_REACTORS
330
76C
102
}
330
1F
100
AcDbEntity
  8
LC-002-100-D00-0
 62
     7
370
    50
100
AcDbLine
 10
435.019719
 20
453.726365
 30
0.0
 11
435.019719
 21
449.726365
 31
0.0
  0
ARC
  5
418
102
{ACAD_REACTORS
330
76C
102
}
330
1F
100
AcDbEntity
  8
LC-002-100-D00-0
 62
     7
370
    50
100
AcDbCircle
 10
437.51972
 20
453.726365
 30
0.0
 40
2.5
100
AcDbArc
 50
90.0
 51
180.0
  0
LINE
  5
419
102
{ACAD_REACTORS
330
76C
102
}
330
1F
100
AcDbEntity
  8
LC-002-100-D00-0
 62
     7
370
    50
100
AcDbLine
 10
454.193107
 20
456.226365
 30
0.0
 11
437.519721
 21
456.226365
 31
0.0
  0
ARC
  5
41A
102
{ACAD_REACTORS
330
76C
102
}
330
1F
100
AcDbEntity
  8
LC-002-100-D00-0
 62
     7
370
    50
100
AcDbCircle
 10
454.19311
 20
458.726365
 30
0.0
 40
2.500000000000227
100
AcDbArc
 50
270.0
 51
285.0
  0
ARC
  5
41B
102
{ACAD_REACTORS
330
76C
102
}
330
1F
100
AcDbEntity
  8
LC-002-100-D00-0
 62
     7
370
    50
100
AcDbCircle
 10
305.24633
 20
458.726365
 30
0.0
 40
2.500000000000062
100
AcDbArc
 50
255.0
 51
270.0
  0
LINE
  5
41C
102
{ACAD_REACTORS
330
76C
102
}
330
1F
100
AcDbEntity
  8
LC-002-100-D00-0
 62
     7
370
    50
100
AcDbLine
 10
310.64251
 20
456.226365
 30
0.0
 11
305.24633
 21
456.226365
 31
0.0
  0
LINE
  5
41D
102
{ACAD_REACTORS
330
76C
102
}
330
1F
100
AcDbEntity
  8
LC-002-100-D00-0
 62
     7
370
    50
100
AcDbLine
 10
321.91972
 20
456.226365
 30
0.0
 11
310.64251
 21
456.226365
 31
0.0
  0
ARC
  5
41E
102
{ACAD_REACTORS
330
76C
102
}
330
1F
100
AcDbEntity
  8
LC-002-100-D00-0
 62
     7
370
    50
100
AcDbCircle
 10
321.91972
 20
453.726365
 30
0.0
 40
2.5
100
AcDbArc
 50
0.0
 51
90.0
  0
LINE
  5
41F
102
{ACAD_REACTORS
330
76C
102
}
330
1F
100
AcDbEntity
  8
LC-002-100-D00-0
 62
     7
370
    50
100
AcDbLine
 10
324.419721
 20
449.726365
 30
0.0
 11
324.419721
 21
453.726365
 31
0.0
  0
LINE
  5
420
102
{ACAD_REACTORS
330
76C
102
}
330
1F
100
AcDbEntity
  8
LC-002-100-D00-0
 62
     7
370
    50
100
AcDbLine
 10
324.419721
 20
449.726365
 30
0.0
 11
322.919722
 21
449.726365
 31
0.0
  0
LINE
  5
421
102
{ACAD_REACTORS
330
76C
102
}
330
1F
100
AcDbEntity
  8
LC-002-100-D00-0
 62
     7
370
    50
100
AcDbLine
 10
322.919722
 20
449.726365
 30
0.0
 11
322.919722
 21
453.726365
 31
0.0
  0
ARC
  5
422
102
{ACAD_REACTORS
330
76C
102
}
330
1F
100
AcDbEntity
  8
LC-002-100-D00-0
 62
     7
370
    50
100
AcDbCircle
 10
321.91972
 20
453.726365
 30
0.0
 40
1.0
100
AcDbArc
 50
0.0
 51
90.0
  0
LINE
  5
423
102
{ACAD_REACTORS
330
76C
102
}
330
1F
100
AcDbEntity
  8
LC-002-100-D00-0
 62
     7
370
    50
100
AcDbLine
 10
321.91972
 20
454.726365
 30
0.0
 11
305.24633
 21
454.726365
 31
0.0
  0
ARC
  5
424
102
{ACAD_REACTORS
330
76C
102
}
330
1F
100
AcDbEntity
  8
LC-002-100-D00-0
 62
     7
370
    50
100
AcDbCircle
 10
305.24633
 20
458.726365
 30
0.0
 40
4.000000000000122
100
AcDbArc
 50
255.0
 51
270.0
  0
LINE
  5
425
102
{ACAD_REACTORS
330
76C
102
}
330
1F
100
AcDbEntity
  8
LC-002-100-D00-0
 62
     7
370
    50
100
AcDbLine
 10
327.21972
 20
449.726365
 30
0.0
 11
324.419721
 21
449.726365
 31
0.0
  0
LINE
  5
426
102
{ACAD_REACTORS
330
76C
102
}
330
1F
100
AcDbEntity
  8
LC-002-100-D00-0
 62
     7
370
    50
100
AcDbLine
 10
435.019719
 20
449.726365
 30
0.0
 11
432.21972
 21
449.726365
 31
0.0
  0
LINE
  5
427
102
{ACAD_REACTORS
330
76C
102
}
330
1F
100
AcDbEntity
  8
LC-002-100-D00-0
 62
     7
370
    50
100
AcDbLine
 10
430.21972
 20
456.226365
 30
0.0
 11
437.519721
 21
456.226365
 31
0.0
  0
LINE
  5
428
102
{ACAD_REACTORS
330
76C
102
}
330
1F
100
AcDbEntity
  8
LC-002-100-D00-0
 62
     7
370
    50
100
AcDbLine
 10
329.21972
 20
456.226365
 30
0.0
 11
321.91972
 21
456.226365
 31
0.0
  0
LINE
  5
429
102
{ACAD_REACTORS
330
76C
102
}
330
1F
100
AcDbEntity
  8
LC-002-100-D00-0
 62
     7
370
    50
100
AcDbLine
 10
428.719721
 20
458.726364
 30
0.0
 11
428.719721
 21
447.726365
 31
0.0
  0
LINE
  5
42A
102
{ACAD_REACTORS
330
76C
102
}
330
1F
100
AcDbEntity
  8
LC-002-100-D00-0
 62
     7
370
    50
100
AcDbLine
 10
330.71972
 20
447.726365
 30
0.0
 11
330.71972
 21
458.726364
 31
0.0
  0
LINE
  5
42B
102
{ACAD_REACTORS
330
76C
102
}
330
1F
100
AcDbEntity
  8
LC-002-100-D00-0
 62
     7
370
    50
100
AcDbLine
 10
434.219721
 20
449.226365
 30
0.0
 11
434.219721
 21
447.726365
 31
0.0
  0
LINE
  5
42C
102
{ACAD_REACTORS
330
76C
102
}
330
1F
100
AcDbEntity
  8
LC-002-100-D00-0
 62
     7
370
    50
100
AcDbLine
 10
325.21972
 20
447.726365
 30
0.0
 11
325.21972
 21
449.226365
 31
0.0
  0
LINE
  5
42D
102
{ACAD_REACTORS
330
76C
102
}
330
1F
100
AcDbEntity
  8
LC-002-100-D00-0
 62
     7
370
    50
100
AcDbLine
 10
325.21972
 20
447.726365
 30
0.0
 11
330.71972
 21
447.726365
 31
0.0
  0
LINE
  5
42E
102
{ACAD_REACTORS
330
76C
102
}
330
1F
100
AcDbEntity
  8
LC-002-100-D00-0
 62
     7
370
    50
100
AcDbLine
 10
325.21972
 20
449.226365
 30
0.0
 11
327.21972
 21
449.226365
 31
0.0
  0
LINE
  5
42F
102
{ACAD_REACTORS
330
76C
102
}
330
1F
100
AcDbEntity
  8
LC-002-100-D00-0
 62
     7
370
    50
100
AcDbLine
 10
327.21972
 20
449.226365
 30
0.0
 11
327.21972
 21
452.726365
 31
0.0
  0
LINE
  5
430
102
{ACAD_REACTORS
330
76C
102
}
330
1F
100
AcDbEntity
  8
LC-002-100-D00-0
 62
     7
370
    50
100
AcDbLine
 10
325.21972
 20
452.726365
 30
0.0
 11
327.21972
 21
452.726365
 31
0.0
  0
LINE
  5
431
102
{ACAD_REACTORS
330
76C
102
}
330
1F
100
AcDbEntity
  8
LC-002-100-D00-0
 62
     7
370
    50
100
AcDbLine
 10
325.21972
 20
454.226364
 30
0.0
 11
325.21972
 21
452.726365
 31
0.0
  0
LINE
  5
432
102
{ACAD_REACTORS
330
76C
102
}
330
1F
100
AcDbEntity
  8
LC-002-100-D00-0
 62
     7
370
    50
100
AcDbLine
 10
325.21972
 20
454.226364
 30
0.0
 11
329.21972
 21
454.226364
 31
0.0
  0
LINE
  5
433
102
{ACAD_REACTORS
330
76C
102
}
330
1F
100
AcDbEntity
  8
LC-002-100-D00-0
 62
     7
370
    50
100
AcDbLine
 10
329.21972
 20
454.226364
 30
0.0
 11
329.21972
 21
458.726364
 31
0.0
  0
ARC
  5
434
102
{ACAD_REACTORS
330
76C
102
}
330
1F
100
AcDbEntity
  8
LC-002-100-D00-0
 62
     7
370
    50
100
AcDbCircle
 10
334.71972
 20
458.726365
 30
0.0
 40
5.499999999999886
100
AcDbArc
 50
90.0
 51
180.0
  0
LINE
  5
435
102
{ACAD_REACTORS
330
76C
102
}
330
1F
100
AcDbEntity
  8
LC-002-100-D00-0
 62
     7
370
    50
100
AcDbLine
 10
424.71972
 20
464.226364
 30
0.0
 11
334.71972
 21
464.226364
 31
0.0
  0
ARC
  5
436
102
{ACAD_REACTORS
330
76C
102
}
330
1F
100
AcDbEntity
  8
LC-002-100-D00-0
 62
     7
370
    50
100
AcDbCircle
 10
424.71972
 20
458.726365
 30
0.0
 40
5.5
100
AcDbArc
 50
0.0
 51
90.0
  0
LINE
  5
437
102
{ACAD_REACTORS
330
76C
102
}
330
1F
100
AcDbEntity
  8
LC-002-100-D00-0
 62
     7
370
    50
100
AcDbLine
 10
430.21972
 20
458.726364
 30
0.0
 11
430.21972
 21
454.226364
 31
0.0
  0
LINE
  5
438
102
{ACAD_REACTORS
330
76C
102
}
330
1F
100
AcDbEntity
  8
LC-002-100-D00-0
 62
     7
370
    50
100
AcDbLine
 10
430.21972
 20
454.226364
 30
0.0
 11
434.219721
 21
454.226364
 31
0.0
  0
LINE
  5
439
102
{ACAD_REACTORS
330
76C
102
}
330
1F
100
AcDbEntity
  8
LC-002-100-D00-0
 62
     7
370
    50
100
AcDbLine
 10
434.219721
 20
452.726365
 30
0.0
 11
434.219721
 21
454.226364
 31
0.0
  0
LINE
  5
43A
102
{ACAD_REACTORS
330
76C
102
}
330
1F
100
AcDbEntity
  8
LC-002-100-D00-0
 62
     7
370
    50
100
AcDbLine
 10
432.21972
 20
452.726365
 30
0.0
 11
434.219721
 21
452.726365
 31
0.0
  0
LINE
  5
43B
102
{ACAD_REACTORS
330
76C
102
}
330
1F
100
AcDbEntity
  8
LC-002-100-D00-0
 62
     7
370
    50
100
AcDbLine
 10
432.21972
 20
452.726365
 30
0.0
 11
432.21972
 21
449.226365
 31
0.0
  0
LINE
  5
43C
102
{ACAD_REACTORS
330
76C
102
}
330
1F
100
AcDbEntity
  8
LC-002-100-D00-0
 62
     7
370
    50
100
AcDbLine
 10
432.21972
 20
449.226365
 30
0.0
 11
434.219721
 21
449.226365
 31
0.0
  0
LINE
  5
43D
102
{ACAD_REACTORS
330
76C
102
}
330
1F
100
AcDbEntity
  8
LC-002-100-D00-0
 62
     7
370
    50
100
AcDbLine
 10
428.719721
 20
447.726365
 30
0.0
 11
434.219721
 21
447.726365
 31
0.0
  0
ARC
  5
43E
102
{ACAD_REACTORS
330
76C
102
}
330
1F
100
AcDbEntity
  8
LC-002-100-D00-0
 62
     7
370
    50
100
AcDbCircle
 10
424.71972
 20
458.726365
 30
0.0
 40
4.000000000000114
100
AcDbArc
 50
0.0
 51
90.0
  0
LINE
  5
43F
102
{ACAD_REACTORS
330
76C
102
}
330
1F
100
AcDbEntity
  8
LC-002-100-D00-0
 62
     7
370
    50
100
AcDbLine
 10
424.71972
 20
462.726365
 30
0.0
 11
334.71972
 21
462.726365
 31
0.0
  0
ARC
  5
440
102
{ACAD_REACTORS
330
76C
102
}
330
1F
100
AcDbEntity
  8
LC-002-100-D00-0
 62
     7
370
    50
100
AcDbCircle
 10
334.71972
 20
458.726365
 30
0.0
 40
4.0
100
AcDbArc
 50
90.0
 51
180.0
  0
LINE
  5
441
102
{ACAD_REACTORS
330
76C
102
}
330
1F
100
AcDbEntity
  8
LC-002-100-D00-0
 62
     7
370
    50
100
AcDbLine
 10
429.162337
 20
423.726365
 30
0.0
 11
428.162335
 21
423.726365
 31
0.0
  0
LINE
  5
442
102
{ACAD_REACTORS
330
76C
102
}
330
1F
100
AcDbEntity
  8
LC-002-100-D00-0
 62
     7
370
    50
100
AcDbLine
 10
331.277105
 20
423.726365
 30
0.0
 11
428.162335
 21
423.726365
 31
0.0
  0
LINE
  5
443
102
{ACAD_REACTORS
330
76C
102
}
330
1F
100
AcDbEntity
  8
LC-002-100-D00-0
 62
     7
370
    50
100
AcDbLine
 10
331.277105
 20
423.726365
 30
0.0
 11
330.277103
 21
423.726365
 31
0.0
  0
LINE
  5
444
102
{ACAD_REACTORS
330
76C
102
}
330
1F
100
AcDbEntity
  8
LC-002-100-D00-0
 62
     7
370
    50
100
AcDbLine
 10
438.719719
 20
450.726365
 30
0.0
 11
436.519719
 21
450.726365
 31
0.0
  0
LINE
  5
445
102
{ACAD_REACTORS
330
76C
102
}
330
1F
100
AcDbEntity
  8
LC-002-100-D00-0
 62
     7
370
    50
100
AcDbLine
 10
438.719719
 20
451.352379
 30
0.0
 11
438.719719
 21
450.726365
 31
0.0
  0
LINE
  5
446
102
{ACAD_REACTORS
330
76C
102
}
330
1F
100
AcDbEntity
  8
LC-002-100-D00-0
 62
     7
370
    50
100
AcDbLine
 10
314.719721
 20
450.726365
 30
0.0
 11
314.719721
 21
454.726365
 31
0.0
  0
LINE
  5
447
102
{ACAD_REACTORS
330
76C
102
}
330
1F
100
AcDbEntity
  8
LC-002-100-D00-0
 62
     7
370
    50
100
AcDbLine
 10
320.339522
 20
454.726365
 30
0.0
 11
314.719721
 21
454.726365
 31
0.0
  0
ARC
  5
448
102
{ACAD_REACTORS
330
76C
102
}
330
1F
100
AcDbEntity
  8
LC-002-100-D00-0
 62
     7
370
    50
100
AcDbCircle
 10
320.339521
 20
453.726365
 30
0.0
 40
0.9999999999999849
100
AcDbArc
 50
48.366461
 51
90.0
  0
LINE
  5
449
102
{ACAD_REACTORS
330
76C
102
}
330
1F
100
AcDbEntity
  8
LC-002-100-D00-0
 62
     7
370
    50
100
AcDbLine
 10
324.355974
 20
451.494142
 30
0.0
 11
321.003883
 21
454.473774
 31
0.0
  0
ARC
  5
44A
102
{ACAD_REACTORS
330
76C
102
}
330
1F
100
AcDbEntity
  8
LC-002-100-D00-0
 62
     7
370
    50
100
AcDbCircle
 10
324.156663
 20
451.269918
 30
0.0
 40
0.3000000000001588
100
AcDbArc
 50
257.471192
 51
48.366461
  0
LINE
  5
44B
102
{ACAD_REACTORS
330
76C
102
}
330
1F
100
AcDbEntity
  8
LC-002-100-D00-0
 62
     7
370
    50
100
AcDbLine
 10
321.0848
 20
451.645236
 30
0.0
 11
324.091582
 21
450.977062
 31
0.0
  0
ARC
  5
44C
102
{ACAD_REACTORS
330
76C
102
}
330
1F
100
AcDbEntity
  8
LC-002-100-D00-0
 62
     7
370
    50
100
AcDbCircle
 10
321.01972
 20
451.35238
 30
0.0
 40
0.2999999999999368
100
AcDbArc
 50
77.471192
 51
180.0
  0
LINE
  5
44D
102
{ACAD_REACTORS
330
76C
102
}
330
1F
100
AcDbEntity
  8
LC-002-100-D00-0
 62
     7
370
    50
100
AcDbLine
 10
320.719722
 20
450.726365
 30
0.0
 11
320.719722
 21
451.352379
 31
0.0
  0
LINE
  5
44E
102
{ACAD_REACTORS
330
76C
102
}
330
1F
100
AcDbEntity
  8
LC-002-100-D00-0
 62
     7
370
    50
100
AcDbLine
 10
320.719722
 20
450.726365
 30
0.0
 11
314.719721
 21
450.726365
 31
0.0
  0
LINE
  5
44F
102
{ACAD_REACTORS
330
76C
102
}
330
1F
100
AcDbEntity
  8
LC-002-100-D00-0
 62
     7
370
    50
100
AcDbLine
 10
444.719723
 20
454.726365
 30
0.0
 11
444.719723
 21
450.726365
 31
0.0
  0
LINE
  5
450
102
{ACAD_REACTORS
330
76C
102
}
330
1F
100
AcDbEntity
  8
LC-002-100-D00-0
 62
     7
370
    50
100
AcDbLine
 10
322.919722
 20
450.726365
 30
0.0
 11
320.719722
 21
450.726365
 31
0.0
  0
LINE
  5
451
102
{ACAD_REACTORS
330
76C
102
}
330
1F
100
AcDbEntity
  8
LC-002-100-D00-0
 62
     7
370
    50
100
AcDbLine
 10
435.347858
 20
450.977062
 30
0.0
 11
438.35464
 21
451.645236
 31
0.0
  0
ARC
  5
452
102
{ACAD_REACTORS
330
76C
102
}
330
1F
100
AcDbEntity
  8
LC-002-100-D00-0
 62
     7
370
    50
100
AcDbCircle
 10
435.282777
 20
451.269918
 30
0.0
 40
0.300000000000087
100
AcDbArc
 50
131.633539
 51
282.528808
  0
LINE
  5
453
102
{ACAD_REACTORS
330
76C
102
}
330
1F
100
AcDbEntity
  8
LC-002-100-D00-0
 62
     7
370
    50
100
AcDbLine
 10
438.435557
 20
454.473774
 30
0.0
 11
435.083466
 21
451.494142
 31
0.0
  0
ARC
  5
454
102
{ACAD_REACTORS
330
76C
102
}
330
1F
100
AcDbEntity
  8
LC-002-100-D00-0
 62
     7
370
    50
100
AcDbCircle
 10
439.099919
 20
453.726365
 30
0.0
 40
0.9999999999998863
100
AcDbArc
 50
90.0
 51
131.633539
  0
ARC
  5
455
102
{ACAD_REACTORS
330
76C
102
}
330
1F
100
AcDbEntity
  8
LC-002-100-D00-0
 62
     7
370
    50
100
AcDbCircle
 10
438.41972
 20
451.35238
 30
0.0
 40
0.3000000000000682
100
AcDbArc
 50
0.0
 51
102.528808
  0
LINE
  5
456
102
{ACAD_REACTORS
330
76C
102
}
330
1F
100
AcDbEntity
  8
LC-002-100-D00-0
 62
     7
370
    50
100
AcDbLine
 10
444.719723
 20
454.726365
 30
0.0
 11
439.099918
 21
454.726365
 31
0.0
  0
LINE
  5
457
102
{ACAD_REACTORS
330
76C
102
}
330
1F
100
AcDbEntity
  8
LC-002-100-D00-0
 62
     7
370
    50
100
AcDbLine
 10
444.719723
 20
450.726365
 30
0.0
 11
438.719719
 21
450.726365
 31
0.0
  0
LINE
  5
458
102
{ACAD_REACTORS
330
76C
102
}
330
1F
100
AcDbEntity
  8
LC-002-100-D00-0
 62
     7
370
    50
100
AcDbLine
 10
447.219721
 20
451.726365
 30
0.0
 11
447.219721
 21
447.726365
 31
0.0
  0
LINE
  5
459
102
{ACAD_REACTORS
330
76C
102
}
330
1F
100
AcDbEntity
  8
LC-002-100-D00-0
 62
     7
370
    50
100
AcDbLine
 10
441.21972
 20
450.726365
 30
0.0
 11
441.21972
 21
447.726365
 31
0.0
  0
LINE
  5
45A
102
{ACAD_REACTORS
330
76C
102
}
330
1F
100
AcDbEntity
  8
LC-002-100-D00-0
 62
     7
370
    50
100
AcDbLine
 10
434.219721
 20
447.726365
 30
0.0
 11
441.21972
 21
447.726365
 31
0.0
  0
LINE
  5
45B
102
{ACAD_REACTORS
330
76C
102
}
330
1F
100
AcDbEntity
  8
LC-002-100-D00-0
 62
     7
370
    50
100
AcDbLine
 10
318.21972
 20
450.726365
 30
0.0
 11
315.219722
 21
450.726365
 31
0.0
  0
LINE
  5
45C
102
{ACAD_REACTORS
330
76C
102
}
330
1F
100
AcDbEntity
  8
LC-002-100-D00-0
 62
     7
370
    50
100
AcDbLine
 10
318.21972
 20
447.726365
 30
0.0
 11
318.21972
 21
450.726365
 31
0.0
  0
LINE
  5
45D
102
{ACAD_REACTORS
330
76C
102
}
330
1F
100
AcDbEntity
  8
LC-002-100-D00-0
 62
     7
370
    50
100
AcDbLine
 10
312.219723
 20
447.726365
 30
0.0
 11
312.219723
 21
451.726365
 31
0.0
  0
LINE
  5
45E
102
{ACAD_REACTORS
330
76C
102
}
330
1F
100
AcDbEntity
  8
LC-002-100-D00-0
 62
     7
370
    50
100
AcDbLine
 10
309.219717
 20
450.226365
 30
0.0
 11
309.219717
 21
451.726365
 31
0.0
  0
LINE
  5
45F
102
{ACAD_REACTORS
330
76C
102
}
330
1F
100
AcDbEntity
  8
LC-002-100-D00-0
 62
     7
370
    50
100
AcDbLine
 10
306.219718
 20
450.226365
 30
0.0
 11
306.219718
 21
454.726365
 31
0.0
  0
LINE
  5
460
102
{ACAD_REACTORS
330
76C
102
}
330
1F
100
AcDbEntity
  8
LC-002-100-D00-0
 62
     7
370
    50
100
AcDbLine
 10
315.219722
 20
454.726365
 30
0.0
 11
306.219718
 21
454.726365
 31
0.0
  0
LINE
  5
461
102
{ACAD_REACTORS
330
76C
102
}
330
1F
100
AcDbEntity
  8
LC-002-100-D00-0
 62
     7
370
    50
100
AcDbLine
 10
315.219722
 20
454.726365
 30
0.0
 11
315.219722
 21
450.726365
 31
0.0
  0
LINE
  5
462
102
{ACAD_REACTORS
330
76C
102
}
330
1F
100
AcDbEntity
  8
LC-002-100-D00-0
 62
     7
370
    50
100
AcDbLine
 10
306.219718
 20
450.226365
 30
0.0
 11
309.219717
 21
450.226365
 31
0.0
  0
LINE
  5
463
102
{ACAD_REACTORS
330
76C
102
}
330
1F
100
AcDbEntity
  8
LC-002-100-D00-0
 62
     7
370
    50
100
AcDbLine
 10
312.219723
 20
447.726365
 30
0.0
 11
318.21972
 21
447.726365
 31
0.0
  0
LINE
  5
464
102
{ACAD_REACTORS
330
76C
102
}
330
1F
100
AcDbEntity
  8
LC-002-100-D00-0
 62
     7
370
    50
100
AcDbLine
 10
309.219717
 20
451.726365
 30
0.0
 11
312.219723
 21
451.726365
 31
0.0
  0
LINE
  5
465
102
{ACAD_REACTORS
330
76C
102
}
330
1F
100
AcDbEntity
  8
LC-002-100-D00-0
 62
     7
370
    50
100
AcDbLine
 10
453.219718
 20
454.726365
 30
0.0
 11
444.219722
 21
454.726365
 31
0.0
  0
LINE
  5
466
102
{ACAD_REACTORS
330
76C
102
}
330
1F
100
AcDbEntity
  8
LC-002-100-D00-0
 62
     7
370
    50
100
AcDbLine
 10
453.219718
 20
454.726365
 30
0.0
 11
453.219718
 21
450.226365
 31
0.0
  0
LINE
  5
467
102
{ACAD_REACTORS
330
76C
102
}
330
1F
100
AcDbEntity
  8
LC-002-100-D00-0
 62
     7
370
    50
100
AcDbLine
 10
450.21972
 20
451.726365
 30
0.0
 11
450.21972
 21
450.226365
 31
0.0
  0
LINE
  5
468
102
{ACAD_REACTORS
330
76C
102
}
330
1F
100
AcDbEntity
  8
LC-002-100-D00-0
 62
     7
370
    50
100
AcDbLine
 10
444.219722
 20
450.726365
 30
0.0
 11
441.21972
 21
450.726365
 31
0.0
  0
LINE
  5
469
102
{ACAD_REACTORS
330
76C
102
}
330
1F
100
AcDbEntity
  8
LC-002-100-D00-0
 62
     7
370
    50
100
AcDbLine
 10
444.219722
 20
450.726365
 30
0.0
 11
444.219722
 21
454.726365
 31
0.0
  0
LINE
  5
46A
102
{ACAD_REACTORS
330
76C
102
}
330
1F
100
AcDbEntity
  8
LC-002-100-D00-0
 62
     7
370
    50
100
AcDbLine
 10
450.21972
 20
450.226365
 30
0.0
 11
453.219718
 21
450.226365
 31
0.0
  0
LINE
  5
46B
102
{ACAD_REACTORS
330
76C
102
}
330
1F
100
AcDbEntity
  8
LC-002-100-D00-0
 62
     7
370
    50
100
AcDbLine
 10
441.21972
 20
447.726365
 30
0.0
 11
447.219721
 21
447.726365
 31
0.0
  0
LINE
  5
46C
102
{ACAD_REACTORS
330
76C
102
}
330
1F
100
AcDbEntity
  8
LC-002-100-D00-0
 62
     7
370
    50
100
AcDbLine
 10
447.219721
 20
451.726365
 30
0.0
 11
450.21972
 21
451.726365
 31
0.0
  0
LINE
  5
46D
102
{ACAD_REACTORS
330
76C
102
}
330
1F
100
AcDbEntity
  8
LC-002-100-D00-0
 62
     7
370
    50
100
AcDbLine
 10
318.21972
 20
447.726365
 30
0.0
 11
325.21972
 21
447.726365
 31
0.0
  0
LINE
  5
46E
102
{ACAD_REACTORS
330
76C
102
}
330
1F
100
AcDbEntity
  8
LC-002-100-D00-0
 62
     7
370
    50
100
AcDbLine
 10
447.219721
 20
450.226365
 30
0.0
 11
450.21972
 21
450.226365
 31
0.0
  0
LINE
  5
46F
102
{ACAD_REACTORS
330
76C
102
}
330
1F
100
AcDbEntity
  8
LC-002-100-D00-0
 62
     7
370
    50
100
AcDbLine
 10
309.219717
 20
450.226365
 30
0.0
 11
312.219723
 21
450.226365
 31
0.0
  0
ARC
  5
470
102
{ACAD_REACTORS
330
76C
102
}
330
1F
100
AcDbEntity
  8
LC-002-100-D00-0
 62
     7
370
    50
100
AcDbCircle
 10
443.21972
 20
423.726365
 30
0.0
 40
7.0
100
AcDbArc
 50
270.0
 51
0.0
  0
LINE
  5
471
102
{ACAD_REACTORS
330
76C
102
}
330
1F
100
AcDbEntity
  8
LC-002-100-D00-0
 62
     7
370
    50
100
AcDbLine
 10
450.21972
 20
451.726365
 30
0.0
 11
450.21972
 21
423.726365
 31
0.0
  0
LINE
  5
472
102
{ACAD_REACTORS
330
76C
102
}
330
1F
100
AcDbEntity
  8
LC-002-100-D00-0
 62
     7
370
    50
100
AcDbLine
 10
309.219717
 20
423.726365
 30
0.0
 11
309.219717
 21
451.726365
 31
0.0
  0
ARC
  5
473
102
{ACAD_REACTORS
330
76C
102
}
330
1F
100
AcDbEntity
  8
LC-002-100-D00-0
 62
     7
370
    50
100
AcDbCircle
 10
316.21972
 20
423.726365
 30
0.0
 40
7.0
100
AcDbArc
 50
180.0
 51
270.0
  0
LINE
  5
474
102
{ACAD_REACTORS
330
76C
102
}
330
1F
100
AcDbEntity
  8
LC-002-100-D00-0
 62
     7
370
    50
100
AcDbLine
 10
443.21972
 20
416.726365
 30
0.0
 11
316.219724
 21
416.726365
 31
0.0
  0
LINE
  5
475
102
{ACAD_REACTORS
330
76C
102
}
330
1F
100
AcDbEntity
  8
LC-002-100-D00-0
 62
     7
370
    50
100
AcDbLine
 10
453.219718
 20
451.726365
 30
0.0
 11
453.219718
 21
423.726365
 31
0.0
  0
ARC
  5
476
102
{ACAD_REACTORS
330
76C
102
}
330
1F
100
AcDbEntity
  8
LC-002-100-D00-0
 62
     7
370
    50
100
AcDbCircle
 10
443.21972
 20
423.726365
 30
0.0
 40
10.0
100
AcDbArc
 50
270.0
 51
0.0
  0
LINE
  5
477
102
{ACAD_REACTORS
330
76C
102
}
330
1F
100
AcDbEntity
  8
LC-002-100-D00-0
 62
     7
370
    50
100
AcDbLine
 10
443.21972
 20
413.726364
 30
0.0
 11
316.219724
 21
413.726364
 31
0.0
  0
ARC
  5
478
102
{ACAD_REACTORS
330
76C
102
}
330
1F
100
AcDbEntity
  8
LC-002-100-D00-0
 62
     7
370
    50
100
AcDbCircle
 10
316.21972
 20
423.726365
 30
0.0
 40
10.0
100
AcDbArc
 50
180.0
 51
270.0
  0
LINE
  5
479
102
{ACAD_REACTORS
330
76C
102
}
330
1F
100
AcDbEntity
  8
LC-002-100-D00-0
 62
     7
370
    50
100
AcDbLine
 10
306.219718
 20
423.726365
 30
0.0
 11
306.219718
 21
451.726365
 31
0.0
  0
LINE
  5
47A
102
{ACAD_REACTORS
330
76C
102
}
330
1F
100
AcDbEntity
  8
LC-002-100-D00-0
 62
     7
370
    50
100
AcDbLine
 10
309.219717
 20
451.726365
 30
0.0
 11
306.219718
 21
451.726365
 31
0.0
  0
LINE
  5
47B
102
{ACAD_REACTORS
330
76C
102
}
330
1F
100
AcDbEntity
  8
LC-002-100-D00-0
 62
     7
370
    50
100
AcDbLine
 10
453.219718
 20
451.726365
 30
0.0
 11
450.21972
 21
451.726365
 31
0.0
  0
INSERT
  5
488
102
{ACAD_REACTORS
330
76C
102
}
330
1F
100
AcDbEntity
  8
LC-002-100-D00-0
 62
     7
370
    25
100
AcDbBlockReference
  2
KLON25
 10
0.0
 20
0.0
 30
0.0
  0
LINE
  5
489
102
{ACAD_REACTORS
330
76C
102
}
330
1F
100
AcDbEntity
  8
LC-002-100-D00-0
 62
     7
370
    25
100
AcDbLine
 10
437.376097
 20
451.427782
 30
0.0
 11
440.67468
 21
454.726365
 31
0.0
  0
INSERT
  5
495
102
{ACAD_REACTORS
330
76C
102
}
330
1F
100
AcDbEntity
  8
LC-002-100-D00-0
 62
     7
370
    25
100
AcDbBlockReference
  2
KLON26
 10
0.0
 20
0.0
 30
0.0
  0
DIMENSION
  5
496
102
{ACAD_REACTORS
330
76C
102
}
330
1F
100
AcDbEntity
  8
LC-002-100-D00-0
 62
     7
370
    25
100
AcDbDimension
  2
*D33
 10
453.21972
 20
323.504875
 30
0.0
 11
366.87844
 21
378.504875
 31
0.0
 70
   160
  1
147
 71
     5
 42
147.0
  3
LC-DIM-L-0100-02-02
100
AcDbAlignedDimension
 13
306.21972
 23
423.726365
 33
0.0
 14
453.21972
 24
423.726365
 34
0.0
100
AcDbRotatedDimension
  0
LINE
  5
4A3
102
{ACAD_REACTORS
330
76C
102
}
330
1F
100
AcDbEntity
  8
LC-002-100-D00-0
  6
DASHDOT
 62
     7
370
    25
100
AcDbLine
 10
381.286753
 20
481.726364
 30
0.0
 11
381.286753
 21
413.726364
 31
0.0
  0
INSERT
  5
4A9
330
1F
100
AcDbEntity
  8
LC-002-100-D00-0
 62
     7
370
    50
100
AcDbBlockReference
  2
KLON27
 10
0.0
 20
0.0
 30
0.0
  0
ARC
  5
4AA
330
1F
100
AcDbEntity
  8
LC-002-100-D00-0
 62
     7
370
    50
100
AcDbCircle
 10
410.219714
 20
128.210775
 30
0.0
 40
24.76305695180431
100
AcDbArc
 50
286.637155
 51
62.523751
  0
LINE
  5
4AB
330
1F
100
AcDbEntity
  8
LC-002-100-D00-0
 62
     7
370
    50
100
AcDbLine
 10
411.357092
 20
103.473852
 30
0.0
 11
410.219714
 21
103.447718
 31
0.0
  0
LINE
  5
4AC
330
1F
100
AcDbEntity
  8
LC-002-100-D00-0
 62
     7
370
    50
100
AcDbLine
 10
349.219714
 20
152.973832
 30
0.0
 11
410.219714
 21
152.973832
 31
0.0
  0
INSERT
  5
4B2
330
1F
100
AcDbEntity
  8
LC-002-100-D00-0
 62
     7
370
    50
100
AcDbBlockReference
  2
KLON28
 10
0.0
 20
0.0
 30
0.0
  0
ARC
  5
4B3
330
1F
100
AcDbEntity
  8
LC-002-100-D00-0
 62
     7
370
    50
100
AcDbCircle
 10
349.219714
 20
128.210775
 30
0.0
 40
24.76305695180422
100
AcDbArc
 50
109.469149
 51
245.19649
  0
LINE
  5
4B4
330
1F
100
AcDbEntity
  8
LC-002-100-D00-0
 62
     7
370
    50
100
AcDbLine
 10
347.623822
 20
152.922354
 30
0.0
 11
349.219714
 21
152.973832
 31
0.0
  0
LINE
  5
4B5
330
1F
100
AcDbEntity
  8
LC-002-100-D00-0
 62
     7
370
    50
100
AcDbLine
 10
410.219714
 20
103.447718
 30
0.0
 11
349.219714
 21
103.447718
 31
0.0
  0
INSERT
  5
4C5
330
1F
100
AcDbEntity
  8
LC-002-100-D00-0
 62
     7
370
    50
100
AcDbBlockReference
  2
POLY1
 10
0.0
 20
0.0
 30
0.0
  0
INSERT
  5
4D5
330
1F
100
AcDbEntity
  8
LC-002-100-D00-0
 62
     7
370
    50
100
AcDbBlockReference
  2
POLY2
 10
0.0
 20
0.0
 30
0.0
  0
INSERT
  5
4E5
330
1F
100
AcDbEntity
  8
LC-002-100-D00-0
 62
     7
370
    50
100
AcDbBlockReference
  2
POLY3
 10
0.0
 20
0.0
 30
0.0
  0
INSERT
  5
4F5
330
1F
100
AcDbEntity
  8
LC-002-100-D00-0
 62
     7
370
    50
100
AcDbBlockReference
  2
POLY4
 10
0.0
 20
0.0
 30
0.0
  0
LINE
  5
4F6
330
1F
100
AcDbEntity
  8
LC-002-100-D00-0
 62
     7
370
    50
100
AcDbLine
 10
349.219714
 20
153.010775
 30
0.0
 11
410.219714
 21
153.010775
 31
0.0
  0
LINE
  5
4F7
330
1F
100
AcDbEntity
  8
LC-002-100-D00-0
 62
     7
370
    50
100
AcDbLine
 10
410.219714
 20
103.410774
 30
0.0
 11
349.219714
 21
103.410774
 31
0.0
  0
ARC
  5
4F8
330
1F
100
AcDbEntity
  8
LC-002-100-D00-0
 62
     7
370
    50
100
AcDbCircle
 10
410.219714
 20
128.210775
 30
0.0
 40
24.7999999999944
100
AcDbArc
 50
300.592814
 51
59.407186
  0
ARC
  5
4F9
330
1F
100
AcDbEntity
  8
LC-002-100-D00-0
 62
     7
370
    50
100
AcDbCircle
 10
349.219714
 20
128.210775
 30
0.0
 40
24.79999999999429
100
AcDbArc
 50
120.592814
 51
239.407186
  0
LINE
  5
4FA
330
1F
100
AcDbEntity
  8
LC-002-100-D00-0
 62
     7
370
    50
100
AcDbLine
 10
424.965218
 20
147.750736
 30
0.0
 11
424.869631
 21
147.598141
 31
0.0
  0
LINE
  5
4FB
330
1F
100
AcDbEntity
  8
LC-002-100-D00-0
 62
     7
370
    50
100
AcDbLine
 10
419.684709
 20
150.591657
 30
0.0
 11
419.769064
 21
150.750737
 31
0.0
  0
LINE
  5
4FC
330
1F
100
AcDbEntity
  8
LC-002-100-D00-0
 62
     7
370
    50
100
AcDbLine
 10
339.670364
 20
150.750737
 30
0.0
 11
339.75472
 21
150.591657
 31
0.0
  0
LINE
  5
4FD
330
1F
100
AcDbEntity
  8
LC-002-100-D00-0
 62
     7
370
    50
100
AcDbLine
 10
334.569797
 20
147.598141
 30
0.0
 11
334.47421
 21
147.750736
 31
0.0
  0
LINE
  5
4FE
330
1F
100
AcDbEntity
  8
LC-002-100-D00-0
 62
     7
370
    50
100
AcDbLine
 10
334.47421
 20
108.670813
 30
0.0
 11
334.569797
 21
108.823408
 31
0.0
  0
LINE
  5
4FF
330
1F
100
AcDbEntity
  8
LC-002-100-D00-0
 62
     7
370
    50
100
AcDbLine
 10
339.75472
 20
105.829892
 30
0.0
 11
339.670364
 21
105.670813
 31
0.0
  0
INSERT
  5
50F
330
1F
100
AcDbEntity
  8
LC-002-100-D00-0
 62
     7
370
    50
100
AcDbBlockReference
  2
POLY5
 10
0.0
 20
0.0
 30
0.0
  0
LINE
  5
510
330
1F
100
AcDbEntity
  8
LC-002-100-D00-0
 62
     7
370
    50
100
AcDbLine
 10
419.769064
 20
105.670813
 30
0.0
 11
419.684709
 21
105.829892
 31
0.0
  0
LINE
  5
511
330
1F
100
AcDbEntity
  8
LC-002-100-D00-0
 62
     7
370
    50
100
AcDbLine
 10
424.869631
 20
108.823408
 30
0.0
 11
424.965218
 21
108.670813
 31
0.0
  0
INSERT
  5
521
330
1F
100
AcDbEntity
  8
LC-002-100-D00-0
 62
     7
370
    50
100
AcDbBlockReference
  2
POLY6
 10
0.0
 20
0.0
 30
0.0
  0
LINE
  5
522
330
1F
100
AcDbEntity
  8
LC-002-100-D00-0
 62
     7
370
    50
100
AcDbLine
 10
419.684709
 20
150.591657
 30
0.0
 11
419.570227
 21
150.314347
 31
0.0
  0
LINE
  5
523
330
1F
100
AcDbEntity
  8
LC-002-100-D00-0
 62
     7
370
    50
100
AcDbLine
 10
424.686712
 20
147.360343
 30
0.0
 11
424.869631
 21
147.598141
 31
0.0
  0
LINE
  5
524
330
1F
100
AcDbEntity
  8
LC-002-100-D00-0
 62
     7
370
    50
100
AcDbLine
 10
334.569797
 20
147.598141
 30
0.0
 11
334.752713
 21
147.360343
 31
0.0
  0
LINE
  5
525
330
1F
100
AcDbEntity
  8
LC-002-100-D00-0
 62
     7
370
    50
100
AcDbLine
 10
339.869202
 20
150.314347
 30
0.0
 11
339.75472
 21
150.591657
 31
0.0
  0
LINE
  5
526
330
1F
100
AcDbEntity
  8
LC-002-100-D00-0
 62
     7
370
    50
100
AcDbLine
 10
339.75472
 20
105.829892
 30
0.0
 11
339.869202
 21
106.107202
 31
0.0
  0
LINE
  5
527
330
1F
100
AcDbEntity
  8
LC-002-100-D00-0
 62
     7
370
    50
100
AcDbLine
 10
334.752713
 20
109.061207
 30
0.0
 11
334.569797
 21
108.823408
 31
0.0
  0
LINE
  5
528
330
1F
100
AcDbEntity
  8
LC-002-100-D00-0
 62
     7
370
    50
100
AcDbLine
 10
419.570227
 20
106.107202
 30
0.0
 11
419.684709
 21
105.829892
 31
0.0
  0
LINE
  5
529
330
1F
100
AcDbEntity
  8
LC-002-100-D00-0
 62
     7
370
    50
100
AcDbLine
 10
424.869631
 20
108.823408
 30
0.0
 11
424.686712
 21
109.061207
 31
0.0
  0
ARC
  5
52A
330
1F
100
AcDbEntity
  8
LC-002-100-D00-0
 62
     7
370
    50
100
AcDbCircle
 10
428.328759
 20
133.960775
 30
0.0
 40
1.000000000000185
100
AcDbArc
 50
17.615731
 51
90.0
  0
ARC
  5
52B
330
1F
100
AcDbEntity
  8
LC-002-100-D00-0
 62
     7
370
    50
100
AcDbCircle
 10
410.219714
 20
128.210775
 30
0.0
 40
20.00000000000017
100
AcDbArc
 50
270.0
 51
17.615731
  0
ARC
  5
52C
330
1F
100
AcDbEntity
  8
LC-002-100-D00-0
 62
     7
370
    50
100
AcDbCircle
 10
349.219714
 20
128.210775
 30
0.0
 40
20.00000000000007
100
AcDbArc
 50
162.384269
 51
270.0
  0
ARC
  5
52D
330
1F
100
AcDbEntity
  8
LC-002-100-D00-0
 62
     7
370
    50
100
AcDbCircle
 10
331.110669
 20
133.960775
 30
0.0
 40
1.0
100
AcDbArc
 50
90.0
 51
162.384269
  0
LINE
  5
52E
330
1F
100
AcDbEntity
  8
LC-002-100-D00-0
 62
     7
370
    50
100
AcDbLine
 10
331.110668
 20
134.960775
 30
0.0
 11
428.32876
 21
134.960775
 31
0.0
  0
LINE
  5
52F
330
1F
100
AcDbEntity
  8
LC-002-100-D00-0
 62
     7
370
    50
100
AcDbLine
 10
410.219714
 20
108.210775
 30
0.0
 11
349.219714
 21
108.210775
 31
0.0
  0
ARC
  5
530
330
1F
100
AcDbEntity
  8
LC-002-100-D00-0
 62
     7
370
    50
100
AcDbCircle
 10
410.219714
 20
128.210775
 30
0.0
 40
18.50000000000021
100
AcDbArc
 50
21.399266
 51
90.0
  0
ARC
  5
531
330
1F
100
AcDbEntity
  8
LC-002-100-D00-0
 62
     7
370
    50
100
AcDbCircle
 10
349.219714
 20
128.210775
 30
0.0
 40
18.49999999999994
100
AcDbArc
 50
90.0
 51
158.600734
  0
LINE
  5
532
330
1F
100
AcDbEntity
  8
LC-002-100-D00-0
 62
     7
370
    50
100
AcDbLine
 10
410.219714
 20
152.210775
 30
0.0
 11
349.219714
 21
152.210775
 31
0.0
  0
ARC
  5
533
330
1F
100
AcDbEntity
  8
LC-002-100-D00-0
 62
     7
370
    50
100
AcDbCircle
 10
410.219714
 20
128.210775
 30
0.0
 40
24.0
100
AcDbArc
 50
270.0
 51
90.0
  0
LINE
  5
534
330
1F
100
AcDbEntity
  8
LC-002-100-D00-0
 62
     7
370
    50
100
AcDbLine
 10
349.219714
 20
104.210774
 30
0.0
 11
410.219714
 21
104.210774
 31
0.0
  0
ARC
  5
535
330
1F
100
AcDbEntity
  8
LC-002-100-D00-0
 62
     7
370
    50
100
AcDbCircle
 10
349.219714
 20
128.210775
 30
0.0
 40
24.0
100
AcDbArc
 50
90.0
 51
270.0
  0
LINE
  5
536
330
1F
100
AcDbEntity
  8
LC-002-100-D00-0
 62
     7
370
    50
100
AcDbLine
 10
410.219714
 20
146.710775
 30
0.0
 11
349.219714
 21
146.710775
 31
0.0
  0
LINE
  5
537
330
1F
100
AcDbEntity
  8
LC-002-100-D00-0
 62
     7
370
    50
100
AcDbLine
 10
325.103984
 20
122.585774
 30
0.0
 11
325.888202
 21
122.585774
 31
0.0
  0
LINE
  5
538
330
1F
100
AcDbEntity
  8
LC-002-100-D00-0
 62
     7
370
    50
100
AcDbLine
 10
433.551226
 20
122.585774
 30
0.0
 11
434.335441
 21
122.585774
 31
0.0
  0
LINE
  5
539
330
1F
100
AcDbEntity
  8
LC-002-100-D00-0
 62
     7
370
    50
100
AcDbLine
 10
325.659827
 20
120.585775
 30
0.0
 11
326.463189
 21
120.585775
 31
0.0
  0
LINE
  5
53A
330
1F
100
AcDbEntity
  8
LC-002-100-D00-0
 62
     7
370
    50
100
AcDbLine
 10
432.976239
 20
120.585775
 30
0.0
 11
433.779601
 21
120.585775
 31
0.0
  0
DIMENSION
  5
53B
330
1F
100
AcDbEntity
  8
LC-002-100-D00-0
 62
     7
370
    25
100
AcDbDimension
  2
*D42
 10
867.371595
 20
413.726361
 30
0.0
 11
812.371595
 21
467.549875
 31
0.0
 70
   160
  1
68
 71
     5
 42
68.0
 53
90.0
  3
LC-DIM-L-0100-02-02
100
AcDbAlignedDimension
 13
779.71972
 23
481.726361
 33
0.0
 14
543.21972
 24
413.726361
 34
0.0
 50
90.0
100
AcDbRotatedDimension
  0
LINE
  5
54A
330
1F
100
AcDbEntity
  8
LC-002-100-D00-0
 62
     7
370
    50
100
AcDbLine
 10
-192.694335
 20
446.226365
 30
0.0
 11
-192.694335
 21
447.726365
 31
0.0
  0
LINE
  5
54B
330
1F
100
AcDbEntity
  8
LC-002-100-D00-0
 62
     7
370
    50
100
AcDbLine
 10
-277.404373
 20
413.726364
 30
0.0
 11
-204.404372
 21
413.726364
 31
0.0
  0
LINE
  5
54C
330
1F
100
AcDbEntity
  8
LC-002-100-D00-0
 62
     7
370
    50
100
AcDbLine
 10
-230.136421
 20
463.726365
 30
0.0
 11
-277.404373
 21
463.726365
 31
0.0
  0
LINE
  5
54D
330
1F
100
AcDbEntity
  8
LC-002-100-D00-0
 62
     7
370
    50
100
AcDbLine
 10
-277.404373
 20
463.726365
 30
0.0
 11
-280.404371
 21
462.922516
 31
0.0
  0
LINE
  5
54E
330
1F
100
AcDbEntity
  8
LC-002-100-D00-0
 62
     7
370
    50
100
AcDbLine
 10
-280.404371
 20
414.530213
 30
0.0
 11
-277.404373
 21
413.726364
 31
0.0
  0
LINE
  5
54F
330
1F
100
AcDbEntity
  8
LC-002-100-D00-0
 62
     7
370
    50
100
AcDbLine
 10
-184.154373
 20
474.726365
 30
0.0
 11
-184.154373
 21
464.226364
 31
0.0
  0
LINE
  5
550
330
1F
100
AcDbEntity
  8
LC-002-100-D00-0
 62
     7
370
    50
100
AcDbLine
 10
-164.654372
 20
463.726365
 30
0.0
 11
-164.654372
 21
474.726365
 31
0.0
  0
ARC
  5
551
330
1F
100
AcDbEntity
  8
LC-002-100-D00-0
 62
     7
370
    50
100
AcDbCircle
 10
-165.654372
 20
463.726365
 30
0.0
 40
1.000000000000114
100
AcDbArc
 50
270.0
 51
0.0
  0
ARC
  5
552
330
1F
100
AcDbEntity
  8
LC-002-100-D00-0
 62
     7
370
    50
100
AcDbCircle
 10
-247.904372
 20
359.726365
 30
0.0
 40
0.5
100
AcDbArc
 50
90.0
 51
180.0
  0
ARC
  5
553
330
1F
100
AcDbEntity
  8
LC-002-100-D00-0
 62
     7
370
    50
100
AcDbCircle
 10
-229.904372
 20
359.726365
 30
0.0
 40
0.5
100
AcDbArc
 50
0.0
 51
90.0
  0
LINE
  5
554
330
1F
100
AcDbEntity
  8
LC-002-100-D00-0
 62
     7
370
    50
100
AcDbLine
 10
-248.404373
 20
359.726363
 30
0.0
 11
-248.404373
 21
352.226363
 31
0.0
  0
LINE
  5
555
330
1F
100
AcDbEntity
  8
LC-002-100-D00-0
 62
     7
370
    50
100
AcDbLine
 10
-229.404372
 20
352.226363
 30
0.0
 11
-229.404372
 21
359.726363
 31
0.0
  0
LINE
  5
556
330
1F
100
AcDbEntity
  8
LC-002-100-D00-0
 62
     7
370
    50
100
AcDbLine
 10
-248.904374
 20
413.726364
 30
0.0
 11
-248.904374
 21
375.226365
 31
0.0
  0
LINE
  5
557
330
1F
100
AcDbEntity
  8
LC-002-100-D00-0
 62
     7
370
    50
100
AcDbLine
 10
-228.904371
 20
375.226365
 30
0.0
 11
-228.904371
 21
413.726364
 31
0.0
  0
LINE
  5
558
330
1F
100
AcDbEntity
  8
LC-002-100-D00-0
 62
     7
370
    50
100
AcDbLine
 10
-248.904374
 20
371.726365
 30
0.0
 11
-248.904374
 21
361.226366
 31
0.0
  0
LINE
  5
559
330
1F
100
AcDbEntity
  8
LC-002-100-D00-0
 62
     7
370
    50
100
AcDbLine
 10
-228.904371
 20
361.226366
 30
0.0
 11
-228.904371
 21
371.726365
 31
0.0
  0
LINE
  5
55A
330
1F
100
AcDbEntity
  8
LC-002-100-D00-0
 62
     7
370
    50
100
AcDbLine
 10
-248.904374
 20
361.226366
 30
0.0
 11
-247.904372
 21
360.226364
 31
0.0
  0
LINE
  5
55B
330
1F
100
AcDbEntity
  8
LC-002-100-D00-0
 62
     7
370
    50
100
AcDbLine
 10
-229.904373
 20
360.226364
 30
0.0
 11
-228.904371
 21
361.226366
 31
0.0
  0
LINE
  5
55C
330
1F
100
AcDbEntity
  8
LC-002-100-D00-0
 62
     7
370
    50
100
AcDbLine
 10
-246.804376
 20
375.226365
 30
0.0
 11
-246.804376
 21
371.726365
 31
0.0
  0
LINE
  5
55D
330
1F
100
AcDbEntity
  8
LC-002-100-D00-0
 62
     7
370
    50
100
AcDbLine
 10
-231.004373
 20
371.726365
 30
0.0
 11
-231.004373
 21
375.226365
 31
0.0
  0
ARC
  5
55E
330
1F
100
AcDbEntity
  8
LC-002-100-D00-0
 62
     7
370
    50
100
AcDbCircle
 10
-145.404372
 20
478.726365
 30
0.0
 40
3.0
100
AcDbArc
 50
90.0
 51
180.0
  0
LINE
  5
55F
330
1F
100
AcDbEntity
  8
LC-002-100-D00-0
 62
     7
370
    50
100
AcDbLine
 10
-145.404373
 20
481.726364
 30
0.0
 11
-131.404371
 21
481.726364
 31
0.0
  0
ARC
  5
560
330
1F
100
AcDbEntity
  8
LC-002-100-D00-0
 62
     7
370
    50
100
AcDbCircle
 10
-131.404372
 20
483.226365
 30
0.0
 40
1.500000000000114
100
AcDbArc
 50
270.0
 51
0.0
  0
LINE
  5
561
330
1F
100
AcDbEntity
  8
LC-002-100-D00-0
 62
     7
370
    50
100
AcDbLine
 10
-129.904372
 20
483.226364
 30
0.0
 11
-129.904372
 21
527.726368
 31
0.0
  0
LINE
  5
562
330
1F
100
AcDbEntity
  8
LC-002-100-D00-0
 62
     7
370
    50
100
AcDbLine
 10
-129.904372
 20
527.726368
 30
0.0
 11
-128.404372
 21
527.726368
 31
0.0
  0
LINE
  5
563
330
1F
100
AcDbEntity
  8
LC-002-100-D00-0
 62
     7
370
    50
100
AcDbLine
 10
-128.404372
 20
527.726368
 30
0.0
 11
-128.404372
 21
482.726366
 31
0.0
  0
ARC
  5
564
330
1F
100
AcDbEntity
  8
LC-002-100-D00-0
 62
     7
370
    50
100
AcDbCircle
 10
-130.904372
 20
482.726365
 30
0.0
 40
2.5
100
AcDbArc
 50
270.0
 51
0.0
  0
LINE
  5
565
330
1F
100
AcDbEntity
  8
LC-002-100-D00-0
 62
     7
370
    50
100
AcDbLine
 10
-145.404373
 20
480.226365
 30
0.0
 11
-130.904374
 21
480.226365
 31
0.0
  0
ARC
  5
566
330
1F
100
AcDbEntity
  8
LC-002-100-D00-0
 62
     7
370
    50
100
AcDbCircle
 10
-145.404372
 20
478.726365
 30
0.0
 40
1.5
100
AcDbArc
 50
90.0
 51
180.0
  0
LINE
  5
567
330
1F
100
AcDbEntity
  8
LC-002-100-D00-0
 62
     7
370
    50
100
AcDbLine
 10
-146.904373
 20
478.726366
 30
0.0
 11
-146.904373
 21
458.726364
 31
0.0
  0
ARC
  5
568
330
1F
100
AcDbEntity
  8
LC-002-100-D00-0
 62
     7
370
    50
100
AcDbCircle
 10
-150.904372
 20
458.726365
 30
0.0
 40
4.000000000000073
100
AcDbArc
 50
319.464198
 51
360.0
  0
ARC
  5
569
330
1F
100
AcDbEntity
  8
LC-002-100-D00-0
 62
     7
370
    50
100
AcDbCircle
 10
-147.104372
 20
455.476749
 30
0.0
 40
0.9999999999999845
100
AcDbArc
 50
139.464198
 51
180.0
  0
LINE
  5
56A
330
1F
100
AcDbEntity
  8
LC-002-100-D00-0
 62
     7
370
    50
100
AcDbLine
 10
-148.104372
 20
449.726365
 30
0.0
 11
-148.104372
 21
455.476749
 31
0.0
  0
LINE
  5
56B
330
1F
100
AcDbEntity
  8
LC-002-100-D00-0
 62
     7
370
    50
100
AcDbLine
 10
-149.604372
 20
449.726365
 30
0.0
 11
-148.104372
 21
449.726365
 31
0.0
  0
LINE
  5
56C
330
1F
100
AcDbEntity
  8
LC-002-100-D00-0
 62
     7
370
    50
100
AcDbLine
 10
-149.604372
 20
449.726365
 30
0.0
 11
-149.604372
 21
455.476749
 31
0.0
  0
ARC
  5
56D
330
1F
100
AcDbEntity
  8
LC-002-100-D00-0
 62
     7
370
    50
100
AcDbCircle
 10
-147.104372
 20
455.476749
 30
0.0
 40
2.499999999999955
100
AcDbArc
 50
139.464198
 51
180.0
  0
ARC
  5
56E
330
1F
100
AcDbEntity
  8
LC-002-100-D00-0
 62
     7
370
    50
100
AcDbCircle
 10
-150.904372
 20
458.726365
 30
0.0
 40
2.500000000000029
100
AcDbArc
 50
319.464198
 51
360.0
  0
LINE
  5
56F
330
1F
100
AcDbEntity
  8
LC-002-100-D00-0
 62
     7
370
    50
100
AcDbLine
 10
-148.404372
 20
478.726366
 30
0.0
 11
-148.404372
 21
458.726364
 31
0.0
  0
LINE
  5
570
330
1F
100
AcDbEntity
  8
LC-002-100-D00-0
 62
     7
370
    50
100
AcDbLine
 10
-201.904372
 20
458.726364
 30
0.0
 11
-201.904372
 21
478.726366
 31
0.0
  0
ARC
  5
571
330
1F
100
AcDbEntity
  8
LC-002-100-D00-0
 62
     7
370
    50
100
AcDbCircle
 10
-203.404372
 20
478.726365
 30
0.0
 40
1.5
100
AcDbArc
 50
0.0
 51
90.0
  0
LINE
  5
572
330
1F
100
AcDbEntity
  8
LC-002-100-D00-0
 62
     7
370
    50
100
AcDbLine
 10
-251.904373
 20
480.226365
 30
0.0
 11
-203.404372
 21
480.226365
 31
0.0
  0
LINE
  5
573
330
1F
100
AcDbEntity
  8
LC-002-100-D00-0
 62
     7
370
    50
100
AcDbLine
 10
-251.904373
 20
480.226365
 30
0.0
 11
-251.904373
 21
481.726364
 31
0.0
  0
LINE
  5
574
330
1F
100
AcDbEntity
  8
LC-002-100-D00-0
 62
     7
370
    50
100
AcDbLine
 10
-251.904373
 20
481.726364
 30
0.0
 11
-203.404372
 21
481.726364
 31
0.0
  0
ARC
  5
575
330
1F
100
AcDbEntity
  8
LC-002-100-D00-0
 62
     7
370
    50
100
AcDbCircle
 10
-203.404372
 20
478.726365
 30
0.0
 40
3.000000000000057
100
AcDbArc
 50
0.0
 51
90.0
  0
LINE
  5
576
330
1F
100
AcDbEntity
  8
LC-002-100-D00-0
 62
     7
370
    50
100
AcDbLine
 10
-200.404373
 20
458.726364
 30
0.0
 11
-200.404373
 21
478.726366
 31
0.0
  0
ARC
  5
577
330
1F
100
AcDbEntity
  8
LC-002-100-D00-0
 62
     7
370
    50
100
AcDbCircle
 10
-197.904372
 20
458.726365
 30
0.0
 40
2.500000000000028
100
AcDbArc
 50
180.0
 51
220.535802
  0
ARC
  5
578
330
1F
100
AcDbEntity
  8
LC-002-100-D00-0
 62
     7
370
    50
100
AcDbCircle
 10
-201.704372
 20
455.476749
 30
0.0
 40
2.5
100
AcDbArc
 50
0.0
 51
40.535802
  0
LINE
  5
579
330
1F
100
AcDbEntity
  8
LC-002-100-D00-0
 62
     7
370
    50
100
AcDbLine
 10
-199.204373
 20
455.476749
 30
0.0
 11
-199.204373
 21
449.726365
 31
0.0
  0
LINE
  5
57A
330
1F
100
AcDbEntity
  8
LC-002-100-D00-0
 62
     7
370
    50
100
AcDbLine
 10
-200.704372
 20
449.726365
 30
0.0
 11
-199.204373
 21
449.726365
 31
0.0
  0
LINE
  5
57B
330
1F
100
AcDbEntity
  8
LC-002-100-D00-0
 62
     7
370
    50
100
AcDbLine
 10
-200.704372
 20
455.476749
 30
0.0
 11
-200.704372
 21
449.726365
 31
0.0
  0
ARC
  5
57C
330
1F
100
AcDbEntity
  8
LC-002-100-D00-0
 62
     7
370
    50
100
AcDbCircle
 10
-201.704372
 20
455.476749
 30
0.0
 40
1.0
100
AcDbArc
 50
0.0
 51
40.535802
  0
ARC
  5
57D
330
1F
100
AcDbEntity
  8
LC-002-100-D00-0
 62
     7
370
    50
100
AcDbCircle
 10
-197.904372
 20
458.726365
 30
0.0
 40
4.000000000000028
100
AcDbArc
 50
180.0
 51
220.535802
  0
LINE
  5
57E
330
1F
100
AcDbEntity
  8
LC-002-100-D00-0
 62
     7
370
    50
100
AcDbLine
 10
-198.532176
 20
448.226364
 30
0.0
 11
-198.532176
 21
449.726365
 31
0.0
  0
LINE
  5
57F
330
1F
100
AcDbEntity
  8
LC-002-100-D00-0
 62
     7
370
    50
100
AcDbLine
 10
-150.276569
 20
448.226364
 30
0.0
 11
-150.276569
 21
449.726365
 31
0.0
  0
LINE
  5
580
330
1F
100
AcDbEntity
  8
LC-002-100-D00-0
 62
     7
370
    50
100
AcDbLine
 10
-197.224081
 20
449.226365
 30
0.0
 11
-197.224081
 21
449.726365
 31
0.0
  0
LINE
  5
581
330
1F
100
AcDbEntity
  8
LC-002-100-D00-0
 62
     7
370
    50
100
AcDbLine
 10
-151.584663
 20
449.226365
 30
0.0
 11
-151.584663
 21
449.726365
 31
0.0
  0
LINE
  5
582
330
1F
100
AcDbEntity
  8
LC-002-100-D00-0
 62
     7
370
    50
100
AcDbLine
 10
-197.224081
 20
449.726365
 30
0.0
 11
-199.204373
 21
449.726365
 31
0.0
  0
LINE
  5
583
330
1F
100
AcDbEntity
  8
LC-002-100-D00-0
 62
     7
370
    50
100
AcDbLine
 10
-149.604372
 20
449.726365
 30
0.0
 11
-151.584663
 21
449.726365
 31
0.0
  0
INSERT
  5
593
330
1F
100
AcDbEntity
  8
LC-002-100-D00-0
 62
     7
370
    50
100
AcDbBlockReference
  2
POLY7
 10
0.0
 20
0.0
 30
0.0
  0
INSERT
  5
5A3
330
1F
100
AcDbEntity
  8
LC-002-100-D00-0
 62
     7
370
    50
100
AcDbBlockReference
  2
POLY8
 10
0.0
 20
0.0
 30
0.0
  0
LINE
  5
5A4
330
1F
100
AcDbEntity
  8
LC-002-100-D00-0
 62
     7
370
    50
100
AcDbLine
 10
-152.02349
 20
446.226365
 30
0.0
 11
-151.86441
 21
446.234426
 31
0.0
  0
LINE
  5
5A5
330
1F
100
AcDbEntity
  8
LC-002-100-D00-0
 62
     7
370
    50
100
AcDbLine
 10
-152.02349
 20
446.226365
 30
0.0
 11
-154.404373
 21
446.226365
 31
0.0
  0
LINE
  5
5A6
330
1F
100
AcDbEntity
  8
LC-002-100-D00-0
 62
     7
370
    50
100
AcDbLine
 10
-193.504008
 20
446.226365
 30
0.0
 11
-196.785255
 21
446.226365
 31
0.0
  0
LINE
  5
5A7
330
1F
100
AcDbEntity
  8
LC-002-100-D00-0
 62
     7
370
    50
100
AcDbLine
 10
-196.944334
 20
446.234426
 30
0.0
 11
-196.785255
 21
446.226365
 31
0.0
  0
INSERT
  5
5B9
330
1F
100
AcDbEntity
  8
LC-002-100-D00-0
 62
     7
370
    50
100
AcDbBlockReference
  2
POLY9
 10
0.0
 20
0.0
 30
0.0
  0
INSERT
  5
5CB
330
1F
100
AcDbEntity
  8
LC-002-100-D00-0
 62
     7
370
    50
100
AcDbBlockReference
  2
POLY10
 10
0.0
 20
0.0
 30
0.0
  0
LINE
  5
5CC
330
1F
100
AcDbEntity
  8
LC-002-100-D00-0
 62
     7
370
    50
100
AcDbLine
 10
-193.05545
 20
446.226365
 30
0.0
 11
-193.504008
 21
446.226365
 31
0.0
  0
LINE
  5
5CD
330
1F
100
AcDbEntity
  8
LC-002-100-D00-0
 62
     7
370
    50
100
AcDbLine
 10
-192.694335
 20
446.226365
 30
0.0
 11
-193.05545
 21
446.226365
 31
0.0
  0
LINE
  5
5CE
330
1F
100
AcDbEntity
  8
LC-002-100-D00-0
 62
     7
370
    50
100
AcDbLine
 10
-150.904373
 20
456.226365
 30
0.0
 11
-167.654372
 21
456.226365
 31
0.0
  0
LINE
  5
5CF
330
1F
100
AcDbEntity
  8
LC-002-100-D00-0
 62
     7
370
    50
100
AcDbLine
 10
-194.404372
 20
456.226365
 30
0.0
 11
-197.904372
 21
456.226365
 31
0.0
  0
ARC
  5
5D0
330
1F
100
AcDbEntity
  8
LC-002-100-D00-0
 62
     7
370
    50
100
AcDbCircle
 10
-153.755262
 20
458.726365
 30
0.0
 40
2.500000000000079
100
AcDbArc
 50
251.565051
 51
270.0
  0
ARC
  5
5D1
330
1F
100
AcDbEntity
  8
LC-002-100-D00-0
 62
     7
370
    50
100
AcDbCircle
 10
-195.053483
 20
458.726365
 30
0.0
 40
2.5
100
AcDbArc
 50
270.0
 51
285.048955
  0
LINE
  5
5D2
330
1F
100
AcDbEntity
  8
LC-002-100-D00-0
 62
     7
370
    50
100
AcDbLine
 10
-154.545831
 20
456.354656
 30
0.0
 11
-168.088894
 21
460.869012
 31
0.0
  0
ARC
  5
5D3
330
1F
100
AcDbEntity
  8
LC-002-100-D00-0
 62
     7
370
    50
100
AcDbCircle
 10
-197.904372
 20
463.726365
 30
0.0
 40
2.500000000000028
100
AcDbArc
 50
180.0
 51
270.0
  0
ARC
  5
5D4
330
1F
100
AcDbEntity
  8
LC-002-100-D00-0
 62
     7
370
    50
100
AcDbCircle
 10
-150.904372
 20
463.726365
 30
0.0
 40
2.5
100
AcDbArc
 50
270.0
 51
360.0
  0
INSERT
  5
5E0
330
1F
100
AcDbEntity
  8
LC-002-100-D00-0
 62
     7
370
    50
100
AcDbBlockReference
  2
POLY11
 10
0.0
 20
0.0
 30
0.0
  0
LINE
  5
5E1
330
1F
100
AcDbEntity
  8
LC-002-100-D00-0
 62
     7
370
    50
100
AcDbLine
 10
-193.80333
 20
461.226408
 30
0.0
 11
-197.904372
 21
461.226408
 31
0.0
  0
LINE
  5
5E2
330
1F
100
AcDbEntity
  8
LC-002-100-D00-0
 62
     7
370
    50
100
AcDbLine
 10
-150.919012
 20
461.226408
 30
0.0
 11
-162.110666
 21
461.226408
 31
0.0
  0
ARC
  5
5E3
330
1F
100
AcDbEntity
  8
LC-002-100-D00-0
 62
     7
370
    50
100
AcDbCircle
 10
-150.904372
 20
463.726365
 30
0.0
 40
2.50000000000069
100
AcDbArc
 50
269.664477
 51
270.0
  0
LINE
  5
5E4
330
1F
100
AcDbEntity
  8
LC-002-100-D00-0
 62
     7
370
    50
100
AcDbLine
 10
-162.253205
 20
461.226366
 30
0.0
 11
-168.255393
 21
461.226366
 31
0.0
  0
LINE
  5
5E5
330
1F
100
AcDbEntity
  8
LC-002-100-D00-0
 62
     7
370
    50
100
AcDbLine
 10
-225.904372
 20
478.226365
 30
0.0
 11
-251.904373
 21
478.226365
 31
0.0
  0
LINE
  5
5E6
330
1F
100
AcDbEntity
  8
LC-002-100-D00-0
 62
     7
370
    50
100
AcDbLine
 10
-225.904372
 20
478.226365
 30
0.0
 11
-225.904372
 21
480.226365
 31
0.0
  0
LINE
  5
5E7
330
1F
100
AcDbEntity
  8
LC-002-100-D00-0
 62
     7
370
    50
100
AcDbLine
 10
-251.904373
 20
478.226365
 30
0.0
 11
-251.904373
 21
480.226365
 31
0.0
  0
LINE
  5
5E8
330
1F
100
AcDbEntity
  8
LC-002-100-D00-0
 62
     7
370
    50
100
AcDbLine
 10
-225.904372
 20
478.226365
 30
0.0
 11
-225.904372
 21
476.226364
 31
0.0
  0
LINE
  5
5E9
330
1F
100
AcDbEntity
  8
LC-002-100-D00-0
 62
     7
370
    50
100
AcDbLine
 10
-251.904373
 20
476.226364
 30
0.0
 11
-251.904373
 21
478.226365
 31
0.0
  0
LINE
  5
5EA
330
1F
100
AcDbEntity
  8
LC-002-100-D00-0
 62
     7
370
    50
100
AcDbLine
 10
-225.904372
 20
459.396238
 30
0.0
 11
-225.904372
 21
476.226364
 31
0.0
  0
LINE
  5
5EB
330
1F
100
AcDbEntity
  8
LC-002-100-D00-0
 62
     7
370
    50
100
AcDbLine
 10
-251.904373
 20
463.726365
 30
0.0
 11
-251.904373
 21
476.226364
 31
0.0
  0
LINE
  5
5EC
330
1F
100
AcDbEntity
  8
LC-002-100-D00-0
 62
     7
370
    50
100
AcDbLine
 10
-145.404373
 20
481.726364
 30
0.0
 11
-150.904373
 21
481.726364
 31
0.0
  0
LINE
  5
5ED
330
1F
100
AcDbEntity
  8
LC-002-100-D00-0
 62
     7
370
    50
100
AcDbLine
 10
-197.904372
 20
481.726364
 30
0.0
 11
-203.404372
 21
481.726364
 31
0.0
  0
LINE
  5
5EE
330
1F
100
AcDbEntity
  8
LC-002-100-D00-0
 62
     7
370
    50
100
AcDbLine
 10
-150.904373
 20
481.726364
 30
0.0
 11
-157.154373
 21
481.726364
 31
0.0
  0
LINE
  5
5EF
330
1F
100
AcDbEntity
  8
LC-002-100-D00-0
 62
     7
370
    50
100
AcDbLine
 10
-191.654372
 20
481.726364
 30
0.0
 11
-197.904372
 21
481.726364
 31
0.0
  0
LINE
  5
5F0
330
1F
100
AcDbEntity
  8
LC-002-100-D00-0
 62
     7
370
    50
100
AcDbLine
 10
-196.104373
 20
452.726365
 30
0.0
 11
-198.404373
 21
452.726365
 31
0.0
  0
LINE
  5
5F1
330
1F
100
AcDbEntity
  8
LC-002-100-D00-0
 62
     7
370
    50
100
AcDbLine
 10
-198.404373
 20
452.726365
 30
0.0
 11
-198.404373
 21
454.226364
 31
0.0
  0
LINE
  5
5F2
330
1F
100
AcDbEntity
  8
LC-002-100-D00-0
 62
     7
370
    50
100
AcDbLine
 10
-194.404372
 20
454.226364
 30
0.0
 11
-198.404373
 21
454.226364
 31
0.0
  0
LINE
  5
5F3
330
1F
100
AcDbEntity
  8
LC-002-100-D00-0
 62
     7
370
    50
100
AcDbLine
 10
-194.404372
 20
458.726364
 30
0.0
 11
-194.404372
 21
454.226364
 31
0.0
  0
ARC
  5
5F4
330
1F
100
AcDbEntity
  8
LC-002-100-D00-0
 62
     7
370
    50
100
AcDbCircle
 10
-188.904372
 20
458.726365
 30
0.0
 40
5.5
100
AcDbArc
 50
90.0
 51
180.0
  0
LINE
  5
5F5
330
1F
100
AcDbEntity
  8
LC-002-100-D00-0
 62
     7
370
    50
100
AcDbLine
 10
-188.904372
 20
464.226364
 30
0.0
 11
-173.154372
 21
464.226364
 31
0.0
  0
ARC
  5
5F6
330
1F
100
AcDbEntity
  8
LC-002-100-D00-0
 62
     7
370
    50
100
AcDbCircle
 10
-173.154372
 20
458.726365
 30
0.0
 40
5.500000000000028
100
AcDbArc
 50
0.0
 51
90.0
  0
LINE
  5
5F7
330
1F
100
AcDbEntity
  8
LC-002-100-D00-0
 62
     7
370
    50
100
AcDbLine
 10
-167.654372
 20
458.726364
 30
0.0
 11
-167.654372
 21
423.726365
 31
0.0
  0
LINE
  5
5F8
330
1F
100
AcDbEntity
  8
LC-002-100-D00-0
 62
     7
370
    50
100
AcDbLine
 10
-167.654372
 20
423.726365
 30
0.0
 11
-169.154372
 21
423.726365
 31
0.0
  0
LINE
  5
5F9
330
1F
100
AcDbEntity
  8
LC-002-100-D00-0
 62
     7
370
    50
100
AcDbLine
 10
-169.154372
 20
458.726364
 30
0.0
 11
-169.154372
 21
423.726365
 31
0.0
  0
ARC
  5
5FA
330
1F
100
AcDbEntity
  8
LC-002-100-D00-0
 62
     7
370
    50
100
AcDbCircle
 10
-173.154372
 20
458.726365
 30
0.0
 40
4.000000000000057
100
AcDbArc
 50
0.0
 51
90.0
  0
LINE
  5
5FB
330
1F
100
AcDbEntity
  8
LC-002-100-D00-0
 62
     7
370
    50
100
AcDbLine
 10
-188.904372
 20
462.726365
 30
0.0
 11
-173.154372
 21
462.726365
 31
0.0
  0
ARC
  5
5FC
330
1F
100
AcDbEntity
  8
LC-002-100-D00-0
 62
     7
370
    50
100
AcDbCircle
 10
-188.904372
 20
458.726365
 30
0.0
 40
4.0
100
AcDbArc
 50
90.0
 51
180.0
  0
LINE
  5
5FD
330
1F
100
AcDbEntity
  8
LC-002-100-D00-0
 62
     7
370
    50
100
AcDbLine
 10
-192.904373
 20
458.726364
 30
0.0
 11
-192.904373
 21
447.726365
 31
0.0
  0
LINE
  5
5FE
330
1F
100
AcDbEntity
  8
LC-002-100-D00-0
 62
     7
370
    50
100
AcDbLine
 10
-192.904373
 20
447.726365
 30
0.0
 11
-198.404373
 21
447.726365
 31
0.0
  0
LINE
  5
5FF
330
1F
100
AcDbEntity
  8
LC-002-100-D00-0
 62
     7
370
    50
100
AcDbLine
 10
-198.404373
 20
449.226365
 30
0.0
 11
-198.404373
 21
447.726365
 31
0.0
  0
LINE
  5
600
330
1F
100
AcDbEntity
  8
LC-002-100-D00-0
 62
     7
370
    50
100
AcDbLine
 10
-196.104373
 20
449.226365
 30
0.0
 11
-198.404373
 21
449.226365
 31
0.0
  0
LINE
  5
601
330
1F
100
AcDbEntity
  8
LC-002-100-D00-0
 62
     7
370
    50
100
AcDbLine
 10
-196.104373
 20
452.726365
 30
0.0
 11
-196.104373
 21
449.226365
 31
0.0
  0
LINE
  5
602
330
1F
100
AcDbEntity
  8
LC-002-100-D00-0
 62
     7
370
    50
100
AcDbLine
 10
-150.404372
 20
447.726365
 30
0.0
 11
-150.404372
 21
449.226365
 31
0.0
  0
LINE
  5
603
330
1F
100
AcDbEntity
  8
LC-002-100-D00-0
 62
     7
370
    50
100
AcDbLine
 10
-150.404372
 20
447.726365
 30
0.0
 11
-154.404373
 21
447.726365
 31
0.0
  0
LINE
  5
604
330
1F
100
AcDbEntity
  8
LC-002-100-D00-0
 62
     7
370
    50
100
AcDbLine
 10
-154.404373
 20
423.726365
 30
0.0
 11
-154.404373
 21
447.726365
 31
0.0
  0
LINE
  5
605
330
1F
100
AcDbEntity
  8
LC-002-100-D00-0
 62
     7
370
    50
100
AcDbLine
 10
-154.404373
 20
423.726365
 30
0.0
 11
-155.904372
 21
423.726365
 31
0.0
  0
LINE
  5
606
330
1F
100
AcDbEntity
  8
LC-002-100-D00-0
 62
     7
370
    50
100
AcDbLine
 10
-155.904372
 20
423.726365
 30
0.0
 11
-155.904372
 21
453.226364
 31
0.0
  0
ARC
  5
607
330
1F
100
AcDbEntity
  8
LC-002-100-D00-0
 62
     7
370
    50
100
AcDbCircle
 10
-154.904372
 20
453.226365
 30
0.0
 40
0.9999999999998863
100
AcDbArc
 50
90.0
 51
180.0
  0
LINE
  5
608
330
1F
100
AcDbEntity
  8
LC-002-100-D00-0
 62
     7
370
    50
100
AcDbLine
 10
-150.404372
 20
454.226364
 30
0.0
 11
-154.904372
 21
454.226364
 31
0.0
  0
LINE
  5
609
330
1F
100
AcDbEntity
  8
LC-002-100-D00-0
 62
     7
370
    50
100
AcDbLine
 10
-150.404372
 20
454.226364
 30
0.0
 11
-150.404372
 21
452.726365
 31
0.0
  0
LINE
  5
60A
330
1F
100
AcDbEntity
  8
LC-002-100-D00-0
 62
     7
370
    50
100
AcDbLine
 10
-150.404372
 20
452.726365
 30
0.0
 11
-152.704372
 21
452.726365
 31
0.0
  0
LINE
  5
60B
330
1F
100
AcDbEntity
  8
LC-002-100-D00-0
 62
     7
370
    50
100
AcDbLine
 10
-152.704372
 20
449.226365
 30
0.0
 11
-152.704372
 21
452.726365
 31
0.0
  0
LINE
  5
60C
330
1F
100
AcDbEntity
  8
LC-002-100-D00-0
 62
     7
370
    50
100
AcDbLine
 10
-150.404372
 20
449.226365
 30
0.0
 11
-152.704372
 21
449.226365
 31
0.0
  0
LINE
  5
60D
330
1F
100
AcDbEntity
  8
LC-002-100-D00-0
 62
     7
370
    50
100
AcDbLine
 10
-167.673035
 20
454.226364
 30
0.0
 11
-154.904372
 21
454.226364
 31
0.0
  0
LINE
  5
60E
330
1F
100
AcDbEntity
  8
LC-002-100-D00-0
 62
     7
370
    50
100
AcDbLine
 10
-192.904373
 20
447.726365
 30
0.0
 11
-182.029372
 21
447.726365
 31
0.0
  0
LINE
  5
60F
330
1F
100
AcDbEntity
  8
LC-002-100-D00-0
 62
     7
370
    50
100
AcDbLine
 10
-180.029373
 20
447.726365
 30
0.0
 11
-169.911515
 21
447.726365
 31
0.0
  0
LINE
  5
610
330
1F
100
AcDbEntity
  8
LC-002-100-D00-0
 62
     7
370
    50
100
AcDbLine
 10
-167.654372
 20
423.726365
 30
0.0
 11
-155.904372
 21
423.726365
 31
0.0
  0
LINE
  5
611
330
1F
100
AcDbEntity
  8
LC-002-100-D00-0
 62
     7
370
    50
100
AcDbLine
 10
-169.154372
 20
447.726365
 30
0.0
 11
-169.911515
 21
447.726365
 31
0.0
  0
ARC
  5
612
330
1F
100
AcDbEntity
  8
LC-002-100-D00-0
 62
     7
370
    50
100
AcDbCircle
 10
-149.341315
 20
451.269918
 30
0.0
 40
0.3000000000000115
100
AcDbArc
 50
131.633539
 51
282.528808
  0
LINE
  5
613
330
1F
100
AcDbEntity
  8
LC-002-100-D00-0
 62
     7
370
    50
100
AcDbLine
 10
-149.540625
 20
451.494142
 30
0.0
 11
-146.188538
 21
454.473774
 31
0.0
  0
ARC
  5
614
330
1F
100
AcDbEntity
  8
LC-002-100-D00-0
 62
     7
370
    50
100
AcDbCircle
 10
-145.524173
 20
453.726365
 30
0.0
 40
1.0
100
AcDbArc
 50
90.0
 51
131.633539
  0
LINE
  5
615
330
1F
100
AcDbEntity
  8
LC-002-100-D00-0
 62
     7
370
    50
100
AcDbLine
 10
-145.524173
 20
454.726365
 30
0.0
 11
-142.904372
 21
454.726365
 31
0.0
  0
LINE
  5
616
330
1F
100
AcDbEntity
  8
LC-002-100-D00-0
 62
     7
370
    50
100
AcDbLine
 10
-142.904372
 20
454.726365
 30
0.0
 11
-142.904372
 21
450.726365
 31
0.0
  0
LINE
  5
617
330
1F
100
AcDbEntity
  8
LC-002-100-D00-0
 62
     7
370
    50
100
AcDbLine
 10
-145.904372
 20
450.726365
 30
0.0
 11
-142.904372
 21
450.726365
 31
0.0
  0
LINE
  5
618
330
1F
100
AcDbEntity
  8
LC-002-100-D00-0
 62
     7
370
    50
100
AcDbLine
 10
-145.904372
 20
450.726365
 30
0.0
 11
-145.904372
 21
451.352379
 31
0.0
  0
ARC
  5
619
330
1F
100
AcDbEntity
  8
LC-002-100-D00-0
 62
     7
370
    50
100
AcDbCircle
 10
-146.204372
 20
451.35238
 30
0.0
 40
0.3000000000000114
100
AcDbArc
 50
0.0
 51
102.528808
  0
LINE
  5
61A
330
1F
100
AcDbEntity
  8
LC-002-100-D00-0
 62
     7
370
    50
100
AcDbLine
 10
-146.269451
 20
451.645236
 30
0.0
 11
-149.276237
 21
450.977062
 31
0.0
  0
LINE
  5
61B
330
1F
100
AcDbEntity
  8
LC-002-100-D00-0
 62
     7
370
    50
100
AcDbLine
 10
-202.904372
 20
451.352379
 30
0.0
 11
-202.904372
 21
450.726365
 31
0.0
  0
LINE
  5
61C
330
1F
100
AcDbEntity
  8
LC-002-100-D00-0
 62
     7
370
    50
100
AcDbLine
 10
-205.904373
 20
450.726365
 30
0.0
 11
-205.904373
 21
454.726365
 31
0.0
  0
ARC
  5
61D
330
1F
100
AcDbEntity
  8
LC-002-100-D00-0
 62
     7
370
    50
100
AcDbCircle
 10
-203.284572
 20
453.726365
 30
0.0
 40
1.000000000000023
100
AcDbArc
 50
48.366461
 51
90.0
  0
LINE
  5
61E
330
1F
100
AcDbEntity
  8
LC-002-100-D00-0
 62
     7
370
    50
100
AcDbLine
 10
-199.26812
 20
451.494142
 30
0.0
 11
-202.620207
 21
454.473774
 31
0.0
  0
ARC
  5
61F
330
1F
100
AcDbEntity
  8
LC-002-100-D00-0
 62
     7
370
    50
100
AcDbCircle
 10
-199.467429
 20
451.269918
 30
0.0
 40
0.3000000000001464
100
AcDbArc
 50
257.471192
 51
48.366461
  0
LINE
  5
620
330
1F
100
AcDbEntity
  8
LC-002-100-D00-0
 62
     7
370
    50
100
AcDbLine
 10
-202.539294
 20
451.645236
 30
0.0
 11
-199.532508
 21
450.977062
 31
0.0
  0
ARC
  5
621
330
1F
100
AcDbEntity
  8
LC-002-100-D00-0
 62
     7
370
    50
100
AcDbCircle
 10
-202.604372
 20
451.35238
 30
0.0
 40
0.3000000000001464
100
AcDbArc
 50
77.471192
 51
180.0
  0
LINE
  5
622
330
1F
100
AcDbEntity
  8
LC-002-100-D00-0
 62
     7
370
    50
100
AcDbLine
 10
-205.904373
 20
450.726365
 30
0.0
 11
-202.904372
 21
450.726365
 31
0.0
  0
LINE
  5
623
330
1F
100
AcDbEntity
  8
LC-002-100-D00-0
 62
     7
370
    50
100
AcDbLine
 10
-205.904373
 20
454.726365
 30
0.0
 11
-203.284572
 21
454.726365
 31
0.0
  0
LINE
  5
624
330
1F
100
AcDbEntity
  8
LC-002-100-D00-0
 62
     7
370
    50
100
AcDbLine
 10
-146.404372
 20
450.726365
 30
0.0
 11
-148.104372
 21
450.726365
 31
0.0
  0
LINE
  5
625
330
1F
100
AcDbEntity
  8
LC-002-100-D00-0
 62
     7
370
    50
100
AcDbLine
 10
-200.704372
 20
450.726365
 30
0.0
 11
-202.404373
 21
450.726365
 31
0.0
  0
LINE
  5
626
330
1F
100
AcDbEntity
  8
LC-002-100-D00-0
 62
     7
370
    50
100
AcDbLine
 10
-146.404372
 20
447.726365
 30
0.0
 11
-146.404372
 21
450.726365
 31
0.0
  0
LINE
  5
627
330
1F
100
AcDbEntity
  8
LC-002-100-D00-0
 62
     7
370
    50
100
AcDbLine
 10
-146.404372
 20
450.726365
 30
0.0
 11
-143.404373
 21
450.726365
 31
0.0
  0
LINE
  5
628
330
1F
100
AcDbEntity
  8
LC-002-100-D00-0
 62
     7
370
    50
100
AcDbLine
 10
-143.404373
 20
454.726365
 30
0.0
 11
-143.404373
 21
450.726365
 31
0.0
  0
LINE
  5
629
330
1F
100
AcDbEntity
  8
LC-002-100-D00-0
 62
     7
370
    50
100
AcDbLine
 10
-143.404373
 20
454.726365
 30
0.0
 11
-138.404374
 21
454.726365
 31
0.0
  0
ARC
  5
62A
330
1F
100
AcDbEntity
  8
LC-002-100-D00-0
 62
     7
370
    50
100
AcDbCircle
 10
-138.404372
 20
455.726365
 30
0.0
 40
1.0
100
AcDbArc
 50
270.0
 51
0.0
  0
LINE
  5
62B
330
1F
100
AcDbEntity
  8
LC-002-100-D00-0
 62
     7
370
    50
100
AcDbLine
 10
-137.404372
 20
480.226365
 30
0.0
 11
-137.404372
 21
455.726366
 31
0.0
  0
LINE
  5
62C
330
1F
100
AcDbEntity
  8
LC-002-100-D00-0
 62
     7
370
    50
100
AcDbLine
 10
-134.404373
 20
480.226365
 30
0.0
 11
-137.404372
 21
480.226365
 31
0.0
  0
LINE
  5
62D
330
1F
100
AcDbEntity
  8
LC-002-100-D00-0
 62
     7
370
    50
100
AcDbLine
 10
-134.404373
 20
480.226365
 30
0.0
 11
-134.404373
 21
450.226365
 31
0.0
  0
LINE
  5
62E
330
1F
100
AcDbEntity
  8
LC-002-100-D00-0
 62
     7
370
    50
100
AcDbLine
 10
-134.404373
 20
450.226365
 30
0.0
 11
-137.404372
 21
450.226365
 31
0.0
  0
LINE
  5
62F
330
1F
100
AcDbEntity
  8
LC-002-100-D00-0
 62
     7
370
    50
100
AcDbLine
 10
-137.404372
 20
450.226365
 30
0.0
 11
-137.404372
 21
451.726365
 31
0.0
  0
LINE
  5
630
330
1F
100
AcDbEntity
  8
LC-002-100-D00-0
 62
     7
370
    50
100
AcDbLine
 10
-137.404372
 20
451.726365
 30
0.0
 11
-140.404371
 21
451.726365
 31
0.0
  0
LINE
  5
631
330
1F
100
AcDbEntity
  8
LC-002-100-D00-0
 62
     7
370
    50
100
AcDbLine
 10
-140.404371
 20
447.726365
 30
0.0
 11
-140.404371
 21
451.726365
 31
0.0
  0
LINE
  5
632
330
1F
100
AcDbEntity
  8
LC-002-100-D00-0
 62
     7
370
    50
100
AcDbLine
 10
-140.404371
 20
447.726365
 30
0.0
 11
-146.404372
 21
447.726365
 31
0.0
  0
LINE
  5
633
330
1F
100
AcDbEntity
  8
LC-002-100-D00-0
 62
     7
370
    50
100
AcDbLine
 10
-211.404373
 20
451.726365
 30
0.0
 11
-211.404373
 21
450.226365
 31
0.0
  0
LINE
  5
634
330
1F
100
AcDbEntity
  8
LC-002-100-D00-0
 62
     7
370
    50
100
AcDbLine
 10
-211.404373
 20
450.226365
 30
0.0
 11
-214.404371
 21
450.226365
 31
0.0
  0
LINE
  5
635
330
1F
100
AcDbEntity
  8
LC-002-100-D00-0
 62
     7
370
    50
100
AcDbLine
 10
-214.404371
 20
450.226365
 30
0.0
 11
-214.404371
 21
480.226365
 31
0.0
  0
LINE
  5
636
330
1F
100
AcDbEntity
  8
LC-002-100-D00-0
 62
     7
370
    50
100
AcDbLine
 10
-211.404373
 20
480.226365
 30
0.0
 11
-214.404371
 21
480.226365
 31
0.0
  0
LINE
  5
637
330
1F
100
AcDbEntity
  8
LC-002-100-D00-0
 62
     7
370
    50
100
AcDbLine
 10
-211.404373
 20
455.726366
 30
0.0
 11
-211.404373
 21
480.226365
 31
0.0
  0
ARC
  5
638
330
1F
100
AcDbEntity
  8
LC-002-100-D00-0
 62
     7
370
    50
100
AcDbCircle
 10
-210.404372
 20
455.726365
 30
0.0
 40
1.0
100
AcDbArc
 50
180.0
 51
270.0
  0
LINE
  5
639
330
1F
100
AcDbEntity
  8
LC-002-100-D00-0
 62
     7
370
    50
100
AcDbLine
 10
-210.404371
 20
454.726365
 30
0.0
 11
-205.404372
 21
454.726365
 31
0.0
  0
LINE
  5
63A
330
1F
100
AcDbEntity
  8
LC-002-100-D00-0
 62
     7
370
    50
100
AcDbLine
 10
-205.404372
 20
450.726365
 30
0.0
 11
-205.404372
 21
454.726365
 31
0.0
  0
LINE
  5
63B
330
1F
100
AcDbEntity
  8
LC-002-100-D00-0
 62
     7
370
    50
100
AcDbLine
 10
-205.404372
 20
450.726365
 30
0.0
 11
-202.404373
 21
450.726365
 31
0.0
  0
LINE
  5
63C
330
1F
100
AcDbEntity
  8
LC-002-100-D00-0
 62
     7
370
    50
100
AcDbLine
 10
-202.404373
 20
450.726365
 30
0.0
 11
-202.404373
 21
447.726365
 31
0.0
  0
LINE
  5
63D
330
1F
100
AcDbEntity
  8
LC-002-100-D00-0
 62
     7
370
    50
100
AcDbLine
 10
-202.404373
 20
447.726365
 30
0.0
 11
-208.404374
 21
447.726365
 31
0.0
  0
LINE
  5
63E
330
1F
100
AcDbEntity
  8
LC-002-100-D00-0
 62
     7
370
    50
100
AcDbLine
 10
-208.404374
 20
451.726365
 30
0.0
 11
-208.404374
 21
447.726365
 31
0.0
  0
LINE
  5
63F
330
1F
100
AcDbEntity
  8
LC-002-100-D00-0
 62
     7
370
    50
100
AcDbLine
 10
-208.404374
 20
451.726365
 30
0.0
 11
-211.404373
 21
451.726365
 31
0.0
  0
LINE
  5
640
330
1F
100
AcDbEntity
  8
LC-002-100-D00-0
 62
     7
370
    50
100
AcDbLine
 10
-139.936288
 20
450.226365
 30
0.0
 11
-137.404372
 21
450.226365
 31
0.0
  0
LINE
  5
641
330
1F
100
AcDbEntity
  8
LC-002-100-D00-0
 62
     7
370
    50
100
AcDbLine
 10
-147.595861
 20
447.726365
 30
0.0
 11
-146.404372
 21
447.726365
 31
0.0
  0
LINE
  5
642
330
1F
100
AcDbEntity
  8
LC-002-100-D00-0
 62
     7
370
    50
100
AcDbLine
 10
-202.404373
 20
447.726365
 30
0.0
 11
-201.212884
 21
447.726365
 31
0.0
  0
LINE
  5
643
330
1F
100
AcDbEntity
  8
LC-002-100-D00-0
 62
     7
370
    50
100
AcDbLine
 10
-211.404373
 20
450.226365
 30
0.0
 11
-208.872457
 21
450.226365
 31
0.0
  0
LINE
  5
644
330
1F
100
AcDbEntity
  8
LC-002-100-D00-0
 62
     7
370
    50
100
AcDbLine
 10
-201.212884
 20
447.726365
 30
0.0
 11
-198.577843
 21
447.726365
 31
0.0
  0
LINE
  5
645
330
1F
100
AcDbEntity
  8
LC-002-100-D00-0
 62
     7
370
    50
100
AcDbLine
 10
-150.332373
 20
447.726365
 30
0.0
 11
-147.595861
 21
447.726365
 31
0.0
  0
INSERT
  5
653
330
1F
100
AcDbEntity
  8
LC-002-100-D00-0
 62
     7
370
    50
100
AcDbBlockReference
  2
POLY12
 10
0.0
 20
0.0
 30
0.0
  0
LINE
  5
654
330
1F
100
AcDbEntity
  8
LC-002-100-D00-0
 62
     7
370
    50
100
AcDbLine
 10
-208.872457
 20
450.226365
 30
0.0
 11
-208.404374
 21
450.226365
 31
0.0
  0
LINE
  5
655
330
1F
100
AcDbEntity
  8
LC-002-100-D00-0
 62
     7
370
    50
100
AcDbLine
 10
-140.404371
 20
450.226365
 30
0.0
 11
-139.936288
 21
450.226365
 31
0.0
  0
LINE
  5
656
330
1F
100
AcDbEntity
  8
LC-002-100-D00-0
 62
     7
370
    50
100
AcDbLine
 10
-280.404371
 20
416.782244
 30
0.0
 11
-205.287092
 21
416.782244
 31
0.0
  0
ARC
  5
657
330
1F
100
AcDbEntity
  8
LC-002-100-D00-0
 62
     7
370
    50
100
AcDbCircle
 10
-204.404372
 20
423.726365
 30
0.0
 40
7.00000000000002
100
AcDbArc
 50
262.755545
 51
270.0
  0
LINE
  5
658
330
1F
100
AcDbEntity
  8
LC-002-100-D00-0
 62
     7
370
    50
100
AcDbLine
 10
-204.404372
 20
416.726365
 30
0.0
 11
-183.553177
 21
416.726365
 31
0.0
  0
ARC
  5
659
330
1F
100
AcDbEntity
  8
LC-002-100-D00-0
 62
     7
370
    50
100
AcDbCircle
 10
-183.553177
 20
417.726365
 30
0.0
 40
1.0
100
AcDbArc
 50
270.0
 51
359.0
  0
LINE
  5
65A
330
1F
100
AcDbEntity
  8
LC-002-100-D00-0
 62
     7
370
    50
100
AcDbLine
 10
-182.553329
 20
417.708912
 30
0.0
 11
-182.029372
 21
447.726365
 31
0.0
  0
LINE
  5
65B
330
1F
100
AcDbEntity
  8
LC-002-100-D00-0
 62
     7
370
    50
100
AcDbLine
 10
-182.029372
 20
447.726365
 30
0.0
 11
-180.029373
 21
447.726365
 31
0.0
  0
LINE
  5
65C
330
1F
100
AcDbEntity
  8
LC-002-100-D00-0
 62
     7
370
    50
100
AcDbLine
 10
-180.029373
 20
447.726365
 30
0.0
 11
-179.505416
 21
417.708912
 31
0.0
  0
ARC
  5
65D
330
1F
100
AcDbEntity
  8
LC-002-100-D00-0
 62
     7
370
    50
100
AcDbCircle
 10
-178.505568
 20
417.726365
 30
0.0
 40
1.000000000000014
100
AcDbArc
 50
181.0
 51
270.0
  0
LINE
  5
65E
330
1F
100
AcDbEntity
  8
LC-002-100-D00-0
 62
     7
370
    50
100
AcDbLine
 10
-178.505568
 20
416.726365
 30
0.0
 11
-144.404373
 21
416.726365
 31
0.0
  0
ARC
  5
65F
330
1F
100
AcDbEntity
  8
LC-002-100-D00-0
 62
     7
370
    50
100
AcDbCircle
 10
-144.404372
 20
423.726365
 30
0.0
 40
7.0
100
AcDbArc
 50
270.0
 51
0.0
  0
LINE
  5
660
330
1F
100
AcDbEntity
  8
LC-002-100-D00-0
 62
     7
370
    50
100
AcDbLine
 10
-137.404372
 20
423.726365
 30
0.0
 11
-137.404372
 21
451.726365
 31
0.0
  0
LINE
  5
661
330
1F
100
AcDbEntity
  8
LC-002-100-D00-0
 62
     7
370
    50
100
AcDbLine
 10
-137.404372
 20
451.726365
 30
0.0
 11
-134.404373
 21
451.726365
 31
0.0
  0
LINE
  5
662
330
1F
100
AcDbEntity
  8
LC-002-100-D00-0
 62
     7
370
    50
100
AcDbLine
 10
-134.404373
 20
423.726365
 30
0.0
 11
-134.404373
 21
451.726365
 31
0.0
  0
ARC
  5
663
330
1F
100
AcDbEntity
  8
LC-002-100-D00-0
 62
     7
370
    50
100
AcDbCircle
 10
-144.404372
 20
423.726365
 30
0.0
 40
10.0
100
AcDbArc
 50
270.0
 51
0.0
  0
LINE
  5
664
330
1F
100
AcDbEntity
  8
LC-002-100-D00-0
 62
     7
370
    50
100
AcDbLine
 10
-204.404372
 20
413.726364
 30
0.0
 11
-144.404373
 21
413.726364
 31
0.0
  0
ARC
  5
665
330
1F
100
AcDbEntity
  8
LC-002-100-D00-0
 62
     7
370
    50
100
AcDbCircle
 10
-204.404372
 20
423.726365
 30
0.0
 40
10.0000000000001
100
AcDbArc
 50
264.316413
 51
270.0
  0
LINE
  5
666
330
1F
100
AcDbEntity
  8
LC-002-100-D00-0
 62
     7
370
    50
100
AcDbLine
 10
-277.404373
 20
413.775525
 30
0.0
 11
-205.39472
 21
413.775525
 31
0.0
  0
INSERT
  5
66C
330
1F
100
AcDbEntity
  8
LC-002-100-D00-0
 62
     7
370
    50
100
AcDbBlockReference
  2
KLON29
 10
0.0
 20
0.0
 30
0.0
  0
LINE
  5
66D
330
1F
100
AcDbEntity
  8
LC-002-100-D00-0
 62
     7
370
    50
100
AcDbLine
 10
-280.404371
 20
414.581009
 30
0.0
 11
-280.404371
 21
416.782244
 31
0.0
  0
LINE
  5
66E
330
1F
100
AcDbEntity
  8
LC-002-100-D00-0
 62
     7
370
    50
100
AcDbLine
 10
-277.404373
 20
413.775525
 30
0.0
 11
-277.404373
 21
413.726364
 31
0.0
  0
LINE
  5
66F
330
1F
100
AcDbEntity
  8
LC-002-100-D00-0
 62
     7
370
    50
100
AcDbLine
 10
-277.404373
 20
463.726365
 30
0.0
 11
-277.404373
 21
463.677204
 31
0.0
  0
LINE
  5
670
330
1F
100
AcDbEntity
  8
LC-002-100-D00-0
 62
     7
370
    50
100
AcDbLine
 10
-230.111447
 20
463.677204
 30
0.0
 11
-277.404373
 21
463.677204
 31
0.0
  0
LINE
  5
671
330
1F
100
AcDbEntity
  8
LC-002-100-D00-0
 62
     7
370
    50
100
AcDbLine
 10
-211.404373
 20
447.226365
 30
0.0
 11
-211.404373
 21
423.726365
 31
0.0
  0
INSERT
  5
685
330
1F
100
AcDbEntity
  8
LC-002-100-D00-0
 62
     7
370
    50
100
AcDbBlockReference
  2
POLY13
 10
0.0
 20
0.0
 30
0.0
  0
LINE
  5
686
330
1F
100
AcDbEntity
  8
LC-002-100-D00-0
 62
     7
370
    50
100
AcDbLine
 10
-280.404371
 20
460.670485
 30
0.0
 11
-280.404371
 21
416.782244
 31
0.0
  0
LINE
  5
687
330
1F
100
AcDbEntity
  8
LC-002-100-D00-0
 62
     7
370
    50
100
AcDbLine
 10
-230.10416
 20
460.670485
 30
0.0
 11
-280.404371
 21
460.670485
 31
0.0
  0
INSERT
  5
68D
330
1F
100
AcDbEntity
  8
LC-002-100-D00-0
 62
     7
370
    50
100
AcDbBlockReference
  2
KLON30
 10
0.0
 20
0.0
 30
0.0
  0
LINE
  5
68E
330
1F
100
AcDbEntity
  8
LC-002-100-D00-0
 62
     7
370
    50
100
AcDbLine
 10
-280.404371
 20
462.87172
 30
0.0
 11
-280.404371
 21
462.922516
 31
0.0
  0
LINE
  5
68F
330
1F
100
AcDbEntity
  8
LC-002-100-D00-0
 62
     7
370
    50
100
AcDbLine
 10
-280.404371
 20
414.530213
 30
0.0
 11
-280.404371
 21
414.581009
 31
0.0
  0
LINE
  5
690
330
1F
100
AcDbEntity
  8
LC-002-100-D00-0
 62
     7
370
    50
100
AcDbLine
 10
-214.404371
 20
450.226365
 30
0.0
 11
-218.878091
 21
450.226365
 31
0.0
  0
LINE
  5
691
330
1F
100
AcDbEntity
  8
LC-002-100-D00-0
 62
     7
370
    50
100
AcDbLine
 10
-214.404371
 20
451.726365
 30
0.0
 11
-214.404371
 21
450.226365
 31
0.0
  0
LINE
  5
692
330
1F
100
AcDbEntity
  8
LC-002-100-D00-0
 62
     7
370
    50
100
AcDbLine
 10
-211.404373
 20
451.726365
 30
0.0
 11
-211.404373
 21
447.226365
 31
0.0
  0
LINE
  5
693
330
1F
100
AcDbEntity
  8
LC-002-100-D00-0
 62
     7
370
    50
100
AcDbLine
 10
-211.404373
 20
447.226365
 30
0.0
 11
-218.878091
 21
447.226365
 31
0.0
  0
ARC
  5
694
330
1F
100
AcDbEntity
  8
LC-002-100-D00-0
 62
     7
370
    50
100
AcDbCircle
 10
-218.878093
 20
453.226365
 30
0.0
 40
5.999999999999969
100
AcDbArc
 50
210.0
 51
270.0
  0
LINE
  5
695
330
1F
100
AcDbEntity
  8
LC-002-100-D00-0
 62
     7
370
    50
100
AcDbLine
 10
-224.074245
 20
450.226365
 30
0.0
 11
-230.10416
 21
460.670485
 31
0.0
  0
INSERT
  5
6A3
330
1F
100
AcDbEntity
  8
LC-002-100-D00-0
 62
     7
370
    50
100
AcDbBlockReference
  2
POLY14
 10
0.0
 20
0.0
 30
0.0
  0
LINE
  5
6A4
330
1F
100
AcDbEntity
  8
LC-002-100-D00-0
 62
     7
370
    50
100
AcDbLine
 10
-221.476168
 20
451.726365
 30
0.0
 11
-227.506083
 21
462.170485
 31
0.0
  0
ARC
  5
6A5
330
1F
100
AcDbEntity
  8
LC-002-100-D00-0
 62
     7
370
    50
100
AcDbCircle
 10
-218.878093
 20
453.226365
 30
0.0
 40
2.99999999999996
100
AcDbArc
 50
210.0
 51
270.0
  0
LINE
  5
6A6
330
1F
100
AcDbEntity
  8
LC-002-100-D00-0
 62
     7
370
    50
100
AcDbLine
 10
-280.404371
 20
460.670485
 30
0.0
 11
-280.404371
 21
462.87172
 31
0.0
  0
LINE
  5
6A7
330
1F
100
AcDbEntity
  8
LC-002-100-D00-0
 62
     7
370
    50
100
AcDbLine
 10
-214.404371
 20
451.726365
 30
0.0
 11
-211.404373
 21
451.726365
 31
0.0
  0
ARC
  5
6A8
330
1F
100
AcDbEntity
  8
LC-002-100-D00-0
 62
     7
370
    50
100
AcDbCircle
 10
-230.136423
 20
460.726365
 30
0.0
 40
2.999999999999903
100
AcDbArc
 50
30.0
 51
90.0
  0
LINE
  5
6A9
330
1F
100
AcDbEntity
  8
LC-002-100-D00-0
 62
     7
370
    50
100
AcDbLine
 10
-161.154373
 20
481.726364
 30
0.0
 11
-157.154373
 21
481.726364
 31
0.0
  0
ARC
  5
6AA
330
1F
100
AcDbEntity
  8
LC-002-100-D00-0
 62
     7
370
    50
100
AcDbCircle
 10
-157.154372
 20
480.726365
 30
0.0
 40
1.000000000000114
100
AcDbArc
 50
0.0
 51
90.0
  0
LINE
  5
6AB
330
1F
100
AcDbEntity
  8
LC-002-100-D00-0
 62
     7
370
    50
100
AcDbLine
 10
-156.154373
 20
474.726365
 30
0.0
 11
-161.154373
 21
474.726365
 31
0.0
  0
LINE
  5
6AC
330
1F
100
AcDbEntity
  8
LC-002-100-D00-0
 62
     7
370
    50
100
AcDbLine
 10
-156.154373
 20
480.726366
 30
0.0
 11
-156.154373
 21
474.726365
 31
0.0
  0
LINE
  5
6AD
330
1F
100
AcDbEntity
  8
LC-002-100-D00-0
 62
     7
370
    50
100
AcDbLine
 10
-187.654372
 20
481.726364
 30
0.0
 11
-161.154373
 21
481.726364
 31
0.0
  0
LINE
  5
6AE
330
1F
100
AcDbEntity
  8
LC-002-100-D00-0
 62
     7
370
    50
100
AcDbLine
 10
-161.154373
 20
474.726365
 30
0.0
 11
-187.654372
 21
474.726365
 31
0.0
  0
LINE
  5
6AF
330
1F
100
AcDbEntity
  8
LC-002-100-D00-0
 62
     7
370
    50
100
AcDbLine
 10
-191.654372
 20
481.726364
 30
0.0
 11
-187.654372
 21
481.726364
 31
0.0
  0
ARC
  5
6B0
330
1F
100
AcDbEntity
  8
LC-002-100-D00-0
 62
     7
370
    50
100
AcDbCircle
 10
-191.654372
 20
480.726365
 30
0.0
 40
1.0
100
AcDbArc
 50
90.0
 51
180.0
  0
LINE
  5
6B1
330
1F
100
AcDbEntity
  8
LC-002-100-D00-0
 62
     7
370
    50
100
AcDbLine
 10
-192.654372
 20
474.726365
 30
0.0
 11
-192.654372
 21
480.726366
 31
0.0
  0
LINE
  5
6B2
330
1F
100
AcDbEntity
  8
LC-002-100-D00-0
 62
     7
370
    50
100
AcDbLine
 10
-187.654372
 20
474.726365
 30
0.0
 11
-192.654372
 21
474.726365
 31
0.0
  0
LINE
  5
6B3
330
1F
100
AcDbEntity
  8
LC-002-100-D00-0
 62
     7
370
    50
100
AcDbLine
 10
-165.654372
 20
462.726365
 30
0.0
 11
-169.379455
 21
462.726365
 31
0.0
  0
INSERT
  5
6D5
330
1F
100
AcDbEntity
  8
LC-002-100-D00-0
 62
     7
370
    50
100
AcDbBlockReference
  2
POLY15
 10
0.0
 20
0.0
 30
0.0
  0
LINE
  5
6D6
330
1F
100
AcDbEntity
  8
LC-002-100-D00-0
 62
     7
370
    50
100
AcDbLine
 10
-236.966652
 20
352.226363
 30
0.0
 11
-248.404373
 21
352.226363
 31
0.0
  0
LINE
  5
6D7
330
1F
100
AcDbEntity
  8
LC-002-100-D00-0
 62
     7
370
    50
100
AcDbLine
 10
-229.404372
 20
352.226363
 30
0.0
 11
-236.966652
 21
352.226363
 31
0.0
  0
LINE
  5
6D8
330
1F
100
AcDbEntity
  8
LC-002-100-D00-0
 62
     7
370
    50
100
AcDbLine
 10
-248.904374
 20
375.226365
 30
0.0
 11
-228.904371
 21
375.226365
 31
0.0
  0
LINE
  5
6D9
330
1F
100
AcDbEntity
  8
LC-002-100-D00-0
 62
     7
370
    50
100
AcDbLine
 10
-248.904374
 20
371.726365
 30
0.0
 11
-228.904371
 21
371.726365
 31
0.0
  0
LINE
  5
6DA
330
1F
100
AcDbEntity
  8
LC-002-100-D00-0
 62
     7
370
    50
100
AcDbLine
 10
-236.864668
 20
361.226366
 30
0.0
 11
-228.904371
 21
361.226366
 31
0.0
  0
LINE
  5
6DB
330
1F
100
AcDbEntity
  8
LC-002-100-D00-0
 62
     7
370
    50
100
AcDbLine
 10
-248.904374
 20
361.226366
 30
0.0
 11
-236.864668
 21
361.226366
 31
0.0
  0
LINE
  5
6DC
330
1F
100
AcDbEntity
  8
LC-002-100-D00-0
 62
     7
370
    50
100
AcDbLine
 10
-237.068635
 20
360.226364
 30
0.0
 11
-247.904372
 21
360.226364
 31
0.0
  0
LINE
  5
6DD
330
1F
100
AcDbEntity
  8
LC-002-100-D00-0
 62
     7
370
    50
100
AcDbLine
 10
-229.904373
 20
360.226364
 30
0.0
 11
-237.068635
 21
360.226364
 31
0.0
  0
INSERT
  5
6E5
330
1F
100
AcDbEntity
  8
LC-002-100-D00-0
 62
     7
370
    25
100
AcDbBlockReference
  2
KLON31
 10
0.0
 20
0.0
 30
0.0
  0
INSERT
  5
6F2
330
1F
100
AcDbEntity
  8
LC-002-100-D00-0
 62
     7
370
    25
100
AcDbBlockReference
  2
KLON32
 10
0.0
 20
0.0
 30
0.0
  0
INSERT
  5
6F8
330
1F
100
AcDbEntity
  8
LC-002-100-D00-0
 62
     7
370
    25
100
AcDbBlockReference
  2
KLON33
 10
0.0
 20
0.0
 30
0.0
  0
INSERT
  5
6FE
330
1F
100
AcDbEntity
  8
LC-002-100-D00-0
 62
     7
370
    25
100
AcDbBlockReference
  2
KLON34
 10
0.0
 20
0.0
 30
0.0
  0
LINE
  5
6FF
330
1F
100
AcDbEntity
  8
LC-002-100-D00-0
 62
     7
370
    25
100
AcDbLine
 10
-201.461357
 20
451.405695
 30
0.0
 11
-200.382421
 21
452.484631
 31
0.0
  0
INSERT
  5
707
330
1F
100
AcDbEntity
  8
LC-002-100-D00-0
 62
     7
370
    25
100
AcDbBlockReference
  2
KLON35
 10
0.0
 20
0.0
 30
0.0
  0
INSERT
  5
70D
330
1F
100
AcDbEntity
  8
LC-002-100-D00-0
 62
     7
370
    25
100
AcDbBlockReference
  2
KLON36
 10
0.0
 20
0.0
 30
0.0
  0
INSERT
  5
714
330
1F
100
AcDbEntity
  8
LC-002-100-D00-0
 62
     7
370
    25
100
AcDbBlockReference
  2
KLON37
 10
0.0
 20
0.0
 30
0.0
  0
INSERT
  5
71C
330
1F
100
AcDbEntity
  8
LC-002-100-D00-0
 62
     7
370
    25
100
AcDbBlockReference
  2
KLON38
 10
0.0
 20
0.0
 30
0.0
  0
DIMENSION
  5
71D
330
1F
100
AcDbEntity
  8
LC-002-100-D00-0
 62
     7
370
    25
100
AcDbDimension
  2
*D62
 10
-96.001776
 20
447.726365
 30
0.0
 11
-151.001776
 21
388.918365
 31
0.0
 70
   160
  1
24
 71
     5
 42
24.0
 53
90.0
  3
LC-DIM-L-0100-02-02
100
AcDbAlignedDimension
 13
-154.404372
 23
423.726365
 33
0.0
 14
-169.911515
 24
447.726365
 34
0.0
 50
90.0
100
AcDbRotatedDimension
  0
DIMENSION
  5
72B
330
1F
100
AcDbEntity
  8
LC-002-100-D00-0
 62
     7
370
    25
100
AcDbDimension
  2
*D63
 10
-338.603933
 20
413.775525
 30
0.0
 11
-393.603933
 21
528.434875
 31
0.0
 70
   160
  1
DN50
 71
     5
 42
49.90168
 53
90.0
  3
LC-DIM-L-0100-02-02
100
AcDbAlignedDimension
 13
-277.404372
 23
463.677205
 33
0.0
 14
-277.404372
 24
413.775525
 34
0.0
 50
90.0
100
AcDbRotatedDimension
  0
DIMENSION
  5
73A
330
1F
100
AcDbEntity
  8
LC-002-100-D00-0
 62
     7
370
    25
100
AcDbDimension
  2
*D64
 10
-461.065024
 20
352.226365
 30
0.0
 11
-516.065024
 21
448.244875
 31
0.0
 70
   160
  1
68-129,5
 71
     5
 42
129.5
 53
90.0
  3
LC-DIM-L-0100-01-02
100
AcDbAlignedDimension
 13
-251.904372
 23
481.726365
 33
0.0
 14
-248.404372
 24
352.226365
 34
0.0
 50
90.0
100
AcDbRotatedDimension
  0
LINE
  5
747
330
1F
100
AcDbEntity
  8
LC-002-100-D00-0
  6
DASHDOT
 62
     7
370
    25
100
AcDbLine
 10
-290.404372
 20
438.726365
 30
0.0
 11
-207.695627
 21
438.726365
 31
0.0
  0
LINE
  5
748
330
1F
100
AcDbEntity
  8
LC-002-100-D00-0
  6
DASHDOT
 62
     7
370
    25
100
AcDbLine
 10
-174.404372
 20
481.726364
 30
0.0
 11
-174.404372
 21
413.726364
 31
0.0
  0
LINE
  5
749
330
1F
100
AcDbEntity
  8
LC-002-100-D00-0
  6
DASHDOT
 62
     7
370
    25
100
AcDbLine
 10
-239.009488
 20
352.226363
 30
0.0
 11
-239.009488
 21
413.726364
 31
0.0
  0
DIMENSION
  5
74B
330
1F
100
AcDbEntity
  8
LC-003-003-----0
 62
     7
370
    25
100
AcDbDimension
  2
*D65
 10
-174.404372
 20
264.104875
 30
0.0
 11
-373.212502
 21
319.104875
 31
0.0
 70
   160
 71
     5
 42
105.999999
  3
LC-DIM-L-0100-02-02
100
AcDbAlignedDimension
 13
-280.404371
 23
416.782244
 33
0.0
 14
-174.404372
 24
416.726365
 34
0.0
100
AcDbRotatedDimension
  0
DIMENSION
  5
759
330
1F
100
AcDbEntity
  8
LC-003-003-----0
 62
     7
370
    25
100
AcDbDimension
  2
*D66
 10
-134.404373
 20
177.974875
 30
0.0
 11
-210.818446
 21
232.974875
 31
0.0
 70
   160
 71
     5
 42
145.999998
  3
LC-DIM-L-0100-02-02
100
AcDbAlignedDimension
 13
-280.404371
 23
416.782244
 33
0.0
 14
-134.404373
 24
428.660117
 34
0.0
100
AcDbRotatedDimension
  0
LINE
  5
766
330
1F
100
AcDbEntity
  8
LC-002-100-D00-0
 62
     7
370
    50
100
AcDbLine
 10
404.719715
 20
25.210775
 30
0.0
 11
404.719715
 21
50.710774
 31
0.0
  0
LINE
  5
767
330
1F
100
AcDbEntity
  8
LC-002-100-D00-0
 62
     7
370
    50
100
AcDbLine
 10
354.719714
 20
50.710774
 30
0.0
 11
354.719714
 21
25.210775
 31
0.0
  0
LINE
  5
768
330
1F
100
AcDbEntity
  8
LC-002-100-D00-0
 62
     7
370
    50
100
AcDbLine
 10
354.719714
 20
25.210775
 30
0.0
 11
355.523562
 21
22.210776
 31
0.0
  0
LINE
  5
769
330
1F
100
AcDbEntity
  8
LC-002-100-D00-0
 62
     7
370
    50
100
AcDbLine
 10
403.915866
 20
22.210776
 30
0.0
 11
404.719715
 21
25.210775
 31
0.0
  0
LINE
  5
76A
330
1F
100
AcDbEntity
  8
LC-002-100-D00-0
 62
     7
370
    50
100
AcDbLine
 10
354.719714
 20
25.210775
 30
0.0
 11
404.719715
 21
25.210775
 31
0.0
  0
LINE
  5
76B
330
1F
100
AcDbEntity
  8
LC-002-100-D00-0
 62
     7
370
    50
100
AcDbLine
 10
403.915866
 20
22.210776
 30
0.0
 11
355.523562
 21
22.210776
 31
0.0
  0
ENDSEC
  0
SECTION
  2
OBJECTS
  0
DICTIONARY
  5
C
330
0
100
AcDbDictionary
281
     1
  3
ACAD_GROUP
350
D
  3
ACAD_LAYOUT
350
1A
  3
ACAD_MLINESTYLE
350
17
  3
ACAD_PLOTSETTINGS
350
19
  3
ACAD_PLOTSTYLENAME
350
E
  0
DICTIONARY
  5
D
102
{ACAD_REACTORS
330
C
102
}
330
C
100
AcDbDictionary
281
     1
  3
LCGROUP1356
350
76C
  0
DICTIONARY
  5
1A
102
{ACAD_REACTORS
330
C
102
}
330
C
100
AcDbDictionary
281
     1
  3
Layout1
350
1E
  3
Layout2
350
26
  3
Model
350
22
  0
DICTIONARY
  5
17
102
{ACAD_REACTORS
330
C
102
}
330
C
100
AcDbDictionary
281
     1
  3
Standard
350
18
  0
DICTIONARY
  5
19
102
{ACAD_REACTORS
330
C
102
}
330
C
100
AcDbDictionary
281
     1
  0
ACDBDICTIONARYWDFLT
  5
E
102
{ACAD_REACTORS
330
C
102
}
330
C
100
AcDbDictionary
281
     1
  3
Normal
350
F
100
AcDbDictionaryWithDefault
340
F
  0
GROUP
  5
76C
102
{ACAD_REACTORS
330
D
102
}
330
D
100
AcDbGroup
300
Gehäuse
 70
     1
 71
     1
340
410
340
411
340
412
340
413
340
414
340
415
340
416
340
417
340
418
340
419
340
41A
340
41B
340
41C
340
41D
340
41E
340
41F
340
420
340
421
340
422
340
423
340
424
340
425
340
426
340
427
340
428
340
429
340
42A
340
42B
340
42C
340
42D
340
42E
340
42F
340
430
340
431
340
432
340
433
340
434
340
435
340
436
340
437
340
438
340
439
340
43A
340
43B
340
43C
340
43D
340
43E
340
43F
340
440
340
441
340
442
340
443
340
444
340
445
340
446
340
447
340
448
340
449
340
44A
340
44B
340
44C
340
44D
340
44E
340
44F
340
450
340
451
340
452
340
453
340
454
340
455
340
456
340
457
340
458
340
459
340
45A
340
45B
340
45C
340
45D
340
45E
340
45F
340
460
340
461
340
462
340
463
340
464
340
465
340
466
340
467
340
468
340
469
340
46A
340
46B
340
46C
340
46D
340
46E
340
46F
340
470
340
471
340
472
340
473
340
474
340
475
340
476
340
477
340
478
340
479
340
47A
340
47B
340
488
340
489
340
495
340
496
340
4A3
  0
LAYOUT
  5
1E
102
{ACAD_REACTORS
330
1A
102
}
330
1A
100
AcDbPlotSettings
  1

  2

  4

  6

 40
0.0
 41
0.0
 42
0.0
 43
0.0
 44
0.0
 45
0.0
 46
0.0
 47
0.0
 48
0.0
 49
0.0
140
0.0
141
0.0
142
1.0
143
1.0
 70
   688
 72
     0
 73
     0
 74
     5
  7

 75
    16
147
1.0
148
0.0
149
0.0
100
AcDbLayout
  1
Layout1
 70
     1
 71
     1
 10
-848.177813
 20
-597.195125
 11
1251.822187
 21
887.804875
 12
0.0
 22
0.0
 32
0.0
 14
-848.177813
 24
-597.195125
 34
0.0
 15
1251.822187
 25
887.804875
 35
0.0
146
0.0
 13
0.0
 23
0.0
 33
0.0
 16
1.0
 26
0.0
 36
0.0
 17
0.0
 27
1.0
 37
0.0
 76
     0
330
1B
  0
LAYOUT
  5
26
102
{ACAD_REACTORS
330
1A
102
}
330
1A
100
AcDbPlotSettings
  1

  2

  4

  6

 40
0.0
 41
0.0
 42
0.0
 43
0.0
 44
0.0
 45
0.0
 46
0.0
 47
0.0
 48
0.0
 49
0.0
140
0.0
141
0.0
142
1.0
143
1.0
 70
   688
 72
     0
 73
     0
 74
     5
  7

 75
    16
147
1.0
148
0.0
149
0.0
100
AcDbLayout
  1
Layout2
 70
     1
 71
     2
 10
0.0
 20
0.0
 11
0.0
 21
0.0
 12
0.0
 22
0.0
 32
0.0
 14
0.0
 24
0.0
 34
0.0
 15
0.0
 25
0.0
 35
0.0
146
0.0
 13
0.0
 23
0.0
 33
0.0
 16
1.0
 26
0.0
 36
0.0
 17
0.0
 27
1.0
 37
0.0
 76
     0
330
23
  0
LAYOUT
  5
22
102
{ACAD_REACTORS
330
1A
102
}
330
1A
100
AcDbPlotSettings
  1

  2

  4

  6

 40
0.0
 41
0.0
 42
0.0
 43
0.0
 44
0.0
 45
0.0
 46
0.0
 47
0.0
 48
0.0
 49
0.0
140
0.0
141
0.0
142
1.0
143
1.0
 70
  1776
 72
     0
 73
     0
 74
     0
  7

 75
     0
147
1.0
148
0.0
149
0.0
100
AcDbLayout
  1
Model
 70
     1
 71
     0
 10
-848.177813
 20
-597.195125
 11
1251.822187
 21
887.804875
 12
0.0
 22
0.0
 32
0.0
 14
-848.177813
 24
-597.195125
 34
0.0
 15
1251.822187
 25
887.804875
 35
0.0
146
0.0
 13
0.0
 23
0.0
 33
0.0
 16
1.0
 26
0.0
 36
0.0
 17
0.0
 27
1.0
 37
0.0
 76
     0
330
1F
  0
MLINESTYLE
  5
18
102
{ACAD_REACTORS
330
17
102
}
330
17
100
AcDbMlineStyle
  2
Standard
 70
     0
  3

 62
   256
 51
90.0
 52
90.0
 71
     2
 49
0.5
 62
   256
  6
BYLAYER
 49
-0.5
 62
   256
  6
BYLAYER
  0
ACDBPLACEHOLDER
  5
F
102
{ACAD_REACTORS
330
E
102
}
330
E
  0
ENDSEC
  0
EOF
